  0
SECTION
  2
HEADER
  9
$ACADVER
  1
AC1009
  9
$INSBASE
 10
0.0
 20
0.0
 30
0.0
  9
$EXTMIN
 10
-123.0
 20
-87.0
 30
0.0
  9
$EXTMAX
 10
717.0
 20
507.0
 30
0.0
  9
$LIMMIN
 10
-123.0
 20
-87.0
  9
$LIMMAX
 10
717.0
 20
507.0
  9
$ORTHOMODE
 70
     0
  9
$REGENMODE
 70
     1
  9
$FILLMODE
 70
     1
  9
$QTEXTMODE
 70
     0
  9
$MIRRTEXT
 70
     1
  9
$DRAGMODE
 70
     2
  9
$LTSCALE
 40
2.0
  9
$OSMODE
 70
     0
  9
$ATTMODE
 70
     1
  9
$TEXTSIZE
 40
0.2
  9
$TRACEWID
 40
0.05
  9
$TEXTSTYLE
  7
STANDARD
  9
$CLAYER
  8
0
  9
$CELTYPE
  6
BYLAYER
  9
$CECOLOR
 62
     7
  9
$DIMSCALE
 40
2.0
  9
$DIMASZ
 40
3.5
  9
$DIMEXO
 40
0.0625
  9
$DIMDLI
 40
0.38
  9
$DIMRND
 40
0.0
  9
$DIMDLE
 40
0.0
  9
$DIMEXE
 40
0.18
  9
$DIMTP
 40
0.0
  9
$DIMTM
 40
0.0
  9
$DIMTXT
 40
3.5
  9
$DIMCEN
 40
0.09
  9
$DIMTSZ
 40
0.0
  9
$DIMTOL
 70
     0
  9
$DIMLIM
 70
     0
  9
$DIMTIH
 70
     1
  9
$DIMTOH
 70
     1
  9
$DIMSE1
 70
     0
  9
$DIMSE2
 70
     0
  9
$DIMTAD
 70
     1
  9
$DIMZIN
 70
     0
  9
$DIMBLK
  1

  9
$DIMASO
 70
     1
  9
$DIMSHO
 70
     1
  9
$DIMPOST
  1

  9
$DIMAPOST
  1

  9
$DIMALT
 70
     0
  9
$DIMALTD
 70
     2
  9
$DIMALTF
 40
25.4
  9
$DIMLFAC
 40
1.0
  9
$DIMTOFL
 70
     0
  9
$DIMTVP
 40
0.0
  9
$DIMTIX
 70
     0
  9
$DIMSOXD
 70
     0
  9
$DIMSAH
 70
     0
  9
$DIMBLK1
  1

  9
$DIMBLK2
  1

  9
$DIMSTYLE
  2
STANDARD
  9
$DIMCLRD
 70
     0
  9
$DIMCLRE
 70
     0
  9
$DIMCLRT
 70
     0
  9
$DIMTFAC
 40
1.0
  9
$DIMGAP
 40
0.09
  9
$LUNITS
 70
     2
  9
$LUPREC
 70
     2
  9
$AXISMODE
 70
     0
  9
$AXISUNIT
 10
0.0
 20
0.0
  9
$SKETCHINC
 40
0.1
  9
$FILLETRAD
 40
0.0
  9
$AUNITS
 70
     0
  9
$AUPREC
 70
     0
  9
$MENU
  1
acad
  9
$ELEVATION
 40
0.0
  9
$PELEVATION
 40
0.0
  9
$THICKNESS
 40
0.0
  9
$LIMCHECK
 70
     0
  9
$BLIPMODE
 70
     1
  9
$CHAMFERA
 40
0.0
  9
$CHAMFERB
 40
0.0
  9
$SKPOLY
 70
     0
  9
$TDCREATE
 40
0.000000000
  9
$TDUPDATE
 40
0.000000000
  9
$TDINDWG
 40
0.0000000000
  9
$TDUSRTIMER
 40
0.0000000000
  9
$USRTIMER
 70
     1
  9
$ANGBASE
 50
0.0
  9
$ANGDIR
 70
     0
  9
$PDMODE
 70
     0
  9
$PDSIZE
 40
0.0
  9
$PLINEWID
 40
0.0
  9
$COORDS
 70
     0
  9
$SPLFRAME
 70
     0
  9
$SPLINETYPE
 70
     6
  9
$SPLINESEGS
 70
     8
  9
$ATTDIA
 70
     0
  9
$ATTREQ
 70
     1
  9
$HANDLING
 70
     1
  9
$HANDSEED
  5
297
  9
$SURFTAB1
 70
     6
  9
$SURFTAB2
 70
     6
  9
$SURFTYPE
 70
     6
  9
$SURFU
 70
     6
  9
$SURFV
 70
     6
  9
$UCSNAME
  2

  9
$UCSORG
 10
0.0
 20
0.0
 30
0.0
  9
$UCSXDIR
 10
1.0
 20
0.0
 30
0.0
  9
$UCSYDIR
 10
0.0
 20
1.0
 30
0.0
  9
$PUCSNAME
  2

  9
$PUCSORG
 10
0.0
 20
0.0
 30
0.0
  9
$PUCSXDIR
 10
1.0
 20
0.0
 30
0.0
  9
$PUCSYDIR
 10
0.0
 20
1.0
 30
0.0
  9
$USERI1
 70
     0
  9
$USERI2
 70
     0
  9
$USERI3
 70
     0
  9
$USERI4
 70
     0
  9
$USERI5
 70
     0
  9
$USERR1
 40
0.0
  9
$USERR2
 40
0.0
  9
$USERR3
 40
0.0
  9
$USERR4
 40
0.0
  9
$USERR5
 40
0.0
  9
$WORLDVIEW
 70
     1
  9
$SHADEDGE
 70
     3
  9
$SHADEDIF
 70
    70
  9
$TILEMODE
 70
     1
  9
$MAXACTVP
 70
    16
  9
$PINSBASE
 10
0.0
 20
0.0
 30
0.0
  9
$PLIMCHECK
 70
     0
  9
$PEXTMIN
 10
1.000000E+20
 20
1.000000E+20
 30
1.000000E+20
  9
$PEXTMAX
 10
-1.000000E+20
 20
-1.000000E+20
 30
-1.000000E+20
  9
$PLIMMIN
 10
-123.0
 20
-87.0
  9
$PLIMMAX
 10
717.0
 20
507.0
  9
$UNITMODE
 70
     0
  9
$VISRETAIN
 70
     0
  9
$PLINEGEN
 70
     1
  9
$PSLTSCALE
 70
     0
  9
$TREEDEPTH
 70
  3020
  9
$DWGCODEPAGE
  3
dos850
  0
ENDSEC
  0
SECTION
  2
TABLES
  0
TABLE
  2
VPORT
 70
     1
  0
VPORT
  2
*ACTIVE
 70
     0
 10
0.0
 20
0.0
 11
1.0
 21
1.0
 12
420.0
 22
297.0
 13
0.0
 23
0.0
 14
1.0
 24
1.0
 15
0.0
 25
0.0
 16
0.0
 26
0.0
 36
1.0
 17
-123.0
 27
-87.0
 37
0.0
 40
594.0
 41
1.604229
 42
50.0
 43
0.0
 44
0.0
 50
0.0
 51
0.0
 71
     0
 72
   100
 73
     1
 74
     1
 75
     0
 76
     0
 77
     0
 78
     0
  0
ENDTAB
  0
TABLE
  2
LTYPE
 70
     4
  0
LTYPE
  2
CONTINUOUS
 70
    64
  3
Solid line
 72
    65
 73
     0
 40
0.0
  0
LTYPE
  2
DASHED
 70
    64
  3
__ __ __ __ __
 72
    65
 73
     2
 40
6.25
 49
5.0
 49
-1.25
  0
LTYPE
  2
DASHDOT
 70
    64
  3
__ . __ . __ . __ . __
 72
    65
 73
     4
 40
7.5
 49
5.0
 49
-1.25
 49
0.0
 49
-1.25
  0
LTYPE
  2
CENTER
 70
    64
  3
__ . __ . __ . __ . __
 72
    65
 73
     4
 40
7.5
 49
5.0
 49
-1.25
 49
0.0
 49
-1.25
  0
ENDTAB
  0
TABLE
  2
LAYER
 70
    13
  0
LAYER
  2
0
 70
     0
 62
     7
  6
CONTINUOUS
  0
LAYER
  2
LC-INFO-1-2-MM-A3-0
 70
     1
 62
    -1
  6
CONTINUOUS
  0
LAYER
  2
LC-002-005-----0
 70
     0
 62
     2
  6
CONTINUOUS
  0
LAYER
  2
LC-006-003-MTH-0
 70
     0
 62
     2
  6
CONTINUOUS
  0
LAYER
  2
LC-007-003-MTG-0
 70
     0
 62
     2
  6
CONTINUOUS
  0
LAYER
  2
LC-005-003-----0
 70
     0
 62
     2
  6
CONTINUOUS
  0
LAYER
  2
LC-008-000-----0
 70
     0
 62
     7
  6
CONTINUOUS
  0
LAYER
  2
LC-009-000-----0
 70
     0
 62
     7
  6
CONTINUOUS
  0
LAYER
  2
LC-001-002-----0
 70
     0
 62
     1
  6
CONTINUOUS
  0
LAYER
  2
LC-003-002-RND-0
 70
     0
 62
     1
  6
CONTINUOUS
  0
LAYER
  2
LC-004-004-----0
 70
     0
 62
     1
  6
CONTINUOUS
  0
LAYER
  2
LC-010-006-MLN-0
 70
     0
 62
     2
  6
CENTER
  0
LAYER
  2
LC-000
 70
     0
 62
     7
  6
CONTINUOUS
  0
ENDTAB
  0
TABLE
  2
STYLE
 70
     4
  0
STYLE
  2
STANDARD
 70
     0
 40
0.0
 41
1.0
 50
0.0
 71
     0
 42
0.0
  3
txt
  4

  0
STYLE
  2
LC-STANDARD
 70
    64
 40
0.0
 41
1.0
 50
0.0
 71
     0
 42
3.5
  3
MONOTXT
  4

  0
STYLE
  2
LC-TXTSTYLE-150-400-0-0-A2
 70
    64
 40
0.0
 41
1.0
 50
15.0
 71
     0
 42
3.5
  3
MONOTXT
  4

  0
STYLE
  2
LC-TXTSTYLE-150-400-0-0-D3
 70
    64
 40
0.0
 41
1.0
 50
15.0
 71
     0
 42
3.5
  3
LC-STANDARD
  4

  0
ENDTAB
  0
TABLE
  2
VIEW
 70
     0
  0
ENDTAB
  0
TABLE
  2
UCS
 70
     0
  0
ENDTAB
  0
TABLE
  2
APPID
 70
     1
  0
APPID
  2
ACAD
 70
     0
  0
ENDTAB
  0
TABLE
  2
DIMSTYLE
 70
     3
  0
DIMSTYLE
  2
STANDARD
 70
     0
  3

  4

  5

  6

  7

 40
1.0
 41
0.18
 42
0.0625
 43
0.38
 44
0.18
 45
0.0
 46
0.0
 47
0.0
 48
0.0
 71
     0
 72
     0
 73
     1
 74
     1
 75
     0
 76
     0
 77
     0
 78
     0
140
0.18
141
0.09
142
0.0
143
25.4
144
1.0
145
0.0
146
1.0
147
0.09
170
     0
171
     2
172
     0
173
     0
174
     0
175
     0
176
     0
177
     0
178
     0
  0
DIMSTYLE
  2
LC-STANDARD
 70
     0
  3

  4

  5

  6

  7

 40
1.0
 41
3.5
 42
0.0
 43
7.5
 44
1.8
 45
0.0
 46
0.0
 47
0.0
 48
0.0
 71
     0
 72
     0
 73
     0
 74
     0
 75
     0
 76
     0
 77
     1
 78
     8
140
3.5
141
0.0
142
0.0
143
25.4
144
1.0
145
0.0
146
0.71
147
1.5
170
     0
171
     2
172
     1
173
     0
174
     0
175
     0
176
     0
177
     0
178
     3
  0
DIMSTYLE
  2
LC-DIM-L-0140-02-02
 70
     0
  3

  4

  5

  6

  7

 40
2.0
 41
3.5
 42
0.0
 43
7.5
 44
1.8
 45
0.0
 46
0.0
 47
0.0
 48
0.0
 71
     0
 72
     0
 73
     0
 74
     0
 75
     0
 76
     0
 77
     1
 78
     8
140
14.0
141
0.0
142
0.0
143
25.4
144
1.0
145
0.0
146
0.71
147
1.5
170
     0
171
     2
172
     0
173
     0
174
     0
175
     0
176
     2
177
     2
178
     8
  0
ENDTAB
  0
ENDSEC
  0
SECTION
  2
BLOCKS
  0
BLOCK
  8
0
  5
23
  2
*X0
 70
    65
 10
313.715172
 20
289.531757
 30
0.0
  3
*X0
  0
LINE
  8
LC-002-005-----0
  6
CONTINUOUS
  5
25
 10
358.62035
 20
293.566526
 30
0.0
 11
359.529153
 21
294.475329
 31
0.0
  0
LINE
  8
LC-002-005-----0
  6
CONTINUOUS
  5
26
 10
355.028418
 20
292.803021
 30
0.0
 11
355.937223
 21
293.711827
 31
0.0
  0
LINE
  8
LC-002-005-----0
  6
CONTINUOUS
  5
27
 10
351.436486
 20
292.039516
 30
0.0
 11
352.345294
 21
292.948325
 31
0.0
  0
LINE
  8
LC-002-005-----0
  6
CONTINUOUS
  5
28
 10
347.844554
 20
291.276011
 30
0.0
 11
348.753365
 21
292.184823
 31
0.0
  0
LINE
  8
LC-002-005-----0
  6
CONTINUOUS
  5
29
 10
344.252622
 20
290.512507
 30
0.0
 11
345.161436
 21
291.42132
 31
0.0
  0
LINE
  8
LC-002-005-----0
  6
CONTINUOUS
  5
2A
 10
340.66069
 20
289.749002
 30
0.0
 11
341.569507
 21
290.657818
 31
0.0
  0
LINE
  8
LC-002-005-----0
  6
CONTINUOUS
  5
2B
 10
337.615023
 20
289.531762
 30
0.0
 11
338.315021
 21
290.23176
 31
0.0
  0
LINE
  8
LC-002-005-----0
  6
CONTINUOUS
  5
2C
 10
334.786602
 20
289.531768
 30
0.0
 11
335.486601
 21
290.231767
 31
0.0
  0
LINE
  8
LC-002-005-----0
  6
CONTINUOUS
  5
2D
 10
333.076259
 20
290.649852
 30
0.0
 11
333.571234
 21
291.144827
 31
0.0
  0
LINE
  8
LC-002-005-----0
  6
CONTINUOUS
  5
2E
 10
331.629606
 20
292.031626
 30
0.0
 11
332.155956
 21
292.557976
 31
0.0
  0
LINE
  8
LC-002-005-----0
  6
CONTINUOUS
  5
2F
 10
319.315974
 20
291.031703
 30
0.0
 11
321.015964
 21
292.731693
 31
0.0
  0
LINE
  8
LC-002-005-----0
  6
CONTINUOUS
  5
30
 10
315.187573
 20
289.731729
 30
0.0
 11
315.887569
 21
290.431725
 31
0.0
  0
LINE
  8
LC-002-005-----0
  6
CONTINUOUS
  5
31
 10
316.487565
 20
291.031721
 30
0.0
 11
317.187561
 21
291.731717
 31
0.0
  0
LINE
  8
LC-002-005-----0
  6
CONTINUOUS
  5
32
 10
313.836411
 20
291.208994
 30
0.0
 11
314.23791
 21
291.610493
 31
0.0
  0
ENDBLK
  8
0
  5
33
  0
BLOCK
  8
0
  5
35
  2
*X1
 70
    65
 10
151.029438
 20
289.531757
 30
0.0
  3
*X1
  0
LINE
  8
LC-002-005-----0
  6
CONTINUOUS
  5
36
 10
197.69363
 20
291.031726
 30
0.0
 11
198.393635
 21
291.73173
 31
0.0
  0
LINE
  8
LC-002-005-----0
  6
CONTINUOUS
  5
37
 10
194.865186
 20
291.031708
 30
0.0
 11
195.56519
 21
291.731712
 31
0.0
  0
LINE
  8
LC-002-005-----0
  6
CONTINUOUS
  5
38
 10
192.852716
 20
291.847666
 30
0.0
 11
193.352716
 21
292.347665
 31
0.0
  0
LINE
  8
LC-002-005-----0
  6
CONTINUOUS
  5
39
 10
190.464694
 20
292.28807
 30
0.0
 11
190.908307
 21
292.731683
 31
0.0
  0
LINE
  8
LC-002-005-----0
  6
CONTINUOUS
  5
3A
 10
179.427151
 20
289.735809
 30
0.0
 11
182.422972
 21
292.73163
 31
0.0
  0
LINE
  8
LC-002-005-----0
  6
CONTINUOUS
  5
3B
 10
176.394678
 20
289.531763
 30
0.0
 11
177.09468
 21
290.231765
 31
0.0
  0
LINE
  8
LC-002-005-----0
  6
CONTINUOUS
  5
3C
 10
173.605767
 20
289.571279
 30
0.0
 11
174.266246
 21
290.231758
 31
0.0
  0
LINE
  8
LC-002-005-----0
  6
CONTINUOUS
  5
3D
 10
171.273161
 20
290.067101
 30
0.0
 11
171.863348
 21
290.657288
 31
0.0
  0
LINE
  8
LC-002-005-----0
  6
CONTINUOUS
  5
3E
 10
168.940555
 20
290.562922
 30
0.0
 11
169.530741
 21
291.153108
 31
0.0
  0
LINE
  8
LC-002-005-----0
  6
CONTINUOUS
  5
3F
 10
166.60795
 20
291.058743
 30
0.0
 11
167.198134
 21
291.648928
 31
0.0
  0
LINE
  8
LC-002-005-----0
  6
CONTINUOUS
  5
40
 10
164.275344
 20
291.554564
 30
0.0
 11
164.865527
 21
292.144748
 31
0.0
  0
LINE
  8
LC-002-005-----0
  6
CONTINUOUS
  5
41
 10
161.942738
 20
292.050386
 30
0.0
 11
162.53292
 21
292.640568
 31
0.0
  0
LINE
  8
LC-002-005-----0
  6
CONTINUOUS
  5
42
 10
159.610132
 20
292.546207
 30
0.0
 11
160.200313
 21
293.136388
 31
0.0
  0
LINE
  8
LC-002-005-----0
  6
CONTINUOUS
  5
43
 10
157.277526
 20
293.042028
 30
0.0
 11
157.867706
 21
293.632208
 31
0.0
  0
LINE
  8
LC-002-005-----0
  6
CONTINUOUS
  5
44
 10
154.94492
 20
293.537849
 30
0.0
 11
155.535099
 21
294.128028
 31
0.0
  0
LINE
  8
LC-002-005-----0
  6
CONTINUOUS
  5
45
 10
152.683257
 20
294.104613
 30
0.0
 11
153.22426
 21
294.645617
 31
0.0
  0
LINE
  8
LC-002-005-----0
  6
CONTINUOUS
  5
46
 10
151.297117
 20
295.546901
 30
0.0
 11
151.482417
 21
295.732201
 31
0.0
  0
ENDBLK
  8
0
  5
47
  0
BLOCK
  8
0
  5
49
  2
*D2
 70
    65
 10
0.0
 20
0.0
 30
0.0
  3
*D2
  0
LINE
  8
LC-006-003-MTH-0
  6
CONTINUOUS
  5
4B
 10
186.715936
 20
324.614938
 30
0.0
 11
186.715936
 21
380.8
 31
0.0
  0
LINE
  8
LC-006-003-MTH-0
  6
CONTINUOUS
  5
4C
 10
326.715658
 20
324.614029
 30
0.0
 11
326.715658
 21
380.8
 31
0.0
  0
LINE
  8
LC-007-003-MTG-0
  6
CONTINUOUS
  5
4E
 10
186.715936
 20
364.0
 30
0.0
 11
326.715658
 21
364.0
 31
0.0
  0
LINE
  8
LC-005-003-----0
  6
CONTINUOUS
  5
50
 10
214.476392
 20
367.654733
 30
0.0
 11
186.715936
 21
364.0
 31
0.0
  0
LINE
  8
LC-005-003-----0
  6
CONTINUOUS
  5
51
 10
186.715936
 20
364.0
 30
0.0
 11
214.476392
 21
360.345267
 31
0.0
  0
LINE
  8
LC-005-003-----0
  6
CONTINUOUS
  5
52
 10
214.476392
 20
360.345267
 30
0.0
 11
214.476392
 21
367.654733
 31
0.0
  0
LINE
  8
LC-005-003-----0
  6
CONTINUOUS
  5
53
 10
214.538674
 20
366.704503
 30
0.0
 11
193.995936
 21
364.0
 31
0.0
  0
LINE
  8
LC-005-003-----0
  6
CONTINUOUS
  5
54
 10
193.995936
 20
364.0
 30
0.0
 11
214.538674
 21
361.295497
 31
0.0
  0
LINE
  8
LC-005-003-----0
  6
CONTINUOUS
  5
55
 10
214.600955
 20
365.754272
 30
0.0
 11
201.275936
 21
364.0
 31
0.0
  0
LINE
  8
LC-005-003-----0
  6
CONTINUOUS
  5
56
 10
201.275936
 20
364.0
 30
0.0
 11
214.600955
 21
362.245728
 31
0.0
  0
LINE
  8
LC-005-003-----0
  6
CONTINUOUS
  5
57
 10
214.663237
 20
364.804041
 30
0.0
 11
208.555936
 21
364.0
 31
0.0
  0
LINE
  8
LC-005-003-----0
  6
CONTINUOUS
  5
58
 10
208.555936
 20
364.0
 30
0.0
 11
214.663237
 21
363.195959
 31
0.0
  0
LINE
  8
LC-005-003-----0
  6
CONTINUOUS
  5
59
 10
298.955202
 20
360.345267
 30
0.0
 11
326.715658
 21
364.0
 31
0.0
  0
LINE
  8
LC-005-003-----0
  6
CONTINUOUS
  5
5A
 10
326.715658
 20
364.0
 30
0.0
 11
298.955202
 21
367.654733
 31
0.0
  0
LINE
  8
LC-005-003-----0
  6
CONTINUOUS
  5
5B
 10
298.955202
 20
367.654733
 30
0.0
 11
298.955202
 21
360.345267
 31
0.0
  0
LINE
  8
LC-005-003-----0
  6
CONTINUOUS
  5
5C
 10
298.89292
 20
361.295497
 30
0.0
 11
319.435658
 21
364.0
 31
0.0
  0
LINE
  8
LC-005-003-----0
  6
CONTINUOUS
  5
5D
 10
319.435658
 20
364.0
 30
0.0
 11
298.89292
 21
366.704503
 31
0.0
  0
LINE
  8
LC-005-003-----0
  6
CONTINUOUS
  5
5E
 10
298.830639
 20
362.245728
 30
0.0
 11
312.155658
 21
364.0
 31
0.0
  0
LINE
  8
LC-005-003-----0
  6
CONTINUOUS
  5
5F
 10
312.155658
 20
364.0
 30
0.0
 11
298.830639
 21
365.754272
 31
0.0
  0
LINE
  8
LC-005-003-----0
  6
CONTINUOUS
  5
60
 10
298.768357
 20
363.195959
 30
0.0
 11
304.875658
 21
364.0
 31
0.0
  0
LINE
  8
LC-005-003-----0
  6
CONTINUOUS
  5
61
 10
304.875658
 20
364.0
 30
0.0
 11
298.768357
 21
364.804041
 31
0.0
  0
TEXT
  8
LC-005-003-----0
  6
CONTINUOUS
 62
     8
  5
63
 10
222.966319
 20
371.827554
 30
0.0
 40
28.0
  1
Ø140
 41
0.9
 51
15.0
  7
LC-TXTSTYLE-150-400-0-0-D0
 72
     1
 11
261.063957
 21
371.827554
 31
0.0
  0
ENDBLK
  8
0
  5
64
  0
BLOCK
  8
0
  5
66
  2
BLK1
 70
    64
 10
0.0
 20
0.0
 30
0.0
  3
BLK1
  0
ENDBLK
  8
0
  5
67
  0
BLOCK
  8
0
  5
69
  2
BLK2
 70
    64
 10
0.0
 20
0.0
 30
0.0
  3
BLK2
  0
ENDBLK
  8
0
  5
6A
  0
BLOCK
  8
0
  5
6C
  2
BLK3
 70
    64
 10
0.0
 20
0.0
 30
0.0
  3
BLK3
  0
ENDBLK
  8
0
  5
6D
  0
BLOCK
  8
0
  5
6F
  2
BLK4
 70
    64
 10
0.0
 20
0.0
 30
0.0
  3
BLK4
  0
ENDBLK
  8
0
  5
70
  0
BLOCK
  8
0
  5
72
  2
BLK5
 70
    64
 10
0.0
 20
0.0
 30
0.0
  3
BLK5
  0
ENDBLK
  8
0
  5
73
  0
BLOCK
  8
0
  5
75
  2
BLK6
 70
    64
 10
0.0
 20
0.0
 30
0.0
  3
BLK6
  0
ENDBLK
  8
0
  5
76
  0
BLOCK
  8
0
  5
78
  2
BLK7
 70
    64
 10
0.0
 20
0.0
 30
0.0
  3
BLK7
  0
ENDBLK
  8
0
  5
79
  0
BLOCK
  8
0
  5
7B
  2
BLK8
 70
    64
 10
0.0
 20
0.0
 30
0.0
  3
BLK8
  0
ENDBLK
  8
0
  5
7C
  0
BLOCK
  8
0
  5
7E
  2
BLK9
 70
    64
 10
0.0
 20
0.0
 30
0.0
  3
BLK9
  0
ENDBLK
  8
0
  5
7F
  0
BLOCK
  8
0
  5
81
  2
BLK10
 70
    64
 10
0.0
 20
0.0
 30
0.0
  3
BLK10
  0
ENDBLK
  8
0
  5
82
  0
BLOCK
  8
0
  5
84
  2
BLK11
 70
    64
 10
0.0
 20
0.0
 30
0.0
  3
BLK11
  0
ENDBLK
  8
0
  5
85
  0
BLOCK
  8
0
  5
87
  2
BLK12
 70
    64
 10
0.0
 20
0.0
 30
0.0
  3
BLK12
  0
ENDBLK
  8
0
  5
88
  0
BLOCK
  8
0
  5
8A
  2
BLK13
 70
    64
 10
0.0
 20
0.0
 30
0.0
  3
BLK13
  0
ENDBLK
  8
0
  5
8B
  0
BLOCK
  8
0
  5
8D
  2
BLK14
 70
    64
 10
0.0
 20
0.0
 30
0.0
  3
BLK14
  0
ENDBLK
  8
0
  5
8E
  0
BLOCK
  8
0
  5
90
  2
BLK15
 70
    64
 10
0.0
 20
0.0
 30
0.0
  3
BLK15
  0
ENDBLK
  8
0
  5
91
  0
BLOCK
  8
0
  5
93
  2
BLK16
 70
    64
 10
0.0
 20
0.0
 30
0.0
  3
BLK16
  0
ENDBLK
  8
0
  5
94
  0
BLOCK
  8
0
  5
96
  2
BLK17
 70
    64
 10
0.0
 20
0.0
 30
0.0
  3
BLK17
  0
ENDBLK
  8
0
  5
97
  0
BLOCK
  8
0
  5
99
  2
BLK18
 70
    64
 10
0.0
 20
0.0
 30
0.0
  3
BLK18
  0
ENDBLK
  8
0
  5
9A
  0
BLOCK
  8
0
  5
9C
  2
BLK19
 70
    64
 10
0.0
 20
0.0
 30
0.0
  3
BLK19
  0
ENDBLK
  8
0
  5
9D
  0
BLOCK
  8
0
  5
9F
  2
BLK20
 70
    64
 10
0.0
 20
0.0
 30
0.0
  3
BLK20
  0
ENDBLK
  8
0
  5
A0
  0
BLOCK
  8
0
  5
A2
  2
BLK21
 70
    64
 10
0.0
 20
0.0
 30
0.0
  3
BLK21
  0
ENDBLK
  8
0
  5
A3
  0
BLOCK
  8
0
  5
A5
  2
BLK22
 70
    64
 10
0.0
 20
0.0
 30
0.0
  3
BLK22
  0
ENDBLK
  8
0
  5
A6
  0
BLOCK
  8
0
  5
A8
  2
BLK23
 70
    64
 10
0.0
 20
0.0
 30
0.0
  3
BLK23
  0
ENDBLK
  8
0
  5
A9
  0
BLOCK
  8
0
  5
AB
  2
BLK24
 70
    64
 10
0.0
 20
0.0
 30
0.0
  3
BLK24
  0
ENDBLK
  8
0
  5
AC
  0
BLOCK
  8
0
  5
AE
  2
BLK25
 70
    64
 10
0.0
 20
0.0
 30
0.0
  3
BLK25
  0
ENDBLK
  8
0
  5
AF
  0
BLOCK
  8
0
  5
B1
  2
BLK26
 70
    64
 10
0.0
 20
0.0
 30
0.0
  3
BLK26
  0
ENDBLK
  8
0
  5
B2
  0
BLOCK
  8
0
  5
B4
  2
BLK27
 70
    64
 10
0.0
 20
0.0
 30
0.0
  3
BLK27
  0
ENDBLK
  8
0
  5
B5
  0
BLOCK
  8
0
  5
B7
  2
BLK28
 70
    64
 10
0.0
 20
0.0
 30
0.0
  3
BLK28
  0
ENDBLK
  8
0
  5
B8
  0
BLOCK
  8
0
  5
BA
  2
BLK29
 70
    64
 10
0.0
 20
0.0
 30
0.0
  3
BLK29
  0
ENDBLK
  8
0
  5
BB
  0
BLOCK
  8
0
  5
BD
  2
BLK30
 70
    64
 10
0.0
 20
0.0
 30
0.0
  3
BLK30
  0
ENDBLK
  8
0
  5
BE
  0
BLOCK
  8
0
  5
C0
  2
BLK31
 70
    64
 10
0.0
 20
0.0
 30
0.0
  3
BLK31
  0
ENDBLK
  8
0
  5
C1
  0
BLOCK
  8
0
  5
C3
  2
BLK32
 70
    64
 10
0.0
 20
0.0
 30
0.0
  3
BLK32
  0
ENDBLK
  8
0
  5
C4
  0
BLOCK
  8
0
  5
C6
  2
*D35
 70
    65
 10
0.0
 20
0.0
 30
0.0
  3
*D35
  0
LINE
  8
LC-006-003-MTH-0
  6
CONTINUOUS
  5
C7
 10
151.220468
 20
295.732201
 30
0.0
 11
151.220468
 21
422.8
 31
0.0
  0
LINE
  8
LC-006-003-MTH-0
  6
CONTINUOUS
  5
C8
 10
362.209889
 20
295.732201
 30
0.0
 11
362.209889
 21
422.8
 31
0.0
  0
LINE
  8
LC-007-003-MTG-0
  6
CONTINUOUS
  5
C9
 10
151.220468
 20
406.0
 30
0.0
 11
362.209889
 21
406.0
 31
0.0
  0
LINE
  8
LC-005-003-----0
  6
CONTINUOUS
  5
CA
 10
178.980925
 20
409.654733
 30
0.0
 11
151.220468
 21
406.0
 31
0.0
  0
LINE
  8
LC-005-003-----0
  6
CONTINUOUS
  5
CB
 10
151.220468
 20
406.0
 30
0.0
 11
178.980925
 21
402.345267
 31
0.0
  0
LINE
  8
LC-005-003-----0
  6
CONTINUOUS
  5
CC
 10
178.980925
 20
402.345267
 30
0.0
 11
178.980925
 21
409.654733
 31
0.0
  0
LINE
  8
LC-005-003-----0
  6
CONTINUOUS
  5
CD
 10
179.043206
 20
408.704503
 30
0.0
 11
158.500468
 21
406.0
 31
0.0
  0
LINE
  8
LC-005-003-----0
  6
CONTINUOUS
  5
CE
 10
158.500468
 20
406.0
 30
0.0
 11
179.043206
 21
403.295497
 31
0.0
  0
LINE
  8
LC-005-003-----0
  6
CONTINUOUS
  5
CF
 10
179.105487
 20
407.754272
 30
0.0
 11
165.780468
 21
406.0
 31
0.0
  0
LINE
  8
LC-005-003-----0
  6
CONTINUOUS
  5
D0
 10
165.780468
 20
406.0
 30
0.0
 11
179.105487
 21
404.245728
 31
0.0
  0
LINE
  8
LC-005-003-----0
  6
CONTINUOUS
  5
D1
 10
179.167769
 20
406.804041
 30
0.0
 11
173.060468
 21
406.0
 31
0.0
  0
LINE
  8
LC-005-003-----0
  6
CONTINUOUS
  5
D2
 10
173.060468
 20
406.0
 30
0.0
 11
179.167769
 21
405.195959
 31
0.0
  0
LINE
  8
LC-005-003-----0
  6
CONTINUOUS
  5
D3
 10
334.449433
 20
402.345267
 30
0.0
 11
362.209889
 21
406.0
 31
0.0
  0
LINE
  8
LC-005-003-----0
  6
CONTINUOUS
  5
D4
 10
362.209889
 20
406.0
 30
0.0
 11
334.449433
 21
409.654733
 31
0.0
  0
LINE
  8
LC-005-003-----0
  6
CONTINUOUS
  5
D5
 10
334.449433
 20
409.654733
 30
0.0
 11
334.449433
 21
402.345267
 31
0.0
  0
LINE
  8
LC-005-003-----0
  6
CONTINUOUS
  5
D6
 10
334.387152
 20
403.295497
 30
0.0
 11
354.929889
 21
406.0
 31
0.0
  0
LINE
  8
LC-005-003-----0
  6
CONTINUOUS
  5
D7
 10
354.929889
 20
406.0
 30
0.0
 11
334.387152
 21
408.704503
 31
0.0
  0
LINE
  8
LC-005-003-----0
  6
CONTINUOUS
  5
D8
 10
334.324871
 20
404.245728
 30
0.0
 11
347.649889
 21
406.0
 31
0.0
  0
LINE
  8
LC-005-003-----0
  6
CONTINUOUS
  5
D9
 10
347.649889
 20
406.0
 30
0.0
 11
334.324871
 21
407.754272
 31
0.0
  0
LINE
  8
LC-005-003-----0
  6
CONTINUOUS
  5
DA
 10
334.262589
 20
405.195959
 30
0.0
 11
340.369889
 21
406.0
 31
0.0
  0
LINE
  8
LC-005-003-----0
  6
CONTINUOUS
  5
DB
 10
340.369889
 20
406.0
 30
0.0
 11
334.262589
 21
406.804041
 31
0.0
  0
TEXT
  8
LC-005-003-----0
  6
CONTINUOUS
 62
     8
  5
DC
 10
206.49641
 20
413.827554
 30
0.0
 40
28.0
  1
Ø211,5
 51
15.0
  7
LC-TXTSTYLE-150-400-0-0-D0
 72
     1
 11
261.063339
 21
413.827554
 31
0.0
  0
ENDBLK
  8
0
  5
DD
  0
BLOCK
  8
0
  5
DF
  2
BLK33
 70
    64
 10
0.0
 20
0.0
 30
0.0
  3
BLK33
  0
ENDBLK
  8
0
  5
E0
  0
BLOCK
  8
0
  5
E2
  2
*X37
 70
    65
 10
174.715179
 20
258.023199
 30
0.0
  3
*X37
  0
LINE
  8
LC-002-005-----0
  6
CONTINUOUS
  5
E3
 10
180.715179
 20
260.519452
 30
0.0
 11
178.961432
 21
262.273199
 31
0.0
  0
LINE
  8
LC-002-005-----0
  6
DASHED
  5
E5
 10
179.924092
 20
258.482112
 30
0.0
 11
176.093595
 21
262.312609
 31
0.0
  0
LINE
  8
LC-002-005-----0
  6
DASHED
  5
E6
 10
178.718792
 20
258.273199
 30
0.0
 11
175.216985
 21
261.775005
 31
0.0
  0
LINE
  8
LC-002-005-----0
  6
CONTINUOUS
  5
E7
 10
175.890365
 20
258.273199
 30
0.0
 11
174.715179
 21
259.448385
 31
0.0
  0
ENDBLK
  8
0
  5
E8
  0
BLOCK
  8
0
  5
EA
  2
*X38
 70
    65
 10
332.715179
 20
258.023199
 30
0.0
  3
*X38
  0
LINE
  8
LC-002-005-----0
  6
CONTINUOUS
  5
EB
 10
338.715179
 20
260.911371
 30
0.0
 11
337.174247
 21
262.452303
 31
0.0
  0
LINE
  8
LC-002-005-----0
  6
DASHED
  5
EC
 10
338.120052
 20
258.678072
 30
0.0
 11
334.524924
 21
262.273199
 31
0.0
  0
LINE
  8
LC-002-005-----0
  6
DASHED
  5
ED
 10
337.268447
 20
258.115462
 30
0.0
 11
333.412945
 21
261.970965
 31
0.0
  0
LINE
  8
LC-002-005-----0
  6
CONTINUOUS
  5
EE
 10
334.331247
 20
258.224235
 30
0.0
 11
332.715179
 21
259.840304
 31
0.0
  0
ENDBLK
  8
0
  5
EF
  0
BLOCK
  8
0
  5
F1
  2
BLK34
 70
    64
 10
0.0
 20
0.0
 30
0.0
  3
BLK34
  0
ENDBLK
  8
0
  5
F2
  0
BLOCK
  8
0
  5
F4
  2
BLK35
 70
    64
 10
0.0
 20
0.0
 30
0.0
  3
BLK35
  0
ENDBLK
  8
0
  5
F5
  0
ENDSEC
  0
SECTION
  2
ENTITIES
  0
VIEWPORT
  8
LC-000
  5
270
 67
     1
 68
     1
 10
420.0
 20
297.0
 30
0.0
 40
840.0
 41
594.0
 69
     1
1001
ACAD
1000
MVIEW
1002
{
1070
    16
1010
0.0
1020
0.0
1030
0.0
1010
0.0
1020
0.0
1030
1.0
1040
0.0
1040
594.0
1040
420.0
1040
297.0
1040
50.0
1040
0.0
1040
0.0
1070
     0
1070
   100
1070
     1
1070
     1
1070
     0
1070
     0
1070
     0
1070
     0
1040
0.0
1040
0.0
1040
0.0
1040
1.0
1040
1.0
1040
0.0
1040
0.0
1070
     0
1002
{
1002
}
1002
}
  0
VIEWPORT
  8
0
  5
271
 67
     1
 68
     1
 10
0.0
 20
0.0
 30
0.0
 40
0.0
 41
0.0
 69
     1
1001
ACAD
1000
MVIEW
1002
{
1070
    16
1010
0.0
1020
0.0
1030
0.0
1010
0.0
1020
0.0
1030
1.0
1040
0.0
1040
594.0
1040
0.0
1040
0.0
1040
50.0
1040
0.0
1040
0.0
1070
     0
1070
   100
1070
     0
1070
     1
1070
     0
1070
     0
1070
     0
1070
     0
1040
0.0
1040
0.0
1040
0.0
1040
0.5
1040
0.5
1040
0.5
1040
0.5
1070
     0
1002
{
1002
}
1002
}
  0
INSERT
  8
0
  5
F6
  2
*X0
 10
313.715172
 20
289.531757
 30
0.0
  0
INSERT
  8
0
  5
F7
  2
*X1
 10
151.029438
 20
289.531757
 30
0.0
  0
DIMENSION
  8
0
  5
F8
  2
*D2
 10
256.715797
 20
364.0
 30
0.0
 11
256.715797
 21
364.0
 31
0.0
  1
%%c<>
 13
186.715936
 23
324.614938
 33
0.0
 14
326.715658
 24
324.614029
 34
0.0
  3
LC-DIM-L-0140-02-02
  0
INSERT
  8
0
  5
FA
  2
BLK1
 10
0.0
 20
0.0
 30
0.0
  0
INSERT
  8
0
  5
FB
  2
BLK2
 10
0.0
 20
0.0
 30
0.0
  0
INSERT
  8
0
  5
FC
  2
BLK3
 10
0.0
 20
0.0
 30
0.0
  0
INSERT
  8
0
  5
FD
  2
BLK4
 10
0.0
 20
0.0
 30
0.0
  0
INSERT
  8
0
  5
FE
  2
BLK5
 10
0.0
 20
0.0
 30
0.0
  0
INSERT
  8
0
  5
FF
  2
BLK6
 10
0.0
 20
0.0
 30
0.0
  0
INSERT
  8
0
  5
100
  2
BLK7
 10
0.0
 20
0.0
 30
0.0
  0
INSERT
  8
0
  5
101
  2
BLK8
 10
0.0
 20
0.0
 30
0.0
  0
INSERT
  8
0
  5
102
  2
BLK9
 10
0.0
 20
0.0
 30
0.0
  0
INSERT
  8
0
  5
103
  2
BLK10
 10
0.0
 20
0.0
 30
0.0
  0
INSERT
  8
0
  5
104
  2
BLK11
 10
0.0
 20
0.0
 30
0.0
  0
INSERT
  8
0
  5
105
  2
BLK12
 10
0.0
 20
0.0
 30
0.0
  0
INSERT
  8
0
  5
106
  2
BLK13
 10
0.0
 20
0.0
 30
0.0
  0
INSERT
  8
0
  5
107
  2
BLK14
 10
0.0
 20
0.0
 30
0.0
  0
INSERT
  8
0
  5
108
  2
BLK15
 10
0.0
 20
0.0
 30
0.0
  0
INSERT
  8
0
  5
109
  2
BLK16
 10
0.0
 20
0.0
 30
0.0
  0
INSERT
  8
0
  5
10A
  2
BLK17
 10
0.0
 20
0.0
 30
0.0
  0
INSERT
  8
0
  5
10B
  2
BLK18
 10
0.0
 20
0.0
 30
0.0
  0
INSERT
  8
0
  5
10C
  2
BLK19
 10
0.0
 20
0.0
 30
0.0
  0
INSERT
  8
0
  5
10D
  2
BLK20
 10
0.0
 20
0.0
 30
0.0
  0
INSERT
  8
0
  5
10E
  2
BLK21
 10
0.0
 20
0.0
 30
0.0
  0
INSERT
  8
0
  5
10F
  2
BLK22
 10
0.0
 20
0.0
 30
0.0
  0
INSERT
  8
0
  5
110
  2
BLK23
 10
0.0
 20
0.0
 30
0.0
  0
INSERT
  8
0
  5
111
  2
BLK24
 10
0.0
 20
0.0
 30
0.0
  0
INSERT
  8
0
  5
112
  2
BLK25
 10
0.0
 20
0.0
 30
0.0
  0
INSERT
  8
0
  5
113
  2
BLK26
 10
0.0
 20
0.0
 30
0.0
  0
INSERT
  8
0
  5
114
  2
BLK27
 10
0.0
 20
0.0
 30
0.0
  0
INSERT
  8
0
  5
115
  2
BLK28
 10
0.0
 20
0.0
 30
0.0
  0
INSERT
  8
0
  5
116
  2
BLK29
 10
0.0
 20
0.0
 30
0.0
  0
INSERT
  8
0
  5
117
  2
BLK30
 10
0.0
 20
0.0
 30
0.0
  0
INSERT
  8
0
  5
118
  2
BLK31
 10
0.0
 20
0.0
 30
0.0
  0
INSERT
  8
0
  5
119
  2
BLK32
 10
0.0
 20
0.0
 30
0.0
  0
DIMENSION
  8
0
  5
11A
  2
*D35
 10
256.715179
 20
406.0
 30
0.0
 11
256.715179
 21
406.0
 31
0.0
  1
%%c211,5
 13
151.220468
 23
295.732201
 33
0.0
 14
362.209889
 24
295.732201
 34
0.0
  3
LC-DIM-L-0140-02-02
  0
INSERT
  8
0
  5
11C
  2
BLK33
 10
0.0
 20
0.0
 30
0.0
  0
INSERT
  8
0
  5
11D
  2
*X37
 10
174.715179
 20
258.023199
 30
0.0
  0
INSERT
  8
0
  5
11E
  2
*X38
 10
332.715179
 20
258.023199
 30
0.0
  0
INSERT
  8
0
  5
11F
  2
BLK34
 10
0.0
 20
0.0
 30
0.0
  0
INSERT
  8
0
  5
120
  2
BLK35
 10
0.0
 20
0.0
 30
0.0
  0
LINE
  8
LC-001-002-----0
  6
CONTINUOUS
  5
122
 10
316.215172
 20
289.731723
 30
0.0
 11
256.715179
 21
289.732094
 31
0.0
  0
LINE
  8
LC-001-002-----0
  6
CONTINUOUS
  5
123
 10
319.615662
 20
291.031699
 30
0.0
 11
332.694346
 21
291.031699
 31
0.0
  0
ARC
  8
LC-003-002-RND-0
  6
CONTINUOUS
  5
125
 10
331.694486
 20
292.031626
 30
0.0
 40
0.7
 50
45.0
 51
89.999642
  0
LINE
  8
LC-001-002-----0
  6
CONTINUOUS
  5
126
 10
284.965422
 20
292.731486
 30
0.0
 11
299.746524
 21
292.731486
 31
0.0
  0
LINE
  8
LC-001-002-----0
  6
CONTINUOUS
  5
127
 10
325.757115
 20
290.331706
 30
0.0
 11
316.215172
 21
290.331766
 31
0.0
  0
LINE
  8
LC-001-002-----0
  6
CONTINUOUS
  5
128
 10
284.215422
 20
291.731491
 30
0.0
 11
284.965422
 21
292.731486
 31
0.0
  0
ARC
  8
LC-003-002-RND-0
  6
CONTINUOUS
  5
129
 10
320.715664
 20
292.031694
 30
0.0
 40
0.7
 50
89.999642
 51
143.129973
  0
LINE
  8
LC-001-002-----0
  6
CONTINUOUS
  5
12A
 10
300.496524
 20
291.731491
 30
0.0
 11
299.746524
 21
292.731486
 31
0.0
  0
ARC
  8
LC-003-002-RND-0
  6
CONTINUOUS
  5
12B
 10
319.615667
 20
291.731701
 30
0.0
 40
0.7
 50
269.999642
 51
323.129973
  0
LINE
  8
LC-001-002-----0
  6
CONTINUOUS
  5
12C
 10
332.714389
 20
338.114954
 30
0.0
 11
320.715649
 21
338.114921
 31
0.0
  0
LINE
  8
LC-001-002-----0
  6
CONTINUOUS
  5
12D
 10
197.215186
 20
289.731723
 30
0.0
 11
256.715179
 21
289.732094
 31
0.0
  0
LINE
  8
LC-004-004-----0
  6
CONTINUOUS
  5
12F
 10
332.714389
 20
336.614954
 30
0.0
 11
326.714389
 21
336.614938
 31
0.0
  0
LINE
  8
LC-004-004-----0
  6
CONTINUOUS
  5
130
 10
329.714389
 20
336.614946
 30
0.0
 11
329.714422
 21
324.614946
 31
0.0
  0
LINE
  8
LC-004-004-----0
  6
CONTINUOUS
  5
131
 10
329.714422
 20
324.614946
 30
0.0
 11
326.714435
 21
319.614938
 31
0.0
  0
LINE
  8
LC-004-004-----0
  6
CONTINUOUS
 62
     2
  5
132
 10
329.714393
 20
335.114946
 30
0.0
 11
328.714393
 21
335.114943
 31
0.0
  0
LINE
  8
LC-001-002-----0
  6
CONTINUOUS
  5
133
 10
193.814696
 20
291.031699
 30
0.0
 11
180.736012
 21
291.031699
 31
0.0
  0
ARC
  8
LC-003-002-RND-0
  6
CONTINUOUS
  5
134
 10
181.735872
 20
292.031626
 30
0.0
 40
0.7
 50
90.000358
 51
135.0
  0
LINE
  8
LC-001-002-----0
  6
CONTINUOUS
  5
135
 10
324.896885
 20
291.031712
 30
0.0
 11
325.187505
 21
290.624841
 31
0.0
  0
LINE
  8
LC-001-002-----0
  6
CONTINUOUS
  5
136
 10
361.430262
 20
295.732199
 30
0.0
 11
256.715179
 21
295.731984
 31
0.0
  0
LINE
  8
LC-001-002-----0
  6
CONTINUOUS
  5
137
 10
319.615667
 20
291.731701
 30
0.0
 11
320.155665
 21
292.451696
 31
0.0
  0
LINE
  8
LC-001-002-----0
  6
CONTINUOUS
  5
138
 10
314.565197
 20
291.731733
 30
0.0
 11
256.715179
 21
291.731733
 31
0.0
  0
LINE
  8
LC-001-002-----0
  6
CONTINUOUS
  5
139
 10
325.757115
 20
290.331706
 30
0.0
 11
326.03665
 21
290.331705
 31
0.0
  0
LINE
  8
LC-001-002-----0
  6
CONTINUOUS
  5
13A
 10
326.606267
 20
290.624837
 30
0.0
 11
326.896885
 21
291.031699
 31
0.0
  0
ARC
  8
LC-003-002-RND-0
  6
CONTINUOUS
  5
13B
 10
326.036655
 20
291.031705
 30
0.0
 40
0.7
 50
269.999642
 51
324.462201
  0
ARC
  8
LC-003-002-RND-0
  6
CONTINUOUS
  5
13C
 10
325.75712
 20
291.031706
 30
0.0
 40
0.7
 50
215.537557
 51
269.999642
  0
LINE
  8
LC-001-002-----0
  6
CONTINUOUS
  5
13D
 10
228.464936
 20
292.731486
 30
0.0
 11
213.683834
 21
292.731486
 31
0.0
  0
LINE
  8
LC-001-002-----0
  6
CONTINUOUS
  5
13E
 10
187.854459
 20
290.331706
 30
0.0
 11
197.215186
 21
290.331765
 31
0.0
  0
LINE
  8
LC-001-002-----0
  6
CONTINUOUS
  5
13F
 10
229.214936
 20
291.731491
 30
0.0
 11
228.464936
 21
292.731486
 31
0.0
  0
ARC
  8
LC-003-002-RND-0
  6
CONTINUOUS
  5
140
 10
192.714694
 20
292.031694
 30
0.0
 40
0.7
 50
36.870027
 51
90.000358
  0
LINE
  8
LC-001-002-----0
  6
CONTINUOUS
  5
141
 10
212.933834
 20
291.731491
 30
0.0
 11
213.683834
 21
292.731486
 31
0.0
  0
LINE
  8
LC-001-002-----0
  6
CONTINUOUS
  5
142
 10
319.615662
 20
291.031701
 30
0.0
 11
314.715174
 21
291.031732
 31
0.0
  0
LINE
  8
LC-001-002-----0
  6
CONTINUOUS
  5
143
 10
322.965664
 20
292.03168
 30
0.0
 11
330.465664
 21
292.031634
 31
0.0
  0
LINE
  8
LC-001-002-----0
  6
CONTINUOUS
  5
144
 10
339.638658
 20
289.531757
 30
0.0
 11
334.608547
 21
289.531768
 31
0.0
  0
LINE
  8
LC-001-002-----0
  6
CONTINUOUS
  5
145
 10
339.638658
 20
289.531757
 30
0.0
 11
360.030362
 21
293.86624
 31
0.0
  0
LINE
  8
LC-001-002-----0
  6
CONTINUOUS
  5
146
 10
330.465664
 20
292.731634
 30
0.0
 11
322.965664
 21
292.73168
 31
0.0
  0
ARC
  8
LC-003-002-RND-0
  6
CONTINUOUS
  5
147
 10
193.814691
 20
291.731701
 30
0.0
 40
0.7
 50
216.870027
 51
270.000358
  0
ARC
  8
LC-003-002-RND-0
  6
CONTINUOUS
  5
148
 10
334.608557
 20
290.531768
 30
0.0
 40
1.0
 50
225.0
 51
269.999425
  0
ARC
  8
LC-003-002-RND-0
  6
CONTINUOUS
  5
149
 10
341.725591
 20
288.945794
 30
0.0
 40
1.0
 50
101.228794
 51
108.020284
  0
LINE
  8
LC-004-004-----0
  6
CONTINUOUS
 62
     2
  5
14A
 10
328.714393
 20
335.114943
 30
0.0
 11
328.714426
 21
323.114943
 31
0.0
  0
LINE
  8
LC-001-002-----0
  6
CONTINUOUS
  5
14B
 10
331.694486
 20
292.031626
 30
0.0
 11
333.90145
 21
289.824662
 31
0.0
  0
LINE
  8
LC-001-002-----0
  6
CONTINUOUS
  5
14C
 10
362.209889
 20
295.732201
 30
0.0
 11
361.430262
 21
295.732199
 31
0.0
  0
ARC
  8
LC-001-002-----0
  6
CONTINUOUS
  5
14D
 10
314.715172
 20
290.731732
 30
0.0
 40
1.0
 50
89.998287
 51
270.000997
  0
ARC
  8
LC-001-002-----0
  6
CONTINUOUS
  5
14E
 10
359.40092
 20
296.785619
 30
0.0
 40
3.0
 50
282.000248
 51
339.442977
  0
LINE
  8
LC-001-002-----0
  6
CONTINUOUS
  5
14F
 10
320.175666
 20
291.3117
 30
0.0
 11
320.715664
 21
292.031694
 31
0.0
  0
LINE
  8
LC-001-002-----0
  6
CONTINUOUS
  5
150
 10
188.71469
 20
291.031712
 30
0.0
 11
188.424069
 21
290.624841
 31
0.0
  0
LINE
  8
LC-001-002-----0
  6
CONTINUOUS
  5
151
 10
152.000096
 20
295.732199
 30
0.0
 11
256.715179
 21
295.731984
 31
0.0
  0
LINE
  8
LC-001-002-----0
  6
CONTINUOUS
  5
152
 10
314.71517
 20
290.431732
 30
0.0
 11
316.215172
 21
290.431723
 31
0.0
  0
LINE
  8
LC-001-002-----0
  6
CONTINUOUS
  5
153
 10
316.215172
 20
290.431723
 30
0.0
 11
316.215172
 21
289.731723
 31
0.0
  0
ARC
  8
LC-001-002-----0
  6
CONTINUOUS
  5
154
 10
314.715172
 20
290.731732
 30
0.0
 40
0.3
 50
89.990988
 51
270.008296
  0
LINE
  8
LC-001-002-----0
  6
CONTINUOUS
  5
155
 10
193.814691
 20
291.731701
 30
0.0
 11
193.274693
 21
292.451696
 31
0.0
  0
LINE
  8
LC-001-002-----0
  6
CONTINUOUS
  5
156
 10
198.865161
 20
291.731733
 30
0.0
 11
256.715179
 21
291.731733
 31
0.0
  0
LINE
  8
LC-001-002-----0
  6
CONTINUOUS
  5
157
 10
187.854459
 20
290.331706
 30
0.0
 11
187.574924
 21
290.331705
 31
0.0
  0
LINE
  8
LC-001-002-----0
  6
CONTINUOUS
  5
158
 10
320.715664
 20
292.031694
 30
0.0
 11
322.965664
 21
292.03168
 31
0.0
  0
LINE
  8
LC-001-002-----0
  6
CONTINUOUS
  5
159
 10
322.965664
 20
292.03168
 30
0.0
 11
322.965664
 21
292.73168
 31
0.0
  0
LINE
  8
LC-004-004-----0
  6
CONTINUOUS
  5
15A
 10
327.51438
 20
340.082932
 30
0.0
 11
327.514383
 21
339.114029
 31
0.0
  0
LINE
  8
LC-004-004-----0
  6
CONTINUOUS
  5
15B
 10
329.714422
 20
324.614946
 30
0.0
 11
326.714422
 21
324.614938
 31
0.0
  0
LINE
  8
LC-004-004-----0
  6
CONTINUOUS
  5
15C
 10
320.71565
 20
336.614025
 30
0.0
 11
326.71565
 21
336.614029
 31
0.0
  0
LINE
  8
LC-001-002-----0
  6
CONTINUOUS
  5
15D
 10
322.965664
 20
292.73168
 30
0.0
 11
320.715668
 21
292.731694
 31
0.0
  0
LINE
  8
LC-004-004-----0
  6
CONTINUOUS
  5
15E
 10
323.71565
 20
336.614027
 30
0.0
 11
323.715658
 21
324.614027
 31
0.0
  0
LINE
  8
LC-004-004-----0
  6
CONTINUOUS
  5
15F
 10
323.715658
 20
324.614027
 30
0.0
 11
326.715661
 21
319.614029
 31
0.0
  0
LINE
  8
LC-004-004-----0
  6
CONTINUOUS
 62
     2
  5
160
 10
323.715651
 20
335.114027
 30
0.0
 11
328.714393
 21
335.11403
 31
0.0
  0
LINE
  8
LC-001-002-----0
  6
CONTINUOUS
  5
161
 10
180.715969
 20
338.114954
 30
0.0
 11
192.714709
 21
338.114921
 31
0.0
  0
LINE
  8
LC-004-004-----0
  6
CONTINUOUS
 62
     2
  5
162
 10
324.715651
 20
335.114027
 30
0.0
 11
324.715659
 21
323.114027
 31
0.0
  0
LINE
  8
LC-004-004-----0
  6
CONTINUOUS
  5
163
 10
325.915648
 20
340.082928
 30
0.0
 11
325.915648
 21
339.114028
 31
0.0
  0
LINE
  8
LC-004-004-----0
  6
CONTINUOUS
  5
164
 10
323.715658
 20
324.614027
 30
0.0
 11
326.715658
 21
324.614029
 31
0.0
  0
LINE
  8
LC-004-004-----0
  6
CONTINUOUS
  5
165
 10
332.714385
 20
338.114954
 30
0.0
 11
332.714389
 21
336.614954
 31
0.0
  0
LINE
  8
LC-001-002-----0
  6
CONTINUOUS
  5
166
 10
331.694486
 20
292.031626
 30
0.0
 11
330.465664
 21
292.031634
 31
0.0
  0
LINE
  8
LC-001-002-----0
  6
CONTINUOUS
  5
167
 10
330.465664
 20
292.031634
 30
0.0
 11
330.465664
 21
292.731634
 31
0.0
  0
ARC
  8
LC-001-002-----0
  6
CONTINUOUS
  5
168
 10
326.715039
 20
330.116826
 30
0.0
 40
9.99811
 50
53.126659
 51
85.414352
  0
LINE
  8
LC-001-002-----0
  6
CONTINUOUS
  5
169
 10
325.915649
 20
339.114028
 30
0.0
 11
327.514383
 21
339.114029
 31
0.0
  0
LINE
  8
LC-004-004-----0
  6
CONTINUOUS
  5
16A
 10
320.715649
 20
338.114921
 30
0.0
 11
320.71565
 21
336.614025
 31
0.0
  0
ARC
  8
LC-001-002-----0
  6
CONTINUOUS
  5
16B
 10
326.715039
 20
330.116826
 30
0.0
 40
9.99811
 50
94.585934
 51
126.87365
  0
LINE
  8
LC-004-004-----0
  6
CONTINUOUS
  5
16C
 10
180.715969
 20
336.614954
 30
0.0
 11
186.715969
 21
336.614938
 31
0.0
  0
LINE
  8
LC-004-004-----0
  6
CONTINUOUS
  5
16D
 10
183.715969
 20
336.614946
 30
0.0
 11
183.715936
 21
324.614946
 31
0.0
  0
LINE
  8
LC-004-004-----0
  6
CONTINUOUS
  5
16E
 10
183.715936
 20
324.614946
 30
0.0
 11
186.715923
 21
319.614938
 31
0.0
  0
LINE
  8
LC-004-004-----0
  6
CONTINUOUS
 62
     2
  5
16F
 10
183.715965
 20
335.114946
 30
0.0
 11
184.715964
 21
335.114943
 31
0.0
  0
LINE
  8
LC-004-004-----0
  6
CONTINUOUS
 62
     2
  5
170
 10
184.715964
 20
335.114943
 30
0.0
 11
184.715932
 21
323.114943
 31
0.0
  0
LINE
  8
LC-004-004-----0
  6
CONTINUOUS
  5
171
 10
185.915978
 20
340.082932
 30
0.0
 11
185.915975
 21
339.114029
 31
0.0
  0
LINE
  8
LC-004-004-----0
  6
CONTINUOUS
  5
172
 10
183.715936
 20
324.614946
 30
0.0
 11
186.715936
 21
324.614938
 31
0.0
  0
LINE
  8
LC-004-004-----0
  6
CONTINUOUS
  5
173
 10
192.714708
 20
336.614025
 30
0.0
 11
186.714708
 21
336.614029
 31
0.0
  0
LINE
  8
LC-004-004-----0
  6
CONTINUOUS
  5
174
 10
189.714708
 20
336.614027
 30
0.0
 11
189.7147
 21
324.614027
 31
0.0
  0
LINE
  8
LC-004-004-----0
  6
CONTINUOUS
  5
175
 10
189.7147
 20
324.614027
 30
0.0
 11
186.714697
 21
319.614029
 31
0.0
  0
LINE
  8
LC-004-004-----0
  6
CONTINUOUS
 62
     2
  5
176
 10
189.714707
 20
335.114027
 30
0.0
 11
184.715964
 21
335.11403
 31
0.0
  0
LINE
  8
LC-001-002-----0
  6
CONTINUOUS
  5
177
 10
187.005307
 20
290.624837
 30
0.0
 11
186.71469
 21
291.031699
 31
0.0
  0
LINE
  8
LC-004-004-----0
  6
CONTINUOUS
 62
     2
  5
178
 10
188.714707
 20
335.114027
 30
0.0
 11
188.714699
 21
323.114027
 31
0.0
  0
LINE
  8
LC-004-004-----0
  6
CONTINUOUS
  5
179
 10
187.51471
 20
340.082928
 30
0.0
 11
187.51471
 21
339.114028
 31
0.0
  0
LINE
  8
LC-004-004-----0
  6
CONTINUOUS
  5
17A
 10
189.7147
 20
324.614027
 30
0.0
 11
186.7147
 21
324.614029
 31
0.0
  0
LINE
  8
LC-004-004-----0
  6
CONTINUOUS
  5
17B
 10
180.715973
 20
338.114954
 30
0.0
 11
180.715969
 21
336.614954
 31
0.0
  0
ARC
  8
LC-001-002-----0
  6
CONTINUOUS
  5
17C
 10
186.715319
 20
330.116826
 30
0.0
 40
9.99811
 50
94.585648
 51
126.873341
  0
LINE
  8
LC-001-002-----0
  6
CONTINUOUS
  5
17D
 10
187.514709
 20
339.114028
 30
0.0
 11
185.915975
 21
339.114029
 31
0.0
  0
LINE
  8
LC-004-004-----0
  6
CONTINUOUS
  5
17E
 10
192.714709
 20
338.114921
 30
0.0
 11
192.714708
 21
336.614025
 31
0.0
  0
ARC
  8
LC-003-002-RND-0
  6
CONTINUOUS
  5
17F
 10
249.707792
 20
75.786663
 30
0.0
 40
0.5
 50
264.128507
 51
345.135698
  0
ARC
  8
LC-003-002-RND-0
  6
CONTINUOUS
  5
180
 10
249.465179
 20
73.801075
 30
0.0
 40
0.5
 50
0.0
 51
84.097446
  0
LINE
  8
LC-001-002-----0
  6
DASHDOT
 62
     2
  5
182
 10
165.132993
 20
196.802301
 30
0.0
 11
348.297365
 21
91.052301
 31
0.0
  0
LINE
  8
LC-001-002-----0
  6
DASHDOT
 62
     2
  5
183
 10
348.297365
 20
196.802301
 30
0.0
 11
165.132993
 21
91.052301
 31
0.0
  0
LINE
  8
LC-001-002-----0
  6
DASHDOT
 62
     2
  5
184
 10
150.965179
 20
143.927301
 30
0.0
 11
362.465179
 21
143.927301
 31
0.0
  0
LINE
  8
LC-001-002-----0
  6
DASHDOT
 62
     2
  5
185
 10
256.715179
 20
295.731984
 30
0.0
 11
256.715179
 21
289.732094
 31
0.0
  0
CIRCLE
  8
LC-001-002-----0
  6
CONTINUOUS
  5
186
 10
256.715179
 20
143.927301
 30
0.0
 40
105.75
  0
CIRCLE
  8
LC-001-002-----0
  6
CONTINUOUS
 62
     2
  5
187
 10
256.715179
 20
143.927301
 30
0.0
 40
82.818378
  0
CIRCLE
  8
LC-001-002-----0
  6
CONTINUOUS
  5
188
 10
256.715179
 20
143.927301
 30
0.0
 40
78.975893
  0
ARC
  8
LC-001-002-----0
  6
CONTINUOUS
  5
189
 10
256.715179
 20
143.927301
 30
0.0
 40
75.979167
 50
275.511929
 51
324.488071
  0
ARC
  8
LC-001-002-----0
  6
CONTINUOUS
  5
18A
 10
256.715179
 20
143.927301
 30
0.0
 40
56.999993
 50
214.32869
 51
325.67131
  0
CIRCLE
  8
LC-001-002-----0
  6
CONTINUOUS
  5
18B
 10
256.715179
 20
73.926816
 30
0.0
 40
3.75
  0
CIRCLE
  8
LC-001-002-----0
  6
CONTINUOUS
  5
18C
 10
317.337377
 20
108.927058
 30
0.0
 40
3.75
  0
CIRCLE
  8
LC-001-002-----0
  6
CONTINUOUS
  5
18D
 10
317.337377
 20
178.927543
 30
0.0
 40
3.75
  0
CIRCLE
  8
LC-001-002-----0
  6
CONTINUOUS
  5
18E
 10
256.715179
 20
213.927786
 30
0.0
 40
3.75
  0
CIRCLE
  8
LC-001-002-----0
  6
CONTINUOUS
  5
18F
 10
196.092981
 20
178.927543
 30
0.0
 40
3.75
  0
CIRCLE
  8
LC-001-002-----0
  6
CONTINUOUS
  5
190
 10
196.092981
 20
108.927058
 30
0.0
 40
3.75
  0
ARC
  8
LC-001-002-----0
  6
CONTINUOUS
  5
191
 10
186.715319
 20
330.116826
 30
0.0
 40
9.99811
 50
53.12635
 51
85.414066
  0
LINE
  8
LC-001-002-----0
  6
CONTINUOUS
  5
192
 10
175.715179
 20
262.273199
 30
0.0
 11
174.715179
 21
261.273199
 31
0.0
  0
LINE
  8
LC-001-002-----0
  6
CONTINUOUS
  5
193
 10
175.715179
 20
258.273199
 30
0.0
 11
174.715179
 21
259.273199
 31
0.0
  0
LINE
  8
LC-001-002-----0
  6
CONTINUOUS
  5
194
 10
180.715179
 20
261.273199
 30
0.0
 11
179.715179
 21
262.273199
 31
0.0
  0
LINE
  8
LC-001-002-----0
  6
CONTINUOUS
  5
195
 10
179.715179
 20
262.273199
 30
0.0
 11
256.715179
 21
262.273199
 31
0.0
  0
LINE
  8
LC-001-002-----0
  6
CONTINUOUS
  5
196
 10
249.965179
 20
73.926816
 30
0.0
 11
249.965179
 21
68.797133
 31
0.0
  0
LINE
  8
LC-001-002-----0
  6
CONTINUOUS
  5
197
 10
263.465179
 20
73.926816
 30
0.0
 11
263.465179
 21
68.797133
 31
0.0
  0
LINE
  8
LC-001-002-----0
  6
CONTINUOUS
  5
198
 10
337.715179
 20
262.273199
 30
0.0
 11
338.715179
 21
261.273199
 31
0.0
  0
LINE
  8
LC-001-002-----0
  6
CONTINUOUS
  5
199
 10
256.715179
 20
258.273199
 30
0.0
 11
179.715179
 21
258.273199
 31
0.0
  0
LINE
  8
LC-001-002-----0
  6
CONTINUOUS
  5
19A
 10
179.715179
 20
258.273199
 30
0.0
 11
179.359517
 21
258.273199
 31
0.0
  0
LINE
  8
LC-001-002-----0
  6
CONTINUOUS
  5
19B
 10
174.715179
 20
259.273199
 30
0.0
 11
174.715179
 21
261.273199
 31
0.0
  0
LINE
  8
LC-001-002-----0
  6
CONTINUOUS
  5
19C
 10
179.715179
 20
262.273199
 30
0.0
 11
179.359517
 21
262.273199
 31
0.0
  0
LINE
  8
LC-001-002-----0
  6
CONTINUOUS
  5
19D
 10
180.715179
 20
261.273199
 30
0.0
 11
180.715179
 21
259.273199
 31
0.0
  0
ARC
  8
LC-001-002-----0
  6
CONTINUOUS
  5
19E
 10
256.715179
 20
73.926816
 30
0.0
 40
6.75
 50
0.0
 51
180.0
  0
LINE
  8
LC-001-002-----0
  6
CONTINUOUS
  5
19F
 10
180.715179
 20
259.273199
 30
0.0
 11
179.715179
 21
258.273199
 31
0.0
  0
LINE
  8
LC-001-002-----0
  6
CONTINUOUS
  5
1A0
 10
337.715179
 20
258.273199
 30
0.0
 11
338.715179
 21
259.273199
 31
0.0
  0
LINE
  8
LC-001-002-----0
  6
CONTINUOUS
  5
1A1
 10
332.715179
 20
261.273199
 30
0.0
 11
333.715179
 21
262.273199
 31
0.0
  0
LINE
  8
LC-001-002-----0
  6
CONTINUOUS
  5
1A2
 10
332.715179
 20
262.273199
 30
0.0
 11
256.715179
 21
262.273199
 31
0.0
  0
LINE
  8
LC-001-002-----0
  6
CONTINUOUS
  5
1A3
 10
256.715179
 20
258.273199
 30
0.0
 11
332.715179
 21
258.273199
 31
0.0
  0
LINE
  8
LC-001-002-----0
  6
CONTINUOUS
  5
1A4
 10
176.215179
 20
262.523199
 30
0.0
 11
176.359517
 21
262.273199
 31
0.0
  0
LINE
  8
LC-001-002-----0
  6
CONTINUOUS
  5
1A5
 10
332.715179
 20
258.273199
 30
0.0
 11
334.070841
 21
258.273199
 31
0.0
  0
LINE
  8
LC-001-002-----0
  6
CONTINUOUS
  5
1A6
 10
176.070841
 20
262.273199
 30
0.0
 11
176.215179
 21
262.523199
 31
0.0
  0
LINE
  8
LC-001-002-----0
  6
CONTINUOUS
  5
1A7
 10
177.570841
 20
262.273199
 30
0.0
 11
177.715179
 21
262.523199
 31
0.0
  0
LINE
  8
LC-001-002-----0
  6
CONTINUOUS
  5
1A8
 10
179.070841
 20
262.273199
 30
0.0
 11
179.215179
 21
262.523199
 31
0.0
  0
LINE
  8
LC-001-002-----0
  6
CONTINUOUS
  5
1A9
 10
179.215179
 20
258.023199
 30
0.0
 11
179.359517
 21
258.273199
 31
0.0
  0
LINE
  8
LC-001-002-----0
  6
CONTINUOUS
  5
1AA
 10
177.715179
 20
258.023199
 30
0.0
 11
177.859517
 21
258.273199
 31
0.0
  0
LINE
  8
LC-001-002-----0
  6
CONTINUOUS
  5
1AB
 10
176.215179
 20
258.023199
 30
0.0
 11
176.359517
 21
258.273199
 31
0.0
  0
LINE
  8
LC-001-002-----0
  6
CONTINUOUS
  5
1AC
 10
177.715179
 20
262.523199
 30
0.0
 11
177.859517
 21
262.273199
 31
0.0
  0
LINE
  8
LC-001-002-----0
  6
CONTINUOUS
  5
1AD
 10
179.215179
 20
262.523199
 30
0.0
 11
179.359517
 21
262.273199
 31
0.0
  0
LINE
  8
LC-001-002-----0
  6
CONTINUOUS
  5
1AE
 10
179.070841
 20
258.273199
 30
0.0
 11
179.215179
 21
258.023199
 31
0.0
  0
LINE
  8
LC-001-002-----0
  6
CONTINUOUS
  5
1AF
 10
177.570841
 20
258.273199
 30
0.0
 11
177.715179
 21
258.023199
 31
0.0
  0
ARC
  8
LC-003-002-RND-0
  6
CONTINUOUS
  5
1B0
 10
187.57492
 20
291.031705
 30
0.0
 40
0.7
 50
215.537799
 51
270.000358
  0
ARC
  8
LC-003-002-RND-0
  6
CONTINUOUS
  5
1B1
 10
187.854454
 20
291.031706
 30
0.0
 40
0.7
 50
270.000358
 51
324.462443
  0
LINE
  8
LC-001-002-----0
  6
CONTINUOUS
  5
1B2
 10
193.814696
 20
291.031701
 30
0.0
 11
198.715184
 21
291.031732
 31
0.0
  0
LINE
  8
LC-001-002-----0
  6
CONTINUOUS
  5
1B3
 10
190.464694
 20
292.03168
 30
0.0
 11
182.964694
 21
292.031634
 31
0.0
  0
LINE
  8
LC-001-002-----0
  6
CONTINUOUS
  5
1B4
 10
330.465664
 20
292.731634
 30
0.0
 11
331.69449
 21
292.731626
 31
0.0
  0
LINE
  8
LC-001-002-----0
  6
CONTINUOUS
  5
1B5
 10
176.070841
 20
258.273199
 30
0.0
 11
176.215179
 21
258.023199
 31
0.0
  0
LINE
  8
LC-001-002-----0
  6
CONTINUOUS
  5
1B6
 10
339.565084
 20
290.231758
 30
0.0
 11
359.876312
 21
294.549121
 31
0.0
  0
ARC
  8
LC-001-002-----0
  6
CONTINUOUS
  5
1B7
 10
359.40092
 20
296.785619
 30
0.0
 40
2.286465
 50
282.000248
 51
332.56643
  0
LINE
  8
LC-001-002-----0
  6
CONTINUOUS
  5
1B8
 10
173.7917
 20
289.531757
 30
0.0
 11
178.821811
 21
289.531768
 31
0.0
  0
LINE
  8
LC-001-002-----0
  6
CONTINUOUS
  5
1B9
 10
173.7917
 20
289.531757
 30
0.0
 11
153.399996
 21
293.86624
 31
0.0
  0
LINE
  8
LC-001-002-----0
  6
CONTINUOUS
  5
1BA
 10
182.964694
 20
292.731634
 30
0.0
 11
190.464694
 21
292.73168
 31
0.0
  0
ARC
  8
LC-003-002-RND-0
  6
CONTINUOUS
  5
1BB
 10
178.821801
 20
290.531768
 30
0.0
 40
1.0
 50
270.000575
 51
315.0
  0
ARC
  8
LC-003-002-RND-0
  6
CONTINUOUS
  5
1BC
 10
171.704767
 20
288.945794
 30
0.0
 40
1.0
 50
71.979716
 51
78.771206
  0
LINE
  8
LC-001-002-----0
  6
CONTINUOUS
  5
1BD
 10
181.735872
 20
292.031626
 30
0.0
 11
179.528908
 21
289.824662
 31
0.0
  0
LINE
  8
LC-001-002-----0
  6
CONTINUOUS
  5
1BE
 10
151.220468
 20
295.732201
 30
0.0
 11
152.000096
 21
295.732199
 31
0.0
  0
ARC
  8
LC-001-002-----0
  6
CONTINUOUS
  5
1BF
 10
198.715186
 20
290.731732
 30
0.0
 40
1.0
 50
269.999003
 51
90.001713
  0
ARC
  8
LC-001-002-----0
  6
CONTINUOUS
  5
1C0
 10
154.029438
 20
296.785619
 30
0.0
 40
3.0
 50
200.557023
 51
257.999752
  0
LINE
  8
LC-001-002-----0
  6
CONTINUOUS
  5
1C1
 10
332.189461
 20
292.526601
 30
0.0
 11
334.396425
 21
290.319636
 31
0.0
  0
ARC
  8
LC-001-002-----0
  6
CONTINUOUS
  5
1C2
 10
334.608557
 20
290.531768
 30
0.0
 40
0.3
 50
225.0
 51
269.999874
  0
LINE
  8
LC-001-002-----0
  6
CONTINUOUS
  5
1C3
 10
334.608556
 20
290.231768
 30
0.0
 11
339.565084
 21
290.231758
 31
0.0
  0
LINE
  8
LC-001-002-----0
  6
CONTINUOUS
  5
1C4
 10
193.254692
 20
291.3117
 30
0.0
 11
192.714694
 21
292.031694
 31
0.0
  0
LINE
  8
LC-001-002-----0
  6
CONTINUOUS
  5
1C5
 10
198.715188
 20
290.431732
 30
0.0
 11
197.215186
 21
290.431723
 31
0.0
  0
LINE
  8
LC-001-002-----0
  6
CONTINUOUS
  5
1C6
 10
197.215186
 20
290.431723
 30
0.0
 11
197.215186
 21
289.731723
 31
0.0
  0
ARC
  8
LC-001-002-----0
  6
CONTINUOUS
  5
1C7
 10
198.715186
 20
290.731732
 30
0.0
 40
0.3
 50
269.991704
 51
90.009012
  0
LINE
  8
LC-001-002-----0
  6
CONTINUOUS
  5
1C8
 10
192.714694
 20
292.031694
 30
0.0
 11
190.464694
 21
292.03168
 31
0.0
  0
LINE
  8
LC-001-002-----0
  6
CONTINUOUS
  5
1C9
 10
176.070841
 20
258.273199
 30
0.0
 11
175.715179
 21
258.273199
 31
0.0
  0
LINE
  8
LC-001-002-----0
  6
CONTINUOUS
  5
1CA
 10
177.570841
 20
258.273199
 30
0.0
 11
176.359517
 21
258.273199
 31
0.0
  0
LINE
  8
LC-001-002-----0
  6
CONTINUOUS
  5
1CB
 10
190.464694
 20
292.03168
 30
0.0
 11
190.464694
 21
292.73168
 31
0.0
  0
LINE
  8
LC-001-002-----0
  6
CONTINUOUS
  5
1CC
 10
179.070841
 20
258.273199
 30
0.0
 11
177.859517
 21
258.273199
 31
0.0
  0
LINE
  8
LC-001-002-----0
  6
CONTINUOUS
  5
1CD
 10
190.464694
 20
292.73168
 30
0.0
 11
192.714689
 21
292.731694
 31
0.0
  0
LINE
  8
LC-001-002-----0
  6
CONTINUOUS
  5
1CE
 10
314.715178
 20
291.731732
 30
0.0
 11
319.615667
 21
291.731701
 31
0.0
  0
LINE
  8
LC-001-002-----0
  6
CONTINUOUS
  5
1CF
 10
181.735872
 20
292.031626
 30
0.0
 11
182.964694
 21
292.031634
 31
0.0
  0
LINE
  8
LC-001-002-----0
  6
CONTINUOUS
  5
1D0
 10
182.964694
 20
292.031634
 30
0.0
 11
182.964694
 21
292.731634
 31
0.0
  0
LINE
  8
LC-001-002-----0
  6
CONTINUOUS
  5
1D1
 10
182.964694
 20
292.731634
 30
0.0
 11
181.735868
 21
292.731626
 31
0.0
  0
LINE
  8
LC-001-002-----0
  6
CONTINUOUS
  5
1D2
 10
173.865274
 20
290.231758
 30
0.0
 11
153.554046
 21
294.549121
 31
0.0
  0
ARC
  8
LC-001-002-----0
  6
CONTINUOUS
  5
1D3
 10
154.029438
 20
296.785619
 30
0.0
 40
2.286465
 50
207.43357
 51
257.999752
  0
LINE
  8
LC-001-002-----0
  6
CONTINUOUS
  5
1D4
 10
181.240897
 20
292.526601
 30
0.0
 11
179.033933
 21
290.319636
 31
0.0
  0
ARC
  8
LC-001-002-----0
  6
CONTINUOUS
  5
1D5
 10
178.821801
 20
290.531768
 30
0.0
 40
0.3
 50
270.000126
 51
315.0
  0
LINE
  8
LC-001-002-----0
  6
CONTINUOUS
  5
1D6
 10
178.821802
 20
290.231768
 30
0.0
 11
173.865274
 21
290.231758
 31
0.0
  0
LINE
  8
LC-001-002-----0
  6
CONTINUOUS
  5
1D7
 10
198.71518
 20
291.731732
 30
0.0
 11
193.814691
 21
291.731701
 31
0.0
  0
LINE
  8
LC-001-002-----0
  6
CONTINUOUS
  5
1D8
 10
179.070841
 20
262.273199
 30
0.0
 11
177.859517
 21
262.273199
 31
0.0
  0
LINE
  8
LC-001-002-----0
  6
CONTINUOUS
  5
1D9
 10
177.570841
 20
262.273199
 30
0.0
 11
176.359517
 21
262.273199
 31
0.0
  0
LINE
  8
LC-001-002-----0
  6
CONTINUOUS
  5
1DA
 10
176.070841
 20
262.273199
 30
0.0
 11
175.715179
 21
262.273199
 31
0.0
  0
LINE
  8
LC-001-002-----0
  6
CONTINUOUS
  5
1DB
 10
179.215179
 20
262.523199
 30
0.0
 11
256.715179
 21
262.523199
 31
0.0
  0
LINE
  8
LC-001-002-----0
  6
CONTINUOUS
  5
1DC
 10
176.215179
 20
262.523199
 30
0.0
 11
177.715179
 21
262.523199
 31
0.0
  0
LINE
  8
LC-001-002-----0
  6
CONTINUOUS
  5
1DD
 10
177.715179
 20
262.523199
 30
0.0
 11
179.215179
 21
262.523199
 31
0.0
  0
LINE
  8
LC-001-002-----0
  6
CONTINUOUS
  5
1DE
 10
176.215179
 20
258.023199
 30
0.0
 11
177.715179
 21
258.023199
 31
0.0
  0
LINE
  8
LC-001-002-----0
  6
CONTINUOUS
  5
1DF
 10
177.715179
 20
258.023199
 30
0.0
 11
179.215179
 21
258.023199
 31
0.0
  0
LINE
  8
LC-001-002-----0
  6
CONTINUOUS
  5
1E0
 10
179.215179
 20
258.023199
 30
0.0
 11
256.715179
 21
258.023199
 31
0.0
  0
LINE
  8
LC-001-002-----0
  6
CONTINUOUS
  5
1E1
 10
338.715179
 20
259.273199
 30
0.0
 11
338.715179
 21
261.273199
 31
0.0
  0
LINE
  8
LC-001-002-----0
  6
CONTINUOUS
  5
1E2
 10
332.715179
 20
262.273199
 30
0.0
 11
334.070841
 21
262.273199
 31
0.0
  0
LINE
  8
LC-001-002-----0
  6
CONTINUOUS
  5
1E3
 10
332.715179
 20
261.273199
 30
0.0
 11
332.715179
 21
259.273199
 31
0.0
  0
LINE
  8
LC-001-002-----0
  6
CONTINUOUS
  5
1E4
 10
332.715179
 20
259.273199
 30
0.0
 11
333.715179
 21
258.273199
 31
0.0
  0
LINE
  8
LC-001-002-----0
  6
CONTINUOUS
  5
1E5
 10
337.215179
 20
262.523199
 30
0.0
 11
337.070841
 21
262.273199
 31
0.0
  0
LINE
  8
LC-001-002-----0
  6
CONTINUOUS
  5
1E6
 10
337.359517
 20
262.273199
 30
0.0
 11
337.215179
 21
262.523199
 31
0.0
  0
LINE
  8
LC-001-002-----0
  6
CONTINUOUS
  5
1E7
 10
335.859517
 20
262.273199
 30
0.0
 11
335.715179
 21
262.523199
 31
0.0
  0
LINE
  8
LC-001-002-----0
  6
CONTINUOUS
  5
1E8
 10
334.359517
 20
262.273199
 30
0.0
 11
334.215179
 21
262.523199
 31
0.0
  0
LINE
  8
LC-001-002-----0
  6
CONTINUOUS
  5
1E9
 10
334.215179
 20
258.023199
 30
0.0
 11
334.070841
 21
258.273199
 31
0.0
  0
LINE
  8
LC-001-002-----0
  6
CONTINUOUS
  5
1EA
 10
335.715179
 20
258.023199
 30
0.0
 11
335.570841
 21
258.273199
 31
0.0
  0
LINE
  8
LC-001-002-----0
  6
CONTINUOUS
  5
1EB
 10
337.215179
 20
258.023199
 30
0.0
 11
337.070841
 21
258.273199
 31
0.0
  0
LINE
  8
LC-001-002-----0
  6
CONTINUOUS
  5
1EC
 10
335.715179
 20
262.523199
 30
0.0
 11
335.570841
 21
262.273199
 31
0.0
  0
LINE
  8
LC-001-002-----0
  6
CONTINUOUS
  5
1ED
 10
334.215179
 20
262.523199
 30
0.0
 11
334.070841
 21
262.273199
 31
0.0
  0
LINE
  8
LC-001-002-----0
  6
CONTINUOUS
  5
1EE
 10
334.359517
 20
258.273199
 30
0.0
 11
334.215179
 21
258.023199
 31
0.0
  0
LINE
  8
LC-001-002-----0
  6
CONTINUOUS
  5
1EF
 10
335.859517
 20
258.273199
 30
0.0
 11
335.715179
 21
258.023199
 31
0.0
  0
LINE
  8
LC-001-002-----0
  6
CONTINUOUS
  5
1F0
 10
337.359517
 20
258.273199
 30
0.0
 11
337.215179
 21
258.023199
 31
0.0
  0
LINE
  8
LC-001-002-----0
  6
CONTINUOUS
  5
1F1
 10
337.359517
 20
258.273199
 30
0.0
 11
337.715179
 21
258.273199
 31
0.0
  0
LINE
  8
LC-001-002-----0
  6
CONTINUOUS
  5
1F2
 10
335.859517
 20
258.273199
 30
0.0
 11
337.070841
 21
258.273199
 31
0.0
  0
LINE
  8
LC-001-002-----0
  6
CONTINUOUS
  5
1F3
 10
334.359517
 20
258.273199
 30
0.0
 11
335.570841
 21
258.273199
 31
0.0
  0
LINE
  8
LC-001-002-----0
  6
CONTINUOUS
  5
1F4
 10
334.359517
 20
262.273199
 30
0.0
 11
335.570841
 21
262.273199
 31
0.0
  0
LINE
  8
LC-001-002-----0
  6
CONTINUOUS
  5
1F5
 10
335.859517
 20
262.273199
 30
0.0
 11
337.070841
 21
262.273199
 31
0.0
  0
LINE
  8
LC-001-002-----0
  6
CONTINUOUS
  5
1F6
 10
337.359517
 20
262.273199
 30
0.0
 11
337.715179
 21
262.273199
 31
0.0
  0
LINE
  8
LC-001-002-----0
  6
CONTINUOUS
  5
1F7
 10
334.215179
 20
262.523199
 30
0.0
 11
256.715179
 21
262.523199
 31
0.0
  0
LINE
  8
LC-001-002-----0
  6
CONTINUOUS
  5
1F8
 10
337.215179
 20
262.523199
 30
0.0
 11
335.715179
 21
262.523199
 31
0.0
  0
LINE
  8
LC-001-002-----0
  6
CONTINUOUS
  5
1F9
 10
335.715179
 20
262.523199
 30
0.0
 11
334.215179
 21
262.523199
 31
0.0
  0
LINE
  8
LC-001-002-----0
  6
CONTINUOUS
  5
1FA
 10
337.215179
 20
258.023199
 30
0.0
 11
335.715179
 21
258.023199
 31
0.0
  0
LINE
  8
LC-001-002-----0
  6
CONTINUOUS
  5
1FB
 10
335.715179
 20
258.023199
 30
0.0
 11
334.215179
 21
258.023199
 31
0.0
  0
LINE
  8
LC-001-002-----0
  6
CONTINUOUS
  5
1FC
 10
334.215179
 20
258.023199
 30
0.0
 11
256.715179
 21
258.023199
 31
0.0
  0
ARC
  8
LC-001-002-----0
  6
CONTINUOUS
  5
1FD
 10
256.715179
 20
143.927301
 30
0.0
 40
75.0
 50
265.187651
 51
274.812349
  0
ARC
  8
LC-003-002-RND-0
  6
CONTINUOUS
  5
1FE
 10
263.965179
 20
68.797133
 30
0.0
 40
0.5
 50
180.0
 51
275.511929
  0
ARC
  8
LC-003-002-RND-0
  6
CONTINUOUS
  5
1FF
 10
249.465179
 20
68.797133
 30
0.0
 40
0.5
 50
264.488071
 51
0.0
  0
ARC
  8
LC-001-002-----0
  6
CONTINUOUS
  5
200
 10
256.715179
 20
143.927301
 30
0.0
 40
69.0
 50
275.871493
 51
324.128507
  0
ARC
  8
LC-001-002-----0
  6
CONTINUOUS
  5
201
 10
256.715179
 20
143.927301
 30
0.0
 40
70.0
 50
275.902554
 51
324.097446
  0
ARC
  8
LC-001-002-----0
  6
CONTINUOUS
  5
202
 10
317.337377
 20
108.927058
 30
0.0
 40
6.75
 50
60.0
 51
240.0
  0
ARC
  8
LC-001-002-----0
  6
CONTINUOUS
  5
203
 10
317.337377
 20
178.927543
 30
0.0
 40
6.75
 50
120.0
 51
300.0
  0
ARC
  8
LC-001-002-----0
  6
CONTINUOUS
  5
204
 10
256.715179
 20
213.927786
 30
0.0
 40
6.75
 50
180.0
 51
360.0
  0
ARC
  8
LC-001-002-----0
  6
CONTINUOUS
  5
205
 10
196.092981
 20
178.927543
 30
0.0
 40
6.75
 50
240.0
 51
60.0
  0
ARC
  8
LC-001-002-----0
  6
CONTINUOUS
  5
206
 10
196.092981
 20
108.927058
 30
0.0
 40
6.75
 50
300.0
 51
120.0
  0
LINE
  8
LC-001-002-----0
  6
CONTINUOUS
  5
207
 10
320.712377
 20
114.77273
 30
0.0
 11
325.154813
 21
112.207888
 31
0.0
  0
LINE
  8
LC-001-002-----0
  6
CONTINUOUS
  5
208
 10
313.962377
 20
184.773215
 30
0.0
 11
318.404813
 21
187.338056
 31
0.0
  0
LINE
  8
LC-001-002-----0
  6
CONTINUOUS
  5
209
 10
249.965179
 20
213.927786
 30
0.0
 11
249.965179
 21
219.057468
 31
0.0
  0
LINE
  8
LC-001-002-----0
  6
CONTINUOUS
  5
20A
 10
192.717981
 20
173.081872
 30
0.0
 11
188.275545
 21
175.646713
 31
0.0
  0
LINE
  8
LC-001-002-----0
  6
CONTINUOUS
  5
20B
 10
199.467981
 20
103.081387
 30
0.0
 11
195.025545
 21
100.516545
 31
0.0
  0
LINE
  8
LC-001-002-----0
  6
CONTINUOUS
  5
20C
 10
313.962377
 20
103.081387
 30
0.0
 11
318.404813
 21
100.516545
 31
0.0
  0
LINE
  8
LC-001-002-----0
  6
CONTINUOUS
  5
20D
 10
320.712377
 20
173.081872
 30
0.0
 11
325.154813
 21
175.646713
 31
0.0
  0
LINE
  8
LC-001-002-----0
  6
CONTINUOUS
  5
20E
 10
263.465179
 20
213.927786
 30
0.0
 11
263.465179
 21
219.057468
 31
0.0
  0
LINE
  8
LC-001-002-----0
  6
CONTINUOUS
  5
20F
 10
199.467981
 20
184.773215
 30
0.0
 11
195.025545
 21
187.338056
 31
0.0
  0
LINE
  8
LC-001-002-----0
  6
CONTINUOUS
  5
210
 10
192.717981
 20
114.77273
 30
0.0
 11
188.275545
 21
112.207888
 31
0.0
  0
ARC
  8
LC-001-002-----0
  6
CONTINUOUS
  5
211
 10
256.715179
 20
143.927301
 30
0.0
 40
75.0
 50
325.187651
 51
334.812349
  0
ARC
  8
LC-001-002-----0
  6
CONTINUOUS
  5
212
 10
256.715179
 20
143.927301
 30
0.0
 40
75.0
 50
25.187651
 51
34.812349
  0
ARC
  8
LC-001-002-----0
  6
CONTINUOUS
  5
213
 10
256.715179
 20
143.927301
 30
0.0
 40
75.0
 50
85.187651
 51
94.812349
  0
ARC
  8
LC-001-002-----0
  6
CONTINUOUS
  5
214
 10
256.715179
 20
143.927301
 30
0.0
 40
75.0
 50
145.187651
 51
154.812349
  0
ARC
  8
LC-001-002-----0
  6
CONTINUOUS
  5
215
 10
256.715179
 20
143.927301
 30
0.0
 40
75.0
 50
205.187651
 51
214.812349
  0
ARC
  8
LC-001-002-----0
  6
CONTINUOUS
  5
216
 10
256.715179
 20
143.927301
 30
0.0
 40
75.979167
 50
335.511929
 51
24.488071
  0
ARC
  8
LC-003-002-RND-0
  6
CONTINUOUS
  5
217
 10
250.465179
 20
69.689928
 30
0.0
 40
0.5
 50
180.0
 51
265.187651
  0
ARC
  8
LC-003-002-RND-0
  6
CONTINUOUS
  5
218
 10
262.965179
 20
69.689928
 30
0.0
 40
0.5
 50
274.812349
 51
0.0
  0
ARC
  8
LC-003-002-RND-0
  6
CONTINUOUS
  5
219
 10
263.722566
 20
75.786663
 30
0.0
 40
0.5
 50
194.864302
 51
275.871493
  0
ARC
  8
LC-003-002-RND-0
  6
CONTINUOUS
  5
21A
 10
263.965179
 20
73.801075
 30
0.0
 40
0.5
 50
95.902554
 51
180.0
  0
LINE
  8
LC-001-002-----0
  6
CONTINUOUS
  5
21B
 10
263.465179
 20
66.326931
 30
0.0
 11
263.465179
 21
66.326931
 31
0.0
  0
ARC
  8
LC-001-002-----0
  6
CONTINUOUS
  5
21C
 10
256.715179
 20
143.927301
 30
0.0
 40
69.0
 50
335.871493
 51
24.128507
  0
ARC
  8
LC-001-002-----0
  6
CONTINUOUS
  5
21D
 10
256.715179
 20
143.927301
 30
0.0
 40
69.0
 50
35.871493
 51
84.128507
  0
ARC
  8
LC-001-002-----0
  6
CONTINUOUS
  5
21E
 10
256.715179
 20
143.927301
 30
0.0
 40
69.0
 50
95.871493
 51
144.128507
  0
ARC
  8
LC-001-002-----0
  6
CONTINUOUS
  5
21F
 10
256.715179
 20
143.927301
 30
0.0
 40
69.0
 50
155.871493
 51
204.128507
  0
ARC
  8
LC-001-002-----0
  6
CONTINUOUS
  5
220
 10
256.715179
 20
143.927301
 30
0.0
 40
69.0
 50
215.871493
 51
264.128507
  0
ARC
  8
LC-001-002-----0
  6
CONTINUOUS
  5
221
 10
256.715179
 20
143.927301
 30
0.0
 40
70.0
 50
335.902554
 51
24.097446
  0
ARC
  8
LC-001-002-----0
  6
CONTINUOUS
  5
222
 10
256.715179
 20
143.927301
 30
0.0
 40
70.0
 50
35.902554
 51
84.097446
  0
ARC
  8
LC-001-002-----0
  6
CONTINUOUS
  5
223
 10
256.715179
 20
143.927301
 30
0.0
 40
70.0
 50
95.902554
 51
144.097446
  0
ARC
  8
LC-001-002-----0
  6
CONTINUOUS
  5
224
 10
256.715179
 20
143.927301
 30
0.0
 40
70.0
 50
155.902554
 51
204.097446
  0
ARC
  8
LC-001-002-----0
  6
CONTINUOUS
  5
225
 10
256.715179
 20
143.927301
 30
0.0
 40
70.0
 50
215.902554
 51
264.097446
  0
ARC
  8
LC-003-002-RND-0
  6
CONTINUOUS
  5
226
 10
325.404813
 20
112.640901
 30
0.0
 40
0.5
 50
240.0
 51
335.511929
  0
ARC
  8
LC-003-002-RND-0
  6
CONTINUOUS
  5
227
 10
318.154813
 20
100.083533
 30
0.0
 40
0.5
 50
324.488071
 51
60.0
  0
ARC
  8
LC-003-002-RND-0
  6
CONTINUOUS
  5
228
 10
324.13163
 20
112.221273
 30
0.0
 40
0.5
 50
334.812349
 51
60.0
  0
ARC
  8
LC-003-002-RND-0
  6
CONTINUOUS
  5
229
 10
317.88163
 20
101.395956
 30
0.0
 40
0.5
 50
240.0
 51
325.187651
  0
ARC
  8
LC-003-002-RND-0
  6
CONTINUOUS
  5
22A
 10
321.071272
 20
115.142872
 30
0.0
 40
0.5
 50
155.902554
 51
240.0
  0
ARC
  8
LC-003-002-RND-0
  6
CONTINUOUS
  5
22B
 10
319.230396
 20
115.925557
 30
0.0
 40
0.5
 50
254.864302
 51
335.871493
  0
ARC
  8
LC-003-002-RND-0
  6
CONTINUOUS
  5
22C
 10
312.223009
 20
103.788407
 30
0.0
 40
0.5
 50
324.128507
 51
45.135698
  0
ARC
  8
LC-003-002-RND-0
  6
CONTINUOUS
  5
22D
 10
313.821272
 20
102.585504
 30
0.0
 40
0.5
 50
60.0
 51
144.097446
  0
ARC
  8
LC-003-002-RND-0
  6
CONTINUOUS
  5
22E
 10
319.230396
 20
171.929045
 30
0.0
 40
0.5
 50
24.128507
 51
105.135698
  0
ARC
  8
LC-003-002-RND-0
  6
CONTINUOUS
  5
22F
 10
321.071272
 20
172.711729
 30
0.0
 40
0.5
 50
120.0
 51
204.097446
  0
ARC
  8
LC-003-002-RND-0
  6
CONTINUOUS
  5
230
 10
313.821272
 20
185.269098
 30
0.0
 40
0.5
 50
215.902554
 51
300.0
  0
ARC
  8
LC-003-002-RND-0
  6
CONTINUOUS
  5
231
 10
312.223009
 20
184.066195
 30
0.0
 40
0.5
 50
314.864302
 51
35.871493
  0
ARC
  8
LC-003-002-RND-0
  6
CONTINUOUS
  5
232
 10
317.88163
 20
186.458646
 30
0.0
 40
0.5
 50
34.812349
 51
120.0
  0
ARC
  8
LC-003-002-RND-0
  6
CONTINUOUS
  5
233
 10
324.13163
 20
175.633328
 30
0.0
 40
0.5
 50
300.0
 51
25.187651
  0
ARC
  8
LC-001-002-----0
  6
CONTINUOUS
  5
234
 10
256.715179
 20
143.927301
 30
0.0
 40
75.979167
 50
35.511929
 51
84.488071
  0
ARC
  8
LC-003-002-RND-0
  6
CONTINUOUS
  5
235
 10
325.404813
 20
175.2137
 30
0.0
 40
0.5
 50
24.488071
 51
120.0
  0
ARC
  8
LC-003-002-RND-0
  6
CONTINUOUS
  5
236
 10
318.154813
 20
187.771069
 30
0.0
 40
0.5
 50
300.0
 51
35.511929
  0
ARC
  8
LC-001-002-----0
  6
CONTINUOUS
  5
237
 10
256.715179
 20
143.927301
 30
0.0
 40
75.979167
 50
95.511929
 51
144.488071
  0
ARC
  8
LC-003-002-RND-0
  6
CONTINUOUS
  5
238
 10
263.965179
 20
219.057468
 30
0.0
 40
0.5
 50
84.488071
 51
180.0
  0
ARC
  8
LC-003-002-RND-0
  6
CONTINUOUS
  5
239
 10
249.465179
 20
219.057468
 30
0.0
 40
0.5
 50
0.0
 51
95.511929
  0
ARC
  8
LC-003-002-RND-0
  6
CONTINUOUS
  5
23A
 10
250.465179
 20
218.164673
 30
0.0
 40
0.5
 50
94.812349
 51
180.0
  0
ARC
  8
LC-003-002-RND-0
  6
CONTINUOUS
  5
23B
 10
262.965179
 20
218.164673
 30
0.0
 40
0.5
 50
0.0
 51
85.187651
  0
ARC
  8
LC-003-002-RND-0
  6
CONTINUOUS
  5
23C
 10
263.965179
 20
214.053526
 30
0.0
 40
0.5
 50
180.0
 51
264.097446
  0
ARC
  8
LC-003-002-RND-0
  6
CONTINUOUS
  5
23D
 10
263.722566
 20
212.067939
 30
0.0
 40
0.5
 50
84.128507
 51
165.135698
  0
ARC
  8
LC-003-002-RND-0
  6
CONTINUOUS
  5
23E
 10
249.707792
 20
212.067939
 30
0.0
 40
0.5
 50
14.864302
 51
95.871493
  0
ARC
  8
LC-003-002-RND-0
  6
CONTINUOUS
  5
23F
 10
249.465179
 20
214.053526
 30
0.0
 40
0.5
 50
275.902554
 51
0.0
  0
ARC
  8
LC-003-002-RND-0
  6
CONTINUOUS
  5
240
 10
192.359086
 20
172.711729
 30
0.0
 40
0.5
 50
335.902554
 51
60.0
  0
ARC
  8
LC-003-002-RND-0
  6
CONTINUOUS
  5
241
 10
194.199962
 20
171.929045
 30
0.0
 40
0.5
 50
74.864302
 51
155.871493
  0
ARC
  8
LC-003-002-RND-0
  6
CONTINUOUS
  5
242
 10
201.207349
 20
184.066195
 30
0.0
 40
0.5
 50
144.128507
 51
225.135698
  0
ARC
  8
LC-003-002-RND-0
  6
CONTINUOUS
  5
243
 10
199.609086
 20
185.269098
 30
0.0
 40
0.5
 50
240.0
 51
324.097446
  0
ARC
  8
LC-003-002-RND-0
  6
CONTINUOUS
  5
244
 10
195.548728
 20
186.458646
 30
0.0
 40
0.5
 50
60.0
 51
145.187651
  0
ARC
  8
LC-003-002-RND-0
  6
CONTINUOUS
  5
245
 10
189.298728
 20
175.633328
 30
0.0
 40
0.5
 50
154.812349
 51
240.0
  0
ARC
  8
LC-001-002-----0
  6
CONTINUOUS
  5
246
 10
256.715179
 20
143.927301
 30
0.0
 40
75.979167
 50
155.511929
 51
204.488071
  0
ARC
  8
LC-003-002-RND-0
  6
CONTINUOUS
  5
247
 10
195.275545
 20
187.771069
 30
0.0
 40
0.5
 50
144.488071
 51
240.0
  0
ARC
  8
LC-003-002-RND-0
  6
CONTINUOUS
  5
248
 10
188.025545
 20
175.2137
 30
0.0
 40
0.5
 50
60.0
 51
155.511929
  0
ARC
  8
LC-001-002-----0
  6
CONTINUOUS
  5
249
 10
256.715179
 20
143.927301
 30
0.0
 40
75.979167
 50
215.511929
 51
264.488071
  0
ARC
  8
LC-003-002-RND-0
  6
CONTINUOUS
  5
24A
 10
188.025545
 20
112.640901
 30
0.0
 40
0.5
 50
204.488071
 51
300.0
  0
ARC
  8
LC-003-002-RND-0
  6
CONTINUOUS
  5
24B
 10
195.275545
 20
100.083533
 30
0.0
 40
0.5
 50
120.0
 51
215.511929
  0
ARC
  8
LC-003-002-RND-0
  6
CONTINUOUS
  5
24C
 10
195.548728
 20
101.395956
 30
0.0
 40
0.5
 50
214.812349
 51
300.0
  0
ARC
  8
LC-003-002-RND-0
  6
CONTINUOUS
  5
24D
 10
189.298728
 20
112.221273
 30
0.0
 40
0.5
 50
120.0
 51
205.187651
  0
ARC
  8
LC-003-002-RND-0
  6
CONTINUOUS
  5
24E
 10
201.207349
 20
103.788407
 30
0.0
 40
0.5
 50
134.864302
 51
215.871493
  0
ARC
  8
LC-003-002-RND-0
  6
CONTINUOUS
  5
24F
 10
199.609086
 20
102.585504
 30
0.0
 40
0.5
 50
35.902554
 51
120.0
  0
ARC
  8
LC-003-002-RND-0
  6
CONTINUOUS
  5
250
 10
194.199962
 20
115.925557
 30
0.0
 40
0.5
 50
204.128507
 51
285.135698
  0
ARC
  8
LC-003-002-RND-0
  6
CONTINUOUS
  5
251
 10
192.359086
 20
115.142872
 30
0.0
 40
0.5
 50
300.0
 51
24.097446
  0
CIRCLE
  8
LC-001-002-----0
  6
CONTINUOUS
  5
252
 10
256.715179
 20
143.927301
 30
0.0
 40
104.786652
  0
CIRCLE
  8
LC-001-002-----0
  6
CONTINUOUS
 62
     2
  5
253
 10
256.715179
 20
143.927301
 30
0.0
 40
103.828085
  0
ARC
  8
LC-005-003-----0
  6
CONTINUOUS
  5
254
 10
256.715179
 20
143.927301
 30
0.0
 40
56.999993
 50
206.215861
 51
210.718259
  0
ARC
  8
LC-001-002-----0
  6
CONTINUOUS
  5
255
 10
256.715179
 20
204.177786
 30
0.0
 40
3.0
 50
7.978778
 51
172.021222
  0
LINE
  8
LC-001-002-----0
  6
CONTINUOUS
  5
256
 10
253.74422
 20
204.594205
 30
0.0
 11
253.327773
 21
201.62304
 31
0.0
  0
LINE
  8
LC-001-002-----0
  6
CONTINUOUS
  5
257
 10
259.686138
 20
204.594205
 30
0.0
 11
260.102585
 21
201.62304
 31
0.0
  0
ARC
  8
LC-003-002-RND-0
  6
CONTINUOUS
  5
258
 10
261.092905
 20
201.761847
 30
0.0
 40
1.0
 50
187.978778
 51
265.67131
  0
ARC
  8
LC-003-002-RND-0
  6
CONTINUOUS
  5
259
 10
252.337453
 20
201.761847
 30
0.0
 40
1.0
 50
274.32869
 51
352.021222
  0
ARC
  8
LC-003-002-RND-0
  6
CONTINUOUS
  5
25A
 10
204.44013
 20
118.80125
 30
0.0
 40
1.0
 50
307.978778
 51
25.67131
  0
LINE
  8
LC-001-002-----0
  6
CONTINUOUS
  5
25B
 10
202.69062
 20
116.166774
 30
0.0
 11
205.055499
 21
118.013011
 31
0.0
  0
ARC
  8
LC-001-002-----0
  6
CONTINUOUS
  5
25C
 10
204.536728
 20
113.802058
 30
0.0
 40
3.0
 50
127.978778
 51
292.021222
  0
LINE
  8
LC-001-002-----0
  6
CONTINUOUS
  5
25D
 10
205.661578
 20
111.020923
 30
0.0
 11
208.442906
 21
112.145851
 31
0.0
  0
ARC
  8
LC-003-002-RND-0
  6
CONTINUOUS
  5
25E
 10
208.817856
 20
111.218806
 30
0.0
 40
1.0
 50
34.32869
 51
112.021222
  0
ARC
  8
LC-001-002-----0
  6
CONTINUOUS
  5
25F
 10
256.715179
 20
143.927301
 30
0.0
 40
56.999993
 50
94.32869
 51
205.67131
  0
ARC
  8
LC-010-006-MLN-0
  6
DASHDOT
  5
262
 10
256.715179
 20
143.927301
 30
0.0
 40
60.250485
 50
77.59818
 51
102.40182
  0
LINE
  8
LC-001-002-----0
  6
CONTINUOUS
  5
263
 10
259.686138
 20
204.594205
 30
0.0
 11
260.102585
 21
201.62304
 31
0.0
  0
ARC
  8
LC-010-006-MLN-0
  6
DASHDOT
  5
264
 10
256.715179
 20
143.927301
 30
0.0
 40
60.250485
 50
77.59818
 51
102.40182
  0
ARC
  8
LC-001-002-----0
  6
CONTINUOUS
  5
265
 10
308.89363
 20
113.802058
 30
0.0
 40
3.0
 50
247.978778
 51
52.021222
  0
ARC
  8
LC-003-002-RND-0
  6
CONTINUOUS
  5
266
 10
304.612502
 20
111.218806
 30
0.0
 40
1.0
 50
67.978778
 51
145.67131
  0
LINE
  8
LC-001-002-----0
  6
CONTINUOUS
  5
267
 10
307.76878
 20
111.020923
 30
0.0
 11
304.987452
 21
112.145851
 31
0.0
  0
LINE
  8
LC-001-002-----0
  6
CONTINUOUS
  5
268
 10
310.739738
 20
116.166774
 30
0.0
 11
308.374858
 21
118.013011
 31
0.0
  0
ARC
  8
LC-003-002-RND-0
  6
CONTINUOUS
  5
269
 10
308.990228
 20
118.80125
 30
0.0
 40
1.0
 50
154.32869
 51
232.021222
  0
ARC
  8
LC-001-002-----0
  6
CONTINUOUS
  5
26A
 10
256.715179
 20
143.927301
 30
0.0
 40
56.999993
 50
334.32869
 51
85.67131
  0
LINE
  8
LC-001-002-----0
  6
DASHDOT
 62
     2
  5
26B
 10
256.715179
 20
262.523199
 30
0.0
 11
256.715179
 21
258.023199
 31
0.0
  0
LINE
  8
LC-001-002-----0
  6
DASHDOT
 62
     2
  5
26C
 10
256.715179
 20
249.677301
 30
0.0
 11
256.715179
 21
38.177301
 31
0.0
  0
LINE
  8
LC-001-002-----0
  6
DASHDOT
 62
     2
  5
26D
 10
326.714422
 20
324.614938
 30
0.0
 11
326.714422
 21
291.031699
 31
0.0
  0
LINE
  8
LC-001-002-----0
  6
DASHDOT
 62
     2
  5
26E
 10
186.7147
 20
324.614029
 30
0.0
 11
186.7147
 21
291.031699
 31
0.0
  0
ENDSEC
  0
EOF
