  0
SECTION
  2
HEADER
  9
$ACADVER
  1
AC1015
  9
$ACADMAINTVER
 70
     6
  9
$DWGCODEPAGE
  3
ANSI_1252
  9
$INSBASE
 10
0.0
 20
0.0
 30
0.0
  9
$EXTMIN
 10
-237.552845
 20
-164.616305
 30
0.0
  9
$EXTMAX
 10
602.447155
 20
429.383695
 30
0.0
  9
$LIMMIN
 10
-237.552845
 20
-164.616305
  9
$LIMMAX
 10
602.447155
 20
429.383695
  9
$ORTHOMODE
 70
     0
  9
$REGENMODE
 70
     1
  9
$FILLMODE
 70
     1
  9
$QTEXTMODE
 70
     0
  9
$MIRRTEXT
 70
     1
  9
$LTSCALE
 40
2.0
  9
$ATTMODE
 70
     1
  9
$TEXTSIZE
 40
2.5
  9
$TRACEWID
 40
1.0
  9
$TEXTSTYLE
  7
Standard
  9
$CLAYER
  8
0
  9
$CELTYPE
  6
ByLayer
  9
$CECOLOR
 62
     7
  9
$CELTSCALE
 40
1.0
  9
$DISPSILH
 70
     0
  9
$DIMSCALE
 40
2.0
  9
$DIMASZ
 40
3.5
  9
$DIMEXO
 40
0.625
  9
$DIMDLI
 40
3.75
  9
$DIMRND
 40
0.0
  9
$DIMDLE
 40
0.0
  9
$DIMEXE
 40
1.25
  9
$DIMTP
 40
0.0
  9
$DIMTM
 40
0.0
  9
$DIMTXT
 40
3.5
  9
$DIMCEN
 40
2.5
  9
$DIMTSZ
 40
0.0
  9
$DIMTOL
 70
     0
  9
$DIMLIM
 70
     0
  9
$DIMTIH
 70
     0
  9
$DIMTOH
 70
     0
  9
$DIMSE1
 70
     0
  9
$DIMSE2
 70
     0
  9
$DIMTAD
 70
     1
  9
$DIMZIN
 70
     8
  9
$DIMBLK
  1

  9
$DIMASO
 70
     1
  9
$DIMSHO
 70
     1
  9
$DIMPOST
  1

  9
$DIMAPOST
  1

  9
$DIMALT
 70
     0
  9
$DIMALTD
 70
     3
  9
$DIMALTF
 40
0.03937
  9
$DIMLFAC
 40
1.0
  9
$DIMTOFL
 70
     1
  9
$DIMTVP
 40
0.0
  9
$DIMTIX
 70
     0
  9
$DIMSOXD
 70
     0
  9
$DIMSAH
 70
     0
  9
$DIMBLK1
  1

  9
$DIMBLK2
  1

  9
$DIMSTYLE
  2
ISO-25
  9
$DIMCLRD
 70
     0
  9
$DIMCLRE
 70
     0
  9
$DIMCLRT
 70
     0
  9
$DIMTFAC
 40
1.0
  9
$DIMGAP
 40
0.625
  9
$DIMJUST
 70
     0
  9
$DIMSD1
 70
     0
  9
$DIMSD2
 70
     0
  9
$DIMTOLJ
 70
     0
  9
$DIMTZIN
 70
     8
  9
$DIMALTZ
 70
     0
  9
$DIMALTTZ
 70
     0
  9
$DIMUPT
 70
     0
  9
$DIMDEC
 70
     2
  9
$DIMTDEC
 70
     2
  9
$DIMALTU
 70
     2
  9
$DIMALTTD
 70
     3
  9
$DIMTXSTY
  7
Standard
  9
$DIMAUNIT
 70
     0
  9
$DIMADEC
 70
     0
  9
$DIMALTRND
 40
0.0
  9
$DIMAZIN
 70
     0
  9
$DIMDSEP
 70
    44
  9
$DIMATFIT
 70
     3
  9
$DIMFRAC
 70
     0
  9
$DIMLDRBLK
  1

  9
$DIMLUNIT
 70
     2
  9
$DIMLWD
 70
    -2
  9
$DIMLWE
 70
    -2
  9
$DIMTMOVE
 70
     0
  9
$LUNITS
 70
     2
  9
$LUPREC
 70
     4
  9
$SKETCHINC
 40
1.0
  9
$FILLETRAD
 40
10.0
  9
$AUNITS
 70
     0
  9
$AUPREC
 70
     0
  9
$MENU
  1
.
  9
$ELEVATION
 40
0.0
  9
$PELEVATION
 40
0.0
  9
$THICKNESS
 40
0.0
  9
$LIMCHECK
 70
     0
  9
$CHAMFERA
 40
10.0
  9
$CHAMFERB
 40
10.0
  9
$CHAMFERC
 40
20.0
  9
$CHAMFERD
 40
0.0
  9
$SKPOLY
 70
     0
  9
$TDCREATE
 40
2455286.332145312
  9
$TDUCREATE
 40
2455286.248811979
  9
$TDUPDATE
 40
2455286.332145324
  9
$TDUUPDATE
 40
2455286.248811991
  9
$TDINDWG
 40
0.0000000116
  9
$TDUSRTIMER
 40
0.0000000116
  9
$USRTIMER
 70
     1
  9
$ANGBASE
 50
0.0
  9
$ANGDIR
 70
     0
  9
$PDMODE
 70
     0
  9
$PDSIZE
 40
0.0
  9
$PLINEWID
 40
0.0
  9
$SPLFRAME
 70
     0
  9
$SPLINETYPE
 70
     6
  9
$SPLINESEGS
 70
     8
  9
$HANDSEED
  5
49D
  9
$SURFTAB1
 70
     6
  9
$SURFTAB2
 70
     6
  9
$SURFTYPE
 70
     6
  9
$SURFU
 70
     6
  9
$SURFV
 70
     6
  9
$UCSBASE
  2

  9
$UCSNAME
  2

  9
$UCSORG
 10
0.0
 20
0.0
 30
0.0
  9
$UCSXDIR
 10
1.0
 20
0.0
 30
0.0
  9
$UCSYDIR
 10
0.0
 20
1.0
 30
0.0
  9
$UCSORTHOREF
  2

  9
$UCSORTHOVIEW
 70
     0
  9
$UCSORGTOP
 10
0.0
 20
0.0
 30
0.0
  9
$UCSORGBOTTOM
 10
0.0
 20
0.0
 30
0.0
  9
$UCSORGLEFT
 10
0.0
 20
0.0
 30
0.0
  9
$UCSORGRIGHT
 10
0.0
 20
0.0
 30
0.0
  9
$UCSORGFRONT
 10
0.0
 20
0.0
 30
0.0
  9
$UCSORGBACK
 10
0.0
 20
0.0
 30
0.0
  9
$PUCSBASE
  2

  9
$PUCSNAME
  2

  9
$PUCSORG
 10
0.0
 20
0.0
 30
0.0
  9
$PUCSXDIR
 10
1.0
 20
0.0
 30
0.0
  9
$PUCSYDIR
 10
0.0
 20
1.0
 30
0.0
  9
$PUCSORTHOREF
  2

  9
$PUCSORTHOVIEW
 70
     0
  9
$PUCSORGTOP
 10
0.0
 20
0.0
 30
0.0
  9
$PUCSORGBOTTOM
 10
0.0
 20
0.0
 30
0.0
  9
$PUCSORGLEFT
 10
0.0
 20
0.0
 30
0.0
  9
$PUCSORGRIGHT
 10
0.0
 20
0.0
 30
0.0
  9
$PUCSORGFRONT
 10
0.0
 20
0.0
 30
0.0
  9
$PUCSORGBACK
 10
0.0
 20
0.0
 30
0.0
  9
$USERI1
 70
     0
  9
$USERI2
 70
     0
  9
$USERI3
 70
     0
  9
$USERI4
 70
     0
  9
$USERI5
 70
     0
  9
$USERR1
 40
0.0
  9
$USERR2
 40
0.0
  9
$USERR3
 40
0.0
  9
$USERR4
 40
0.0
  9
$USERR5
 40
0.0
  9
$WORLDVIEW
 70
     1
  9
$SHADEDGE
 70
     3
  9
$SHADEDIF
 70
    70
  9
$TILEMODE
 70
     1
  9
$MAXACTVP
 70
    64
  9
$PINSBASE
 10
0.0
 20
0.0
 30
0.0
  9
$PLIMCHECK
 70
     0
  9
$PEXTMIN
 10
-237.552845
 20
-164.616305
 30
0.0
  9
$PEXTMAX
 10
602.447155
 20
429.383695
 30
0.0
  9
$PLIMMIN
 10
-237.552845
 20
-164.616305
  9
$PLIMMAX
 10
602.447155
 20
429.383695
  9
$UNITMODE
 70
     0
  9
$VISRETAIN
 70
     1
  9
$PLINEGEN
 70
     0
  9
$PSLTSCALE
 70
     1
  9
$TREEDEPTH
 70
  3020
  9
$CMLSTYLE
  2
Standard
  9
$CMLJUST
 70
     0
  9
$CMLSCALE
 40
20.0
  9
$PROXYGRAPHICS
 70
     1
  9
$MEASUREMENT
 70
     1
  9
$CELWEIGHT
370
    -1
  9
$ENDCAPS
280
     0
  9
$JOINSTYLE
280
     0
  9
$LWDISPLAY
290
     0
  9
$INSUNITS
 70
     4
  9
$HYPERLINKBASE
  1

  9
$STYLESHEET
  1

  9
$XEDIT
290
     1
  9
$CEPSNTYPE
380
     0
  9
$PSTYLEMODE
290
     1
  9
$FINGERPRINTGUID
  2
{FAEB1C30-E019-11D5-929B-00C0DF256EC4}
  9
$VERSIONGUID
  2
{FAEB1C32-E019-11D5-929B-00C0DF256EC4}
  9
$EXTNAMES
290
     1
  9
$PSVPSCALE
 40
0.0
  9
$OLESTARTUP
290
     0
  0
ENDSEC
  0
SECTION
  2
CLASSES
  0
CLASS
  1
ACDBDICTIONARYWDFLT
  2
AcDbDictionaryWithDefault
  3
ObjectDBX Classes
 90
        0
280
     0
281
     0
  0
CLASS
  1
ACDBPLACEHOLDER
  2
AcDbPlaceHolder
  3
ObjectDBX Classes
 90
        0
280
     0
281
     0
  0
CLASS
  1
LAYOUT
  2
AcDbLayout
  3
ObjectDBX Classes
 90
        0
280
     0
281
     0
  0
ENDSEC
  0
SECTION
  2
TABLES
  0
TABLE
  2
VPORT
  5
8
330
0
100
AcDbSymbolTable
 70
     2
  0
VPORT
  5
29
330
8
100
AcDbSymbolTableRecord
100
AcDbViewportTableRecord
  2
*ACTIVE
 70
     0
 10
0.0
 20
0.0
 11
1.0
 21
1.0
 12
182.447155
 22
132.383695
 13
0.0
 23
0.0
 14
1.0
 24
1.0
 15
0.0
 25
0.0
 16
0.0
 26
0.0
 36
1.0
 17
0.0
 27
0.0
 37
0.0
 40
594.0
 41
1.414141
 42
50.0
 43
0.0
 44
0.0
 50
0.0
 51
0.0
 71
    16
 72
   100
 73
     1
 74
     0
 75
     0
 76
     0
 77
     0
 78
     0
281
     0
 65
     0
110
0.0
120
0.0
130
0.0
111
1.0
121
0.0
131
0.0
112
0.0
122
1.0
132
0.0
 79
     0
146
0.0
  0
ENDTAB
  0
TABLE
  2
LTYPE
  5
5
330
0
100
AcDbSymbolTable
 70
     3
  0
LTYPE
  5
14
330
5
100
AcDbSymbolTableRecord
100
AcDbLinetypeTableRecord
  2
ByBlock
 70
     0
  3

 72
    65
 73
     0
 40
0.0
  0
LTYPE
  5
15
330
5
100
AcDbSymbolTableRecord
100
AcDbLinetypeTableRecord
  2
ByLayer
 70
     0
  3

 72
    65
 73
     0
 40
0.0
  0
LTYPE
  5
16
330
5
100
AcDbSymbolTableRecord
100
AcDbLinetypeTableRecord
  2
Continuous
 70
     0
  3
Solid line
 72
    65
 73
     0
 40
0.0
  0
LTYPE
  5
2A
330
5
100
AcDbSymbolTableRecord
100
AcDbLinetypeTableRecord
  2
DASHED
 70
     0
  3
__ __ __ __ __
 72
    65
 73
     2
 40
6.25
 49
5.0
 74
     4
 75
     0
340
0
 46
1.0
 50
0.0
 44
0.0
 45
0.0
 49
-1.25
 74
     4
 75
     0
340
0
 46
1.0
 50
0.0
 44
0.0
 45
0.0
  0
LTYPE
  5
43B
330
5
100
AcDbSymbolTableRecord
100
AcDbLinetypeTableRecord
  2
DASHDOT
 70
     0
  3
__ . __ . __ . __ . __
 72
    65
 73
     4
 40
7.5
 49
5.0
 74
     4
 75
     0
340
0
 46
1.0
 50
0.0
 44
0.0
 45
0.0
 49
-1.25
 74
     4
 75
     0
340
0
 46
1.0
 50
0.0
 44
0.0
 45
0.0
 49
0.0
 74
     4
 75
     0
340
0
 46
1.0
 50
0.0
 44
0.0
 45
0.0
 49
-1.25
 74
     4
 75
     0
340
0
 46
1.0
 50
0.0
 44
0.0
 45
0.0
  0
ENDTAB
  0
TABLE
  2
LAYER
  5
2
330
0
100
AcDbSymbolTable
 70
     8
  0
LAYER
  5
10
330
2
100
AcDbSymbolTableRecord
100
AcDbLayerTableRecord
  2
0
 70
     0
 62
     7
  6
Continuous
370
    -3
390
F
  0
LAYER
  5
2B
330
2
100
AcDbSymbolTableRecord
100
AcDbLayerTableRecord
  2
LC-INFO-1-2-mm-A3-0
 70
     1
 62
     7
  6
ByBlock
370
    -3
390
F
  0
LAYER
  5
2C
330
2
100
AcDbSymbolTableRecord
100
AcDbLayerTableRecord
  2
LC-CUT-HIDDEN
 70
     0
 62
     7
  6
DASHED
370
    -3
390
F
  0
LAYER
  5
2D
330
2
100
AcDbSymbolTableRecord
100
AcDbLayerTableRecord
  2
LC-VIEWPORT
 70
     0
 62
     7
  6
ByBlock
370
    -3
390
F
  0
LAYER
  5
2E
330
2
100
AcDbSymbolTableRecord
100
AcDbLayerTableRecord
  2
LC-3D-HIDDEN
 70
     0
 62
     9
  6
DASHED
370
    -3
390
F
  0
LAYER
  5
30
330
2
100
AcDbSymbolTableRecord
100
AcDbLayerTableRecord
  2
LC-001-100-D00-0
 70
     0
 62
     1
  6
ByBlock
370
    -3
390
F
  0
LAYER
  5
43F
330
2
100
AcDbSymbolTableRecord
100
AcDbLayerTableRecord
  2
LC-002-003-----0
 70
     0
 62
     2
  6
ByBlock
370
    -3
390
F
  0
LAYER
  5
441
330
2
100
AcDbSymbolTableRecord
100
AcDbLayerTableRecord
  2
Defpoints
 70
     0
 62
     7
  6
Continuous
290
     0
370
    -3
390
F
  0
ENDTAB
  0
TABLE
  2
STYLE
  5
3
330
0
100
AcDbSymbolTable
 70
     3
  0
STYLE
  5
11
330
3
100
AcDbSymbolTableRecord
100
AcDbTextStyleTableRecord
  2
Standard
 70
     0
 40
0.0
 41
1.0
 50
0.0
 71
     0
 42
2.5
  3
txt
  4

  0
STYLE
  5
2F
330
3
100
AcDbSymbolTableRecord
100
AcDbTextStyleTableRecord
  2
LCTX15-400-0-0-Arial
 70
     0
 40
0.0
 41
0.8
 50
0.0
 71
     0
 42
3.5
  3

  4

1001
ACAD
1000
Arial
1071
 16777218
  0
STYLE
  5
43D
330
3
100
AcDbSymbolTableRecord
100
AcDbTextStyleTableRecord
  2
LCTX15-400-0-0pDIN-Schrift
 70
     0
 40
2.5
 41
0.8
 50
15.0
 71
     0
 42
3.5
  3
STANDARD
  4

  0
ENDTAB
  0
TABLE
  2
VIEW
  5
6
330
0
100
AcDbSymbolTable
 70
     0
  0
ENDTAB
  0
TABLE
  2
UCS
  5
7
330
0
100
AcDbSymbolTable
 70
     0
  0
ENDTAB
  0
TABLE
  2
APPID
  5
9
330
0
100
AcDbSymbolTable
 70
     1
  0
APPID
  5
12
330
9
100
AcDbSymbolTableRecord
100
AcDbRegAppTableRecord
  2
ACAD
 70
     0
  0
ENDTAB
  0
TABLE
  2
DIMSTYLE
  5
A
330
0
100
AcDbSymbolTable
 70
     2
100
AcDbDimStyleTable
  0
DIMSTYLE
105
27
330
A
100
AcDbSymbolTableRecord
100
AcDbDimStyleTableRecord
  2
ISO-25
 70
     0
 41
2.5
 42
0.625
 43
3.75
 44
1.25
 73
     0
 74
     0
 77
     1
 78
     8
140
2.5
141
2.5
143
0.03937
147
0.625
171
     3
172
     1
271
     2
272
     2
274
     3
278
    44
283
     0
284
     8
340
11
  0
DIMSTYLE
105
43E
102
{ACAD_REACTORS
330
440
330
44E
330
45B
330
468
330
476
330
483
330
490
102
}
330
A
100
AcDbSymbolTableRecord
100
AcDbDimStyleTableRecord
  2
LC-DIM-L-0140-02-02
 70
     0
 40
2.0
 41
14.0
 42
0.0
 43
7.5
 44
1.8
 73
     0
 74
     0
 77
     1
 78
     8
 79
     2
140
14.0
141
0.0
146
0.71
147
1.5
176
     2
177
     2
178
     2
179
     2
271
     2
278
    44
289
     1
340
43D
  0
ENDTAB
  0
TABLE
  2
BLOCK_RECORD
  5
1
330
0
100
AcDbSymbolTable
 70
    33
  0
BLOCK_RECORD
  5
1F
330
1
100
AcDbSymbolTableRecord
100
AcDbBlockTableRecord
  2
*Model_Space
340
22
  0
BLOCK_RECORD
  5
1B
330
1
100
AcDbSymbolTableRecord
100
AcDbBlockTableRecord
  2
*Paper_Space
340
1E
  0
BLOCK_RECORD
  5
23
330
1
100
AcDbSymbolTableRecord
100
AcDbBlockTableRecord
  2
*Paper_Space0
340
26
  0
BLOCK_RECORD
  5
81
330
1
100
AcDbSymbolTableRecord
100
AcDbBlockTableRecord
  2
POLY1
340
0
102
{BLKREFS
331
92
102
}
  0
BLOCK_RECORD
  5
94
330
1
100
AcDbSymbolTableRecord
100
AcDbBlockTableRecord
  2
POLY2
340
0
102
{BLKREFS
331
A5
102
}
  0
BLOCK_RECORD
  5
2E8
330
1
100
AcDbSymbolTableRecord
100
AcDbBlockTableRecord
  2
POLY3
340
0
102
{BLKREFS
331
2F3
102
}
  0
BLOCK_RECORD
  5
2F4
330
1
100
AcDbSymbolTableRecord
100
AcDbBlockTableRecord
  2
POLY4
340
0
102
{BLKREFS
331
2FF
102
}
  0
BLOCK_RECORD
  5
300
330
1
100
AcDbSymbolTableRecord
100
AcDbBlockTableRecord
  2
POLY5
340
0
102
{BLKREFS
331
30B
102
}
  0
BLOCK_RECORD
  5
312
330
1
100
AcDbSymbolTableRecord
100
AcDbBlockTableRecord
  2
POLY6
340
0
102
{BLKREFS
331
31D
102
}
  0
BLOCK_RECORD
  5
31F
330
1
100
AcDbSymbolTableRecord
100
AcDbBlockTableRecord
  2
POLY7
340
0
102
{BLKREFS
331
32A
102
}
  0
BLOCK_RECORD
  5
32B
330
1
100
AcDbSymbolTableRecord
100
AcDbBlockTableRecord
  2
KLON1
340
0
102
{BLKREFS
331
334
102
}
  0
BLOCK_RECORD
  5
335
330
1
100
AcDbSymbolTableRecord
100
AcDbBlockTableRecord
  2
KLON2
340
0
102
{BLKREFS
331
33F
102
}
  0
BLOCK_RECORD
  5
340
330
1
100
AcDbSymbolTableRecord
100
AcDbBlockTableRecord
  2
KLON3
340
0
102
{BLKREFS
331
366
102
}
  0
BLOCK_RECORD
  5
367
330
1
100
AcDbSymbolTableRecord
100
AcDbBlockTableRecord
  2
KLON4
340
0
102
{BLKREFS
331
36C
102
}
  0
BLOCK_RECORD
  5
36D
330
1
100
AcDbSymbolTableRecord
100
AcDbBlockTableRecord
  2
KLON5
340
0
102
{BLKREFS
331
372
102
}
  0
BLOCK_RECORD
  5
373
330
1
100
AcDbSymbolTableRecord
100
AcDbBlockTableRecord
  2
KLON6
340
0
102
{BLKREFS
331
39A
102
}
  0
BLOCK_RECORD
  5
39B
330
1
100
AcDbSymbolTableRecord
100
AcDbBlockTableRecord
  2
KLON7
340
0
102
{BLKREFS
331
3A0
102
}
  0
BLOCK_RECORD
  5
3A1
330
1
100
AcDbSymbolTableRecord
100
AcDbBlockTableRecord
  2
KLON8
340
0
102
{BLKREFS
331
3A6
102
}
  0
BLOCK_RECORD
  5
3A7
330
1
100
AcDbSymbolTableRecord
100
AcDbBlockTableRecord
  2
KLON9
340
0
102
{BLKREFS
331
3B4
102
}
  0
BLOCK_RECORD
  5
3B5
330
1
100
AcDbSymbolTableRecord
100
AcDbBlockTableRecord
  2
KLON10
340
0
102
{BLKREFS
331
3C5
102
}
  0
BLOCK_RECORD
  5
3C6
330
1
100
AcDbSymbolTableRecord
100
AcDbBlockTableRecord
  2
KLON11
340
0
102
{BLKREFS
331
3CD
102
}
  0
BLOCK_RECORD
  5
3D0
330
1
100
AcDbSymbolTableRecord
100
AcDbBlockTableRecord
  2
KLON12
340
0
102
{BLKREFS
331
3ED
102
}
  0
BLOCK_RECORD
  5
3EE
330
1
100
AcDbSymbolTableRecord
100
AcDbBlockTableRecord
  2
KLON13
340
0
102
{BLKREFS
331
401
102
}
  0
BLOCK_RECORD
  5
402
330
1
100
AcDbSymbolTableRecord
100
AcDbBlockTableRecord
  2
KLON14
340
0
102
{BLKREFS
331
419
102
}
  0
BLOCK_RECORD
  5
41C
330
1
100
AcDbSymbolTableRecord
100
AcDbBlockTableRecord
  2
KLON15
340
0
102
{BLKREFS
331
421
102
}
  0
BLOCK_RECORD
  5
422
330
1
100
AcDbSymbolTableRecord
100
AcDbBlockTableRecord
  2
KLON16
340
0
102
{BLKREFS
331
427
102
}
  0
BLOCK_RECORD
  5
428
330
1
100
AcDbSymbolTableRecord
100
AcDbBlockTableRecord
  2
KLON17
340
0
102
{BLKREFS
331
431
102
}
  0
BLOCK_RECORD
  5
432
330
1
100
AcDbSymbolTableRecord
100
AcDbBlockTableRecord
  2
KLON18
340
0
102
{BLKREFS
331
43A
102
}
  0
BLOCK_RECORD
  5
442
330
1
100
AcDbSymbolTableRecord
100
AcDbBlockTableRecord
  2
*D26
340
0
  0
BLOCK_RECORD
  5
44F
330
1
100
AcDbSymbolTableRecord
100
AcDbBlockTableRecord
  2
*D27
340
0
  0
BLOCK_RECORD
  5
45C
330
1
100
AcDbSymbolTableRecord
100
AcDbBlockTableRecord
  2
*D28
340
0
  0
BLOCK_RECORD
  5
469
330
1
100
AcDbSymbolTableRecord
100
AcDbBlockTableRecord
  2
*D29
340
0
  0
BLOCK_RECORD
  5
477
330
1
100
AcDbSymbolTableRecord
100
AcDbBlockTableRecord
  2
*D30
340
0
  0
BLOCK_RECORD
  5
484
330
1
100
AcDbSymbolTableRecord
100
AcDbBlockTableRecord
  2
*D31
340
0
  0
BLOCK_RECORD
  5
491
330
1
100
AcDbSymbolTableRecord
100
AcDbBlockTableRecord
  2
*D32
340
0
  0
ENDTAB
  0
ENDSEC
  0
SECTION
  2
BLOCKS
  0
BLOCK
  5
20
330
1F
100
AcDbEntity
  8
0
100
AcDbBlockBegin
  2
*Model_Space
 70
     0
 71
     0
 10
0.0
 20
0.0
 30
0.0
  3
*Model_Space
  1

  0
ENDBLK
  5
21
330
1F
100
AcDbEntity
  8
0
100
AcDbBlockEnd
  0
BLOCK
  5
1C
330
1B
100
AcDbEntity
 67
     1
  8
0
100
AcDbBlockBegin
  2
*Paper_Space
 70
     0
 71
     0
 10
0.0
 20
0.0
 30
0.0
  3
*Paper_Space
  1

  0
ENDBLK
  5
1D
330
1B
100
AcDbEntity
 67
     1
  8
0
100
AcDbBlockEnd
  0
BLOCK
  5
24
330
23
100
AcDbEntity
  8
0
100
AcDbBlockBegin
  2
*Paper_Space0
 70
     0
 71
     0
 10
0.0
 20
0.0
 30
0.0
  3
*Paper_Space0
  1

  0
ENDBLK
  5
25
330
23
100
AcDbEntity
  8
0
100
AcDbBlockEnd
  0
BLOCK
  5
82
330
81
100
AcDbEntity
  8
0
100
AcDbBlockBegin
  2
POLY1
 70
     0
 71
     0
 10
0.0
 20
0.0
 30
0.0
  3
POLY1
  1

  4
POLY1
  0
LINE
  5
84
330
81
100
AcDbEntity
  8
LC-001-100-D00-0
 62
     7
370
    50
100
AcDbLine
 10
89.741404
 20
208.035695
 30
0.0
 11
89.741404
 21
208.035695
 31
0.0
  0
LINE
  5
85
330
81
100
AcDbEntity
  8
LC-001-100-D00-0
 62
     7
370
    50
100
AcDbLine
 10
89.741404
 20
208.035695
 30
0.0
 11
89.741567
 21
208.032932
 31
0.0
  0
LINE
  5
86
330
81
100
AcDbEntity
  8
LC-001-100-D00-0
 62
     7
370
    50
100
AcDbLine
 10
89.741567
 20
208.032932
 30
0.0
 11
89.741567
 21
208.032932
 31
0.0
  0
LINE
  5
87
330
81
100
AcDbEntity
  8
LC-001-100-D00-0
 62
     7
370
    50
100
AcDbLine
 10
89.741567
 20
208.032932
 30
0.0
 11
89.741893
 21
208.027405
 31
0.0
  0
LINE
  5
88
330
81
100
AcDbEntity
  8
LC-001-100-D00-0
 62
     7
370
    50
100
AcDbLine
 10
89.741893
 20
208.027405
 30
0.0
 11
89.741893
 21
208.027405
 31
0.0
  0
LINE
  5
89
330
81
100
AcDbEntity
  8
LC-001-100-D00-0
 62
     7
370
    50
100
AcDbLine
 10
89.741893
 20
208.027405
 30
0.0
 11
89.742443
 21
207.9843
 31
0.0
  0
LINE
  5
8A
330
81
100
AcDbEntity
  8
LC-001-100-D00-0
 62
     7
370
    50
100
AcDbLine
 10
89.742443
 20
207.9843
 30
0.0
 11
89.742443
 21
207.9843
 31
0.0
  0
LINE
  5
8B
330
81
100
AcDbEntity
  8
LC-001-100-D00-0
 62
     7
370
    50
100
AcDbLine
 10
89.742443
 20
207.9843
 30
0.0
 11
89.742926
 21
207.920865
 31
0.0
  0
LINE
  5
8C
330
81
100
AcDbEntity
  8
LC-001-100-D00-0
 62
     7
370
    50
100
AcDbLine
 10
89.742926
 20
207.920865
 30
0.0
 11
89.742926
 21
207.920865
 31
0.0
  0
LINE
  5
8D
330
81
100
AcDbEntity
  8
LC-001-100-D00-0
 62
     7
370
    50
100
AcDbLine
 10
89.742926
 20
207.920865
 30
0.0
 11
89.743183
 21
207.850571
 31
0.0
  0
LINE
  5
8E
330
81
100
AcDbEntity
  8
LC-001-100-D00-0
 62
     7
370
    50
100
AcDbLine
 10
89.743183
 20
207.850571
 30
0.0
 11
89.743183
 21
207.850571
 31
0.0
  0
LINE
  5
8F
330
81
100
AcDbEntity
  8
LC-001-100-D00-0
 62
     7
370
    50
100
AcDbLine
 10
89.743183
 20
207.850571
 30
0.0
 11
89.743216
 21
207.804124
 31
0.0
  0
LINE
  5
90
330
81
100
AcDbEntity
  8
LC-001-100-D00-0
 62
     7
370
    50
100
AcDbLine
 10
89.743216
 20
207.804124
 30
0.0
 11
89.743216
 21
207.804124
 31
0.0
  0
LINE
  5
91
330
81
100
AcDbEntity
  8
LC-001-100-D00-0
 62
     7
370
    50
100
AcDbLine
 10
89.743216
 20
207.804124
 30
0.0
 11
89.743229
 21
207.785695
 31
0.0
  0
ENDBLK
  5
83
330
81
100
AcDbEntity
  8
0
100
AcDbBlockEnd
  0
BLOCK
  5
95
330
94
100
AcDbEntity
  8
0
100
AcDbBlockBegin
  2
POLY2
 70
     0
 71
     0
 10
0.0
 20
0.0
 30
0.0
  3
POLY2
  1

  4
POLY2
  0
LINE
  5
97
330
94
100
AcDbEntity
  8
LC-001-100-D00-0
 62
     7
370
    50
100
AcDbLine
 10
89.743229
 20
203.285697
 30
0.0
 11
89.743229
 21
203.285697
 31
0.0
  0
LINE
  5
98
330
94
100
AcDbEntity
  8
LC-001-100-D00-0
 62
     7
370
    50
100
AcDbLine
 10
89.743229
 20
203.285697
 30
0.0
 11
89.743204
 21
203.257592
 31
0.0
  0
LINE
  5
99
330
94
100
AcDbEntity
  8
LC-001-100-D00-0
 62
     7
370
    50
100
AcDbLine
 10
89.743204
 20
203.257592
 30
0.0
 11
89.743204
 21
203.257592
 31
0.0
  0
LINE
  5
9A
330
94
100
AcDbEntity
  8
LC-001-100-D00-0
 62
     7
370
    50
100
AcDbLine
 10
89.743204
 20
203.257592
 30
0.0
 11
89.743153
 21
203.20138
 31
0.0
  0
LINE
  5
9B
330
94
100
AcDbEntity
  8
LC-001-100-D00-0
 62
     7
370
    50
100
AcDbLine
 10
89.743153
 20
203.20138
 30
0.0
 11
89.743153
 21
203.20138
 31
0.0
  0
LINE
  5
9C
330
94
100
AcDbEntity
  8
LC-001-100-D00-0
 62
     7
370
    50
100
AcDbLine
 10
89.743153
 20
203.20138
 30
0.0
 11
89.742776
 21
203.126462
 31
0.0
  0
LINE
  5
9D
330
94
100
AcDbEntity
  8
LC-001-100-D00-0
 62
     7
370
    50
100
AcDbLine
 10
89.742776
 20
203.126462
 30
0.0
 11
89.742776
 21
203.126462
 31
0.0
  0
LINE
  5
9E
330
94
100
AcDbEntity
  8
LC-001-100-D00-0
 62
     7
370
    50
100
AcDbLine
 10
89.742776
 20
203.126462
 30
0.0
 11
89.742258
 21
203.069922
 31
0.0
  0
LINE
  5
9F
330
94
100
AcDbEntity
  8
LC-001-100-D00-0
 62
     7
370
    50
100
AcDbLine
 10
89.742258
 20
203.069922
 30
0.0
 11
89.742258
 21
203.069922
 31
0.0
  0
LINE
  5
A0
330
94
100
AcDbEntity
  8
LC-001-100-D00-0
 62
     7
370
    50
100
AcDbLine
 10
89.742258
 20
203.069922
 30
0.0
 11
89.741773
 21
203.039964
 31
0.0
  0
LINE
  5
A1
330
94
100
AcDbEntity
  8
LC-001-100-D00-0
 62
     7
370
    50
100
AcDbLine
 10
89.741773
 20
203.039964
 30
0.0
 11
89.741773
 21
203.039964
 31
0.0
  0
LINE
  5
A2
330
94
100
AcDbEntity
  8
LC-001-100-D00-0
 62
     7
370
    50
100
AcDbLine
 10
89.741773
 20
203.039964
 30
0.0
 11
89.741509
 21
203.036909
 31
0.0
  0
LINE
  5
A3
330
94
100
AcDbEntity
  8
LC-001-100-D00-0
 62
     7
370
    50
100
AcDbLine
 10
89.741509
 20
203.036909
 30
0.0
 11
89.741509
 21
203.036909
 31
0.0
  0
LINE
  5
A4
330
94
100
AcDbEntity
  8
LC-001-100-D00-0
 62
     7
370
    50
100
AcDbLine
 10
89.741509
 20
203.036909
 30
0.0
 11
89.741404
 21
203.035697
 31
0.0
  0
ENDBLK
  5
96
330
94
100
AcDbEntity
  8
0
100
AcDbBlockEnd
  0
BLOCK
  5
2E9
330
2E8
100
AcDbEntity
  8
0
100
AcDbBlockBegin
  2
POLY3
 70
     0
 71
     0
 10
0.0
 20
0.0
 30
0.0
  3
POLY3
  1

  4
POLY3
  0
LINE
  5
2EB
330
2E8
100
AcDbEntity
  8
LC-001-100-D00-0
 62
     7
370
    50
100
AcDbLine
 10
155.03795
 20
204.935695
 30
0.0
 11
155.03795
 21
204.935695
 31
0.0
  0
LINE
  5
2EC
330
2E8
100
AcDbEntity
  8
LC-001-100-D00-0
 62
     7
370
    50
100
AcDbLine
 10
155.03795
 20
204.935695
 30
0.0
 11
155.015031
 21
204.937684
 31
0.0
  0
LINE
  5
2ED
330
2E8
100
AcDbEntity
  8
LC-001-100-D00-0
 62
     7
370
    50
100
AcDbLine
 10
155.015031
 20
204.937684
 30
0.0
 11
155.015031
 21
204.937684
 31
0.0
  0
LINE
  5
2EE
330
2E8
100
AcDbEntity
  8
LC-001-100-D00-0
 62
     7
370
    50
100
AcDbLine
 10
155.015031
 20
204.937684
 30
0.0
 11
154.983953
 21
204.940381
 31
0.0
  0
LINE
  5
2EF
330
2E8
100
AcDbEntity
  8
LC-001-100-D00-0
 62
     7
370
    50
100
AcDbLine
 10
154.983953
 20
204.940381
 30
0.0
 11
154.983953
 21
204.940381
 31
0.0
  0
LINE
  5
2F0
330
2E8
100
AcDbEntity
  8
LC-001-100-D00-0
 62
     7
370
    50
100
AcDbLine
 10
154.983953
 20
204.940381
 30
0.0
 11
154.955813
 21
204.953306
 31
0.0
  0
LINE
  5
2F1
330
2E8
100
AcDbEntity
  8
LC-001-100-D00-0
 62
     7
370
    50
100
AcDbLine
 10
154.955813
 20
204.953306
 30
0.0
 11
154.955813
 21
204.953306
 31
0.0
  0
LINE
  5
2F2
330
2E8
100
AcDbEntity
  8
LC-001-100-D00-0
 62
     7
370
    50
100
AcDbLine
 10
154.955813
 20
204.953306
 30
0.0
 11
154.948426
 21
204.956698
 31
0.0
  0
ENDBLK
  5
2EA
330
2E8
100
AcDbEntity
  8
0
100
AcDbBlockEnd
  0
BLOCK
  5
2F5
330
2F4
100
AcDbEntity
  8
0
100
AcDbBlockBegin
  2
POLY4
 70
     0
 71
     0
 10
0.0
 20
0.0
 30
0.0
  3
POLY4
  1

  4
POLY4
  0
LINE
  5
2F7
330
2F4
100
AcDbEntity
  8
LC-001-100-D00-0
 62
     7
370
    50
100
AcDbLine
 10
160.886783
 20
204.956698
 30
0.0
 11
160.886783
 21
204.956698
 31
0.0
  0
LINE
  5
2F8
330
2F4
100
AcDbEntity
  8
LC-001-100-D00-0
 62
     7
370
    50
100
AcDbLine
 10
160.886783
 20
204.956698
 30
0.0
 11
160.86534
 21
204.948286
 31
0.0
  0
LINE
  5
2F9
330
2F4
100
AcDbEntity
  8
LC-001-100-D00-0
 62
     7
370
    50
100
AcDbLine
 10
160.86534
 20
204.948286
 30
0.0
 11
160.86534
 21
204.948286
 31
0.0
  0
LINE
  5
2FA
330
2F4
100
AcDbEntity
  8
LC-001-100-D00-0
 62
     7
370
    50
100
AcDbLine
 10
160.86534
 20
204.948286
 30
0.0
 11
160.836263
 21
204.93688
 31
0.0
  0
LINE
  5
2FB
330
2F4
100
AcDbEntity
  8
LC-001-100-D00-0
 62
     7
370
    50
100
AcDbLine
 10
160.836263
 20
204.93688
 30
0.0
 11
160.836263
 21
204.93688
 31
0.0
  0
LINE
  5
2FC
330
2F4
100
AcDbEntity
  8
LC-001-100-D00-0
 62
     7
370
    50
100
AcDbLine
 10
160.836263
 20
204.93688
 30
0.0
 11
160.80537
 21
204.935941
 31
0.0
  0
LINE
  5
2FD
330
2F4
100
AcDbEntity
  8
LC-001-100-D00-0
 62
     7
370
    50
100
AcDbLine
 10
160.80537
 20
204.935941
 30
0.0
 11
160.80537
 21
204.935941
 31
0.0
  0
LINE
  5
2FE
330
2F4
100
AcDbEntity
  8
LC-001-100-D00-0
 62
     7
370
    50
100
AcDbLine
 10
160.80537
 20
204.935941
 30
0.0
 11
160.797259
 21
204.935695
 31
0.0
  0
ENDBLK
  5
2F6
330
2F4
100
AcDbEntity
  8
0
100
AcDbBlockEnd
  0
BLOCK
  5
301
330
300
100
AcDbEntity
  8
0
100
AcDbBlockBegin
  2
POLY5
 70
     0
 71
     0
 10
0.0
 20
0.0
 30
0.0
  3
POLY5
  1

  4
POLY5
  0
LINE
  5
303
330
300
100
AcDbEntity
  8
LC-001-100-D00-0
 62
     7
370
    50
100
AcDbLine
 10
160.942817
 20
204.935695
 30
0.0
 11
160.942817
 21
204.935695
 31
0.0
  0
LINE
  5
304
330
300
100
AcDbEntity
  8
LC-001-100-D00-0
 62
     7
370
    50
100
AcDbLine
 10
160.942817
 20
204.935695
 30
0.0
 11
160.965737
 21
204.937684
 31
0.0
  0
LINE
  5
305
330
300
100
AcDbEntity
  8
LC-001-100-D00-0
 62
     7
370
    50
100
AcDbLine
 10
160.965737
 20
204.937684
 30
0.0
 11
160.965737
 21
204.937684
 31
0.0
  0
LINE
  5
306
330
300
100
AcDbEntity
  8
LC-001-100-D00-0
 62
     7
370
    50
100
AcDbLine
 10
160.965737
 20
204.937684
 30
0.0
 11
160.996814
 21
204.940381
 31
0.0
  0
LINE
  5
307
330
300
100
AcDbEntity
  8
LC-001-100-D00-0
 62
     7
370
    50
100
AcDbLine
 10
160.996814
 20
204.940381
 30
0.0
 11
160.996814
 21
204.940381
 31
0.0
  0
LINE
  5
308
330
300
100
AcDbEntity
  8
LC-001-100-D00-0
 62
     7
370
    50
100
AcDbLine
 10
160.996814
 20
204.940381
 30
0.0
 11
161.024954
 21
204.953306
 31
0.0
  0
LINE
  5
309
330
300
100
AcDbEntity
  8
LC-001-100-D00-0
 62
     7
370
    50
100
AcDbLine
 10
161.024954
 20
204.953306
 30
0.0
 11
161.024954
 21
204.953306
 31
0.0
  0
LINE
  5
30A
330
300
100
AcDbEntity
  8
LC-001-100-D00-0
 62
     7
370
    50
100
AcDbLine
 10
161.024954
 20
204.953306
 30
0.0
 11
161.032341
 21
204.956698
 31
0.0
  0
ENDBLK
  5
302
330
300
100
AcDbEntity
  8
0
100
AcDbBlockEnd
  0
BLOCK
  5
313
330
312
100
AcDbEntity
  8
0
100
AcDbBlockBegin
  2
POLY6
 70
     0
 71
     0
 10
0.0
 20
0.0
 30
0.0
  3
POLY6
  1

  4
POLY6
  0
LINE
  5
315
330
312
100
AcDbEntity
  8
LC-001-100-D00-0
 62
     7
370
    50
100
AcDbLine
 10
158.490384
 20
300.114694
 30
0.0
 11
158.490384
 21
300.114694
 31
0.0
  0
LINE
  5
316
330
312
100
AcDbEntity
  8
LC-001-100-D00-0
 62
     7
370
    50
100
AcDbLine
 10
158.490384
 20
300.114694
 30
0.0
 11
158.490384
 21
300.123106
 31
0.0
  0
LINE
  5
317
330
312
100
AcDbEntity
  8
LC-001-100-D00-0
 62
     7
370
    50
100
AcDbLine
 10
158.490384
 20
300.123106
 30
0.0
 11
158.490384
 21
300.123106
 31
0.0
  0
LINE
  5
318
330
312
100
AcDbEntity
  8
LC-001-100-D00-0
 62
     7
370
    50
100
AcDbLine
 10
158.490384
 20
300.123106
 30
0.0
 11
158.490384
 21
300.134513
 31
0.0
  0
LINE
  5
319
330
312
100
AcDbEntity
  8
LC-001-100-D00-0
 62
     7
370
    50
100
AcDbLine
 10
158.490384
 20
300.134513
 30
0.0
 11
158.490384
 21
300.134513
 31
0.0
  0
LINE
  5
31A
330
312
100
AcDbEntity
  8
LC-001-100-D00-0
 62
     7
370
    50
100
AcDbLine
 10
158.490384
 20
300.134513
 30
0.0
 11
158.490384
 21
300.135451
 31
0.0
  0
LINE
  5
31B
330
312
100
AcDbEntity
  8
LC-001-100-D00-0
 62
     7
370
    50
100
AcDbLine
 10
158.490384
 20
300.135451
 30
0.0
 11
158.490384
 21
300.135451
 31
0.0
  0
LINE
  5
31C
330
312
100
AcDbEntity
  8
LC-001-100-D00-0
 62
     7
370
    50
100
AcDbLine
 10
158.490384
 20
300.135451
 30
0.0
 11
158.490384
 21
300.135697
 31
0.0
  0
ENDBLK
  5
314
330
312
100
AcDbEntity
  8
0
100
AcDbBlockEnd
  0
BLOCK
  5
320
330
31F
100
AcDbEntity
  8
0
100
AcDbBlockBegin
  2
POLY7
 70
     0
 71
     0
 10
0.0
 20
0.0
 30
0.0
  3
POLY7
  1

  4
POLY7
  0
LINE
  5
322
330
31F
100
AcDbEntity
  8
LC-001-100-D00-0
 62
     7
370
    50
100
AcDbLine
 10
157.490384
 20
300.135697
 30
0.0
 11
157.490384
 21
300.135697
 31
0.0
  0
LINE
  5
323
330
31F
100
AcDbEntity
  8
LC-001-100-D00-0
 62
     7
370
    50
100
AcDbLine
 10
157.490384
 20
300.135697
 30
0.0
 11
157.490384
 21
300.133708
 31
0.0
  0
LINE
  5
324
330
31F
100
AcDbEntity
  8
LC-001-100-D00-0
 62
     7
370
    50
100
AcDbLine
 10
157.490384
 20
300.133708
 30
0.0
 11
157.490384
 21
300.133708
 31
0.0
  0
LINE
  5
325
330
31F
100
AcDbEntity
  8
LC-001-100-D00-0
 62
     7
370
    50
100
AcDbLine
 10
157.490384
 20
300.133708
 30
0.0
 11
157.490384
 21
300.131011
 31
0.0
  0
LINE
  5
326
330
31F
100
AcDbEntity
  8
LC-001-100-D00-0
 62
     7
370
    50
100
AcDbLine
 10
157.490384
 20
300.131011
 30
0.0
 11
157.490384
 21
300.131011
 31
0.0
  0
LINE
  5
327
330
31F
100
AcDbEntity
  8
LC-001-100-D00-0
 62
     7
370
    50
100
AcDbLine
 10
157.490384
 20
300.131011
 30
0.0
 11
157.490384
 21
300.118087
 31
0.0
  0
LINE
  5
328
330
31F
100
AcDbEntity
  8
LC-001-100-D00-0
 62
     7
370
    50
100
AcDbLine
 10
157.490384
 20
300.118087
 30
0.0
 11
157.490384
 21
300.118087
 31
0.0
  0
LINE
  5
329
330
31F
100
AcDbEntity
  8
LC-001-100-D00-0
 62
     7
370
    50
100
AcDbLine
 10
157.490384
 20
300.118087
 30
0.0
 11
157.490384
 21
300.114694
 31
0.0
  0
ENDBLK
  5
321
330
31F
100
AcDbEntity
  8
0
100
AcDbBlockEnd
  0
BLOCK
  5
32C
330
32B
100
AcDbEntity
  8
0
100
AcDbBlockBegin
  2
KLON1
 70
     0
 71
     0
 10
0.0
 20
0.0
 30
0.0
  3
KLON1
  1

  4
KLON1
  0
LINE
  5
32E
330
32B
100
AcDbEntity
  8
LC-001-100-D00-0
 62
     7
370
    25
100
AcDbLine
 10
221.698599
 20
171.82748
 30
0.0
 11
226.490384
 21
176.619265
 31
0.0
  0
LINE
  5
32F
330
32B
100
AcDbEntity
  8
LC-001-100-D00-0
 62
     7
370
    25
100
AcDbLine
 10
231.906815
 20
182.035696
 30
0.0
 11
234.990384
 21
185.119265
 31
0.0
  0
LINE
  5
330
330
32B
100
AcDbEntity
  8
LC-001-100-D00-0
 62
     7
370
    25
100
AcDbLine
 10
221.490384
 20
180.599521
 30
0.0
 11
227.990384
 21
187.099521
 31
0.0
  0
LINE
  5
331
330
32B
100
AcDbEntity
  8
LC-001-100-D00-0
 62
     7
370
    25
100
AcDbLine
 10
221.490384
 20
189.579777
 30
0.0
 11
231.446303
 21
199.535696
 31
0.0
  0
LINE
  5
332
330
32B
100
AcDbEntity
  8
LC-001-100-D00-0
 62
     7
370
    25
100
AcDbLine
 10
221.490384
 20
198.560033
 30
0.0
 11
225.240384
 21
202.310033
 31
0.0
  0
LINE
  5
333
330
32B
100
AcDbEntity
  8
LC-001-100-D00-0
 62
     7
370
    25
100
AcDbLine
 10
221.490384
 20
207.540289
 30
0.0
 11
225.240384
 21
211.290289
 31
0.0
  0
ENDBLK
  5
32D
330
32B
100
AcDbEntity
  8
0
100
AcDbBlockEnd
  0
BLOCK
  5
336
330
335
100
AcDbEntity
  8
0
100
AcDbBlockBegin
  2
KLON2
 70
     0
 71
     0
 10
0.0
 20
0.0
 30
0.0
  3
KLON2
  1

  4
KLON2
  0
LINE
  5
338
330
335
100
AcDbEntity
  8
LC-001-100-D00-0
 62
     7
370
    25
100
AcDbLine
 10
89.490384
 20
174.323107
 30
0.0
 11
94.490384
 21
179.323107
 31
0.0
  0
LINE
  5
339
330
335
100
AcDbEntity
  8
LC-001-100-D00-0
 62
     7
370
    25
100
AcDbLine
 10
88.222717
 20
182.035696
 30
0.0
 11
94.490384
 21
188.303363
 31
0.0
  0
LINE
  5
33A
330
335
100
AcDbEntity
  8
LC-001-100-D00-0
 62
     7
370
    25
100
AcDbLine
 10
80.990384
 20
183.783619
 30
0.0
 11
82.742461
 21
185.535696
 31
0.0
  0
LINE
  5
33B
330
335
100
AcDbEntity
  8
LC-001-100-D00-0
 62
     7
370
    25
100
AcDbLine
 10
87.990384
 20
190.783619
 30
0.0
 11
94.490384
 21
197.283619
 31
0.0
  0
LINE
  5
33C
330
335
100
AcDbEntity
  8
LC-001-100-D00-0
 62
     7
370
    25
100
AcDbLine
 10
84.262205
 20
196.035696
 30
0.0
 11
87.762205
 21
199.535696
 31
0.0
  0
LINE
  5
33D
330
335
100
AcDbEntity
  8
LC-001-100-D00-0
 62
     7
370
    25
100
AcDbLine
 10
90.740384
 20
202.513875
 30
0.0
 11
94.490384
 21
206.263875
 31
0.0
  0
LINE
  5
33E
330
335
100
AcDbEntity
  8
LC-001-100-D00-0
 62
     7
370
    25
100
AcDbLine
 10
90.740384
 20
211.494131
 30
0.0
 11
92.886166
 21
213.639914
 31
0.0
  0
ENDBLK
  5
337
330
335
100
AcDbEntity
  8
0
100
AcDbBlockEnd
  0
BLOCK
  5
341
330
340
100
AcDbEntity
  8
0
100
AcDbBlockBegin
  2
KLON3
 70
     0
 71
     0
 10
0.0
 20
0.0
 30
0.0
  3
KLON3
  1

  4
KLON3
  0
LINE
  5
343
330
340
100
AcDbEntity
  8
LC-001-100-D00-0
 62
     7
370
    25
100
AcDbLine
 10
202.949887
 20
45.315695
 30
0.0
 11
203.090384
 21
45.456191
 31
0.0
  0
LINE
  5
344
330
340
100
AcDbEntity
  8
LC-001-100-D00-0
 62
     7
370
    25
100
AcDbLine
 10
200.490384
 20
51.836447
 30
0.0
 11
203.090384
 21
54.436447
 31
0.0
  0
LINE
  5
345
330
340
100
AcDbEntity
  8
LC-001-100-D00-0
 62
     7
370
    25
100
AcDbLine
 10
200.490384
 20
60.816704
 30
0.0
 11
203.090384
 21
63.416704
 31
0.0
  0
LINE
  5
346
330
340
100
AcDbEntity
  8
LC-001-100-D00-0
 62
     7
370
    25
100
AcDbLine
 10
200.490384
 20
69.79696
 30
0.0
 11
203.090384
 21
72.39696
 31
0.0
  0
LINE
  5
347
330
340
100
AcDbEntity
  8
LC-001-100-D00-0
 62
     7
370
    25
100
AcDbLine
 10
200.490384
 20
78.777216
 30
0.0
 11
203.090384
 21
81.377216
 31
0.0
  0
LINE
  5
348
330
340
100
AcDbEntity
  8
LC-001-100-D00-0
 62
     7
370
    25
100
AcDbLine
 10
235.248864
 20
113.535696
 30
0.0
 11
238.090384
 21
116.377216
 31
0.0
  0
LINE
  5
349
330
340
100
AcDbEntity
  8
LC-001-100-D00-0
 62
     7
370
    25
100
AcDbLine
 10
318.248864
 20
196.535696
 30
0.0
 11
320.619624
 21
198.906456
 31
0.0
  0
LINE
  5
34A
330
340
100
AcDbEntity
  8
LC-001-100-D00-0
 62
     7
370
    25
100
AcDbLine
 10
200.490384
 20
87.757472
 30
0.0
 11
203.090384
 21
90.357472
 31
0.0
  0
LINE
  5
34B
330
340
100
AcDbEntity
  8
LC-001-100-D00-0
 62
     7
370
    25
100
AcDbLine
 10
235.162766
 20
122.429854
 30
0.0
 11
238.090384
 21
125.357472
 31
0.0
  0
LINE
  5
34C
330
340
100
AcDbEntity
  8
LC-001-100-D00-0
 62
     7
370
    25
100
AcDbLine
 10
309.268608
 20
196.535696
 30
0.0
 11
312.268608
 21
199.535696
 31
0.0
  0
LINE
  5
34D
330
340
100
AcDbEntity
  8
LC-001-100-D00-0
 62
     7
370
    25
100
AcDbLine
 10
200.490384
 20
96.737728
 30
0.0
 11
203.090384
 21
99.337728
 31
0.0
  0
LINE
  5
34E
330
340
100
AcDbEntity
  8
LC-001-100-D00-0
 62
     7
370
    25
100
AcDbLine
 10
216.288352
 20
112.535696
 30
0.0
 11
219.288352
 21
115.535696
 31
0.0
  0
LINE
  5
34F
330
340
100
AcDbEntity
  8
LC-001-100-D00-0
 62
     7
370
    25
100
AcDbLine
 10
221.490384
 20
117.737728
 30
0.0
 11
224.490384
 21
120.737728
 31
0.0
  0
LINE
  5
350
330
340
100
AcDbEntity
  8
LC-001-100-D00-0
 62
     7
370
    25
100
AcDbLine
 10
235.085074
 20
131.332418
 30
0.0
 11
238.090384
 21
134.337728
 31
0.0
  0
LINE
  5
351
330
340
100
AcDbEntity
  8
LC-001-100-D00-0
 62
     7
370
    25
100
AcDbLine
 10
300.288352
 20
196.535696
 30
0.0
 11
303.288352
 21
199.535696
 31
0.0
  0
LINE
  5
352
330
340
100
AcDbEntity
  8
LC-001-100-D00-0
 62
     7
370
    25
100
AcDbLine
 10
200.490384
 20
105.717984
 30
0.0
 11
203.090384
 21
108.317984
 31
0.0
  0
LINE
  5
353
330
340
100
AcDbEntity
  8
LC-001-100-D00-0
 62
     7
370
    25
100
AcDbLine
 10
207.308096
 20
112.535696
 30
0.0
 11
210.308096
 21
115.535696
 31
0.0
  0
LINE
  5
354
330
340
100
AcDbEntity
  8
LC-001-100-D00-0
 62
     7
370
    25
100
AcDbLine
 10
221.490384
 20
126.717984
 30
0.0
 11
224.490384
 21
129.717984
 31
0.0
  0
LINE
  5
355
330
340
100
AcDbEntity
  8
LC-001-100-D00-0
 62
     7
370
    25
100
AcDbLine
 10
235.007383
 20
140.234983
 30
0.0
 11
238.090384
 21
143.317984
 31
0.0
  0
LINE
  5
356
330
340
100
AcDbEntity
  8
LC-001-100-D00-0
 62
     7
370
    25
100
AcDbLine
 10
291.308096
 20
196.535696
 30
0.0
 11
294.308096
 21
199.535696
 31
0.0
  0
LINE
  5
357
330
340
100
AcDbEntity
  8
LC-001-100-D00-0
 62
     7
370
    25
100
AcDbLine
 10
200.490384
 20
114.69824
 30
0.0
 11
201.32784
 21
115.535696
 31
0.0
  0
LINE
  5
358
330
340
100
AcDbEntity
  8
LC-001-100-D00-0
 62
     7
370
    25
100
AcDbLine
 10
221.490384
 20
135.69824
 30
0.0
 11
224.490384
 21
138.69824
 31
0.0
  0
LINE
  5
359
330
340
100
AcDbEntity
  8
LC-001-100-D00-0
 62
     7
370
    25
100
AcDbLine
 10
234.929691
 20
149.137548
 30
0.0
 11
238.090384
 21
152.29824
 31
0.0
  0
LINE
  5
35A
330
340
100
AcDbEntity
  8
LC-001-100-D00-0
 62
     7
370
    25
100
AcDbLine
 10
282.32784
 20
196.535696
 30
0.0
 11
285.32784
 21
199.535696
 31
0.0
  0
LINE
  5
35B
330
340
100
AcDbEntity
  8
LC-001-100-D00-0
 62
     7
370
    25
100
AcDbLine
 10
221.490384
 20
144.678496
 30
0.0
 11
230.340384
 21
153.528496
 31
0.0
  0
LINE
  5
35C
330
340
100
AcDbEntity
  8
LC-001-100-D00-0
 62
     7
370
    25
100
AcDbLine
 10
234.852
 20
158.040112
 30
0.0
 11
238.090384
 21
161.278496
 31
0.0
  0
LINE
  5
35D
330
340
100
AcDbEntity
  8
LC-001-100-D00-0
 62
     7
370
    25
100
AcDbLine
 10
273.347583
 20
196.535696
 30
0.0
 11
276.347583
 21
199.535696
 31
0.0
  0
LINE
  5
35E
330
340
100
AcDbEntity
  8
LC-001-100-D00-0
 62
     7
370
    25
100
AcDbLine
 10
227.490384
 20
159.658753
 30
0.0
 11
232.567327
 21
164.735696
 31
0.0
  0
LINE
  5
35F
330
340
100
AcDbEntity
  8
LC-001-100-D00-0
 62
     7
370
    25
100
AcDbLine
 10
234.490384
 20
166.658753
 30
0.0
 11
238.090384
 21
170.258753
 31
0.0
  0
LINE
  5
360
330
340
100
AcDbEntity
  8
LC-001-100-D00-0
 62
     7
370
    25
100
AcDbLine
 10
264.367327
 20
196.535696
 30
0.0
 11
267.367327
 21
199.535696
 31
0.0
  0
LINE
  5
361
330
340
100
AcDbEntity
  8
LC-001-100-D00-0
 62
     7
370
    25
100
AcDbLine
 10
233.424886
 20
174.573511
 30
0.0
 11
238.090384
 21
179.239009
 31
0.0
  0
LINE
  5
362
330
340
100
AcDbEntity
  8
LC-001-100-D00-0
 62
     7
370
    25
100
AcDbLine
 10
255.387071
 20
196.535696
 30
0.0
 11
258.387071
 21
199.535696
 31
0.0
  0
LINE
  5
363
330
340
100
AcDbEntity
  8
LC-001-100-D00-0
 62
     7
370
    25
100
AcDbLine
 10
236.740384
 20
186.869265
 30
0.0
 11
239.490384
 21
189.619265
 31
0.0
  0
LINE
  5
364
330
340
100
AcDbEntity
  8
LC-001-100-D00-0
 62
     7
370
    25
100
AcDbLine
 10
246.406815
 20
196.535696
 30
0.0
 11
249.406815
 21
199.535696
 31
0.0
  0
LINE
  5
365
330
340
100
AcDbEntity
  8
LC-001-100-D00-0
 62
     7
370
    25
100
AcDbLine
 10
236.740384
 20
195.849521
 30
0.0
 11
240.426559
 21
199.535696
 31
0.0
  0
ENDBLK
  5
342
330
340
100
AcDbEntity
  8
0
100
AcDbBlockEnd
  0
BLOCK
  5
368
330
367
100
AcDbEntity
  8
0
100
AcDbBlockBegin
  2
KLON4
 70
     0
 71
     0
 10
0.0
 20
0.0
 30
0.0
  3
KLON4
  1

  4
KLON4
  0
LINE
  5
36A
330
367
100
AcDbEntity
  8
LC-001-100-D00-0
 62
     7
370
    -2
100
AcDbLine
 10
336.209376
 20
196.535696
 30
0.0
 11
337.876013
 21
198.202332
 31
0.0
  0
LINE
  5
36B
330
367
100
AcDbEntity
  8
LC-001-100-D00-0
 62
     7
370
    -2
100
AcDbLine
 10
327.22912
 20
196.535696
 30
0.0
 11
330.22912
 21
199.535696
 31
0.0
  0
ENDBLK
  5
369
330
367
100
AcDbEntity
  8
0
100
AcDbBlockEnd
  0
BLOCK
  5
36E
330
36D
100
AcDbEntity
  8
0
100
AcDbBlockBegin
  2
KLON5
 70
     0
 71
     0
 10
0.0
 20
0.0
 30
0.0
  3
KLON5
  1

  4
KLON5
  0
LINE
  5
370
330
36D
100
AcDbEntity
  8
LC-001-100-D00-0
 62
     7
370
    25
100
AcDbLine
 10
-14.020612
 20
196.535696
 30
0.0
 11
-11.515114
 21
199.041194
 31
0.0
  0
LINE
  5
371
330
36D
100
AcDbEntity
  8
LC-001-100-D00-0
 62
     7
370
    25
100
AcDbLine
 10
-22.009616
 20
197.526948
 30
0.0
 11
-20.000869
 21
199.535696
 31
0.0
  0
ENDBLK
  5
36F
330
36D
100
AcDbEntity
  8
0
100
AcDbBlockEnd
  0
BLOCK
  5
374
330
373
100
AcDbEntity
  8
0
100
AcDbBlockBegin
  2
KLON6
 70
     0
 71
     0
 10
0.0
 20
0.0
 30
0.0
  3
KLON6
  1

  4
KLON6
  0
LINE
  5
376
330
373
100
AcDbEntity
  8
LC-001-100-D00-0
 62
     7
370
    25
100
AcDbLine
 10
112.890384
 20
45.058753
 30
0.0
 11
115.490384
 21
47.658753
 31
0.0
  0
LINE
  5
377
330
373
100
AcDbEntity
  8
LC-001-100-D00-0
 62
     7
370
    25
100
AcDbLine
 10
112.890384
 20
54.039009
 30
0.0
 11
115.490384
 21
56.639009
 31
0.0
  0
LINE
  5
378
330
373
100
AcDbEntity
  8
LC-001-100-D00-0
 62
     7
370
    25
100
AcDbLine
 10
112.890384
 20
63.019265
 30
0.0
 11
115.490384
 21
65.619265
 31
0.0
  0
LINE
  5
379
330
373
100
AcDbEntity
  8
LC-001-100-D00-0
 62
     7
370
    25
100
AcDbLine
 10
112.890384
 20
71.999521
 30
0.0
 11
115.490384
 21
74.599521
 31
0.0
  0
LINE
  5
37A
330
373
100
AcDbEntity
  8
LC-001-100-D00-0
 62
     7
370
    25
100
AcDbLine
 10
112.890384
 20
80.979777
 30
0.0
 11
115.490384
 21
83.579777
 31
0.0
  0
LINE
  5
37B
330
373
100
AcDbEntity
  8
LC-001-100-D00-0
 62
     7
370
    25
100
AcDbLine
 10
112.890384
 20
89.960033
 30
0.0
 11
115.490384
 21
92.560033
 31
0.0
  0
LINE
  5
37C
330
373
100
AcDbEntity
  8
LC-001-100-D00-0
 62
     7
370
    25
100
AcDbLine
 10
112.890384
 20
98.940289
 30
0.0
 11
115.490384
 21
101.540289
 31
0.0
  0
LINE
  5
37D
330
373
100
AcDbEntity
  8
LC-001-100-D00-0
 62
     7
370
    25
100
AcDbLine
 10
112.890384
 20
107.920545
 30
0.0
 11
115.490384
 21
110.520545
 31
0.0
  0
LINE
  5
37E
330
373
100
AcDbEntity
  8
LC-001-100-D00-0
 62
     7
370
    25
100
AcDbLine
 10
108.525278
 20
112.535696
 30
0.0
 11
111.525278
 21
115.535696
 31
0.0
  0
LINE
  5
37F
330
373
100
AcDbEntity
  8
LC-001-100-D00-0
 62
     7
370
    25
100
AcDbLine
 10
99.545022
 20
112.535696
 30
0.0
 11
102.545022
 21
115.535696
 31
0.0
  0
LINE
  5
380
330
373
100
AcDbEntity
  8
LC-001-100-D00-0
 62
     7
370
    25
100
AcDbLine
 10
91.490384
 20
113.461314
 30
0.0
 11
94.490384
 21
116.461314
 31
0.0
  0
LINE
  5
381
330
373
100
AcDbEntity
  8
LC-001-100-D00-0
 62
     7
370
    25
100
AcDbLine
 10
91.490384
 20
122.44157
 30
0.0
 11
94.490384
 21
125.44157
 31
0.0
  0
LINE
  5
382
330
373
100
AcDbEntity
  8
LC-001-100-D00-0
 62
     7
370
    25
100
AcDbLine
 10
77.890384
 20
117.821826
 30
0.0
 11
80.803208
 21
120.73465
 31
0.0
  0
LINE
  5
383
330
373
100
AcDbEntity
  8
LC-001-100-D00-0
 62
     7
370
    25
100
AcDbLine
 10
91.490384
 20
131.421826
 30
0.0
 11
94.490384
 21
134.421826
 31
0.0
  0
LINE
  5
384
330
373
100
AcDbEntity
  8
LC-001-100-D00-0
 62
     7
370
    25
100
AcDbLine
 10
77.890384
 20
126.802082
 30
0.0
 11
80.882268
 21
129.793966
 31
0.0
  0
LINE
  5
385
330
373
100
AcDbEntity
  8
LC-001-100-D00-0
 62
     7
370
    25
100
AcDbLine
 10
91.490384
 20
140.402082
 30
0.0
 11
94.490384
 21
143.402082
 31
0.0
  0
LINE
  5
386
330
373
100
AcDbEntity
  8
LC-001-100-D00-0
 62
     7
370
    25
100
AcDbLine
 10
77.890384
 20
135.782338
 30
0.0
 11
80.961327
 21
138.853281
 31
0.0
  0
LINE
  5
387
330
373
100
AcDbEntity
  8
LC-001-100-D00-0
 62
     7
370
    25
100
AcDbLine
 10
90.343742
 20
148.235696
 30
0.0
 11
93.795922
 21
151.687876
 31
0.0
  0
LINE
  5
388
330
373
100
AcDbEntity
  8
LC-001-100-D00-0
 62
     7
370
    25
100
AcDbLine
 10
77.890384
 20
144.762594
 30
0.0
 11
81.040386
 21
147.912597
 31
0.0
  0
LINE
  5
389
330
373
100
AcDbEntity
  8
LC-001-100-D00-0
 62
     7
370
    25
100
AcDbLine
 10
85.640384
 20
152.512594
 30
0.0
 11
88.490384
 21
155.362594
 31
0.0
  0
LINE
  5
38A
330
373
100
AcDbEntity
  8
LC-001-100-D00-0
 62
     7
370
    25
100
AcDbLine
 10
77.890384
 20
153.74285
 30
0.0
 11
81.119446
 21
156.971913
 31
0.0
  0
LINE
  5
38B
330
373
100
AcDbEntity
  8
LC-001-100-D00-0
 62
     7
370
    25
100
AcDbLine
 10
85.613508
 20
161.465975
 30
0.0
 11
88.490384
 21
164.34285
 31
0.0
  0
LINE
  5
38C
330
373
100
AcDbEntity
  8
LC-001-100-D00-0
 62
     7
370
    25
100
AcDbLine
 10
77.890384
 20
162.723107
 30
0.0
 11
81.490384
 21
166.323107
 31
0.0
  0
LINE
  5
38D
330
373
100
AcDbEntity
  8
LC-001-100-D00-0
 62
     7
370
    25
100
AcDbLine
 10
77.890384
 20
171.703363
 30
0.0
 11
82.820966
 21
176.633945
 31
0.0
  0
LINE
  5
38E
330
373
100
AcDbEntity
  8
LC-001-100-D00-0
 62
     7
370
    25
100
AcDbLine
 10
77.374415
 20
180.16765
 30
0.0
 11
79.533964
 21
182.327199
 31
0.0
  0
LINE
  5
38F
330
373
100
AcDbEntity
  8
LC-001-100-D00-0
 62
     7
370
    25
100
AcDbLine
 10
76.490384
 20
188.263875
 30
0.0
 11
79.240384
 21
191.013875
 31
0.0
  0
LINE
  5
390
330
373
100
AcDbEntity
  8
LC-001-100-D00-0
 62
     7
370
    25
100
AcDbLine
 10
75.636166
 20
196.389914
 30
0.0
 11
78.68009
 21
199.433838
 31
0.0
  0
LINE
  5
391
330
373
100
AcDbEntity
  8
LC-001-100-D00-0
 62
     7
370
    25
100
AcDbLine
 10
66.801693
 20
196.535696
 30
0.0
 11
69.801693
 21
199.535696
 31
0.0
  0
LINE
  5
392
330
373
100
AcDbEntity
  8
LC-001-100-D00-0
 62
     7
370
    25
100
AcDbLine
 10
57.821437
 20
196.535696
 30
0.0
 11
60.821437
 21
199.535696
 31
0.0
  0
LINE
  5
393
330
373
100
AcDbEntity
  8
LC-001-100-D00-0
 62
     7
370
    25
100
AcDbLine
 10
48.84118
 20
196.535696
 30
0.0
 11
51.84118
 21
199.535696
 31
0.0
  0
LINE
  5
394
330
373
100
AcDbEntity
  8
LC-001-100-D00-0
 62
     7
370
    25
100
AcDbLine
 10
39.860924
 20
196.535696
 30
0.0
 11
42.860924
 21
199.535696
 31
0.0
  0
LINE
  5
395
330
373
100
AcDbEntity
  8
LC-001-100-D00-0
 62
     7
370
    25
100
AcDbLine
 10
30.880668
 20
196.535696
 30
0.0
 11
33.880668
 21
199.535696
 31
0.0
  0
LINE
  5
396
330
373
100
AcDbEntity
  8
LC-001-100-D00-0
 62
     7
370
    25
100
AcDbLine
 10
21.900412
 20
196.535696
 30
0.0
 11
24.900412
 21
199.535696
 31
0.0
  0
LINE
  5
397
330
373
100
AcDbEntity
  8
LC-001-100-D00-0
 62
     7
370
    25
100
AcDbLine
 10
12.920156
 20
196.535696
 30
0.0
 11
15.920156
 21
199.535696
 31
0.0
  0
LINE
  5
398
330
373
100
AcDbEntity
  8
LC-001-100-D00-0
 62
     7
370
    25
100
AcDbLine
 10
3.9399
 20
196.535696
 30
0.0
 11
6.9399
 21
199.535696
 31
0.0
  0
LINE
  5
399
330
373
100
AcDbEntity
  8
LC-001-100-D00-0
 62
     7
370
    25
100
AcDbLine
 10
-5.040356
 20
196.535696
 30
0.0
 11
-2.040356
 21
199.535696
 31
0.0
  0
ENDBLK
  5
375
330
373
100
AcDbEntity
  8
0
100
AcDbBlockEnd
  0
BLOCK
  5
39C
330
39B
100
AcDbEntity
  8
0
100
AcDbBlockBegin
  2
KLON7
 70
     0
 71
     0
 10
0.0
 20
0.0
 30
0.0
  3
KLON7
  1

  4
KLON7
  0
LINE
  5
39E
330
39B
100
AcDbEntity
  8
LC-001-100-D00-0
 62
     7
370
    25
100
AcDbLine
 10
232.567327
 20
164.735696
 30
0.0
 11
235.240384
 21
167.408753
 31
0.0
  0
LINE
  5
39F
330
39B
100
AcDbEntity
  8
LC-001-100-D00-0
 62
     7
370
    25
100
AcDbLine
 10
222.976571
 20
164.125196
 30
0.0
 11
229.087071
 21
170.235696
 31
0.0
  0
ENDBLK
  5
39D
330
39B
100
AcDbEntity
  8
0
100
AcDbBlockEnd
  0
BLOCK
  5
3A2
330
3A1
100
AcDbEntity
  8
0
100
AcDbBlockBegin
  2
KLON8
 70
     0
 71
     0
 10
0.0
 20
0.0
 30
0.0
  3
KLON8
  1

  4
KLON8
  0
LINE
  5
3A4
330
3A1
100
AcDbEntity
  8
LC-001-100-D00-0
 62
     7
370
    25
100
AcDbLine
 10
89.240384
 20
165.09285
 30
0.0
 11
92.478478
 21
168.330944
 31
0.0
  0
LINE
  5
3A5
330
3A1
100
AcDbEntity
  8
LC-001-100-D00-0
 62
     7
370
    25
100
AcDbLine
 10
80.821678
 20
165.654401
 30
0.0
 11
85.402973
 21
170.235696
 31
0.0
  0
ENDBLK
  5
3A3
330
3A1
100
AcDbEntity
  8
0
100
AcDbBlockEnd
  0
BLOCK
  5
3A8
330
3A7
100
AcDbEntity
  8
0
100
AcDbBlockBegin
  2
KLON9
 70
     0
 71
     0
 10
0.0
 20
0.0
 30
0.0
  3
KLON9
  1

  4
KLON9
  0
LINE
  5
3AA
330
3A7
100
AcDbEntity
  8
LC-001-100-D00-0
 62
     7
370
    25
100
AcDbLine
 10
47.900412
 20
222.535696
 30
0.0
 11
51.950953
 21
226.586237
 31
0.0
  0
LINE
  5
3AB
330
3A7
100
AcDbEntity
  8
LC-001-100-D00-0
 62
     7
370
    25
100
AcDbLine
 10
38.920156
 20
222.535696
 30
0.0
 11
53.873392
 21
237.488932
 31
0.0
  0
LINE
  5
3AC
330
3A7
100
AcDbEntity
  8
LC-001-100-D00-0
 62
     7
370
    25
100
AcDbLine
 10
39.892672
 20
232.488468
 30
0.0
 11
55.795831
 21
248.391628
 31
0.0
  0
LINE
  5
3AD
330
3A7
100
AcDbEntity
  8
LC-001-100-D00-0
 62
     7
370
    25
100
AcDbLine
 10
41.815111
 20
243.391164
 30
0.0
 11
57.718271
 21
259.294323
 31
0.0
  0
LINE
  5
3AE
330
3A7
100
AcDbEntity
  8
LC-001-100-D00-0
 62
     7
370
    25
100
AcDbLine
 10
43.737551
 20
254.293859
 30
0.0
 11
59.64071
 21
270.197019
 31
0.0
  0
LINE
  5
3AF
330
3A7
100
AcDbEntity
  8
LC-001-100-D00-0
 62
     7
370
    25
100
AcDbLine
 10
45.65999
 20
265.196555
 30
0.0
 11
61.56315
 21
281.099714
 31
0.0
  0
LINE
  5
3B0
330
3A7
100
AcDbEntity
  8
LC-001-100-D00-0
 62
     7
370
    25
100
AcDbLine
 10
75.249131
 20
294.785696
 30
0.0
 11
77.999131
 21
297.535696
 31
0.0
  0
LINE
  5
3B1
330
3A7
100
AcDbEntity
  8
LC-001-100-D00-0
 62
     7
370
    25
100
AcDbLine
 10
47.58243
 20
276.09925
 30
0.0
 11
63.485589
 21
292.00241
 31
0.0
  0
LINE
  5
3B2
330
3A7
100
AcDbEntity
  8
LC-001-100-D00-0
 62
     7
370
    25
100
AcDbLine
 10
66.268875
 20
294.785696
 30
0.0
 11
69.064597
 21
297.581418
 31
0.0
  0
LINE
  5
3B3
330
3A7
100
AcDbEntity
  8
LC-001-100-D00-0
 62
     7
370
    25
100
AcDbLine
 10
49.504869
 20
287.001946
 30
0.0
 11
60.038619
 21
297.535696
 31
0.0
  0
ENDBLK
  5
3A9
330
3A7
100
AcDbEntity
  8
0
100
AcDbBlockEnd
  0
BLOCK
  5
3B6
330
3B5
100
AcDbEntity
  8
0
100
AcDbBlockBegin
  2
KLON10
 70
     0
 71
     0
 10
0.0
 20
0.0
 30
0.0
  3
KLON10
  1

  4
KLON10
  0
LINE
  5
3B8
330
3B5
100
AcDbEntity
  8
LC-001-100-D00-0
 62
     7
370
    25
100
AcDbLine
 10
272.406815
 20
222.535696
 30
0.0
 11
277.028168
 21
227.157049
 31
0.0
  0
LINE
  5
3B9
330
3B5
100
AcDbEntity
  8
LC-001-100-D00-0
 62
     7
370
    25
100
AcDbLine
 10
264.399944
 20
223.509082
 30
0.0
 11
275.682062
 21
234.791199
 31
0.0
  0
LINE
  5
3BA
330
3B5
100
AcDbEntity
  8
LC-001-100-D00-0
 62
     7
370
    25
100
AcDbLine
 10
263.200443
 20
231.289837
 30
0.0
 11
274.335955
 21
242.425349
 31
0.0
  0
LINE
  5
3BB
330
3B5
100
AcDbEntity
  8
LC-001-100-D00-0
 62
     7
370
    25
100
AcDbLine
 10
261.854337
 20
238.923986
 30
0.0
 11
272.989849
 21
250.059498
 31
0.0
  0
LINE
  5
3BC
330
3B5
100
AcDbEntity
  8
LC-001-100-D00-0
 62
     7
370
    25
100
AcDbLine
 10
260.50823
 20
246.558136
 30
0.0
 11
271.643742
 21
257.693648
 31
0.0
  0
LINE
  5
3BD
330
3B5
100
AcDbEntity
  8
LC-001-100-D00-0
 62
     7
370
    25
100
AcDbLine
 10
259.162124
 20
254.192285
 30
0.0
 11
270.297636
 21
265.327797
 31
0.0
  0
LINE
  5
3BE
330
3B5
100
AcDbEntity
  8
LC-001-100-D00-0
 62
     7
370
    25
100
AcDbLine
 10
257.816017
 20
261.826435
 30
0.0
 11
268.951529
 21
272.961947
 31
0.0
  0
LINE
  5
3BF
330
3B5
100
AcDbEntity
  8
LC-001-100-D00-0
 62
     7
370
    25
100
AcDbLine
 10
256.469911
 20
269.460584
 30
0.0
 11
267.605423
 21
280.596096
 31
0.0
  0
LINE
  5
3C0
330
3B5
100
AcDbEntity
  8
LC-001-100-D00-0
 62
     7
370
    25
100
AcDbLine
 10
255.123804
 20
277.094734
 30
0.0
 11
266.259316
 21
288.230246
 31
0.0
  0
LINE
  5
3C1
330
3B5
100
AcDbEntity
  8
LC-001-100-D00-0
 62
     7
370
    25
100
AcDbLine
 10
253.777697
 20
284.728884
 30
0.0
 11
264.584338
 21
295.535524
 31
0.0
  0
LINE
  5
3C2
330
3B5
100
AcDbEntity
  8
LC-001-100-D00-0
 62
     7
370
    25
100
AcDbLine
 10
252.431591
 20
292.363033
 30
0.0
 11
257.604254
 21
297.535696
 31
0.0
  0
LINE
  5
3C3
330
3B5
100
AcDbEntity
  8
LC-001-100-D00-0
 62
     7
370
    25
100
AcDbLine
 10
245.873998
 20
294.785696
 30
0.0
 11
248.623998
 21
297.535696
 31
0.0
  0
LINE
  5
3C4
330
3B5
100
AcDbEntity
  8
LC-001-100-D00-0
 62
     7
370
    25
100
AcDbLine
 10
236.893742
 20
294.785696
 30
0.0
 11
239.643742
 21
297.535696
 31
0.0
  0
ENDBLK
  5
3B7
330
3B5
100
AcDbEntity
  8
0
100
AcDbBlockEnd
  0
BLOCK
  5
3C7
330
3C6
100
AcDbEntity
  8
0
100
AcDbBlockBegin
  2
KLON11
 70
     0
 71
     0
 10
0.0
 20
0.0
 30
0.0
  3
KLON11
  1

  4
KLON11
  0
LINE
  5
3C9
330
3C6
100
AcDbEntity
  8
LC-001-100-D00-0
 62
     7
370
    25
100
AcDbLine
 10
166.781949
 20
287.535696
 30
0.0
 11
168.992172
 21
289.745919
 31
0.0
  0
LINE
  5
3CA
330
3C6
100
AcDbEntity
  8
LC-001-100-D00-0
 62
     7
370
    25
100
AcDbLine
 10
157.801693
 20
287.535696
 30
0.0
 11
167.801693
 21
297.535696
 31
0.0
  0
LINE
  5
3CB
330
3C6
100
AcDbEntity
  8
LC-001-100-D00-0
 62
     7
370
    25
100
AcDbLine
 10
148.821437
 20
287.535696
 30
0.0
 11
158.821437
 21
297.535696
 31
0.0
  0
LINE
  5
3CC
330
3C6
100
AcDbEntity
  8
LC-001-100-D00-0
 62
     7
370
    25
100
AcDbLine
 10
146.988596
 20
294.683111
 30
0.0
 11
149.84118
 21
297.535696
 31
0.0
  0
ENDBLK
  5
3C8
330
3C6
100
AcDbEntity
  8
0
100
AcDbBlockEnd
  0
BLOCK
  5
3D1
330
3D0
100
AcDbEntity
  8
0
100
AcDbBlockBegin
  2
KLON12
 70
     0
 71
     0
 10
0.0
 20
0.0
 30
0.0
  3
KLON12
  1

  4
KLON12
  0
LINE
  5
3D3
330
3D0
100
AcDbEntity
  8
LC-001-100-D00-0
 62
     7
370
    25
100
AcDbLine
 10
254.935071
 20
240.984977
 30
0.0
 11
256.985791
 21
243.035696
 31
0.0
  0
LINE
  5
3D4
330
3D0
100
AcDbEntity
  8
LC-001-100-D00-0
 62
     7
370
    25
100
AcDbLine
 10
227.505534
 20
222.535696
 30
0.0
 11
234.990384
 21
230.020545
 31
0.0
  0
LINE
  5
3D5
330
3D0
100
AcDbEntity
  8
LC-001-100-D00-0
 62
     7
370
    25
100
AcDbLine
 10
243.005534
 20
238.035696
 30
0.0
 11
248.005534
 21
243.035696
 31
0.0
  0
LINE
  5
3D6
330
3D0
100
AcDbEntity
  8
LC-001-100-D00-0
 62
     7
370
    25
100
AcDbLine
 10
218.525278
 20
222.535696
 30
0.0
 11
239.025278
 21
243.035696
 31
0.0
  0
LINE
  5
3D7
330
3D0
100
AcDbEntity
  8
LC-001-100-D00-0
 62
     7
370
    25
100
AcDbLine
 10
209.545022
 20
222.535696
 30
0.0
 11
230.045022
 21
243.035696
 31
0.0
  0
LINE
  5
3D8
330
3D0
100
AcDbEntity
  8
LC-001-100-D00-0
 62
     7
370
    25
100
AcDbLine
 10
203.972092
 20
225.943022
 30
0.0
 11
221.064766
 21
243.035696
 31
0.0
  0
LINE
  5
3D9
330
3D0
100
AcDbEntity
  8
LC-001-100-D00-0
 62
     7
370
    25
100
AcDbLine
 10
222.740384
 20
244.711314
 30
0.0
 11
227.064766
 21
249.035696
 31
0.0
  0
LINE
  5
3DA
330
3D0
100
AcDbEntity
  8
LC-001-100-D00-0
 62
     7
370
    25
100
AcDbLine
 10
200.68509
 20
231.636276
 30
0.0
 11
212.08451
 21
243.035696
 31
0.0
  0
LINE
  5
3DB
330
3D0
100
AcDbEntity
  8
LC-001-100-D00-0
 62
     7
370
    25
100
AcDbLine
 10
197.297319
 20
237.228761
 30
0.0
 11
203.104254
 21
243.035696
 31
0.0
  0
LINE
  5
3DC
330
3D0
100
AcDbEntity
  8
LC-001-100-D00-0
 62
     7
370
    25
100
AcDbLine
 10
189.123998
 20
238.035696
 30
0.0
 11
194.123998
 21
243.035696
 31
0.0
  0
LINE
  5
3DD
330
3D0
100
AcDbEntity
  8
LC-001-100-D00-0
 62
     7
370
    25
100
AcDbLine
 10
180.143742
 20
238.035696
 30
0.0
 11
185.143742
 21
243.035696
 31
0.0
  0
LINE
  5
3DE
330
3D0
100
AcDbEntity
  8
LC-001-100-D00-0
 62
     7
370
    25
100
AcDbLine
 10
171.163485
 20
238.035696
 30
0.0
 11
176.163485
 21
243.035696
 31
0.0
  0
LINE
  5
3DF
330
3D0
100
AcDbEntity
  8
LC-001-100-D00-0
 62
     7
370
    25
100
AcDbLine
 10
162.183229
 20
238.035696
 30
0.0
 11
167.183229
 21
243.035696
 31
0.0
  0
LINE
  5
3E0
330
3D0
100
AcDbEntity
  8
LC-001-100-D00-0
 62
     7
370
    25
100
AcDbLine
 10
153.202973
 20
238.035696
 30
0.0
 11
158.202973
 21
243.035696
 31
0.0
  0
LINE
  5
3E1
330
3D0
100
AcDbEntity
  8
LC-001-100-D00-0
 62
     7
370
    25
100
AcDbLine
 10
144.222717
 20
238.035696
 30
0.0
 11
149.222717
 21
243.035696
 31
0.0
  0
LINE
  5
3E2
330
3D0
100
AcDbEntity
  8
LC-001-100-D00-0
 62
     7
370
    25
100
AcDbLine
 10
135.242461
 20
238.035696
 30
0.0
 11
140.242461
 21
243.035696
 31
0.0
  0
LINE
  5
3E3
330
3D0
100
AcDbEntity
  8
LC-001-100-D00-0
 62
     7
370
    25
100
AcDbLine
 10
126.262205
 20
238.035696
 30
0.0
 11
131.262205
 21
243.035696
 31
0.0
  0
LINE
  5
3E4
330
3D0
100
AcDbEntity
  8
LC-001-100-D00-0
 62
     7
370
    25
100
AcDbLine
 10
101.781949
 20
222.535696
 30
0.0
 11
122.281949
 21
243.035696
 31
0.0
  0
LINE
  5
3E5
330
3D0
100
AcDbEntity
  8
LC-001-100-D00-0
 62
     7
370
    25
100
AcDbLine
 10
92.801693
 20
222.535696
 30
0.0
 11
113.301693
 21
243.035696
 31
0.0
  0
LINE
  5
3E6
330
3D0
100
AcDbEntity
  8
LC-001-100-D00-0
 62
     7
370
    25
100
AcDbLine
 10
83.821437
 20
222.535696
 30
0.0
 11
104.321437
 21
243.035696
 31
0.0
  0
LINE
  5
3E7
330
3D0
100
AcDbEntity
  8
LC-001-100-D00-0
 62
     7
370
    25
100
AcDbLine
 10
80.990384
 20
228.684899
 30
0.0
 11
95.34118
 21
243.035696
 31
0.0
  0
LINE
  5
3E8
330
3D0
100
AcDbEntity
  8
LC-001-100-D00-0
 62
     7
370
    25
100
AcDbLine
 10
80.925654
 20
237.600426
 30
0.0
 11
86.360924
 21
243.035696
 31
0.0
  0
LINE
  5
3E9
330
3D0
100
AcDbEntity
  8
LC-001-100-D00-0
 62
     7
370
    25
100
AcDbLine
 10
88.740384
 20
245.415156
 30
0.0
 11
92.360924
 21
249.035696
 31
0.0
  0
LINE
  5
3EA
330
3D0
100
AcDbEntity
  8
LC-001-100-D00-0
 62
     7
370
    25
100
AcDbLine
 10
72.380668
 20
238.035696
 30
0.0
 11
77.380668
 21
243.035696
 31
0.0
  0
LINE
  5
3EB
330
3D0
100
AcDbEntity
  8
LC-001-100-D00-0
 62
     7
370
    25
100
AcDbLine
 10
65.228826
 20
239.86411
 30
0.0
 11
68.400412
 21
243.035696
 31
0.0
  0
LINE
  5
3EC
330
3D0
100
AcDbEntity
  8
LC-001-100-D00-0
 62
     7
370
    25
100
AcDbLine
 10
58.990384
 20
242.605924
 30
0.0
 11
59.420156
 21
243.035696
 31
0.0
  0
ENDBLK
  5
3D2
330
3D0
100
AcDbEntity
  8
0
100
AcDbBlockEnd
  0
BLOCK
  5
3EF
330
3EE
100
AcDbEntity
  8
0
100
AcDbBlockBegin
  2
KLON13
 70
     0
 71
     0
 10
0.0
 20
0.0
 30
0.0
  3
KLON13
  1

  4
KLON13
  0
LINE
  5
3F1
330
3EE
100
AcDbEntity
  8
LC-001-100-D00-0
 62
     7
370
    25
100
AcDbLine
 10
305.293113
 20
228.481226
 30
0.0
 11
311.320201
 21
234.508314
 31
0.0
  0
LINE
  5
3F2
330
3EE
100
AcDbEntity
  8
LC-001-100-D00-0
 62
     7
370
    25
100
AcDbLine
 10
220.367327
 20
152.535696
 30
0.0
 11
222.490384
 21
154.658753
 31
0.0
  0
LINE
  5
3F3
330
3EE
100
AcDbEntity
  8
LC-001-100-D00-0
 62
     7
370
    25
100
AcDbLine
 10
291.410407
 20
223.578776
 30
0.0
 11
295.836203
 21
228.004572
 31
0.0
  0
LINE
  5
3F4
330
3EE
100
AcDbEntity
  8
LC-001-100-D00-0
 62
     7
370
    25
100
AcDbLine
 10
217.490384
 20
158.639009
 30
0.0
 11
222.490384
 21
163.639009
 31
0.0
  0
LINE
  5
3F5
330
3EE
100
AcDbEntity
  8
LC-001-100-D00-0
 62
     7
370
    25
100
AcDbLine
 10
277.887071
 20
219.035696
 30
0.0
 11
284.689187
 21
225.837811
 31
0.0
  0
LINE
  5
3F6
330
3EE
100
AcDbEntity
  8
LC-001-100-D00-0
 62
     7
370
    25
100
AcDbLine
 10
217.490384
 20
167.619265
 30
0.0
 11
222.490384
 21
172.619265
 31
0.0
  0
LINE
  5
3F7
330
3EE
100
AcDbEntity
  8
LC-001-100-D00-0
 62
     7
370
    25
100
AcDbLine
 10
268.906815
 20
219.035696
 30
0.0
 11
272.406815
 21
222.535696
 31
0.0
  0
LINE
  5
3F8
330
3EE
100
AcDbEntity
  8
LC-001-100-D00-0
 62
     7
370
    25
100
AcDbLine
 10
217.490384
 20
176.599521
 30
0.0
 11
222.490384
 21
181.599521
 31
0.0
  0
LINE
  5
3F9
330
3EE
100
AcDbEntity
  8
LC-001-100-D00-0
 62
     7
370
    25
100
AcDbLine
 10
259.926559
 20
219.035696
 30
0.0
 11
263.426559
 21
222.535696
 31
0.0
  0
LINE
  5
3FA
330
3EE
100
AcDbEntity
  8
LC-001-100-D00-0
 62
     7
370
    25
100
AcDbLine
 10
217.490384
 20
185.579777
 30
0.0
 11
222.490384
 21
190.579777
 31
0.0
  0
LINE
  5
3FB
330
3EE
100
AcDbEntity
  8
LC-001-100-D00-0
 62
     7
370
    25
100
AcDbLine
 10
250.946303
 20
219.035696
 30
0.0
 11
254.446303
 21
222.535696
 31
0.0
  0
LINE
  5
3FC
330
3EE
100
AcDbEntity
  8
LC-001-100-D00-0
 62
     7
370
    25
100
AcDbLine
 10
217.490384
 20
194.560033
 30
0.0
 11
222.490384
 21
199.560033
 31
0.0
  0
LINE
  5
3FD
330
3EE
100
AcDbEntity
  8
LC-001-100-D00-0
 62
     7
370
    25
100
AcDbLine
 10
241.966047
 20
219.035696
 30
0.0
 11
245.466047
 21
222.535696
 31
0.0
  0
LINE
  5
3FE
330
3EE
100
AcDbEntity
  8
LC-001-100-D00-0
 62
     7
370
    25
100
AcDbLine
 10
217.490384
 20
203.540289
 30
0.0
 11
222.490384
 21
208.540289
 31
0.0
  0
LINE
  5
3FF
330
3EE
100
AcDbEntity
  8
LC-001-100-D00-0
 62
     7
370
    25
100
AcDbLine
 10
232.985791
 20
219.035696
 30
0.0
 11
236.485791
 21
222.535696
 31
0.0
  0
LINE
  5
400
330
3EE
100
AcDbEntity
  8
LC-001-100-D00-0
 62
     7
370
    25
100
AcDbLine
 10
217.490384
 20
212.520545
 30
0.0
 11
227.505534
 21
222.535696
 31
0.0
  0
ENDBLK
  5
3F0
330
3EE
100
AcDbEntity
  8
0
100
AcDbBlockEnd
  0
BLOCK
  5
403
330
402
100
AcDbEntity
  8
0
100
AcDbBlockBegin
  2
KLON14
 70
     0
 71
     0
 10
0.0
 20
0.0
 30
0.0
  3
KLON14
  1

  4
KLON14
  0
LINE
  5
405
330
402
100
AcDbEntity
  8
LC-001-100-D00-0
 62
     7
370
    25
100
AcDbLine
 10
95.067063
 20
152.959017
 30
0.0
 11
98.490384
 21
156.382338
 31
0.0
  0
LINE
  5
406
330
402
100
AcDbEntity
  8
LC-001-100-D00-0
 62
     7
370
    25
100
AcDbLine
 10
93.490384
 20
160.362594
 30
0.0
 11
98.490384
 21
165.362594
 31
0.0
  0
LINE
  5
407
330
402
100
AcDbEntity
  8
LC-001-100-D00-0
 62
     7
370
    25
100
AcDbLine
 10
93.490384
 20
169.34285
 30
0.0
 11
98.490384
 21
174.34285
 31
0.0
  0
LINE
  5
408
330
402
100
AcDbEntity
  8
LC-001-100-D00-0
 62
     7
370
    25
100
AcDbLine
 10
93.490384
 20
178.323107
 30
0.0
 11
98.490384
 21
183.323107
 31
0.0
  0
LINE
  5
409
330
402
100
AcDbEntity
  8
LC-001-100-D00-0
 62
     7
370
    25
100
AcDbLine
 10
93.490384
 20
187.303363
 30
0.0
 11
98.490384
 21
192.303363
 31
0.0
  0
LINE
  5
40A
330
402
100
AcDbEntity
  8
LC-001-100-D00-0
 62
     7
370
    25
100
AcDbLine
 10
93.490384
 20
196.283619
 30
0.0
 11
98.490384
 21
201.283619
 31
0.0
  0
LINE
  5
40B
330
402
100
AcDbEntity
  8
LC-001-100-D00-0
 62
     7
370
    25
100
AcDbLine
 10
93.490384
 20
205.263875
 30
0.0
 11
98.490384
 21
210.263875
 31
0.0
  0
LINE
  5
40C
330
402
100
AcDbEntity
  8
LC-001-100-D00-0
 62
     7
370
    25
100
AcDbLine
 10
93.490384
 20
214.244131
 30
0.0
 11
96.136166
 21
216.889914
 31
0.0
  0
LINE
  5
40D
330
402
100
AcDbEntity
  8
LC-001-100-D00-0
 62
     7
370
    25
100
AcDbLine
 10
89.171164
 20
218.905168
 30
0.0
 11
91.646038
 21
221.380042
 31
0.0
  0
LINE
  5
40E
330
402
100
AcDbEntity
  8
LC-001-100-D00-0
 62
     7
370
    25
100
AcDbLine
 10
80.321437
 20
219.035696
 30
0.0
 11
83.821437
 21
222.535696
 31
0.0
  0
LINE
  5
40F
330
402
100
AcDbEntity
  8
LC-001-100-D00-0
 62
     7
370
    25
100
AcDbLine
 10
71.34118
 20
219.035696
 30
0.0
 11
74.84118
 21
222.535696
 31
0.0
  0
LINE
  5
410
330
402
100
AcDbEntity
  8
LC-001-100-D00-0
 62
     7
370
    25
100
AcDbLine
 10
62.360924
 20
219.035696
 30
0.0
 11
65.860924
 21
222.535696
 31
0.0
  0
LINE
  5
411
330
402
100
AcDbEntity
  8
LC-001-100-D00-0
 62
     7
370
    25
100
AcDbLine
 10
53.380668
 20
219.035696
 30
0.0
 11
56.880668
 21
222.535696
 31
0.0
  0
LINE
  5
412
330
402
100
AcDbEntity
  8
LC-001-100-D00-0
 62
     7
370
    25
100
AcDbLine
 10
44.400412
 20
219.035696
 30
0.0
 11
47.900412
 21
222.535696
 31
0.0
  0
LINE
  5
413
330
402
100
AcDbEntity
  8
LC-001-100-D00-0
 62
     7
370
    25
100
AcDbLine
 10
35.420156
 20
219.035696
 30
0.0
 11
38.920156
 21
222.535696
 31
0.0
  0
LINE
  5
414
330
402
100
AcDbEntity
  8
LC-001-100-D00-0
 62
     7
370
    25
100
AcDbLine
 10
29.939353
 20
222.535149
 30
0.0
 11
32.92459
 21
225.520387
 31
0.0
  0
LINE
  5
415
330
402
100
AcDbEntity
  8
LC-001-100-D00-0
 62
     7
370
    25
100
AcDbLine
 10
22.420595
 20
223.996648
 30
0.0
 11
25.405833
 21
226.981885
 31
0.0
  0
LINE
  5
416
330
402
100
AcDbEntity
  8
LC-001-100-D00-0
 62
     7
370
    25
100
AcDbLine
 10
15.339832
 20
225.89614
 30
0.0
 11
17.911068
 21
228.467376
 31
0.0
  0
LINE
  5
417
330
402
100
AcDbEntity
  8
LC-001-100-D00-0
 62
     7
370
    25
100
AcDbLine
 10
9.567243
 20
229.103807
 30
0.0
 11
12.138478
 21
231.675043
 31
0.0
  0
LINE
  5
418
330
402
100
AcDbEntity
  8
LC-001-100-D00-0
 62
     7
370
    25
100
AcDbLine
 10
2.990384
 20
231.507205
 30
0.0
 11
6.018875
 21
234.535696
 31
0.0
  0
ENDBLK
  5
404
330
402
100
AcDbEntity
  8
0
100
AcDbBlockEnd
  0
BLOCK
  5
41D
330
41C
100
AcDbEntity
  8
0
100
AcDbBlockBegin
  2
KLON15
 70
     0
 71
     0
 10
0.0
 20
0.0
 30
0.0
  3
KLON15
  1

  4
KLON15
  0
LINE
  5
41F
330
41C
100
AcDbEntity
  8
LC-001-100-D00-0
 62
     7
370
    25
100
AcDbLine
 10
82.742461
 20
185.535696
 30
0.0
 11
87.990384
 21
190.783619
 31
0.0
  0
LINE
  5
420
330
41C
100
AcDbEntity
  8
LC-001-100-D00-0
 62
     7
370
    25
100
AcDbLine
 10
81.990384
 20
193.763875
 30
0.0
 11
84.262205
 21
196.035696
 31
0.0
  0
ENDBLK
  5
41E
330
41C
100
AcDbEntity
  8
0
100
AcDbBlockEnd
  0
BLOCK
  5
423
330
422
100
AcDbEntity
  8
0
100
AcDbBlockBegin
  2
KLON16
 70
     0
 71
     0
 10
0.0
 20
0.0
 30
0.0
  3
KLON16
  1

  4
KLON16
  0
LINE
  5
425
330
422
100
AcDbEntity
  8
LC-001-100-D00-0
 62
     7
370
    25
100
AcDbLine
 10
235.558132
 20
185.687013
 30
0.0
 11
237.406815
 21
187.535696
 31
0.0
  0
LINE
  5
426
330
422
100
AcDbEntity
  8
LC-001-100-D00-0
 62
     7
370
    25
100
AcDbLine
 10
227.990384
 20
187.099521
 30
0.0
 11
233.990384
 21
193.099521
 31
0.0
  0
ENDBLK
  5
424
330
422
100
AcDbEntity
  8
0
100
AcDbBlockEnd
  0
BLOCK
  5
429
330
428
100
AcDbEntity
  8
0
100
AcDbBlockBegin
  2
KLON17
 70
     0
 71
     0
 10
0.0
 20
0.0
 30
0.0
  3
KLON17
  1

  4
KLON17
  0
LINE
  5
42B
330
428
100
AcDbEntity
  8
LC-001-100-D00-0
 62
     7
370
    25
100
AcDbLine
 10
108.505534
 20
103.535696
 30
0.0
 11
111.005534
 21
106.035696
 31
0.0
  0
LINE
  5
42C
330
428
100
AcDbEntity
  8
LC-001-100-D00-0
 62
     7
370
    25
100
AcDbLine
 10
99.525278
 20
103.535696
 30
0.0
 11
102.025278
 21
106.035696
 31
0.0
  0
LINE
  5
42D
330
428
100
AcDbEntity
  8
LC-001-100-D00-0
 62
     7
370
    25
100
AcDbLine
 10
90.545022
 20
103.535696
 30
0.0
 11
93.045022
 21
106.035696
 31
0.0
  0
LINE
  5
42E
330
428
100
AcDbEntity
  8
LC-001-100-D00-0
 62
     7
370
    25
100
AcDbLine
 10
82.410458
 20
104.381388
 30
0.0
 11
84.343406
 21
106.314336
 31
0.0
  0
LINE
  5
42F
330
428
100
AcDbEntity
  8
LC-001-100-D00-0
 62
     7
370
    25
100
AcDbLine
 10
78.318128
 20
109.269314
 30
0.0
 11
82.990384
 21
113.94157
 31
0.0
  0
LINE
  5
430
330
428
100
AcDbEntity
  8
LC-001-100-D00-0
 62
     7
370
    25
100
AcDbLine
 10
80.490384
 20
120.421826
 30
0.0
 11
82.604254
 21
122.535696
 31
0.0
  0
ENDBLK
  5
42A
330
428
100
AcDbEntity
  8
0
100
AcDbBlockEnd
  0
BLOCK
  5
433
330
432
100
AcDbEntity
  8
0
100
AcDbBlockBegin
  2
KLON18
 70
     0
 71
     0
 10
0.0
 20
0.0
 30
0.0
  3
KLON18
  1

  4
KLON18
  0
LINE
  5
435
330
432
100
AcDbEntity
  8
LC-001-100-D00-0
 62
     7
370
    25
100
AcDbLine
 10
225.248864
 20
103.535696
 30
0.0
 11
227.748864
 21
106.035696
 31
0.0
  0
LINE
  5
436
330
432
100
AcDbEntity
  8
LC-001-100-D00-0
 62
     7
370
    25
100
AcDbLine
 10
232.990384
 20
111.277216
 30
0.0
 11
235.490384
 21
113.777216
 31
0.0
  0
LINE
  5
437
330
432
100
AcDbEntity
  8
LC-001-100-D00-0
 62
     7
370
    25
100
AcDbLine
 10
216.268608
 20
103.535696
 30
0.0
 11
218.768608
 21
106.035696
 31
0.0
  0
LINE
  5
438
330
432
100
AcDbEntity
  8
LC-001-100-D00-0
 62
     7
370
    25
100
AcDbLine
 10
232.990384
 20
120.257472
 30
0.0
 11
235.268608
 21
122.535696
 31
0.0
  0
LINE
  5
439
330
432
100
AcDbEntity
  8
LC-001-100-D00-0
 62
     7
370
    25
100
AcDbLine
 10
207.288352
 20
103.535696
 30
0.0
 11
209.788352
 21
106.035696
 31
0.0
  0
ENDBLK
  5
434
330
432
100
AcDbEntity
  8
0
100
AcDbBlockEnd
  0
BLOCK
  5
44C
330
442
100
AcDbEntity
  8
0
100
AcDbBlockBegin
  2
*D26
 70
     1
 71
     0
 10
0.0
 20
0.0
 30
0.0
  3
*D26
  1

  0
LINE
  5
443
330
442
100
AcDbEntity
  8
LC-002-003-----0
 62
     2
370
    -2
100
AcDbLine
 10
2.990383
 20
231.035696
 30
0.0
 11
2.990383
 21
327.251695
 31
0.0
  0
LINE
  5
444
330
442
100
AcDbEntity
  8
LC-002-003-----0
 62
     2
370
    -2
100
AcDbLine
 10
312.990385
 20
231.035696
 30
0.0
 11
312.990385
 21
327.251695
 31
0.0
  0
LINE
  5
445
330
442
100
AcDbEntity
  8
LC-002-003-----0
 62
     2
370
    -2
100
AcDbLine
 10
30.990383
 20
323.651695
 30
0.0
 11
284.990385
 21
323.651695
 31
0.0
  0
SOLID
  5
446
330
442
100
AcDbEntity
  8
LC-002-003-----0
 62
     2
100
AcDbTrace
 10
30.990383
 20
328.318361
 30
0.0
 11
30.990383
 21
318.985028
 31
0.0
 12
2.990383
 22
323.651695
 32
0.0
 13
2.990383
 23
323.651695
 33
0.0
  0
SOLID
  5
447
330
442
100
AcDbEntity
  8
LC-002-003-----0
 62
     2
100
AcDbTrace
 10
284.990385
 20
318.985028
 30
0.0
 11
284.990385
 21
328.318361
 31
0.0
 12
312.990385
 22
323.651695
 32
0.0
 13
312.990385
 23
323.651695
 33
0.0
  0
MTEXT
  5
448
330
442
100
AcDbEntity
  8
LC-002-003-----0
 62
     2
100
AcDbMText
 10
157.954937
 20
354.451695
 30
0.0
 40
28.0
 41
0.0
 71
     5
 72
     1
  1
%%c\A1;310
  7
LCTX15-400-0-0pDIN-Schrift
 73
     1
 44
1.0
  0
POINT
  5
449
330
442
100
AcDbEntity
  8
Defpoints
 62
     0
100
AcDbPoint
 10
2.990383
 20
231.035696
 30
0.0
  0
POINT
  5
44A
330
442
100
AcDbEntity
  8
Defpoints
 62
     0
100
AcDbPoint
 10
312.990385
 20
231.035696
 30
0.0
  0
POINT
  5
44B
330
442
100
AcDbEntity
  8
Defpoints
 62
     0
100
AcDbPoint
 10
312.990385
 20
323.651695
 30
0.0
  0
ENDBLK
  5
44D
330
442
100
AcDbEntity
  8
0
100
AcDbBlockEnd
  0
BLOCK
  5
459
330
44F
100
AcDbEntity
  8
0
100
AcDbBlockBegin
  2
*D27
 70
     1
 71
     0
 10
0.0
 20
0.0
 30
0.0
  3
*D27
  1

  0
LINE
  5
450
330
44F
100
AcDbEntity
  8
LC-002-003-----0
 62
     2
370
    -2
100
AcDbLine
 10
-22.009623
 20
196.535695
 30
0.0
 11
-22.009623
 21
378.929695
 31
0.0
  0
LINE
  5
451
330
44F
100
AcDbEntity
  8
LC-002-003-----0
 62
     2
370
    -2
100
AcDbLine
 10
337.990391
 20
196.535695
 30
0.0
 11
337.990391
 21
378.929695
 31
0.0
  0
LINE
  5
452
330
44F
100
AcDbEntity
  8
LC-002-003-----0
 62
     2
370
    -2
100
AcDbLine
 10
5.990377
 20
375.329695
 30
0.0
 11
309.990391
 21
375.329695
 31
0.0
  0
SOLID
  5
453
330
44F
100
AcDbEntity
  8
LC-002-003-----0
 62
     2
100
AcDbTrace
 10
5.990377
 20
379.996361
 30
0.0
 11
5.990377
 21
370.663028
 31
0.0
 12
-22.009623
 22
375.329695
 32
0.0
 13
-22.009623
 23
375.329695
 33
0.0
  0
SOLID
  5
454
330
44F
100
AcDbEntity
  8
LC-002-003-----0
 62
     2
100
AcDbTrace
 10
309.990391
 20
370.663028
 30
0.0
 11
309.990391
 21
379.996361
 31
0.0
 12
337.990391
 22
375.329695
 32
0.0
 13
337.990391
 23
375.329695
 33
0.0
  0
MTEXT
  5
455
330
44F
100
AcDbEntity
  8
LC-002-003-----0
 62
     2
100
AcDbMText
 10
154.760299
 20
406.129695
 30
0.0
 40
28.0
 41
0.0
 71
     5
 72
     1
  1
%%c\A1;360
  7
LCTX15-400-0-0pDIN-Schrift
 73
     1
 44
1.0
  0
POINT
  5
456
330
44F
100
AcDbEntity
  8
Defpoints
 62
     0
100
AcDbPoint
 10
-22.009623
 20
196.535695
 30
0.0
  0
POINT
  5
457
330
44F
100
AcDbEntity
  8
Defpoints
 62
     0
100
AcDbPoint
 10
337.990391
 20
196.535695
 30
0.0
  0
POINT
  5
458
330
44F
100
AcDbEntity
  8
Defpoints
 62
     0
100
AcDbPoint
 10
337.990391
 20
375.329695
 30
0.0
  0
ENDBLK
  5
45A
330
44F
100
AcDbEntity
  8
0
100
AcDbBlockEnd
  0
BLOCK
  5
466
330
45C
100
AcDbEntity
  8
0
100
AcDbBlockBegin
  2
*D28
 70
     1
 71
     0
 10
0.0
 20
0.0
 30
0.0
  3
*D28
  1

  0
LINE
  5
45D
330
45C
100
AcDbEntity
  8
LC-002-003-----0
 62
     2
370
    -2
100
AcDbLine
 10
77.890384
 20
113.535698
 30
0.0
 11
77.890384
 21
-73.770305
 31
0.0
  0
LINE
  5
45E
330
45C
100
AcDbEntity
  8
LC-002-003-----0
 62
     2
370
    -2
100
AcDbLine
 10
238.090384
 20
113.535698
 30
0.0
 11
238.090384
 21
-73.770305
 31
0.0
  0
LINE
  5
45F
330
45C
100
AcDbEntity
  8
LC-002-003-----0
 62
     2
370
    -2
100
AcDbLine
 10
105.890384
 20
-70.170305
 30
0.0
 11
210.090384
 21
-70.170305
 31
0.0
  0
SOLID
  5
460
330
45C
100
AcDbEntity
  8
LC-002-003-----0
 62
     2
100
AcDbTrace
 10
105.890384
 20
-65.503639
 30
0.0
 11
105.890384
 21
-74.836972
 31
0.0
 12
77.890384
 22
-70.170305
 32
0.0
 13
77.890384
 23
-70.170305
 33
0.0
  0
SOLID
  5
461
330
45C
100
AcDbEntity
  8
LC-002-003-----0
 62
     2
100
AcDbTrace
 10
210.090384
 20
-74.836972
 30
0.0
 11
210.090384
 21
-65.503639
 31
0.0
 12
238.090384
 22
-70.170305
 32
0.0
 13
238.090384
 23
-70.170305
 33
0.0
  0
MTEXT
  5
462
330
45C
100
AcDbEntity
  8
LC-002-003-----0
 62
     2
100
AcDbMText
 10
146.241267
 20
-39.370305
 30
0.0
 40
28.0
 41
0.0
 71
     5
 72
     1
  1
\A1;%%c160
  7
LCTX15-400-0-0pDIN-Schrift
 73
     1
 44
1.0
  0
POINT
  5
463
330
45C
100
AcDbEntity
  8
Defpoints
 62
     0
100
AcDbPoint
 10
77.890384
 20
113.535698
 30
0.0
  0
POINT
  5
464
330
45C
100
AcDbEntity
  8
Defpoints
 62
     0
100
AcDbPoint
 10
238.090384
 20
113.535698
 30
0.0
  0
POINT
  5
465
330
45C
100
AcDbEntity
  8
Defpoints
 62
     0
100
AcDbPoint
 10
238.090384
 20
-70.170305
 30
0.0
  0
ENDBLK
  5
467
330
45C
100
AcDbEntity
  8
0
100
AcDbBlockEnd
  0
BLOCK
  5
474
330
469
100
AcDbEntity
  8
0
100
AcDbBlockBegin
  2
*D29
 70
     1
 71
     0
 10
0.0
 20
0.0
 30
0.0
  3
*D29
  1

  0
LINE
  5
46A
330
469
100
AcDbEntity
  8
LC-002-003-----0
 62
     2
370
    -2
100
AcDbLine
 10
6.990391
 20
234.535696
 30
0.0
 11
-47.972084
 21
234.535696
 31
0.0
  0
LINE
  5
46B
330
469
100
AcDbEntity
  8
LC-002-003-----0
 62
     2
370
    -2
100
AcDbLine
 10
-12.009618
 20
199.535697
 30
0.0
 11
-47.972084
 21
199.535697
 31
0.0
  0
LINE
  5
46C
330
469
100
AcDbEntity
  8
LC-002-003-----0
 62
     2
370
    -2
100
AcDbLine
 10
-44.372084
 20
171.535697
 30
0.0
 11
-44.372084
 21
143.535697
 31
0.0
  0
LINE
  5
46D
330
469
100
AcDbEntity
  8
LC-002-003-----0
 62
     2
370
    -2
100
AcDbLine
 10
-44.372084
 20
262.535696
 30
0.0
 11
-44.372084
 21
355.819119
 31
0.0
  0
SOLID
  5
46E
330
469
100
AcDbEntity
  8
LC-002-003-----0
 62
     2
100
AcDbTrace
 10
-49.03875
 20
262.535696
 30
0.0
 11
-39.705417
 21
262.535696
 31
0.0
 12
-44.372084
 22
234.535696
 32
0.0
 13
-44.372084
 23
234.535696
 33
0.0
  0
SOLID
  5
46F
330
469
100
AcDbEntity
  8
LC-002-003-----0
 62
     2
100
AcDbTrace
 10
-39.705417
 20
171.535697
 30
0.0
 11
-49.03875
 21
171.535697
 31
0.0
 12
-44.372084
 22
199.535697
 32
0.0
 13
-44.372084
 23
199.535697
 33
0.0
  0
MTEXT
  5
470
330
469
100
AcDbEntity
  8
LC-002-003-----0
 62
     2
100
AcDbMText
 10
-75.172084
 20
297.515695
 30
0.0
 40
28.0
 41
0.0
 71
     5
 72
     1
  1
\A1;35-75
  7
LCTX15-400-0-0pDIN-Schrift
 11
6.123031769111886E-17
 21
1.0
 31
0.0
 73
     1
 44
1.0
  0
POINT
  5
471
330
469
100
AcDbEntity
  8
Defpoints
 62
     0
100
AcDbPoint
 10
6.990391
 20
234.535696
 30
0.0
  0
POINT
  5
472
330
469
100
AcDbEntity
  8
Defpoints
 62
     0
100
AcDbPoint
 10
-12.009618
 20
199.535697
 30
0.0
  0
POINT
  5
473
330
469
100
AcDbEntity
  8
Defpoints
 62
     0
100
AcDbPoint
 10
-44.372084
 20
199.535697
 30
0.0
  0
ENDBLK
  5
475
330
469
100
AcDbEntity
  8
0
100
AcDbBlockEnd
  0
BLOCK
  5
481
330
477
100
AcDbEntity
  8
0
100
AcDbBlockBegin
  2
*D30
 70
     1
 71
     0
 10
0.0
 20
0.0
 30
0.0
  3
*D30
  1

  0
LINE
  5
478
330
477
100
AcDbEntity
  8
LC-002-003-----0
 62
     2
370
    -2
100
AcDbLine
 10
-12.009618
 20
199.535697
 30
0.0
 11
6.082595
 21
199.535697
 31
0.0
  0
LINE
  5
479
330
477
100
AcDbEntity
  8
LC-002-003-----0
 62
     2
370
    -2
100
AcDbLine
 10
85.990387
 20
103.535692
 30
0.0
 11
-1.117405
 21
103.535692
 31
0.0
  0
LINE
  5
47A
330
477
100
AcDbEntity
  8
LC-002-003-----0
 62
     2
370
    -2
100
AcDbLine
 10
2.482595
 20
171.535697
 30
0.0
 11
2.482595
 21
131.535692
 31
0.0
  0
SOLID
  5
47B
330
477
100
AcDbEntity
  8
LC-002-003-----0
 62
     2
100
AcDbTrace
 10
7.149261
 20
171.535697
 30
0.0
 11
-2.184072
 21
171.535697
 31
0.0
 12
2.482595
 22
199.535697
 32
0.0
 13
2.482595
 23
199.535697
 33
0.0
  0
SOLID
  5
47C
330
477
100
AcDbEntity
  8
LC-002-003-----0
 62
     2
100
AcDbTrace
 10
-2.184072
 20
131.535692
 30
0.0
 11
7.149261
 21
131.535692
 31
0.0
 12
2.482595
 22
103.535692
 32
0.0
 13
2.482595
 23
103.535692
 33
0.0
  0
MTEXT
  5
47D
330
477
100
AcDbEntity
  8
LC-002-003-----0
 62
     2
100
AcDbMText
 10
-28.317405
 20
149.015695
 30
0.0
 40
28.0
 41
0.0
 71
     5
 72
     1
  1
\A1;96
  7
LCTX15-400-0-0pDIN-Schrift
 11
6.123031769111886E-17
 21
1.0
 31
0.0
 73
     1
 44
1.0
  0
POINT
  5
47E
330
477
100
AcDbEntity
  8
Defpoints
 62
     0
100
AcDbPoint
 10
-12.009618
 20
199.535697
 30
0.0
  0
POINT
  5
47F
330
477
100
AcDbEntity
  8
Defpoints
 62
     0
100
AcDbPoint
 10
85.990387
 20
103.535692
 30
0.0
  0
POINT
  5
480
330
477
100
AcDbEntity
  8
Defpoints
 62
     0
100
AcDbPoint
 10
2.482595
 20
103.535692
 30
0.0
  0
ENDBLK
  5
482
330
477
100
AcDbEntity
  8
0
100
AcDbBlockEnd
  0
BLOCK
  5
48E
330
484
100
AcDbEntity
  8
0
100
AcDbBlockBegin
  2
*D31
 70
     1
 71
     0
 10
0.0
 20
0.0
 30
0.0
  3
*D31
  1

  0
LINE
  5
485
330
484
100
AcDbEntity
  8
LC-002-003-----0
 62
     2
370
    -2
100
AcDbLine
 10
-12.009618
 20
199.535697
 30
0.0
 11
-73.529181
 21
199.535697
 31
0.0
  0
LINE
  5
486
330
484
100
AcDbEntity
  8
LC-002-003-----0
 62
     2
370
    -2
100
AcDbLine
 10
115.490383
 20
39.535697
 30
0.0
 11
-73.529181
 21
39.535697
 31
0.0
  0
LINE
  5
487
330
484
100
AcDbEntity
  8
LC-002-003-----0
 62
     2
370
    -2
100
AcDbLine
 10
-69.929181
 20
171.535697
 30
0.0
 11
-69.929181
 21
67.535697
 31
0.0
  0
SOLID
  5
488
330
484
100
AcDbEntity
  8
LC-002-003-----0
 62
     2
100
AcDbTrace
 10
-65.262514
 20
171.535697
 30
0.0
 11
-74.595847
 21
171.535697
 31
0.0
 12
-69.929181
 22
199.535697
 32
0.0
 13
-69.929181
 23
199.535697
 33
0.0
  0
SOLID
  5
489
330
484
100
AcDbEntity
  8
LC-002-003-----0
 62
     2
100
AcDbTrace
 10
-74.595847
 20
67.535697
 30
0.0
 11
-65.262514
 21
67.535697
 31
0.0
 12
-69.929181
 22
39.535697
 32
0.0
 13
-69.929181
 23
39.535697
 33
0.0
  0
MTEXT
  5
48A
330
484
100
AcDbEntity
  8
LC-002-003-----0
 62
     2
100
AcDbMText
 10
-100.729181
 20
120.503695
 30
0.0
 40
28.0
 41
0.0
 71
     5
 72
     1
  1
\A1;160
  7
LCTX15-400-0-0pDIN-Schrift
 11
6.123031769111886E-17
 21
1.0
 31
0.0
 73
     1
 44
1.0
  0
POINT
  5
48B
330
484
100
AcDbEntity
  8
Defpoints
 62
     0
100
AcDbPoint
 10
-12.009618
 20
199.535697
 30
0.0
  0
POINT
  5
48C
330
484
100
AcDbEntity
  8
Defpoints
 62
     0
100
AcDbPoint
 10
115.490383
 20
39.535697
 30
0.0
  0
POINT
  5
48D
330
484
100
AcDbEntity
  8
Defpoints
 62
     0
100
AcDbPoint
 10
-69.929181
 20
39.535697
 30
0.0
  0
ENDBLK
  5
48F
330
484
100
AcDbEntity
  8
0
100
AcDbBlockEnd
  0
BLOCK
  5
49B
330
491
100
AcDbEntity
  8
0
100
AcDbBlockBegin
  2
*D32
 70
     1
 71
     0
 10
0.0
 20
0.0
 30
0.0
  3
*D32
  1

  0
LINE
  5
492
330
491
100
AcDbEntity
  8
LC-002-003-----0
 62
     2
370
    -2
100
AcDbLine
 10
112.890384
 20
45.058753
 30
0.0
 11
112.890384
 21
-3.084305
 31
0.0
  0
LINE
  5
493
330
491
100
AcDbEntity
  8
LC-002-003-----0
 62
     2
370
    -2
100
AcDbLine
 10
203.090383
 20
43.035696
 30
0.0
 11
203.090383
 21
-3.084305
 31
0.0
  0
LINE
  5
494
330
491
100
AcDbEntity
  8
LC-002-003-----0
 62
     2
370
    -2
100
AcDbLine
 10
140.890384
 20
0.515695
 30
0.0
 11
175.090383
 21
0.515695
 31
0.0
  0
SOLID
  5
495
330
491
100
AcDbEntity
  8
LC-002-003-----0
 62
     2
100
AcDbTrace
 10
140.890384
 20
5.182361
 30
0.0
 11
140.890384
 21
-4.150972
 31
0.0
 12
112.890384
 22
0.515695
 32
0.0
 13
112.890384
 23
0.515695
 33
0.0
  0
SOLID
  5
496
330
491
100
AcDbEntity
  8
LC-002-003-----0
 62
     2
100
AcDbTrace
 10
175.090383
 20
-4.150972
 30
0.0
 11
175.090383
 21
5.182361
 31
0.0
 12
203.090383
 22
0.515695
 32
0.0
 13
203.090383
 23
0.515695
 33
0.0
  0
MTEXT
  5
497
330
491
100
AcDbEntity
  8
LC-002-003-----0
 62
     2
100
AcDbMText
 10
157.954937
 20
31.315695
 30
0.0
 40
28.0
 41
0.0
 71
     5
 72
     1
  1
\A1;DN90
  7
LCTX15-400-0-0pDIN-Schrift
 73
     1
 44
1.0
  0
POINT
  5
498
330
491
100
AcDbEntity
  8
Defpoints
 62
     0
100
AcDbPoint
 10
112.890384
 20
45.058753
 30
0.0
  0
POINT
  5
499
330
491
100
AcDbEntity
  8
Defpoints
 62
     0
100
AcDbPoint
 10
203.090383
 20
43.035696
 30
0.0
  0
POINT
  5
49A
330
491
100
AcDbEntity
  8
Defpoints
 62
     0
100
AcDbPoint
 10
203.090383
 20
0.515695
 30
0.0
  0
ENDBLK
  5
49C
330
491
100
AcDbEntity
  8
0
100
AcDbBlockEnd
  0
ENDSEC
  0
SECTION
  2
ENTITIES
  0
LINE
  5
31
330
1F
100
AcDbEntity
  8
LC-001-100-D00-0
 62
     7
370
    50
100
AcDbLine
 10
80.817091
 20
249.035696
 30
0.0
 11
80.817091
 21
243.035696
 31
0.0
  0
LINE
  5
32
330
1F
100
AcDbEntity
  8
LC-001-100-D00-0
 62
     7
370
    50
100
AcDbLine
 10
235.163676
 20
243.035696
 30
0.0
 11
235.163676
 21
249.035696
 31
0.0
  0
LINE
  5
33
330
1F
100
AcDbEntity
  8
LC-001-100-D00-0
 62
     7
370
    50
100
AcDbLine
 10
99.257293
 20
243.035696
 30
0.0
 11
99.257293
 21
249.035696
 31
0.0
  0
LINE
  5
34
330
1F
100
AcDbEntity
  8
LC-001-100-D00-0
 62
     7
370
    50
100
AcDbLine
 10
216.723474
 20
249.035696
 30
0.0
 11
216.723474
 21
243.035696
 31
0.0
  0
LINE
  5
35
330
1F
100
AcDbEntity
  8
LC-001-100-D00-0
 62
     7
370
    50
100
AcDbLine
 10
164.240384
 20
243.035696
 30
0.0
 11
163.740384
 21
243.535696
 31
0.0
  0
LINE
  5
36
330
1F
100
AcDbEntity
  8
LC-001-100-D00-0
 62
     7
370
    50
100
AcDbLine
 10
152.240384
 20
243.535696
 30
0.0
 11
151.740384
 21
243.035696
 31
0.0
  0
LINE
  5
37
330
1F
100
AcDbEntity
  8
LC-001-100-D00-0
 62
     7
370
    50
100
AcDbLine
 10
151.740384
 20
238.035696
 30
0.0
 11
152.240384
 21
237.535696
 31
0.0
  0
LINE
  5
38
330
1F
100
AcDbEntity
  8
LC-001-100-D00-0
 62
     7
370
    50
100
AcDbLine
 10
163.740384
 20
237.535696
 30
0.0
 11
164.240384
 21
238.035696
 31
0.0
  0
LINE
  5
39
330
1F
100
AcDbEntity
  8
LC-001-100-D00-0
 62
     7
370
    50
100
AcDbLine
 10
163.740384
 20
243.535696
 30
0.0
 11
163.740384
 21
281.035694
 31
0.0
  0
LINE
  5
3A
330
1F
100
AcDbEntity
  8
LC-001-100-D00-0
 62
     7
370
    50
100
AcDbLine
 10
152.240384
 20
281.035694
 30
0.0
 11
152.240384
 21
243.535696
 31
0.0
  0
LINE
  5
3B
330
1F
100
AcDbEntity
  8
LC-001-100-D00-0
 62
     7
370
    50
100
AcDbLine
 10
152.240384
 20
237.535696
 30
0.0
 11
152.240384
 21
214.535696
 31
0.0
  0
LINE
  5
3C
330
1F
100
AcDbEntity
  8
LC-001-100-D00-0
 62
     7
370
    50
100
AcDbLine
 10
163.740384
 20
214.535696
 30
0.0
 11
163.740384
 21
237.535696
 31
0.0
  0
LINE
  5
3D
330
1F
100
AcDbEntity
  8
LC-001-100-D00-0
 62
     7
370
    50
100
AcDbLine
 10
98.490382
 20
249.035696
 30
0.0
 11
98.490382
 21
287.535696
 31
0.0
  0
LINE
  5
3E
330
1F
100
AcDbEntity
  8
LC-001-100-D00-0
 62
     7
370
    50
100
AcDbLine
 10
92.490385
 20
287.535696
 30
0.0
 11
92.490385
 21
249.035696
 31
0.0
  0
LINE
  5
3F
330
1F
100
AcDbEntity
  8
LC-001-100-D00-0
 62
     7
370
    50
100
AcDbLine
 10
223.490382
 20
249.035696
 30
0.0
 11
223.490382
 21
287.535696
 31
0.0
  0
LINE
  5
40
330
1F
100
AcDbEntity
  8
LC-001-100-D00-0
 62
     7
370
    50
100
AcDbLine
 10
217.490385
 20
287.535696
 30
0.0
 11
217.490385
 21
249.035696
 31
0.0
  0
LINE
  5
41
330
1F
100
AcDbEntity
  8
LC-001-100-D00-0
 62
     7
370
    50
100
AcDbLine
 10
236.601892
 20
297.635696
 30
0.0
 11
236.601892
 21
297.535694
 31
0.0
  0
LINE
  5
42
330
1F
100
AcDbEntity
  8
LC-001-100-D00-0
 62
     7
370
    50
100
AcDbLine
 10
151.990384
 20
287.535696
 30
0.0
 11
151.990384
 21
281.035694
 31
0.0
  0
LINE
  5
43
330
1F
100
AcDbEntity
  8
LC-001-100-D00-0
 62
     7
370
    50
100
AcDbLine
 10
163.990384
 20
281.035694
 30
0.0
 11
163.990384
 21
287.535696
 31
0.0
  0
LINE
  5
44
330
1F
100
AcDbEntity
  8
LC-001-100-D00-0
 62
     7
370
    50
100
AcDbLine
 10
166.990383
 20
208.935696
 30
0.0
 11
166.990383
 21
210.535697
 31
0.0
  0
LINE
  5
45
330
1F
100
AcDbEntity
  8
LC-001-100-D00-0
 62
     7
370
    50
100
AcDbLine
 10
148.990384
 20
210.535697
 30
0.0
 11
148.990384
 21
208.935696
 31
0.0
  0
LINE
  5
46
330
1F
100
AcDbEntity
  8
LC-001-100-D00-0
 62
     7
370
    50
100
AcDbLine
 10
163.240384
 20
206.135697
 30
0.0
 11
163.240384
 21
208.935696
 31
0.0
  0
LINE
  5
47
330
1F
100
AcDbEntity
  8
LC-001-100-D00-0
 62
     7
370
    50
100
AcDbLine
 10
152.740384
 20
208.935696
 30
0.0
 11
152.740384
 21
206.135697
 31
0.0
  0
ARC
  5
48
330
1F
100
AcDbEntity
  8
LC-001-100-D00-0
 62
     7
370
    50
100
AcDbCircle
 10
163.040384
 20
206.135696
 30
0.0
 40
0.2000000000001023
100
AcDbArc
 50
270.0
 51
0.0
  0
ARC
  5
49
330
1F
100
AcDbEntity
  8
LC-001-100-D00-0
 62
     7
370
    50
100
AcDbCircle
 10
152.940384
 20
206.135696
 30
0.0
 40
0.2000000000001023
100
AcDbArc
 50
180.0
 51
270.0
  0
ARC
  5
4A
330
1F
100
AcDbEntity
  8
LC-001-100-D00-0
 62
     7
370
    50
100
AcDbCircle
 10
157.990384
 20
211.060696
 30
0.0
 40
6.820236432851955
100
AcDbArc
 50
300.242262
 51
311.284711
  0
ARC
  5
4B
330
1F
100
AcDbEntity
  8
LC-001-100-D00-0
 62
     7
370
    50
100
AcDbCircle
 10
157.990384
 20
211.060696
 30
0.0
 40
6.820236432851929
100
AcDbArc
 50
228.715289
 51
239.757738
  0
LINE
  5
4C
330
1F
100
AcDbEntity
  8
LC-001-100-D00-0
 62
     7
370
    50
100
AcDbLine
 10
152.740384
 20
298.935696
 30
0.0
 11
152.740384
 21
297.535694
 31
0.0
  0
LINE
  5
4D
330
1F
100
AcDbEntity
  8
LC-001-100-D00-0
 62
     7
370
    50
100
AcDbLine
 10
163.240384
 20
297.535694
 30
0.0
 11
163.240384
 21
298.935696
 31
0.0
  0
ARC
  5
4E
330
1F
100
AcDbEntity
  8
LC-001-100-D00-0
 62
     7
370
    50
100
AcDbCircle
 10
152.940384
 20
298.935696
 30
0.0
 40
0.2000000000000455
100
AcDbArc
 50
90.0
 51
180.0
  0
ARC
  5
4F
330
1F
100
AcDbEntity
  8
LC-001-100-D00-0
 62
     7
370
    50
100
AcDbCircle
 10
163.040384
 20
298.935696
 30
0.0
 40
0.2000000000000455
100
AcDbArc
 50
0.0
 51
90.0
  0
ARC
  5
50
330
1F
100
AcDbEntity
  8
LC-001-100-D00-0
 62
     7
370
    50
100
AcDbCircle
 10
157.990384
 20
294.010696
 30
0.0
 40
6.820236432851978
100
AcDbArc
 50
116.493736
 51
131.284711
  0
ARC
  5
51
330
1F
100
AcDbEntity
  8
LC-001-100-D00-0
 62
     7
370
    50
100
AcDbCircle
 10
157.990384
 20
294.010696
 30
0.0
 40
6.820236432851929
100
AcDbArc
 50
48.715289
 51
63.506264
  0
ARC
  5
52
330
1F
100
AcDbEntity
  8
LC-001-100-D00-0
 62
     7
370
    50
100
AcDbCircle
 10
160.943671
 20
299.935696
 30
0.0
 40
0.2000000000001042
100
AcDbArc
 50
63.506264
 51
90.0
  0
ARC
  5
53
330
1F
100
AcDbEntity
  8
LC-001-100-D00-0
 62
     7
370
    50
100
AcDbCircle
 10
155.037097
 20
299.935696
 30
0.0
 40
0.2000000000000455
100
AcDbArc
 50
90.0
 51
116.493736
  0
LINE
  5
54
330
1F
100
AcDbEntity
  8
LC-001-100-D00-0
 62
     7
370
    50
100
AcDbLine
 10
77.990386
 20
113.535698
 30
0.0
 11
77.990386
 21
111.535694
 31
0.0
  0
LINE
  5
55
330
1F
100
AcDbEntity
  8
LC-001-100-D00-0
 62
     7
370
    50
100
AcDbLine
 10
237.990382
 20
111.535694
 30
0.0
 11
237.990382
 21
113.535698
 31
0.0
  0
ARC
  5
56
330
1F
100
AcDbEntity
  8
LC-001-100-D00-0
 62
     7
370
    50
100
AcDbCircle
 10
85.990384
 20
111.535696
 30
0.0
 40
8.000000000000057
100
AcDbArc
 50
180.0
 51
270.0
  0
ARC
  5
57
330
1F
100
AcDbEntity
  8
LC-001-100-D00-0
 62
     7
370
    50
100
AcDbCircle
 10
229.990384
 20
111.535696
 30
0.0
 40
8.000000000000057
100
AcDbArc
 50
270.0
 51
0.0
  0
LINE
  5
58
330
1F
100
AcDbEntity
  8
LC-001-100-D00-0
 62
     7
370
    50
100
AcDbLine
 10
80.490383
 20
122.535694
 30
0.0
 11
80.490383
 21
113.535698
 31
0.0
  0
LINE
  5
59
330
1F
100
AcDbEntity
  8
LC-001-100-D00-0
 62
     7
370
    50
100
AcDbLine
 10
235.490384
 20
113.535698
 30
0.0
 11
235.490384
 21
122.535694
 31
0.0
  0
LINE
  5
5A
330
1F
100
AcDbEntity
  8
LC-001-100-D00-0
 62
     7
370
    50
100
AcDbLine
 10
82.690383
 20
121.035698
 30
0.0
 11
82.690383
 21
122.535694
 31
0.0
  0
LINE
  5
5B
330
1F
100
AcDbEntity
  8
LC-001-100-D00-0
 62
     7
370
    50
100
AcDbLine
 10
233.290384
 20
122.535694
 30
0.0
 11
233.290384
 21
121.035698
 31
0.0
  0
LINE
  5
5C
330
1F
100
AcDbEntity
  8
LC-001-100-D00-0
 62
     7
370
    50
100
AcDbLine
 10
233.290384
 20
122.535694
 30
0.0
 11
224.490384
 21
122.535694
 31
0.0
  0
LINE
  5
5D
330
1F
100
AcDbEntity
  8
LC-001-100-D00-0
 62
     7
370
    50
100
AcDbLine
 10
91.490383
 20
122.535694
 30
0.0
 11
82.690383
 21
122.535694
 31
0.0
  0
LINE
  5
5E
330
1F
100
AcDbEntity
  8
LC-001-100-D00-0
 62
     7
370
    50
100
AcDbLine
 10
82.990381
 20
108.535702
 30
0.0
 11
82.990381
 21
121.035698
 31
0.0
  0
LINE
  5
5F
330
1F
100
AcDbEntity
  8
LC-001-100-D00-0
 62
     7
370
    50
100
AcDbLine
 10
232.990387
 20
121.035698
 30
0.0
 11
232.990387
 21
108.535702
 31
0.0
  0
LINE
  5
60
330
1F
100
AcDbEntity
  8
LC-001-100-D00-0
 62
     7
370
    50
100
AcDbLine
 10
232.990387
 20
121.035698
 30
0.0
 11
224.490384
 21
121.035698
 31
0.0
  0
LINE
  5
61
330
1F
100
AcDbEntity
  8
LC-001-100-D00-0
 62
     7
370
    50
100
AcDbLine
 10
91.490383
 20
121.035698
 30
0.0
 11
82.990381
 21
121.035698
 31
0.0
  0
ARC
  5
62
330
1F
100
AcDbEntity
  8
LC-001-100-D00-0
 62
     7
370
    50
100
AcDbCircle
 10
85.490384
 20
108.535696
 30
0.0
 40
2.500000000000057
100
AcDbArc
 50
180.0
 51
270.0
  0
ARC
  5
63
330
1F
100
AcDbEntity
  8
LC-001-100-D00-0
 62
     7
370
    50
100
AcDbCircle
 10
230.490384
 20
108.535696
 30
0.0
 40
2.500000000000057
100
AcDbArc
 50
270.0
 51
0.0
  0
LINE
  5
64
330
1F
100
AcDbEntity
  8
LC-001-100-D00-0
 62
     7
370
    50
100
AcDbLine
 10
112.990382
 20
103.535692
 30
0.0
 11
112.990382
 21
106.03569
 31
0.0
  0
LINE
  5
65
330
1F
100
AcDbEntity
  8
LC-001-100-D00-0
 62
     7
370
    50
100
AcDbLine
 10
202.990386
 20
106.03569
 30
0.0
 11
202.990386
 21
103.535692
 31
0.0
  0
LINE
  5
66
330
1F
100
AcDbEntity
  8
LC-001-100-D00-0
 62
     7
370
    50
100
AcDbLine
 10
202.990386
 20
103.535692
 30
0.0
 11
229.990381
 21
103.535692
 31
0.0
  0
LINE
  5
67
330
1F
100
AcDbEntity
  8
LC-001-100-D00-0
 62
     7
370
    50
100
AcDbLine
 10
230.490382
 20
106.03569
 30
0.0
 11
202.990386
 21
106.03569
 31
0.0
  0
LINE
  5
68
330
1F
100
AcDbEntity
  8
LC-001-100-D00-0
 62
     7
370
    50
100
AcDbLine
 10
233.290384
 20
121.035698
 30
0.0
 11
232.990387
 21
121.035698
 31
0.0
  0
LINE
  5
69
330
1F
100
AcDbEntity
  8
LC-001-100-D00-0
 62
     7
370
    50
100
AcDbLine
 10
235.490384
 20
122.535694
 30
0.0
 11
233.290384
 21
122.535694
 31
0.0
  0
LINE
  5
6A
330
1F
100
AcDbEntity
  8
LC-001-100-D00-0
 62
     7
370
    50
100
AcDbLine
 10
237.990382
 20
113.535698
 30
0.0
 11
235.490384
 21
113.535698
 31
0.0
  0
LINE
  5
6B
330
1F
100
AcDbEntity
  8
LC-001-100-D00-0
 62
     7
370
    50
100
AcDbLine
 10
85.990387
 20
103.535692
 30
0.0
 11
112.990382
 21
103.535692
 31
0.0
  0
LINE
  5
6C
330
1F
100
AcDbEntity
  8
LC-001-100-D00-0
 62
     7
370
    50
100
AcDbLine
 10
112.990382
 20
106.03569
 30
0.0
 11
85.490386
 21
106.03569
 31
0.0
  0
LINE
  5
6D
330
1F
100
AcDbEntity
  8
LC-001-100-D00-0
 62
     7
370
    50
100
AcDbLine
 10
82.990381
 20
121.035698
 30
0.0
 11
82.690383
 21
121.035698
 31
0.0
  0
LINE
  5
6E
330
1F
100
AcDbEntity
  8
LC-001-100-D00-0
 62
     7
370
    50
100
AcDbLine
 10
82.690383
 20
122.535694
 30
0.0
 11
80.490383
 21
122.535694
 31
0.0
  0
LINE
  5
6F
330
1F
100
AcDbEntity
  8
LC-001-100-D00-0
 62
     7
370
    50
100
AcDbLine
 10
80.490383
 20
113.535698
 30
0.0
 11
77.990386
 21
113.535698
 31
0.0
  0
LINE
  5
70
330
1F
100
AcDbEntity
  8
LC-001-100-D00-0
 62
     7
370
    50
100
AcDbLine
 10
106.068461
 20
101.035695
 30
0.0
 11
106.068461
 21
103.535692
 31
0.0
  0
LINE
  5
71
330
1F
100
AcDbEntity
  8
LC-001-100-D00-0
 62
     7
370
    50
100
AcDbLine
 10
112.890384
 20
101.035695
 30
0.0
 11
106.068461
 21
101.035695
 31
0.0
  0
LINE
  5
72
330
1F
100
AcDbEntity
  8
LC-001-100-D00-0
 62
     7
370
    50
100
AcDbLine
 10
76.117213
 20
186.139531
 30
0.0
 11
81.862318
 21
185.535695
 31
0.0
  0
LINE
  5
73
330
1F
100
AcDbEntity
  8
LC-001-100-D00-0
 62
     7
370
    50
100
AcDbLine
 10
234.118449
 20
185.535695
 30
0.0
 11
239.863555
 21
186.139531
 31
0.0
  0
LINE
  5
74
330
1F
100
AcDbEntity
  8
LC-001-100-D00-0
 62
     7
370
    25
100
AcDbLine
 10
81.990386
 20
196.035697
 30
0.0
 11
81.990386
 21
187.535695
 31
0.0
  0
LINE
  5
75
330
1F
100
AcDbEntity
  8
LC-001-100-D00-0
 62
     7
370
    50
100
AcDbLine
 10
87.990383
 20
196.035697
 30
0.0
 11
81.990386
 21
196.035697
 31
0.0
  0
LINE
  5
76
330
1F
100
AcDbEntity
  8
LC-001-100-D00-0
 62
     7
370
    50
100
AcDbLine
 10
87.990383
 20
185.535695
 30
0.0
 11
87.990383
 21
196.035697
 31
0.0
  0
LINE
  5
77
330
1F
100
AcDbEntity
  8
LC-001-100-D00-0
 62
     7
370
    50
100
AcDbLine
 10
81.862318
 20
185.535695
 30
0.0
 11
87.990383
 21
185.535695
 31
0.0
  0
ARC
  5
78
330
1F
100
AcDbEntity
  8
LC-001-100-D00-0
 62
     7
370
    50
100
AcDbCircle
 10
76.190384
 20
186.835696
 30
0.0
 40
0.6999999999999886
100
AcDbArc
 50
90.0
 51
264.0
  0
LINE
  5
79
330
1F
100
AcDbEntity
  8
LC-001-100-D00-0
 62
     7
370
    50
100
AcDbLine
 10
81.990386
 20
187.535695
 30
0.0
 11
76.190385
 21
187.535695
 31
0.0
  0
ARC
  5
7A
330
1F
100
AcDbEntity
  8
LC-001-100-D00-0
 62
     7
370
    50
100
AcDbCircle
 10
239.790384
 20
186.835696
 30
0.0
 40
0.7000000000000045
100
AcDbArc
 50
276.0
 51
90.0
  0
LINE
  5
7B
330
1F
100
AcDbEntity
  8
LC-001-100-D00-0
 62
     7
370
    50
100
AcDbLine
 10
227.990384
 20
196.035697
 30
0.0
 11
227.990384
 21
185.535695
 31
0.0
  0
LINE
  5
7C
330
1F
100
AcDbEntity
  8
LC-001-100-D00-0
 62
     7
370
    50
100
AcDbLine
 10
233.990381
 20
196.035697
 30
0.0
 11
227.990384
 21
196.035697
 31
0.0
  0
LINE
  5
7D
330
1F
100
AcDbEntity
  8
LC-001-100-D00-0
 62
     7
370
    50
100
AcDbLine
 10
233.990381
 20
187.535695
 30
0.0
 11
233.990381
 21
196.035697
 31
0.0
  0
LINE
  5
7E
330
1F
100
AcDbEntity
  8
LC-001-100-D00-0
 62
     7
370
    50
100
AcDbLine
 10
239.790383
 20
187.535695
 30
0.0
 11
233.990381
 21
187.535695
 31
0.0
  0
LINE
  5
7F
330
1F
100
AcDbEntity
  8
LC-001-100-D00-0
 62
     7
370
    50
100
AcDbLine
 10
227.990384
 20
185.535695
 30
0.0
 11
234.118449
 21
185.535695
 31
0.0
  0
LINE
  5
80
330
1F
100
AcDbEntity
  8
LC-001-100-D00-0
 62
     7
370
    50
100
AcDbLine
 10
89.740383
 20
208.035695
 30
0.0
 11
89.740383
 21
210.035696
 31
0.0
  0
INSERT
  5
92
330
1F
100
AcDbEntity
  8
LC-001-100-D00-0
 62
     7
370
    50
100
AcDbBlockReference
  2
POLY1
 10
0.0
 20
0.0
 30
0.0
  0
LINE
  5
93
330
1F
100
AcDbEntity
  8
LC-001-100-D00-0
 62
     7
370
    50
100
AcDbLine
 10
89.743229
 20
207.785695
 30
0.0
 11
89.743229
 21
203.285697
 31
0.0
  0
INSERT
  5
A5
330
1F
100
AcDbEntity
  8
LC-001-100-D00-0
 62
     7
370
    50
100
AcDbBlockReference
  2
POLY2
 10
0.0
 20
0.0
 30
0.0
  0
LINE
  5
A6
330
1F
100
AcDbEntity
  8
LC-001-100-D00-0
 62
     7
370
    50
100
AcDbLine
 10
89.740383
 20
201.035696
 30
0.0
 11
89.740383
 21
203.035697
 31
0.0
  0
LINE
  5
A7
330
1F
100
AcDbEntity
  8
LC-001-100-D00-0
 62
     7
370
    50
100
AcDbLine
 10
226.240384
 20
210.035696
 30
0.0
 11
226.240384
 21
201.035696
 31
0.0
  0
LINE
  5
A8
330
1F
100
AcDbEntity
  8
LC-001-100-D00-0
 62
     7
370
    50
100
AcDbLine
 10
90.740385
 20
203.035697
 30
0.0
 11
90.740385
 21
201.035696
 31
0.0
  0
LINE
  5
A9
330
1F
100
AcDbEntity
  8
LC-001-100-D00-0
 62
     7
370
    50
100
AcDbLine
 10
90.741406
 20
203.035697
 30
0.0
 11
90.740385
 21
203.035697
 31
0.0
  0
LINE
  5
AA
330
1F
100
AcDbEntity
  8
LC-001-100-D00-0
 62
     7
370
    50
100
AcDbLine
 10
90.740385
 20
208.035695
 30
0.0
 11
90.741406
 21
208.035695
 31
0.0
  0
LINE
  5
AB
330
1F
100
AcDbEntity
  8
LC-001-100-D00-0
 62
     7
370
    50
100
AcDbLine
 10
90.740385
 20
210.035696
 30
0.0
 11
90.740385
 21
208.035695
 31
0.0
  0
LINE
  5
AC
330
1F
100
AcDbEntity
  8
LC-001-100-D00-0
 62
     7
370
    50
100
AcDbLine
 10
225.240382
 20
201.035696
 30
0.0
 11
225.240382
 21
210.035696
 31
0.0
  0
LINE
  5
AD
330
1F
100
AcDbEntity
  8
LC-001-100-D00-0
 62
     7
370
    50
100
AcDbLine
 10
90.740385
 20
208.035695
 30
0.0
 11
89.740383
 21
208.035695
 31
0.0
  0
LINE
  5
AE
330
1F
100
AcDbEntity
  8
LC-001-100-D00-0
 62
     7
370
    50
100
AcDbLine
 10
89.740383
 20
210.035696
 30
0.0
 11
90.740385
 21
210.035696
 31
0.0
  0
LINE
  5
AF
330
1F
100
AcDbEntity
  8
LC-001-100-D00-0
 62
     7
370
    50
100
AcDbLine
 10
89.740383
 20
203.035697
 30
0.0
 11
90.740385
 21
203.035697
 31
0.0
  0
LINE
  5
B0
330
1F
100
AcDbEntity
  8
LC-001-100-D00-0
 62
     7
370
    50
100
AcDbLine
 10
90.740385
 20
201.035696
 30
0.0
 11
89.740383
 21
201.035696
 31
0.0
  0
LINE
  5
B1
330
1F
100
AcDbEntity
  8
LC-001-100-D00-0
 62
     7
370
    50
100
AcDbLine
 10
226.240384
 20
201.035696
 30
0.0
 11
225.240382
 21
201.035696
 31
0.0
  0
LINE
  5
B2
330
1F
100
AcDbEntity
  8
LC-001-100-D00-0
 62
     7
370
    50
100
AcDbLine
 10
225.240382
 20
210.035696
 30
0.0
 11
226.240384
 21
210.035696
 31
0.0
  0
LINE
  5
B3
330
1F
100
AcDbEntity
  8
LC-001-100-D00-0
 62
     7
370
    50
100
AcDbLine
 10
308.990377
 20
234.535696
 30
0.0
 11
297.990384
 21
228.423302
 31
0.0
  0
LINE
  5
B4
330
1F
100
AcDbEntity
  8
LC-001-100-D00-0
 62
     7
370
    50
100
AcDbLine
 10
310.990381
 20
234.535696
 30
0.0
 11
308.990377
 21
234.535696
 31
0.0
  0
ARC
  5
B5
330
1F
100
AcDbEntity
  8
LC-001-100-D00-0
 62
     7
370
    50
100
AcDbCircle
 10
310.990384
 20
232.535696
 30
0.0
 40
2.0
100
AcDbArc
 50
0.0
 51
90.0
  0
LINE
  5
B6
330
1F
100
AcDbEntity
  8
LC-001-100-D00-0
 62
     7
370
    50
100
AcDbLine
 10
312.990385
 20
231.035696
 30
0.0
 11
312.990385
 21
232.535696
 31
0.0
  0
LINE
  5
B7
330
1F
100
AcDbEntity
  8
LC-001-100-D00-0
 62
     7
370
    50
100
AcDbLine
 10
309.890198
 20
231.035696
 30
0.0
 11
312.990385
 21
231.035696
 31
0.0
  0
LINE
  5
B8
330
1F
100
AcDbEntity
  8
LC-001-100-D00-0
 62
     7
370
    50
100
AcDbLine
 10
299.192983
 20
225.091557
 30
0.0
 11
309.890198
 21
231.035696
 31
0.0
  0
LINE
  5
B9
330
1F
100
AcDbEntity
  8
LC-001-100-D00-0
 62
     7
370
    50
100
AcDbLine
 10
282.229523
 20
221.794193
 30
0.0
 11
299.192983
 21
225.091557
 31
0.0
  0
LINE
  5
BA
330
1F
100
AcDbEntity
  8
LC-001-100-D00-0
 62
     7
370
    50
100
AcDbLine
 10
281.490381
 20
219.035695
 30
0.0
 11
282.229523
 21
221.794193
 31
0.0
  0
LINE
  5
BB
330
1F
100
AcDbEntity
  8
LC-001-100-D00-0
 62
     7
370
    50
100
AcDbLine
 10
226.940128
 20
219.035695
 30
0.0
 11
281.490381
 21
219.035695
 31
0.0
  0
LINE
  5
BC
330
1F
100
AcDbEntity
  8
LC-001-100-D00-0
 62
     7
370
    50
100
AcDbLine
 10
222.49038
 20
214.585948
 30
0.0
 11
226.940128
 21
219.035695
 31
0.0
  0
LINE
  5
BD
330
1F
100
AcDbEntity
  8
LC-001-100-D00-0
 62
     7
370
    50
100
AcDbLine
 10
222.49038
 20
154.535699
 30
0.0
 11
222.49038
 21
214.585948
 31
0.0
  0
LINE
  5
BE
330
1F
100
AcDbEntity
  8
LC-001-100-D00-0
 62
     7
370
    50
100
AcDbLine
 10
222.49038
 20
154.535699
 30
0.0
 11
220.490384
 21
152.535695
 31
0.0
  0
LINE
  5
BF
330
1F
100
AcDbEntity
  8
LC-001-100-D00-0
 62
     7
370
    50
100
AcDbLine
 10
217.490385
 20
152.535695
 30
0.0
 11
220.490384
 21
152.535695
 31
0.0
  0
LINE
  5
C0
330
1F
100
AcDbEntity
  8
LC-001-100-D00-0
 62
     7
370
    50
100
AcDbLine
 10
217.490385
 20
213.707269
 30
0.0
 11
217.490385
 21
152.535695
 31
0.0
  0
ARC
  5
C1
330
1F
100
AcDbEntity
  8
LC-001-100-D00-0
 62
     7
370
    50
100
AcDbCircle
 10
219.490384
 20
213.707269
 30
0.0
 40
2.000000000000016
100
AcDbArc
 50
135.0
 51
180.0
  0
LINE
  5
C2
330
1F
100
AcDbEntity
  8
LC-001-100-D00-0
 62
     7
370
    50
100
AcDbLine
 10
224.904599
 20
221.94991
 30
0.0
 11
218.076168
 21
215.121483
 31
0.0
  0
ARC
  5
C3
330
1F
100
AcDbEntity
  8
LC-001-100-D00-0
 62
     7
370
    50
100
AcDbCircle
 10
226.318811
 20
220.535696
 30
0.0
 40
2.0
100
AcDbArc
 50
90.0
 51
135.0
  0
LINE
  5
C4
330
1F
100
AcDbEntity
  8
LC-001-100-D00-0
 62
     7
370
    50
100
AcDbLine
 10
277.990381
 20
222.535697
 30
0.0
 11
226.318809
 21
222.535697
 31
0.0
  0
LINE
  5
C5
330
1F
100
AcDbEntity
  8
LC-001-100-D00-0
 62
     7
370
    50
100
AcDbLine
 10
277.990381
 20
224.535696
 30
0.0
 11
277.990381
 21
222.535697
 31
0.0
  0
LINE
  5
C6
330
1F
100
AcDbEntity
  8
LC-001-100-D00-0
 62
     7
370
    50
100
AcDbLine
 10
297.990384
 20
228.423302
 30
0.0
 11
277.990381
 21
224.535696
 31
0.0
  0
ARC
  5
C7
330
1F
100
AcDbEntity
  8
LC-001-100-D00-0
 62
     7
370
    50
100
AcDbCircle
 10
89.661957
 20
220.535696
 30
0.0
 40
2.000000000000016
100
AcDbArc
 50
45.0
 51
90.0
  0
LINE
  5
C8
330
1F
100
AcDbEntity
  8
LC-001-100-D00-0
 62
     7
370
    50
100
AcDbLine
 10
97.904599
 20
215.121483
 30
0.0
 11
91.076168
 21
221.94991
 31
0.0
  0
ARC
  5
C9
330
1F
100
AcDbEntity
  8
LC-001-100-D00-0
 62
     7
370
    50
100
AcDbCircle
 10
96.490384
 20
213.707269
 30
0.0
 40
2.0
100
AcDbArc
 50
0.0
 51
45.0
  0
LINE
  5
CA
330
1F
100
AcDbEntity
  8
LC-001-100-D00-0
 62
     7
370
    50
100
AcDbLine
 10
98.490382
 20
152.535695
 30
0.0
 11
98.490382
 21
213.707269
 31
0.0
  0
LINE
  5
CB
330
1F
100
AcDbEntity
  8
LC-001-100-D00-0
 62
     7
370
    50
100
AcDbLine
 10
95.490384
 20
152.535695
 30
0.0
 11
98.490382
 21
152.535695
 31
0.0
  0
LINE
  5
CC
330
1F
100
AcDbEntity
  8
LC-001-100-D00-0
 62
     7
370
    50
100
AcDbLine
 10
95.490384
 20
152.535695
 30
0.0
 11
93.490387
 21
154.535699
 31
0.0
  0
LINE
  5
CD
330
1F
100
AcDbEntity
  8
LC-001-100-D00-0
 62
     7
370
    50
100
AcDbLine
 10
93.490387
 20
214.585948
 30
0.0
 11
93.490387
 21
154.535699
 31
0.0
  0
LINE
  5
CE
330
1F
100
AcDbEntity
  8
LC-001-100-D00-0
 62
     7
370
    50
100
AcDbLine
 10
89.04064
 20
219.035695
 30
0.0
 11
93.490387
 21
214.585948
 31
0.0
  0
LINE
  5
CF
330
1F
100
AcDbEntity
  8
LC-001-100-D00-0
 62
     7
370
    50
100
AcDbLine
 10
34.490387
 20
219.035695
 30
0.0
 11
89.04064
 21
219.035695
 31
0.0
  0
LINE
  5
D0
330
1F
100
AcDbEntity
  8
LC-001-100-D00-0
 62
     7
370
    50
100
AcDbLine
 10
33.751244
 20
221.794193
 30
0.0
 11
34.490387
 21
219.035695
 31
0.0
  0
LINE
  5
D1
330
1F
100
AcDbEntity
  8
LC-001-100-D00-0
 62
     7
370
    50
100
AcDbLine
 10
16.787785
 20
225.091557
 30
0.0
 11
33.751244
 21
221.794193
 31
0.0
  0
LINE
  5
D2
330
1F
100
AcDbEntity
  8
LC-001-100-D00-0
 62
     7
370
    50
100
AcDbLine
 10
6.090569
 20
231.035696
 30
0.0
 11
16.787785
 21
225.091557
 31
0.0
  0
LINE
  5
D3
330
1F
100
AcDbEntity
  8
LC-001-100-D00-0
 62
     7
370
    50
100
AcDbLine
 10
2.990383
 20
231.035696
 30
0.0
 11
6.090569
 21
231.035696
 31
0.0
  0
LINE
  5
D4
330
1F
100
AcDbEntity
  8
LC-001-100-D00-0
 62
     7
370
    50
100
AcDbLine
 10
2.990383
 20
232.535696
 30
0.0
 11
2.990383
 21
231.035696
 31
0.0
  0
ARC
  5
D5
330
1F
100
AcDbEntity
  8
LC-001-100-D00-0
 62
     7
370
    50
100
AcDbCircle
 10
4.990384
 20
232.535696
 30
0.0
 40
2.000000000000057
100
AcDbArc
 50
90.0
 51
180.0
  0
LINE
  5
D6
330
1F
100
AcDbEntity
  8
LC-001-100-D00-0
 62
     7
370
    50
100
AcDbLine
 10
6.990391
 20
234.535696
 30
0.0
 11
4.990387
 21
234.535696
 31
0.0
  0
LINE
  5
D7
330
1F
100
AcDbEntity
  8
LC-001-100-D00-0
 62
     7
370
    50
100
AcDbLine
 10
17.990383
 20
228.423302
 30
0.0
 11
6.990391
 21
234.535696
 31
0.0
  0
LINE
  5
D8
330
1F
100
AcDbEntity
  8
LC-001-100-D00-0
 62
     7
370
    50
100
AcDbLine
 10
37.990386
 20
224.535696
 30
0.0
 11
17.990383
 21
228.423302
 31
0.0
  0
LINE
  5
D9
330
1F
100
AcDbEntity
  8
LC-001-100-D00-0
 62
     7
370
    50
100
AcDbLine
 10
37.990386
 20
222.535697
 30
0.0
 11
37.990386
 21
224.535696
 31
0.0
  0
LINE
  5
DA
330
1F
100
AcDbEntity
  8
LC-001-100-D00-0
 62
     7
370
    50
100
AcDbLine
 10
89.661958
 20
222.535697
 30
0.0
 11
37.990386
 21
222.535697
 31
0.0
  0
LINE
  5
DB
330
1F
100
AcDbEntity
  8
LC-001-100-D00-0
 62
     7
370
    50
100
AcDbLine
 10
98.490382
 20
152.535695
 30
0.0
 11
217.490385
 21
152.535695
 31
0.0
  0
LINE
  5
DC
330
1F
100
AcDbEntity
  8
LC-001-100-D00-0
 62
     7
370
    50
100
AcDbLine
 10
168.990384
 20
214.535696
 30
0.0
 11
168.990384
 21
215.121483
 31
0.0
  0
LINE
  5
DD
330
1F
100
AcDbEntity
  8
LC-001-100-D00-0
 62
     7
370
    50
100
AcDbLine
 10
146.990384
 20
215.121483
 30
0.0
 11
146.990384
 21
214.535696
 31
0.0
  0
LINE
  5
DE
330
1F
100
AcDbEntity
  8
LC-001-100-D00-0
 62
     7
370
    50
100
AcDbLine
 10
110.041453
 20
222.535697
 30
0.0
 11
152.240384
 21
222.535697
 31
0.0
  0
LINE
  5
DF
330
1F
100
AcDbEntity
  8
LC-001-100-D00-0
 62
     7
370
    50
100
AcDbLine
 10
163.740384
 20
222.535697
 30
0.0
 11
205.939314
 21
222.535697
 31
0.0
  0
LINE
  5
E0
330
1F
100
AcDbEntity
  8
LC-001-100-D00-0
 62
     7
370
    50
100
AcDbLine
 10
37.990386
 20
224.535696
 30
0.0
 11
38.482758
 21
224.535696
 31
0.0
  0
LINE
  5
E1
330
1F
100
AcDbEntity
  8
LC-001-100-D00-0
 62
     7
370
    50
100
AcDbLine
 10
277.49038
 20
224.535696
 30
0.0
 11
277.990381
 21
224.535696
 31
0.0
  0
LINE
  5
E2
330
1F
100
AcDbEntity
  8
LC-001-100-D00-0
 62
     7
370
    50
100
AcDbLine
 10
17.990383
 20
228.423302
 30
0.0
 11
39.175871
 21
228.423302
 31
0.0
  0
LINE
  5
E3
330
1F
100
AcDbEntity
  8
LC-001-100-D00-0
 62
     7
370
    50
100
AcDbLine
 10
116.225301
 20
228.423302
 30
0.0
 11
119.990754
 21
228.423302
 31
0.0
  0
LINE
  5
E4
330
1F
100
AcDbEntity
  8
LC-001-100-D00-0
 62
     7
370
    50
100
AcDbLine
 10
126.606422
 20
228.423302
 30
0.0
 11
131.966959
 21
228.423302
 31
0.0
  0
LINE
  5
E5
330
1F
100
AcDbEntity
  8
LC-001-100-D00-0
 62
     7
370
    50
100
AcDbLine
 10
137.331393
 20
228.423302
 30
0.0
 11
144.228281
 21
228.423302
 31
0.0
  0
LINE
  5
E6
330
1F
100
AcDbEntity
  8
LC-001-100-D00-0
 62
     7
370
    50
100
AcDbLine
 10
148.282708
 20
228.423302
 30
0.0
 11
152.240384
 21
228.423302
 31
0.0
  0
LINE
  5
E7
330
1F
100
AcDbEntity
  8
LC-001-100-D00-0
 62
     7
370
    50
100
AcDbLine
 10
163.740384
 20
228.423302
 30
0.0
 11
167.698059
 21
228.423302
 31
0.0
  0
LINE
  5
E8
330
1F
100
AcDbEntity
  8
LC-001-100-D00-0
 62
     7
370
    50
100
AcDbLine
 10
171.752486
 20
228.423302
 30
0.0
 11
178.649374
 21
228.423302
 31
0.0
  0
LINE
  5
E9
330
1F
100
AcDbEntity
  8
LC-001-100-D00-0
 62
     7
370
    50
100
AcDbLine
 10
184.013809
 20
228.423302
 30
0.0
 11
189.374345
 21
228.423302
 31
0.0
  0
LINE
  5
EA
330
1F
100
AcDbEntity
  8
LC-001-100-D00-0
 62
     7
370
    50
100
AcDbLine
 10
195.990014
 20
228.423302
 30
0.0
 11
199.755466
 21
228.423302
 31
0.0
  0
LINE
  5
EB
330
1F
100
AcDbEntity
  8
LC-001-100-D00-0
 62
     7
370
    50
100
AcDbLine
 10
276.804897
 20
228.423302
 30
0.0
 11
297.990384
 21
228.423302
 31
0.0
  0
LINE
  5
EC
330
1F
100
AcDbEntity
  8
LC-001-100-D00-0
 62
     7
370
    50
100
AcDbLine
 10
6.990391
 20
234.535696
 30
0.0
 11
40.253657
 21
234.535696
 31
0.0
  0
LINE
  5
ED
330
1F
100
AcDbEntity
  8
LC-001-100-D00-0
 62
     7
370
    50
100
AcDbLine
 10
116.969659
 20
234.535696
 30
0.0
 11
120.323806
 21
234.535696
 31
0.0
  0
LINE
  5
EE
330
1F
100
AcDbEntity
  8
LC-001-100-D00-0
 62
     7
370
    50
100
AcDbLine
 10
126.939474
 20
234.535696
 30
0.0
 11
132.191042
 21
234.535696
 31
0.0
  0
LINE
  5
EF
330
1F
100
AcDbEntity
  8
LC-001-100-D00-0
 62
     7
370
    50
100
AcDbLine
 10
137.555477
 20
234.535696
 30
0.0
 11
144.34094
 21
234.535696
 31
0.0
  0
LINE
  5
F0
330
1F
100
AcDbEntity
  8
LC-001-100-D00-0
 62
     7
370
    50
100
AcDbLine
 10
148.395368
 20
234.535696
 30
0.0
 11
152.240384
 21
234.535696
 31
0.0
  0
LINE
  5
F1
330
1F
100
AcDbEntity
  8
LC-001-100-D00-0
 62
     7
370
    50
100
AcDbLine
 10
163.740384
 20
234.535696
 30
0.0
 11
167.5854
 21
234.535696
 31
0.0
  0
LINE
  5
F2
330
1F
100
AcDbEntity
  8
LC-001-100-D00-0
 62
     7
370
    50
100
AcDbLine
 10
171.639828
 20
234.535696
 30
0.0
 11
178.42529
 21
234.535696
 31
0.0
  0
LINE
  5
F3
330
1F
100
AcDbEntity
  8
LC-001-100-D00-0
 62
     7
370
    50
100
AcDbLine
 10
183.789725
 20
234.535696
 30
0.0
 11
189.041293
 21
234.535696
 31
0.0
  0
LINE
  5
F4
330
1F
100
AcDbEntity
  8
LC-001-100-D00-0
 62
     7
370
    50
100
AcDbLine
 10
195.656962
 20
234.535696
 30
0.0
 11
199.011109
 21
234.535696
 31
0.0
  0
LINE
  5
F5
330
1F
100
AcDbEntity
  8
LC-001-100-D00-0
 62
     7
370
    50
100
AcDbLine
 10
275.727111
 20
234.535696
 30
0.0
 11
308.990377
 21
234.535696
 31
0.0
  0
LINE
  5
F6
330
1F
100
AcDbEntity
  8
LC-001-100-D00-0
 62
     7
370
    50
100
AcDbLine
 10
168.990384
 20
210.535697
 30
0.0
 11
168.990384
 21
214.535696
 31
0.0
  0
LINE
  5
F7
330
1F
100
AcDbEntity
  8
LC-001-100-D00-0
 62
     7
370
    50
100
AcDbLine
 10
146.990384
 20
210.535697
 30
0.0
 11
168.990384
 21
210.535697
 31
0.0
  0
LINE
  5
F8
330
1F
100
AcDbEntity
  8
LC-001-100-D00-0
 62
     7
370
    50
100
AcDbLine
 10
146.990384
 20
210.535697
 30
0.0
 11
146.990384
 21
214.535696
 31
0.0
  0
LINE
  5
F9
330
1F
100
AcDbEntity
  8
LC-001-100-D00-0
 62
     7
370
    50
100
AcDbLine
 10
146.990384
 20
214.535696
 30
0.0
 11
168.990384
 21
214.535696
 31
0.0
  0
LINE
  5
FA
330
1F
100
AcDbEntity
  8
LC-001-100-D00-0
 62
     7
370
    50
100
AcDbLine
 10
222.740385
 20
249.035696
 30
0.0
 11
222.740385
 21
243.035696
 31
0.0
  0
LINE
  5
FB
330
1F
100
AcDbEntity
  8
LC-001-100-D00-0
 62
     7
370
    50
100
AcDbLine
 10
227.240386
 20
249.035696
 30
0.0
 11
222.740385
 21
249.035696
 31
0.0
  0
LINE
  5
FC
330
1F
100
AcDbEntity
  8
LC-001-100-D00-0
 62
     7
370
    50
100
AcDbLine
 10
227.240386
 20
243.035696
 30
0.0
 11
227.240386
 21
249.035696
 31
0.0
  0
LINE
  5
FD
330
1F
100
AcDbEntity
  8
LC-001-100-D00-0
 62
     7
370
    50
100
AcDbLine
 10
227.240386
 20
243.035696
 30
0.0
 11
256.990383
 21
243.035696
 31
0.0
  0
LINE
  5
FE
330
1F
100
AcDbEntity
  8
LC-001-100-D00-0
 62
     7
370
    50
100
AcDbLine
 10
256.990383
 20
241.535696
 30
0.0
 11
256.990383
 21
243.035696
 31
0.0
  0
LINE
  5
FF
330
1F
100
AcDbEntity
  8
LC-001-100-D00-0
 62
     7
370
    50
100
AcDbLine
 10
256.990383
 20
241.535696
 30
0.0
 11
243.928204
 21
238.035696
 31
0.0
  0
LINE
  5
100
330
1F
100
AcDbEntity
  8
LC-001-100-D00-0
 62
     7
370
    50
100
AcDbLine
 10
235.490384
 20
238.035696
 30
0.0
 11
243.928204
 21
238.035696
 31
0.0
  0
LINE
  5
101
330
1F
100
AcDbEntity
  8
LC-001-100-D00-0
 62
     7
370
    50
100
AcDbLine
 10
234.990383
 20
237.535696
 30
0.0
 11
235.490384
 21
238.035696
 31
0.0
  0
LINE
  5
102
330
1F
100
AcDbEntity
  8
LC-001-100-D00-0
 62
     7
370
    50
100
AcDbLine
 10
234.990383
 20
237.535696
 30
0.0
 11
234.990383
 21
222.535697
 31
0.0
  0
LINE
  5
103
330
1F
100
AcDbEntity
  8
LC-001-100-D00-0
 62
     7
370
    50
100
AcDbLine
 10
234.990383
 20
222.535697
 30
0.0
 11
205.939314
 21
222.535697
 31
0.0
  0
LINE
  5
104
330
1F
100
AcDbEntity
  8
LC-001-100-D00-0
 62
     7
370
    50
100
AcDbLine
 10
205.939314
 20
222.535697
 30
0.0
 11
197.673398
 21
236.852683
 31
0.0
  0
LINE
  5
105
330
1F
100
AcDbEntity
  8
LC-001-100-D00-0
 62
     7
370
    50
100
AcDbLine
 10
196.490384
 20
238.035696
 30
0.0
 11
197.673398
 21
236.852683
 31
0.0
  0
LINE
  5
106
330
1F
100
AcDbEntity
  8
LC-001-100-D00-0
 62
     7
370
    50
100
AcDbLine
 10
119.490384
 20
238.035696
 30
0.0
 11
196.490384
 21
238.035696
 31
0.0
  0
LINE
  5
107
330
1F
100
AcDbEntity
  8
LC-001-100-D00-0
 62
     7
370
    50
100
AcDbLine
 10
118.30737
 20
236.852683
 30
0.0
 11
119.490384
 21
238.035696
 31
0.0
  0
LINE
  5
108
330
1F
100
AcDbEntity
  8
LC-001-100-D00-0
 62
     7
370
    50
100
AcDbLine
 10
118.30737
 20
236.852683
 30
0.0
 11
110.041453
 21
222.535697
 31
0.0
  0
LINE
  5
109
330
1F
100
AcDbEntity
  8
LC-001-100-D00-0
 62
     7
370
    50
100
AcDbLine
 10
110.041453
 20
222.535697
 30
0.0
 11
80.990384
 21
222.535697
 31
0.0
  0
LINE
  5
10A
330
1F
100
AcDbEntity
  8
LC-001-100-D00-0
 62
     7
370
    50
100
AcDbLine
 10
80.990384
 20
222.535697
 30
0.0
 11
80.990384
 21
237.535696
 31
0.0
  0
LINE
  5
10B
330
1F
100
AcDbEntity
  8
LC-001-100-D00-0
 62
     7
370
    50
100
AcDbLine
 10
80.490383
 20
238.035696
 30
0.0
 11
80.990384
 21
237.535696
 31
0.0
  0
LINE
  5
10C
330
1F
100
AcDbEntity
  8
LC-001-100-D00-0
 62
     7
370
    50
100
AcDbLine
 10
72.052563
 20
238.035696
 30
0.0
 11
80.490383
 21
238.035696
 31
0.0
  0
LINE
  5
10D
330
1F
100
AcDbEntity
  8
LC-001-100-D00-0
 62
     7
370
    50
100
AcDbLine
 10
72.052563
 20
238.035696
 30
0.0
 11
58.990384
 21
241.535696
 31
0.0
  0
LINE
  5
10E
330
1F
100
AcDbEntity
  8
LC-001-100-D00-0
 62
     7
370
    50
100
AcDbLine
 10
58.990384
 20
243.035696
 30
0.0
 11
58.990384
 21
241.535696
 31
0.0
  0
LINE
  5
10F
330
1F
100
AcDbEntity
  8
LC-001-100-D00-0
 62
     7
370
    50
100
AcDbLine
 10
58.990384
 20
243.035696
 30
0.0
 11
88.740381
 21
243.035696
 31
0.0
  0
LINE
  5
110
330
1F
100
AcDbEntity
  8
LC-001-100-D00-0
 62
     7
370
    50
100
AcDbLine
 10
88.740381
 20
249.035696
 30
0.0
 11
88.740381
 21
243.035696
 31
0.0
  0
LINE
  5
111
330
1F
100
AcDbEntity
  8
LC-001-100-D00-0
 62
     7
370
    50
100
AcDbLine
 10
88.740381
 20
249.035696
 30
0.0
 11
93.240383
 21
249.035696
 31
0.0
  0
LINE
  5
112
330
1F
100
AcDbEntity
  8
LC-001-100-D00-0
 62
     7
370
    50
100
AcDbLine
 10
93.240383
 20
243.035696
 30
0.0
 11
93.240383
 21
249.035696
 31
0.0
  0
LINE
  5
113
330
1F
100
AcDbEntity
  8
LC-001-100-D00-0
 62
     7
370
    50
100
AcDbLine
 10
93.240383
 20
243.035696
 30
0.0
 11
222.740385
 21
243.035696
 31
0.0
  0
LINE
  5
114
330
1F
100
AcDbEntity
  8
LC-001-100-D00-0
 62
     7
370
    50
100
AcDbLine
 10
216.925534
 20
249.035696
 30
0.0
 11
222.740385
 21
249.035696
 31
0.0
  0
LINE
  5
115
330
1F
100
AcDbEntity
  8
LC-001-100-D00-0
 62
     7
370
    50
100
AcDbLine
 10
93.240383
 20
249.035696
 30
0.0
 11
99.055233
 21
249.035696
 31
0.0
  0
LINE
  5
116
330
1F
100
AcDbEntity
  8
LC-001-100-D00-0
 62
     7
370
    50
100
AcDbLine
 10
80.817091
 20
249.035696
 30
0.0
 11
85.207756
 21
249.035696
 31
0.0
  0
LINE
  5
117
330
1F
100
AcDbEntity
  8
LC-001-100-D00-0
 62
     7
370
    50
100
AcDbLine
 10
230.773012
 20
249.035696
 30
0.0
 11
235.163676
 21
249.035696
 31
0.0
  0
LINE
  5
118
330
1F
100
AcDbEntity
  8
LC-001-100-D00-0
 62
     7
370
    50
100
AcDbLine
 10
85.207756
 20
249.035696
 30
0.0
 11
88.681626
 21
249.035696
 31
0.0
  0
LINE
  5
119
330
1F
100
AcDbEntity
  8
LC-001-100-D00-0
 62
     7
370
    50
100
AcDbLine
 10
99.231253
 20
249.035696
 30
0.0
 11
152.240384
 21
249.035696
 31
0.0
  0
LINE
  5
11A
330
1F
100
AcDbEntity
  8
LC-001-100-D00-0
 62
     7
370
    50
100
AcDbLine
 10
163.740384
 20
249.035696
 30
0.0
 11
216.749514
 21
249.035696
 31
0.0
  0
LINE
  5
11B
330
1F
100
AcDbEntity
  8
LC-001-100-D00-0
 62
     7
370
    50
100
AcDbLine
 10
227.299142
 20
249.035696
 30
0.0
 11
230.773012
 21
249.035696
 31
0.0
  0
LINE
  5
11C
330
1F
100
AcDbEntity
  8
LC-001-100-D00-0
 62
     7
370
    50
100
AcDbLine
 10
99.055233
 20
249.035696
 30
0.0
 11
99.257293
 21
249.035696
 31
0.0
  0
LINE
  5
11D
330
1F
100
AcDbEntity
  8
LC-001-100-D00-0
 62
     7
370
    50
100
AcDbLine
 10
216.723474
 20
249.035696
 30
0.0
 11
216.925534
 21
249.035696
 31
0.0
  0
LINE
  5
11E
330
1F
100
AcDbEntity
  8
LC-001-100-D00-0
 62
     7
370
    50
100
AcDbLine
 10
152.240384
 20
243.535696
 30
0.0
 11
163.740384
 21
243.535696
 31
0.0
  0
LINE
  5
11F
330
1F
100
AcDbEntity
  8
LC-001-100-D00-0
 62
     7
370
    50
100
AcDbLine
 10
163.740384
 20
237.535696
 30
0.0
 11
152.240384
 21
237.535696
 31
0.0
  0
LINE
  5
120
330
1F
100
AcDbEntity
  8
LC-001-100-D00-0
 62
     7
370
    50
100
AcDbLine
 10
264.39138
 20
224.535696
 30
0.0
 11
264.399941
 21
224.535696
 31
0.0
  0
LINE
  5
121
330
1F
100
AcDbEntity
  8
LC-001-100-D00-0
 62
     7
370
    50
100
AcDbLine
 10
252.00441
 20
294.785696
 30
0.0
 11
264.39138
 21
224.535696
 31
0.0
  0
LINE
  5
122
330
1F
100
AcDbEntity
  8
LC-001-100-D00-0
 62
     7
370
    50
100
AcDbLine
 10
236.740383
 20
294.785696
 30
0.0
 11
252.00441
 21
294.785696
 31
0.0
  0
LINE
  5
123
330
1F
100
AcDbEntity
  8
LC-001-100-D00-0
 62
     7
370
    50
100
AcDbLine
 10
236.740383
 20
297.535694
 30
0.0
 11
236.740383
 21
294.785696
 31
0.0
  0
LINE
  5
124
330
1F
100
AcDbEntity
  8
LC-001-100-D00-0
 62
     7
370
    50
100
AcDbLine
 10
240.78771
 20
297.535694
 30
0.0
 11
236.740383
 21
297.535694
 31
0.0
  0
LINE
  5
125
330
1F
100
AcDbEntity
  8
LC-001-100-D00-0
 62
     7
370
    50
100
AcDbLine
 10
240.78771
 20
297.635696
 30
0.0
 11
240.78771
 21
297.535694
 31
0.0
  0
LINE
  5
126
330
1F
100
AcDbEntity
  8
LC-001-100-D00-0
 62
     7
370
    50
100
AcDbLine
 10
240.78771
 20
297.635696
 30
0.0
 11
241.159136
 21
297.635696
 31
0.0
  0
LINE
  5
127
330
1F
100
AcDbEntity
  8
LC-001-100-D00-0
 62
     7
370
    50
100
AcDbLine
 10
241.159136
 20
297.635696
 30
0.0
 11
241.159136
 21
297.535694
 31
0.0
  0
LINE
  5
128
330
1F
100
AcDbEntity
  8
LC-001-100-D00-0
 62
     7
370
    50
100
AcDbLine
 10
246.91617
 20
297.535694
 30
0.0
 11
241.159136
 21
297.535694
 31
0.0
  0
LINE
  5
129
330
1F
100
AcDbEntity
  8
LC-001-100-D00-0
 62
     7
370
    50
100
AcDbLine
 10
246.91617
 20
297.535694
 30
0.0
 11
246.91617
 21
297.635696
 31
0.0
  0
LINE
  5
12A
330
1F
100
AcDbEntity
  8
LC-001-100-D00-0
 62
     7
370
    50
100
AcDbLine
 10
246.91617
 20
297.635696
 30
0.0
 11
247.287589
 21
297.635696
 31
0.0
  0
LINE
  5
12B
330
1F
100
AcDbEntity
  8
LC-001-100-D00-0
 62
     7
370
    50
100
AcDbLine
 10
247.287589
 20
297.635696
 30
0.0
 11
247.287589
 21
297.535694
 31
0.0
  0
LINE
  5
12C
330
1F
100
AcDbEntity
  8
LC-001-100-D00-0
 62
     7
370
    50
100
AcDbLine
 10
260.842564
 20
297.535694
 30
0.0
 11
247.287589
 21
297.535694
 31
0.0
  0
ARC
  5
12D
330
1F
100
AcDbEntity
  8
LC-001-100-D00-0
 62
     7
370
    50
100
AcDbCircle
 10
260.842566
 20
293.035696
 30
0.0
 40
4.500000000000044
100
AcDbArc
 50
10.0
 51
90.0
  0
LINE
  5
12E
330
1F
100
AcDbEntity
  8
LC-001-100-D00-0
 62
     7
370
    50
100
AcDbLine
 10
277.49038
 20
224.535696
 30
0.0
 11
265.274199
 21
293.817113
 31
0.0
  0
LINE
  5
12F
330
1F
100
AcDbEntity
  8
LC-001-100-D00-0
 62
     7
370
    50
100
AcDbLine
 10
277.498009
 20
224.535696
 30
0.0
 11
277.49038
 21
224.535696
 31
0.0
  0
LINE
  5
130
330
1F
100
AcDbEntity
  8
LC-001-100-D00-0
 62
     7
370
    50
100
AcDbLine
 10
277.498009
 20
222.535697
 30
0.0
 11
277.498009
 21
224.535696
 31
0.0
  0
LINE
  5
131
330
1F
100
AcDbEntity
  8
LC-001-100-D00-0
 62
     7
370
    50
100
AcDbLine
 10
277.498009
 20
222.535697
 30
0.0
 11
264.399941
 21
222.535697
 31
0.0
  0
LINE
  5
132
330
1F
100
AcDbEntity
  8
LC-001-100-D00-0
 62
     7
370
    50
100
AcDbLine
 10
264.399941
 20
222.535697
 30
0.0
 11
264.399941
 21
224.535696
 31
0.0
  0
LINE
  5
133
330
1F
100
AcDbEntity
  8
LC-001-100-D00-0
 62
     7
370
    50
100
AcDbLine
 10
51.580827
 20
222.535697
 30
0.0
 11
38.482758
 21
222.535697
 31
0.0
  0
LINE
  5
134
330
1F
100
AcDbEntity
  8
LC-001-100-D00-0
 62
     7
370
    50
100
AcDbLine
 10
38.482758
 20
224.535696
 30
0.0
 11
38.482758
 21
222.535697
 31
0.0
  0
LINE
  5
135
330
1F
100
AcDbEntity
  8
LC-001-100-D00-0
 62
     7
370
    50
100
AcDbLine
 10
38.490387
 20
224.535696
 30
0.0
 11
38.482758
 21
224.535696
 31
0.0
  0
LINE
  5
136
330
1F
100
AcDbEntity
  8
LC-001-100-D00-0
 62
     7
370
    50
100
AcDbLine
 10
50.706568
 20
293.817113
 30
0.0
 11
38.490387
 21
224.535696
 31
0.0
  0
ARC
  5
137
330
1F
100
AcDbEntity
  8
LC-001-100-D00-0
 62
     7
370
    50
100
AcDbCircle
 10
55.138202
 20
293.035696
 30
0.0
 40
4.5
100
AcDbArc
 50
90.0
 51
170.0
  0
LINE
  5
138
330
1F
100
AcDbEntity
  8
LC-001-100-D00-0
 62
     7
370
    50
100
AcDbLine
 10
68.693179
 20
297.535694
 30
0.0
 11
55.138203
 21
297.535694
 31
0.0
  0
LINE
  5
139
330
1F
100
AcDbEntity
  8
LC-001-100-D00-0
 62
     7
370
    50
100
AcDbLine
 10
68.693179
 20
297.535694
 30
0.0
 11
68.693179
 21
297.635696
 31
0.0
  0
LINE
  5
13A
330
1F
100
AcDbEntity
  8
LC-001-100-D00-0
 62
     7
370
    50
100
AcDbLine
 10
68.693179
 20
297.635696
 30
0.0
 11
69.064597
 21
297.635696
 31
0.0
  0
LINE
  5
13B
330
1F
100
AcDbEntity
  8
LC-001-100-D00-0
 62
     7
370
    50
100
AcDbLine
 10
69.064597
 20
297.635696
 30
0.0
 11
69.064597
 21
297.535694
 31
0.0
  0
LINE
  5
13C
330
1F
100
AcDbEntity
  8
LC-001-100-D00-0
 62
     7
370
    50
100
AcDbLine
 10
74.821631
 20
297.535694
 30
0.0
 11
69.064597
 21
297.535694
 31
0.0
  0
LINE
  5
13D
330
1F
100
AcDbEntity
  8
LC-001-100-D00-0
 62
     7
370
    50
100
AcDbLine
 10
74.821631
 20
297.535694
 30
0.0
 11
74.821631
 21
297.635696
 31
0.0
  0
LINE
  5
13E
330
1F
100
AcDbEntity
  8
LC-001-100-D00-0
 62
     7
370
    50
100
AcDbLine
 10
74.821631
 20
297.635696
 30
0.0
 11
75.193058
 21
297.635696
 31
0.0
  0
LINE
  5
13F
330
1F
100
AcDbEntity
  8
LC-001-100-D00-0
 62
     7
370
    50
100
AcDbLine
 10
75.193058
 20
297.535694
 30
0.0
 11
75.193058
 21
297.635696
 31
0.0
  0
LINE
  5
140
330
1F
100
AcDbEntity
  8
LC-001-100-D00-0
 62
     7
370
    50
100
AcDbLine
 10
79.240384
 20
297.535694
 30
0.0
 11
75.193058
 21
297.535694
 31
0.0
  0
LINE
  5
141
330
1F
100
AcDbEntity
  8
LC-001-100-D00-0
 62
     7
370
    50
100
AcDbLine
 10
79.240384
 20
294.785696
 30
0.0
 11
79.240384
 21
297.535694
 31
0.0
  0
LINE
  5
142
330
1F
100
AcDbEntity
  8
LC-001-100-D00-0
 62
     7
370
    50
100
AcDbLine
 10
63.976358
 20
294.785696
 30
0.0
 11
79.240384
 21
294.785696
 31
0.0
  0
LINE
  5
143
330
1F
100
AcDbEntity
  8
LC-001-100-D00-0
 62
     7
370
    50
100
AcDbLine
 10
51.589387
 20
224.535696
 30
0.0
 11
63.976358
 21
294.785696
 31
0.0
  0
LINE
  5
144
330
1F
100
AcDbEntity
  8
LC-001-100-D00-0
 62
     7
370
    50
100
AcDbLine
 10
51.580827
 20
224.535696
 30
0.0
 11
51.589387
 21
224.535696
 31
0.0
  0
LINE
  5
145
330
1F
100
AcDbEntity
  8
LC-001-100-D00-0
 62
     7
370
    50
100
AcDbLine
 10
51.580827
 20
224.535696
 30
0.0
 11
51.580827
 21
222.535697
 31
0.0
  0
LINE
  5
146
330
1F
100
AcDbEntity
  8
LC-001-100-D00-0
 62
     7
370
    50
100
AcDbLine
 10
51.589387
 20
224.535696
 30
0.0
 11
52.031147
 21
224.535696
 31
0.0
  0
LINE
  5
147
330
1F
100
AcDbEntity
  8
LC-001-100-D00-0
 62
     7
370
    50
100
AcDbLine
 10
52.313375
 20
224.535696
 30
0.0
 11
53.633827
 21
224.535696
 31
0.0
  0
LINE
  5
148
330
1F
100
AcDbEntity
  8
LC-001-100-D00-0
 62
     7
370
    50
100
AcDbLine
 10
54.195183
 20
224.535696
 30
0.0
 11
56.37985
 21
224.535696
 31
0.0
  0
LINE
  5
149
330
1F
100
AcDbEntity
  8
LC-001-100-D00-0
 62
     7
370
    50
100
AcDbLine
 10
57.214196
 20
224.535696
 30
0.0
 11
60.239139
 21
224.535696
 31
0.0
  0
LINE
  5
14A
330
1F
100
AcDbEntity
  8
LC-001-100-D00-0
 62
     7
370
    50
100
AcDbLine
 10
61.337332
 20
224.535696
 30
0.0
 11
65.169419
 21
224.535696
 31
0.0
  0
LINE
  5
14B
330
1F
100
AcDbEntity
  8
LC-001-100-D00-0
 62
     7
370
    50
100
AcDbLine
 10
66.519419
 20
224.535696
 30
0.0
 11
71.116659
 21
224.535696
 31
0.0
  0
LINE
  5
14C
330
1F
100
AcDbEntity
  8
LC-001-100-D00-0
 62
     7
370
    50
100
AcDbLine
 10
72.703677
 20
224.535696
 30
0.0
 11
78.01571
 21
224.535696
 31
0.0
  0
LINE
  5
14D
330
1F
100
AcDbEntity
  8
LC-001-100-D00-0
 62
     7
370
    50
100
AcDbLine
 10
79.822357
 20
224.535696
 30
0.0
 11
80.990384
 21
224.535696
 31
0.0
  0
LINE
  5
14E
330
1F
100
AcDbEntity
  8
LC-001-100-D00-0
 62
     7
370
    50
100
AcDbLine
 10
111.196155
 20
224.535696
 30
0.0
 11
113.479915
 21
224.535696
 31
0.0
  0
LINE
  5
14F
330
1F
100
AcDbEntity
  8
LC-001-100-D00-0
 62
     7
370
    50
100
AcDbLine
 10
115.946485
 20
224.535696
 30
0.0
 11
123.826741
 21
224.535696
 31
0.0
  0
LINE
  5
150
330
1F
100
AcDbEntity
  8
LC-001-100-D00-0
 62
     7
370
    50
100
AcDbLine
 10
126.394595
 20
224.535696
 30
0.0
 11
134.547873
 21
224.535696
 31
0.0
  0
LINE
  5
151
330
1F
100
AcDbEntity
  8
LC-001-100-D00-0
 62
     7
370
    50
100
AcDbLine
 10
137.188871
 20
224.535696
 30
0.0
 11
145.525846
 21
224.535696
 31
0.0
  0
LINE
  5
152
330
1F
100
AcDbEntity
  8
LC-001-100-D00-0
 62
     7
370
    50
100
AcDbLine
 10
148.211055
 20
224.535696
 30
0.0
 11
152.240384
 21
224.535696
 31
0.0
  0
LINE
  5
153
330
1F
100
AcDbEntity
  8
LC-001-100-D00-0
 62
     7
370
    50
100
AcDbLine
 10
163.740384
 20
224.535696
 30
0.0
 11
167.769712
 21
224.535696
 31
0.0
  0
LINE
  5
154
330
1F
100
AcDbEntity
  8
LC-001-100-D00-0
 62
     7
370
    50
100
AcDbLine
 10
170.454921
 20
224.535696
 30
0.0
 11
178.791896
 21
224.535696
 31
0.0
  0
LINE
  5
155
330
1F
100
AcDbEntity
  8
LC-001-100-D00-0
 62
     7
370
    50
100
AcDbLine
 10
181.432894
 20
224.535696
 30
0.0
 11
189.586173
 21
224.535696
 31
0.0
  0
LINE
  5
156
330
1F
100
AcDbEntity
  8
LC-001-100-D00-0
 62
     7
370
    50
100
AcDbLine
 10
192.154026
 20
224.535696
 30
0.0
 11
200.034282
 21
224.535696
 31
0.0
  0
LINE
  5
157
330
1F
100
AcDbEntity
  8
LC-001-100-D00-0
 62
     7
370
    50
100
AcDbLine
 10
202.500853
 20
224.535696
 30
0.0
 11
204.784612
 21
224.535696
 31
0.0
  0
LINE
  5
158
330
1F
100
AcDbEntity
  8
LC-001-100-D00-0
 62
     7
370
    50
100
AcDbLine
 10
234.990383
 20
224.535696
 30
0.0
 11
236.158411
 21
224.535696
 31
0.0
  0
LINE
  5
159
330
1F
100
AcDbEntity
  8
LC-001-100-D00-0
 62
     7
370
    50
100
AcDbLine
 10
237.965057
 20
224.535696
 30
0.0
 11
243.27709
 21
224.535696
 31
0.0
  0
LINE
  5
15A
330
1F
100
AcDbEntity
  8
LC-001-100-D00-0
 62
     7
370
    50
100
AcDbLine
 10
244.864109
 20
224.535696
 30
0.0
 11
249.461348
 21
224.535696
 31
0.0
  0
LINE
  5
15B
330
1F
100
AcDbEntity
  8
LC-001-100-D00-0
 62
     7
370
    50
100
AcDbLine
 10
250.811348
 20
224.535696
 30
0.0
 11
254.643435
 21
224.535696
 31
0.0
  0
LINE
  5
15C
330
1F
100
AcDbEntity
  8
LC-001-100-D00-0
 62
     7
370
    50
100
AcDbLine
 10
255.741629
 20
224.535696
 30
0.0
 11
258.766572
 21
224.535696
 31
0.0
  0
LINE
  5
15D
330
1F
100
AcDbEntity
  8
LC-001-100-D00-0
 62
     7
370
    50
100
AcDbLine
 10
259.600918
 20
224.535696
 30
0.0
 11
261.785584
 21
224.535696
 31
0.0
  0
LINE
  5
15E
330
1F
100
AcDbEntity
  8
LC-001-100-D00-0
 62
     7
370
    50
100
AcDbLine
 10
262.346941
 20
224.535696
 30
0.0
 11
263.667392
 21
224.535696
 31
0.0
  0
LINE
  5
15F
330
1F
100
AcDbEntity
  8
LC-001-100-D00-0
 62
     7
370
    50
100
AcDbLine
 10
263.94962
 20
224.535696
 30
0.0
 11
264.39138
 21
224.535696
 31
0.0
  0
LINE
  5
160
330
1F
100
AcDbEntity
  8
LC-001-100-D00-0
 62
     7
370
    50
100
AcDbLine
 10
192.490383
 20
297.535694
 30
0.0
 11
192.490383
 21
287.535696
 31
0.0
  0
LINE
  5
161
330
1F
100
AcDbEntity
  8
LC-001-100-D00-0
 62
     7
370
    50
100
AcDbLine
 10
192.490383
 20
287.535696
 30
0.0
 11
189.990385
 21
287.535696
 31
0.0
  0
LINE
  5
162
330
1F
100
AcDbEntity
  8
LC-001-100-D00-0
 62
     7
370
    50
100
AcDbLine
 10
189.990385
 20
297.535694
 30
0.0
 11
189.990385
 21
287.535696
 31
0.0
  0
LINE
  5
163
330
1F
100
AcDbEntity
  8
LC-001-100-D00-0
 62
     7
370
    50
100
AcDbLine
 10
192.490383
 20
297.535694
 30
0.0
 11
189.990385
 21
297.535694
 31
0.0
  0
LINE
  5
164
330
1F
100
AcDbEntity
  8
LC-001-100-D00-0
 62
     7
370
    50
100
AcDbLine
 10
123.490385
 20
287.535696
 30
0.0
 11
123.490385
 21
297.535694
 31
0.0
  0
LINE
  5
165
330
1F
100
AcDbEntity
  8
LC-001-100-D00-0
 62
     7
370
    50
100
AcDbLine
 10
125.990382
 20
297.535694
 30
0.0
 11
123.490385
 21
297.535694
 31
0.0
  0
LINE
  5
166
330
1F
100
AcDbEntity
  8
LC-001-100-D00-0
 62
     7
370
    50
100
AcDbLine
 10
125.990382
 20
287.535696
 30
0.0
 11
125.990382
 21
297.535694
 31
0.0
  0
LINE
  5
167
330
1F
100
AcDbEntity
  8
LC-001-100-D00-0
 62
     7
370
    50
100
AcDbLine
 10
125.990382
 20
287.535696
 30
0.0
 11
123.490385
 21
287.535696
 31
0.0
  0
LINE
  5
168
330
1F
100
AcDbEntity
  8
LC-001-100-D00-0
 62
     7
370
    50
100
AcDbLine
 10
146.988596
 20
287.535696
 30
0.0
 11
146.988596
 21
297.535694
 31
0.0
  0
LINE
  5
169
330
1F
100
AcDbEntity
  8
LC-001-100-D00-0
 62
     7
370
    50
100
AcDbLine
 10
168.992172
 20
297.535694
 30
0.0
 11
146.988596
 21
297.535694
 31
0.0
  0
LINE
  5
16A
330
1F
100
AcDbEntity
  8
LC-001-100-D00-0
 62
     7
370
    50
100
AcDbLine
 10
168.992172
 20
287.535696
 30
0.0
 11
168.992172
 21
297.535694
 31
0.0
  0
LINE
  5
16B
330
1F
100
AcDbEntity
  8
LC-001-100-D00-0
 62
     7
370
    50
100
AcDbLine
 10
168.992172
 20
287.535696
 30
0.0
 11
146.988596
 21
287.535696
 31
0.0
  0
LINE
  5
16C
330
1F
100
AcDbEntity
  8
LC-001-100-D00-0
 62
     7
370
    50
100
AcDbLine
 10
126.066032
 20
287.535696
 30
0.0
 11
126.066032
 21
297.535694
 31
0.0
  0
LINE
  5
16D
330
1F
100
AcDbEntity
  8
LC-001-100-D00-0
 62
     7
370
    50
100
AcDbLine
 10
126.066032
 20
297.535694
 30
0.0
 11
146.988596
 21
297.535694
 31
0.0
  0
LINE
  5
16E
330
1F
100
AcDbEntity
  8
LC-001-100-D00-0
 62
     7
370
    50
100
AcDbLine
 10
126.066032
 20
287.535696
 30
0.0
 11
146.988596
 21
287.535696
 31
0.0
  0
LINE
  5
16F
330
1F
100
AcDbEntity
  8
LC-001-100-D00-0
 62
     7
370
    50
100
AcDbLine
 10
189.914736
 20
287.535696
 30
0.0
 11
189.914736
 21
297.535694
 31
0.0
  0
LINE
  5
170
330
1F
100
AcDbEntity
  8
LC-001-100-D00-0
 62
     7
370
    50
100
AcDbLine
 10
189.990385
 20
297.535694
 30
0.0
 11
189.914736
 21
297.535694
 31
0.0
  0
LINE
  5
171
330
1F
100
AcDbEntity
  8
LC-001-100-D00-0
 62
     7
370
    50
100
AcDbLine
 10
189.990385
 20
287.535696
 30
0.0
 11
189.914736
 21
287.535696
 31
0.0
  0
LINE
  5
172
330
1F
100
AcDbEntity
  8
LC-001-100-D00-0
 62
     7
370
    50
100
AcDbLine
 10
126.066032
 20
297.535694
 30
0.0
 11
125.990382
 21
297.535694
 31
0.0
  0
LINE
  5
173
330
1F
100
AcDbEntity
  8
LC-001-100-D00-0
 62
     7
370
    50
100
AcDbLine
 10
126.066032
 20
287.535696
 30
0.0
 11
125.990382
 21
287.535696
 31
0.0
  0
LINE
  5
174
330
1F
100
AcDbEntity
  8
LC-001-100-D00-0
 62
     7
370
    50
100
AcDbLine
 10
189.914736
 20
297.535694
 30
0.0
 11
168.992172
 21
297.535694
 31
0.0
  0
LINE
  5
175
330
1F
100
AcDbEntity
  8
LC-001-100-D00-0
 62
     7
370
    50
100
AcDbLine
 10
189.914736
 20
287.535696
 30
0.0
 11
168.992172
 21
287.535696
 31
0.0
  0
LINE
  5
176
330
1F
100
AcDbEntity
  8
LC-001-100-D00-0
 62
     7
370
    50
100
AcDbLine
 10
236.420843
 20
297.535694
 30
0.0
 11
236.420843
 21
294.785696
 31
0.0
  0
LINE
  5
177
330
1F
100
AcDbEntity
  8
LC-001-100-D00-0
 62
     7
370
    50
100
AcDbLine
 10
236.740383
 20
297.535694
 30
0.0
 11
236.420843
 21
297.535694
 31
0.0
  0
LINE
  5
178
330
1F
100
AcDbEntity
  8
LC-001-100-D00-0
 62
     7
370
    50
100
AcDbLine
 10
236.740383
 20
294.785696
 30
0.0
 11
236.420843
 21
294.785696
 31
0.0
  0
LINE
  5
179
330
1F
100
AcDbEntity
  8
LC-001-100-D00-0
 62
     7
370
    50
100
AcDbLine
 10
79.559925
 20
297.535694
 30
0.0
 11
79.559925
 21
294.785696
 31
0.0
  0
LINE
  5
17A
330
1F
100
AcDbEntity
  8
LC-001-100-D00-0
 62
     7
370
    50
100
AcDbLine
 10
79.559925
 20
297.535694
 30
0.0
 11
79.240384
 21
297.535694
 31
0.0
  0
LINE
  5
17B
330
1F
100
AcDbEntity
  8
LC-001-100-D00-0
 62
     7
370
    50
100
AcDbLine
 10
79.559925
 20
294.785696
 30
0.0
 11
79.240384
 21
294.785696
 31
0.0
  0
LINE
  5
17C
330
1F
100
AcDbEntity
  8
LC-001-100-D00-0
 62
     7
370
    50
100
AcDbLine
 10
73.868858
 20
297.635696
 30
0.0
 11
73.868858
 21
297.535694
 31
0.0
  0
LINE
  5
17D
330
1F
100
AcDbEntity
  8
LC-001-100-D00-0
 62
     7
370
    50
100
AcDbLine
 10
73.868858
 20
297.635696
 30
0.0
 11
69.064597
 21
297.635696
 31
0.0
  0
LINE
  5
17E
330
1F
100
AcDbEntity
  8
LC-001-100-D00-0
 62
     7
370
    50
100
AcDbLine
 10
246.91617
 20
297.635696
 30
0.0
 11
241.159136
 21
297.635696
 31
0.0
  0
LINE
  5
17F
330
1F
100
AcDbEntity
  8
LC-001-100-D00-0
 62
     7
370
    50
100
AcDbLine
 10
240.590508
 20
297.635696
 30
0.0
 11
240.590508
 21
297.535694
 31
0.0
  0
LINE
  5
180
330
1F
100
AcDbEntity
  8
LC-001-100-D00-0
 62
     7
370
    50
100
AcDbLine
 10
240.590508
 20
297.635696
 30
0.0
 11
240.78771
 21
297.635696
 31
0.0
  0
LINE
  5
181
330
1F
100
AcDbEntity
  8
LC-001-100-D00-0
 62
     7
370
    50
100
AcDbLine
 10
74.821631
 20
297.635696
 30
0.0
 11
73.868858
 21
297.635696
 31
0.0
  0
LINE
  5
182
330
1F
100
AcDbEntity
  8
LC-001-100-D00-0
 62
     7
370
    50
100
AcDbLine
 10
64.371171
 20
294.785696
 30
0.0
 11
63.099804
 21
287.535696
 31
0.0
  0
LINE
  5
183
330
1F
100
AcDbEntity
  8
LC-001-100-D00-0
 62
     7
370
    50
100
AcDbLine
 10
123.490385
 20
297.535694
 30
0.0
 11
79.559925
 21
297.535694
 31
0.0
  0
LINE
  5
184
330
1F
100
AcDbEntity
  8
LC-001-100-D00-0
 62
     7
370
    50
100
AcDbLine
 10
123.490385
 20
287.535696
 30
0.0
 11
63.099804
 21
287.535696
 31
0.0
  0
LINE
  5
185
330
1F
100
AcDbEntity
  8
LC-001-100-D00-0
 62
     7
370
    50
100
AcDbLine
 10
251.609596
 20
294.785696
 30
0.0
 11
252.880963
 21
287.535696
 31
0.0
  0
LINE
  5
186
330
1F
100
AcDbEntity
  8
LC-001-100-D00-0
 62
     7
370
    50
100
AcDbLine
 10
192.490383
 20
297.535694
 30
0.0
 11
236.420843
 21
297.535694
 31
0.0
  0
LINE
  5
187
330
1F
100
AcDbEntity
  8
LC-001-100-D00-0
 62
     7
370
    50
100
AcDbLine
 10
192.490383
 20
287.535696
 30
0.0
 11
252.880963
 21
287.535696
 31
0.0
  0
LINE
  5
188
330
1F
100
AcDbEntity
  8
LC-001-100-D00-0
 62
     7
370
    50
100
AcDbLine
 10
75.193058
 20
297.635696
 30
0.0
 11
75.34084
 21
297.635696
 31
0.0
  0
LINE
  5
189
330
1F
100
AcDbEntity
  8
LC-001-100-D00-0
 62
     7
370
    50
100
AcDbLine
 10
75.34084
 20
297.635696
 30
0.0
 11
75.34084
 21
297.535694
 31
0.0
  0
LINE
  5
18A
330
1F
100
AcDbEntity
  8
LC-001-100-D00-0
 62
     7
370
    50
100
AcDbLine
 10
75.447569
 20
297.635696
 30
0.0
 11
75.447569
 21
297.535694
 31
0.0
  0
LINE
  5
18B
330
1F
100
AcDbEntity
  8
LC-001-100-D00-0
 62
     7
370
    50
100
AcDbLine
 10
75.603562
 20
297.635696
 30
0.0
 11
75.603562
 21
297.535694
 31
0.0
  0
LINE
  5
18C
330
1F
100
AcDbEntity
  8
LC-001-100-D00-0
 62
     7
370
    50
100
AcDbLine
 10
75.447569
 20
297.635696
 30
0.0
 11
75.603562
 21
297.635696
 31
0.0
  0
LINE
  5
18D
330
1F
100
AcDbEntity
  8
LC-001-100-D00-0
 62
     7
370
    50
100
AcDbLine
 10
75.34084
 20
297.635696
 30
0.0
 11
75.447569
 21
297.635696
 31
0.0
  0
LINE
  5
18E
330
1F
100
AcDbEntity
  8
LC-001-100-D00-0
 62
     7
370
    50
100
AcDbLine
 10
240.487712
 20
297.635696
 30
0.0
 11
240.487712
 21
297.535694
 31
0.0
  0
LINE
  5
18F
330
1F
100
AcDbEntity
  8
LC-001-100-D00-0
 62
     7
370
    50
100
AcDbLine
 10
240.590508
 20
297.635696
 30
0.0
 11
240.487712
 21
297.635696
 31
0.0
  0
LINE
  5
190
330
1F
100
AcDbEntity
  8
LC-001-100-D00-0
 62
     7
370
    50
100
AcDbLine
 10
240.31047
 20
297.635696
 30
0.0
 11
240.31047
 21
297.535694
 31
0.0
  0
LINE
  5
191
330
1F
100
AcDbEntity
  8
LC-001-100-D00-0
 62
     7
370
    50
100
AcDbLine
 10
240.31047
 20
297.635696
 30
0.0
 11
240.487712
 21
297.635696
 31
0.0
  0
LINE
  5
192
330
1F
100
AcDbEntity
  8
LC-001-100-D00-0
 62
     7
370
    50
100
AcDbLine
 10
52.313375
 20
224.535696
 30
0.0
 11
63.361118
 21
287.535696
 31
0.0
  0
LINE
  5
193
330
1F
100
AcDbEntity
  8
LC-001-100-D00-0
 62
     7
370
    50
100
AcDbLine
 10
52.031147
 20
224.535696
 30
0.0
 11
52.313375
 21
224.535696
 31
0.0
  0
LINE
  5
194
330
1F
100
AcDbEntity
  8
LC-001-100-D00-0
 62
     7
370
    50
100
AcDbLine
 10
52.031147
 20
224.535696
 30
0.0
 11
64.350265
 21
294.785696
 31
0.0
  0
LINE
  5
195
330
1F
100
AcDbEntity
  8
LC-001-100-D00-0
 62
     7
370
    50
100
AcDbLine
 10
263.94962
 20
224.535696
 30
0.0
 11
251.630503
 21
294.785696
 31
0.0
  0
LINE
  5
196
330
1F
100
AcDbEntity
  8
LC-001-100-D00-0
 62
     7
370
    50
100
AcDbLine
 10
263.667392
 20
224.535696
 30
0.0
 11
263.94962
 21
224.535696
 31
0.0
  0
LINE
  5
197
330
1F
100
AcDbEntity
  8
LC-001-100-D00-0
 62
     7
370
    50
100
AcDbLine
 10
263.667392
 20
224.535696
 30
0.0
 11
252.619649
 21
287.535696
 31
0.0
  0
LINE
  5
198
330
1F
100
AcDbEntity
  8
LC-001-100-D00-0
 62
     7
370
    50
100
AcDbLine
 10
75.710292
 20
297.635696
 30
0.0
 11
75.710292
 21
297.535694
 31
0.0
  0
LINE
  5
199
330
1F
100
AcDbEntity
  8
LC-001-100-D00-0
 62
     7
370
    50
100
AcDbLine
 10
75.858082
 20
297.635696
 30
0.0
 11
75.858082
 21
297.535694
 31
0.0
  0
LINE
  5
19A
330
1F
100
AcDbEntity
  8
LC-001-100-D00-0
 62
     7
370
    50
100
AcDbLine
 10
75.710292
 20
297.635696
 30
0.0
 11
75.858082
 21
297.635696
 31
0.0
  0
LINE
  5
19B
330
1F
100
AcDbEntity
  8
LC-001-100-D00-0
 62
     7
370
    50
100
AcDbLine
 10
75.603562
 20
297.635696
 30
0.0
 11
75.710292
 21
297.635696
 31
0.0
  0
LINE
  5
19C
330
1F
100
AcDbEntity
  8
LC-001-100-D00-0
 62
     7
370
    50
100
AcDbLine
 10
240.133229
 20
297.635696
 30
0.0
 11
240.133229
 21
297.535694
 31
0.0
  0
LINE
  5
19D
330
1F
100
AcDbEntity
  8
LC-001-100-D00-0
 62
     7
370
    50
100
AcDbLine
 10
240.31047
 20
297.635696
 30
0.0
 11
240.133229
 21
297.635696
 31
0.0
  0
LINE
  5
19E
330
1F
100
AcDbEntity
  8
LC-001-100-D00-0
 62
     7
370
    50
100
AcDbLine
 10
239.955994
 20
297.635696
 30
0.0
 11
239.955994
 21
297.535694
 31
0.0
  0
LINE
  5
19F
330
1F
100
AcDbEntity
  8
LC-001-100-D00-0
 62
     7
370
    50
100
AcDbLine
 10
239.955994
 20
297.635696
 30
0.0
 11
240.133229
 21
297.635696
 31
0.0
  0
LINE
  5
1A0
330
1F
100
AcDbEntity
  8
LC-001-100-D00-0
 62
     7
370
    50
100
AcDbLine
 10
75.993056
 20
297.635696
 30
0.0
 11
75.993056
 21
297.535694
 31
0.0
  0
LINE
  5
1A1
330
1F
100
AcDbEntity
  8
LC-001-100-D00-0
 62
     7
370
    50
100
AcDbLine
 10
75.993056
 20
297.635696
 30
0.0
 11
76.64145
 21
297.635696
 31
0.0
  0
LINE
  5
1A2
330
1F
100
AcDbEntity
  8
LC-001-100-D00-0
 62
     7
370
    50
100
AcDbLine
 10
76.64145
 20
297.635696
 30
0.0
 11
76.64145
 21
297.535694
 31
0.0
  0
LINE
  5
1A3
330
1F
100
AcDbEntity
  8
LC-001-100-D00-0
 62
     7
370
    50
100
AcDbLine
 10
75.858082
 20
297.635696
 30
0.0
 11
75.993056
 21
297.635696
 31
0.0
  0
LINE
  5
1A4
330
1F
100
AcDbEntity
  8
LC-001-100-D00-0
 62
     7
370
    50
100
AcDbLine
 10
239.687714
 20
297.635696
 30
0.0
 11
239.955994
 21
297.635696
 31
0.0
  0
LINE
  5
1A5
330
1F
100
AcDbEntity
  8
LC-001-100-D00-0
 62
     7
370
    50
100
AcDbLine
 10
239.049877
 20
297.635696
 30
0.0
 11
239.049877
 21
297.535694
 31
0.0
  0
LINE
  5
1A6
330
1F
100
AcDbEntity
  8
LC-001-100-D00-0
 62
     7
370
    50
100
AcDbLine
 10
239.049877
 20
297.635696
 30
0.0
 11
239.687714
 21
297.635696
 31
0.0
  0
LINE
  5
1A7
330
1F
100
AcDbEntity
  8
LC-001-100-D00-0
 62
     7
370
    50
100
AcDbLine
 10
76.993058
 20
297.635696
 30
0.0
 11
76.993058
 21
297.535694
 31
0.0
  0
LINE
  5
1A8
330
1F
100
AcDbEntity
  8
LC-001-100-D00-0
 62
     7
370
    50
100
AcDbLine
 10
77.34559
 20
297.635696
 30
0.0
 11
77.34559
 21
297.535694
 31
0.0
  0
LINE
  5
1A9
330
1F
100
AcDbEntity
  8
LC-001-100-D00-0
 62
     7
370
    50
100
AcDbLine
 10
76.993058
 20
297.635696
 30
0.0
 11
77.34559
 21
297.635696
 31
0.0
  0
LINE
  5
1AA
330
1F
100
AcDbEntity
  8
LC-001-100-D00-0
 62
     7
370
    50
100
AcDbLine
 10
76.64145
 20
297.635696
 30
0.0
 11
76.993058
 21
297.635696
 31
0.0
  0
LINE
  5
1AB
330
1F
100
AcDbEntity
  8
LC-001-100-D00-0
 62
     7
370
    50
100
AcDbLine
 10
53.633827
 20
224.535696
 30
0.0
 11
54.195183
 21
224.535696
 31
0.0
  0
LINE
  5
1AC
330
1F
100
AcDbEntity
  8
LC-001-100-D00-0
 62
     7
370
    50
100
AcDbLine
 10
53.633827
 20
224.535696
 30
0.0
 11
64.499671
 21
287.535696
 31
0.0
  0
LINE
  5
1AD
330
1F
100
AcDbEntity
  8
LC-001-100-D00-0
 62
     7
370
    50
100
AcDbLine
 10
54.195183
 20
224.535696
 30
0.0
 11
65.061035
 21
287.535696
 31
0.0
  0
LINE
  5
1AE
330
1F
100
AcDbEntity
  8
LC-001-100-D00-0
 62
     7
370
    50
100
AcDbLine
 10
261.785584
 20
224.535696
 30
0.0
 11
262.346941
 21
224.535696
 31
0.0
  0
LINE
  5
1AF
330
1F
100
AcDbEntity
  8
LC-001-100-D00-0
 62
     7
370
    50
100
AcDbLine
 10
261.785584
 20
224.535696
 30
0.0
 11
250.919732
 21
287.535696
 31
0.0
  0
LINE
  5
1B0
330
1F
100
AcDbEntity
  8
LC-001-100-D00-0
 62
     7
370
    50
100
AcDbLine
 10
262.346941
 20
224.535696
 30
0.0
 11
251.481096
 21
287.535696
 31
0.0
  0
LINE
  5
1B1
330
1F
100
AcDbEntity
  8
LC-001-100-D00-0
 62
     7
370
    50
100
AcDbLine
 10
239.049877
 20
297.635696
 30
0.0
 11
236.636112
 21
297.635696
 31
0.0
  0
LINE
  5
1B2
330
1F
100
AcDbEntity
  8
LC-001-100-D00-0
 62
     7
370
    50
100
AcDbLine
 10
77.698129
 20
297.635696
 30
0.0
 11
77.698129
 21
297.535694
 31
0.0
  0
LINE
  5
1B3
330
1F
100
AcDbEntity
  8
LC-001-100-D00-0
 62
     7
370
    50
100
AcDbLine
 10
78.050668
 20
297.635696
 30
0.0
 11
78.050668
 21
297.535694
 31
0.0
  0
LINE
  5
1B4
330
1F
100
AcDbEntity
  8
LC-001-100-D00-0
 62
     7
370
    50
100
AcDbLine
 10
77.698129
 20
297.635696
 30
0.0
 11
78.050668
 21
297.635696
 31
0.0
  0
LINE
  5
1B5
330
1F
100
AcDbEntity
  8
LC-001-100-D00-0
 62
     7
370
    50
100
AcDbLine
 10
77.34559
 20
297.635696
 30
0.0
 11
77.698129
 21
297.635696
 31
0.0
  0
LINE
  5
1B6
330
1F
100
AcDbEntity
  8
LC-001-100-D00-0
 62
     7
370
    50
100
AcDbLine
 10
236.601892
 20
297.635696
 30
0.0
 11
236.636112
 21
297.635696
 31
0.0
  0
LINE
  5
1B7
330
1F
100
AcDbEntity
  8
LC-001-100-D00-0
 62
     7
370
    50
100
AcDbLine
 10
56.37985
 20
224.535696
 30
0.0
 11
59.220361
 21
241.474073
 31
0.0
  0
LINE
  5
1B8
330
1F
100
AcDbEntity
  8
LC-001-100-D00-0
 62
     7
370
    50
100
AcDbLine
 10
59.482242
 20
243.035696
 30
0.0
 11
66.944758
 21
287.535696
 31
0.0
  0
LINE
  5
1B9
330
1F
100
AcDbEntity
  8
LC-001-100-D00-0
 62
     7
370
    50
100
AcDbLine
 10
57.214196
 20
224.535696
 30
0.0
 11
60.018833
 21
241.260125
 31
0.0
  0
LINE
  5
1BA
330
1F
100
AcDbEntity
  8
LC-001-100-D00-0
 62
     7
370
    50
100
AcDbLine
 10
60.316588
 20
243.035696
 30
0.0
 11
67.779104
 21
287.535696
 31
0.0
  0
LINE
  5
1BB
330
1F
100
AcDbEntity
  8
LC-001-100-D00-0
 62
     7
370
    50
100
AcDbLine
 10
56.37985
 20
224.535696
 30
0.0
 11
57.214196
 21
224.535696
 31
0.0
  0
LINE
  5
1BC
330
1F
100
AcDbEntity
  8
LC-001-100-D00-0
 62
     7
370
    50
100
AcDbLine
 10
259.600918
 20
224.535696
 30
0.0
 11
256.760406
 21
241.474073
 31
0.0
  0
LINE
  5
1BD
330
1F
100
AcDbEntity
  8
LC-001-100-D00-0
 62
     7
370
    50
100
AcDbLine
 10
256.498526
 20
243.035696
 30
0.0
 11
249.036009
 21
287.535696
 31
0.0
  0
LINE
  5
1BE
330
1F
100
AcDbEntity
  8
LC-001-100-D00-0
 62
     7
370
    50
100
AcDbLine
 10
258.766572
 20
224.535696
 30
0.0
 11
259.600918
 21
224.535696
 31
0.0
  0
LINE
  5
1BF
330
1F
100
AcDbEntity
  8
LC-001-100-D00-0
 62
     7
370
    50
100
AcDbLine
 10
258.766572
 20
224.535696
 30
0.0
 11
255.961935
 21
241.260125
 31
0.0
  0
LINE
  5
1C0
330
1F
100
AcDbEntity
  8
LC-001-100-D00-0
 62
     7
370
    50
100
AcDbLine
 10
255.66418
 20
243.035696
 30
0.0
 11
248.201663
 21
287.535696
 31
0.0
  0
LINE
  5
1C1
330
1F
100
AcDbEntity
  8
LC-001-100-D00-0
 62
     7
370
    50
100
AcDbLine
 10
60.239139
 20
224.535696
 30
0.0
 11
62.812577
 21
240.511543
 31
0.0
  0
LINE
  5
1C2
330
1F
100
AcDbEntity
  8
LC-001-100-D00-0
 62
     7
370
    50
100
AcDbLine
 10
63.21917
 20
243.035696
 30
0.0
 11
70.387351
 21
287.535696
 31
0.0
  0
LINE
  5
1C3
330
1F
100
AcDbEntity
  8
LC-001-100-D00-0
 62
     7
370
    50
100
AcDbLine
 10
60.239139
 20
224.535696
 30
0.0
 11
61.337332
 21
224.535696
 31
0.0
  0
LINE
  5
1C4
330
1F
100
AcDbEntity
  8
LC-001-100-D00-0
 62
     7
370
    50
100
AcDbLine
 10
61.337332
 20
224.535696
 30
0.0
 11
63.865322
 21
240.22946
 31
0.0
  0
LINE
  5
1C5
330
1F
100
AcDbEntity
  8
LC-001-100-D00-0
 62
     7
370
    50
100
AcDbLine
 10
64.317363
 20
243.035696
 30
0.0
 11
71.485544
 21
287.535696
 31
0.0
  0
LINE
  5
1C6
330
1F
100
AcDbEntity
  8
LC-001-100-D00-0
 62
     7
370
    50
100
AcDbLine
 10
255.741629
 20
224.535696
 30
0.0
 11
253.168191
 21
240.511543
 31
0.0
  0
LINE
  5
1C7
330
1F
100
AcDbEntity
  8
LC-001-100-D00-0
 62
     7
370
    50
100
AcDbLine
 10
252.761598
 20
243.035696
 30
0.0
 11
245.593416
 21
287.535696
 31
0.0
  0
LINE
  5
1C8
330
1F
100
AcDbEntity
  8
LC-001-100-D00-0
 62
     7
370
    50
100
AcDbLine
 10
254.643435
 20
224.535696
 30
0.0
 11
255.741629
 21
224.535696
 31
0.0
  0
LINE
  5
1C9
330
1F
100
AcDbEntity
  8
LC-001-100-D00-0
 62
     7
370
    50
100
AcDbLine
 10
254.643435
 20
224.535696
 30
0.0
 11
252.115446
 21
240.22946
 31
0.0
  0
LINE
  5
1CA
330
1F
100
AcDbEntity
  8
LC-001-100-D00-0
 62
     7
370
    50
100
AcDbLine
 10
251.663404
 20
243.035696
 30
0.0
 11
244.495223
 21
287.535696
 31
0.0
  0
LINE
  5
1CB
330
1F
100
AcDbEntity
  8
LC-001-100-D00-0
 62
     7
370
    50
100
AcDbLine
 10
157.990384
 20
281.035694
 30
0.0
 11
151.990384
 21
281.035694
 31
0.0
  0
LINE
  5
1CC
330
1F
100
AcDbEntity
  8
LC-001-100-D00-0
 62
     7
370
    50
100
AcDbLine
 10
163.990384
 20
281.035694
 30
0.0
 11
157.990384
 21
281.035694
 31
0.0
  0
LINE
  5
1CD
330
1F
100
AcDbEntity
  8
LC-001-100-D00-0
 62
     7
370
    50
100
AcDbLine
 10
66.519419
 20
224.535696
 30
0.0
 11
68.717385
 21
238.929355
 31
0.0
  0
LINE
  5
1CE
330
1F
100
AcDbEntity
  8
LC-001-100-D00-0
 62
     7
370
    50
100
AcDbLine
 10
69.344434
 20
243.035696
 30
0.0
 11
76.139751
 21
287.535696
 31
0.0
  0
LINE
  5
1CF
330
1F
100
AcDbEntity
  8
LC-001-100-D00-0
 62
     7
370
    50
100
AcDbLine
 10
65.169419
 20
224.535696
 30
0.0
 11
66.519419
 21
224.535696
 31
0.0
  0
LINE
  5
1D0
330
1F
100
AcDbEntity
  8
LC-001-100-D00-0
 62
     7
370
    50
100
AcDbLine
 10
65.169419
 20
224.535696
 30
0.0
 11
67.420448
 21
239.276867
 31
0.0
  0
LINE
  5
1D1
330
1F
100
AcDbEntity
  8
LC-001-100-D00-0
 62
     7
370
    50
100
AcDbLine
 10
67.994433
 20
243.035696
 30
0.0
 11
74.78975
 21
287.535696
 31
0.0
  0
LINE
  5
1D2
330
1F
100
AcDbEntity
  8
LC-001-100-D00-0
 62
     7
370
    50
100
AcDbLine
 10
250.811348
 20
224.535696
 30
0.0
 11
248.560319
 21
239.276867
 31
0.0
  0
LINE
  5
1D3
330
1F
100
AcDbEntity
  8
LC-001-100-D00-0
 62
     7
370
    50
100
AcDbLine
 10
247.986334
 20
243.035696
 30
0.0
 11
241.191017
 21
287.535696
 31
0.0
  0
LINE
  5
1D4
330
1F
100
AcDbEntity
  8
LC-001-100-D00-0
 62
     7
370
    50
100
AcDbLine
 10
249.461348
 20
224.535696
 30
0.0
 11
250.811348
 21
224.535696
 31
0.0
  0
LINE
  5
1D5
330
1F
100
AcDbEntity
  8
LC-001-100-D00-0
 62
     7
370
    50
100
AcDbLine
 10
249.461348
 20
224.535696
 30
0.0
 11
247.263382
 21
238.929355
 31
0.0
  0
LINE
  5
1D6
330
1F
100
AcDbEntity
  8
LC-001-100-D00-0
 62
     7
370
    50
100
AcDbLine
 10
246.636334
 20
243.035696
 30
0.0
 11
239.841017
 21
287.535696
 31
0.0
  0
LINE
  5
1D7
330
1F
100
AcDbEntity
  8
LC-001-100-D00-0
 62
     7
370
    50
100
AcDbLine
 10
71.116659
 20
224.535696
 30
0.0
 11
72.703677
 21
224.535696
 31
0.0
  0
LINE
  5
1D8
330
1F
100
AcDbEntity
  8
LC-001-100-D00-0
 62
     7
370
    50
100
AcDbLine
 10
71.116659
 20
224.535696
 30
0.0
 11
73.042455
 21
238.035696
 31
0.0
  0
LINE
  5
1D9
330
1F
100
AcDbEntity
  8
LC-001-100-D00-0
 62
     7
370
    50
100
AcDbLine
 10
73.755714
 20
243.035696
 30
0.0
 11
80.103705
 21
287.535696
 31
0.0
  0
LINE
  5
1DA
330
1F
100
AcDbEntity
  8
LC-001-100-D00-0
 62
     7
370
    50
100
AcDbLine
 10
72.703677
 20
224.535696
 30
0.0
 11
74.629473
 21
238.035696
 31
0.0
  0
LINE
  5
1DB
330
1F
100
AcDbEntity
  8
LC-001-100-D00-0
 62
     7
370
    50
100
AcDbLine
 10
75.342732
 20
243.035696
 30
0.0
 11
81.690724
 21
287.535696
 31
0.0
  0
LINE
  5
1DC
330
1F
100
AcDbEntity
  8
LC-001-100-D00-0
 62
     7
370
    50
100
AcDbLine
 10
243.27709
 20
224.535696
 30
0.0
 11
244.864109
 21
224.535696
 31
0.0
  0
LINE
  5
1DD
330
1F
100
AcDbEntity
  8
LC-001-100-D00-0
 62
     7
370
    50
100
AcDbLine
 10
243.27709
 20
224.535696
 30
0.0
 11
241.351294
 21
238.035696
 31
0.0
  0
LINE
  5
1DE
330
1F
100
AcDbEntity
  8
LC-001-100-D00-0
 62
     7
370
    50
100
AcDbLine
 10
240.638035
 20
243.035696
 30
0.0
 11
234.290044
 21
287.535696
 31
0.0
  0
LINE
  5
1DF
330
1F
100
AcDbEntity
  8
LC-001-100-D00-0
 62
     7
370
    50
100
AcDbLine
 10
244.864109
 20
224.535696
 30
0.0
 11
242.938313
 21
238.035696
 31
0.0
  0
LINE
  5
1E0
330
1F
100
AcDbEntity
  8
LC-001-100-D00-0
 62
     7
370
    50
100
AcDbLine
 10
242.225054
 20
243.035696
 30
0.0
 11
235.877062
 21
287.535696
 31
0.0
  0
LINE
  5
1E1
330
1F
100
AcDbEntity
  8
LC-001-100-D00-0
 62
     7
370
    50
100
AcDbLine
 10
79.822357
 20
224.535696
 30
0.0
 11
80.990384
 21
233.449426
 31
0.0
  0
LINE
  5
1E2
330
1F
100
AcDbEntity
  8
LC-001-100-D00-0
 62
     7
370
    50
100
AcDbLine
 10
83.032752
 20
249.035696
 30
0.0
 11
88.07766
 21
287.535696
 31
0.0
  0
LINE
  5
1E3
330
1F
100
AcDbEntity
  8
LC-001-100-D00-0
 62
     7
370
    50
100
AcDbLine
 10
78.01571
 20
224.535696
 30
0.0
 11
79.822357
 21
224.535696
 31
0.0
  0
LINE
  5
1E4
330
1F
100
AcDbEntity
  8
LC-001-100-D00-0
 62
     7
370
    50
100
AcDbLine
 10
78.01571
 20
224.535696
 30
0.0
 11
79.784701
 21
238.035696
 31
0.0
  0
LINE
  5
1E5
330
1F
100
AcDbEntity
  8
LC-001-100-D00-0
 62
     7
370
    50
100
AcDbLine
 10
80.439883
 20
243.035696
 30
0.0
 11
80.817091
 21
245.91434
 31
0.0
  0
LINE
  5
1E6
330
1F
100
AcDbEntity
  8
LC-001-100-D00-0
 62
     7
370
    50
100
AcDbLine
 10
81.226098
 20
249.035696
 30
0.0
 11
86.271006
 21
287.535696
 31
0.0
  0
LINE
  5
1E7
330
1F
100
AcDbEntity
  8
LC-001-100-D00-0
 62
     7
370
    50
100
AcDbLine
 10
237.965057
 20
224.535696
 30
0.0
 11
236.196066
 21
238.035696
 31
0.0
  0
LINE
  5
1E8
330
1F
100
AcDbEntity
  8
LC-001-100-D00-0
 62
     7
370
    50
100
AcDbLine
 10
235.540884
 20
243.035696
 30
0.0
 11
235.163676
 21
245.91434
 31
0.0
  0
LINE
  5
1E9
330
1F
100
AcDbEntity
  8
LC-001-100-D00-0
 62
     7
370
    50
100
AcDbLine
 10
234.754669
 20
249.035696
 30
0.0
 11
229.709762
 21
287.535696
 31
0.0
  0
LINE
  5
1EA
330
1F
100
AcDbEntity
  8
LC-001-100-D00-0
 62
     7
370
    50
100
AcDbLine
 10
236.158411
 20
224.535696
 30
0.0
 11
237.965057
 21
224.535696
 31
0.0
  0
LINE
  5
1EB
330
1F
100
AcDbEntity
  8
LC-001-100-D00-0
 62
     7
370
    50
100
AcDbLine
 10
236.158411
 20
224.535696
 30
0.0
 11
234.990383
 21
233.449426
 31
0.0
  0
LINE
  5
1EC
330
1F
100
AcDbEntity
  8
LC-001-100-D00-0
 62
     7
370
    50
100
AcDbLine
 10
232.948015
 20
249.035696
 30
0.0
 11
227.903108
 21
287.535696
 31
0.0
  0
LINE
  5
1ED
330
1F
100
AcDbEntity
  8
LC-001-100-D00-0
 62
     7
370
    50
100
AcDbLine
 10
88.681626
 20
249.035696
 30
0.0
 11
92.490385
 21
281.317192
 31
0.0
  0
LINE
  5
1EE
330
1F
100
AcDbEntity
  8
LC-001-100-D00-0
 62
     7
370
    50
100
AcDbLine
 10
90.688119
 20
249.035696
 30
0.0
 11
92.490385
 21
264.310981
 31
0.0
  0
LINE
  5
1EF
330
1F
100
AcDbEntity
  8
LC-001-100-D00-0
 62
     7
370
    50
100
AcDbLine
 10
225.292648
 20
249.035696
 30
0.0
 11
223.490382
 21
264.310981
 31
0.0
  0
LINE
  5
1F0
330
1F
100
AcDbEntity
  8
LC-001-100-D00-0
 62
     7
370
    50
100
AcDbLine
 10
227.299142
 20
249.035696
 30
0.0
 11
223.490382
 21
281.317192
 31
0.0
  0
LINE
  5
1F1
330
1F
100
AcDbEntity
  8
LC-001-100-D00-0
 62
     7
370
    50
100
AcDbLine
 10
99.08086
 20
249.035696
 30
0.0
 11
103.071092
 21
287.535696
 31
0.0
  0
LINE
  5
1F2
330
1F
100
AcDbEntity
  8
LC-001-100-D00-0
 62
     7
370
    50
100
AcDbLine
 10
98.490382
 20
264.414256
 30
0.0
 11
100.886746
 21
287.535696
 31
0.0
  0
LINE
  5
1F3
330
1F
100
AcDbEntity
  8
LC-001-100-D00-0
 62
     7
370
    50
100
AcDbLine
 10
217.490385
 20
264.414256
 30
0.0
 11
215.094021
 21
287.535696
 31
0.0
  0
LINE
  5
1F4
330
1F
100
AcDbEntity
  8
LC-001-100-D00-0
 62
     7
370
    50
100
AcDbLine
 10
216.899908
 20
249.035696
 30
0.0
 11
212.909675
 21
287.535696
 31
0.0
  0
LINE
  5
1F5
330
1F
100
AcDbEntity
  8
LC-001-100-D00-0
 62
     7
370
    50
100
AcDbLine
 10
105.780757
 20
249.035696
 30
0.0
 11
109.175051
 21
287.535696
 31
0.0
  0
LINE
  5
1F6
330
1F
100
AcDbEntity
  8
LC-001-100-D00-0
 62
     7
370
    50
100
AcDbLine
 10
108.119025
 20
249.035696
 30
0.0
 11
111.513319
 21
287.535696
 31
0.0
  0
LINE
  5
1F7
330
1F
100
AcDbEntity
  8
LC-001-100-D00-0
 62
     7
370
    50
100
AcDbLine
 10
100.087869
 20
258.751898
 30
0.0
 11
99.231253
 21
249.035696
 31
0.0
  0
LINE
  5
1F8
330
1F
100
AcDbEntity
  8
LC-001-100-D00-0
 62
     7
370
    50
100
AcDbLine
 10
207.861743
 20
249.035696
 30
0.0
 11
204.467448
 21
287.535696
 31
0.0
  0
LINE
  5
1F9
330
1F
100
AcDbEntity
  8
LC-001-100-D00-0
 62
     7
370
    50
100
AcDbLine
 10
210.200011
 20
249.035696
 30
0.0
 11
206.805716
 21
287.535696
 31
0.0
  0
LINE
  5
1FA
330
1F
100
AcDbEntity
  8
LC-001-100-D00-0
 62
     7
370
    50
100
AcDbLine
 10
215.892899
 20
258.751898
 30
0.0
 11
216.749514
 21
249.035696
 31
0.0
  0
LINE
  5
1FB
330
1F
100
AcDbEntity
  8
LC-001-100-D00-0
 62
     7
370
    50
100
AcDbLine
 10
113.479915
 20
224.535696
 30
0.0
 11
113.80384
 21
229.05234
 31
0.0
  0
LINE
  5
1FC
330
1F
100
AcDbEntity
  8
LC-001-100-D00-0
 62
     7
370
    50
100
AcDbLine
 10
115.237019
 20
249.035696
 30
0.0
 11
117.998189
 21
287.535696
 31
0.0
  0
LINE
  5
1FD
330
1F
100
AcDbEntity
  8
LC-001-100-D00-0
 62
     7
370
    50
100
AcDbLine
 10
112.670342
 20
287.535696
 30
0.0
 11
109.909176
 21
249.035696
 31
0.0
  0
LINE
  5
1FE
330
1F
100
AcDbEntity
  8
LC-001-100-D00-0
 62
     7
370
    50
100
AcDbLine
 10
115.946485
 20
224.535696
 30
0.0
 11
116.620271
 21
233.930541
 31
0.0
  0
LINE
  5
1FF
330
1F
100
AcDbEntity
  8
LC-001-100-D00-0
 62
     7
370
    50
100
AcDbLine
 10
117.703593
 20
249.035696
 30
0.0
 11
120.46476
 21
287.535696
 31
0.0
  0
LINE
  5
200
330
1F
100
AcDbEntity
  8
LC-001-100-D00-0
 62
     7
370
    50
100
AcDbLine
 10
113.479915
 20
224.535696
 30
0.0
 11
115.946485
 21
224.535696
 31
0.0
  0
LINE
  5
201
330
1F
100
AcDbEntity
  8
LC-001-100-D00-0
 62
     7
370
    50
100
AcDbLine
 10
202.500853
 20
224.535696
 30
0.0
 11
202.176927
 21
229.05234
 31
0.0
  0
LINE
  5
202
330
1F
100
AcDbEntity
  8
LC-001-100-D00-0
 62
     7
370
    50
100
AcDbLine
 10
200.743749
 20
249.035696
 30
0.0
 11
197.982578
 21
287.535696
 31
0.0
  0
LINE
  5
203
330
1F
100
AcDbEntity
  8
LC-001-100-D00-0
 62
     7
370
    50
100
AcDbLine
 10
200.034282
 20
224.535696
 30
0.0
 11
202.500853
 21
224.535696
 31
0.0
  0
LINE
  5
204
330
1F
100
AcDbEntity
  8
LC-001-100-D00-0
 62
     7
370
    50
100
AcDbLine
 10
200.034282
 20
224.535696
 30
0.0
 11
199.360496
 21
233.930541
 31
0.0
  0
LINE
  5
205
330
1F
100
AcDbEntity
  8
LC-001-100-D00-0
 62
     7
370
    50
100
AcDbLine
 10
198.277174
 20
249.035696
 30
0.0
 11
195.516008
 21
287.535696
 31
0.0
  0
LINE
  5
206
330
1F
100
AcDbEntity
  8
LC-001-100-D00-0
 62
     7
370
    50
100
AcDbLine
 10
203.310425
 20
287.535696
 30
0.0
 11
206.071592
 21
249.035696
 31
0.0
  0
LINE
  5
207
330
1F
100
AcDbEntity
  8
LC-001-100-D00-0
 62
     7
370
    50
100
AcDbLine
 10
123.826741
 20
224.535696
 30
0.0
 11
126.394595
 21
224.535696
 31
0.0
  0
LINE
  5
208
330
1F
100
AcDbEntity
  8
LC-001-100-D00-0
 62
     7
370
    50
100
AcDbLine
 10
123.826741
 20
224.535696
 30
0.0
 11
124.562329
 21
238.035696
 31
0.0
  0
LINE
  5
209
330
1F
100
AcDbEntity
  8
LC-001-100-D00-0
 62
     7
370
    50
100
AcDbLine
 10
125.161699
 20
249.035696
 30
0.0
 11
127.259488
 21
287.535696
 31
0.0
  0
LINE
  5
20A
330
1F
100
AcDbEntity
  8
LC-001-100-D00-0
 62
     7
370
    50
100
AcDbLine
 10
126.394595
 20
224.535696
 30
0.0
 11
127.130183
 21
238.035696
 31
0.0
  0
LINE
  5
20B
330
1F
100
AcDbEntity
  8
LC-001-100-D00-0
 62
     7
370
    50
100
AcDbLine
 10
127.729551
 20
249.035696
 30
0.0
 11
129.82734
 21
287.535696
 31
0.0
  0
LINE
  5
20C
330
1F
100
AcDbEntity
  8
LC-001-100-D00-0
 62
     7
370
    50
100
AcDbLine
 10
123.211673
 20
287.535696
 30
0.0
 11
121.113884
 21
249.035696
 31
0.0
  0
LINE
  5
20D
330
1F
100
AcDbEntity
  8
LC-001-100-D00-0
 62
     7
370
    50
100
AcDbLine
 10
120.514515
 20
238.035696
 30
0.0
 11
119.778926
 21
224.535696
 31
0.0
  0
LINE
  5
20E
330
1F
100
AcDbEntity
  8
LC-001-100-D00-0
 62
     7
370
    50
100
AcDbLine
 10
189.586173
 20
224.535696
 30
0.0
 11
192.154026
 21
224.535696
 31
0.0
  0
LINE
  5
20F
330
1F
100
AcDbEntity
  8
LC-001-100-D00-0
 62
     7
370
    50
100
AcDbLine
 10
189.586173
 20
224.535696
 30
0.0
 11
188.850584
 21
238.035696
 31
0.0
  0
LINE
  5
210
330
1F
100
AcDbEntity
  8
LC-001-100-D00-0
 62
     7
370
    50
100
AcDbLine
 10
188.251217
 20
249.035696
 30
0.0
 11
186.153428
 21
287.535696
 31
0.0
  0
LINE
  5
211
330
1F
100
AcDbEntity
  8
LC-001-100-D00-0
 62
     7
370
    50
100
AcDbLine
 10
192.154026
 20
224.535696
 30
0.0
 11
191.418438
 21
238.035696
 31
0.0
  0
LINE
  5
212
330
1F
100
AcDbEntity
  8
LC-001-100-D00-0
 62
     7
370
    50
100
AcDbLine
 10
190.819069
 20
249.035696
 30
0.0
 11
188.721279
 21
287.535696
 31
0.0
  0
LINE
  5
213
330
1F
100
AcDbEntity
  8
LC-001-100-D00-0
 62
     7
370
    50
100
AcDbLine
 10
192.769094
 20
287.535696
 30
0.0
 11
194.866883
 21
249.035696
 31
0.0
  0
LINE
  5
214
330
1F
100
AcDbEntity
  8
LC-001-100-D00-0
 62
     7
370
    50
100
AcDbLine
 10
195.466253
 20
238.035696
 30
0.0
 11
196.201841
 21
224.535696
 31
0.0
  0
LINE
  5
215
330
1F
100
AcDbEntity
  8
LC-001-100-D00-0
 62
     7
370
    50
100
AcDbLine
 10
137.188871
 20
224.535696
 30
0.0
 11
137.683787
 21
238.035696
 31
0.0
  0
LINE
  5
216
330
1F
100
AcDbEntity
  8
LC-001-100-D00-0
 62
     7
370
    50
100
AcDbLine
 10
138.087052
 20
249.035696
 30
0.0
 11
139.49848
 21
287.535696
 31
0.0
  0
LINE
  5
217
330
1F
100
AcDbEntity
  8
LC-001-100-D00-0
 62
     7
370
    50
100
AcDbLine
 10
134.547873
 20
224.535696
 30
0.0
 11
137.188871
 21
224.535696
 31
0.0
  0
LINE
  5
218
330
1F
100
AcDbEntity
  8
LC-001-100-D00-0
 62
     7
370
    50
100
AcDbLine
 10
134.547873
 20
224.535696
 30
0.0
 11
135.042789
 21
238.035696
 31
0.0
  0
LINE
  5
219
330
1F
100
AcDbEntity
  8
LC-001-100-D00-0
 62
     7
370
    50
100
AcDbLine
 10
135.446054
 20
249.035696
 30
0.0
 11
136.857481
 21
287.535696
 31
0.0
  0
LINE
  5
21A
330
1F
100
AcDbEntity
  8
LC-001-100-D00-0
 62
     7
370
    50
100
AcDbLine
 10
134.134046
 20
287.535696
 30
0.0
 11
132.722619
 21
249.035696
 31
0.0
  0
LINE
  5
21B
330
1F
100
AcDbEntity
  8
LC-001-100-D00-0
 62
     7
370
    50
100
AcDbLine
 10
132.319354
 20
238.035696
 30
0.0
 11
131.824438
 21
224.535696
 31
0.0
  0
LINE
  5
21C
330
1F
100
AcDbEntity
  8
LC-001-100-D00-0
 62
     7
370
    50
100
AcDbLine
 10
181.432894
 20
224.535696
 30
0.0
 11
180.937978
 21
238.035696
 31
0.0
  0
LINE
  5
21D
330
1F
100
AcDbEntity
  8
LC-001-100-D00-0
 62
     7
370
    50
100
AcDbLine
 10
180.534714
 20
249.035696
 30
0.0
 11
179.123287
 21
287.535696
 31
0.0
  0
LINE
  5
21E
330
1F
100
AcDbEntity
  8
LC-001-100-D00-0
 62
     7
370
    50
100
AcDbLine
 10
178.791896
 20
224.535696
 30
0.0
 11
181.432894
 21
224.535696
 31
0.0
  0
LINE
  5
21F
330
1F
100
AcDbEntity
  8
LC-001-100-D00-0
 62
     7
370
    50
100
AcDbLine
 10
178.791896
 20
224.535696
 30
0.0
 11
178.29698
 21
238.035696
 31
0.0
  0
LINE
  5
220
330
1F
100
AcDbEntity
  8
LC-001-100-D00-0
 62
     7
370
    50
100
AcDbLine
 10
177.893716
 20
249.035696
 30
0.0
 11
176.482287
 21
287.535696
 31
0.0
  0
LINE
  5
221
330
1F
100
AcDbEntity
  8
LC-001-100-D00-0
 62
     7
370
    50
100
AcDbLine
 10
181.846722
 20
287.535696
 30
0.0
 11
183.258149
 21
249.035696
 31
0.0
  0
LINE
  5
222
330
1F
100
AcDbEntity
  8
LC-001-100-D00-0
 62
     7
370
    50
100
AcDbLine
 10
183.661413
 20
238.035696
 30
0.0
 11
184.156329
 21
224.535696
 31
0.0
  0
LINE
  5
223
330
1F
100
AcDbEntity
  8
LC-001-100-D00-0
 62
     7
370
    50
100
AcDbLine
 10
145.525846
 20
224.535696
 30
0.0
 11
148.211055
 21
224.535696
 31
0.0
  0
LINE
  5
224
330
1F
100
AcDbEntity
  8
LC-001-100-D00-0
 62
     7
370
    50
100
AcDbLine
 10
145.525846
 20
224.535696
 30
0.0
 11
145.774668
 21
238.035696
 31
0.0
  0
LINE
  5
225
330
1F
100
AcDbEntity
  8
LC-001-100-D00-0
 62
     7
370
    50
100
AcDbLine
 10
145.97741
 20
249.035696
 30
0.0
 11
146.687011
 21
287.535696
 31
0.0
  0
LINE
  5
226
330
1F
100
AcDbEntity
  8
LC-001-100-D00-0
 62
     7
370
    50
100
AcDbLine
 10
148.211055
 20
224.535696
 30
0.0
 11
148.459877
 21
238.035696
 31
0.0
  0
LINE
  5
227
330
1F
100
AcDbEntity
  8
LC-001-100-D00-0
 62
     7
370
    50
100
AcDbLine
 10
148.66262
 20
249.035696
 30
0.0
 11
149.372221
 21
287.535696
 31
0.0
  0
LINE
  5
228
330
1F
100
AcDbEntity
  8
LC-001-100-D00-0
 62
     7
370
    50
100
AcDbLine
 10
145.317793
 20
287.535696
 30
0.0
 11
144.608192
 21
249.035696
 31
0.0
  0
LINE
  5
229
330
1F
100
AcDbEntity
  8
LC-001-100-D00-0
 62
     7
370
    50
100
AcDbLine
 10
144.405449
 20
238.035696
 30
0.0
 11
144.156628
 21
224.535696
 31
0.0
  0
LINE
  5
22A
330
1F
100
AcDbEntity
  8
LC-001-100-D00-0
 62
     7
370
    50
100
AcDbLine
 10
167.769712
 20
224.535696
 30
0.0
 11
170.454921
 21
224.535696
 31
0.0
  0
LINE
  5
22B
330
1F
100
AcDbEntity
  8
LC-001-100-D00-0
 62
     7
370
    50
100
AcDbLine
 10
167.769712
 20
224.535696
 30
0.0
 11
167.520891
 21
238.035696
 31
0.0
  0
LINE
  5
22C
330
1F
100
AcDbEntity
  8
LC-001-100-D00-0
 62
     7
370
    50
100
AcDbLine
 10
167.318147
 20
249.035696
 30
0.0
 11
166.608547
 21
287.535696
 31
0.0
  0
LINE
  5
22D
330
1F
100
AcDbEntity
  8
LC-001-100-D00-0
 62
     7
370
    50
100
AcDbLine
 10
170.454921
 20
224.535696
 30
0.0
 11
170.2061
 21
238.035696
 31
0.0
  0
LINE
  5
22E
330
1F
100
AcDbEntity
  8
LC-001-100-D00-0
 62
     7
370
    50
100
AcDbLine
 10
170.003357
 20
249.035696
 30
0.0
 11
169.293756
 21
287.535696
 31
0.0
  0
LINE
  5
22F
330
1F
100
AcDbEntity
  8
LC-001-100-D00-0
 62
     7
370
    50
100
AcDbLine
 10
170.662975
 20
287.535696
 30
0.0
 11
171.372576
 21
249.035696
 31
0.0
  0
LINE
  5
230
330
1F
100
AcDbEntity
  8
LC-001-100-D00-0
 62
     7
370
    50
100
AcDbLine
 10
171.575319
 20
238.035696
 30
0.0
 11
171.824139
 21
224.535696
 31
0.0
  0
LINE
  5
231
330
1F
100
AcDbEntity
  8
LC-001-100-D00-0
 62
     7
370
    50
100
AcDbLine
 10
222.740385
 20
162.235695
 30
0.0
 11
223.740387
 21
170.235696
 31
0.0
  0
LINE
  5
232
330
1F
100
AcDbEntity
  8
LC-001-100-D00-0
 62
     7
370
    50
100
AcDbLine
 10
223.740387
 20
170.235696
 30
0.0
 11
234.240386
 21
170.235696
 31
0.0
  0
LINE
  5
233
330
1F
100
AcDbEntity
  8
LC-001-100-D00-0
 62
     7
370
    50
100
AcDbLine
 10
234.240386
 20
170.235696
 30
0.0
 11
234.240386
 21
169.235694
 31
0.0
  0
LINE
  5
234
330
1F
100
AcDbEntity
  8
LC-001-100-D00-0
 62
     7
370
    50
100
AcDbLine
 10
234.240386
 20
169.235694
 30
0.0
 11
235.24038
 21
169.235694
 31
0.0
  0
LINE
  5
235
330
1F
100
AcDbEntity
  8
LC-001-100-D00-0
 62
     7
370
    50
100
AcDbLine
 10
235.24038
 20
169.235694
 30
0.0
 11
235.24038
 21
165.735695
 31
0.0
  0
LINE
  5
236
330
1F
100
AcDbEntity
  8
LC-001-100-D00-0
 62
     7
370
    50
100
AcDbLine
 10
235.24038
 20
165.735695
 30
0.0
 11
234.240386
 21
164.735693
 31
0.0
  0
LINE
  5
237
330
1F
100
AcDbEntity
  8
LC-001-100-D00-0
 62
     7
370
    50
100
AcDbLine
 10
234.240386
 20
164.735693
 30
0.0
 11
231.240387
 21
164.735693
 31
0.0
  0
LINE
  5
238
330
1F
100
AcDbEntity
  8
LC-001-100-D00-0
 62
     7
370
    50
100
AcDbLine
 10
231.240387
 20
164.735693
 30
0.0
 11
231.240387
 21
166.735697
 31
0.0
  0
LINE
  5
239
330
1F
100
AcDbEntity
  8
LC-001-100-D00-0
 62
     7
370
    50
100
AcDbLine
 10
231.240387
 20
166.735697
 30
0.0
 11
226.740385
 21
166.735697
 31
0.0
  0
LINE
  5
23A
330
1F
100
AcDbEntity
  8
LC-001-100-D00-0
 62
     7
370
    50
100
AcDbLine
 10
226.740385
 20
166.735697
 30
0.0
 11
226.740385
 21
162.235695
 31
0.0
  0
LINE
  5
23B
330
1F
100
AcDbEntity
  8
LC-001-100-D00-0
 62
     7
370
    50
100
AcDbLine
 10
226.740385
 20
162.235695
 30
0.0
 11
222.740385
 21
162.235695
 31
0.0
  0
LINE
  5
23C
330
1F
100
AcDbEntity
  8
LC-001-100-D00-0
 62
     7
370
    50
100
AcDbLine
 10
92.240381
 20
170.235696
 30
0.0
 11
93.240383
 21
162.235695
 31
0.0
  0
LINE
  5
23D
330
1F
100
AcDbEntity
  8
LC-001-100-D00-0
 62
     7
370
    50
100
AcDbLine
 10
222.740385
 20
162.235695
 30
0.0
 11
222.49038
 21
162.235695
 31
0.0
  0
LINE
  5
23E
330
1F
100
AcDbEntity
  8
LC-001-100-D00-0
 62
     7
370
    50
100
AcDbLine
 10
93.490387
 20
162.235695
 30
0.0
 11
93.240383
 21
162.235695
 31
0.0
  0
LINE
  5
23F
330
1F
100
AcDbEntity
  8
LC-001-100-D00-0
 62
     7
370
    50
100
AcDbLine
 10
81.740382
 20
164.735693
 30
0.0
 11
80.740387
 21
165.735695
 31
0.0
  0
LINE
  5
240
330
1F
100
AcDbEntity
  8
LC-001-100-D00-0
 62
     7
370
    50
100
AcDbLine
 10
89.240382
 20
162.235695
 30
0.0
 11
89.240382
 21
166.735697
 31
0.0
  0
LINE
  5
241
330
1F
100
AcDbEntity
  8
LC-001-100-D00-0
 62
     7
370
    50
100
AcDbLine
 10
89.240382
 20
166.735697
 30
0.0
 11
84.740381
 21
166.735697
 31
0.0
  0
LINE
  5
242
330
1F
100
AcDbEntity
  8
LC-001-100-D00-0
 62
     7
370
    50
100
AcDbLine
 10
84.740381
 20
166.735697
 30
0.0
 11
84.740381
 21
164.735693
 31
0.0
  0
LINE
  5
243
330
1F
100
AcDbEntity
  8
LC-001-100-D00-0
 62
     7
370
    50
100
AcDbLine
 10
84.740381
 20
164.735693
 30
0.0
 11
81.740382
 21
164.735693
 31
0.0
  0
LINE
  5
244
330
1F
100
AcDbEntity
  8
LC-001-100-D00-0
 62
     7
370
    50
100
AcDbLine
 10
80.740387
 20
165.735695
 30
0.0
 11
80.740387
 21
169.235694
 31
0.0
  0
LINE
  5
245
330
1F
100
AcDbEntity
  8
LC-001-100-D00-0
 62
     7
370
    50
100
AcDbLine
 10
80.740387
 20
169.235694
 30
0.0
 11
81.740382
 21
169.235694
 31
0.0
  0
LINE
  5
246
330
1F
100
AcDbEntity
  8
LC-001-100-D00-0
 62
     7
370
    50
100
AcDbLine
 10
81.740382
 20
169.235694
 30
0.0
 11
81.740382
 21
170.235696
 31
0.0
  0
LINE
  5
247
330
1F
100
AcDbEntity
  8
LC-001-100-D00-0
 62
     7
370
    50
100
AcDbLine
 10
81.740382
 20
170.235696
 30
0.0
 11
92.240381
 21
170.235696
 31
0.0
  0
LINE
  5
248
330
1F
100
AcDbEntity
  8
LC-001-100-D00-0
 62
     7
370
    50
100
AcDbLine
 10
93.240383
 20
162.235695
 30
0.0
 11
89.240382
 21
162.235695
 31
0.0
  0
LINE
  5
249
330
1F
100
AcDbEntity
  8
LC-001-100-D00-0
 62
     7
370
    50
100
AcDbLine
 10
221.490386
 20
150.735694
 30
0.0
 11
221.490386
 21
115.535694
 31
0.0
  0
LINE
  5
24A
330
1F
100
AcDbEntity
  8
LC-001-100-D00-0
 62
     7
370
    50
100
AcDbLine
 10
94.490382
 20
115.535694
 30
0.0
 11
94.490382
 21
150.735694
 31
0.0
  0
LINE
  5
24B
330
1F
100
AcDbEntity
  8
LC-001-100-D00-0
 62
     7
370
    50
100
AcDbLine
 10
75.49038
 20
196.535695
 30
0.0
 11
76.490382
 21
195.535696
 31
0.0
  0
LINE
  5
24C
330
1F
100
AcDbEntity
  8
LC-001-100-D00-0
 62
     7
370
    50
100
AcDbLine
 10
239.490385
 20
195.535696
 30
0.0
 11
240.490387
 21
196.535695
 31
0.0
  0
LINE
  5
24D
330
1F
100
AcDbEntity
  8
LC-001-100-D00-0
 62
     7
370
    50
100
AcDbLine
 10
239.490385
 20
181.698836
 30
0.0
 11
239.490385
 21
195.535696
 31
0.0
  0
LINE
  5
24E
330
1F
100
AcDbEntity
  8
LC-001-100-D00-0
 62
     7
370
    50
100
AcDbLine
 10
76.490382
 20
195.535696
 30
0.0
 11
76.490382
 21
181.698836
 31
0.0
  0
LINE
  5
24F
330
1F
100
AcDbEntity
  8
LC-001-100-D00-0
 62
     7
370
    50
100
AcDbLine
 10
115.490383
 20
115.535694
 30
0.0
 11
200.490384
 21
115.535694
 31
0.0
  0
LINE
  5
250
330
1F
100
AcDbEntity
  8
LC-001-100-D00-0
 62
     7
370
    50
100
AcDbLine
 10
200.490384
 20
115.535694
 30
0.0
 11
200.490384
 21
45.315695
 31
0.0
  0
LINE
  5
251
330
1F
100
AcDbEntity
  8
LC-001-100-D00-0
 62
     7
370
    50
100
AcDbLine
 10
115.490383
 20
45.315695
 30
0.0
 11
115.490383
 21
115.535694
 31
0.0
  0
ARC
  5
252
330
1F
100
AcDbEntity
  8
LC-001-100-D00-0
 62
     7
370
    50
100
AcDbCircle
 10
231.340384
 20
161.235696
 30
0.0
 40
1.0
100
AcDbArc
 50
90.0
 51
180.0
  0
ARC
  5
253
330
1F
100
AcDbEntity
  8
LC-001-100-D00-0
 62
     7
370
    50
100
AcDbCircle
 10
84.640384
 20
161.235696
 30
0.0
 40
1.0
100
AcDbArc
 50
0.0
 51
90.0
  0
LINE
  5
254
330
1F
100
AcDbEntity
  8
LC-001-100-D00-0
 62
     7
370
    50
100
AcDbLine
 10
325.990381
 20
196.535695
 30
0.0
 11
321.990388
 21
196.535695
 31
0.0
  0
LINE
  5
255
330
1F
100
AcDbEntity
  8
LC-001-100-D00-0
 62
     7
370
    50
100
AcDbLine
 10
321.990388
 20
196.535695
 30
0.0
 11
321.990388
 21
197.535697
 31
0.0
  0
LINE
  5
256
330
1F
100
AcDbEntity
  8
LC-001-100-D00-0
 62
     7
370
    50
100
AcDbLine
 10
325.990381
 20
197.535697
 30
0.0
 11
321.990388
 21
197.535697
 31
0.0
  0
LINE
  5
257
330
1F
100
AcDbEntity
  8
LC-001-100-D00-0
 62
     7
370
    50
100
AcDbLine
 10
325.990381
 20
197.535697
 30
0.0
 11
325.990381
 21
196.535695
 31
0.0
  0
LINE
  5
258
330
1F
100
AcDbEntity
  8
LC-001-100-D00-0
 62
     7
370
    50
100
AcDbLine
 10
337.990391
 20
196.535695
 30
0.0
 11
337.990391
 21
197.535697
 31
0.0
  0
LINE
  5
259
330
1F
100
AcDbEntity
  8
LC-001-100-D00-0
 62
     7
370
    50
100
AcDbLine
 10
325.990381
 20
196.535695
 30
0.0
 11
337.990391
 21
196.535695
 31
0.0
  0
LINE
  5
25A
330
1F
100
AcDbEntity
  8
LC-001-100-D00-0
 62
     7
370
    50
100
AcDbLine
 10
325.990381
 20
197.535697
 30
0.0
 11
327.990386
 21
199.535697
 31
0.0
  0
LINE
  5
25B
330
1F
100
AcDbEntity
  8
LC-001-100-D00-0
 62
     7
370
    50
100
AcDbLine
 10
335.990387
 20
199.535697
 30
0.0
 11
327.990386
 21
199.535697
 31
0.0
  0
ARC
  5
25C
330
1F
100
AcDbEntity
  8
LC-001-100-D00-0
 62
     7
370
    50
100
AcDbCircle
 10
335.990384
 20
197.535696
 30
0.0
 40
2.0
100
AcDbArc
 50
0.0
 51
90.0
  0
LINE
  5
25D
330
1F
100
AcDbEntity
  8
LC-001-100-D00-0
 62
     7
370
    50
100
AcDbLine
 10
-10.009614
 20
196.535695
 30
0.0
 11
-10.009614
 21
197.535697
 31
0.0
  0
LINE
  5
25E
330
1F
100
AcDbEntity
  8
LC-001-100-D00-0
 62
     7
370
    15
100
AcDbLine
 10
-22.009623
 20
196.535695
 30
0.0
 11
-10.009614
 21
196.535695
 31
0.0
  0
LINE
  5
25F
330
1F
100
AcDbEntity
  8
LC-001-100-D00-0
 62
     7
370
    15
100
AcDbLine
 10
-22.009623
 20
197.535697
 30
0.0
 11
-22.009623
 21
196.535695
 31
0.0
  0
ARC
  5
260
330
1F
100
AcDbEntity
  8
LC-001-100-D00-0
 62
     7
370
    15
100
AcDbCircle
 10
-20.009616
 20
197.535696
 30
0.0
 40
2.0
100
AcDbArc
 50
90.0
 51
180.0
  0
LINE
  5
261
330
1F
100
AcDbEntity
  8
LC-001-100-D00-0
 62
     7
370
    15
100
AcDbLine
 10
-12.009618
 20
199.535697
 30
0.0
 11
-20.009619
 21
199.535697
 31
0.0
  0
LINE
  5
262
330
1F
100
AcDbEntity
  8
LC-001-100-D00-0
 62
     7
370
    50
100
AcDbLine
 10
-12.009618
 20
199.535697
 30
0.0
 11
-10.009614
 21
197.535697
 31
0.0
  0
ARC
  5
263
330
1F
100
AcDbEntity
  8
LC-001-100-D00-0
 62
     7
370
    50
100
AcDbCircle
 10
225.490384
 20
147.235696
 30
0.0
 40
1.0
100
AcDbArc
 50
90.0
 51
180.0
  0
ARC
  5
264
330
1F
100
AcDbEntity
  8
LC-001-100-D00-0
 62
     7
370
    50
100
AcDbCircle
 10
90.490384
 20
147.235696
 30
0.0
 40
1.0
100
AcDbArc
 50
0.0
 51
90.0
  0
LINE
  5
265
330
1F
100
AcDbEntity
  8
LC-001-100-D00-0
 62
     7
370
    50
100
AcDbLine
 10
224.490384
 20
112.535696
 30
0.0
 11
224.490384
 21
147.235694
 31
0.0
  0
LINE
  5
266
330
1F
100
AcDbEntity
  8
LC-001-100-D00-0
 62
     7
370
    50
100
AcDbLine
 10
91.490383
 20
147.235694
 30
0.0
 11
91.490383
 21
112.535696
 31
0.0
  0
LINE
  5
267
330
1F
100
AcDbEntity
  8
LC-001-100-D00-0
 62
     7
370
    50
100
AcDbLine
 10
76.490382
 20
181.698836
 30
0.0
 11
77.890384
 21
179.273966
 31
0.0
  0
LINE
  5
268
330
1F
100
AcDbEntity
  8
LC-001-100-D00-0
 62
     7
370
    50
100
AcDbLine
 10
238.090384
 20
179.273966
 30
0.0
 11
239.490385
 21
181.698836
 31
0.0
  0
LINE
  5
269
330
1F
100
AcDbEntity
  8
LC-001-100-D00-0
 62
     7
370
    50
100
AcDbLine
 10
238.090384
 20
113.535698
 30
0.0
 11
238.090384
 21
179.273966
 31
0.0
  0
LINE
  5
26A
330
1F
100
AcDbEntity
  8
LC-001-100-D00-0
 62
     7
370
    50
100
AcDbLine
 10
77.890384
 20
179.273966
 30
0.0
 11
77.890384
 21
113.535698
 31
0.0
  0
LINE
  5
26B
330
1F
100
AcDbEntity
  8
LC-001-100-D00-0
 62
     7
370
    50
100
AcDbLine
 10
203.090383
 20
45.315695
 30
0.0
 11
203.090383
 21
112.285699
 31
0.0
  0
LINE
  5
26C
330
1F
100
AcDbEntity
  8
LC-001-100-D00-0
 62
     7
370
    50
100
AcDbLine
 10
112.890384
 20
112.285699
 30
0.0
 11
112.890384
 21
43.035696
 31
0.0
  0
LINE
  5
26D
330
1F
100
AcDbEntity
  8
LC-001-100-D00-0
 62
     7
370
    50
100
AcDbLine
 10
112.890384
 20
43.035696
 30
0.0
 11
113.828207
 21
39.535697
 31
0.0
  0
LINE
  5
26E
330
1F
100
AcDbEntity
  8
LC-001-100-D00-0
 62
     7
370
    50
100
AcDbLine
 10
-6.009621
 20
197.535697
 30
0.0
 11
-6.009621
 21
196.535695
 31
0.0
  0
LINE
  5
26F
330
1F
100
AcDbEntity
  8
LC-001-100-D00-0
 62
     7
370
    50
100
AcDbLine
 10
-6.009621
 20
197.535697
 30
0.0
 11
-4.009617
 21
199.535697
 31
0.0
  0
LINE
  5
270
330
1F
100
AcDbEntity
  8
LC-001-100-D00-0
 62
     7
370
    50
100
AcDbLine
 10
78.240382
 20
199.535697
 30
0.0
 11
-4.009617
 21
199.535697
 31
0.0
  0
ARC
  5
271
330
1F
100
AcDbEntity
  8
LC-001-100-D00-0
 62
     7
370
    50
100
AcDbCircle
 10
78.240384
 20
198.535696
 30
0.0
 40
1.000000000000057
100
AcDbArc
 50
0.0
 51
90.0
  0
LINE
  5
272
330
1F
100
AcDbEntity
  8
LC-001-100-D00-0
 62
     7
370
    50
100
AcDbLine
 10
79.240384
 20
182.835697
 30
0.0
 11
79.240384
 21
198.535695
 31
0.0
  0
LINE
  5
273
330
1F
100
AcDbEntity
  8
LC-001-100-D00-0
 62
     7
370
    50
100
AcDbLine
 10
83.240385
 20
175.907496
 30
0.0
 11
79.240384
 21
182.835697
 31
0.0
  0
LINE
  5
274
330
1F
100
AcDbEntity
  8
LC-001-100-D00-0
 62
     7
370
    50
100
AcDbLine
 10
83.240385
 20
175.25738
 30
0.0
 11
83.240385
 21
175.907496
 31
0.0
  0
ARC
  5
275
330
1F
100
AcDbEntity
  8
LC-001-100-D00-0
 62
     7
370
    50
100
AcDbCircle
 10
82.740384
 20
175.257384
 30
0.0
 40
0.4999999999999918
100
AcDbArc
 50
300.0
 51
0.0
  0
LINE
  5
276
330
1F
100
AcDbEntity
  8
LC-001-100-D00-0
 62
     7
370
    50
100
AcDbLine
 10
82.490387
 20
174.535695
 30
0.0
 11
82.990381
 21
174.824375
 31
0.0
  0
LINE
  5
277
330
1F
100
AcDbEntity
  8
LC-001-100-D00-0
 62
     7
370
    50
100
AcDbLine
 10
82.490387
 20
170.535694
 30
0.0
 11
82.490387
 21
174.535695
 31
0.0
  0
LINE
  5
278
330
1F
100
AcDbEntity
  8
LC-001-100-D00-0
 62
     7
370
    50
100
AcDbLine
 10
81.490385
 20
169.535699
 30
0.0
 11
82.490387
 21
170.535694
 31
0.0
  0
LINE
  5
279
330
1F
100
AcDbEntity
  8
LC-001-100-D00-0
 62
     7
370
    50
100
AcDbLine
 10
81.490385
 20
164.735693
 30
0.0
 11
81.490385
 21
169.535699
 31
0.0
  0
LINE
  5
27A
330
1F
100
AcDbEntity
  8
LC-001-100-D00-0
 62
     7
370
    50
100
AcDbLine
 10
88.490384
 20
164.735693
 30
0.0
 11
81.490385
 21
164.735693
 31
0.0
  0
LINE
  5
27B
330
1F
100
AcDbEntity
  8
LC-001-100-D00-0
 62
     7
370
    50
100
AcDbLine
 10
88.490384
 20
152.735698
 30
0.0
 11
88.490384
 21
164.735693
 31
0.0
  0
ARC
  5
27C
330
1F
100
AcDbEntity
  8
LC-001-100-D00-0
 62
     7
370
    50
100
AcDbCircle
 10
89.490384
 20
152.735696
 30
0.0
 40
1.0
100
AcDbArc
 50
180.0
 51
270.0
  0
LINE
  5
27D
330
1F
100
AcDbEntity
  8
LC-001-100-D00-0
 62
     7
370
    50
100
AcDbLine
 10
93.490387
 20
151.735696
 30
0.0
 11
89.490386
 21
151.735696
 31
0.0
  0
ARC
  5
27E
330
1F
100
AcDbEntity
  8
LC-001-100-D00-0
 62
     7
370
    50
100
AcDbCircle
 10
93.490384
 20
150.735696
 30
0.0
 40
1.0
100
AcDbArc
 50
0.0
 51
90.0
  0
LINE
  5
27F
330
1F
100
AcDbEntity
  8
LC-001-100-D00-0
 62
     7
370
    50
100
AcDbLine
 10
115.490383
 20
115.535694
 30
0.0
 11
94.490382
 21
115.535694
 31
0.0
  0
LINE
  5
280
330
1F
100
AcDbEntity
  8
LC-001-100-D00-0
 62
     7
370
    50
100
AcDbLine
 10
110.911432
 20
112.535696
 30
0.0
 11
112.890384
 21
112.285699
 31
0.0
  0
LINE
  5
281
330
1F
100
AcDbEntity
  8
LC-001-100-D00-0
 62
     7
370
    50
100
AcDbLine
 10
91.490383
 20
112.535696
 30
0.0
 11
110.911432
 21
112.535696
 31
0.0
  0
LINE
  5
282
330
1F
100
AcDbEntity
  8
LC-001-100-D00-0
 62
     7
370
    50
100
AcDbLine
 10
88.140386
 20
148.235696
 30
0.0
 11
90.490381
 21
148.235696
 31
0.0
  0
ARC
  5
283
330
1F
100
AcDbEntity
  8
LC-001-100-D00-0
 62
     7
370
    50
100
AcDbCircle
 10
88.140384
 20
150.735696
 30
0.0
 40
2.5
100
AcDbArc
 50
180.0
 51
270.0
  0
LINE
  5
284
330
1F
100
AcDbEntity
  8
LC-001-100-D00-0
 62
     7
370
    50
100
AcDbLine
 10
85.640381
 20
161.235693
 30
0.0
 11
85.640381
 21
150.735694
 31
0.0
  0
LINE
  5
285
330
1F
100
AcDbEntity
  8
LC-001-100-D00-0
 62
     7
370
    50
100
AcDbLine
 10
82.156691
 20
162.235695
 30
0.0
 11
84.640386
 21
162.235695
 31
0.0
  0
ARC
  5
286
330
1F
100
AcDbEntity
  8
LC-001-100-D00-0
 62
     7
370
    50
100
AcDbCircle
 10
82.156693
 20
161.235696
 30
0.0
 40
1.0
100
AcDbArc
 50
90.0
 51
179.5
  0
LINE
  5
287
330
1F
100
AcDbEntity
  8
LC-001-100-D00-0
 62
     7
370
    50
100
AcDbLine
 10
80.740387
 20
113.535698
 30
0.0
 11
81.156733
 21
161.244425
 31
0.0
  0
LINE
  5
288
330
1F
100
AcDbEntity
  8
LC-001-100-D00-0
 62
     7
370
    50
100
AcDbLine
 10
77.890384
 20
113.535698
 30
0.0
 11
80.740387
 21
113.535698
 31
0.0
  0
LINE
  5
289
330
1F
100
AcDbEntity
  8
LC-001-100-D00-0
 62
     7
370
    50
100
AcDbLine
 10
-6.009621
 20
196.535695
 30
0.0
 11
75.49038
 21
196.535695
 31
0.0
  0
LINE
  5
28A
330
1F
100
AcDbEntity
  8
LC-001-100-D00-0
 62
     7
370
    50
100
AcDbLine
 10
113.828207
 20
39.535697
 30
0.0
 11
114.024653
 21
39.535697
 31
0.0
  0
LINE
  5
28B
330
1F
100
AcDbEntity
  8
LC-001-100-D00-0
 62
     7
370
    50
100
AcDbLine
 10
236.740383
 20
198.535695
 30
0.0
 11
236.740383
 21
182.835697
 31
0.0
  0
LINE
  5
28C
330
1F
100
AcDbEntity
  8
LC-001-100-D00-0
 62
     7
370
    50
100
AcDbLine
 10
79.240384
 20
182.835697
 30
0.0
 11
80.990384
 21
182.835697
 31
0.0
  0
LINE
  5
28D
330
1F
100
AcDbEntity
  8
LC-001-100-D00-0
 62
     7
370
    50
100
AcDbLine
 10
234.990383
 20
182.835697
 30
0.0
 11
236.740383
 21
182.835697
 31
0.0
  0
LINE
  5
28E
330
1F
100
AcDbEntity
  8
LC-001-100-D00-0
 62
     7
370
    50
100
AcDbLine
 10
82.490387
 20
174.535695
 30
0.0
 11
89.490386
 21
174.535695
 31
0.0
  0
LINE
  5
28F
330
1F
100
AcDbEntity
  8
LC-001-100-D00-0
 62
     7
370
    50
100
AcDbLine
 10
226.490381
 20
174.535695
 30
0.0
 11
233.49038
 21
174.535695
 31
0.0
  0
LINE
  5
290
330
1F
100
AcDbEntity
  8
LC-001-100-D00-0
 62
     7
370
    50
100
AcDbLine
 10
233.49038
 20
174.535695
 30
0.0
 11
233.49038
 21
170.535694
 31
0.0
  0
LINE
  5
291
330
1F
100
AcDbEntity
  8
LC-001-100-D00-0
 62
     7
370
    50
100
AcDbLine
 10
82.490387
 20
170.535694
 30
0.0
 11
86.183349
 21
170.535694
 31
0.0
  0
LINE
  5
292
330
1F
100
AcDbEntity
  8
LC-001-100-D00-0
 62
     7
370
    50
100
AcDbLine
 10
229.797418
 20
170.535694
 30
0.0
 11
233.49038
 21
170.535694
 31
0.0
  0
ARC
  5
293
330
1F
100
AcDbEntity
  8
LC-001-100-D00-0
 62
     7
370
    50
100
AcDbCircle
 10
226.490384
 20
152.735696
 30
0.0
 40
1.0
100
AcDbArc
 50
270.0
 51
0.0
  0
LINE
  5
294
330
1F
100
AcDbEntity
  8
LC-001-100-D00-0
 62
     7
370
    50
100
AcDbLine
 10
-6.009621
 20
196.535695
 30
0.0
 11
-10.009614
 21
196.535695
 31
0.0
  0
LINE
  5
295
330
1F
100
AcDbEntity
  8
LC-001-100-D00-0
 62
     7
370
    50
100
AcDbLine
 10
-6.009621
 20
197.535697
 30
0.0
 11
-10.009614
 21
197.535697
 31
0.0
  0
LINE
  5
296
330
1F
100
AcDbEntity
  8
LC-001-100-D00-0
 62
     7
370
    50
100
AcDbLine
 10
81.490385
 20
169.535699
 30
0.0
 11
81.740382
 21
169.535699
 31
0.0
  0
LINE
  5
297
330
1F
100
AcDbEntity
  8
LC-001-100-D00-0
 62
     7
370
    50
100
AcDbLine
 10
234.240386
 20
169.535699
 30
0.0
 11
234.490382
 21
169.535699
 31
0.0
  0
LINE
  5
298
330
1F
100
AcDbEntity
  8
LC-001-100-D00-0
 62
     7
370
    50
100
AcDbLine
 10
234.490382
 20
169.535699
 30
0.0
 11
234.490382
 21
164.735693
 31
0.0
  0
LINE
  5
299
330
1F
100
AcDbEntity
  8
LC-001-100-D00-0
 62
     7
370
    50
100
AcDbLine
 10
233.49038
 20
170.535694
 30
0.0
 11
234.490382
 21
169.535699
 31
0.0
  0
LINE
  5
29A
330
1F
100
AcDbEntity
  8
LC-001-100-D00-0
 62
     7
370
    50
100
AcDbLine
 10
83.240385
 20
175.907496
 30
0.0
 11
89.490386
 21
175.907496
 31
0.0
  0
LINE
  5
29B
330
1F
100
AcDbEntity
  8
LC-001-100-D00-0
 62
     7
370
    50
100
AcDbLine
 10
226.490381
 20
175.907496
 30
0.0
 11
232.740382
 21
175.907496
 31
0.0
  0
LINE
  5
29C
330
1F
100
AcDbEntity
  8
LC-001-100-D00-0
 62
     7
370
    50
100
AcDbLine
 10
232.740382
 20
175.907496
 30
0.0
 11
232.740382
 21
175.25738
 31
0.0
  0
LINE
  5
29D
330
1F
100
AcDbEntity
  8
LC-001-100-D00-0
 62
     7
370
    50
100
AcDbLine
 10
203.090383
 20
112.285699
 30
0.0
 11
205.069336
 21
112.535696
 31
0.0
  0
ARC
  5
29E
330
1F
100
AcDbEntity
  8
LC-001-100-D00-0
 62
     7
370
    50
100
AcDbCircle
 10
233.240384
 20
175.257384
 30
0.0
 40
0.5
100
AcDbArc
 50
180.0
 51
240.0
  0
LINE
  5
29F
330
1F
100
AcDbEntity
  8
LC-001-100-D00-0
 62
     7
370
    50
100
AcDbLine
 10
236.740383
 20
182.835697
 30
0.0
 11
232.740382
 21
175.907496
 31
0.0
  0
LINE
  5
2A0
330
1F
100
AcDbEntity
  8
LC-001-100-D00-0
 62
     7
370
    50
100
AcDbLine
 10
230.340387
 20
150.735694
 30
0.0
 11
230.340387
 21
161.235693
 31
0.0
  0
LINE
  5
2A1
330
1F
100
AcDbEntity
  8
LC-001-100-D00-0
 62
     7
370
    50
100
AcDbLine
 10
235.24038
 20
113.535698
 30
0.0
 11
238.090384
 21
113.535698
 31
0.0
  0
LINE
  5
2A2
330
1F
100
AcDbEntity
  8
LC-001-100-D00-0
 62
     7
370
    50
100
AcDbLine
 10
234.824034
 20
161.244425
 30
0.0
 11
235.24038
 21
113.535698
 31
0.0
  0
ARC
  5
2A3
330
1F
100
AcDbEntity
  8
LC-001-100-D00-0
 62
     7
370
    50
100
AcDbCircle
 10
233.824074
 20
161.235696
 30
0.0
 40
1.000000000000006
100
AcDbArc
 50
0.5
 51
90.0
  0
LINE
  5
2A4
330
1F
100
AcDbEntity
  8
LC-001-100-D00-0
 62
     7
370
    50
100
AcDbLine
 10
231.340381
 20
162.235695
 30
0.0
 11
233.824077
 21
162.235695
 31
0.0
  0
ARC
  5
2A5
330
1F
100
AcDbEntity
  8
LC-001-100-D00-0
 62
     7
370
    50
100
AcDbCircle
 10
227.840384
 20
150.735696
 30
0.0
 40
2.5
100
AcDbArc
 50
270.0
 51
0.0
  0
LINE
  5
2A6
330
1F
100
AcDbEntity
  8
LC-001-100-D00-0
 62
     7
370
    50
100
AcDbLine
 10
225.490386
 20
148.235696
 30
0.0
 11
227.840381
 21
148.235696
 31
0.0
  0
LINE
  5
2A7
330
1F
100
AcDbEntity
  8
LC-001-100-D00-0
 62
     7
370
    50
100
AcDbLine
 10
205.069336
 20
112.535696
 30
0.0
 11
224.490384
 21
112.535696
 31
0.0
  0
ARC
  5
2A8
330
1F
100
AcDbEntity
  8
LC-001-100-D00-0
 62
     7
370
    50
100
AcDbCircle
 10
222.490384
 20
150.735696
 30
0.0
 40
1.0
100
AcDbArc
 50
90.0
 51
180.0
  0
LINE
  5
2A9
330
1F
100
AcDbEntity
  8
LC-001-100-D00-0
 62
     7
370
    50
100
AcDbLine
 10
226.490381
 20
151.735696
 30
0.0
 11
222.49038
 21
151.735696
 31
0.0
  0
LINE
  5
2AA
330
1F
100
AcDbEntity
  8
LC-001-100-D00-0
 62
     7
370
    50
100
AcDbLine
 10
227.490383
 20
164.735693
 30
0.0
 11
227.490383
 21
152.735698
 31
0.0
  0
LINE
  5
2AB
330
1F
100
AcDbEntity
  8
LC-001-100-D00-0
 62
     7
370
    50
100
AcDbLine
 10
232.990387
 20
174.824375
 30
0.0
 11
233.49038
 21
174.535695
 31
0.0
  0
ARC
  5
2AC
330
1F
100
AcDbEntity
  8
LC-001-100-D00-0
 62
     7
370
    50
100
AcDbCircle
 10
237.740384
 20
198.535696
 30
0.0
 40
1.0
100
AcDbArc
 50
90.0
 51
180.0
  0
LINE
  5
2AD
330
1F
100
AcDbEntity
  8
LC-001-100-D00-0
 62
     7
370
    50
100
AcDbLine
 10
319.990384
 20
199.535697
 30
0.0
 11
237.740385
 21
199.535697
 31
0.0
  0
LINE
  5
2AE
330
1F
100
AcDbEntity
  8
LC-001-100-D00-0
 62
     7
370
    50
100
AcDbLine
 10
319.990384
 20
199.535697
 30
0.0
 11
321.990388
 21
197.535697
 31
0.0
  0
LINE
  5
2AF
330
1F
100
AcDbEntity
  8
LC-001-100-D00-0
 62
     7
370
    50
100
AcDbLine
 10
221.490386
 20
115.535694
 30
0.0
 11
200.490384
 21
115.535694
 31
0.0
  0
LINE
  5
2B0
330
1F
100
AcDbEntity
  8
LC-001-100-D00-0
 62
     7
370
    50
100
AcDbLine
 10
240.490387
 20
196.535695
 30
0.0
 11
321.990388
 21
196.535695
 31
0.0
  0
LINE
  5
2B1
330
1F
100
AcDbEntity
  8
LC-001-100-D00-0
 62
     7
370
    50
100
AcDbLine
 10
234.490382
 20
164.735693
 30
0.0
 11
227.490383
 21
164.735693
 31
0.0
  0
LINE
  5
2B2
330
1F
100
AcDbEntity
  8
LC-001-100-D00-0
 62
     7
370
    50
100
AcDbLine
 10
88.490384
 20
164.735693
 30
0.0
 11
89.240382
 21
164.735693
 31
0.0
  0
LINE
  5
2B3
330
1F
100
AcDbEntity
  8
LC-001-100-D00-0
 62
     7
370
    50
100
AcDbLine
 10
226.740385
 20
164.735693
 30
0.0
 11
227.490383
 21
164.735693
 31
0.0
  0
LINE
  5
2B4
330
1F
100
AcDbEntity
  8
LC-001-100-D00-0
 62
     7
370
    50
100
AcDbLine
 10
93.490387
 20
151.735696
 30
0.0
 11
222.49038
 21
151.735696
 31
0.0
  0
LINE
  5
2B5
330
1F
100
AcDbEntity
  8
LC-001-100-D00-0
 62
     7
370
    50
100
AcDbLine
 10
78.240382
 20
199.535697
 30
0.0
 11
80.990384
 21
199.535697
 31
0.0
  0
LINE
  5
2B6
330
1F
100
AcDbEntity
  8
LC-001-100-D00-0
 62
     7
370
    50
100
AcDbLine
 10
234.990383
 20
199.535697
 30
0.0
 11
237.740385
 21
199.535697
 31
0.0
  0
LINE
  5
2B7
330
1F
100
AcDbEntity
  8
LC-001-100-D00-0
 62
     7
370
    50
100
AcDbLine
 10
-12.009618
 20
199.535697
 30
0.0
 11
-4.009617
 21
199.535697
 31
0.0
  0
LINE
  5
2B8
330
1F
100
AcDbEntity
  8
LC-001-100-D00-0
 62
     7
370
    50
100
AcDbLine
 10
319.990384
 20
199.535697
 30
0.0
 11
327.990386
 21
199.535697
 31
0.0
  0
LINE
  5
2B9
330
1F
100
AcDbEntity
  8
LC-001-100-D00-0
 62
     7
370
    50
100
AcDbLine
 10
234.990383
 20
199.535697
 30
0.0
 11
234.990383
 21
196.035697
 31
0.0
  0
LINE
  5
2BA
330
1F
100
AcDbEntity
  8
LC-001-100-D00-0
 62
     7
370
    50
100
AcDbLine
 10
234.990383
 20
196.035697
 30
0.0
 11
227.990384
 21
196.035697
 31
0.0
  0
LINE
  5
2BB
330
1F
100
AcDbEntity
  8
LC-001-100-D00-0
 62
     7
370
    50
100
AcDbLine
 10
227.990384
 20
185.535695
 30
0.0
 11
234.990383
 21
185.535695
 31
0.0
  0
LINE
  5
2BC
330
1F
100
AcDbEntity
  8
LC-001-100-D00-0
 62
     7
370
    50
100
AcDbLine
 10
234.990383
 20
185.535695
 30
0.0
 11
234.990383
 21
182.035695
 31
0.0
  0
LINE
  5
2BD
330
1F
100
AcDbEntity
  8
LC-001-100-D00-0
 62
     7
370
    50
100
AcDbLine
 10
234.990383
 20
182.035695
 30
0.0
 11
226.490381
 21
182.035695
 31
0.0
  0
LINE
  5
2BE
330
1F
100
AcDbEntity
  8
LC-001-100-D00-0
 62
     7
370
    50
100
AcDbLine
 10
226.490381
 20
182.035695
 30
0.0
 11
226.490381
 21
170.035693
 31
0.0
  0
LINE
  5
2BF
330
1F
100
AcDbEntity
  8
LC-001-100-D00-0
 62
     7
370
    50
100
AcDbLine
 10
226.490381
 20
170.035693
 30
0.0
 11
223.490382
 21
170.035693
 31
0.0
  0
LINE
  5
2C0
330
1F
100
AcDbEntity
  8
LC-001-100-D00-0
 62
     7
370
    50
100
AcDbLine
 10
223.490382
 20
170.035693
 30
0.0
 11
221.490386
 21
172.035697
 31
0.0
  0
LINE
  5
2C1
330
1F
100
AcDbEntity
  8
LC-001-100-D00-0
 62
     7
370
    50
100
AcDbLine
 10
221.490386
 20
172.035697
 30
0.0
 11
221.490386
 21
212.035696
 31
0.0
  0
LINE
  5
2C2
330
1F
100
AcDbEntity
  8
LC-001-100-D00-0
 62
     7
370
    50
100
AcDbLine
 10
221.490386
 20
212.035696
 30
0.0
 11
223.490382
 21
214.035696
 31
0.0
  0
LINE
  5
2C3
330
1F
100
AcDbEntity
  8
LC-001-100-D00-0
 62
     7
370
    50
100
AcDbLine
 10
223.490382
 20
214.035696
 30
0.0
 11
225.240382
 21
214.035696
 31
0.0
  0
LINE
  5
2C4
330
1F
100
AcDbEntity
  8
LC-001-100-D00-0
 62
     7
370
    50
100
AcDbLine
 10
225.240382
 20
214.035696
 30
0.0
 11
225.240382
 21
199.535697
 31
0.0
  0
LINE
  5
2C5
330
1F
100
AcDbEntity
  8
LC-001-100-D00-0
 62
     7
370
    50
100
AcDbLine
 10
225.240382
 20
199.535697
 30
0.0
 11
234.990383
 21
199.535697
 31
0.0
  0
LINE
  5
2C6
330
1F
100
AcDbEntity
  8
LC-001-100-D00-0
 62
     7
370
    50
100
AcDbLine
 10
90.740385
 20
199.535697
 30
0.0
 11
90.740385
 21
214.035696
 31
0.0
  0
LINE
  5
2C7
330
1F
100
AcDbEntity
  8
LC-001-100-D00-0
 62
     7
370
    50
100
AcDbLine
 10
90.740385
 20
214.035696
 30
0.0
 11
92.490385
 21
214.035696
 31
0.0
  0
LINE
  5
2C8
330
1F
100
AcDbEntity
  8
LC-001-100-D00-0
 62
     7
370
    50
100
AcDbLine
 10
92.490385
 20
214.035696
 30
0.0
 11
94.490382
 21
212.035696
 31
0.0
  0
LINE
  5
2C9
330
1F
100
AcDbEntity
  8
LC-001-100-D00-0
 62
     7
370
    50
100
AcDbLine
 10
94.490382
 20
212.035696
 30
0.0
 11
94.490382
 21
172.035697
 31
0.0
  0
LINE
  5
2CA
330
1F
100
AcDbEntity
  8
LC-001-100-D00-0
 62
     7
370
    50
100
AcDbLine
 10
94.490382
 20
172.035697
 30
0.0
 11
92.490385
 21
170.035693
 31
0.0
  0
LINE
  5
2CB
330
1F
100
AcDbEntity
  8
LC-001-100-D00-0
 62
     7
370
    50
100
AcDbLine
 10
89.490386
 20
170.035693
 30
0.0
 11
89.490386
 21
182.035695
 31
0.0
  0
LINE
  5
2CC
330
1F
100
AcDbEntity
  8
LC-001-100-D00-0
 62
     7
370
    50
100
AcDbLine
 10
89.490386
 20
182.035695
 30
0.0
 11
80.990384
 21
182.035695
 31
0.0
  0
LINE
  5
2CD
330
1F
100
AcDbEntity
  8
LC-001-100-D00-0
 62
     7
370
    50
100
AcDbLine
 10
80.990384
 20
182.035695
 30
0.0
 11
80.990384
 21
185.535695
 31
0.0
  0
LINE
  5
2CE
330
1F
100
AcDbEntity
  8
LC-001-100-D00-0
 62
     7
370
    15
100
AcDbLine
 10
80.990384
 20
185.535695
 30
0.0
 11
87.990383
 21
185.535695
 31
0.0
  0
LINE
  5
2CF
330
1F
100
AcDbEntity
  8
LC-001-100-D00-0
 62
     7
370
    50
100
AcDbLine
 10
87.990383
 20
196.035697
 30
0.0
 11
80.990384
 21
196.035697
 31
0.0
  0
LINE
  5
2D0
330
1F
100
AcDbEntity
  8
LC-001-100-D00-0
 62
     7
370
    50
100
AcDbLine
 10
80.990384
 20
196.035697
 30
0.0
 11
80.990384
 21
199.535697
 31
0.0
  0
LINE
  5
2D1
330
1F
100
AcDbEntity
  8
LC-001-100-D00-0
 62
     7
370
    50
100
AcDbLine
 10
80.990384
 20
199.535697
 30
0.0
 11
90.740385
 21
199.535697
 31
0.0
  0
LINE
  5
2D2
330
1F
100
AcDbEntity
  8
LC-001-100-D00-0
 62
     7
370
    50
100
AcDbLine
 10
92.490385
 20
170.035693
 30
0.0
 11
89.490386
 21
170.035693
 31
0.0
  0
LINE
  5
2D3
330
1F
100
AcDbEntity
  8
LC-001-100-D00-0
 62
     7
370
    50
100
AcDbLine
 10
223.490382
 20
170.035693
 30
0.0
 11
222.49038
 21
170.035693
 31
0.0
  0
LINE
  5
2D4
330
1F
100
AcDbEntity
  8
LC-001-100-D00-0
 62
     7
370
    50
100
AcDbLine
 10
93.490387
 20
170.035693
 30
0.0
 11
92.490385
 21
170.035693
 31
0.0
  0
LINE
  5
2D5
330
1F
100
AcDbEntity
  8
LC-001-100-D00-0
 62
     7
370
    50
100
AcDbLine
 10
92.490385
 20
214.035696
 30
0.0
 11
93.490387
 21
214.035696
 31
0.0
  0
LINE
  5
2D6
330
1F
100
AcDbEntity
  8
LC-001-100-D00-0
 62
     7
370
    50
100
AcDbLine
 10
222.49038
 20
214.035696
 30
0.0
 11
223.490382
 21
214.035696
 31
0.0
  0
LINE
  5
2D7
330
1F
100
AcDbEntity
  8
LC-001-100-D00-0
 62
     7
370
    50
100
AcDbLine
 10
90.740385
 20
212.035696
 30
0.0
 11
87.854358
 21
212.035696
 31
0.0
  0
LINE
  5
2D8
330
1F
100
AcDbEntity
  8
LC-001-100-D00-0
 62
     7
370
    50
100
AcDbLine
 10
87.854358
 20
212.035696
 30
0.0
 11
87.854358
 21
214.035696
 31
0.0
  0
LINE
  5
2D9
330
1F
100
AcDbEntity
  8
LC-001-100-D00-0
 62
     7
370
    50
100
AcDbLine
 10
90.740385
 20
214.035696
 30
0.0
 11
87.854358
 21
214.035696
 31
0.0
  0
LINE
  5
2DA
330
1F
100
AcDbEntity
  8
LC-001-100-D00-0
 62
     7
370
    50
100
AcDbLine
 10
228.126409
 20
212.035696
 30
0.0
 11
225.240382
 21
212.035696
 31
0.0
  0
LINE
  5
2DB
330
1F
100
AcDbEntity
  8
LC-001-100-D00-0
 62
     7
370
    50
100
AcDbLine
 10
228.126409
 20
212.035696
 30
0.0
 11
228.126409
 21
214.035696
 31
0.0
  0
LINE
  5
2DC
330
1F
100
AcDbEntity
  8
LC-001-100-D00-0
 62
     7
370
    50
100
AcDbLine
 10
228.126409
 20
214.035696
 30
0.0
 11
225.240382
 21
214.035696
 31
0.0
  0
LINE
  5
2DD
330
1F
100
AcDbEntity
  8
LC-001-100-D00-0
 62
     7
370
    50
100
AcDbLine
 10
229.797418
 20
173.785697
 30
0.0
 11
229.797418
 21
170.235696
 31
0.0
  0
LINE
  5
2DE
330
1F
100
AcDbEntity
  8
LC-001-100-D00-0
 62
     7
370
    50
100
AcDbLine
 10
226.490381
 20
173.785697
 30
0.0
 11
229.797418
 21
173.785697
 31
0.0
  0
LINE
  5
2DF
330
1F
100
AcDbEntity
  8
LC-001-100-D00-0
 62
     7
370
    50
100
AcDbLine
 10
86.183349
 20
173.785697
 30
0.0
 11
89.490386
 21
173.785697
 31
0.0
  0
LINE
  5
2E0
330
1F
100
AcDbEntity
  8
LC-001-100-D00-0
 62
     7
370
    50
100
AcDbLine
 10
86.183349
 20
173.785697
 30
0.0
 11
86.183349
 21
170.235696
 31
0.0
  0
LINE
  5
2E1
330
1F
100
AcDbEntity
  8
LC-001-100-D00-0
 62
     7
370
    50
100
AcDbLine
 10
166.990383
 20
208.935696
 30
0.0
 11
148.990384
 21
208.935696
 31
0.0
  0
LINE
  5
2E2
330
1F
100
AcDbEntity
  8
LC-001-100-D00-0
 62
     7
370
    50
100
AcDbLine
 10
163.040384
 20
205.935697
 30
0.0
 11
152.940384
 21
205.935697
 31
0.0
  0
ARC
  5
2E3
330
1F
100
AcDbEntity
  8
LC-001-100-D00-0
 62
     7
370
    50
100
AcDbCircle
 10
158.045113
 20
210.967074
 30
0.0
 40
6.711791631635085
100
AcDbArc
 50
296.427926
 51
303.742196
  0
ARC
  5
2E4
330
1F
100
AcDbEntity
  8
LC-001-100-D00-0
 62
     7
370
    50
100
AcDbCircle
 10
161.700445
 20
205.497193
 30
0.0
 40
0.1329643086220626
100
AcDbArc
 50
236.814142
 51
303.185858
  0
ARC
  5
2E5
330
1F
100
AcDbEntity
  8
LC-001-100-D00-0
 62
     7
370
    50
100
AcDbCircle
 10
157.899555
 20
210.967074
 30
0.0
 40
6.711791631635085
100
AcDbArc
 50
296.427926
 51
303.742196
  0
ARC
  5
2E6
330
1F
100
AcDbEntity
  8
LC-001-100-D00-0
 62
     7
370
    50
100
AcDbCircle
 10
157.931572
 20
210.95945
 30
0.0
 40
6.703147117696378
100
AcDbArc
 50
239.756146
 51
243.574324
  0
LINE
  5
2E7
330
1F
100
AcDbEntity
  8
LC-001-100-D00-0
 62
     7
370
    50
100
AcDbLine
 10
160.797259
 20
204.935695
 30
0.0
 11
155.03795
 21
204.935695
 31
0.0
  0
INSERT
  5
2F3
330
1F
100
AcDbEntity
  8
LC-001-100-D00-0
 62
     7
370
    50
100
AcDbBlockReference
  2
POLY3
 10
0.0
 20
0.0
 30
0.0
  0
INSERT
  5
2FF
330
1F
100
AcDbEntity
  8
LC-001-100-D00-0
 62
     7
370
    50
100
AcDbBlockReference
  2
POLY4
 10
0.0
 20
0.0
 30
0.0
  0
INSERT
  5
30B
330
1F
100
AcDbEntity
  8
LC-001-100-D00-0
 62
     7
370
    50
100
AcDbBlockReference
  2
POLY5
 10
0.0
 20
0.0
 30
0.0
  0
LINE
  5
30C
330
1F
100
AcDbEntity
  8
LC-001-100-D00-0
 62
     7
370
    50
100
AcDbLine
 10
160.797259
 20
204.935695
 30
0.0
 11
160.942817
 21
204.935695
 31
0.0
  0
LINE
  5
30D
330
1F
100
AcDbEntity
  8
LC-001-100-D00-0
 62
     7
370
    50
100
AcDbLine
 10
152.940384
 20
299.135695
 30
0.0
 11
163.040383
 21
299.135695
 31
0.0
  0
LINE
  5
30E
330
1F
100
AcDbEntity
  8
LC-001-100-D00-0
 62
     7
370
    50
100
AcDbLine
 10
157.490384
 20
300.114694
 30
0.0
 11
157.490384
 21
299.685477
 31
0.0
  0
ARC
  5
30F
330
1F
100
AcDbEntity
  8
LC-001-100-D00-0
 62
     7
370
    50
100
AcDbCircle
 10
157.990384
 20
294.010696
 30
0.0
 40
5.696764432552977
100
AcDbArc
 50
84.964721
 51
95.035279
  0
LINE
  5
310
330
1F
100
AcDbEntity
  8
LC-001-100-D00-0
 62
     7
370
    50
100
AcDbLine
 10
158.490384
 20
299.685477
 30
0.0
 11
158.490384
 21
300.114694
 31
0.0
  0
LINE
  5
311
330
1F
100
AcDbEntity
  8
LC-001-100-D00-0
 62
     7
370
    50
100
AcDbLine
 10
158.490384
 20
300.135697
 30
0.0
 11
160.943671
 21
300.135697
 31
0.0
  0
INSERT
  5
31D
330
1F
100
AcDbEntity
  8
LC-001-100-D00-0
 62
     7
370
    50
100
AcDbBlockReference
  2
POLY6
 10
0.0
 20
0.0
 30
0.0
  0
LINE
  5
31E
330
1F
100
AcDbEntity
  8
LC-001-100-D00-0
 62
     7
370
    50
100
AcDbLine
 10
155.037097
 20
300.135697
 30
0.0
 11
157.490384
 21
300.135697
 31
0.0
  0
INSERT
  5
32A
330
1F
100
AcDbEntity
  8
LC-001-100-D00-0
 62
     7
370
    50
100
AcDbBlockReference
  2
POLY7
 10
0.0
 20
0.0
 30
0.0
  0
INSERT
  5
334
330
1F
100
AcDbEntity
  8
LC-001-100-D00-0
 62
     7
370
    25
100
AcDbBlockReference
  2
KLON1
 10
0.0
 20
0.0
 30
0.0
  0
INSERT
  5
33F
330
1F
100
AcDbEntity
  8
LC-001-100-D00-0
 62
     7
370
    25
100
AcDbBlockReference
  2
KLON2
 10
0.0
 20
0.0
 30
0.0
  0
INSERT
  5
366
330
1F
100
AcDbEntity
  8
LC-001-100-D00-0
 62
     7
370
    25
100
AcDbBlockReference
  2
KLON3
 10
0.0
 20
0.0
 30
0.0
  0
INSERT
  5
36C
330
1F
100
AcDbEntity
  8
LC-001-100-D00-0
 62
     7
370
    -2
100
AcDbBlockReference
  2
KLON4
 10
0.0
 20
0.0
 30
0.0
  0
INSERT
  5
372
330
1F
100
AcDbEntity
  8
LC-001-100-D00-0
 62
     7
370
    25
100
AcDbBlockReference
  2
KLON5
 10
0.0
 20
0.0
 30
0.0
  0
INSERT
  5
39A
330
1F
100
AcDbEntity
  8
LC-001-100-D00-0
 62
     7
370
    25
100
AcDbBlockReference
  2
KLON6
 10
0.0
 20
0.0
 30
0.0
  0
INSERT
  5
3A0
330
1F
100
AcDbEntity
  8
LC-001-100-D00-0
 62
     7
370
    25
100
AcDbBlockReference
  2
KLON7
 10
0.0
 20
0.0
 30
0.0
  0
INSERT
  5
3A6
330
1F
100
AcDbEntity
  8
LC-001-100-D00-0
 62
     7
370
    25
100
AcDbBlockReference
  2
KLON8
 10
0.0
 20
0.0
 30
0.0
  0
INSERT
  5
3B4
330
1F
100
AcDbEntity
  8
LC-001-100-D00-0
 62
     7
370
    25
100
AcDbBlockReference
  2
KLON9
 10
0.0
 20
0.0
 30
0.0
  0
INSERT
  5
3C5
330
1F
100
AcDbEntity
  8
LC-001-100-D00-0
 62
     7
370
    25
100
AcDbBlockReference
  2
KLON10
 10
0.0
 20
0.0
 30
0.0
  0
INSERT
  5
3CD
330
1F
100
AcDbEntity
  8
LC-001-100-D00-0
 62
     7
370
    25
100
AcDbBlockReference
  2
KLON11
 10
0.0
 20
0.0
 30
0.0
  0
LINE
  5
3CE
330
1F
100
AcDbEntity
  8
LC-001-100-D00-0
 62
     7
370
    25
100
AcDbLine
 10
123.490384
 20
289.145412
 30
0.0
 11
125.990384
 21
291.645412
 31
0.0
  0
LINE
  5
3CF
330
1F
100
AcDbEntity
  8
LC-001-100-D00-0
 62
     7
370
    25
100
AcDbLine
 10
189.990384
 20
292.783619
 30
0.0
 11
192.490384
 21
295.283619
 31
0.0
  0
INSERT
  5
3ED
330
1F
100
AcDbEntity
  8
LC-001-100-D00-0
 62
     7
370
    25
100
AcDbBlockReference
  2
KLON12
 10
0.0
 20
0.0
 30
0.0
  0
INSERT
  5
401
330
1F
100
AcDbEntity
  8
LC-001-100-D00-0
 62
     7
370
    25
100
AcDbBlockReference
  2
KLON13
 10
0.0
 20
0.0
 30
0.0
  0
INSERT
  5
419
330
1F
100
AcDbEntity
  8
LC-001-100-D00-0
 62
     7
370
    25
100
AcDbBlockReference
  2
KLON14
 10
0.0
 20
0.0
 30
0.0
  0
LINE
  5
41A
330
1F
100
AcDbEntity
  8
LC-001-100-D00-0
 62
     7
370
    50
100
AcDbLine
 10
225.240384
 20
202.310033
 30
0.0
 11
226.240384
 21
203.310033
 31
0.0
  0
LINE
  5
41B
330
1F
100
AcDbEntity
  8
LC-001-100-D00-0
 62
     7
370
    50
100
AcDbLine
 10
89.740384
 20
201.513875
 30
0.0
 11
90.740384
 21
202.513875
 31
0.0
  0
INSERT
  5
421
330
1F
100
AcDbEntity
  8
LC-001-100-D00-0
 62
     7
370
    25
100
AcDbBlockReference
  2
KLON15
 10
0.0
 20
0.0
 30
0.0
  0
INSERT
  5
427
330
1F
100
AcDbEntity
  8
LC-001-100-D00-0
 62
     7
370
    25
100
AcDbBlockReference
  2
KLON16
 10
0.0
 20
0.0
 30
0.0
  0
INSERT
  5
431
330
1F
100
AcDbEntity
  8
LC-001-100-D00-0
 62
     7
370
    25
100
AcDbBlockReference
  2
KLON17
 10
0.0
 20
0.0
 30
0.0
  0
INSERT
  5
43A
330
1F
100
AcDbEntity
  8
LC-001-100-D00-0
 62
     7
370
    25
100
AcDbBlockReference
  2
KLON18
 10
0.0
 20
0.0
 30
0.0
  0
LINE
  5
43C
330
1F
100
AcDbEntity
  8
LC-001-100-D00-0
  6
DASHDOT
 62
     7
370
    25
100
AcDbLine
 10
157.990384
 20
297.535694
 30
0.0
 11
157.990384
 21
45.315695
 31
0.0
  0
DIMENSION
  5
440
330
1F
100
AcDbEntity
  8
LC-002-003-----0
 62
     7
370
    25
100
AcDbDimension
  2
*D26
 10
312.990385
 20
323.651695
 30
0.0
 11
157.954937
 21
354.451695
 31
0.0
 70
   160
  1
%%c<>
 71
     5
 42
310.000002
  3
LC-DIM-L-0140-02-02
100
AcDbAlignedDimension
 13
2.990383
 23
231.035696
 33
0.0
 14
312.990385
 24
231.035696
 34
0.0
100
AcDbRotatedDimension
  0
DIMENSION
  5
44E
330
1F
100
AcDbEntity
  8
LC-002-003-----0
 62
     7
370
    25
100
AcDbDimension
  2
*D27
 10
337.990391
 20
375.329695
 30
0.0
 11
154.760299
 21
406.129695
 31
0.0
 70
   160
  1
%%c<>
 71
     5
 42
360.000014
  3
LC-DIM-L-0140-02-02
100
AcDbAlignedDimension
 13
-22.009623
 23
196.535695
 33
0.0
 14
337.990391
 24
196.535695
 34
0.0
100
AcDbRotatedDimension
  0
DIMENSION
  5
45B
330
1F
100
AcDbEntity
  8
LC-002-003-----0
 62
     7
370
    25
100
AcDbDimension
  2
*D28
 10
238.090384
 20
-70.170305
 30
0.0
 11
146.241267
 21
-39.370305
 31
0.0
 70
   160
  1
%%c160
 71
     5
 42
160.2
  3
LC-DIM-L-0140-02-02
100
AcDbAlignedDimension
 13
77.890384
 23
113.535698
 33
0.0
 14
238.090384
 24
113.535698
 34
0.0
100
AcDbRotatedDimension
  0
DIMENSION
  5
468
330
1F
100
AcDbEntity
  8
LC-002-003-----0
 62
     7
370
    25
100
AcDbDimension
  2
*D29
 10
-44.372084
 20
199.535697
 30
0.0
 11
-75.172084
 21
297.515695
 31
0.0
 70
   160
  1
35-75
 71
     5
 42
34.999999
 53
90.0
  3
LC-DIM-L-0140-02-02
100
AcDbAlignedDimension
 13
6.990391
 23
234.535696
 33
0.0
 14
-12.009618
 24
199.535697
 34
0.0
 50
90.0
100
AcDbRotatedDimension
  0
DIMENSION
  5
476
330
1F
100
AcDbEntity
  8
LC-002-003-----0
 62
     7
370
    25
100
AcDbDimension
  2
*D30
 10
2.482595
 20
103.535692
 30
0.0
 11
-28.317405
 21
149.015695
 31
0.0
 70
   160
 71
     5
 42
96.000005
 53
90.0
  3
LC-DIM-L-0140-02-02
100
AcDbAlignedDimension
 13
-12.009618
 23
199.535697
 33
0.0
 14
85.990387
 24
103.535692
 34
0.0
 50
90.0
100
AcDbRotatedDimension
  0
DIMENSION
  5
483
330
1F
100
AcDbEntity
  8
LC-002-003-----0
 62
     7
370
    25
100
AcDbDimension
  2
*D31
 10
-69.929181
 20
39.535697
 30
0.0
 11
-100.729181
 21
120.503695
 31
0.0
 70
   160
 71
     5
 42
160.0
 53
90.0
  3
LC-DIM-L-0140-02-02
100
AcDbAlignedDimension
 13
-12.009618
 23
199.535697
 33
0.0
 14
115.490383
 24
39.535697
 34
0.0
 50
90.0
100
AcDbRotatedDimension
  0
DIMENSION
  5
490
330
1F
100
AcDbEntity
  8
LC-002-003-----0
 62
     7
370
    25
100
AcDbDimension
  2
*D32
 10
203.090383
 20
0.515695
 30
0.0
 11
157.954937
 21
31.315695
 31
0.0
 70
   160
  1
DN90
 71
     5
 42
90.2
  3
LC-DIM-L-0140-02-02
100
AcDbAlignedDimension
 13
112.890384
 23
45.058753
 33
0.0
 14
203.090383
 24
43.035696
 34
0.0
100
AcDbRotatedDimension
  0
ENDSEC
  0
SECTION
  2
OBJECTS
  0
DICTIONARY
  5
C
330
0
100
AcDbDictionary
281
     1
  3
ACAD_GROUP
350
D
  3
ACAD_LAYOUT
350
1A
  3
ACAD_MLINESTYLE
350
17
  3
ACAD_PLOTSETTINGS
350
19
  3
ACAD_PLOTSTYLENAME
350
E
  0
DICTIONARY
  5
D
102
{ACAD_REACTORS
330
C
102
}
330
C
100
AcDbDictionary
281
     1
  0
DICTIONARY
  5
1A
102
{ACAD_REACTORS
330
C
102
}
330
C
100
AcDbDictionary
281
     1
  3
Layout1
350
1E
  3
Layout2
350
26
  3
Model
350
22
  0
DICTIONARY
  5
17
102
{ACAD_REACTORS
330
C
102
}
330
C
100
AcDbDictionary
281
     1
  3
Standard
350
18
  0
DICTIONARY
  5
19
102
{ACAD_REACTORS
330
C
102
}
330
C
100
AcDbDictionary
281
     1
  0
ACDBDICTIONARYWDFLT
  5
E
102
{ACAD_REACTORS
330
C
102
}
330
C
100
AcDbDictionary
281
     1
  3
Normal
350
F
100
AcDbDictionaryWithDefault
340
F
  0
LAYOUT
  5
1E
102
{ACAD_REACTORS
330
1A
102
}
330
1A
100
AcDbPlotSettings
  1

  2

  4

  6

 40
0.0
 41
0.0
 42
0.0
 43
0.0
 44
0.0
 45
0.0
 46
0.0
 47
0.0
 48
0.0
 49
0.0
140
0.0
141
0.0
142
1.0
143
1.0
 70
   688
 72
     0
 73
     0
 74
     5
  7

 75
    16
147
1.0
148
0.0
149
0.0
100
AcDbLayout
  1
Layout1
 70
     1
 71
     1
 10
-237.552845
 20
-164.616305
 11
602.447155
 21
429.383695
 12
0.0
 22
0.0
 32
0.0
 14
-237.552845
 24
-164.616305
 34
0.0
 15
602.447155
 25
429.383695
 35
0.0
146
0.0
 13
0.0
 23
0.0
 33
0.0
 16
1.0
 26
0.0
 36
0.0
 17
0.0
 27
1.0
 37
0.0
 76
     0
330
1B
  0
LAYOUT
  5
26
102
{ACAD_REACTORS
330
1A
102
}
330
1A
100
AcDbPlotSettings
  1

  2

  4

  6

 40
0.0
 41
0.0
 42
0.0
 43
0.0
 44
0.0
 45
0.0
 46
0.0
 47
0.0
 48
0.0
 49
0.0
140
0.0
141
0.0
142
1.0
143
1.0
 70
   688
 72
     0
 73
     0
 74
     5
  7

 75
    16
147
1.0
148
0.0
149
0.0
100
AcDbLayout
  1
Layout2
 70
     1
 71
     2
 10
0.0
 20
0.0
 11
0.0
 21
0.0
 12
0.0
 22
0.0
 32
0.0
 14
0.0
 24
0.0
 34
0.0
 15
0.0
 25
0.0
 35
0.0
146
0.0
 13
0.0
 23
0.0
 33
0.0
 16
1.0
 26
0.0
 36
0.0
 17
0.0
 27
1.0
 37
0.0
 76
     0
330
23
  0
LAYOUT
  5
22
102
{ACAD_REACTORS
330
1A
102
}
330
1A
100
AcDbPlotSettings
  1

  2

  4

  6

 40
0.0
 41
0.0
 42
0.0
 43
0.0
 44
0.0
 45
0.0
 46
0.0
 47
0.0
 48
0.0
 49
0.0
140
0.0
141
0.0
142
1.0
143
1.0
 70
  1776
 72
     0
 73
     0
 74
     0
  7

 75
     0
147
1.0
148
0.0
149
0.0
100
AcDbLayout
  1
Model
 70
     1
 71
     0
 10
-237.552845
 20
-164.616305
 11
602.447155
 21
429.383695
 12
0.0
 22
0.0
 32
0.0
 14
-237.552845
 24
-164.616305
 34
0.0
 15
602.447155
 25
429.383695
 35
0.0
146
0.0
 13
0.0
 23
0.0
 33
0.0
 16
1.0
 26
0.0
 36
0.0
 17
0.0
 27
1.0
 37
0.0
 76
     0
330
1F
  0
MLINESTYLE
  5
18
102
{ACAD_REACTORS
330
17
102
}
330
17
100
AcDbMlineStyle
  2
Standard
 70
     0
  3

 62
   256
 51
90.0
 52
90.0
 71
     2
 49
0.5
 62
   256
  6
BYLAYER
 49
-0.5
 62
   256
  6
BYLAYER
  0
ACDBPLACEHOLDER
  5
F
102
{ACAD_REACTORS
330
E
102
}
330
E
  0
ENDSEC
  0
EOF
