  0
SECTION
  2
HEADER
  9
$ACADVER
  1
AC1015
  9
$ACADMAINTVER
 70
     6
  9
$DWGCODEPAGE
  3
ANSI_1252
  9
$INSBASE
 10
0.0
 20
0.0
 30
0.0
  9
$EXTMIN
 10
-290.674076
 20
-157.958237
 30
0.0
  9
$EXTMAX
 10
549.325924
 20
436.041763
 30
0.0
  9
$LIMMIN
 10
-290.674076
 20
-157.958237
  9
$LIMMAX
 10
549.325924
 20
436.041763
  9
$ORTHOMODE
 70
     0
  9
$REGENMODE
 70
     1
  9
$FILLMODE
 70
     1
  9
$QTEXTMODE
 70
     0
  9
$MIRRTEXT
 70
     1
  9
$LTSCALE
 40
2.0
  9
$ATTMODE
 70
     1
  9
$TEXTSIZE
 40
2.5
  9
$TRACEWID
 40
1.0
  9
$TEXTSTYLE
  7
Standard
  9
$CLAYER
  8
0
  9
$CELTYPE
  6
ByLayer
  9
$CECOLOR
 62
     7
  9
$CELTSCALE
 40
1.0
  9
$DISPSILH
 70
     0
  9
$DIMSCALE
 40
2.0
  9
$DIMASZ
 40
3.5
  9
$DIMEXO
 40
0.625
  9
$DIMDLI
 40
3.75
  9
$DIMRND
 40
0.0
  9
$DIMDLE
 40
0.0
  9
$DIMEXE
 40
1.25
  9
$DIMTP
 40
0.0
  9
$DIMTM
 40
0.0
  9
$DIMTXT
 40
3.5
  9
$DIMCEN
 40
2.5
  9
$DIMTSZ
 40
0.0
  9
$DIMTOL
 70
     0
  9
$DIMLIM
 70
     0
  9
$DIMTIH
 70
     0
  9
$DIMTOH
 70
     0
  9
$DIMSE1
 70
     0
  9
$DIMSE2
 70
     0
  9
$DIMTAD
 70
     1
  9
$DIMZIN
 70
     8
  9
$DIMBLK
  1

  9
$DIMASO
 70
     1
  9
$DIMSHO
 70
     1
  9
$DIMPOST
  1

  9
$DIMAPOST
  1

  9
$DIMALT
 70
     0
  9
$DIMALTD
 70
     3
  9
$DIMALTF
 40
0.03937
  9
$DIMLFAC
 40
1.0
  9
$DIMTOFL
 70
     1
  9
$DIMTVP
 40
0.0
  9
$DIMTIX
 70
     0
  9
$DIMSOXD
 70
     0
  9
$DIMSAH
 70
     0
  9
$DIMBLK1
  1

  9
$DIMBLK2
  1

  9
$DIMSTYLE
  2
ISO-25
  9
$DIMCLRD
 70
     0
  9
$DIMCLRE
 70
     0
  9
$DIMCLRT
 70
     0
  9
$DIMTFAC
 40
1.0
  9
$DIMGAP
 40
0.625
  9
$DIMJUST
 70
     0
  9
$DIMSD1
 70
     0
  9
$DIMSD2
 70
     0
  9
$DIMTOLJ
 70
     0
  9
$DIMTZIN
 70
     8
  9
$DIMALTZ
 70
     0
  9
$DIMALTTZ
 70
     0
  9
$DIMUPT
 70
     0
  9
$DIMDEC
 70
     2
  9
$DIMTDEC
 70
     2
  9
$DIMALTU
 70
     2
  9
$DIMALTTD
 70
     3
  9
$DIMTXSTY
  7
Standard
  9
$DIMAUNIT
 70
     0
  9
$DIMADEC
 70
     0
  9
$DIMALTRND
 40
0.0
  9
$DIMAZIN
 70
     0
  9
$DIMDSEP
 70
    44
  9
$DIMATFIT
 70
     3
  9
$DIMFRAC
 70
     0
  9
$DIMLDRBLK
  1

  9
$DIMLUNIT
 70
     2
  9
$DIMLWD
 70
    -2
  9
$DIMLWE
 70
    -2
  9
$DIMTMOVE
 70
     0
  9
$LUNITS
 70
     2
  9
$LUPREC
 70
     4
  9
$SKETCHINC
 40
1.0
  9
$FILLETRAD
 40
10.0
  9
$AUNITS
 70
     0
  9
$AUPREC
 70
     0
  9
$MENU
  1
.
  9
$ELEVATION
 40
0.0
  9
$PELEVATION
 40
0.0
  9
$THICKNESS
 40
0.0
  9
$LIMCHECK
 70
     0
  9
$CHAMFERA
 40
10.0
  9
$CHAMFERB
 40
10.0
  9
$CHAMFERC
 40
20.0
  9
$CHAMFERD
 40
0.0
  9
$SKPOLY
 70
     0
  9
$TDCREATE
 40
2455285.435025463
  9
$TDUCREATE
 40
2455285.35169213
  9
$TDUPDATE
 40
2455285.435025475
  9
$TDUUPDATE
 40
2455285.351692141
  9
$TDINDWG
 40
0.0000000116
  9
$TDUSRTIMER
 40
0.0000000116
  9
$USRTIMER
 70
     1
  9
$ANGBASE
 50
0.0
  9
$ANGDIR
 70
     0
  9
$PDMODE
 70
     0
  9
$PDSIZE
 40
0.0
  9
$PLINEWID
 40
0.0
  9
$SPLFRAME
 70
     0
  9
$SPLINETYPE
 70
     6
  9
$SPLINESEGS
 70
     8
  9
$HANDSEED
  5
331
  9
$SURFTAB1
 70
     6
  9
$SURFTAB2
 70
     6
  9
$SURFTYPE
 70
     6
  9
$SURFU
 70
     6
  9
$SURFV
 70
     6
  9
$UCSBASE
  2

  9
$UCSNAME
  2

  9
$UCSORG
 10
0.0
 20
0.0
 30
0.0
  9
$UCSXDIR
 10
1.0
 20
0.0
 30
0.0
  9
$UCSYDIR
 10
0.0
 20
1.0
 30
0.0
  9
$UCSORTHOREF
  2

  9
$UCSORTHOVIEW
 70
     0
  9
$UCSORGTOP
 10
0.0
 20
0.0
 30
0.0
  9
$UCSORGBOTTOM
 10
0.0
 20
0.0
 30
0.0
  9
$UCSORGLEFT
 10
0.0
 20
0.0
 30
0.0
  9
$UCSORGRIGHT
 10
0.0
 20
0.0
 30
0.0
  9
$UCSORGFRONT
 10
0.0
 20
0.0
 30
0.0
  9
$UCSORGBACK
 10
0.0
 20
0.0
 30
0.0
  9
$PUCSBASE
  2

  9
$PUCSNAME
  2

  9
$PUCSORG
 10
0.0
 20
0.0
 30
0.0
  9
$PUCSXDIR
 10
1.0
 20
0.0
 30
0.0
  9
$PUCSYDIR
 10
0.0
 20
1.0
 30
0.0
  9
$PUCSORTHOREF
  2

  9
$PUCSORTHOVIEW
 70
     0
  9
$PUCSORGTOP
 10
0.0
 20
0.0
 30
0.0
  9
$PUCSORGBOTTOM
 10
0.0
 20
0.0
 30
0.0
  9
$PUCSORGLEFT
 10
0.0
 20
0.0
 30
0.0
  9
$PUCSORGRIGHT
 10
0.0
 20
0.0
 30
0.0
  9
$PUCSORGFRONT
 10
0.0
 20
0.0
 30
0.0
  9
$PUCSORGBACK
 10
0.0
 20
0.0
 30
0.0
  9
$USERI1
 70
     0
  9
$USERI2
 70
     0
  9
$USERI3
 70
     0
  9
$USERI4
 70
     0
  9
$USERI5
 70
     0
  9
$USERR1
 40
0.0
  9
$USERR2
 40
0.0
  9
$USERR3
 40
0.0
  9
$USERR4
 40
0.0
  9
$USERR5
 40
0.0
  9
$WORLDVIEW
 70
     1
  9
$SHADEDGE
 70
     3
  9
$SHADEDIF
 70
    70
  9
$TILEMODE
 70
     1
  9
$MAXACTVP
 70
    64
  9
$PINSBASE
 10
0.0
 20
0.0
 30
0.0
  9
$PLIMCHECK
 70
     0
  9
$PEXTMIN
 10
-290.674076
 20
-157.958237
 30
0.0
  9
$PEXTMAX
 10
549.325924
 20
436.041763
 30
0.0
  9
$PLIMMIN
 10
-290.674076
 20
-157.958237
  9
$PLIMMAX
 10
549.325924
 20
436.041763
  9
$UNITMODE
 70
     0
  9
$VISRETAIN
 70
     1
  9
$PLINEGEN
 70
     0
  9
$PSLTSCALE
 70
     1
  9
$TREEDEPTH
 70
  3020
  9
$CMLSTYLE
  2
Standard
  9
$CMLJUST
 70
     0
  9
$CMLSCALE
 40
20.0
  9
$PROXYGRAPHICS
 70
     1
  9
$MEASUREMENT
 70
     1
  9
$CELWEIGHT
370
    -1
  9
$ENDCAPS
280
     0
  9
$JOINSTYLE
280
     0
  9
$LWDISPLAY
290
     0
  9
$INSUNITS
 70
     4
  9
$HYPERLINKBASE
  1

  9
$STYLESHEET
  1

  9
$XEDIT
290
     1
  9
$CEPSNTYPE
380
     0
  9
$PSTYLEMODE
290
     1
  9
$FINGERPRINTGUID
  2
{FAEB1C30-E019-11D5-929B-00C0DF256EC4}
  9
$VERSIONGUID
  2
{FAEB1C32-E019-11D5-929B-00C0DF256EC4}
  9
$EXTNAMES
290
     1
  9
$PSVPSCALE
 40
0.0
  9
$OLESTARTUP
290
     0
  0
ENDSEC
  0
SECTION
  2
CLASSES
  0
CLASS
  1
ACDBDICTIONARYWDFLT
  2
AcDbDictionaryWithDefault
  3
ObjectDBX Classes
 90
        0
280
     0
281
     0
  0
CLASS
  1
ACDBPLACEHOLDER
  2
AcDbPlaceHolder
  3
ObjectDBX Classes
 90
        0
280
     0
281
     0
  0
CLASS
  1
LAYOUT
  2
AcDbLayout
  3
ObjectDBX Classes
 90
        0
280
     0
281
     0
  0
ENDSEC
  0
SECTION
  2
TABLES
  0
TABLE
  2
VPORT
  5
8
330
0
100
AcDbSymbolTable
 70
     2
  0
VPORT
  5
29
330
8
100
AcDbSymbolTableRecord
100
AcDbViewportTableRecord
  2
*ACTIVE
 70
     0
 10
0.0
 20
0.0
 11
1.0
 21
1.0
 12
129.325924
 22
139.041763
 13
0.0
 23
0.0
 14
1.0
 24
1.0
 15
0.0
 25
0.0
 16
0.0
 26
0.0
 36
1.0
 17
0.0
 27
0.0
 37
0.0
 40
594.0
 41
1.414141
 42
50.0
 43
0.0
 44
0.0
 50
0.0
 51
0.0
 71
    16
 72
   100
 73
     1
 74
     0
 75
     0
 76
     0
 77
     0
 78
     0
281
     0
 65
     0
110
0.0
120
0.0
130
0.0
111
1.0
121
0.0
131
0.0
112
0.0
122
1.0
132
0.0
 79
     0
146
0.0
  0
ENDTAB
  0
TABLE
  2
LTYPE
  5
5
330
0
100
AcDbSymbolTable
 70
     3
  0
LTYPE
  5
14
330
5
100
AcDbSymbolTableRecord
100
AcDbLinetypeTableRecord
  2
ByBlock
 70
     0
  3

 72
    65
 73
     0
 40
0.0
  0
LTYPE
  5
15
330
5
100
AcDbSymbolTableRecord
100
AcDbLinetypeTableRecord
  2
ByLayer
 70
     0
  3

 72
    65
 73
     0
 40
0.0
  0
LTYPE
  5
16
330
5
100
AcDbSymbolTableRecord
100
AcDbLinetypeTableRecord
  2
Continuous
 70
     0
  3
Solid line
 72
    65
 73
     0
 40
0.0
  0
LTYPE
  5
2A
330
5
100
AcDbSymbolTableRecord
100
AcDbLinetypeTableRecord
  2
DASHED
 70
     0
  3
__ __ __ __ __
 72
    65
 73
     2
 40
6.25
 49
5.0
 74
     4
 75
     0
340
0
 46
1.0
 50
0.0
 44
0.0
 45
0.0
 49
-1.25
 74
     4
 75
     0
340
0
 46
1.0
 50
0.0
 44
0.0
 45
0.0
  0
LTYPE
  5
2EA
330
5
100
AcDbSymbolTableRecord
100
AcDbLinetypeTableRecord
  2
DASHDOT
 70
     0
  3
__ . __ . __ . __ . __
 72
    65
 73
     4
 40
7.5
 49
5.0
 74
     4
 75
     0
340
0
 46
1.0
 50
0.0
 44
0.0
 45
0.0
 49
-1.25
 74
     4
 75
     0
340
0
 46
1.0
 50
0.0
 44
0.0
 45
0.0
 49
0.0
 74
     4
 75
     0
340
0
 46
1.0
 50
0.0
 44
0.0
 45
0.0
 49
-1.25
 74
     4
 75
     0
340
0
 46
1.0
 50
0.0
 44
0.0
 45
0.0
  0
ENDTAB
  0
TABLE
  2
LAYER
  5
2
330
0
100
AcDbSymbolTable
 70
     8
  0
LAYER
  5
10
330
2
100
AcDbSymbolTableRecord
100
AcDbLayerTableRecord
  2
0
 70
     0
 62
     7
  6
Continuous
370
    -3
390
F
  0
LAYER
  5
2B
330
2
100
AcDbSymbolTableRecord
100
AcDbLayerTableRecord
  2
LC-INFO-1-2-mm-A3-0
 70
     1
 62
     7
  6
ByBlock
370
    -3
390
F
  0
LAYER
  5
2C
330
2
100
AcDbSymbolTableRecord
100
AcDbLayerTableRecord
  2
LC-CUT-HIDDEN
 70
     0
 62
     7
  6
DASHED
370
    -3
390
F
  0
LAYER
  5
2D
330
2
100
AcDbSymbolTableRecord
100
AcDbLayerTableRecord
  2
LC-VIEWPORT
 70
     0
 62
     7
  6
ByBlock
370
    -3
390
F
  0
LAYER
  5
2E
330
2
100
AcDbSymbolTableRecord
100
AcDbLayerTableRecord
  2
LC-3D-HIDDEN
 70
     0
 62
     9
  6
DASHED
370
    -3
390
F
  0
LAYER
  5
30
330
2
100
AcDbSymbolTableRecord
100
AcDbLayerTableRecord
  2
LC-001-100-D00-0
 70
     0
 62
     1
  6
ByBlock
370
    -3
390
F
  0
LAYER
  5
2EE
330
2
100
AcDbSymbolTableRecord
100
AcDbLayerTableRecord
  2
LC-002-003-----0
 70
     0
 62
     2
  6
ByBlock
370
    -3
390
F
  0
LAYER
  5
2F0
330
2
100
AcDbSymbolTableRecord
100
AcDbLayerTableRecord
  2
Defpoints
 70
     0
 62
     7
  6
Continuous
290
     0
370
    -3
390
F
  0
ENDTAB
  0
TABLE
  2
STYLE
  5
3
330
0
100
AcDbSymbolTable
 70
     3
  0
STYLE
  5
11
330
3
100
AcDbSymbolTableRecord
100
AcDbTextStyleTableRecord
  2
Standard
 70
     0
 40
0.0
 41
1.0
 50
0.0
 71
     0
 42
2.5
  3
txt
  4

  0
STYLE
  5
2F
330
3
100
AcDbSymbolTableRecord
100
AcDbTextStyleTableRecord
  2
LCTX15-400-0-0-Arial
 70
     0
 40
0.0
 41
0.8
 50
0.0
 71
     0
 42
3.5
  3

  4

1001
ACAD
1000
Arial
1071
 16777218
  0
STYLE
  5
2EC
330
3
100
AcDbSymbolTableRecord
100
AcDbTextStyleTableRecord
  2
LCTX15-400-0-0pDIN-Schrift
 70
     0
 40
2.5
 41
0.8
 50
15.0
 71
     0
 42
3.5
  3
STANDARD
  4

  0
ENDTAB
  0
TABLE
  2
VIEW
  5
6
330
0
100
AcDbSymbolTable
 70
     0
  0
ENDTAB
  0
TABLE
  2
UCS
  5
7
330
0
100
AcDbSymbolTable
 70
     0
  0
ENDTAB
  0
TABLE
  2
APPID
  5
9
330
0
100
AcDbSymbolTable
 70
     1
  0
APPID
  5
12
330
9
100
AcDbSymbolTableRecord
100
AcDbRegAppTableRecord
  2
ACAD
 70
     0
  0
ENDTAB
  0
TABLE
  2
DIMSTYLE
  5
A
330
0
100
AcDbSymbolTable
 70
     2
100
AcDbDimStyleTable
  0
DIMSTYLE
105
27
330
A
100
AcDbSymbolTableRecord
100
AcDbDimStyleTableRecord
  2
ISO-25
 70
     0
 41
2.5
 42
0.625
 43
3.75
 44
1.25
 73
     0
 74
     0
 77
     1
 78
     8
140
2.5
141
2.5
143
0.03937
147
0.625
171
     3
172
     1
271
     2
272
     2
274
     3
278
    44
283
     0
284
     8
340
11
  0
DIMSTYLE
105
2ED
102
{ACAD_REACTORS
330
2EF
330
2FD
330
30A
330
317
330
324
102
}
330
A
100
AcDbSymbolTableRecord
100
AcDbDimStyleTableRecord
  2
LC-DIM-L-0140-02-02
 70
     0
 40
2.0
 41
14.0
 42
0.0
 43
7.5
 44
1.8
 73
     0
 74
     0
 77
     1
 78
     8
 79
     2
140
14.0
141
0.0
146
0.71
147
1.5
176
     2
177
     2
178
     2
179
     2
271
     2
278
    44
289
     1
340
2EC
  0
ENDTAB
  0
TABLE
  2
BLOCK_RECORD
  5
1
330
0
100
AcDbSymbolTable
 70
    23
  0
BLOCK_RECORD
  5
1F
330
1
100
AcDbSymbolTableRecord
100
AcDbBlockTableRecord
  2
*Model_Space
340
22
  0
BLOCK_RECORD
  5
1B
330
1
100
AcDbSymbolTableRecord
100
AcDbBlockTableRecord
  2
*Paper_Space
340
1E
  0
BLOCK_RECORD
  5
23
330
1
100
AcDbSymbolTableRecord
100
AcDbBlockTableRecord
  2
*Paper_Space0
340
26
  0
BLOCK_RECORD
  5
B4
330
1
100
AcDbSymbolTableRecord
100
AcDbBlockTableRecord
  2
POLY1
340
0
102
{BLKREFS
331
C5
102
}
  0
BLOCK_RECORD
  5
C8
330
1
100
AcDbSymbolTableRecord
100
AcDbBlockTableRecord
  2
POLY2
340
0
102
{BLKREFS
331
D9
102
}
  0
BLOCK_RECORD
  5
DC
330
1
100
AcDbSymbolTableRecord
100
AcDbBlockTableRecord
  2
POLY3
340
0
102
{BLKREFS
331
F9
102
}
  0
BLOCK_RECORD
  5
FC
330
1
100
AcDbSymbolTableRecord
100
AcDbBlockTableRecord
  2
POLY4
340
0
102
{BLKREFS
331
119
102
}
  0
BLOCK_RECORD
  5
140
330
1
100
AcDbSymbolTableRecord
100
AcDbBlockTableRecord
  2
POLY5
340
0
102
{BLKREFS
331
151
102
}
  0
BLOCK_RECORD
  5
1A1
330
1
100
AcDbSymbolTableRecord
100
AcDbBlockTableRecord
  2
POLY6
340
0
102
{BLKREFS
331
1B2
102
}
  0
BLOCK_RECORD
  5
1FE
330
1
100
AcDbSymbolTableRecord
100
AcDbBlockTableRecord
  2
POLY7
340
0
102
{BLKREFS
331
20F
102
}
  0
BLOCK_RECORD
  5
210
330
1
100
AcDbSymbolTableRecord
100
AcDbBlockTableRecord
  2
POLY8
340
0
102
{BLKREFS
331
221
102
}
  0
BLOCK_RECORD
  5
225
330
1
100
AcDbSymbolTableRecord
100
AcDbBlockTableRecord
  2
POLY9
340
0
102
{BLKREFS
331
236
102
}
  0
BLOCK_RECORD
  5
237
330
1
100
AcDbSymbolTableRecord
100
AcDbBlockTableRecord
  2
POLY10
340
0
102
{BLKREFS
331
248
102
}
  0
BLOCK_RECORD
  5
287
330
1
100
AcDbSymbolTableRecord
100
AcDbBlockTableRecord
  2
POLY11
340
0
102
{BLKREFS
331
298
102
}
  0
BLOCK_RECORD
  5
29C
330
1
100
AcDbSymbolTableRecord
100
AcDbBlockTableRecord
  2
POLY12
340
0
102
{BLKREFS
331
2AD
102
}
  0
BLOCK_RECORD
  5
2AE
330
1
100
AcDbSymbolTableRecord
100
AcDbBlockTableRecord
  2
KLON1
340
0
102
{BLKREFS
331
2BE
102
}
  0
BLOCK_RECORD
  5
2BF
330
1
100
AcDbSymbolTableRecord
100
AcDbBlockTableRecord
  2
KLON2
340
0
102
{BLKREFS
331
2C4
102
}
  0
BLOCK_RECORD
  5
2C5
330
1
100
AcDbSymbolTableRecord
100
AcDbBlockTableRecord
  2
KLON3
340
0
102
{BLKREFS
331
2CA
102
}
  0
BLOCK_RECORD
  5
2CB
330
1
100
AcDbSymbolTableRecord
100
AcDbBlockTableRecord
  2
KLON4
340
0
102
{BLKREFS
331
2D9
102
}
  0
BLOCK_RECORD
  5
2DB
330
1
100
AcDbSymbolTableRecord
100
AcDbBlockTableRecord
  2
KLON5
340
0
102
{BLKREFS
331
2E8
102
}
  0
BLOCK_RECORD
  5
2F1
330
1
100
AcDbSymbolTableRecord
100
AcDbBlockTableRecord
  2
*D18
340
0
  0
BLOCK_RECORD
  5
2FE
330
1
100
AcDbSymbolTableRecord
100
AcDbBlockTableRecord
  2
*D19
340
0
  0
BLOCK_RECORD
  5
30B
330
1
100
AcDbSymbolTableRecord
100
AcDbBlockTableRecord
  2
*D20
340
0
  0
BLOCK_RECORD
  5
318
330
1
100
AcDbSymbolTableRecord
100
AcDbBlockTableRecord
  2
*D21
340
0
  0
BLOCK_RECORD
  5
325
330
1
100
AcDbSymbolTableRecord
100
AcDbBlockTableRecord
  2
*D22
340
0
  0
ENDTAB
  0
ENDSEC
  0
SECTION
  2
BLOCKS
  0
BLOCK
  5
20
330
1F
100
AcDbEntity
  8
0
100
AcDbBlockBegin
  2
*Model_Space
 70
     0
 71
     0
 10
0.0
 20
0.0
 30
0.0
  3
*Model_Space
  1

  0
ENDBLK
  5
21
330
1F
100
AcDbEntity
  8
0
100
AcDbBlockEnd
  0
BLOCK
  5
1C
330
1B
100
AcDbEntity
 67
     1
  8
0
100
AcDbBlockBegin
  2
*Paper_Space
 70
     0
 71
     0
 10
0.0
 20
0.0
 30
0.0
  3
*Paper_Space
  1

  0
ENDBLK
  5
1D
330
1B
100
AcDbEntity
 67
     1
  8
0
100
AcDbBlockEnd
  0
BLOCK
  5
24
330
23
100
AcDbEntity
  8
0
100
AcDbBlockBegin
  2
*Paper_Space0
 70
     0
 71
     0
 10
0.0
 20
0.0
 30
0.0
  3
*Paper_Space0
  1

  0
ENDBLK
  5
25
330
23
100
AcDbEntity
  8
0
100
AcDbBlockEnd
  0
BLOCK
  5
B5
330
B4
100
AcDbEntity
  8
0
100
AcDbBlockBegin
  2
POLY1
 70
     0
 71
     0
 10
0.0
 20
0.0
 30
0.0
  3
POLY1
  1

  4
POLY1
  0
LINE
  5
B7
330
B4
100
AcDbEntity
  8
LC-001-100-D00-0
 62
     7
370
    50
100
AcDbLine
 10
47.687181
 20
196.460295
 30
0.0
 11
47.687181
 21
196.460295
 31
0.0
  0
LINE
  5
B8
330
B4
100
AcDbEntity
  8
LC-001-100-D00-0
 62
     7
370
    50
100
AcDbLine
 10
47.687181
 20
196.460295
 30
0.0
 11
47.680229
 21
196.456103
 31
0.0
  0
LINE
  5
B9
330
B4
100
AcDbEntity
  8
LC-001-100-D00-0
 62
     7
370
    50
100
AcDbLine
 10
47.680229
 20
196.456103
 30
0.0
 11
47.680229
 21
196.456103
 31
0.0
  0
LINE
  5
BA
330
B4
100
AcDbEntity
  8
LC-001-100-D00-0
 62
     7
370
    50
100
AcDbLine
 10
47.680229
 20
196.456103
 30
0.0
 11
47.664882
 21
196.446849
 31
0.0
  0
LINE
  5
BB
330
B4
100
AcDbEntity
  8
LC-001-100-D00-0
 62
     7
370
    50
100
AcDbLine
 10
47.664882
 20
196.446849
 30
0.0
 11
47.664882
 21
196.446849
 31
0.0
  0
LINE
  5
BC
330
B4
100
AcDbEntity
  8
LC-001-100-D00-0
 62
     7
370
    50
100
AcDbLine
 10
47.664882
 20
196.446849
 30
0.0
 11
47.648359
 21
196.424332
 31
0.0
  0
LINE
  5
BD
330
B4
100
AcDbEntity
  8
LC-001-100-D00-0
 62
     7
370
    50
100
AcDbLine
 10
47.648359
 20
196.424332
 30
0.0
 11
47.648359
 21
196.424332
 31
0.0
  0
LINE
  5
BE
330
B4
100
AcDbEntity
  8
LC-001-100-D00-0
 62
     7
370
    50
100
AcDbLine
 10
47.648359
 20
196.424332
 30
0.0
 11
47.639285
 21
196.395338
 31
0.0
  0
LINE
  5
BF
330
B4
100
AcDbEntity
  8
LC-001-100-D00-0
 62
     7
370
    50
100
AcDbLine
 10
47.639285
 20
196.395338
 30
0.0
 11
47.639285
 21
196.395338
 31
0.0
  0
LINE
  5
C0
330
B4
100
AcDbEntity
  8
LC-001-100-D00-0
 62
     7
370
    50
100
AcDbLine
 10
47.639285
 20
196.395338
 30
0.0
 11
47.64099
 21
196.368851
 31
0.0
  0
LINE
  5
C1
330
B4
100
AcDbEntity
  8
LC-001-100-D00-0
 62
     7
370
    50
100
AcDbLine
 10
47.64099
 20
196.368851
 30
0.0
 11
47.64099
 21
196.368851
 31
0.0
  0
LINE
  5
C2
330
B4
100
AcDbEntity
  8
LC-001-100-D00-0
 62
     7
370
    50
100
AcDbLine
 10
47.64099
 20
196.368851
 30
0.0
 11
47.647279
 21
196.354021
 31
0.0
  0
LINE
  5
C3
330
B4
100
AcDbEntity
  8
LC-001-100-D00-0
 62
     7
370
    50
100
AcDbLine
 10
47.647279
 20
196.354021
 30
0.0
 11
47.647279
 21
196.354021
 31
0.0
  0
LINE
  5
C4
330
B4
100
AcDbEntity
  8
LC-001-100-D00-0
 62
     7
370
    50
100
AcDbLine
 10
47.647279
 20
196.354021
 30
0.0
 11
47.649105
 21
196.349714
 31
0.0
  0
ENDBLK
  5
B6
330
B4
100
AcDbEntity
  8
0
100
AcDbBlockEnd
  0
BLOCK
  5
C9
330
C8
100
AcDbEntity
  8
0
100
AcDbBlockBegin
  2
POLY2
 70
     0
 71
     0
 10
0.0
 20
0.0
 30
0.0
  3
POLY2
  1

  4
POLY2
  0
LINE
  5
CB
330
C8
100
AcDbEntity
  8
LC-001-100-D00-0
 62
     7
370
    50
100
AcDbLine
 10
47.469177
 20
196.535352
 30
0.0
 11
47.469177
 21
196.535352
 31
0.0
  0
LINE
  5
CC
330
C8
100
AcDbEntity
  8
LC-001-100-D00-0
 62
     7
370
    50
100
AcDbLine
 10
47.469177
 20
196.535352
 30
0.0
 11
47.462214
 21
196.531157
 31
0.0
  0
LINE
  5
CD
330
C8
100
AcDbEntity
  8
LC-001-100-D00-0
 62
     7
370
    50
100
AcDbLine
 10
47.462214
 20
196.531157
 30
0.0
 11
47.462214
 21
196.531157
 31
0.0
  0
LINE
  5
CE
330
C8
100
AcDbEntity
  8
LC-001-100-D00-0
 62
     7
370
    50
100
AcDbLine
 10
47.462214
 20
196.531157
 30
0.0
 11
47.446845
 21
196.521896
 31
0.0
  0
LINE
  5
CF
330
C8
100
AcDbEntity
  8
LC-001-100-D00-0
 62
     7
370
    50
100
AcDbLine
 10
47.446845
 20
196.521896
 30
0.0
 11
47.446845
 21
196.521896
 31
0.0
  0
LINE
  5
D0
330
C8
100
AcDbEntity
  8
LC-001-100-D00-0
 62
     7
370
    50
100
AcDbLine
 10
47.446845
 20
196.521896
 30
0.0
 11
47.430318
 21
196.49933
 31
0.0
  0
LINE
  5
D1
330
C8
100
AcDbEntity
  8
LC-001-100-D00-0
 62
     7
370
    50
100
AcDbLine
 10
47.430318
 20
196.49933
 30
0.0
 11
47.430318
 21
196.49933
 31
0.0
  0
LINE
  5
D2
330
C8
100
AcDbEntity
  8
LC-001-100-D00-0
 62
     7
370
    50
100
AcDbLine
 10
47.430318
 20
196.49933
 30
0.0
 11
47.42126
 21
196.470286
 31
0.0
  0
LINE
  5
D3
330
C8
100
AcDbEntity
  8
LC-001-100-D00-0
 62
     7
370
    50
100
AcDbLine
 10
47.42126
 20
196.470286
 30
0.0
 11
47.42126
 21
196.470286
 31
0.0
  0
LINE
  5
D4
330
C8
100
AcDbEntity
  8
LC-001-100-D00-0
 62
     7
370
    50
100
AcDbLine
 10
47.42126
 20
196.470286
 30
0.0
 11
47.423011
 21
196.443817
 31
0.0
  0
LINE
  5
D5
330
C8
100
AcDbEntity
  8
LC-001-100-D00-0
 62
     7
370
    50
100
AcDbLine
 10
47.423011
 20
196.443817
 30
0.0
 11
47.423011
 21
196.443817
 31
0.0
  0
LINE
  5
D6
330
C8
100
AcDbEntity
  8
LC-001-100-D00-0
 62
     7
370
    50
100
AcDbLine
 10
47.423011
 20
196.443817
 30
0.0
 11
47.429294
 21
196.429024
 31
0.0
  0
LINE
  5
D7
330
C8
100
AcDbEntity
  8
LC-001-100-D00-0
 62
     7
370
    50
100
AcDbLine
 10
47.429294
 20
196.429024
 30
0.0
 11
47.429294
 21
196.429024
 31
0.0
  0
LINE
  5
D8
330
C8
100
AcDbEntity
  8
LC-001-100-D00-0
 62
     7
370
    50
100
AcDbLine
 10
47.429294
 20
196.429024
 30
0.0
 11
47.4311
 21
196.424771
 31
0.0
  0
ENDBLK
  5
CA
330
C8
100
AcDbEntity
  8
0
100
AcDbBlockEnd
  0
BLOCK
  5
DD
330
DC
100
AcDbEntity
  8
0
100
AcDbBlockBegin
  2
POLY3
 70
     0
 71
     0
 10
0.0
 20
0.0
 30
0.0
  3
POLY3
  1

  4
POLY3
  0
LINE
  5
DF
330
DC
100
AcDbEntity
  8
LC-001-100-D00-0
 62
     7
370
    50
100
AcDbLine
 10
48.156066
 20
196.054105
 30
0.0
 11
48.156066
 21
196.054105
 31
0.0
  0
LINE
  5
E0
330
DC
100
AcDbEntity
  8
LC-001-100-D00-0
 62
     7
370
    50
100
AcDbLine
 10
48.156066
 20
196.054105
 30
0.0
 11
48.153978
 21
196.057917
 31
0.0
  0
LINE
  5
E1
330
DC
100
AcDbEntity
  8
LC-001-100-D00-0
 62
     7
370
    50
100
AcDbLine
 10
48.153978
 20
196.057917
 30
0.0
 11
48.153978
 21
196.057917
 31
0.0
  0
LINE
  5
E2
330
DC
100
AcDbEntity
  8
LC-001-100-D00-0
 62
     7
370
    50
100
AcDbLine
 10
48.153978
 20
196.057917
 30
0.0
 11
48.147995
 21
196.068843
 31
0.0
  0
LINE
  5
E3
330
DC
100
AcDbEntity
  8
LC-001-100-D00-0
 62
     7
370
    50
100
AcDbLine
 10
48.147995
 20
196.068843
 30
0.0
 11
48.147995
 21
196.068843
 31
0.0
  0
LINE
  5
E4
330
DC
100
AcDbEntity
  8
LC-001-100-D00-0
 62
     7
370
    50
100
AcDbLine
 10
48.147995
 20
196.068843
 30
0.0
 11
48.132682
 21
196.084569
 31
0.0
  0
LINE
  5
E5
330
DC
100
AcDbEntity
  8
LC-001-100-D00-0
 62
     7
370
    50
100
AcDbLine
 10
48.132682
 20
196.084569
 30
0.0
 11
48.132682
 21
196.084569
 31
0.0
  0
LINE
  5
E6
330
DC
100
AcDbEntity
  8
LC-001-100-D00-0
 62
     7
370
    50
100
AcDbLine
 10
48.132682
 20
196.084569
 30
0.0
 11
48.109637
 21
196.096785
 31
0.0
  0
LINE
  5
E7
330
DC
100
AcDbEntity
  8
LC-001-100-D00-0
 62
     7
370
    50
100
AcDbLine
 10
48.109637
 20
196.096785
 30
0.0
 11
48.109637
 21
196.096785
 31
0.0
  0
LINE
  5
E8
330
DC
100
AcDbEntity
  8
LC-001-100-D00-0
 62
     7
370
    50
100
AcDbLine
 10
48.109637
 20
196.096785
 30
0.0
 11
48.08476
 21
196.101027
 31
0.0
  0
LINE
  5
E9
330
DC
100
AcDbEntity
  8
LC-001-100-D00-0
 62
     7
370
    50
100
AcDbLine
 10
48.08476
 20
196.101027
 30
0.0
 11
48.08476
 21
196.101027
 31
0.0
  0
LINE
  5
EA
330
DC
100
AcDbEntity
  8
LC-001-100-D00-0
 62
     7
370
    50
100
AcDbLine
 10
48.08476
 20
196.101027
 30
0.0
 11
48.060879
 21
196.098064
 31
0.0
  0
LINE
  5
EB
330
DC
100
AcDbEntity
  8
LC-001-100-D00-0
 62
     7
370
    50
100
AcDbLine
 10
48.060879
 20
196.098064
 30
0.0
 11
48.060879
 21
196.098064
 31
0.0
  0
LINE
  5
EC
330
DC
100
AcDbEntity
  8
LC-001-100-D00-0
 62
     7
370
    50
100
AcDbLine
 10
48.060879
 20
196.098064
 30
0.0
 11
48.038497
 21
196.088285
 31
0.0
  0
LINE
  5
ED
330
DC
100
AcDbEntity
  8
LC-001-100-D00-0
 62
     7
370
    50
100
AcDbLine
 10
48.038497
 20
196.088285
 30
0.0
 11
48.038497
 21
196.088285
 31
0.0
  0
LINE
  5
EE
330
DC
100
AcDbEntity
  8
LC-001-100-D00-0
 62
     7
370
    50
100
AcDbLine
 10
48.038497
 20
196.088285
 30
0.0
 11
48.018796
 21
196.071218
 31
0.0
  0
LINE
  5
EF
330
DC
100
AcDbEntity
  8
LC-001-100-D00-0
 62
     7
370
    50
100
AcDbLine
 10
48.018796
 20
196.071218
 30
0.0
 11
48.018796
 21
196.071218
 31
0.0
  0
LINE
  5
F0
330
DC
100
AcDbEntity
  8
LC-001-100-D00-0
 62
     7
370
    50
100
AcDbLine
 10
48.018796
 20
196.071218
 30
0.0
 11
48.004444
 21
196.046684
 31
0.0
  0
LINE
  5
F1
330
DC
100
AcDbEntity
  8
LC-001-100-D00-0
 62
     7
370
    50
100
AcDbLine
 10
48.004444
 20
196.046684
 30
0.0
 11
48.004444
 21
196.046684
 31
0.0
  0
LINE
  5
F2
330
DC
100
AcDbEntity
  8
LC-001-100-D00-0
 62
     7
370
    50
100
AcDbLine
 10
48.004444
 20
196.046684
 30
0.0
 11
47.99923
 21
196.016356
 31
0.0
  0
LINE
  5
F3
330
DC
100
AcDbEntity
  8
LC-001-100-D00-0
 62
     7
370
    50
100
AcDbLine
 10
47.99923
 20
196.016356
 30
0.0
 11
47.99923
 21
196.016356
 31
0.0
  0
LINE
  5
F4
330
DC
100
AcDbEntity
  8
LC-001-100-D00-0
 62
     7
370
    50
100
AcDbLine
 10
47.99923
 20
196.016356
 30
0.0
 11
48.00408
 21
195.994039
 31
0.0
  0
LINE
  5
F5
330
DC
100
AcDbEntity
  8
LC-001-100-D00-0
 62
     7
370
    50
100
AcDbLine
 10
48.00408
 20
195.994039
 30
0.0
 11
48.00408
 21
195.994039
 31
0.0
  0
LINE
  5
F6
330
DC
100
AcDbEntity
  8
LC-001-100-D00-0
 62
     7
370
    50
100
AcDbLine
 10
48.00408
 20
195.994039
 30
0.0
 11
48.009237
 21
195.983254
 31
0.0
  0
LINE
  5
F7
330
DC
100
AcDbEntity
  8
LC-001-100-D00-0
 62
     7
370
    50
100
AcDbLine
 10
48.009237
 20
195.983254
 30
0.0
 11
48.009237
 21
195.983254
 31
0.0
  0
LINE
  5
F8
330
DC
100
AcDbEntity
  8
LC-001-100-D00-0
 62
     7
370
    50
100
AcDbLine
 10
48.009237
 20
195.983254
 30
0.0
 11
48.009531
 21
195.982639
 31
0.0
  0
ENDBLK
  5
DE
330
DC
100
AcDbEntity
  8
0
100
AcDbBlockEnd
  0
BLOCK
  5
FD
330
FC
100
AcDbEntity
  8
0
100
AcDbBlockBegin
  2
POLY4
 70
     0
 71
     0
 10
0.0
 20
0.0
 30
0.0
  3
POLY4
  1

  4
POLY4
  0
LINE
  5
FF
330
FC
100
AcDbEntity
  8
LC-001-100-D00-0
 62
     7
370
    50
100
AcDbLine
 10
48.197192
 20
196.527649
 30
0.0
 11
48.197192
 21
196.527649
 31
0.0
  0
LINE
  5
100
330
FC
100
AcDbEntity
  8
LC-001-100-D00-0
 62
     7
370
    50
100
AcDbLine
 10
48.197192
 20
196.527649
 30
0.0
 11
48.195302
 21
196.52667
 31
0.0
  0
LINE
  5
101
330
FC
100
AcDbEntity
  8
LC-001-100-D00-0
 62
     7
370
    50
100
AcDbLine
 10
48.195302
 20
196.52667
 30
0.0
 11
48.195302
 21
196.52667
 31
0.0
  0
LINE
  5
102
330
FC
100
AcDbEntity
  8
LC-001-100-D00-0
 62
     7
370
    50
100
AcDbLine
 10
48.195302
 20
196.52667
 30
0.0
 11
48.185685
 21
196.521688
 31
0.0
  0
LINE
  5
103
330
FC
100
AcDbEntity
  8
LC-001-100-D00-0
 62
     7
370
    50
100
AcDbLine
 10
48.185685
 20
196.521688
 30
0.0
 11
48.185685
 21
196.521688
 31
0.0
  0
LINE
  5
104
330
FC
100
AcDbEntity
  8
LC-001-100-D00-0
 62
     7
370
    50
100
AcDbLine
 10
48.185685
 20
196.521688
 30
0.0
 11
48.170055
 21
196.508459
 31
0.0
  0
LINE
  5
105
330
FC
100
AcDbEntity
  8
LC-001-100-D00-0
 62
     7
370
    50
100
AcDbLine
 10
48.170055
 20
196.508459
 30
0.0
 11
48.170055
 21
196.508459
 31
0.0
  0
LINE
  5
106
330
FC
100
AcDbEntity
  8
LC-001-100-D00-0
 62
     7
370
    50
100
AcDbLine
 10
48.170055
 20
196.508459
 30
0.0
 11
48.155256
 21
196.48447
 31
0.0
  0
LINE
  5
107
330
FC
100
AcDbEntity
  8
LC-001-100-D00-0
 62
     7
370
    50
100
AcDbLine
 10
48.155256
 20
196.48447
 30
0.0
 11
48.155256
 21
196.48447
 31
0.0
  0
LINE
  5
108
330
FC
100
AcDbEntity
  8
LC-001-100-D00-0
 62
     7
370
    50
100
AcDbLine
 10
48.155256
 20
196.48447
 30
0.0
 11
48.149345
 21
196.454391
 31
0.0
  0
LINE
  5
109
330
FC
100
AcDbEntity
  8
LC-001-100-D00-0
 62
     7
370
    50
100
AcDbLine
 10
48.149345
 20
196.454391
 30
0.0
 11
48.149345
 21
196.454391
 31
0.0
  0
LINE
  5
10A
330
FC
100
AcDbEntity
  8
LC-001-100-D00-0
 62
     7
370
    50
100
AcDbLine
 10
48.149345
 20
196.454391
 30
0.0
 11
48.155149
 21
196.424307
 31
0.0
  0
LINE
  5
10B
330
FC
100
AcDbEntity
  8
LC-001-100-D00-0
 62
     7
370
    50
100
AcDbLine
 10
48.155149
 20
196.424307
 30
0.0
 11
48.155149
 21
196.424307
 31
0.0
  0
LINE
  5
10C
330
FC
100
AcDbEntity
  8
LC-001-100-D00-0
 62
     7
370
    50
100
AcDbLine
 10
48.155149
 20
196.424307
 30
0.0
 11
48.171018
 21
196.398928
 31
0.0
  0
LINE
  5
10D
330
FC
100
AcDbEntity
  8
LC-001-100-D00-0
 62
     7
370
    50
100
AcDbLine
 10
48.171018
 20
196.398928
 30
0.0
 11
48.171018
 21
196.398928
 31
0.0
  0
LINE
  5
10E
330
FC
100
AcDbEntity
  8
LC-001-100-D00-0
 62
     7
370
    50
100
AcDbLine
 10
48.171018
 20
196.398928
 30
0.0
 11
48.192839
 21
196.381627
 31
0.0
  0
LINE
  5
10F
330
FC
100
AcDbEntity
  8
LC-001-100-D00-0
 62
     7
370
    50
100
AcDbLine
 10
48.192839
 20
196.381627
 30
0.0
 11
48.192839
 21
196.381627
 31
0.0
  0
LINE
  5
110
330
FC
100
AcDbEntity
  8
LC-001-100-D00-0
 62
     7
370
    50
100
AcDbLine
 10
48.192839
 20
196.381627
 30
0.0
 11
48.218065
 21
196.372928
 31
0.0
  0
LINE
  5
111
330
FC
100
AcDbEntity
  8
LC-001-100-D00-0
 62
     7
370
    50
100
AcDbLine
 10
48.218065
 20
196.372928
 30
0.0
 11
48.218065
 21
196.372928
 31
0.0
  0
LINE
  5
112
330
FC
100
AcDbEntity
  8
LC-001-100-D00-0
 62
     7
370
    50
100
AcDbLine
 10
48.218065
 20
196.372928
 30
0.0
 11
48.242638
 21
196.372329
 31
0.0
  0
LINE
  5
113
330
FC
100
AcDbEntity
  8
LC-001-100-D00-0
 62
     7
370
    50
100
AcDbLine
 10
48.242638
 20
196.372329
 30
0.0
 11
48.242638
 21
196.372329
 31
0.0
  0
LINE
  5
114
330
FC
100
AcDbEntity
  8
LC-001-100-D00-0
 62
     7
370
    50
100
AcDbLine
 10
48.242638
 20
196.372329
 30
0.0
 11
48.259154
 21
196.376673
 31
0.0
  0
LINE
  5
115
330
FC
100
AcDbEntity
  8
LC-001-100-D00-0
 62
     7
370
    50
100
AcDbLine
 10
48.259154
 20
196.376673
 30
0.0
 11
48.259154
 21
196.376673
 31
0.0
  0
LINE
  5
116
330
FC
100
AcDbEntity
  8
LC-001-100-D00-0
 62
     7
370
    50
100
AcDbLine
 10
48.259154
 20
196.376673
 30
0.0
 11
48.267304
 21
196.380477
 31
0.0
  0
LINE
  5
117
330
FC
100
AcDbEntity
  8
LC-001-100-D00-0
 62
     7
370
    50
100
AcDbLine
 10
48.267304
 20
196.380477
 30
0.0
 11
48.267304
 21
196.380477
 31
0.0
  0
LINE
  5
118
330
FC
100
AcDbEntity
  8
LC-001-100-D00-0
 62
     7
370
    50
100
AcDbLine
 10
48.267304
 20
196.380477
 30
0.0
 11
48.268663
 21
196.381111
 31
0.0
  0
ENDBLK
  5
FE
330
FC
100
AcDbEntity
  8
0
100
AcDbBlockEnd
  0
BLOCK
  5
141
330
140
100
AcDbEntity
  8
0
100
AcDbBlockBegin
  2
POLY5
 70
     0
 71
     0
 10
0.0
 20
0.0
 30
0.0
  3
POLY5
  1

  4
POLY5
  0
LINE
  5
143
330
140
100
AcDbEntity
  8
LC-001-100-D00-0
 62
     7
370
    50
100
AcDbLine
 10
130.063318
 20
208.497692
 30
0.0
 11
130.063318
 21
208.497692
 31
0.0
  0
LINE
  5
144
330
140
100
AcDbEntity
  8
LC-001-100-D00-0
 62
     7
370
    50
100
AcDbLine
 10
130.063318
 20
208.497692
 30
0.0
 11
130.083979
 21
208.486412
 31
0.0
  0
LINE
  5
145
330
140
100
AcDbEntity
  8
LC-001-100-D00-0
 62
     7
370
    50
100
AcDbLine
 10
130.083979
 20
208.486412
 30
0.0
 11
130.083979
 21
208.486412
 31
0.0
  0
LINE
  5
146
330
140
100
AcDbEntity
  8
LC-001-100-D00-0
 62
     7
370
    50
100
AcDbLine
 10
130.083979
 20
208.486412
 30
0.0
 11
130.125309
 21
208.46385
 31
0.0
  0
LINE
  5
147
330
140
100
AcDbEntity
  8
LC-001-100-D00-0
 62
     7
370
    50
100
AcDbLine
 10
130.125309
 20
208.46385
 30
0.0
 11
130.125309
 21
208.46385
 31
0.0
  0
LINE
  5
148
330
140
100
AcDbEntity
  8
LC-001-100-D00-0
 62
     7
370
    50
100
AcDbLine
 10
130.125309
 20
208.46385
 30
0.0
 11
130.178411
 21
208.287308
 31
0.0
  0
LINE
  5
149
330
140
100
AcDbEntity
  8
LC-001-100-D00-0
 62
     7
370
    50
100
AcDbLine
 10
130.178411
 20
208.287308
 30
0.0
 11
130.178411
 21
208.287308
 31
0.0
  0
LINE
  5
14A
330
140
100
AcDbEntity
  8
LC-001-100-D00-0
 62
     7
370
    50
100
AcDbLine
 10
130.178411
 20
208.287308
 30
0.0
 11
130.217229
 21
208.028253
 31
0.0
  0
LINE
  5
14B
330
140
100
AcDbEntity
  8
LC-001-100-D00-0
 62
     7
370
    50
100
AcDbLine
 10
130.217229
 20
208.028253
 30
0.0
 11
130.217229
 21
208.028253
 31
0.0
  0
LINE
  5
14C
330
140
100
AcDbEntity
  8
LC-001-100-D00-0
 62
     7
370
    50
100
AcDbLine
 10
130.217229
 20
208.028253
 30
0.0
 11
130.236616
 21
207.747981
 31
0.0
  0
LINE
  5
14D
330
140
100
AcDbEntity
  8
LC-001-100-D00-0
 62
     7
370
    50
100
AcDbLine
 10
130.236616
 20
207.747981
 30
0.0
 11
130.236616
 21
207.747981
 31
0.0
  0
LINE
  5
14E
330
140
100
AcDbEntity
  8
LC-001-100-D00-0
 62
     7
370
    50
100
AcDbLine
 10
130.236616
 20
207.747981
 30
0.0
 11
130.238507
 21
207.566583
 31
0.0
  0
LINE
  5
14F
330
140
100
AcDbEntity
  8
LC-001-100-D00-0
 62
     7
370
    50
100
AcDbLine
 10
130.238507
 20
207.566583
 30
0.0
 11
130.238507
 21
207.566583
 31
0.0
  0
LINE
  5
150
330
140
100
AcDbEntity
  8
LC-001-100-D00-0
 62
     7
370
    50
100
AcDbLine
 10
130.238507
 20
207.566583
 30
0.0
 11
130.239226
 21
207.49769
 31
0.0
  0
ENDBLK
  5
142
330
140
100
AcDbEntity
  8
0
100
AcDbBlockEnd
  0
BLOCK
  5
1A2
330
1A1
100
AcDbEntity
  8
0
100
AcDbBlockBegin
  2
POLY6
 70
     0
 71
     0
 10
0.0
 20
0.0
 30
0.0
  3
POLY6
  1

  4
POLY6
  0
LINE
  5
1A4
330
1A1
100
AcDbEntity
  8
LC-001-100-D00-0
 62
     7
370
    50
100
AcDbLine
 10
-9.785906
 20
207.49769
 30
0.0
 11
-9.785906
 21
207.49769
 31
0.0
  0
LINE
  5
1A5
330
1A1
100
AcDbEntity
  8
LC-001-100-D00-0
 62
     7
370
    50
100
AcDbLine
 10
-9.785906
 20
207.49769
 30
0.0
 11
-9.784085
 21
207.608927
 31
0.0
  0
LINE
  5
1A6
330
1A1
100
AcDbEntity
  8
LC-001-100-D00-0
 62
     7
370
    50
100
AcDbLine
 10
-9.784085
 20
207.608927
 30
0.0
 11
-9.784085
 21
207.608927
 31
0.0
  0
LINE
  5
1A7
330
1A1
100
AcDbEntity
  8
LC-001-100-D00-0
 62
     7
370
    50
100
AcDbLine
 10
-9.784085
 20
207.608927
 30
0.0
 11
-9.780444
 21
207.831375
 31
0.0
  0
LINE
  5
1A8
330
1A1
100
AcDbEntity
  8
LC-001-100-D00-0
 62
     7
370
    50
100
AcDbLine
 10
-9.780444
 20
207.831375
 30
0.0
 11
-9.780444
 21
207.831375
 31
0.0
  0
LINE
  5
1A9
330
1A1
100
AcDbEntity
  8
LC-001-100-D00-0
 62
     7
370
    50
100
AcDbLine
 10
-9.780444
 20
207.831375
 30
0.0
 11
-9.751824
 21
208.128259
 31
0.0
  0
LINE
  5
1AA
330
1A1
100
AcDbEntity
  8
LC-001-100-D00-0
 62
     7
370
    50
100
AcDbLine
 10
-9.751824
 20
208.128259
 30
0.0
 11
-9.751824
 21
208.128259
 31
0.0
  0
LINE
  5
1AB
330
1A1
100
AcDbEntity
  8
LC-001-100-D00-0
 62
     7
370
    50
100
AcDbLine
 10
-9.751824
 20
208.128259
 30
0.0
 11
-9.708771
 21
208.354366
 31
0.0
  0
LINE
  5
1AC
330
1A1
100
AcDbEntity
  8
LC-001-100-D00-0
 62
     7
370
    50
100
AcDbLine
 10
-9.708771
 20
208.354366
 30
0.0
 11
-9.708771
 21
208.354366
 31
0.0
  0
LINE
  5
1AD
330
1A1
100
AcDbEntity
  8
LC-001-100-D00-0
 62
     7
370
    50
100
AcDbLine
 10
-9.708771
 20
208.354366
 30
0.0
 11
-9.658897
 21
208.478975
 31
0.0
  0
LINE
  5
1AE
330
1A1
100
AcDbEntity
  8
LC-001-100-D00-0
 62
     7
370
    50
100
AcDbLine
 10
-9.658897
 20
208.478975
 30
0.0
 11
-9.658897
 21
208.478975
 31
0.0
  0
LINE
  5
1AF
330
1A1
100
AcDbEntity
  8
LC-001-100-D00-0
 62
     7
370
    50
100
AcDbLine
 10
-9.658897
 20
208.478975
 30
0.0
 11
-9.624314
 21
208.492212
 31
0.0
  0
LINE
  5
1B0
330
1A1
100
AcDbEntity
  8
LC-001-100-D00-0
 62
     7
370
    50
100
AcDbLine
 10
-9.624314
 20
208.492212
 30
0.0
 11
-9.624314
 21
208.492212
 31
0.0
  0
LINE
  5
1B1
330
1A1
100
AcDbEntity
  8
LC-001-100-D00-0
 62
     7
370
    50
100
AcDbLine
 10
-9.624314
 20
208.492212
 30
0.0
 11
-9.609997
 21
208.497692
 31
0.0
  0
ENDBLK
  5
1A3
330
1A1
100
AcDbEntity
  8
0
100
AcDbBlockEnd
  0
BLOCK
  5
1FF
330
1FE
100
AcDbEntity
  8
0
100
AcDbBlockBegin
  2
POLY7
 70
     0
 71
     0
 10
0.0
 20
0.0
 30
0.0
  3
POLY7
  1

  4
POLY7
  0
LINE
  5
201
330
1FE
100
AcDbEntity
  8
LC-001-100-D00-0
 62
     7
370
    50
100
AcDbLine
 10
-9.609997
 20
208.497692
 30
0.0
 11
-9.609997
 21
208.497692
 31
0.0
  0
LINE
  5
202
330
1FE
100
AcDbEntity
  8
LC-001-100-D00-0
 62
     7
370
    50
100
AcDbLine
 10
-9.609997
 20
208.497692
 30
0.0
 11
-9.588933
 21
208.486339
 31
0.0
  0
LINE
  5
203
330
1FE
100
AcDbEntity
  8
LC-001-100-D00-0
 62
     7
370
    50
100
AcDbLine
 10
-9.588933
 20
208.486339
 30
0.0
 11
-9.588933
 21
208.486339
 31
0.0
  0
LINE
  5
204
330
1FE
100
AcDbEntity
  8
LC-001-100-D00-0
 62
     7
370
    50
100
AcDbLine
 10
-9.588933
 20
208.486339
 30
0.0
 11
-9.546799
 21
208.463631
 31
0.0
  0
LINE
  5
205
330
1FE
100
AcDbEntity
  8
LC-001-100-D00-0
 62
     7
370
    50
100
AcDbLine
 10
-9.546799
 20
208.463631
 30
0.0
 11
-9.546799
 21
208.463631
 31
0.0
  0
LINE
  5
206
330
1FE
100
AcDbEntity
  8
LC-001-100-D00-0
 62
     7
370
    50
100
AcDbLine
 10
-9.546799
 20
208.463631
 30
0.0
 11
-9.488855
 21
208.286402
 31
0.0
  0
LINE
  5
207
330
1FE
100
AcDbEntity
  8
LC-001-100-D00-0
 62
     7
370
    50
100
AcDbLine
 10
-9.488855
 20
208.286402
 30
0.0
 11
-9.488855
 21
208.286402
 31
0.0
  0
LINE
  5
208
330
1FE
100
AcDbEntity
  8
LC-001-100-D00-0
 62
     7
370
    50
100
AcDbLine
 10
-9.488855
 20
208.286402
 30
0.0
 11
-9.444816
 21
208.026446
 31
0.0
  0
LINE
  5
209
330
1FE
100
AcDbEntity
  8
LC-001-100-D00-0
 62
     7
370
    50
100
AcDbLine
 10
-9.444816
 20
208.026446
 30
0.0
 11
-9.444816
 21
208.026446
 31
0.0
  0
LINE
  5
20A
330
1FE
100
AcDbEntity
  8
LC-001-100-D00-0
 62
     7
370
    50
100
AcDbLine
 10
-9.444816
 20
208.026446
 30
0.0
 11
-9.422292
 21
207.746149
 31
0.0
  0
LINE
  5
20B
330
1FE
100
AcDbEntity
  8
LC-001-100-D00-0
 62
     7
370
    50
100
AcDbLine
 10
-9.422292
 20
207.746149
 30
0.0
 11
-9.422292
 21
207.746149
 31
0.0
  0
LINE
  5
20C
330
1FE
100
AcDbEntity
  8
LC-001-100-D00-0
 62
     7
370
    50
100
AcDbLine
 10
-9.422292
 20
207.746149
 30
0.0
 11
-9.420111
 21
207.565507
 31
0.0
  0
LINE
  5
20D
330
1FE
100
AcDbEntity
  8
LC-001-100-D00-0
 62
     7
370
    50
100
AcDbLine
 10
-9.420111
 20
207.565507
 30
0.0
 11
-9.420111
 21
207.565507
 31
0.0
  0
LINE
  5
20E
330
1FE
100
AcDbEntity
  8
LC-001-100-D00-0
 62
     7
370
    50
100
AcDbLine
 10
-9.420111
 20
207.565507
 30
0.0
 11
-9.419292
 21
207.49769
 31
0.0
  0
ENDBLK
  5
200
330
1FE
100
AcDbEntity
  8
0
100
AcDbBlockEnd
  0
BLOCK
  5
211
330
210
100
AcDbEntity
  8
0
100
AcDbBlockBegin
  2
POLY8
 70
     0
 71
     0
 10
0.0
 20
0.0
 30
0.0
  3
POLY8
  1

  4
POLY8
  0
LINE
  5
213
330
210
100
AcDbEntity
  8
LC-001-100-D00-0
 62
     7
370
    50
100
AcDbLine
 10
46.426667
 20
207.49769
 30
0.0
 11
46.426667
 21
207.49769
 31
0.0
  0
LINE
  5
214
330
210
100
AcDbEntity
  8
LC-001-100-D00-0
 62
     7
370
    50
100
AcDbLine
 10
46.426667
 20
207.49769
 30
0.0
 11
46.437432
 21
207.608557
 31
0.0
  0
LINE
  5
215
330
210
100
AcDbEntity
  8
LC-001-100-D00-0
 62
     7
370
    50
100
AcDbLine
 10
46.437432
 20
207.608557
 30
0.0
 11
46.437432
 21
207.608557
 31
0.0
  0
LINE
  5
216
330
210
100
AcDbEntity
  8
LC-001-100-D00-0
 62
     7
370
    50
100
AcDbLine
 10
46.437432
 20
207.608557
 30
0.0
 11
46.458958
 21
207.830252
 31
0.0
  0
LINE
  5
217
330
210
100
AcDbEntity
  8
LC-001-100-D00-0
 62
     7
370
    50
100
AcDbLine
 10
46.458958
 20
207.830252
 30
0.0
 11
46.458958
 21
207.830252
 31
0.0
  0
LINE
  5
218
330
210
100
AcDbEntity
  8
LC-001-100-D00-0
 62
     7
370
    50
100
AcDbLine
 10
46.458958
 20
207.830252
 30
0.0
 11
46.626467
 21
208.126335
 31
0.0
  0
LINE
  5
219
330
210
100
AcDbEntity
  8
LC-001-100-D00-0
 62
     7
370
    50
100
AcDbLine
 10
46.626467
 20
208.126335
 30
0.0
 11
46.626467
 21
208.126335
 31
0.0
  0
LINE
  5
21A
330
210
100
AcDbEntity
  8
LC-001-100-D00-0
 62
     7
370
    50
100
AcDbLine
 10
46.626467
 20
208.126335
 30
0.0
 11
46.873978
 21
208.352675
 31
0.0
  0
LINE
  5
21B
330
210
100
AcDbEntity
  8
LC-001-100-D00-0
 62
     7
370
    50
100
AcDbLine
 10
46.873978
 20
208.352675
 30
0.0
 11
46.873978
 21
208.352675
 31
0.0
  0
LINE
  5
21C
330
210
100
AcDbEntity
  8
LC-001-100-D00-0
 62
     7
370
    50
100
AcDbLine
 10
46.873978
 20
208.352675
 30
0.0
 11
47.156103
 21
208.478591
 31
0.0
  0
LINE
  5
21D
330
210
100
AcDbEntity
  8
LC-001-100-D00-0
 62
     7
370
    50
100
AcDbLine
 10
47.156103
 20
208.478591
 30
0.0
 11
47.156103
 21
208.478591
 31
0.0
  0
LINE
  5
21E
330
210
100
AcDbEntity
  8
LC-001-100-D00-0
 62
     7
370
    50
100
AcDbLine
 10
47.156103
 20
208.478591
 30
0.0
 11
47.347185
 21
208.492081
 31
0.0
  0
LINE
  5
21F
330
210
100
AcDbEntity
  8
LC-001-100-D00-0
 62
     7
370
    50
100
AcDbLine
 10
47.347185
 20
208.492081
 30
0.0
 11
47.347185
 21
208.492081
 31
0.0
  0
LINE
  5
220
330
210
100
AcDbEntity
  8
LC-001-100-D00-0
 62
     7
370
    50
100
AcDbLine
 10
47.347185
 20
208.492081
 30
0.0
 11
47.426666
 21
208.497692
 31
0.0
  0
ENDBLK
  5
212
330
210
100
AcDbEntity
  8
0
100
AcDbBlockEnd
  0
BLOCK
  5
226
330
225
100
AcDbEntity
  8
0
100
AcDbBlockBegin
  2
POLY9
 70
     0
 71
     0
 10
0.0
 20
0.0
 30
0.0
  3
POLY9
  1

  4
POLY9
  0
LINE
  5
228
330
225
100
AcDbEntity
  8
LC-001-100-D00-0
 62
     7
370
    50
100
AcDbLine
 10
129.872613
 20
207.49769
 30
0.0
 11
129.872613
 21
207.49769
 31
0.0
  0
LINE
  5
229
330
225
100
AcDbEntity
  8
LC-001-100-D00-0
 62
     7
370
    50
100
AcDbLine
 10
129.872613
 20
207.49769
 30
0.0
 11
129.874753
 21
207.608557
 31
0.0
  0
LINE
  5
22A
330
225
100
AcDbEntity
  8
LC-001-100-D00-0
 62
     7
370
    50
100
AcDbLine
 10
129.874753
 20
207.608557
 30
0.0
 11
129.874753
 21
207.608557
 31
0.0
  0
LINE
  5
22B
330
225
100
AcDbEntity
  8
LC-001-100-D00-0
 62
     7
370
    50
100
AcDbLine
 10
129.874753
 20
207.608557
 30
0.0
 11
129.879032
 21
207.830252
 31
0.0
  0
LINE
  5
22C
330
225
100
AcDbEntity
  8
LC-001-100-D00-0
 62
     7
370
    50
100
AcDbLine
 10
129.879032
 20
207.830252
 30
0.0
 11
129.879032
 21
207.830252
 31
0.0
  0
LINE
  5
22D
330
225
100
AcDbEntity
  8
LC-001-100-D00-0
 62
     7
370
    50
100
AcDbLine
 10
129.879032
 20
207.830252
 30
0.0
 11
129.912015
 21
208.126335
 31
0.0
  0
LINE
  5
22E
330
225
100
AcDbEntity
  8
LC-001-100-D00-0
 62
     7
370
    50
100
AcDbLine
 10
129.912015
 20
208.126335
 30
0.0
 11
129.912015
 21
208.126335
 31
0.0
  0
LINE
  5
22F
330
225
100
AcDbEntity
  8
LC-001-100-D00-0
 62
     7
370
    50
100
AcDbLine
 10
129.912015
 20
208.126335
 30
0.0
 11
129.959943
 21
208.352675
 31
0.0
  0
LINE
  5
230
330
225
100
AcDbEntity
  8
LC-001-100-D00-0
 62
     7
370
    50
100
AcDbLine
 10
129.959943
 20
208.352675
 30
0.0
 11
129.959943
 21
208.352675
 31
0.0
  0
LINE
  5
231
330
225
100
AcDbEntity
  8
LC-001-100-D00-0
 62
     7
370
    50
100
AcDbLine
 10
129.959943
 20
208.352675
 30
0.0
 11
130.013441
 21
208.478591
 31
0.0
  0
LINE
  5
232
330
225
100
AcDbEntity
  8
LC-001-100-D00-0
 62
     7
370
    50
100
AcDbLine
 10
130.013441
 20
208.478591
 30
0.0
 11
130.013441
 21
208.478591
 31
0.0
  0
LINE
  5
233
330
225
100
AcDbEntity
  8
LC-001-100-D00-0
 62
     7
370
    50
100
AcDbLine
 10
130.013441
 20
208.478591
 30
0.0
 11
130.048666
 21
208.492081
 31
0.0
  0
LINE
  5
234
330
225
100
AcDbEntity
  8
LC-001-100-D00-0
 62
     7
370
    50
100
AcDbLine
 10
130.048666
 20
208.492081
 30
0.0
 11
130.048666
 21
208.492081
 31
0.0
  0
LINE
  5
235
330
225
100
AcDbEntity
  8
LC-001-100-D00-0
 62
     7
370
    50
100
AcDbLine
 10
130.048666
 20
208.492081
 30
0.0
 11
130.063318
 21
208.497692
 31
0.0
  0
ENDBLK
  5
227
330
225
100
AcDbEntity
  8
0
100
AcDbBlockEnd
  0
BLOCK
  5
238
330
237
100
AcDbEntity
  8
0
100
AcDbBlockBegin
  2
POLY10
 70
     0
 71
     0
 10
0.0
 20
0.0
 30
0.0
  3
POLY10
  1

  4
POLY10
  0
LINE
  5
23A
330
237
100
AcDbEntity
  8
LC-001-100-D00-0
 62
     7
370
    50
100
AcDbLine
 10
73.026746
 20
208.497692
 30
0.0
 11
73.026746
 21
208.497692
 31
0.0
  0
LINE
  5
23B
330
237
100
AcDbEntity
  8
LC-001-100-D00-0
 62
     7
370
    50
100
AcDbLine
 10
73.026746
 20
208.497692
 30
0.0
 11
73.140731
 21
208.486339
 31
0.0
  0
LINE
  5
23C
330
237
100
AcDbEntity
  8
LC-001-100-D00-0
 62
     7
370
    50
100
AcDbLine
 10
73.140731
 20
208.486339
 30
0.0
 11
73.140731
 21
208.486339
 31
0.0
  0
LINE
  5
23D
330
237
100
AcDbEntity
  8
LC-001-100-D00-0
 62
     7
370
    50
100
AcDbLine
 10
73.140731
 20
208.486339
 30
0.0
 11
73.368728
 21
208.463631
 31
0.0
  0
LINE
  5
23E
330
237
100
AcDbEntity
  8
LC-001-100-D00-0
 62
     7
370
    50
100
AcDbLine
 10
73.368728
 20
208.463631
 30
0.0
 11
73.368728
 21
208.463631
 31
0.0
  0
LINE
  5
23F
330
237
100
AcDbEntity
  8
LC-001-100-D00-0
 62
     7
370
    50
100
AcDbLine
 10
73.368728
 20
208.463631
 30
0.0
 11
73.671743
 21
208.286402
 31
0.0
  0
LINE
  5
240
330
237
100
AcDbEntity
  8
LC-001-100-D00-0
 62
     7
370
    50
100
AcDbLine
 10
73.671743
 20
208.286402
 30
0.0
 11
73.671743
 21
208.286402
 31
0.0
  0
LINE
  5
241
330
237
100
AcDbEntity
  8
LC-001-100-D00-0
 62
     7
370
    50
100
AcDbLine
 10
73.671743
 20
208.286402
 30
0.0
 11
73.897724
 21
208.026446
 31
0.0
  0
LINE
  5
242
330
237
100
AcDbEntity
  8
LC-001-100-D00-0
 62
     7
370
    50
100
AcDbLine
 10
73.897724
 20
208.026446
 30
0.0
 11
73.897724
 21
208.026446
 31
0.0
  0
LINE
  5
243
330
237
100
AcDbEntity
  8
LC-001-100-D00-0
 62
     7
370
    50
100
AcDbLine
 10
73.897724
 20
208.026446
 30
0.0
 11
74.01163
 21
207.746149
 31
0.0
  0
LINE
  5
244
330
237
100
AcDbEntity
  8
LC-001-100-D00-0
 62
     7
370
    50
100
AcDbLine
 10
74.01163
 20
207.746149
 30
0.0
 11
74.01163
 21
207.746149
 31
0.0
  0
LINE
  5
245
330
237
100
AcDbEntity
  8
LC-001-100-D00-0
 62
     7
370
    50
100
AcDbLine
 10
74.01163
 20
207.746149
 30
0.0
 11
74.02262
 21
207.565507
 31
0.0
  0
LINE
  5
246
330
237
100
AcDbEntity
  8
LC-001-100-D00-0
 62
     7
370
    50
100
AcDbLine
 10
74.02262
 20
207.565507
 30
0.0
 11
74.02262
 21
207.565507
 31
0.0
  0
LINE
  5
247
330
237
100
AcDbEntity
  8
LC-001-100-D00-0
 62
     7
370
    50
100
AcDbLine
 10
74.02262
 20
207.565507
 30
0.0
 11
74.026746
 21
207.49769
 31
0.0
  0
ENDBLK
  5
239
330
237
100
AcDbEntity
  8
0
100
AcDbBlockEnd
  0
BLOCK
  5
288
330
287
100
AcDbEntity
  8
0
100
AcDbBlockBegin
  2
POLY11
 70
     0
 71
     0
 10
0.0
 20
0.0
 30
0.0
  3
POLY11
  1

  4
POLY11
  0
LINE
  5
28A
330
287
100
AcDbEntity
  8
LC-001-100-D00-0
 62
     7
370
    50
100
AcDbLine
 10
72.026746
 20
207.49769
 30
0.0
 11
72.026746
 21
207.49769
 31
0.0
  0
LINE
  5
28B
330
287
100
AcDbEntity
  8
LC-001-100-D00-0
 62
     7
370
    50
100
AcDbLine
 10
72.026746
 20
207.49769
 30
0.0
 11
72.037579
 21
207.608927
 31
0.0
  0
LINE
  5
28C
330
287
100
AcDbEntity
  8
LC-001-100-D00-0
 62
     7
370
    50
100
AcDbLine
 10
72.037579
 20
207.608927
 30
0.0
 11
72.037579
 21
207.608927
 31
0.0
  0
LINE
  5
28D
330
287
100
AcDbEntity
  8
LC-001-100-D00-0
 62
     7
370
    50
100
AcDbLine
 10
72.037579
 20
207.608927
 30
0.0
 11
72.059242
 21
207.831375
 31
0.0
  0
LINE
  5
28E
330
287
100
AcDbEntity
  8
LC-001-100-D00-0
 62
     7
370
    50
100
AcDbLine
 10
72.059242
 20
207.831375
 30
0.0
 11
72.059242
 21
207.831375
 31
0.0
  0
LINE
  5
28F
330
287
100
AcDbEntity
  8
LC-001-100-D00-0
 62
     7
370
    50
100
AcDbLine
 10
72.059242
 20
207.831375
 30
0.0
 11
72.227893
 21
208.128259
 31
0.0
  0
LINE
  5
290
330
287
100
AcDbEntity
  8
LC-001-100-D00-0
 62
     7
370
    50
100
AcDbLine
 10
72.227893
 20
208.128259
 30
0.0
 11
72.227893
 21
208.128259
 31
0.0
  0
LINE
  5
291
330
287
100
AcDbEntity
  8
LC-001-100-D00-0
 62
     7
370
    50
100
AcDbLine
 10
72.227893
 20
208.128259
 30
0.0
 11
72.476613
 21
208.354366
 31
0.0
  0
LINE
  5
292
330
287
100
AcDbEntity
  8
LC-001-100-D00-0
 62
     7
370
    50
100
AcDbLine
 10
72.476613
 20
208.354366
 30
0.0
 11
72.476613
 21
208.354366
 31
0.0
  0
LINE
  5
293
330
287
100
AcDbEntity
  8
LC-001-100-D00-0
 62
     7
370
    50
100
AcDbLine
 10
72.476613
 20
208.354366
 30
0.0
 11
72.758431
 21
208.478975
 31
0.0
  0
LINE
  5
294
330
287
100
AcDbEntity
  8
LC-001-100-D00-0
 62
     7
370
    50
100
AcDbLine
 10
72.758431
 20
208.478975
 30
0.0
 11
72.758431
 21
208.478975
 31
0.0
  0
LINE
  5
295
330
287
100
AcDbEntity
  8
LC-001-100-D00-0
 62
     7
370
    50
100
AcDbLine
 10
72.758431
 20
208.478975
 30
0.0
 11
72.94819
 21
208.492212
 31
0.0
  0
LINE
  5
296
330
287
100
AcDbEntity
  8
LC-001-100-D00-0
 62
     7
370
    50
100
AcDbLine
 10
72.94819
 20
208.492212
 30
0.0
 11
72.94819
 21
208.492212
 31
0.0
  0
LINE
  5
297
330
287
100
AcDbEntity
  8
LC-001-100-D00-0
 62
     7
370
    50
100
AcDbLine
 10
72.94819
 20
208.492212
 30
0.0
 11
73.026746
 21
208.497692
 31
0.0
  0
ENDBLK
  5
289
330
287
100
AcDbEntity
  8
0
100
AcDbBlockEnd
  0
BLOCK
  5
29D
330
29C
100
AcDbEntity
  8
0
100
AcDbBlockBegin
  2
POLY12
 70
     0
 71
     0
 10
0.0
 20
0.0
 30
0.0
  3
POLY12
  1

  4
POLY12
  0
LINE
  5
29F
330
29C
100
AcDbEntity
  8
LC-001-100-D00-0
 62
     7
370
    50
100
AcDbLine
 10
47.426666
 20
208.497692
 30
0.0
 11
47.426666
 21
208.497692
 31
0.0
  0
LINE
  5
2A0
330
29C
100
AcDbEntity
  8
LC-001-100-D00-0
 62
     7
370
    50
100
AcDbLine
 10
47.426666
 20
208.497692
 30
0.0
 11
47.540339
 21
208.486412
 31
0.0
  0
LINE
  5
2A1
330
29C
100
AcDbEntity
  8
LC-001-100-D00-0
 62
     7
370
    50
100
AcDbLine
 10
47.540339
 20
208.486412
 30
0.0
 11
47.540339
 21
208.486412
 31
0.0
  0
LINE
  5
2A2
330
29C
100
AcDbEntity
  8
LC-001-100-D00-0
 62
     7
370
    50
100
AcDbLine
 10
47.540339
 20
208.486412
 30
0.0
 11
47.767721
 21
208.46385
 31
0.0
  0
LINE
  5
2A3
330
29C
100
AcDbEntity
  8
LC-001-100-D00-0
 62
     7
370
    50
100
AcDbLine
 10
47.767721
 20
208.46385
 30
0.0
 11
47.767721
 21
208.46385
 31
0.0
  0
LINE
  5
2A4
330
29C
100
AcDbEntity
  8
LC-001-100-D00-0
 62
     7
370
    50
100
AcDbLine
 10
47.767721
 20
208.46385
 30
0.0
 11
48.070452
 21
208.287308
 31
0.0
  0
LINE
  5
2A5
330
29C
100
AcDbEntity
  8
LC-001-100-D00-0
 62
     7
370
    50
100
AcDbLine
 10
48.070452
 20
208.287308
 30
0.0
 11
48.070452
 21
208.287308
 31
0.0
  0
LINE
  5
2A6
330
29C
100
AcDbEntity
  8
LC-001-100-D00-0
 62
     7
370
    50
100
AcDbLine
 10
48.070452
 20
208.287308
 30
0.0
 11
48.29641
 21
208.028253
 31
0.0
  0
LINE
  5
2A7
330
29C
100
AcDbEntity
  8
LC-001-100-D00-0
 62
     7
370
    50
100
AcDbLine
 10
48.29641
 20
208.028253
 30
0.0
 11
48.29641
 21
208.028253
 31
0.0
  0
LINE
  5
2A8
330
29C
100
AcDbEntity
  8
LC-001-100-D00-0
 62
     7
370
    50
100
AcDbLine
 10
48.29641
 20
208.028253
 30
0.0
 11
48.411215
 21
207.747981
 31
0.0
  0
LINE
  5
2A9
330
29C
100
AcDbEntity
  8
LC-001-100-D00-0
 62
     7
370
    50
100
AcDbLine
 10
48.411215
 20
207.747981
 30
0.0
 11
48.411215
 21
207.747981
 31
0.0
  0
LINE
  5
2AA
330
29C
100
AcDbEntity
  8
LC-001-100-D00-0
 62
     7
370
    50
100
AcDbLine
 10
48.411215
 20
207.747981
 30
0.0
 11
48.422413
 21
207.566583
 31
0.0
  0
LINE
  5
2AB
330
29C
100
AcDbEntity
  8
LC-001-100-D00-0
 62
     7
370
    50
100
AcDbLine
 10
48.422413
 20
207.566583
 30
0.0
 11
48.422413
 21
207.566583
 31
0.0
  0
LINE
  5
2AC
330
29C
100
AcDbEntity
  8
LC-001-100-D00-0
 62
     7
370
    50
100
AcDbLine
 10
48.422413
 20
207.566583
 30
0.0
 11
48.426666
 21
207.49769
 31
0.0
  0
ENDBLK
  5
29E
330
29C
100
AcDbEntity
  8
0
100
AcDbBlockEnd
  0
BLOCK
  5
2AF
330
2AE
100
AcDbEntity
  8
0
100
AcDbBlockBegin
  2
KLON1
 70
     0
 71
     0
 10
0.0
 20
0.0
 30
0.0
  3
KLON1
  1

  4
KLON1
  0
LINE
  5
2B1
330
2AE
100
AcDbEntity
  8
LC-001-100-D00-0
 62
     1
370
    25
100
AcDbLine
 10
131.226649
 20
195.356298
 30
0.0
 11
134.126649
 21
198.256298
 31
0.0
  0
LINE
  5
2B2
330
2AE
100
AcDbEntity
  8
LC-001-100-D00-0
 62
     1
370
    25
100
AcDbLine
 10
130.430378
 20
217.010667
 30
0.0
 11
141.977431
 21
228.55772
 31
0.0
  0
LINE
  5
2B3
330
2AE
100
AcDbEntity
  8
LC-001-100-D00-0
 62
     1
370
    25
100
AcDbLine
 10
124.439511
 20
233.470441
 30
0.0
 11
135.986563
 21
245.017493
 31
0.0
  0
LINE
  5
2B4
330
2AE
100
AcDbEntity
  8
LC-001-100-D00-0
 62
     1
370
    25
100
AcDbLine
 10
118.448645
 20
249.930215
 30
0.0
 11
129.995696
 21
261.477266
 31
0.0
  0
LINE
  5
2B5
330
2AE
100
AcDbEntity
  8
LC-001-100-D00-0
 62
     1
370
    25
100
AcDbLine
 10
112.457778
 20
266.389989
 30
0.0
 11
124.004829
 21
277.937039
 31
0.0
  0
LINE
  5
2B6
330
2AE
100
AcDbEntity
  8
LC-001-100-D00-0
 62
     1
370
    25
100
AcDbLine
 10
100.014846
 20
276.397697
 30
0.0
 11
113.882123
 21
290.264973
 31
0.0
  0
LINE
  5
2B7
330
2AE
100
AcDbEntity
  8
LC-001-100-D00-0
 62
     1
370
    25
100
AcDbLine
 10
-11.635801
 20
187.197691
 30
0.0
 11
-10.773351
 21
188.06014
 31
0.0
  0
LINE
  5
2B8
330
2AE
100
AcDbEntity
  8
LC-001-100-D00-0
 62
     1
370
    25
100
AcDbLine
 10
77.564205
 20
276.397697
 30
0.0
 11
92.364205
 21
291.197697
 31
0.0
  0
LINE
  5
2B9
330
2AE
100
AcDbEntity
  8
LC-001-100-D00-0
 62
     1
370
    25
100
AcDbLine
 10
-13.673351
 20
207.61078
 30
0.0
 11
-10.273351
 21
211.01078
 31
0.0
  0
LINE
  5
2BA
330
2AE
100
AcDbEntity
  8
LC-001-100-D00-0
 62
     1
370
    25
100
AcDbLine
 10
55.113565
 20
276.397697
 30
0.0
 11
69.913565
 21
291.197697
 31
0.0
  0
LINE
  5
2BB
330
2AE
100
AcDbEntity
  8
LC-001-100-D00-0
 62
     1
370
    25
100
AcDbLine
 10
-25.156272
 20
218.5785
 30
0.0
 11
-0.39354
 21
243.341232
 31
0.0
  0
LINE
  5
2BC
330
2AE
100
AcDbEntity
  8
LC-001-100-D00-0
 62
     1
370
    25
100
AcDbLine
 10
32.662925
 20
276.397697
 30
0.0
 11
47.462925
 21
291.197697
 31
0.0
  0
LINE
  5
2BD
330
2AE
100
AcDbEntity
  8
LC-001-100-D00-0
 62
     1
370
    25
100
AcDbLine
 10
-12.308815
 20
253.876597
 30
0.0
 11
25.012285
 21
291.197697
 31
0.0
  0
ENDBLK
  5
2B0
330
2AE
100
AcDbEntity
  8
0
100
AcDbBlockEnd
  0
BLOCK
  5
2C0
330
2BF
100
AcDbEntity
  8
0
100
AcDbBlockBegin
  2
KLON2
 70
     0
 71
     0
 10
0.0
 20
0.0
 30
0.0
  3
KLON2
  1

  4
KLON2
  0
LINE
  5
2C2
330
2BF
100
AcDbEntity
  8
LC-001-100-D00-0
 62
     1
370
    25
100
AcDbLine
 10
120.920044
 20
117.697772
 30
0.0
 11
125.920044
 21
122.697772
 31
0.0
  0
LINE
  5
2C3
330
2BF
100
AcDbEntity
  8
LC-001-100-D00-0
 62
     1
370
    25
100
AcDbLine
 10
135.226649
 20
132.004377
 30
0.0
 11
137.726649
 21
134.504377
 31
0.0
  0
ENDBLK
  5
2C1
330
2BF
100
AcDbEntity
  8
0
100
AcDbBlockEnd
  0
BLOCK
  5
2C6
330
2C5
100
AcDbEntity
  8
0
100
AcDbBlockBegin
  2
KLON3
 70
     0
 71
     0
 10
0.0
 20
0.0
 30
0.0
  3
KLON3
  1

  4
KLON3
  0
LINE
  5
2C8
330
2C5
100
AcDbEntity
  8
LC-001-100-D00-0
 62
     1
370
    25
100
AcDbLine
 10
-11.283798
 20
120.197772
 30
0.0
 11
-8.783798
 21
122.697772
 31
0.0
  0
LINE
  5
2C9
330
2C5
100
AcDbEntity
  8
LC-001-100-D00-0
 62
     1
370
    25
100
AcDbLine
 10
-17.273351
 20
136.658859
 30
0.0
 11
-15.073351
 21
138.858859
 31
0.0
  0
ENDBLK
  5
2C7
330
2C5
100
AcDbEntity
  8
0
100
AcDbBlockEnd
  0
BLOCK
  5
2CC
330
2CB
100
AcDbEntity
  8
0
100
AcDbBlockBegin
  2
KLON4
 70
     0
 71
     0
 10
0.0
 20
0.0
 30
0.0
  3
KLON4
  1

  4
KLON4
  0
LINE
  5
2CE
330
2CB
100
AcDbEntity
  8
LC-001-100-D00-0
 62
     1
370
    25
100
AcDbLine
 10
123.726649
 20
165.405658
 30
0.0
 11
133.126649
 21
174.805658
 31
0.0
  0
LINE
  5
2CF
330
2CB
100
AcDbEntity
  8
LC-001-100-D00-0
 62
     1
370
    25
100
AcDbLine
 10
136.220703
 20
177.899712
 30
0.0
 11
140.326649
 21
182.005658
 31
0.0
  0
LINE
  5
2D0
330
2CB
100
AcDbEntity
  8
LC-001-100-D00-0
 62
     1
370
    25
100
AcDbLine
 10
171.018751
 20
212.69776
 30
0.0
 11
174.518682
 21
216.197691
 31
0.0
  0
LINE
  5
2D1
330
2CB
100
AcDbEntity
  8
LC-001-100-D00-0
 62
     1
370
    25
100
AcDbLine
 10
111.726649
 20
130.955008
 30
0.0
 11
113.468962
 21
132.697321
 31
0.0
  0
LINE
  5
2D2
330
2CB
100
AcDbEntity
  8
LC-001-100-D00-0
 62
     1
370
    25
100
AcDbLine
 10
123.726649
 20
142.955008
 30
0.0
 11
127.226649
 21
146.455008
 31
0.0
  0
LINE
  5
2D3
330
2CB
100
AcDbEntity
  8
LC-001-100-D00-0
 62
     1
370
    25
100
AcDbLine
 10
137.12031
 20
156.348669
 30
0.0
 11
140.326649
 21
159.555008
 31
0.0
  0
LINE
  5
2D4
330
2CB
100
AcDbEntity
  8
LC-001-100-D00-0
 62
     1
370
    25
100
AcDbLine
 10
193.469401
 20
212.69776
 30
0.0
 11
196.969332
 21
216.197691
 31
0.0
  0
LINE
  5
2D5
330
2CB
100
AcDbEntity
  8
LC-001-100-D00-0
 62
     1
370
    25
100
AcDbLine
 10
111.726649
 20
108.504358
 30
0.0
 11
115.226649
 21
112.004358
 31
0.0
  0
LINE
  5
2D6
330
2CB
100
AcDbEntity
  8
LC-001-100-D00-0
 62
     1
370
    25
100
AcDbLine
 10
137.422116
 20
134.199825
 30
0.0
 11
140.326649
 21
137.104358
 31
0.0
  0
LINE
  5
2D7
330
2CB
100
AcDbEntity
  8
LC-001-100-D00-0
 62
     1
370
    25
100
AcDbLine
 10
215.920051
 20
212.69776
 30
0.0
 11
219.419982
 21
216.197691
 31
0.0
  0
LINE
  5
2D8
330
2CB
100
AcDbEntity
  8
LC-001-100-D00-0
 62
     1
370
    25
100
AcDbLine
 10
111.726649
 20
86.053658
 30
0.0
 11
115.226649
 21
89.553658
 31
0.0
  0
ENDBLK
  5
2CD
330
2CB
100
AcDbEntity
  8
0
100
AcDbBlockEnd
  0
BLOCK
  5
2DC
330
2DB
100
AcDbEntity
  8
0
100
AcDbBlockBegin
  2
KLON5
 70
     0
 71
     0
 10
0.0
 20
0.0
 30
0.0
  3
KLON5
  1

  4
KLON5
  0
LINE
  5
2DE
330
2DB
100
AcDbEntity
  8
LC-001-100-D00-0
 62
     1
370
    25
100
AcDbLine
 10
-19.873351
 20
156.5095
 30
0.0
 11
-16.620496
 21
159.762355
 31
0.0
  0
LINE
  5
2DF
330
2DB
100
AcDbEntity
  8
LC-001-100-D00-0
 62
     1
370
    25
100
AcDbLine
 10
-7.68508
 20
168.69777
 30
0.0
 11
-4.188672
 21
172.194179
 31
0.0
  0
LINE
  5
2E0
330
2DB
100
AcDbEntity
  8
LC-001-100-D00-0
 62
     1
370
    25
100
AcDbLine
 10
-98.388932
 20
212.69776
 30
0.0
 11
-94.889002
 21
216.197691
 31
0.0
  0
LINE
  5
2E1
330
2DB
100
AcDbEntity
  8
LC-001-100-D00-0
 62
     1
370
    25
100
AcDbLine
 10
-19.873351
 20
134.05885
 30
0.0
 11
-16.930641
 21
137.00156
 31
0.0
  0
LINE
  5
2E2
330
2DB
100
AcDbEntity
  8
LC-001-100-D00-0
 62
     1
370
    25
100
AcDbLine
 10
-6.773351
 20
147.15885
 30
0.0
 11
-3.273351
 21
150.65885
 31
0.0
  0
LINE
  5
2E3
330
2DB
100
AcDbEntity
  8
LC-001-100-D00-0
 62
     1
370
    25
100
AcDbLine
 10
-75.938282
 20
212.69776
 30
0.0
 11
-72.438352
 21
216.197691
 31
0.0
  0
LINE
  5
2E4
330
2DB
100
AcDbEntity
  8
LC-001-100-D00-0
 62
     1
370
    25
100
AcDbLine
 10
-2.283778
 20
129.197772
 30
0.0
 11
1.21577
 21
132.697321
 31
0.0
  0
LINE
  5
2E5
330
2DB
100
AcDbEntity
  8
LC-001-100-D00-0
 62
     1
370
    25
100
AcDbLine
 10
-53.487632
 20
212.69776
 30
0.0
 11
-49.987702
 21
216.197691
 31
0.0
  0
LINE
  5
2E6
330
2DB
100
AcDbEntity
  8
LC-001-100-D00-0
 62
     1
370
    25
100
AcDbLine
 10
5.226649
 20
114.2575
 30
0.0
 11
8.726649
 21
117.7575
 31
0.0
  0
LINE
  5
2E7
330
2DB
100
AcDbEntity
  8
LC-001-100-D00-0
 62
     1
370
    25
100
AcDbLine
 10
-31.036932
 20
212.69776
 30
0.0
 11
-27.537002
 21
216.197691
 31
0.0
  0
ENDBLK
  5
2DD
330
2DB
100
AcDbEntity
  8
0
100
AcDbBlockEnd
  0
BLOCK
  5
2FB
330
2F1
100
AcDbEntity
  8
0
100
AcDbBlockBegin
  2
*D18
 70
     1
 71
     0
 10
0.0
 20
0.0
 30
0.0
  3
*D18
  1

  0
LINE
  5
2F2
330
2F1
100
AcDbEntity
  8
LC-002-003-----0
 62
     2
370
    -2
100
AcDbLine
 10
-119.773358
 20
212.697763
 30
0.0
 11
-119.773358
 21
328.563763
 31
0.0
  0
LINE
  5
2F3
330
2F1
100
AcDbEntity
  8
LC-002-003-----0
 62
     2
370
    -2
100
AcDbLine
 10
240.226656
 20
212.697763
 30
0.0
 11
240.226656
 21
328.563763
 31
0.0
  0
LINE
  5
2F4
330
2F1
100
AcDbEntity
  8
LC-002-003-----0
 62
     2
370
    -2
100
AcDbLine
 10
-91.773358
 20
324.963763
 30
0.0
 11
212.226656
 21
324.963763
 31
0.0
  0
SOLID
  5
2F5
330
2F1
100
AcDbEntity
  8
LC-002-003-----0
 62
     2
100
AcDbTrace
 10
-91.773358
 20
329.630429
 30
0.0
 11
-91.773358
 21
320.297096
 31
0.0
 12
-119.773358
 22
324.963763
 32
0.0
 13
-119.773358
 23
324.963763
 33
0.0
  0
SOLID
  5
2F6
330
2F1
100
AcDbEntity
  8
LC-002-003-----0
 62
     2
100
AcDbTrace
 10
212.226656
 20
320.297096
 30
0.0
 11
212.226656
 21
329.630429
 31
0.0
 12
240.226656
 22
324.963763
 32
0.0
 13
240.226656
 23
324.963763
 33
0.0
  0
MTEXT
  5
2F7
330
2F1
100
AcDbEntity
  8
LC-002-003-----0
 62
     2
100
AcDbMText
 10
58.407979
 20
355.763763
 30
0.0
 40
28.0
 41
0.0
 71
     5
 72
     1
  1
%%c\A1;360
  7
LCTX15-400-0-0pDIN-Schrift
 73
     1
 44
1.0
  0
POINT
  5
2F8
330
2F1
100
AcDbEntity
  8
Defpoints
 62
     0
100
AcDbPoint
 10
-119.773358
 20
212.697763
 30
0.0
  0
POINT
  5
2F9
330
2F1
100
AcDbEntity
  8
Defpoints
 62
     0
100
AcDbPoint
 10
240.226656
 20
212.697763
 30
0.0
  0
POINT
  5
2FA
330
2F1
100
AcDbEntity
  8
Defpoints
 62
     0
100
AcDbPoint
 10
240.226656
 20
324.963763
 30
0.0
  0
ENDBLK
  5
2FC
330
2F1
100
AcDbEntity
  8
0
100
AcDbBlockEnd
  0
BLOCK
  5
308
330
2FE
100
AcDbEntity
  8
0
100
AcDbBlockBegin
  2
*D19
 70
     1
 71
     0
 10
0.0
 20
0.0
 30
0.0
  3
*D19
  1

  0
LINE
  5
2FF
330
2FE
100
AcDbEntity
  8
LC-002-003-----0
 62
     2
370
    -2
100
AcDbLine
 10
-19.873351
 20
130.197774
 30
0.0
 11
-19.873351
 21
-61.766237
 31
0.0
  0
LINE
  5
300
330
2FE
100
AcDbEntity
  8
LC-002-003-----0
 62
     2
370
    -2
100
AcDbLine
 10
140.326649
 20
130.197774
 30
0.0
 11
140.326649
 21
-61.766237
 31
0.0
  0
LINE
  5
301
330
2FE
100
AcDbEntity
  8
LC-002-003-----0
 62
     2
370
    -2
100
AcDbLine
 10
8.126649
 20
-58.166237
 30
0.0
 11
112.326649
 21
-58.166237
 31
0.0
  0
SOLID
  5
302
330
2FE
100
AcDbEntity
  8
LC-002-003-----0
 62
     2
100
AcDbTrace
 10
8.126649
 20
-53.499571
 30
0.0
 11
8.126649
 21
-62.832904
 31
0.0
 12
-19.873351
 22
-58.166237
 32
0.0
 13
-19.873351
 23
-58.166237
 33
0.0
  0
SOLID
  5
303
330
2FE
100
AcDbEntity
  8
LC-002-003-----0
 62
     2
100
AcDbTrace
 10
112.326649
 20
-62.832904
 30
0.0
 11
112.326649
 21
-53.499571
 31
0.0
 12
140.326649
 22
-58.166237
 32
0.0
 13
140.326649
 23
-58.166237
 33
0.0
  0
MTEXT
  5
304
330
2FE
100
AcDbEntity
  8
LC-002-003-----0
 62
     2
100
AcDbMText
 10
55.748556
 20
-27.366237
 30
0.0
 40
28.0
 41
0.0
 71
     5
 72
     1
  1
\A1;%%c160
  7
LCTX15-400-0-0pDIN-Schrift
 73
     1
 44
1.0
  0
POINT
  5
305
330
2FE
100
AcDbEntity
  8
Defpoints
 62
     0
100
AcDbPoint
 10
-19.873351
 20
130.197774
 30
0.0
  0
POINT
  5
306
330
2FE
100
AcDbEntity
  8
Defpoints
 62
     0
100
AcDbPoint
 10
140.326649
 20
130.197774
 30
0.0
  0
POINT
  5
307
330
2FE
100
AcDbEntity
  8
Defpoints
 62
     0
100
AcDbPoint
 10
140.326649
 20
-58.166237
 30
0.0
  0
ENDBLK
  5
309
330
2FE
100
AcDbEntity
  8
0
100
AcDbBlockEnd
  0
BLOCK
  5
315
330
30B
100
AcDbEntity
  8
0
100
AcDbBlockBegin
  2
*D20
 70
     1
 71
     0
 10
0.0
 20
0.0
 30
0.0
  3
*D20
  1

  0
LINE
  5
30C
330
30B
100
AcDbEntity
  8
LC-002-003-----0
 62
     2
370
    -2
100
AcDbLine
 10
5.226649
 20
61.197771
 30
0.0
 11
5.226649
 21
5.355763
 31
0.0
  0
LINE
  5
30D
330
30B
100
AcDbEntity
  8
LC-002-003-----0
 62
     2
370
    -2
100
AcDbLine
 10
115.226649
 20
61.197771
 30
0.0
 11
115.226649
 21
5.355763
 31
0.0
  0
LINE
  5
30E
330
30B
100
AcDbEntity
  8
LC-002-003-----0
 62
     2
370
    -2
100
AcDbLine
 10
33.226649
 20
8.955763
 30
0.0
 11
87.226649
 21
8.955763
 31
0.0
  0
SOLID
  5
30F
330
30B
100
AcDbEntity
  8
LC-002-003-----0
 62
     2
100
AcDbTrace
 10
33.226649
 20
13.622429
 30
0.0
 11
33.226649
 21
4.289096
 31
0.0
 12
5.226649
 22
8.955763
 32
0.0
 13
5.226649
 23
8.955763
 33
0.0
  0
SOLID
  5
310
330
30B
100
AcDbEntity
  8
LC-002-003-----0
 62
     2
100
AcDbTrace
 10
87.226649
 20
4.289096
 30
0.0
 11
87.226649
 21
13.622429
 31
0.0
 12
115.226649
 22
8.955763
 32
0.0
 13
115.226649
 23
8.955763
 33
0.0
  0
MTEXT
  5
311
330
30B
100
AcDbEntity
  8
LC-002-003-----0
 62
     2
100
AcDbMText
 10
65.499774
 20
39.755763
 30
0.0
 40
28.0
 41
0.0
 71
     5
 72
     1
  1
\A1;DN100
  7
LCTX15-400-0-0pDIN-Schrift
 73
     1
 44
1.0
  0
POINT
  5
312
330
30B
100
AcDbEntity
  8
Defpoints
 62
     0
100
AcDbPoint
 10
5.226649
 20
61.197771
 30
0.0
  0
POINT
  5
313
330
30B
100
AcDbEntity
  8
Defpoints
 62
     0
100
AcDbPoint
 10
115.226649
 20
61.197771
 30
0.0
  0
POINT
  5
314
330
30B
100
AcDbEntity
  8
Defpoints
 62
     0
100
AcDbPoint
 10
115.226649
 20
8.955763
 30
0.0
  0
ENDBLK
  5
316
330
30B
100
AcDbEntity
  8
0
100
AcDbBlockEnd
  0
BLOCK
  5
322
330
318
100
AcDbEntity
  8
0
100
AcDbBlockBegin
  2
*D21
 70
     1
 71
     0
 10
0.0
 20
0.0
 30
0.0
  3
*D21
  1

  0
LINE
  5
319
330
318
100
AcDbEntity
  8
LC-002-003-----0
 62
     2
370
    -2
100
AcDbLine
 10
-117.773351
 20
216.197691
 30
0.0
 11
-76.282014
 21
216.197691
 31
0.0
  0
LINE
  5
31A
330
318
100
AcDbEntity
  8
LC-002-003-----0
 62
     2
370
    -2
100
AcDbLine
 10
-11.773351
 20
120.197772
 30
0.0
 11
-83.482014
 21
120.197772
 31
0.0
  0
LINE
  5
31B
330
318
100
AcDbEntity
  8
LC-002-003-----0
 62
     2
370
    -2
100
AcDbLine
 10
-79.882014
 20
188.197691
 30
0.0
 11
-79.882014
 21
148.197772
 31
0.0
  0
SOLID
  5
31C
330
318
100
AcDbEntity
  8
LC-002-003-----0
 62
     2
100
AcDbTrace
 10
-75.215347
 20
188.197691
 30
0.0
 11
-84.548681
 21
188.197691
 31
0.0
 12
-79.882014
 22
216.197691
 32
0.0
 13
-79.882014
 23
216.197691
 33
0.0
  0
SOLID
  5
31D
330
318
100
AcDbEntity
  8
LC-002-003-----0
 62
     2
100
AcDbTrace
 10
-84.548681
 20
148.197772
 30
0.0
 11
-75.215347
 21
148.197772
 31
0.0
 12
-79.882014
 22
120.197772
 32
0.0
 13
-79.882014
 23
120.197772
 33
0.0
  0
MTEXT
  5
31E
330
318
100
AcDbEntity
  8
LC-002-003-----0
 62
     2
100
AcDbMText
 10
-110.682014
 20
162.207763
 30
0.0
 40
28.0
 41
0.0
 71
     5
 72
     1
  1
\A1;96
  7
LCTX15-400-0-0pDIN-Schrift
 11
6.123031769111886E-17
 21
1.0
 31
0.0
 73
     1
 44
1.0
  0
POINT
  5
31F
330
318
100
AcDbEntity
  8
Defpoints
 62
     0
100
AcDbPoint
 10
-117.773351
 20
216.197691
 30
0.0
  0
POINT
  5
320
330
318
100
AcDbEntity
  8
Defpoints
 62
     0
100
AcDbPoint
 10
-11.773351
 20
120.197772
 30
0.0
  0
POINT
  5
321
330
318
100
AcDbEntity
  8
Defpoints
 62
     0
100
AcDbPoint
 10
-79.882014
 20
120.197772
 30
0.0
  0
ENDBLK
  5
323
330
318
100
AcDbEntity
  8
0
100
AcDbBlockEnd
  0
BLOCK
  5
32F
330
325
100
AcDbEntity
  8
0
100
AcDbBlockBegin
  2
*D22
 70
     1
 71
     0
 10
0.0
 20
0.0
 30
0.0
  3
*D22
  1

  0
LINE
  5
326
330
325
100
AcDbEntity
  8
LC-002-003-----0
 62
     2
370
    -2
100
AcDbLine
 10
-117.773351
 20
216.197691
 30
0.0
 11
-141.989319
 21
216.197691
 31
0.0
  0
LINE
  5
327
330
325
100
AcDbEntity
  8
LC-002-003-----0
 62
     2
370
    -2
100
AcDbLine
 10
8.726649
 20
56.197771
 30
0.0
 11
-141.989319
 21
56.197771
 31
0.0
  0
LINE
  5
328
330
325
100
AcDbEntity
  8
LC-002-003-----0
 62
     2
370
    -2
100
AcDbLine
 10
-138.389319
 20
188.197691
 30
0.0
 11
-138.389319
 21
84.197771
 31
0.0
  0
SOLID
  5
329
330
325
100
AcDbEntity
  8
LC-002-003-----0
 62
     2
100
AcDbTrace
 10
-133.722652
 20
188.197691
 30
0.0
 11
-143.055985
 21
188.197691
 31
0.0
 12
-138.389319
 22
216.197691
 32
0.0
 13
-138.389319
 23
216.197691
 33
0.0
  0
SOLID
  5
32A
330
325
100
AcDbEntity
  8
LC-002-003-----0
 62
     2
100
AcDbTrace
 10
-143.055985
 20
84.197771
 30
0.0
 11
-133.722652
 21
84.197771
 31
0.0
 12
-138.389319
 22
56.197771
 32
0.0
 13
-138.389319
 23
56.197771
 33
0.0
  0
MTEXT
  5
32B
330
325
100
AcDbEntity
  8
LC-002-003-----0
 62
     2
100
AcDbMText
 10
-169.189319
 20
134.289763
 30
0.0
 40
28.0
 41
0.0
 71
     5
 72
     1
  1
\A1;160
  7
LCTX15-400-0-0pDIN-Schrift
 11
6.123031769111886E-17
 21
1.0
 31
0.0
 73
     1
 44
1.0
  0
POINT
  5
32C
330
325
100
AcDbEntity
  8
Defpoints
 62
     0
100
AcDbPoint
 10
-117.773351
 20
216.197691
 30
0.0
  0
POINT
  5
32D
330
325
100
AcDbEntity
  8
Defpoints
 62
     0
100
AcDbPoint
 10
8.726649
 20
56.197771
 30
0.0
  0
POINT
  5
32E
330
325
100
AcDbEntity
  8
Defpoints
 62
     0
100
AcDbPoint
 10
-138.389319
 20
56.197771
 30
0.0
  0
ENDBLK
  5
330
330
325
100
AcDbEntity
  8
0
100
AcDbBlockEnd
  0
ENDSEC
  0
SECTION
  2
ENTITIES
  0
LINE
  5
31
330
1F
100
AcDbEntity
  8
LC-001-100-D00-0
 62
     7
370
    50
100
AcDbLine
 10
-15.868649
 20
181.39926
 30
0.0
 11
-9.023354
 21
181.39926
 31
0.0
  0
LINE
  5
32
330
1F
100
AcDbEntity
  8
LC-001-100-D00-0
 62
     7
370
    50
100
AcDbLine
 10
-17.023347
 20
183.399264
 30
0.0
 11
-15.868649
 21
181.39926
 31
0.0
  0
LINE
  5
33
330
1F
100
AcDbEntity
  8
LC-001-100-D00-0
 62
     7
370
    50
100
AcDbLine
 10
-17.023347
 20
185.899261
 30
0.0
 11
-17.023347
 21
183.399264
 31
0.0
  0
LINE
  5
34
330
1F
100
AcDbEntity
  8
LC-001-100-D00-0
 62
     7
370
    50
100
AcDbLine
 10
-6.523348
 20
185.899261
 30
0.0
 11
-17.023347
 21
185.899261
 31
0.0
  0
ARC
  5
35
330
1F
100
AcDbEntity
  8
LC-001-100-D00-0
 62
     7
370
    50
100
AcDbCircle
 10
-6.523351
 20
183.899261
 30
0.0
 40
2.0
100
AcDbArc
 50
0.0
 51
90.0
  0
LINE
  5
36
330
1F
100
AcDbEntity
  8
LC-001-100-D00-0
 62
     7
370
    50
100
AcDbLine
 10
-4.523352
 20
183.399264
 30
0.0
 11
-4.523352
 21
183.899257
 31
0.0
  0
ARC
  5
37
330
1F
100
AcDbEntity
  8
LC-001-100-D00-0
 62
     7
370
    50
100
AcDbCircle
 10
-7.023351
 20
181.399261
 30
0.0
 40
2.0
100
AcDbArc
 50
90.0
 51
180.0
  0
LINE
  5
38
330
1F
100
AcDbEntity
  8
LC-001-100-D00-0
 62
     7
370
    50
100
AcDbLine
 10
-7.023349
 20
183.399264
 30
0.0
 11
-4.523352
 21
183.399264
 31
0.0
  0
LINE
  5
39
330
1F
100
AcDbEntity
  8
LC-001-100-D00-0
 62
     7
370
    50
100
AcDbLine
 10
136.321947
 20
181.39926
 30
0.0
 11
137.476645
 21
183.399264
 31
0.0
  0
LINE
  5
3A
330
1F
100
AcDbEntity
  8
LC-001-100-D00-0
 62
     7
370
    50
100
AcDbLine
 10
124.97665
 20
183.899257
 30
0.0
 11
124.97665
 21
183.399264
 31
0.0
  0
LINE
  5
3B
330
1F
100
AcDbEntity
  8
LC-001-100-D00-0
 62
     7
370
    50
100
AcDbLine
 10
-4.523352
 20
183.399264
 30
0.0
 11
124.97665
 21
183.399264
 31
0.0
  0
LINE
  5
3C
330
1F
100
AcDbEntity
  8
LC-001-100-D00-0
 62
     7
370
    50
100
AcDbLine
 10
137.476645
 20
183.399264
 30
0.0
 11
137.476645
 21
185.899261
 31
0.0
  0
ARC
  5
3D
330
1F
100
AcDbEntity
  8
LC-001-100-D00-0
 62
     7
370
    50
100
AcDbCircle
 10
126.976649
 20
183.899261
 30
0.0
 40
2.0
100
AcDbArc
 50
90.0
 51
180.0
  0
ARC
  5
3E
330
1F
100
AcDbEntity
  8
LC-001-100-D00-0
 62
     7
370
    50
100
AcDbCircle
 10
127.476649
 20
181.399261
 30
0.0
 40
2.0
100
AcDbArc
 50
0.0
 51
90.0
  0
LINE
  5
3F
330
1F
100
AcDbEntity
  8
LC-001-100-D00-0
 62
     7
370
    50
100
AcDbLine
 10
137.476645
 20
185.899261
 30
0.0
 11
126.976646
 21
185.899261
 31
0.0
  0
LINE
  5
40
330
1F
100
AcDbEntity
  8
LC-001-100-D00-0
 62
     7
370
    50
100
AcDbLine
 10
129.476651
 20
181.39926
 30
0.0
 11
136.321947
 21
181.39926
 31
0.0
  0
LINE
  5
41
330
1F
100
AcDbEntity
  8
LC-001-100-D00-0
 62
     7
370
    50
100
AcDbLine
 10
124.97665
 20
183.399264
 30
0.0
 11
127.476647
 21
183.399264
 31
0.0
  0
LINE
  5
42
330
1F
100
AcDbEntity
  8
LC-001-100-D00-0
 62
     7
370
    50
100
AcDbLine
 10
-6.523348
 20
185.899261
 30
0.0
 11
126.976646
 21
185.899261
 31
0.0
  0
LINE
  5
43
330
1F
100
AcDbEntity
  8
LC-001-100-D00-0
 62
     7
370
    50
100
AcDbLine
 10
-9.023354
 20
181.39926
 30
0.0
 11
129.476651
 21
181.39926
 31
0.0
  0
LINE
  5
44
330
1F
100
AcDbEntity
  8
LC-001-100-D00-0
 62
     7
370
    50
100
AcDbLine
 10
137.226649
 20
185.997773
 30
0.0
 11
135.726646
 21
186.997775
 31
0.0
  0
LINE
  5
45
330
1F
100
AcDbEntity
  8
LC-001-100-D00-0
 62
     7
370
    50
100
AcDbLine
 10
135.726646
 20
186.997775
 30
0.0
 11
135.726646
 21
191.254694
 31
0.0
  0
LINE
  5
46
330
1F
100
AcDbEntity
  8
LC-001-100-D00-0
 62
     7
370
    50
100
AcDbLine
 10
135.726646
 20
191.254694
 30
0.0
 11
134.976737
 21
191.697765
 31
0.0
  0
LINE
  5
47
330
1F
100
AcDbEntity
  8
LC-001-100-D00-0
 62
     7
370
    50
100
AcDbLine
 10
134.976737
 20
191.697765
 30
0.0
 11
134.976737
 21
192.597765
 31
0.0
  0
LINE
  5
48
330
1F
100
AcDbEntity
  8
LC-001-100-D00-0
 62
     7
370
    50
100
AcDbLine
 10
134.976737
 20
192.597765
 30
0.0
 11
138.976596
 21
199.499596
 31
0.0
  0
LINE
  5
49
330
1F
100
AcDbEntity
  8
LC-001-100-D00-0
 62
     7
370
    50
100
AcDbLine
 10
138.976596
 20
199.499596
 30
0.0
 11
138.976648
 21
215.197701
 31
0.0
  0
ARC
  5
4A
330
1F
100
AcDbEntity
  8
LC-001-100-D00-0
 62
     7
370
    50
100
AcDbCircle
 10
139.976646
 20
215.197691
 30
0.0
 40
1.0
100
AcDbArc
 50
90.0
 51
179.999828
  0
LINE
  5
4B
330
1F
100
AcDbEntity
  8
LC-001-100-D00-0
 62
     7
370
    50
100
AcDbLine
 10
139.976643
 20
216.197688
 30
0.0
 11
222.226649
 21
216.197688
 31
0.0
  0
LINE
  5
4C
330
1F
100
AcDbEntity
  8
LC-001-100-D00-0
 62
     7
370
    50
100
AcDbLine
 10
222.226649
 20
216.197688
 30
0.0
 11
224.226654
 21
214.197684
 31
0.0
  0
LINE
  5
4D
330
1F
100
AcDbEntity
  8
LC-001-100-D00-0
 62
     7
370
    50
100
AcDbLine
 10
224.226654
 20
212.697763
 30
0.0
 11
224.226654
 21
214.197684
 31
0.0
  0
LINE
  5
4E
330
1F
100
AcDbEntity
  8
LC-001-100-D00-0
 62
     7
370
    50
100
AcDbLine
 10
224.226654
 20
212.697763
 30
0.0
 11
142.476648
 21
212.697763
 31
0.0
  0
LINE
  5
4F
330
1F
100
AcDbEntity
  8
LC-001-100-D00-0
 62
     7
370
    50
100
AcDbLine
 10
142.476648
 20
212.697763
 30
0.0
 11
142.476633
 21
198.597777
 31
0.0
  0
LINE
  5
50
330
1F
100
AcDbEntity
  8
LC-001-100-D00-0
 62
     7
370
    50
100
AcDbLine
 10
142.476633
 20
198.597777
 30
0.0
 11
140.326649
 21
194.797773
 31
0.0
  0
LINE
  5
51
330
1F
100
AcDbEntity
  8
LC-001-100-D00-0
 62
     7
370
    50
100
AcDbLine
 10
140.326649
 20
194.797773
 30
0.0
 11
140.326649
 21
130.197774
 31
0.0
  0
LINE
  5
52
330
1F
100
AcDbEntity
  8
LC-001-100-D00-0
 62
     7
370
    50
100
AcDbLine
 10
140.326649
 20
130.197774
 30
0.0
 11
137.476645
 21
130.197774
 31
0.0
  0
LINE
  5
53
330
1F
100
AcDbEntity
  8
LC-001-100-D00-0
 62
     7
370
    50
100
AcDbLine
 10
137.476645
 20
130.197774
 30
0.0
 11
136.826649
 21
177.899707
 31
0.0
  0
LINE
  5
54
330
1F
100
AcDbEntity
  8
LC-001-100-D00-0
 62
     7
370
    50
100
AcDbLine
 10
136.826649
 20
177.899707
 30
0.0
 11
133.126646
 21
177.899707
 31
0.0
  0
LINE
  5
55
330
1F
100
AcDbEntity
  8
LC-001-100-D00-0
 62
     7
370
    50
100
AcDbLine
 10
133.126646
 20
177.899707
 30
0.0
 11
133.126646
 21
171.197776
 31
0.0
  0
ARC
  5
56
330
1F
100
AcDbEntity
  8
LC-001-100-D00-0
 62
     7
370
    50
100
AcDbCircle
 10
130.626649
 20
171.19777
 30
0.0
 40
2.5
100
AcDbArc
 50
270.0
 51
0.0
  0
LINE
  5
57
330
1F
100
AcDbEntity
  8
LC-001-100-D00-0
 62
     7
370
    50
100
AcDbLine
 10
130.626649
 20
168.697771
 30
0.0
 11
127.226651
 21
168.697771
 31
0.0
  0
LINE
  5
58
330
1F
100
AcDbEntity
  8
LC-001-100-D00-0
 62
     7
370
    50
100
AcDbLine
 10
127.226651
 20
168.697771
 30
0.0
 11
127.226651
 21
129.197772
 31
0.0
  0
LINE
  5
59
330
1F
100
AcDbEntity
  8
LC-001-100-D00-0
 62
     7
370
    50
100
AcDbLine
 10
127.226651
 20
129.197772
 30
0.0
 11
117.226649
 21
129.197772
 31
0.0
  0
LINE
  5
5A
330
1F
100
AcDbEntity
  8
LC-001-100-D00-0
 62
     7
370
    50
100
AcDbLine
 10
117.226649
 20
129.197772
 30
0.0
 11
115.226649
 21
128.947768
 31
0.0
  0
LINE
  5
5B
330
1F
100
AcDbEntity
  8
LC-001-100-D00-0
 62
     7
370
    50
100
AcDbLine
 10
115.226649
 20
128.947768
 30
0.0
 11
115.226649
 21
61.197771
 31
0.0
  0
LINE
  5
5C
330
1F
100
AcDbEntity
  8
LC-001-100-D00-0
 62
     7
370
    50
100
AcDbLine
 10
115.226649
 20
61.197771
 30
0.0
 11
113.886904
 21
56.197771
 31
0.0
  0
LINE
  5
5D
330
1F
100
AcDbEntity
  8
LC-001-100-D00-0
 62
     7
370
    50
100
AcDbLine
 10
113.886904
 20
56.197771
 30
0.0
 11
111.726649
 21
56.197771
 31
0.0
  0
LINE
  5
5E
330
1F
100
AcDbEntity
  8
LC-001-100-D00-0
 62
     7
370
    50
100
AcDbLine
 10
111.726649
 20
56.197771
 30
0.0
 11
111.726649
 21
132.697318
 31
0.0
  0
LINE
  5
5F
330
1F
100
AcDbEntity
  8
LC-001-100-D00-0
 62
     7
370
    50
100
AcDbLine
 10
111.726649
 20
132.697318
 30
0.0
 11
123.726651
 21
132.697318
 31
0.0
  0
LINE
  5
60
330
1F
100
AcDbEntity
  8
LC-001-100-D00-0
 62
     7
370
    50
100
AcDbLine
 10
123.726651
 20
132.697318
 30
0.0
 11
123.726651
 21
171.197776
 31
0.0
  0
ARC
  5
61
330
1F
100
AcDbEntity
  8
LC-001-100-D00-0
 62
     7
370
    50
100
AcDbCircle
 10
124.726649
 20
171.19777
 30
0.0
 40
1.0
100
AcDbArc
 50
90.0
 51
180.0
  0
LINE
  5
62
330
1F
100
AcDbEntity
  8
LC-001-100-D00-0
 62
     7
370
    50
100
AcDbLine
 10
124.726646
 20
172.197778
 30
0.0
 11
128.626652
 21
172.197778
 31
0.0
  0
ARC
  5
63
330
1F
100
AcDbEntity
  8
LC-001-100-D00-0
 62
     7
370
    50
100
AcDbCircle
 10
128.626649
 20
173.19777
 30
0.0
 40
1.000000000000114
100
AcDbArc
 50
270.0
 51
0.0
  0
LINE
  5
64
330
1F
100
AcDbEntity
  8
LC-001-100-D00-0
 62
     7
370
    50
100
AcDbLine
 10
129.626647
 20
173.197765
 30
0.0
 11
129.626647
 21
180.399258
 31
0.0
  0
ARC
  5
65
330
1F
100
AcDbEntity
  8
LC-001-100-D00-0
 62
     7
370
    50
100
AcDbCircle
 10
130.626649
 20
180.399261
 30
0.0
 40
1.000000000000114
100
AcDbArc
 50
90.0
 51
180.0
  0
LINE
  5
66
330
1F
100
AcDbEntity
  8
LC-001-100-D00-0
 62
     7
370
    50
100
AcDbLine
 10
130.626649
 20
181.39926
 30
0.0
 11
137.226649
 21
181.39926
 31
0.0
  0
LINE
  5
67
330
1F
100
AcDbEntity
  8
LC-001-100-D00-0
 62
     7
370
    50
100
AcDbLine
 10
137.226649
 20
181.39926
 30
0.0
 11
137.226649
 21
185.997773
 31
0.0
  0
LINE
  5
68
330
1F
100
AcDbEntity
  8
LC-001-100-D00-0
 62
     7
370
    50
100
AcDbLine
 10
8.726649
 20
132.697318
 30
0.0
 11
8.726649
 21
56.197771
 31
0.0
  0
LINE
  5
69
330
1F
100
AcDbEntity
  8
LC-001-100-D00-0
 62
     7
370
    50
100
AcDbLine
 10
111.726649
 20
132.697318
 30
0.0
 11
8.726649
 21
132.697318
 31
0.0
  0
LINE
  5
6A
330
1F
100
AcDbEntity
  8
LC-001-100-D00-0
 62
     7
370
    50
100
AcDbLine
 10
111.726649
 20
56.197771
 30
0.0
 11
8.726649
 21
56.197771
 31
0.0
  0
LINE
  5
6B
330
1F
100
AcDbEntity
  8
LC-001-100-D00-0
 62
     7
370
    50
100
AcDbLine
 10
-16.773351
 20
181.39926
 30
0.0
 11
-10.173351
 21
181.39926
 31
0.0
  0
ARC
  5
6C
330
1F
100
AcDbEntity
  8
LC-001-100-D00-0
 62
     7
370
    50
100
AcDbCircle
 10
-10.173351
 20
180.399261
 30
0.0
 40
1.0
100
AcDbArc
 50
0.0
 51
90.0
  0
LINE
  5
6D
330
1F
100
AcDbEntity
  8
LC-001-100-D00-0
 62
     7
370
    50
100
AcDbLine
 10
-9.173349
 20
180.399258
 30
0.0
 11
-9.173349
 21
173.197765
 31
0.0
  0
ARC
  5
6E
330
1F
100
AcDbEntity
  8
LC-001-100-D00-0
 62
     7
370
    50
100
AcDbCircle
 10
-8.173351
 20
173.19777
 30
0.0
 40
1.0
100
AcDbArc
 50
180.0
 51
270.0
  0
LINE
  5
6F
330
1F
100
AcDbEntity
  8
LC-001-100-D00-0
 62
     7
370
    50
100
AcDbLine
 10
-8.173354
 20
172.197778
 30
0.0
 11
-4.273348
 21
172.197778
 31
0.0
  0
ARC
  5
70
330
1F
100
AcDbEntity
  8
LC-001-100-D00-0
 62
     7
370
    50
100
AcDbCircle
 10
-4.273351
 20
171.19777
 30
0.0
 40
1.0
100
AcDbArc
 50
0.0
 51
90.0
  0
LINE
  5
71
330
1F
100
AcDbEntity
  8
LC-001-100-D00-0
 62
     7
370
    50
100
AcDbLine
 10
-3.273353
 20
171.197776
 30
0.0
 11
-3.273353
 21
132.697318
 31
0.0
  0
LINE
  5
72
330
1F
100
AcDbEntity
  8
LC-001-100-D00-0
 62
     7
370
    50
100
AcDbLine
 10
-3.273353
 20
132.697318
 30
0.0
 11
8.726649
 21
132.697318
 31
0.0
  0
LINE
  5
73
330
1F
100
AcDbEntity
  8
LC-001-100-D00-0
 62
     7
370
    50
100
AcDbLine
 10
6.566394
 20
56.197771
 30
0.0
 11
5.226649
 21
61.197771
 31
0.0
  0
LINE
  5
74
330
1F
100
AcDbEntity
  8
LC-001-100-D00-0
 62
     7
370
    50
100
AcDbLine
 10
5.226649
 20
61.197771
 30
0.0
 11
5.226649
 21
128.947768
 31
0.0
  0
LINE
  5
75
330
1F
100
AcDbEntity
  8
LC-001-100-D00-0
 62
     7
370
    50
100
AcDbLine
 10
5.226649
 20
128.947768
 30
0.0
 11
3.226649
 21
129.197772
 31
0.0
  0
LINE
  5
76
330
1F
100
AcDbEntity
  8
LC-001-100-D00-0
 62
     7
370
    50
100
AcDbLine
 10
3.226649
 20
129.197772
 30
0.0
 11
-6.773353
 21
129.197772
 31
0.0
  0
LINE
  5
77
330
1F
100
AcDbEntity
  8
LC-001-100-D00-0
 62
     7
370
    50
100
AcDbLine
 10
-6.773353
 20
129.197772
 30
0.0
 11
-6.773353
 21
168.697771
 31
0.0
  0
LINE
  5
78
330
1F
100
AcDbEntity
  8
LC-001-100-D00-0
 62
     7
370
    50
100
AcDbLine
 10
-6.773353
 20
168.697771
 30
0.0
 11
-10.173351
 21
168.697771
 31
0.0
  0
ARC
  5
79
330
1F
100
AcDbEntity
  8
LC-001-100-D00-0
 62
     7
370
    50
100
AcDbCircle
 10
-10.173351
 20
171.19777
 30
0.0
 40
2.5
100
AcDbArc
 50
180.0
 51
270.0
  0
LINE
  5
7A
330
1F
100
AcDbEntity
  8
LC-001-100-D00-0
 62
     7
370
    50
100
AcDbLine
 10
-12.673348
 20
171.197776
 30
0.0
 11
-12.673348
 21
177.899707
 31
0.0
  0
LINE
  5
7B
330
1F
100
AcDbEntity
  8
LC-001-100-D00-0
 62
     7
370
    50
100
AcDbLine
 10
-12.673348
 20
177.899707
 30
0.0
 11
-16.373351
 21
177.899707
 31
0.0
  0
LINE
  5
7C
330
1F
100
AcDbEntity
  8
LC-001-100-D00-0
 62
     7
370
    50
100
AcDbLine
 10
-16.373351
 20
177.899707
 30
0.0
 11
-17.023347
 21
130.197774
 31
0.0
  0
LINE
  5
7D
330
1F
100
AcDbEntity
  8
LC-001-100-D00-0
 62
     7
370
    50
100
AcDbLine
 10
-17.023347
 20
130.197774
 30
0.0
 11
-19.873351
 21
130.197774
 31
0.0
  0
LINE
  5
7E
330
1F
100
AcDbEntity
  8
LC-001-100-D00-0
 62
     7
370
    50
100
AcDbLine
 10
-19.873351
 20
130.197774
 30
0.0
 11
-19.873351
 21
194.797773
 31
0.0
  0
LINE
  5
7F
330
1F
100
AcDbEntity
  8
LC-001-100-D00-0
 62
     7
370
    50
100
AcDbLine
 10
-19.873351
 20
194.797773
 30
0.0
 11
-22.023335
 21
198.597777
 31
0.0
  0
LINE
  5
80
330
1F
100
AcDbEntity
  8
LC-001-100-D00-0
 62
     7
370
    50
100
AcDbLine
 10
-22.023335
 20
198.597777
 30
0.0
 11
-22.02335
 21
212.697763
 31
0.0
  0
LINE
  5
81
330
1F
100
AcDbEntity
  8
LC-001-100-D00-0
 62
     7
370
    50
100
AcDbLine
 10
-22.02335
 20
212.697763
 30
0.0
 11
-103.773356
 21
212.697763
 31
0.0
  0
LINE
  5
82
330
1F
100
AcDbEntity
  8
LC-001-100-D00-0
 62
     7
370
    50
100
AcDbLine
 10
-103.773356
 20
214.197684
 30
0.0
 11
-103.773356
 21
212.697763
 31
0.0
  0
LINE
  5
83
330
1F
100
AcDbEntity
  8
LC-001-100-D00-0
 62
     7
370
    50
100
AcDbLine
 10
-103.773356
 20
214.197684
 30
0.0
 11
-101.773351
 21
216.197688
 31
0.0
  0
LINE
  5
84
330
1F
100
AcDbEntity
  8
LC-001-100-D00-0
 62
     7
370
    50
100
AcDbLine
 10
-101.773351
 20
216.197688
 30
0.0
 11
-19.523345
 21
216.197688
 31
0.0
  0
ARC
  5
85
330
1F
100
AcDbEntity
  8
LC-001-100-D00-0
 62
     7
370
    50
100
AcDbCircle
 10
-19.523348
 20
215.197691
 30
0.0
 40
1.000000000000059
100
AcDbArc
 50
0.000172
 51
90.0
  0
LINE
  5
86
330
1F
100
AcDbEntity
  8
LC-001-100-D00-0
 62
     7
370
    50
100
AcDbLine
 10
-18.52335
 20
215.197701
 30
0.0
 11
-18.523298
 21
199.499596
 31
0.0
  0
LINE
  5
87
330
1F
100
AcDbEntity
  8
LC-001-100-D00-0
 62
     7
370
    50
100
AcDbLine
 10
-18.523298
 20
199.499596
 30
0.0
 11
-14.523439
 21
192.597765
 31
0.0
  0
LINE
  5
88
330
1F
100
AcDbEntity
  8
LC-001-100-D00-0
 62
     7
370
    50
100
AcDbLine
 10
-14.523439
 20
192.597765
 30
0.0
 11
-14.523439
 21
191.697765
 31
0.0
  0
LINE
  5
89
330
1F
100
AcDbEntity
  8
LC-001-100-D00-0
 62
     7
370
    50
100
AcDbLine
 10
-14.523439
 20
191.697765
 30
0.0
 11
-15.273348
 21
191.254694
 31
0.0
  0
LINE
  5
8A
330
1F
100
AcDbEntity
  8
LC-001-100-D00-0
 62
     7
370
    50
100
AcDbLine
 10
-15.273348
 20
191.254694
 30
0.0
 11
-15.273348
 21
186.997775
 31
0.0
  0
LINE
  5
8B
330
1F
100
AcDbEntity
  8
LC-001-100-D00-0
 62
     7
370
    50
100
AcDbLine
 10
-15.273348
 20
186.997775
 30
0.0
 11
-16.773351
 21
185.997773
 31
0.0
  0
LINE
  5
8C
330
1F
100
AcDbEntity
  8
LC-001-100-D00-0
 62
     7
370
    50
100
AcDbLine
 10
-16.773351
 20
185.997773
 30
0.0
 11
-16.773351
 21
181.39926
 31
0.0
  0
LINE
  5
8D
330
1F
100
AcDbEntity
  8
LC-001-100-D00-0
 62
     7
370
    50
100
AcDbLine
 10
8.726649
 20
56.197771
 30
0.0
 11
6.566394
 21
56.197771
 31
0.0
  0
LINE
  5
8E
330
1F
100
AcDbEntity
  8
LC-001-100-D00-0
 62
     7
370
    50
100
AcDbLine
 10
137.226649
 20
185.997773
 30
0.0
 11
-16.773351
 21
185.997773
 31
0.0
  0
LINE
  5
8F
330
1F
100
AcDbEntity
  8
LC-001-100-D00-0
 62
     7
370
    50
100
AcDbLine
 10
135.726646
 20
186.997775
 30
0.0
 11
-15.273348
 21
186.997775
 31
0.0
  0
LINE
  5
90
330
1F
100
AcDbEntity
  8
LC-001-100-D00-0
 62
     7
370
    50
100
AcDbLine
 10
135.726646
 20
191.254694
 30
0.0
 11
134.126648
 21
191.254694
 31
0.0
  0
LINE
  5
91
330
1F
100
AcDbEntity
  8
LC-001-100-D00-0
 62
     7
370
    50
100
AcDbLine
 10
130.239226
 20
191.254694
 30
0.0
 11
72.026746
 21
191.254694
 31
0.0
  0
LINE
  5
92
330
1F
100
AcDbEntity
  8
LC-001-100-D00-0
 62
     7
370
    50
100
AcDbLine
 10
48.426666
 20
191.254694
 30
0.0
 11
-9.785906
 21
191.254694
 31
0.0
  0
LINE
  5
93
330
1F
100
AcDbEntity
  8
LC-001-100-D00-0
 62
     7
370
    50
100
AcDbLine
 10
-13.67335
 20
191.254694
 30
0.0
 11
-15.273348
 21
191.254694
 31
0.0
  0
LINE
  5
94
330
1F
100
AcDbEntity
  8
LC-001-100-D00-0
 62
     7
370
    50
100
AcDbLine
 10
134.976737
 20
191.697765
 30
0.0
 11
134.126648
 21
191.697765
 31
0.0
  0
LINE
  5
95
330
1F
100
AcDbEntity
  8
LC-001-100-D00-0
 62
     7
370
    50
100
AcDbLine
 10
130.239226
 20
191.697765
 30
0.0
 11
72.026746
 21
191.697765
 31
0.0
  0
LINE
  5
96
330
1F
100
AcDbEntity
  8
LC-001-100-D00-0
 62
     7
370
    50
100
AcDbLine
 10
48.426666
 20
191.697765
 30
0.0
 11
-9.785906
 21
191.697765
 31
0.0
  0
LINE
  5
97
330
1F
100
AcDbEntity
  8
LC-001-100-D00-0
 62
     7
370
    50
100
AcDbLine
 10
-13.67335
 20
191.697765
 30
0.0
 11
-14.523439
 21
191.697765
 31
0.0
  0
LINE
  5
98
330
1F
100
AcDbEntity
  8
LC-001-100-D00-0
 62
     7
370
    50
100
AcDbLine
 10
138.976596
 20
199.499596
 30
0.0
 11
136.244729
 21
199.499596
 31
0.0
  0
LINE
  5
99
330
1F
100
AcDbEntity
  8
LC-001-100-D00-0
 62
     7
370
    50
100
AcDbLine
 10
74.026746
 20
199.499596
 30
0.0
 11
72.026746
 21
199.499596
 31
0.0
  0
LINE
  5
9A
330
1F
100
AcDbEntity
  8
LC-001-100-D00-0
 62
     7
370
    50
100
AcDbLine
 10
48.426666
 20
199.499596
 30
0.0
 11
46.426667
 21
199.499596
 31
0.0
  0
LINE
  5
9B
330
1F
100
AcDbEntity
  8
LC-001-100-D00-0
 62
     7
370
    50
100
AcDbLine
 10
-15.791431
 20
199.499596
 30
0.0
 11
-18.523298
 21
199.499596
 31
0.0
  0
LINE
  5
9C
330
1F
100
AcDbEntity
  8
LC-001-100-D00-0
 62
     7
370
    50
100
AcDbLine
 10
134.976737
 20
192.597765
 30
0.0
 11
134.126648
 21
192.597765
 31
0.0
  0
LINE
  5
9D
330
1F
100
AcDbEntity
  8
LC-001-100-D00-0
 62
     7
370
    50
100
AcDbLine
 10
130.239226
 20
192.597765
 30
0.0
 11
72.026746
 21
192.597765
 31
0.0
  0
LINE
  5
9E
330
1F
100
AcDbEntity
  8
LC-001-100-D00-0
 62
     7
370
    50
100
AcDbLine
 10
48.426666
 20
192.597765
 30
0.0
 11
-9.785906
 21
192.597765
 31
0.0
  0
LINE
  5
9F
330
1F
100
AcDbEntity
  8
LC-001-100-D00-0
 62
     7
370
    50
100
AcDbLine
 10
-13.67335
 20
192.597765
 30
0.0
 11
-14.523439
 21
192.597765
 31
0.0
  0
LINE
  5
A0
330
1F
100
AcDbEntity
  8
LC-001-100-D00-0
 62
     7
370
    50
100
AcDbLine
 10
240.226656
 20
212.697763
 30
0.0
 11
228.226647
 21
212.697763
 31
0.0
  0
LINE
  5
A1
330
1F
100
AcDbEntity
  8
LC-001-100-D00-0
 62
     7
370
    50
100
AcDbLine
 10
228.226647
 20
214.197684
 30
0.0
 11
228.226647
 21
212.697763
 31
0.0
  0
LINE
  5
A2
330
1F
100
AcDbEntity
  8
LC-001-100-D00-0
 62
     7
370
    50
100
AcDbLine
 10
228.226647
 20
214.197684
 30
0.0
 11
230.226651
 21
216.197688
 31
0.0
  0
LINE
  5
A3
330
1F
100
AcDbEntity
  8
LC-001-100-D00-0
 62
     7
370
    50
100
AcDbLine
 10
230.226651
 20
216.197688
 30
0.0
 11
238.226652
 21
216.197688
 31
0.0
  0
ARC
  5
A4
330
1F
100
AcDbEntity
  8
LC-001-100-D00-0
 62
     7
370
    50
100
AcDbCircle
 10
238.226649
 20
214.197691
 30
0.0
 40
2.0
100
AcDbArc
 50
0.0
 51
90.0
  0
LINE
  5
A5
330
1F
100
AcDbEntity
  8
LC-001-100-D00-0
 62
     7
370
    50
100
AcDbLine
 10
240.226656
 20
214.197684
 30
0.0
 11
240.226656
 21
212.697763
 31
0.0
  0
LINE
  5
A6
330
1F
100
AcDbEntity
  8
LC-001-100-D00-0
 62
     7
370
    50
100
AcDbLine
 10
-119.773358
 20
212.697763
 30
0.0
 11
-119.773358
 21
214.197684
 31
0.0
  0
ARC
  5
A7
330
1F
100
AcDbEntity
  8
LC-001-100-D00-0
 62
     7
370
    50
100
AcDbCircle
 10
-117.773351
 20
214.197691
 30
0.0
 40
2.0
100
AcDbArc
 50
90.0
 51
180.0
  0
LINE
  5
A8
330
1F
100
AcDbEntity
  8
LC-001-100-D00-0
 62
     7
370
    50
100
AcDbLine
 10
-117.773354
 20
216.197688
 30
0.0
 11
-109.773353
 21
216.197688
 31
0.0
  0
LINE
  5
A9
330
1F
100
AcDbEntity
  8
LC-001-100-D00-0
 62
     7
370
    50
100
AcDbLine
 10
-109.773353
 20
216.197688
 30
0.0
 11
-107.773349
 21
214.197684
 31
0.0
  0
LINE
  5
AA
330
1F
100
AcDbEntity
  8
LC-001-100-D00-0
 62
     7
370
    50
100
AcDbLine
 10
-107.773349
 20
212.697763
 30
0.0
 11
-107.773349
 21
214.197684
 31
0.0
  0
LINE
  5
AB
330
1F
100
AcDbEntity
  8
LC-001-100-D00-0
 62
     7
370
    50
100
AcDbLine
 10
-107.773349
 20
212.697763
 30
0.0
 11
-119.773358
 21
212.697763
 31
0.0
  0
LINE
  5
AC
330
1F
100
AcDbEntity
  8
LC-001-100-D00-0
 62
     7
370
    50
100
AcDbLine
 10
222.226649
 20
216.197688
 30
0.0
 11
230.226651
 21
216.197688
 31
0.0
  0
LINE
  5
AD
330
1F
100
AcDbEntity
  8
LC-001-100-D00-0
 62
     7
370
    50
100
AcDbLine
 10
228.226647
 20
214.197684
 30
0.0
 11
224.226654
 21
214.197684
 31
0.0
  0
LINE
  5
AE
330
1F
100
AcDbEntity
  8
LC-001-100-D00-0
 62
     7
370
    50
100
AcDbLine
 10
224.226654
 20
212.697763
 30
0.0
 11
228.226647
 21
212.697763
 31
0.0
  0
LINE
  5
AF
330
1F
100
AcDbEntity
  8
LC-001-100-D00-0
 62
     7
370
    50
100
AcDbLine
 10
-103.773356
 20
214.197684
 30
0.0
 11
-107.773349
 21
214.197684
 31
0.0
  0
LINE
  5
B0
330
1F
100
AcDbEntity
  8
LC-001-100-D00-0
 62
     7
370
    50
100
AcDbLine
 10
-107.773349
 20
212.697763
 30
0.0
 11
-103.773356
 21
212.697763
 31
0.0
  0
LINE
  5
B1
330
1F
100
AcDbEntity
  8
LC-001-100-D00-0
 62
     7
370
    50
100
AcDbLine
 10
-109.773353
 20
216.197688
 30
0.0
 11
-101.773351
 21
216.197688
 31
0.0
  0
LINE
  5
B2
330
1F
100
AcDbEntity
  8
LC-001-100-D00-0
 62
     7
370
    50
100
AcDbLine
 10
-4.273348
 20
172.197778
 30
0.0
 11
124.726646
 21
172.197778
 31
0.0
  0
LINE
  5
B3
330
1F
100
AcDbEntity
  8
LC-001-100-D00-0
 62
     7
370
    50
100
AcDbLine
 10
48.426666
 20
196.820963
 30
0.0
 11
47.687181
 21
196.460295
 31
0.0
  0
INSERT
  5
C5
330
1F
100
AcDbEntity
  8
LC-001-100-D00-0
 62
     7
370
    50
100
AcDbBlockReference
  2
POLY1
 10
0.0
 20
0.0
 30
0.0
  0
LINE
  5
C6
330
1F
100
AcDbEntity
  8
LC-001-100-D00-0
 62
     7
370
    50
100
AcDbLine
 10
47.649105
 20
196.349714
 30
0.0
 11
48.426666
 21
194.755468
 31
0.0
  0
LINE
  5
C7
330
1F
100
AcDbEntity
  8
LC-001-100-D00-0
 62
     7
370
    50
100
AcDbLine
 10
48.426666
 20
194.383565
 30
0.0
 11
47.4311
 21
196.424771
 31
0.0
  0
INSERT
  5
D9
330
1F
100
AcDbEntity
  8
LC-001-100-D00-0
 62
     7
370
    50
100
AcDbBlockReference
  2
POLY2
 10
0.0
 20
0.0
 30
0.0
  0
LINE
  5
DA
330
1F
100
AcDbEntity
  8
LC-001-100-D00-0
 62
     7
370
    50
100
AcDbLine
 10
47.469177
 20
196.535352
 30
0.0
 11
48.426666
 21
197.002355
 31
0.0
  0
LINE
  5
DB
330
1F
100
AcDbEntity
  8
LC-001-100-D00-0
 62
     7
370
    50
100
AcDbLine
 10
48.426666
 20
195.127386
 30
0.0
 11
48.009531
 21
195.982639
 31
0.0
  0
INSERT
  5
F9
330
1F
100
AcDbEntity
  8
LC-001-100-D00-0
 62
     7
370
    50
100
AcDbBlockReference
  2
POLY3
 10
0.0
 20
0.0
 30
0.0
  0
LINE
  5
FA
330
1F
100
AcDbEntity
  8
LC-001-100-D00-0
 62
     7
370
    50
100
AcDbLine
 10
48.426666
 20
195.49929
 30
0.0
 11
48.156066
 21
196.054105
 31
0.0
  0
LINE
  5
FB
330
1F
100
AcDbEntity
  8
LC-001-100-D00-0
 62
     7
370
    50
100
AcDbLine
 10
48.426666
 20
196.458179
 30
0.0
 11
48.268663
 21
196.381111
 31
0.0
  0
INSERT
  5
119
330
1F
100
AcDbEntity
  8
LC-001-100-D00-0
 62
     7
370
    50
100
AcDbBlockReference
  2
POLY4
 10
0.0
 20
0.0
 30
0.0
  0
LINE
  5
11A
330
1F
100
AcDbEntity
  8
LC-001-100-D00-0
 62
     7
370
    50
100
AcDbLine
 10
48.426666
 20
196.639571
 30
0.0
 11
48.197192
 21
196.527649
 31
0.0
  0
LINE
  5
11B
330
1F
100
AcDbEntity
  8
LC-001-100-D00-0
 62
     7
370
    50
100
AcDbLine
 10
140.226647
 20
130.197774
 30
0.0
 11
140.226647
 21
128.19777
 31
0.0
  0
ARC
  5
11C
330
1F
100
AcDbEntity
  8
LC-001-100-D00-0
 62
     7
370
    50
100
AcDbCircle
 10
132.226649
 20
128.197772
 30
0.0
 40
8.000000000000114
100
AcDbArc
 50
270.0
 51
0.0
  0
LINE
  5
11D
330
1F
100
AcDbEntity
  8
LC-001-100-D00-0
 62
     7
370
    50
100
AcDbLine
 10
132.226646
 20
120.197769
 30
0.0
 11
127.726652
 21
120.197769
 31
0.0
  0
LINE
  5
11E
330
1F
100
AcDbEntity
  8
LC-001-100-D00-0
 62
     7
370
    50
100
AcDbLine
 10
127.726652
 20
117.697771
 30
0.0
 11
127.726652
 21
120.197769
 31
0.0
  0
LINE
  5
11F
330
1F
100
AcDbEntity
  8
LC-001-100-D00-0
 62
     7
370
    50
100
AcDbLine
 10
127.726652
 20
117.697771
 30
0.0
 11
117.72665
 21
117.697771
 31
0.0
  0
LINE
  5
120
330
1F
100
AcDbEntity
  8
LC-001-100-D00-0
 62
     7
370
    50
100
AcDbLine
 10
117.72665
 20
120.197769
 30
0.0
 11
117.72665
 21
117.697771
 31
0.0
  0
LINE
  5
121
330
1F
100
AcDbEntity
  8
LC-001-100-D00-0
 62
     7
370
    50
100
AcDbLine
 10
117.72665
 20
120.197769
 30
0.0
 11
115.226649
 21
120.197769
 31
0.0
  0
LINE
  5
122
330
1F
100
AcDbEntity
  8
LC-001-100-D00-0
 62
     7
370
    50
100
AcDbLine
 10
115.226649
 20
120.197769
 30
0.0
 11
115.226649
 21
122.697774
 31
0.0
  0
LINE
  5
123
330
1F
100
AcDbEntity
  8
LC-001-100-D00-0
 62
     7
370
    50
100
AcDbLine
 10
115.226649
 20
122.697774
 30
0.0
 11
132.726647
 21
122.697774
 31
0.0
  0
ARC
  5
124
330
1F
100
AcDbEntity
  8
LC-001-100-D00-0
 62
     7
370
    50
100
AcDbCircle
 10
132.726649
 20
125.197772
 30
0.0
 40
2.5
100
AcDbArc
 50
270.0
 51
0.0
  0
LINE
  5
125
330
1F
100
AcDbEntity
  8
LC-001-100-D00-0
 62
     7
370
    50
100
AcDbLine
 10
135.226652
 20
125.197772
 30
0.0
 11
135.226652
 21
137.697775
 31
0.0
  0
LINE
  5
126
330
1F
100
AcDbEntity
  8
LC-001-100-D00-0
 62
     7
370
    50
100
AcDbLine
 10
135.226652
 20
137.697775
 30
0.0
 11
135.52665
 21
137.697775
 31
0.0
  0
LINE
  5
127
330
1F
100
AcDbEntity
  8
LC-001-100-D00-0
 62
     7
370
    50
100
AcDbLine
 10
135.52665
 20
137.697775
 30
0.0
 11
135.52665
 21
139.19777
 31
0.0
  0
LINE
  5
128
330
1F
100
AcDbEntity
  8
LC-001-100-D00-0
 62
     7
370
    50
100
AcDbLine
 10
135.52665
 20
139.19777
 30
0.0
 11
137.72665
 21
139.19777
 31
0.0
  0
LINE
  5
129
330
1F
100
AcDbEntity
  8
LC-001-100-D00-0
 62
     7
370
    50
100
AcDbLine
 10
137.72665
 20
139.19777
 30
0.0
 11
137.72665
 21
130.197774
 31
0.0
  0
LINE
  5
12A
330
1F
100
AcDbEntity
  8
LC-001-100-D00-0
 62
     7
370
    50
100
AcDbLine
 10
137.72665
 20
130.197774
 30
0.0
 11
140.226647
 21
130.197774
 31
0.0
  0
LINE
  5
12B
330
1F
100
AcDbEntity
  8
LC-001-100-D00-0
 62
     7
370
    50
100
AcDbLine
 10
-17.273352
 20
130.197774
 30
0.0
 11
-17.273352
 21
139.19777
 31
0.0
  0
LINE
  5
12C
330
1F
100
AcDbEntity
  8
LC-001-100-D00-0
 62
     7
370
    50
100
AcDbLine
 10
-17.273352
 20
139.19777
 30
0.0
 11
-15.073352
 21
139.19777
 31
0.0
  0
LINE
  5
12D
330
1F
100
AcDbEntity
  8
LC-001-100-D00-0
 62
     7
370
    50
100
AcDbLine
 10
-15.073352
 20
139.19777
 30
0.0
 11
-15.073352
 21
137.697775
 31
0.0
  0
LINE
  5
12E
330
1F
100
AcDbEntity
  8
LC-001-100-D00-0
 62
     7
370
    50
100
AcDbLine
 10
-15.073352
 20
137.697775
 30
0.0
 11
-14.773354
 21
137.697775
 31
0.0
  0
LINE
  5
12F
330
1F
100
AcDbEntity
  8
LC-001-100-D00-0
 62
     7
370
    50
100
AcDbLine
 10
-14.773354
 20
137.697775
 30
0.0
 11
-14.773354
 21
125.197772
 31
0.0
  0
ARC
  5
130
330
1F
100
AcDbEntity
  8
LC-001-100-D00-0
 62
     7
370
    50
100
AcDbCircle
 10
-12.273351
 20
125.197772
 30
0.0
 40
2.5
100
AcDbArc
 50
180.0
 51
270.0
  0
LINE
  5
131
330
1F
100
AcDbEntity
  8
LC-001-100-D00-0
 62
     7
370
    50
100
AcDbLine
 10
-12.273349
 20
122.697774
 30
0.0
 11
5.226649
 21
122.697774
 31
0.0
  0
LINE
  5
132
330
1F
100
AcDbEntity
  8
LC-001-100-D00-0
 62
     7
370
    50
100
AcDbLine
 10
5.226649
 20
122.697774
 30
0.0
 11
5.226649
 21
120.197769
 31
0.0
  0
LINE
  5
133
330
1F
100
AcDbEntity
  8
LC-001-100-D00-0
 62
     7
370
    50
100
AcDbLine
 10
5.226649
 20
120.197769
 30
0.0
 11
2.726648
 21
120.197769
 31
0.0
  0
LINE
  5
134
330
1F
100
AcDbEntity
  8
LC-001-100-D00-0
 62
     7
370
    50
100
AcDbLine
 10
2.726648
 20
117.697771
 30
0.0
 11
-7.273354
 21
117.697771
 31
0.0
  0
LINE
  5
135
330
1F
100
AcDbEntity
  8
LC-001-100-D00-0
 62
     7
370
    50
100
AcDbLine
 10
-7.273354
 20
120.197769
 30
0.0
 11
-11.773348
 21
120.197769
 31
0.0
  0
ARC
  5
136
330
1F
100
AcDbEntity
  8
LC-001-100-D00-0
 62
     7
370
    50
100
AcDbCircle
 10
-11.773351
 20
128.197772
 30
0.0
 40
8.000000000000114
100
AcDbArc
 50
180.0
 51
270.0
  0
LINE
  5
137
330
1F
100
AcDbEntity
  8
LC-001-100-D00-0
 62
     7
370
    50
100
AcDbLine
 10
-19.773349
 20
128.19777
 30
0.0
 11
-19.773349
 21
130.197774
 31
0.0
  0
LINE
  5
138
330
1F
100
AcDbEntity
  8
LC-001-100-D00-0
 62
     7
370
    50
100
AcDbLine
 10
-19.773349
 20
130.197774
 30
0.0
 11
-17.273352
 21
130.197774
 31
0.0
  0
LINE
  5
139
330
1F
100
AcDbEntity
  8
LC-001-100-D00-0
 62
     7
370
    50
100
AcDbLine
 10
2.726648
 20
117.697771
 30
0.0
 11
2.726648
 21
120.197769
 31
0.0
  0
LINE
  5
13A
330
1F
100
AcDbEntity
  8
LC-001-100-D00-0
 62
     7
370
    50
100
AcDbLine
 10
-7.273354
 20
120.197769
 30
0.0
 11
-7.273354
 21
117.697771
 31
0.0
  0
LINE
  5
13B
330
1F
100
AcDbEntity
  8
LC-001-100-D00-0
 62
     7
370
    50
100
AcDbLine
 10
-15.073352
 20
139.19777
 30
0.0
 11
-6.773353
 21
139.19777
 31
0.0
  0
LINE
  5
13C
330
1F
100
AcDbEntity
  8
LC-001-100-D00-0
 62
     7
370
    50
100
AcDbLine
 10
127.226651
 20
139.19777
 30
0.0
 11
135.52665
 21
139.19777
 31
0.0
  0
LINE
  5
13D
330
1F
100
AcDbEntity
  8
LC-001-100-D00-0
 62
     7
370
    50
100
AcDbLine
 10
-14.773354
 20
137.697775
 30
0.0
 11
-6.773353
 21
137.697775
 31
0.0
  0
LINE
  5
13E
330
1F
100
AcDbEntity
  8
LC-001-100-D00-0
 62
     7
370
    50
100
AcDbLine
 10
127.226651
 20
137.697775
 30
0.0
 11
135.226652
 21
137.697775
 31
0.0
  0
LINE
  5
13F
330
1F
100
AcDbEntity
  8
LC-001-100-D00-0
 62
     7
370
    50
100
AcDbLine
 10
130.239226
 20
187.197689
 30
0.0
 11
130.239226
 21
207.49769
 31
0.0
  0
INSERT
  5
151
330
1F
100
AcDbEntity
  8
LC-001-100-D00-0
 62
     7
370
    50
100
AcDbBlockReference
  2
POLY5
 10
0.0
 20
0.0
 30
0.0
  0
LINE
  5
152
330
1F
100
AcDbEntity
  8
LC-001-100-D00-0
 62
     7
370
    50
100
AcDbLine
 10
131.226651
 20
187.197689
 30
0.0
 11
131.226651
 21
208.497692
 31
0.0
  0
LINE
  5
153
330
1F
100
AcDbEntity
  8
LC-001-100-D00-0
 62
     7
370
    50
100
AcDbLine
 10
130.239226
 20
187.197689
 30
0.0
 11
131.226651
 21
187.197689
 31
0.0
  0
LINE
  5
154
330
1F
100
AcDbEntity
  8
LC-001-100-D00-0
 62
     7
370
    50
100
AcDbLine
 10
108.67523
 20
276.397694
 30
0.0
 11
108.67523
 21
276.782457
 31
0.0
  0
LINE
  5
155
330
1F
100
AcDbEntity
  8
LC-001-100-D00-0
 62
     7
370
    50
100
AcDbLine
 10
11.778068
 20
276.397694
 30
0.0
 11
108.67523
 21
276.397694
 31
0.0
  0
LINE
  5
156
330
1F
100
AcDbEntity
  8
LC-001-100-D00-0
 62
     7
370
    50
100
AcDbLine
 10
11.778068
 20
276.782457
 30
0.0
 11
11.778068
 21
276.397694
 31
0.0
  0
LINE
  5
157
330
1F
100
AcDbEntity
  8
LC-001-100-D00-0
 62
     7
370
    50
100
AcDbLine
 10
4.026648
 20
255.485598
 30
0.0
 11
11.778068
 21
276.782457
 31
0.0
  0
LINE
  5
158
330
1F
100
AcDbEntity
  8
LC-001-100-D00-0
 62
     7
370
    50
100
AcDbLine
 10
4.026648
 20
250.797752
 30
0.0
 11
4.026648
 21
255.485598
 31
0.0
  0
LINE
  5
159
330
1F
100
AcDbEntity
  8
LC-001-100-D00-0
 62
     7
370
    50
100
AcDbLine
 10
2.320412
 20
250.797752
 30
0.0
 11
4.026648
 21
250.797752
 31
0.0
  0
LINE
  5
15A
330
1F
100
AcDbEntity
  8
LC-001-100-D00-0
 62
     7
370
    50
100
AcDbLine
 10
-10.27298
 20
216.197688
 30
0.0
 11
2.320412
 21
250.797752
 31
0.0
  0
LINE
  5
15B
330
1F
100
AcDbEntity
  8
LC-001-100-D00-0
 62
     7
370
    50
100
AcDbLine
 10
-10.273352
 20
216.197688
 30
0.0
 11
-10.27298
 21
216.197688
 31
0.0
  0
LINE
  5
15C
330
1F
100
AcDbEntity
  8
LC-001-100-D00-0
 62
     7
370
    50
100
AcDbLine
 10
-10.273352
 20
216.197688
 30
0.0
 11
-10.273352
 21
208.497692
 31
0.0
  0
LINE
  5
15D
330
1F
100
AcDbEntity
  8
LC-001-100-D00-0
 62
     7
370
    50
100
AcDbLine
 10
-10.273352
 20
208.497692
 30
0.0
 11
-10.773353
 21
208.497692
 31
0.0
  0
LINE
  5
15E
330
1F
100
AcDbEntity
  8
LC-001-100-D00-0
 62
     7
370
    50
100
AcDbLine
 10
-10.773353
 20
208.497692
 30
0.0
 11
-10.773353
 21
187.197689
 31
0.0
  0
LINE
  5
15F
330
1F
100
AcDbEntity
  8
LC-001-100-D00-0
 62
     7
370
    50
100
AcDbLine
 10
-10.773353
 20
187.197689
 30
0.0
 11
-14.173351
 21
187.197689
 31
0.0
  0
ARC
  5
160
330
1F
100
AcDbEntity
  8
LC-001-100-D00-0
 62
     7
370
    50
100
AcDbCircle
 10
-14.173351
 20
188.197691
 30
0.0
 40
1.0
100
AcDbArc
 50
180.0
 51
270.0
  0
ARC
  5
161
330
1F
100
AcDbEntity
  8
LC-001-100-D00-0
 62
     7
370
    50
100
AcDbCircle
 10
-14.173351
 20
188.197691
 30
0.0
 40
1.000000000000114
100
AcDbArc
 50
90.0
 51
180.0
  0
LINE
  5
162
330
1F
100
AcDbEntity
  8
LC-001-100-D00-0
 62
     7
370
    50
100
AcDbLine
 10
-13.67335
 20
189.197693
 30
0.0
 11
-14.173351
 21
189.197693
 31
0.0
  0
LINE
  5
163
330
1F
100
AcDbEntity
  8
LC-001-100-D00-0
 62
     7
370
    50
100
AcDbLine
 10
-13.67335
 20
216.197688
 30
0.0
 11
-13.67335
 21
189.197693
 31
0.0
  0
LINE
  5
164
330
1F
100
AcDbEntity
  8
LC-001-100-D00-0
 62
     7
370
    50
100
AcDbLine
 10
-22.166252
 20
216.197688
 30
0.0
 11
-13.67335
 21
216.197688
 31
0.0
  0
LINE
  5
165
330
1F
100
AcDbEntity
  8
LC-001-100-D00-0
 62
     7
370
    50
100
AcDbLine
 10
-22.166252
 20
216.197688
 30
0.0
 11
-25.358819
 21
218.022007
 31
0.0
  0
LINE
  5
166
330
1F
100
AcDbEntity
  8
LC-001-100-D00-0
 62
     7
370
    50
100
AcDbLine
 10
-25.358819
 20
218.022007
 30
0.0
 11
-2.317324
 21
281.327996
 31
0.0
  0
ARC
  5
167
330
1F
100
AcDbEntity
  8
LC-001-100-D00-0
 62
     7
370
    50
100
AcDbCircle
 10
11.778067
 20
276.197697
 30
0.0
 40
15.00000000000023
100
AcDbArc
 50
90.0
 51
160.0
  0
LINE
  5
168
330
1F
100
AcDbEntity
  8
LC-001-100-D00-0
 62
     7
370
    50
100
AcDbLine
 10
72.028913
 20
291.197691
 30
0.0
 11
11.778068
 21
291.197691
 31
0.0
  0
LINE
  5
169
330
1F
100
AcDbEntity
  8
LC-001-100-D00-0
 62
     7
370
    50
100
AcDbLine
 10
72.028913
 20
291.297693
 30
0.0
 11
72.028913
 21
291.197691
 31
0.0
  0
LINE
  5
16A
330
1F
100
AcDbEntity
  8
LC-001-100-D00-0
 62
     7
370
    50
100
AcDbLine
 10
72.028913
 20
291.297693
 30
0.0
 11
72.854968
 21
291.297693
 31
0.0
  0
LINE
  5
16B
330
1F
100
AcDbEntity
  8
LC-001-100-D00-0
 62
     7
370
    50
100
AcDbLine
 10
72.854968
 20
291.297693
 30
0.0
 11
72.854968
 21
291.197691
 31
0.0
  0
LINE
  5
16C
330
1F
100
AcDbEntity
  8
LC-001-100-D00-0
 62
     7
370
    50
100
AcDbLine
 10
73.43259
 20
291.197691
 30
0.0
 11
72.854968
 21
291.197691
 31
0.0
  0
LINE
  5
16D
330
1F
100
AcDbEntity
  8
LC-001-100-D00-0
 62
     7
370
    50
100
AcDbLine
 10
73.43259
 20
291.197691
 30
0.0
 11
73.43259
 21
291.297693
 31
0.0
  0
LINE
  5
16E
330
1F
100
AcDbEntity
  8
LC-001-100-D00-0
 62
     7
370
    50
100
AcDbLine
 10
73.43259
 20
291.297693
 30
0.0
 11
74.171691
 21
291.297693
 31
0.0
  0
LINE
  5
16F
330
1F
100
AcDbEntity
  8
LC-001-100-D00-0
 62
     7
370
    50
100
AcDbLine
 10
74.171691
 20
291.197691
 30
0.0
 11
74.171691
 21
291.297693
 31
0.0
  0
LINE
  5
170
330
1F
100
AcDbEntity
  8
LC-001-100-D00-0
 62
     7
370
    50
100
AcDbLine
 10
74.550555
 20
291.197691
 30
0.0
 11
74.171691
 21
291.197691
 31
0.0
  0
LINE
  5
171
330
1F
100
AcDbEntity
  8
LC-001-100-D00-0
 62
     7
370
    50
100
AcDbLine
 10
74.550555
 20
291.297693
 30
0.0
 11
74.550555
 21
291.197691
 31
0.0
  0
LINE
  5
172
330
1F
100
AcDbEntity
  8
LC-001-100-D00-0
 62
     7
370
    50
100
AcDbLine
 10
74.550555
 20
291.297693
 30
0.0
 11
76.898288
 21
291.297693
 31
0.0
  0
LINE
  5
173
330
1F
100
AcDbEntity
  8
LC-001-100-D00-0
 62
     7
370
    50
100
AcDbLine
 10
76.898288
 20
291.197691
 30
0.0
 11
76.898288
 21
291.297693
 31
0.0
  0
LINE
  5
174
330
1F
100
AcDbEntity
  8
LC-001-100-D00-0
 62
     7
370
    50
100
AcDbLine
 10
77.333055
 20
291.197691
 30
0.0
 11
76.898288
 21
291.197691
 31
0.0
  0
LINE
  5
175
330
1F
100
AcDbEntity
  8
LC-001-100-D00-0
 62
     7
370
    50
100
AcDbLine
 10
77.333055
 20
291.297693
 30
0.0
 11
77.333055
 21
291.197691
 31
0.0
  0
LINE
  5
176
330
1F
100
AcDbEntity
  8
LC-001-100-D00-0
 62
     7
370
    50
100
AcDbLine
 10
78.115633
 20
291.297693
 30
0.0
 11
77.333055
 21
291.297693
 31
0.0
  0
LINE
  5
177
330
1F
100
AcDbEntity
  8
LC-001-100-D00-0
 62
     7
370
    50
100
AcDbLine
 10
78.115633
 20
291.197691
 30
0.0
 11
78.115633
 21
291.297693
 31
0.0
  0
LINE
  5
178
330
1F
100
AcDbEntity
  8
LC-001-100-D00-0
 62
     7
370
    50
100
AcDbLine
 10
79.202546
 20
291.197691
 30
0.0
 11
78.115633
 21
291.197691
 31
0.0
  0
LINE
  5
179
330
1F
100
AcDbEntity
  8
LC-001-100-D00-0
 62
     7
370
    50
100
AcDbLine
 10
79.202546
 20
291.297693
 30
0.0
 11
79.202546
 21
291.197691
 31
0.0
  0
LINE
  5
17A
330
1F
100
AcDbEntity
  8
LC-001-100-D00-0
 62
     7
370
    50
100
AcDbLine
 10
79.985125
 20
291.297693
 30
0.0
 11
79.202546
 21
291.297693
 31
0.0
  0
LINE
  5
17B
330
1F
100
AcDbEntity
  8
LC-001-100-D00-0
 62
     7
370
    50
100
AcDbLine
 10
79.985125
 20
291.197691
 30
0.0
 11
79.985125
 21
291.297693
 31
0.0
  0
LINE
  5
17C
330
1F
100
AcDbEntity
  8
LC-001-100-D00-0
 62
     7
370
    50
100
AcDbLine
 10
81.07204
 20
291.197691
 30
0.0
 11
79.985125
 21
291.197691
 31
0.0
  0
LINE
  5
17D
330
1F
100
AcDbEntity
  8
LC-001-100-D00-0
 62
     7
370
    50
100
AcDbLine
 10
81.07204
 20
291.297693
 30
0.0
 11
81.07204
 21
291.197691
 31
0.0
  0
LINE
  5
17E
330
1F
100
AcDbEntity
  8
LC-001-100-D00-0
 62
     7
370
    50
100
AcDbLine
 10
81.07204
 20
291.297693
 30
0.0
 11
81.854617
 21
291.297693
 31
0.0
  0
LINE
  5
17F
330
1F
100
AcDbEntity
  8
LC-001-100-D00-0
 62
     7
370
    50
100
AcDbLine
 10
81.854617
 20
291.197691
 30
0.0
 11
81.854617
 21
291.297693
 31
0.0
  0
LINE
  5
180
330
1F
100
AcDbEntity
  8
LC-001-100-D00-0
 62
     7
370
    50
100
AcDbLine
 10
82.419813
 20
291.197691
 30
0.0
 11
81.854617
 21
291.197691
 31
0.0
  0
LINE
  5
181
330
1F
100
AcDbEntity
  8
LC-001-100-D00-0
 62
     7
370
    50
100
AcDbLine
 10
82.419813
 20
291.297693
 30
0.0
 11
82.419813
 21
291.197691
 31
0.0
  0
LINE
  5
182
330
1F
100
AcDbEntity
  8
LC-001-100-D00-0
 62
     7
370
    50
100
AcDbLine
 10
82.419813
 20
291.297693
 30
0.0
 11
83.245868
 21
291.297693
 31
0.0
  0
LINE
  5
183
330
1F
100
AcDbEntity
  8
LC-001-100-D00-0
 62
     7
370
    50
100
AcDbLine
 10
83.245868
 20
291.197691
 30
0.0
 11
83.245868
 21
291.297693
 31
0.0
  0
LINE
  5
184
330
1F
100
AcDbEntity
  8
LC-001-100-D00-0
 62
     7
370
    50
100
AcDbLine
 10
83.811063
 20
291.197691
 30
0.0
 11
83.245868
 21
291.197691
 31
0.0
  0
LINE
  5
185
330
1F
100
AcDbEntity
  8
LC-001-100-D00-0
 62
     7
370
    50
100
AcDbLine
 10
83.811063
 20
291.297693
 30
0.0
 11
83.811063
 21
291.197691
 31
0.0
  0
LINE
  5
186
330
1F
100
AcDbEntity
  8
LC-001-100-D00-0
 62
     7
370
    50
100
AcDbLine
 10
83.811063
 20
291.297693
 30
0.0
 11
84.593641
 21
291.297693
 31
0.0
  0
LINE
  5
187
330
1F
100
AcDbEntity
  8
LC-001-100-D00-0
 62
     7
370
    50
100
AcDbLine
 10
84.593641
 20
291.197691
 30
0.0
 11
84.593641
 21
291.297693
 31
0.0
  0
LINE
  5
188
330
1F
100
AcDbEntity
  8
LC-001-100-D00-0
 62
     7
370
    50
100
AcDbLine
 10
84.941454
 20
291.197691
 30
0.0
 11
84.593641
 21
291.197691
 31
0.0
  0
LINE
  5
189
330
1F
100
AcDbEntity
  8
LC-001-100-D00-0
 62
     7
370
    50
100
AcDbLine
 10
84.941454
 20
291.297693
 30
0.0
 11
84.941454
 21
291.197691
 31
0.0
  0
LINE
  5
18A
330
1F
100
AcDbEntity
  8
LC-001-100-D00-0
 62
     7
370
    50
100
AcDbLine
 10
86.854424
 20
291.297693
 30
0.0
 11
84.941454
 21
291.297693
 31
0.0
  0
LINE
  5
18B
330
1F
100
AcDbEntity
  8
LC-001-100-D00-0
 62
     7
370
    50
100
AcDbLine
 10
86.854424
 20
291.197691
 30
0.0
 11
86.854424
 21
291.297693
 31
0.0
  0
LINE
  5
18C
330
1F
100
AcDbEntity
  8
LC-001-100-D00-0
 62
     7
370
    50
100
AcDbLine
 10
87.332664
 20
291.197691
 30
0.0
 11
86.854424
 21
291.197691
 31
0.0
  0
LINE
  5
18D
330
1F
100
AcDbEntity
  8
LC-001-100-D00-0
 62
     7
370
    50
100
AcDbLine
 10
87.332664
 20
291.297693
 30
0.0
 11
87.332664
 21
291.197691
 31
0.0
  0
LINE
  5
18E
330
1F
100
AcDbEntity
  8
LC-001-100-D00-0
 62
     7
370
    50
100
AcDbLine
 10
87.332664
 20
291.297693
 30
0.0
 11
89.655731
 21
291.297693
 31
0.0
  0
LINE
  5
18F
330
1F
100
AcDbEntity
  8
LC-001-100-D00-0
 62
     7
370
    50
100
AcDbLine
 10
89.655731
 20
291.197691
 30
0.0
 11
89.655731
 21
291.297693
 31
0.0
  0
LINE
  5
190
330
1F
100
AcDbEntity
  8
LC-001-100-D00-0
 62
     7
370
    50
100
AcDbLine
 10
108.67523
 20
291.197691
 30
0.0
 11
89.655731
 21
291.197691
 31
0.0
  0
ARC
  5
191
330
1F
100
AcDbEntity
  8
LC-001-100-D00-0
 62
     7
370
    50
100
AcDbCircle
 10
108.675231
 20
276.197697
 30
0.0
 40
15.00000000000018
100
AcDbArc
 50
20.0
 51
90.0
  0
LINE
  5
192
330
1F
100
AcDbEntity
  8
LC-001-100-D00-0
 62
     7
370
    50
100
AcDbLine
 10
122.770622
 20
281.327996
 30
0.0
 11
145.812117
 21
218.022007
 31
0.0
  0
LINE
  5
193
330
1F
100
AcDbEntity
  8
LC-001-100-D00-0
 62
     7
370
    50
100
AcDbLine
 10
145.812117
 20
218.022007
 30
0.0
 11
142.61955
 21
216.197688
 31
0.0
  0
LINE
  5
194
330
1F
100
AcDbEntity
  8
LC-001-100-D00-0
 62
     7
370
    50
100
AcDbLine
 10
134.126648
 20
216.197688
 30
0.0
 11
142.61955
 21
216.197688
 31
0.0
  0
LINE
  5
195
330
1F
100
AcDbEntity
  8
LC-001-100-D00-0
 62
     7
370
    50
100
AcDbLine
 10
134.126648
 20
189.197693
 30
0.0
 11
134.126648
 21
216.197688
 31
0.0
  0
LINE
  5
196
330
1F
100
AcDbEntity
  8
LC-001-100-D00-0
 62
     7
370
    50
100
AcDbLine
 10
134.626649
 20
189.197693
 30
0.0
 11
134.126648
 21
189.197693
 31
0.0
  0
ARC
  5
197
330
1F
100
AcDbEntity
  8
LC-001-100-D00-0
 62
     7
370
    50
100
AcDbCircle
 10
134.626649
 20
188.197691
 30
0.0
 40
1.000000000000114
100
AcDbArc
 50
0.0
 51
90.0
  0
ARC
  5
198
330
1F
100
AcDbEntity
  8
LC-001-100-D00-0
 62
     7
370
    50
100
AcDbCircle
 10
134.626649
 20
188.197691
 30
0.0
 40
1.000000000000114
100
AcDbArc
 50
270.0
 51
0.0
  0
LINE
  5
199
330
1F
100
AcDbEntity
  8
LC-001-100-D00-0
 62
     7
370
    50
100
AcDbLine
 10
134.626649
 20
187.197689
 30
0.0
 11
131.226651
 21
187.197689
 31
0.0
  0
LINE
  5
19A
330
1F
100
AcDbEntity
  8
LC-001-100-D00-0
 62
     7
370
    50
100
AcDbLine
 10
131.226651
 20
208.497692
 30
0.0
 11
130.72665
 21
208.497692
 31
0.0
  0
LINE
  5
19B
330
1F
100
AcDbEntity
  8
LC-001-100-D00-0
 62
     7
370
    50
100
AcDbLine
 10
130.72665
 20
208.497692
 30
0.0
 11
130.72665
 21
216.197688
 31
0.0
  0
LINE
  5
19C
330
1F
100
AcDbEntity
  8
LC-001-100-D00-0
 62
     7
370
    50
100
AcDbLine
 10
130.726278
 20
216.197688
 30
0.0
 11
130.72665
 21
216.197688
 31
0.0
  0
LINE
  5
19D
330
1F
100
AcDbEntity
  8
LC-001-100-D00-0
 62
     7
370
    50
100
AcDbLine
 10
118.132885
 20
250.797752
 30
0.0
 11
130.726278
 21
216.197688
 31
0.0
  0
LINE
  5
19E
330
1F
100
AcDbEntity
  8
LC-001-100-D00-0
 62
     7
370
    50
100
AcDbLine
 10
116.42665
 20
250.797752
 30
0.0
 11
118.132885
 21
250.797752
 31
0.0
  0
LINE
  5
19F
330
1F
100
AcDbEntity
  8
LC-001-100-D00-0
 62
     7
370
    50
100
AcDbLine
 10
116.42665
 20
255.485598
 30
0.0
 11
116.42665
 21
250.797752
 31
0.0
  0
LINE
  5
1A0
330
1F
100
AcDbEntity
  8
LC-001-100-D00-0
 62
     7
370
    50
100
AcDbLine
 10
108.67523
 20
276.782457
 30
0.0
 11
116.42665
 21
255.485598
 31
0.0
  0
INSERT
  5
1B2
330
1F
100
AcDbEntity
  8
LC-001-100-D00-0
 62
     7
370
    50
100
AcDbBlockReference
  2
POLY6
 10
0.0
 20
0.0
 30
0.0
  0
LINE
  5
1B3
330
1F
100
AcDbEntity
  8
LC-001-100-D00-0
 62
     7
370
    50
100
AcDbLine
 10
-9.785906
 20
207.49769
 30
0.0
 11
-9.785906
 21
187.197689
 31
0.0
  0
LINE
  5
1B4
330
1F
100
AcDbEntity
  8
LC-001-100-D00-0
 62
     7
370
    50
100
AcDbLine
 10
-10.773353
 20
187.197689
 30
0.0
 11
-9.785906
 21
187.197689
 31
0.0
  0
LINE
  5
1B5
330
1F
100
AcDbEntity
  8
LC-001-100-D00-0
 62
     7
370
    50
100
AcDbLine
 10
-10.27298
 20
216.197688
 30
0.0
 11
-7.930018
 21
216.197688
 31
0.0
  0
LINE
  5
1B6
330
1F
100
AcDbEntity
  8
LC-001-100-D00-0
 62
     7
370
    50
100
AcDbLine
 10
-7.811502
 20
216.197688
 30
0.0
 11
-0.942297
 21
216.197688
 31
0.0
  0
LINE
  5
1B7
330
1F
100
AcDbEntity
  8
LC-001-100-D00-0
 62
     7
370
    50
100
AcDbLine
 10
-0.713345
 20
216.197688
 30
0.0
 11
10.21399
 21
216.197688
 31
0.0
  0
LINE
  5
1B8
330
1F
100
AcDbEntity
  8
LC-001-100-D00-0
 62
     7
370
    50
100
AcDbLine
 10
10.537777
 20
216.197688
 30
0.0
 11
24.778556
 21
216.197688
 31
0.0
  0
LINE
  5
1B9
330
1F
100
AcDbEntity
  8
LC-001-100-D00-0
 62
     7
370
    50
100
AcDbLine
 10
25.175113
 20
216.197688
 30
0.0
 11
41.75885
 21
216.197688
 31
0.0
  0
LINE
  5
1BA
330
1F
100
AcDbEntity
  8
LC-001-100-D00-0
 62
     7
370
    50
100
AcDbLine
 10
42.201154
 20
216.197688
 30
0.0
 11
59.997696
 21
216.197688
 31
0.0
  0
LINE
  5
1BB
330
1F
100
AcDbEntity
  8
LC-001-100-D00-0
 62
     7
370
    50
100
AcDbLine
 10
60.455602
 20
216.197688
 30
0.0
 11
78.252144
 21
216.197688
 31
0.0
  0
LINE
  5
1BC
330
1F
100
AcDbEntity
  8
LC-001-100-D00-0
 62
     7
370
    50
100
AcDbLine
 10
78.694448
 20
216.197688
 30
0.0
 11
95.278185
 21
216.197688
 31
0.0
  0
LINE
  5
1BD
330
1F
100
AcDbEntity
  8
LC-001-100-D00-0
 62
     7
370
    50
100
AcDbLine
 10
95.674742
 20
216.197688
 30
0.0
 11
109.915521
 21
216.197688
 31
0.0
  0
LINE
  5
1BE
330
1F
100
AcDbEntity
  8
LC-001-100-D00-0
 62
     7
370
    50
100
AcDbLine
 10
110.239308
 20
216.197688
 30
0.0
 11
121.166643
 21
216.197688
 31
0.0
  0
LINE
  5
1BF
330
1F
100
AcDbEntity
  8
LC-001-100-D00-0
 62
     7
370
    50
100
AcDbLine
 10
121.395595
 20
216.197688
 30
0.0
 11
128.2648
 21
216.197688
 31
0.0
  0
LINE
  5
1C0
330
1F
100
AcDbEntity
  8
LC-001-100-D00-0
 62
     7
370
    50
100
AcDbLine
 10
128.383316
 20
216.197688
 30
0.0
 11
130.726278
 21
216.197688
 31
0.0
  0
LINE
  5
1C1
330
1F
100
AcDbEntity
  8
LC-001-100-D00-0
 62
     7
370
    50
100
AcDbLine
 10
-10.273352
 20
208.497692
 30
0.0
 11
130.72665
 21
208.497692
 31
0.0
  0
LINE
  5
1C2
330
1F
100
AcDbEntity
  8
LC-001-100-D00-0
 62
     7
370
    50
100
AcDbLine
 10
89.655731
 20
291.297693
 30
0.0
 11
89.6804
 21
291.297693
 31
0.0
  0
LINE
  5
1C3
330
1F
100
AcDbEntity
  8
LC-001-100-D00-0
 62
     7
370
    50
100
AcDbLine
 10
89.6804
 20
291.297693
 30
0.0
 11
89.6804
 21
291.197691
 31
0.0
  0
LINE
  5
1C4
330
1F
100
AcDbEntity
  8
LC-001-100-D00-0
 62
     7
370
    50
100
AcDbLine
 10
5.655341
 20
256.104458
 30
0.0
 11
4.251894
 21
256.104458
 31
0.0
  0
LINE
  5
1C5
330
1F
100
AcDbEntity
  8
LC-001-100-D00-0
 62
     7
370
    50
100
AcDbLine
 10
5.655341
 20
256.104458
 30
0.0
 11
5.655341
 21
255.517933
 31
0.0
  0
ELLIPSE
  5
1C6
330
1F
100
AcDbEntity
  8
LC-001-100-D00-0
 62
     7
370
    50
100
AcDbEllipse
 10
60.226649
 20
409.893867
 30
0.0
 11
-54.692711623763
 21
-154.340281031414
 31
0.0
210
0.0
220
0.0
230
1.0
 40
0.083767
 41
3.150803750597213
 42
3.191731874073049
  0
LINE
  5
1C7
330
1F
100
AcDbEntity
  8
LC-001-100-D00-0
 62
     7
370
    50
100
AcDbLine
 10
10.991212
 20
256.104458
 30
0.0
 11
6.45683
 21
256.104458
 31
0.0
  0
LINE
  5
1C8
330
1F
100
AcDbEntity
  8
LC-001-100-D00-0
 62
     7
370
    50
100
AcDbLine
 10
10.991212
 20
256.104458
 30
0.0
 11
10.991212
 21
255.517933
 31
0.0
  0
ELLIPSE
  5
1C9
330
1F
100
AcDbEntity
  8
LC-001-100-D00-0
 62
     7
370
    50
100
AcDbEllipse
 10
60.226649
 20
409.893867
 30
0.0
 11
-50.10599910011415
 21
-154.1865670813223
 31
0.0
210
0.0
220
0.0
230
1.0
 40
0.165076
 41
3.174721918189723
 42
3.215650041665561
  0
LINE
  5
1CA
330
1F
100
AcDbEntity
  8
LC-001-100-D00-0
 62
     7
370
    50
100
AcDbLine
 10
19.682396
 20
256.104458
 30
0.0
 11
12.326091
 21
256.104458
 31
0.0
  0
LINE
  5
1CB
330
1F
100
AcDbEntity
  8
LC-001-100-D00-0
 62
     7
370
    50
100
AcDbLine
 10
19.682396
 20
256.104458
 30
0.0
 11
19.682396
 21
255.517933
 31
0.0
  0
ELLIPSE
  5
1CC
330
1F
100
AcDbEntity
  8
LC-001-100-D00-0
 62
     7
370
    50
100
AcDbEllipse
 10
60.226649
 20
409.893867
 30
0.0
 11
-42.26835833949135
 21
-154.0735723013244
 31
0.0
210
0.0
220
0.0
230
1.0
 40
0.240393
 41
3.186982284715612
 42
3.227910408191453
  0
LINE
  5
1CD
330
1F
100
AcDbEntity
  8
LC-001-100-D00-0
 62
     7
370
    50
100
AcDbLine
 10
31.136604
 20
256.104458
 30
0.0
 11
21.459695
 21
256.104458
 31
0.0
  0
LINE
  5
1CE
330
1F
100
AcDbEntity
  8
LC-001-100-D00-0
 62
     7
370
    50
100
AcDbLine
 10
31.136604
 20
256.104458
 30
0.0
 11
31.136604
 21
255.517933
 31
0.0
  0
ELLIPSE
  5
1CF
330
1F
100
AcDbEntity
  8
LC-001-100-D00-0
 62
     7
370
    50
100
AcDbEllipse
 10
60.226649
 20
409.893867
 30
0.0
 11
-31.02069845648459
 21
-154.1198904247419
 31
0.0
210
0.0
220
0.0
230
0.9999999999999999
 40
0.30407
 41
3.182254375888675
 42
3.223182499364513
  0
LINE
  5
1D0
330
1F
100
AcDbEntity
  8
LC-001-100-D00-0
 62
     7
370
    50
100
AcDbLine
 10
44.573249
 20
256.104458
 30
0.0
 11
33.128463
 21
256.104458
 31
0.0
  0
LINE
  5
1D1
330
1F
100
AcDbEntity
  8
LC-001-100-D00-0
 62
     7
370
    50
100
AcDbLine
 10
44.573249
 20
256.104458
 30
0.0
 11
44.573249
 21
255.517933
 31
0.0
  0
ELLIPSE
  5
1D2
330
1F
100
AcDbEntity
  8
LC-001-100-D00-0
 62
     7
370
    50
100
AcDbEllipse
 10
60.226649
 20
409.893867
 30
0.0
 11
-16.56207463459362
 21
-154.3006263193195
 31
0.0
210
0.0
220
0.0
230
1.0
 40
0.348049
 41
3.158469548149908
 42
3.199397671625748
  0
LINE
  5
1D3
330
1F
100
AcDbEntity
  8
LC-001-100-D00-0
 62
     7
370
    50
100
AcDbLine
 10
59.076649
 20
256.104458
 30
0.0
 11
46.794879
 21
256.104458
 31
0.0
  0
ELLIPSE
  5
1D4
330
1F
100
AcDbEntity
  8
LC-001-100-D00-0
 62
     7
370
    50
100
AcDbEllipse
 10
60.226649
 20
409.893867
 30
0.0
 11
0.0
 21
-154.4082631621054
 31
0.0
210
0.0
220
0.0
230
1.0
 40
0.36397
 41
3.121128591851874
 42
3.162056715327757
  0
LINE
  5
1D5
330
1F
100
AcDbEntity
  8
LC-001-100-D00-0
 62
     7
370
    50
100
AcDbLine
 10
73.658419
 20
256.104458
 30
0.0
 11
61.376649
 21
256.104458
 31
0.0
  0
ELLIPSE
  5
1D6
330
1F
100
AcDbEntity
  8
LC-001-100-D00-0
 62
     7
370
    50
100
AcDbEllipse
 10
60.226649
 20
409.893867
 30
0.0
 11
16.56207463459468
 21
-154.3006263193244
 31
0.0
210
0.0
220
0.0
230
1.0
 40
0.348049
 41
3.083787635553867
 42
3.124715759029707
  0
LINE
  5
1D7
330
1F
100
AcDbEntity
  8
LC-001-100-D00-0
 62
     7
370
    50
100
AcDbLine
 10
75.880049
 20
256.104458
 30
0.0
 11
75.880049
 21
255.517933
 31
0.0
  0
LINE
  5
1D8
330
1F
100
AcDbEntity
  8
LC-001-100-D00-0
 62
     7
370
    50
100
AcDbLine
 10
87.324835
 20
256.104458
 30
0.0
 11
75.880049
 21
256.104458
 31
0.0
  0
ELLIPSE
  5
1D9
330
1F
100
AcDbEntity
  8
LC-001-100-D00-0
 62
     7
370
    50
100
AcDbEllipse
 10
60.226649
 20
409.893867
 30
0.0
 11
31.02069845648743
 21
-154.1198904247544
 31
0.0
210
0.0
220
0.0
230
0.9999999999999999
 40
0.30407
 41
3.060002807815104
 42
3.100930931290939
  0
LINE
  5
1DA
330
1F
100
AcDbEntity
  8
LC-001-100-D00-0
 62
     7
370
    50
100
AcDbLine
 10
89.316694
 20
256.104458
 30
0.0
 11
89.316694
 21
255.517933
 31
0.0
  0
LINE
  5
1DB
330
1F
100
AcDbEntity
  8
LC-001-100-D00-0
 62
     7
370
    50
100
AcDbLine
 10
98.993603
 20
256.104458
 30
0.0
 11
89.316694
 21
256.104458
 31
0.0
  0
ELLIPSE
  5
1DC
330
1F
100
AcDbEntity
  8
LC-001-100-D00-0
 62
     7
370
    50
100
AcDbEllipse
 10
60.226649
 20
409.893867
 30
0.0
 11
42.26835833948444
 21
-154.073572301298
 31
0.0
210
0.0
220
0.0
230
1.0
 40
0.240393
 41
3.055274898988198
 42
3.096203022464041
  0
LINE
  5
1DD
330
1F
100
AcDbEntity
  8
LC-001-100-D00-0
 62
     7
370
    50
100
AcDbLine
 10
100.770902
 20
256.104458
 30
0.0
 11
100.770902
 21
255.517933
 31
0.0
  0
LINE
  5
1DE
330
1F
100
AcDbEntity
  8
LC-001-100-D00-0
 62
     7
370
    50
100
AcDbLine
 10
108.127207
 20
256.104458
 30
0.0
 11
100.770902
 21
256.104458
 31
0.0
  0
ELLIPSE
  5
1DF
330
1F
100
AcDbEntity
  8
LC-001-100-D00-0
 62
     7
370
    50
100
AcDbEllipse
 10
60.226649
 20
409.893867
 30
0.0
 11
50.105999100106
 21
-154.1865670812958
 31
0.0
210
0.0
220
0.0
230
1.0
 40
0.165076
 41
3.067535265514065
 42
3.108463388989906
  0
LINE
  5
1E0
330
1F
100
AcDbEntity
  8
LC-001-100-D00-0
 62
     7
370
    50
100
AcDbLine
 10
109.462086
 20
256.104458
 30
0.0
 11
109.462086
 21
255.517933
 31
0.0
  0
LINE
  5
1E1
330
1F
100
AcDbEntity
  8
LC-001-100-D00-0
 62
     7
370
    50
100
AcDbLine
 10
113.996468
 20
256.104458
 30
0.0
 11
109.462086
 21
256.104458
 31
0.0
  0
ELLIPSE
  5
1E2
330
1F
100
AcDbEntity
  8
LC-001-100-D00-0
 62
     7
370
    50
100
AcDbEllipse
 10
60.226649
 20
409.893867
 30
0.0
 11
54.69271162511062
 21
-154.340281035216
 31
0.0
210
0.0
220
0.0
230
1.0
 40
0.083767
 41
3.091453433106267
 42
3.1323815565821
  0
LINE
  5
1E3
330
1F
100
AcDbEntity
  8
LC-001-100-D00-0
 62
     7
370
    50
100
AcDbLine
 10
114.797957
 20
256.104458
 30
0.0
 11
114.797957
 21
255.517933
 31
0.0
  0
LINE
  5
1E4
330
1F
100
AcDbEntity
  8
LC-001-100-D00-0
 62
     7
370
    50
100
AcDbLine
 10
116.201404
 20
256.104458
 30
0.0
 11
114.797957
 21
256.104458
 31
0.0
  0
LINE
  5
1E5
330
1F
100
AcDbEntity
  8
LC-001-100-D00-0
 62
     7
370
    50
100
AcDbLine
 10
116.42665
 20
250.797752
 30
0.0
 11
4.026648
 21
250.797752
 31
0.0
  0
LINE
  5
1E6
330
1F
100
AcDbEntity
  8
LC-001-100-D00-0
 62
     7
370
    50
100
AcDbLine
 10
73.43259
 20
291.297693
 30
0.0
 11
73.302161
 21
291.297693
 31
0.0
  0
LINE
  5
1E7
330
1F
100
AcDbEntity
  8
LC-001-100-D00-0
 62
     7
370
    50
100
AcDbLine
 10
83.245868
 20
291.297693
 30
0.0
 11
83.332822
 21
291.297693
 31
0.0
  0
LINE
  5
1E8
330
1F
100
AcDbEntity
  8
LC-001-100-D00-0
 62
     7
370
    50
100
AcDbLine
 10
82.332859
 20
291.297693
 30
0.0
 11
82.419813
 21
291.297693
 31
0.0
  0
LINE
  5
1E9
330
1F
100
AcDbEntity
  8
LC-001-100-D00-0
 62
     7
370
    50
100
AcDbLine
 10
81.854617
 20
291.297693
 30
0.0
 11
81.941571
 21
291.297693
 31
0.0
  0
LINE
  5
1EA
330
1F
100
AcDbEntity
  8
LC-001-100-D00-0
 62
     7
370
    50
100
AcDbLine
 10
83.724109
 20
291.297693
 30
0.0
 11
83.811063
 21
291.297693
 31
0.0
  0
LINE
  5
1EB
330
1F
100
AcDbEntity
  8
LC-001-100-D00-0
 62
     7
370
    50
100
AcDbLine
 10
73.302161
 20
291.297693
 30
0.0
 11
72.854968
 21
291.297693
 31
0.0
  0
LINE
  5
1EC
330
1F
100
AcDbEntity
  8
LC-001-100-D00-0
 62
     7
370
    50
100
AcDbLine
 10
81.941571
 20
291.297693
 30
0.0
 11
82.332859
 21
291.297693
 31
0.0
  0
LINE
  5
1ED
330
1F
100
AcDbEntity
  8
LC-001-100-D00-0
 62
     7
370
    50
100
AcDbLine
 10
83.332822
 20
291.297693
 30
0.0
 11
83.724109
 21
291.297693
 31
0.0
  0
LINE
  5
1EE
330
1F
100
AcDbEntity
  8
LC-001-100-D00-0
 62
     7
370
    50
100
AcDbLine
 10
100.770902
 20
255.517933
 30
0.0
 11
95.397167
 21
276.397694
 31
0.0
  0
LINE
  5
1EF
330
1F
100
AcDbEntity
  8
LC-001-100-D00-0
 62
     7
370
    50
100
AcDbLine
 10
119.300399
 20
216.197688
 30
0.0
 11
120.420739
 21
217.103068
 31
0.0
  0
LINE
  5
1F0
330
1F
100
AcDbEntity
  8
LC-001-100-D00-0
 62
     7
370
    50
100
AcDbLine
 10
110.890586
 20
216.197688
 30
0.0
 11
101.985715
 21
250.797752
 31
0.0
  0
LINE
  5
1F1
330
1F
100
AcDbEntity
  8
LC-001-100-D00-0
 62
     7
370
    50
100
AcDbLine
 10
1.152899
 20
216.197688
 30
0.0
 11
0.032559
 21
217.103068
 31
0.0
  0
LINE
  5
1F2
330
1F
100
AcDbEntity
  8
LC-001-100-D00-0
 62
     7
370
    50
100
AcDbLine
 10
19.682396
 20
255.517933
 30
0.0
 11
25.056131
 21
276.397694
 31
0.0
  0
LINE
  5
1F3
330
1F
100
AcDbEntity
  8
LC-001-100-D00-0
 62
     7
370
    50
100
AcDbLine
 10
9.562712
 20
216.197688
 30
0.0
 11
18.467583
 21
250.797752
 31
0.0
  0
LINE
  5
1F4
330
1F
100
AcDbEntity
  8
LC-001-100-D00-0
 62
     7
370
    50
100
AcDbLine
 10
-13.67335
 20
199.497688
 30
0.0
 11
-15.791431
 21
199.497688
 31
0.0
  0
LINE
  5
1F5
330
1F
100
AcDbEntity
  8
LC-001-100-D00-0
 62
     7
370
    50
100
AcDbLine
 10
-15.791431
 20
199.497688
 30
0.0
 11
-15.791431
 21
216.197688
 31
0.0
  0
LINE
  5
1F6
330
1F
100
AcDbEntity
  8
LC-001-100-D00-0
 62
     7
370
    50
100
AcDbLine
 10
5.655341
 20
255.517933
 30
0.0
 11
12.996003
 21
276.397694
 31
0.0
  0
LINE
  5
1F7
330
1F
100
AcDbEntity
  8
LC-001-100-D00-0
 62
     7
370
    50
100
AcDbLine
 10
-8.168407
 20
216.197688
 30
0.0
 11
3.995877
 21
250.797752
 31
0.0
  0
LINE
  5
1F8
330
1F
100
AcDbEntity
  8
LC-001-100-D00-0
 62
     7
370
    50
100
AcDbLine
 10
114.797957
 20
255.517933
 30
0.0
 11
107.457295
 21
276.397694
 31
0.0
  0
LINE
  5
1F9
330
1F
100
AcDbEntity
  8
LC-001-100-D00-0
 62
     7
370
    50
100
AcDbLine
 10
136.244729
 20
199.497688
 30
0.0
 11
136.244729
 21
216.197688
 31
0.0
  0
LINE
  5
1FA
330
1F
100
AcDbEntity
  8
LC-001-100-D00-0
 62
     7
370
    50
100
AcDbLine
 10
136.244729
 20
199.497688
 30
0.0
 11
134.126648
 21
199.497688
 31
0.0
  0
LINE
  5
1FB
330
1F
100
AcDbEntity
  8
LC-001-100-D00-0
 62
     7
370
    50
100
AcDbLine
 10
128.621705
 20
216.197688
 30
0.0
 11
116.457421
 21
250.797752
 31
0.0
  0
LINE
  5
1FC
330
1F
100
AcDbEntity
  8
LC-001-100-D00-0
 62
     7
370
    50
100
AcDbLine
 10
114.202671
 20
255.517933
 30
0.0
 11
106.862012
 21
276.397694
 31
0.0
  0
LINE
  5
1FD
330
1F
100
AcDbEntity
  8
LC-001-100-D00-0
 62
     7
370
    50
100
AcDbLine
 10
6.250627
 20
255.517933
 30
0.0
 11
13.591286
 21
276.397694
 31
0.0
  0
INSERT
  5
20F
330
1F
100
AcDbEntity
  8
LC-001-100-D00-0
 62
     7
370
    50
100
AcDbBlockReference
  2
POLY7
 10
0.0
 20
0.0
 30
0.0
  0
INSERT
  5
221
330
1F
100
AcDbEntity
  8
LC-001-100-D00-0
 62
     7
370
    50
100
AcDbBlockReference
  2
POLY8
 10
0.0
 20
0.0
 30
0.0
  0
LINE
  5
222
330
1F
100
AcDbEntity
  8
LC-001-100-D00-0
 62
     7
370
    50
100
AcDbLine
 10
46.426667
 20
207.49769
 30
0.0
 11
46.426667
 21
199.497688
 31
0.0
  0
LINE
  5
223
330
1F
100
AcDbEntity
  8
LC-001-100-D00-0
 62
     7
370
    50
100
AcDbLine
 10
-9.419292
 20
199.497688
 30
0.0
 11
46.426667
 21
199.497688
 31
0.0
  0
LINE
  5
224
330
1F
100
AcDbEntity
  8
LC-001-100-D00-0
 62
     7
370
    50
100
AcDbLine
 10
-9.419292
 20
199.497688
 30
0.0
 11
-9.419292
 21
207.49769
 31
0.0
  0
INSERT
  5
236
330
1F
100
AcDbEntity
  8
LC-001-100-D00-0
 62
     7
370
    50
100
AcDbBlockReference
  2
POLY9
 10
0.0
 20
0.0
 30
0.0
  0
INSERT
  5
248
330
1F
100
AcDbEntity
  8
LC-001-100-D00-0
 62
     7
370
    50
100
AcDbBlockReference
  2
POLY10
 10
0.0
 20
0.0
 30
0.0
  0
LINE
  5
249
330
1F
100
AcDbEntity
  8
LC-001-100-D00-0
 62
     7
370
    50
100
AcDbLine
 10
129.872613
 20
207.49769
 30
0.0
 11
129.872613
 21
199.497688
 31
0.0
  0
LINE
  5
24A
330
1F
100
AcDbEntity
  8
LC-001-100-D00-0
 62
     7
370
    50
100
AcDbLine
 10
74.026746
 20
199.497688
 30
0.0
 11
129.872613
 21
199.497688
 31
0.0
  0
LINE
  5
24B
330
1F
100
AcDbEntity
  8
LC-001-100-D00-0
 62
     7
370
    50
100
AcDbLine
 10
74.026746
 20
199.497688
 30
0.0
 11
74.026746
 21
207.49769
 31
0.0
  0
LINE
  5
24C
330
1F
100
AcDbEntity
  8
LC-001-100-D00-0
 62
     7
370
    50
100
AcDbLine
 10
129.872613
 20
199.497688
 30
0.0
 11
130.239226
 21
199.497688
 31
0.0
  0
LINE
  5
24D
330
1F
100
AcDbEntity
  8
LC-001-100-D00-0
 62
     7
370
    50
100
AcDbLine
 10
-9.785906
 20
199.497688
 30
0.0
 11
-9.419292
 21
199.497688
 31
0.0
  0
LINE
  5
24E
330
1F
100
AcDbEntity
  8
LC-001-100-D00-0
 62
     7
370
    50
100
AcDbLine
 10
128.2648
 20
216.197688
 30
0.0
 11
128.383316
 21
216.197688
 31
0.0
  0
LINE
  5
24F
330
1F
100
AcDbEntity
  8
LC-001-100-D00-0
 62
     7
370
    50
100
AcDbLine
 10
128.026418
 20
216.197688
 30
0.0
 11
115.862135
 21
250.797752
 31
0.0
  0
LINE
  5
250
330
1F
100
AcDbEntity
  8
LC-001-100-D00-0
 62
     7
370
    50
100
AcDbLine
 10
-7.930018
 20
216.197688
 30
0.0
 11
-7.811502
 21
216.197688
 31
0.0
  0
LINE
  5
251
330
1F
100
AcDbEntity
  8
LC-001-100-D00-0
 62
     7
370
    50
100
AcDbLine
 10
-7.57312
 20
216.197688
 30
0.0
 11
4.591163
 21
250.797752
 31
0.0
  0
LINE
  5
252
330
1F
100
AcDbEntity
  8
LC-001-100-D00-0
 62
     7
370
    50
100
AcDbLine
 10
109.462086
 20
255.517933
 30
0.0
 11
102.880631
 21
276.397694
 31
0.0
  0
LINE
  5
253
330
1F
100
AcDbEntity
  8
LC-001-100-D00-0
 62
     7
370
    50
100
AcDbLine
 10
121.856119
 20
216.197688
 30
0.0
 11
110.949922
 21
250.797752
 31
0.0
  0
LINE
  5
254
330
1F
100
AcDbEntity
  8
LC-001-100-D00-0
 62
     7
370
    50
100
AcDbLine
 10
10.991212
 20
255.517933
 30
0.0
 11
17.572667
 21
276.397694
 31
0.0
  0
LINE
  5
255
330
1F
100
AcDbEntity
  8
LC-001-100-D00-0
 62
     7
370
    50
100
AcDbLine
 10
-1.402821
 20
216.197688
 30
0.0
 11
9.503376
 21
250.797752
 31
0.0
  0
LINE
  5
256
330
1F
100
AcDbEntity
  8
LC-001-100-D00-0
 62
     7
370
    50
100
AcDbLine
 10
108.312085
 20
255.517933
 30
0.0
 11
101.73063
 21
276.397694
 31
0.0
  0
LINE
  5
257
330
1F
100
AcDbEntity
  8
LC-001-100-D00-0
 62
     7
370
    50
100
AcDbLine
 10
12.141213
 20
255.517933
 30
0.0
 11
18.722668
 21
276.397694
 31
0.0
  0
LINE
  5
258
330
1F
100
AcDbEntity
  8
LC-001-100-D00-0
 62
     7
370
    50
100
AcDbLine
 10
121.166643
 20
216.197688
 30
0.0
 11
121.395595
 21
216.197688
 31
0.0
  0
LINE
  5
259
330
1F
100
AcDbEntity
  8
LC-001-100-D00-0
 62
     7
370
    50
100
AcDbLine
 10
120.706119
 20
216.197688
 30
0.0
 11
109.799921
 21
250.797752
 31
0.0
  0
LINE
  5
25A
330
1F
100
AcDbEntity
  8
LC-001-100-D00-0
 62
     7
370
    50
100
AcDbLine
 10
-0.942297
 20
216.197688
 30
0.0
 11
-0.713345
 21
216.197688
 31
0.0
  0
LINE
  5
25B
330
1F
100
AcDbEntity
  8
LC-001-100-D00-0
 62
     7
370
    50
100
AcDbLine
 10
-0.252821
 20
216.197688
 30
0.0
 11
10.653377
 21
250.797752
 31
0.0
  0
LINE
  5
25C
330
1F
100
AcDbEntity
  8
LC-001-100-D00-0
 62
     7
370
    50
100
AcDbLine
 10
99.144556
 20
255.517933
 30
0.0
 11
93.770821
 21
276.397694
 31
0.0
  0
LINE
  5
25D
330
1F
100
AcDbEntity
  8
LC-001-100-D00-0
 62
     7
370
    50
100
AcDbLine
 10
21.308742
 20
255.517933
 30
0.0
 11
26.682477
 21
276.397694
 31
0.0
  0
LINE
  5
25E
330
1F
100
AcDbEntity
  8
LC-001-100-D00-0
 62
     7
370
    50
100
AcDbLine
 10
89.316694
 20
255.517933
 30
0.0
 11
85.516889
 21
276.397694
 31
0.0
  0
LINE
  5
25F
330
1F
100
AcDbEntity
  8
LC-001-100-D00-0
 62
     7
370
    50
100
AcDbLine
 10
104.015309
 20
218.022007
 30
0.0
 11
98.050613
 21
250.797752
 31
0.0
  0
LINE
  5
260
330
1F
100
AcDbEntity
  8
LC-001-100-D00-0
 62
     7
370
    50
100
AcDbLine
 10
97.084872
 20
256.104458
 30
0.0
 11
93.391806
 21
276.397694
 31
0.0
  0
LINE
  5
261
330
1F
100
AcDbEntity
  8
LC-001-100-D00-0
 62
     7
370
    50
100
AcDbLine
 10
102.419026
 20
216.197688
 30
0.0
 11
104.015309
 21
218.022007
 31
0.0
  0
LINE
  5
262
330
1F
100
AcDbEntity
  8
LC-001-100-D00-0
 62
     7
370
    50
100
AcDbLine
 10
96.472394
 20
216.197688
 30
0.0
 11
90.175696
 21
250.797752
 31
0.0
  0
LINE
  5
263
330
1F
100
AcDbEntity
  8
LC-001-100-D00-0
 62
     7
370
    50
100
AcDbLine
 10
18.034272
 20
216.197688
 30
0.0
 11
16.437989
 21
218.022007
 31
0.0
  0
LINE
  5
264
330
1F
100
AcDbEntity
  8
LC-001-100-D00-0
 62
     7
370
    50
100
AcDbLine
 10
16.437989
 20
218.022007
 30
0.0
 11
22.402685
 21
250.797752
 31
0.0
  0
LINE
  5
265
330
1F
100
AcDbEntity
  8
LC-001-100-D00-0
 62
     7
370
    50
100
AcDbLine
 10
23.368426
 20
256.104458
 30
0.0
 11
27.061492
 21
276.397694
 31
0.0
  0
LINE
  5
266
330
1F
100
AcDbEntity
  8
LC-001-100-D00-0
 62
     7
370
    50
100
AcDbLine
 10
31.136604
 20
255.517933
 30
0.0
 11
34.936409
 21
276.397694
 31
0.0
  0
LINE
  5
267
330
1F
100
AcDbEntity
  8
LC-001-100-D00-0
 62
     7
370
    50
100
AcDbLine
 10
23.980904
 20
216.197688
 30
0.0
 11
30.277602
 21
250.797752
 31
0.0
  0
LINE
  5
268
330
1F
100
AcDbEntity
  8
LC-001-100-D00-0
 62
     7
370
    50
100
AcDbLine
 10
87.324835
 20
255.517933
 30
0.0
 11
83.525032
 21
276.397694
 31
0.0
  0
LINE
  5
269
330
1F
100
AcDbEntity
  8
LC-001-100-D00-0
 62
     7
370
    50
100
AcDbLine
 10
33.128463
 20
255.517933
 30
0.0
 11
36.928266
 21
276.397694
 31
0.0
  0
LINE
  5
26A
330
1F
100
AcDbEntity
  8
LC-001-100-D00-0
 62
     7
370
    50
100
AcDbLine
 10
109.915521
 20
216.197688
 30
0.0
 11
110.239308
 21
216.197688
 31
0.0
  0
LINE
  5
26B
330
1F
100
AcDbEntity
  8
LC-001-100-D00-0
 62
     7
370
    50
100
AcDbLine
 10
109.26424
 20
216.197688
 30
0.0
 11
100.359369
 21
250.797752
 31
0.0
  0
LINE
  5
26C
330
1F
100
AcDbEntity
  8
LC-001-100-D00-0
 62
     7
370
    50
100
AcDbLine
 10
10.21399
 20
216.197688
 30
0.0
 11
10.537777
 21
216.197688
 31
0.0
  0
LINE
  5
26D
330
1F
100
AcDbEntity
  8
LC-001-100-D00-0
 62
     7
370
    50
100
AcDbLine
 10
11.189058
 20
216.197688
 30
0.0
 11
20.093929
 21
250.797752
 31
0.0
  0
LINE
  5
26E
330
1F
100
AcDbEntity
  8
LC-001-100-D00-0
 62
     7
370
    50
100
AcDbLine
 10
75.880049
 20
255.517933
 30
0.0
 11
73.913124
 21
276.397694
 31
0.0
  0
LINE
  5
26F
330
1F
100
AcDbEntity
  8
LC-001-100-D00-0
 62
     7
370
    50
100
AcDbLine
 10
83.488611
 20
218.022007
 30
0.0
 11
80.401057
 21
250.797752
 31
0.0
  0
LINE
  5
270
330
1F
100
AcDbEntity
  8
LC-001-100-D00-0
 62
     7
370
    50
100
AcDbLine
 10
79.901153
 20
256.104458
 30
0.0
 11
77.989481
 21
276.397694
 31
0.0
  0
LINE
  5
271
330
1F
100
AcDbEntity
  8
LC-001-100-D00-0
 62
     7
370
    50
100
AcDbLine
 10
82.662314
 20
216.197688
 30
0.0
 11
83.488611
 21
218.022007
 31
0.0
  0
LINE
  5
272
330
1F
100
AcDbEntity
  8
LC-001-100-D00-0
 62
     7
370
    50
100
AcDbLine
 10
79.58411
 20
216.197688
 30
0.0
 11
76.324701
 21
250.797752
 31
0.0
  0
LINE
  5
273
330
1F
100
AcDbEntity
  8
LC-001-100-D00-0
 62
     7
370
    50
100
AcDbLine
 10
37.790984
 20
216.197688
 30
0.0
 11
36.964687
 21
218.022007
 31
0.0
  0
LINE
  5
274
330
1F
100
AcDbEntity
  8
LC-001-100-D00-0
 62
     7
370
    50
100
AcDbLine
 10
36.964687
 20
218.022007
 30
0.0
 11
40.052241
 21
250.797752
 31
0.0
  0
LINE
  5
275
330
1F
100
AcDbEntity
  8
LC-001-100-D00-0
 62
     7
370
    50
100
AcDbLine
 10
40.552145
 20
256.104458
 30
0.0
 11
42.463817
 21
276.397694
 31
0.0
  0
LINE
  5
276
330
1F
100
AcDbEntity
  8
LC-001-100-D00-0
 62
     7
370
    50
100
AcDbLine
 10
44.573249
 20
255.517933
 30
0.0
 11
46.540174
 21
276.397694
 31
0.0
  0
LINE
  5
277
330
1F
100
AcDbEntity
  8
LC-001-100-D00-0
 62
     7
370
    50
100
AcDbLine
 10
40.869188
 20
216.197688
 30
0.0
 11
44.128597
 21
250.797752
 31
0.0
  0
LINE
  5
278
330
1F
100
AcDbEntity
  8
LC-001-100-D00-0
 62
     7
370
    50
100
AcDbLine
 10
73.658419
 20
255.517933
 30
0.0
 11
71.691495
 21
276.397694
 31
0.0
  0
LINE
  5
279
330
1F
100
AcDbEntity
  8
LC-001-100-D00-0
 62
     7
370
    50
100
AcDbLine
 10
46.794879
 20
255.517933
 30
0.0
 11
48.761803
 21
276.397694
 31
0.0
  0
LINE
  5
27A
330
1F
100
AcDbEntity
  8
LC-001-100-D00-0
 62
     7
370
    50
100
AcDbLine
 10
59.076649
 20
255.517933
 30
0.0
 11
59.076649
 21
276.397694
 31
0.0
  0
LINE
  5
27B
330
1F
100
AcDbEntity
  8
LC-001-100-D00-0
 62
     7
370
    50
100
AcDbLine
 10
61.376649
 20
255.517933
 30
0.0
 11
61.376649
 21
276.397694
 31
0.0
  0
LINE
  5
27C
330
1F
100
AcDbEntity
  8
LC-001-100-D00-0
 62
     7
370
    50
100
AcDbLine
 10
95.278185
 20
216.197688
 30
0.0
 11
95.674742
 21
216.197688
 31
0.0
  0
LINE
  5
27D
330
1F
100
AcDbEntity
  8
LC-001-100-D00-0
 62
     7
370
    50
100
AcDbLine
 10
94.480533
 20
216.197688
 30
0.0
 11
88.183839
 21
250.797752
 31
0.0
  0
LINE
  5
27E
330
1F
100
AcDbEntity
  8
LC-001-100-D00-0
 62
     7
370
    50
100
AcDbLine
 10
24.778556
 20
216.197688
 30
0.0
 11
25.175113
 21
216.197688
 31
0.0
  0
LINE
  5
27F
330
1F
100
AcDbEntity
  8
LC-001-100-D00-0
 62
     7
370
    50
100
AcDbLine
 10
25.972765
 20
216.197688
 30
0.0
 11
32.269459
 21
250.797752
 31
0.0
  0
LINE
  5
280
330
1F
100
AcDbEntity
  8
LC-001-100-D00-0
 62
     7
370
    50
100
AcDbLine
 10
78.252144
 20
216.197688
 30
0.0
 11
78.694448
 21
216.197688
 31
0.0
  0
LINE
  5
281
330
1F
100
AcDbEntity
  8
LC-001-100-D00-0
 62
     7
370
    50
100
AcDbLine
 10
77.362481
 20
216.197688
 30
0.0
 11
74.103071
 21
250.797752
 31
0.0
  0
LINE
  5
282
330
1F
100
AcDbEntity
  8
LC-001-100-D00-0
 62
     7
370
    50
100
AcDbLine
 10
41.75885
 20
216.197688
 30
0.0
 11
42.201154
 21
216.197688
 31
0.0
  0
LINE
  5
283
330
1F
100
AcDbEntity
  8
LC-001-100-D00-0
 62
     7
370
    50
100
AcDbLine
 10
43.090817
 20
216.197688
 30
0.0
 11
46.350227
 21
250.797752
 31
0.0
  0
LINE
  5
284
330
1F
100
AcDbEntity
  8
LC-001-100-D00-0
 62
     7
370
    50
100
AcDbLine
 10
59.997696
 20
216.197688
 30
0.0
 11
60.455602
 21
216.197688
 31
0.0
  0
LINE
  5
285
330
1F
100
AcDbEntity
  8
LC-001-100-D00-0
 62
     7
370
    50
100
AcDbLine
 10
59.076649
 20
216.197688
 30
0.0
 11
59.076649
 21
250.797752
 31
0.0
  0
LINE
  5
286
330
1F
100
AcDbEntity
  8
LC-001-100-D00-0
 62
     7
370
    50
100
AcDbLine
 10
61.376649
 20
216.197688
 30
0.0
 11
61.376649
 21
250.797752
 31
0.0
  0
INSERT
  5
298
330
1F
100
AcDbEntity
  8
LC-001-100-D00-0
 62
     7
370
    50
100
AcDbBlockReference
  2
POLY11
 10
0.0
 20
0.0
 30
0.0
  0
LINE
  5
299
330
1F
100
AcDbEntity
  8
LC-001-100-D00-0
 62
     7
370
    50
100
AcDbLine
 10
72.026746
 20
207.49769
 30
0.0
 11
72.026746
 21
187.197689
 31
0.0
  0
LINE
  5
29A
330
1F
100
AcDbEntity
  8
LC-001-100-D00-0
 62
     7
370
    50
100
AcDbLine
 10
48.426666
 20
187.197689
 30
0.0
 11
72.026746
 21
187.197689
 31
0.0
  0
LINE
  5
29B
330
1F
100
AcDbEntity
  8
LC-001-100-D00-0
 62
     7
370
    50
100
AcDbLine
 10
48.426666
 20
187.197689
 30
0.0
 11
48.426666
 21
207.49769
 31
0.0
  0
INSERT
  5
2AD
330
1F
100
AcDbEntity
  8
LC-001-100-D00-0
 62
     7
370
    50
100
AcDbBlockReference
  2
POLY12
 10
0.0
 20
0.0
 30
0.0
  0
INSERT
  5
2BE
330
1F
100
AcDbEntity
  8
LC-001-100-D00-0
 62
     1
370
    25
100
AcDbBlockReference
  2
KLON1
 10
0.0
 20
0.0
 30
0.0
  0
INSERT
  5
2C4
330
1F
100
AcDbEntity
  8
LC-001-100-D00-0
 62
     1
370
    25
100
AcDbBlockReference
  2
KLON2
 10
0.0
 20
0.0
 30
0.0
  0
INSERT
  5
2CA
330
1F
100
AcDbEntity
  8
LC-001-100-D00-0
 62
     1
370
    25
100
AcDbBlockReference
  2
KLON3
 10
0.0
 20
0.0
 30
0.0
  0
INSERT
  5
2D9
330
1F
100
AcDbEntity
  8
LC-001-100-D00-0
 62
     1
370
    25
100
AcDbBlockReference
  2
KLON4
 10
0.0
 20
0.0
 30
0.0
  0
LINE
  5
2DA
330
1F
100
AcDbEntity
  8
LC-001-100-D00-0
 62
     7
370
    50
100
AcDbLine
 10
238.370751
 20
212.69776
 30
0.0
 11
240.199443
 21
214.526452
 31
0.0
  0
INSERT
  5
2E8
330
1F
100
AcDbEntity
  8
LC-001-100-D00-0
 62
     1
370
    25
100
AcDbBlockReference
  2
KLON5
 10
0.0
 20
0.0
 30
0.0
  0
LINE
  5
2E9
330
1F
100
AcDbEntity
  8
LC-001-100-D00-0
 62
     7
370
    50
100
AcDbLine
 10
-16.441692
 20
182.391799
 30
0.0
 11
-12.93423
 21
185.899261
 31
0.0
  0
LINE
  5
2EB
330
1F
100
AcDbEntity
  8
LC-001-100-D00-0
  6
DASHDOT
 62
     7
370
    25
100
AcDbLine
 10
60.226649
 20
53.755763
 30
0.0
 11
60.226649
 21
291.297693
 31
0.0
  0
DIMENSION
  5
2EF
330
1F
100
AcDbEntity
  8
LC-002-003-----0
 62
     7
370
    25
100
AcDbDimension
  2
*D18
 10
240.226656
 20
324.963763
 30
0.0
 11
58.407979
 21
355.763763
 31
0.0
 70
   160
  1
%%c<>
 71
     5
 42
360.000014
  3
LC-DIM-L-0140-02-02
100
AcDbAlignedDimension
 13
-119.773358
 23
212.697763
 33
0.0
 14
240.226656
 24
212.697763
 34
0.0
100
AcDbRotatedDimension
  0
DIMENSION
  5
2FD
330
1F
100
AcDbEntity
  8
LC-002-003-----0
 62
     7
370
    25
100
AcDbDimension
  2
*D19
 10
140.326649
 20
-58.166237
 30
0.0
 11
55.748556
 21
-27.366237
 31
0.0
 70
   160
  1
%%c160
 71
     5
 42
160.2
  3
LC-DIM-L-0140-02-02
100
AcDbAlignedDimension
 13
-19.873351
 23
130.197774
 33
0.0
 14
140.326649
 24
130.197774
 34
0.0
100
AcDbRotatedDimension
  0
DIMENSION
  5
30A
330
1F
100
AcDbEntity
  8
LC-002-003-----0
 62
     7
370
    25
100
AcDbDimension
  2
*D20
 10
115.226649
 20
8.955763
 30
0.0
 11
65.499774
 21
39.755763
 31
0.0
 70
   160
  1
DN100
 71
     5
 42
109.999999
  3
LC-DIM-L-0140-02-02
100
AcDbAlignedDimension
 13
5.226649
 23
61.197771
 33
0.0
 14
115.226649
 24
61.197771
 34
0.0
100
AcDbRotatedDimension
  0
DIMENSION
  5
317
330
1F
100
AcDbEntity
  8
LC-002-003-----0
 62
     7
370
    25
100
AcDbDimension
  2
*D21
 10
-79.882014
 20
120.197772
 30
0.0
 11
-110.682014
 21
162.207763
 31
0.0
 70
   160
 71
     5
 42
95.999918
 53
90.0
  3
LC-DIM-L-0140-02-02
100
AcDbAlignedDimension
 13
-117.773351
 23
216.197691
 33
0.0
 14
-11.773351
 24
120.197772
 34
0.0
 50
90.0
100
AcDbRotatedDimension
  0
DIMENSION
  5
324
330
1F
100
AcDbEntity
  8
LC-002-003-----0
 62
     7
370
    25
100
AcDbDimension
  2
*D22
 10
-138.389319
 20
56.197771
 30
0.0
 11
-169.189319
 21
134.289763
 31
0.0
 70
   160
 71
     5
 42
159.99992
 53
90.0
  3
LC-DIM-L-0140-02-02
100
AcDbAlignedDimension
 13
-117.773351
 23
216.197691
 33
0.0
 14
8.726649
 24
56.197771
 34
0.0
 50
90.0
100
AcDbRotatedDimension
  0
ENDSEC
  0
SECTION
  2
OBJECTS
  0
DICTIONARY
  5
C
330
0
100
AcDbDictionary
281
     1
  3
ACAD_GROUP
350
D
  3
ACAD_LAYOUT
350
1A
  3
ACAD_MLINESTYLE
350
17
  3
ACAD_PLOTSETTINGS
350
19
  3
ACAD_PLOTSTYLENAME
350
E
  0
DICTIONARY
  5
D
102
{ACAD_REACTORS
330
C
102
}
330
C
100
AcDbDictionary
281
     1
  0
DICTIONARY
  5
1A
102
{ACAD_REACTORS
330
C
102
}
330
C
100
AcDbDictionary
281
     1
  3
Layout1
350
1E
  3
Layout2
350
26
  3
Model
350
22
  0
DICTIONARY
  5
17
102
{ACAD_REACTORS
330
C
102
}
330
C
100
AcDbDictionary
281
     1
  3
Standard
350
18
  0
DICTIONARY
  5
19
102
{ACAD_REACTORS
330
C
102
}
330
C
100
AcDbDictionary
281
     1
  0
ACDBDICTIONARYWDFLT
  5
E
102
{ACAD_REACTORS
330
C
102
}
330
C
100
AcDbDictionary
281
     1
  3
Normal
350
F
100
AcDbDictionaryWithDefault
340
F
  0
LAYOUT
  5
1E
102
{ACAD_REACTORS
330
1A
102
}
330
1A
100
AcDbPlotSettings
  1

  2

  4

  6

 40
0.0
 41
0.0
 42
0.0
 43
0.0
 44
0.0
 45
0.0
 46
0.0
 47
0.0
 48
0.0
 49
0.0
140
0.0
141
0.0
142
1.0
143
1.0
 70
   688
 72
     0
 73
     0
 74
     5
  7

 75
    16
147
1.0
148
0.0
149
0.0
100
AcDbLayout
  1
Layout1
 70
     1
 71
     1
 10
-290.674076
 20
-157.958237
 11
549.325924
 21
436.041763
 12
0.0
 22
0.0
 32
0.0
 14
-290.674076
 24
-157.958237
 34
0.0
 15
549.325924
 25
436.041763
 35
0.0
146
0.0
 13
0.0
 23
0.0
 33
0.0
 16
1.0
 26
0.0
 36
0.0
 17
0.0
 27
1.0
 37
0.0
 76
     0
330
1B
  0
LAYOUT
  5
26
102
{ACAD_REACTORS
330
1A
102
}
330
1A
100
AcDbPlotSettings
  1

  2

  4

  6

 40
0.0
 41
0.0
 42
0.0
 43
0.0
 44
0.0
 45
0.0
 46
0.0
 47
0.0
 48
0.0
 49
0.0
140
0.0
141
0.0
142
1.0
143
1.0
 70
   688
 72
     0
 73
     0
 74
     5
  7

 75
    16
147
1.0
148
0.0
149
0.0
100
AcDbLayout
  1
Layout2
 70
     1
 71
     2
 10
0.0
 20
0.0
 11
0.0
 21
0.0
 12
0.0
 22
0.0
 32
0.0
 14
0.0
 24
0.0
 34
0.0
 15
0.0
 25
0.0
 35
0.0
146
0.0
 13
0.0
 23
0.0
 33
0.0
 16
1.0
 26
0.0
 36
0.0
 17
0.0
 27
1.0
 37
0.0
 76
     0
330
23
  0
LAYOUT
  5
22
102
{ACAD_REACTORS
330
1A
102
}
330
1A
100
AcDbPlotSettings
  1

  2

  4

  6

 40
0.0
 41
0.0
 42
0.0
 43
0.0
 44
0.0
 45
0.0
 46
0.0
 47
0.0
 48
0.0
 49
0.0
140
0.0
141
0.0
142
1.0
143
1.0
 70
  1776
 72
     0
 73
     0
 74
     0
  7

 75
     0
147
1.0
148
0.0
149
0.0
100
AcDbLayout
  1
Model
 70
     1
 71
     0
 10
-290.674076
 20
-157.958237
 11
549.325924
 21
436.041763
 12
0.0
 22
0.0
 32
0.0
 14
-290.674076
 24
-157.958237
 34
0.0
 15
549.325924
 25
436.041763
 35
0.0
146
0.0
 13
0.0
 23
0.0
 33
0.0
 16
1.0
 26
0.0
 36
0.0
 17
0.0
 27
1.0
 37
0.0
 76
     0
330
1F
  0
MLINESTYLE
  5
18
102
{ACAD_REACTORS
330
17
102
}
330
17
100
AcDbMlineStyle
  2
Standard
 70
     0
  3

 62
   256
 51
90.0
 52
90.0
 71
     2
 49
0.5
 62
   256
  6
BYLAYER
 49
-0.5
 62
   256
  6
BYLAYER
  0
ACDBPLACEHOLDER
  5
F
102
{ACAD_REACTORS
330
E
102
}
330
E
  0
ENDSEC
  0
EOF
