  0
SECTION
  2
HEADER
  9
$ACADVER
  1
AC1009
  9
$INSBASE
 10
0.0
 20
0.0
 30
0.0
  9
$EXTMIN
 10
0.0
 20
0.0
 30
0.0
  9
$EXTMAX
 10
1188.0
 20
840.0
 30
0.0
  9
$LIMMIN
 10
0.0
 20
0.0
  9
$LIMMAX
 10
1188.0
 20
840.0
  9
$ORTHOMODE
 70
     0
  9
$REGENMODE
 70
     1
  9
$FILLMODE
 70
     1
  9
$QTEXTMODE
 70
     0
  9
$MIRRTEXT
 70
     1
  9
$DRAGMODE
 70
     2
  9
$LTSCALE
 40
2.0
  9
$OSMODE
 70
     0
  9
$ATTMODE
 70
     1
  9
$TEXTSIZE
 40
0.2
  9
$TRACEWID
 40
0.05
  9
$TEXTSTYLE
  7
STANDARD
  9
$CLAYER
  8
0
  9
$CELTYPE
  6
BYLAYER
  9
$CECOLOR
 62
     7
  9
$DIMSCALE
 40
2.0
  9
$DIMASZ
 40
3.5
  9
$DIMEXO
 40
0.0625
  9
$DIMDLI
 40
0.38
  9
$DIMRND
 40
0.0
  9
$DIMDLE
 40
0.0
  9
$DIMEXE
 40
0.18
  9
$DIMTP
 40
0.0
  9
$DIMTM
 40
0.0
  9
$DIMTXT
 40
3.5
  9
$DIMCEN
 40
0.09
  9
$DIMTSZ
 40
0.0
  9
$DIMTOL
 70
     0
  9
$DIMLIM
 70
     0
  9
$DIMTIH
 70
     1
  9
$DIMTOH
 70
     1
  9
$DIMSE1
 70
     0
  9
$DIMSE2
 70
     0
  9
$DIMTAD
 70
     1
  9
$DIMZIN
 70
     0
  9
$DIMBLK
  1

  9
$DIMASO
 70
     1
  9
$DIMSHO
 70
     1
  9
$DIMPOST
  1

  9
$DIMAPOST
  1

  9
$DIMALT
 70
     0
  9
$DIMALTD
 70
     2
  9
$DIMALTF
 40
25.4
  9
$DIMLFAC
 40
1.0
  9
$DIMTOFL
 70
     0
  9
$DIMTVP
 40
0.0
  9
$DIMTIX
 70
     0
  9
$DIMSOXD
 70
     0
  9
$DIMSAH
 70
     0
  9
$DIMBLK1
  1

  9
$DIMBLK2
  1

  9
$DIMSTYLE
  2
STANDARD
  9
$DIMCLRD
 70
     0
  9
$DIMCLRE
 70
     0
  9
$DIMCLRT
 70
     0
  9
$DIMTFAC
 40
1.0
  9
$DIMGAP
 40
0.09
  9
$LUNITS
 70
     2
  9
$LUPREC
 70
     2
  9
$AXISMODE
 70
     0
  9
$AXISUNIT
 10
0.0
 20
0.0
  9
$SKETCHINC
 40
0.1
  9
$FILLETRAD
 40
0.0
  9
$AUNITS
 70
     0
  9
$AUPREC
 70
     0
  9
$MENU
  1
acad
  9
$ELEVATION
 40
0.0
  9
$PELEVATION
 40
0.0
  9
$THICKNESS
 40
0.0
  9
$LIMCHECK
 70
     0
  9
$BLIPMODE
 70
     1
  9
$CHAMFERA
 40
0.0
  9
$CHAMFERB
 40
0.0
  9
$SKPOLY
 70
     0
  9
$TDCREATE
 40
0.000000000
  9
$TDUPDATE
 40
0.000000000
  9
$TDINDWG
 40
0.0000000000
  9
$TDUSRTIMER
 40
0.0000000000
  9
$USRTIMER
 70
     1
  9
$ANGBASE
 50
0.0
  9
$ANGDIR
 70
     0
  9
$PDMODE
 70
     0
  9
$PDSIZE
 40
0.0
  9
$PLINEWID
 40
0.0
  9
$COORDS
 70
     0
  9
$SPLFRAME
 70
     0
  9
$SPLINETYPE
 70
     6
  9
$SPLINESEGS
 70
     8
  9
$ATTDIA
 70
     0
  9
$ATTREQ
 70
     1
  9
$HANDLING
 70
     1
  9
$HANDSEED
  5
66D
  9
$SURFTAB1
 70
     6
  9
$SURFTAB2
 70
     6
  9
$SURFTYPE
 70
     6
  9
$SURFU
 70
     6
  9
$SURFV
 70
     6
  9
$UCSNAME
  2

  9
$UCSORG
 10
0.0
 20
0.0
 30
0.0
  9
$UCSXDIR
 10
1.0
 20
0.0
 30
0.0
  9
$UCSYDIR
 10
0.0
 20
1.0
 30
0.0
  9
$PUCSNAME
  2

  9
$PUCSORG
 10
0.0
 20
0.0
 30
0.0
  9
$PUCSXDIR
 10
1.0
 20
0.0
 30
0.0
  9
$PUCSYDIR
 10
0.0
 20
1.0
 30
0.0
  9
$USERI1
 70
     0
  9
$USERI2
 70
     0
  9
$USERI3
 70
     0
  9
$USERI4
 70
     0
  9
$USERI5
 70
     0
  9
$USERR1
 40
0.0
  9
$USERR2
 40
0.0
  9
$USERR3
 40
0.0
  9
$USERR4
 40
0.0
  9
$USERR5
 40
0.0
  9
$WORLDVIEW
 70
     1
  9
$SHADEDGE
 70
     3
  9
$SHADEDIF
 70
    70
  9
$TILEMODE
 70
     1
  9
$MAXACTVP
 70
    16
  9
$PINSBASE
 10
0.0
 20
0.0
 30
0.0
  9
$PLIMCHECK
 70
     0
  9
$PEXTMIN
 10
1.000000E+20
 20
1.000000E+20
 30
1.000000E+20
  9
$PEXTMAX
 10
-1.000000E+20
 20
-1.000000E+20
 30
-1.000000E+20
  9
$PLIMMIN
 10
0.0
 20
0.0
  9
$PLIMMAX
 10
1188.0
 20
840.0
  9
$UNITMODE
 70
     0
  9
$VISRETAIN
 70
     0
  9
$PLINEGEN
 70
     1
  9
$PSLTSCALE
 70
     0
  9
$TREEDEPTH
 70
  3020
  9
$DWGCODEPAGE
  3
dos850
  0
ENDSEC
  0
SECTION
  2
TABLES
  0
TABLE
  2
VPORT
 70
     1
  0
VPORT
  2
*ACTIVE
 70
     0
 10
0.0
 20
0.0
 11
1.0
 21
1.0
 12
594.0
 22
420.0
 13
0.0
 23
0.0
 14
1.0
 24
1.0
 15
0.0
 25
0.0
 16
0.0
 26
0.0
 36
1.0
 17
0.0
 27
0.0
 37
0.0
 40
840.0
 41
1.604229
 42
50.0
 43
0.0
 44
0.0
 50
0.0
 51
0.0
 71
     0
 72
   100
 73
     1
 74
     1
 75
     0
 76
     0
 77
     0
 78
     0
  0
ENDTAB
  0
TABLE
  2
LTYPE
 70
     3
  0
LTYPE
  2
CONTINUOUS
 70
    64
  3
Solid line
 72
    65
 73
     0
 40
0.0
  0
LTYPE
  2
DASHED
 70
    64
  3
__ __ __ __ __
 72
    65
 73
     2
 40
6.25
 49
5.0
 49
-1.25
  0
LTYPE
  2
DASHDOT
 70
    64
  3
__ . __ . __ . __ . __
 72
    65
 73
     4
 40
7.5
 49
5.0
 49
-1.25
 49
0.0
 49
-1.25
  0
ENDTAB
  0
TABLE
  2
LAYER
 70
    13
  0
LAYER
  2
0
 70
     0
 62
     7
  6
CONTINUOUS
  0
LAYER
  2
LC-INFO-1-2-MM-A2-0
 70
     1
 62
    -1
  6
CONTINUOUS
  0
LAYER
  2
LC-001-005-----0
 70
     0
 62
     2
  6
CONTINUOUS
  0
LAYER
  2
LC-004-003-MTH-0
 70
     0
 62
     2
  6
CONTINUOUS
  0
LAYER
  2
LC-005-003-MTG-0
 70
     0
 62
     2
  6
CONTINUOUS
  0
LAYER
  2
LC-003-003-----0
 70
     0
 62
     2
  6
CONTINUOUS
  0
LAYER
  2
LC-007-000-----0
 70
     0
 62
     7
  6
CONTINUOUS
  0
LAYER
  2
LC-009-100-D02-0
 70
     0
 62
     7
  6
CONTINUOUS
  0
LAYER
  2
LC-002-002-----0
 70
     0
 62
     1
  6
CONTINUOUS
  0
LAYER
  2
LC-006-002-RND-0
 70
     0
 62
     1
  6
CONTINUOUS
  0
LAYER
  2
LC-008-061-----0
 70
     0
 62
     2
  6
DASHDOT
  0
LAYER
  2
LC-010-100-D00-0
 70
     0
 62
     7
  6
CONTINUOUS
  0
LAYER
  2
LC-000
 70
     0
 62
     7
  6
CONTINUOUS
  0
ENDTAB
  0
TABLE
  2
STYLE
 70
     4
  0
STYLE
  2
STANDARD
 70
     0
 40
0.0
 41
1.0
 50
0.0
 71
     0
 42
0.0
  3
txt
  4

  0
STYLE
  2
LC-STANDARD
 70
    64
 40
0.0
 41
1.0
 50
0.0
 71
     0
 42
3.5
  3
MONOTXT
  4

  0
STYLE
  2
LC-TXTSTYLE-150-400-0-0-D2
 70
    64
 40
0.0
 41
1.0
 50
15.0
 71
     0
 42
3.5
  3
MONOTXT
  4

  0
STYLE
  2
LC-TXTSTYLE-150-400-0-0-D3
 70
    64
 40
0.0
 41
1.0
 50
15.0
 71
     0
 42
3.5
  3
LC-STANDARD
  4

  0
ENDTAB
  0
TABLE
  2
VIEW
 70
     0
  0
ENDTAB
  0
TABLE
  2
UCS
 70
     0
  0
ENDTAB
  0
TABLE
  2
APPID
 70
     1
  0
APPID
  2
ACAD
 70
     0
  0
ENDTAB
  0
TABLE
  2
DIMSTYLE
 70
     3
  0
DIMSTYLE
  2
STANDARD
 70
     0
  3

  4

  5

  6

  7

 40
1.0
 41
0.18
 42
0.0625
 43
0.38
 44
0.18
 45
0.0
 46
0.0
 47
0.0
 48
0.0
 71
     0
 72
     0
 73
     1
 74
     1
 75
     0
 76
     0
 77
     0
 78
     0
140
0.18
141
0.09
142
0.0
143
25.4
144
1.0
145
0.0
146
1.0
147
0.09
170
     0
171
     2
172
     0
173
     0
174
     0
175
     0
176
     0
177
     0
178
     0
  0
DIMSTYLE
  2
LC-STANDARD
 70
     0
  3

  4

  5

  6

  7

 40
1.0
 41
3.5
 42
0.0
 43
7.5
 44
1.8
 45
0.0
 46
0.0
 47
0.0
 48
0.0
 71
     0
 72
     0
 73
     0
 74
     0
 75
     0
 76
     0
 77
     1
 78
     8
140
3.5
141
0.0
142
0.0
143
25.4
144
1.0
145
0.0
146
0.71
147
1.5
170
     0
171
     2
172
     1
173
     0
174
     0
175
     0
176
     0
177
     0
178
     3
  0
DIMSTYLE
  2
LC-DIM-L-0090-02-02
 70
     0
  3

  4

  5

  6

  7

 40
2.0
 41
3.5
 42
0.0
 43
7.5
 44
1.8
 45
0.0
 46
0.0
 47
0.0
 48
0.0
 71
     0
 72
     0
 73
     0
 74
     0
 75
     0
 76
     0
 77
     1
 78
     8
140
9.0
141
0.0
142
0.0
143
25.4
144
1.0
145
0.0
146
0.71
147
1.5
170
     0
171
     2
172
     0
173
     0
174
     0
175
     0
176
     2
177
     2
178
     6
  0
ENDTAB
  0
ENDSEC
  0
SECTION
  2
BLOCKS
  0
BLOCK
  8
0
  5
23
  2
*X0
 70
    65
 10
450.644393
 20
237.681947
 30
0.0
  3
*X0
  0
LINE
  8
LC-001-005-----0
  6
CONTINUOUS
  5
25
 10
531.838368
 20
237.681947
 30
0.0
 11
532.644393
 21
238.487972
 31
0.0
  0
LINE
  8
LC-001-005-----0
  6
CONTINUOUS
  5
26
 10
529.672604
 20
238.34461
 30
0.0
 11
532.644393
 21
241.316399
 31
0.0
  0
LINE
  8
LC-001-005-----0
  6
CONTINUOUS
  5
27
 10
529.074887
 20
240.575321
 30
0.0
 11
532.644393
 21
244.144826
 31
0.0
  0
LINE
  8
LC-001-005-----0
  6
CONTINUOUS
  5
28
 10
528.644393
 20
242.973253
 30
0.0
 11
532.644393
 21
246.973253
 31
0.0
  0
LINE
  8
LC-001-005-----0
  6
CONTINUOUS
  5
29
 10
528.644393
 20
245.801681
 30
0.0
 11
532.644393
 21
249.801681
 31
0.0
  0
LINE
  8
LC-001-005-----0
  6
CONTINUOUS
  5
2A
 10
528.644393
 20
248.630108
 30
0.0
 11
532.644393
 21
252.630108
 31
0.0
  0
LINE
  8
LC-001-005-----0
  6
CONTINUOUS
  5
2B
 10
528.644393
 20
251.458535
 30
0.0
 11
532.644393
 21
255.458535
 31
0.0
  0
LINE
  8
LC-001-005-----0
  6
CONTINUOUS
  5
2C
 10
528.644393
 20
254.286962
 30
0.0
 11
532.644393
 21
258.286962
 31
0.0
  0
LINE
  8
LC-001-005-----0
  6
CONTINUOUS
  5
2D
 10
528.644393
 20
257.115389
 30
0.0
 11
532.644393
 21
261.115389
 31
0.0
  0
LINE
  8
LC-001-005-----0
  6
CONTINUOUS
  5
2E
 10
528.644393
 20
259.943816
 30
0.0
 11
532.644393
 21
263.943816
 31
0.0
  0
LINE
  8
LC-001-005-----0
  6
CONTINUOUS
  5
2F
 10
528.644393
 20
262.772243
 30
0.0
 11
532.644393
 21
266.772243
 31
0.0
  0
LINE
  8
LC-001-005-----0
  6
CONTINUOUS
  5
30
 10
528.644393
 20
265.60067
 30
0.0
 11
532.644393
 21
269.60067
 31
0.0
  0
LINE
  8
LC-001-005-----0
  6
CONTINUOUS
  5
31
 10
528.644393
 20
268.429098
 30
0.0
 11
532.644393
 21
272.429098
 31
0.0
  0
LINE
  8
LC-001-005-----0
  6
CONTINUOUS
  5
32
 10
528.644393
 20
271.257525
 30
0.0
 11
532.644393
 21
275.257525
 31
0.0
  0
LINE
  8
LC-001-005-----0
  6
CONTINUOUS
  5
33
 10
528.644393
 20
274.085952
 30
0.0
 11
532.644393
 21
278.085952
 31
0.0
  0
LINE
  8
LC-001-005-----0
  6
CONTINUOUS
  5
34
 10
528.644393
 20
276.914379
 30
0.0
 11
532.644393
 21
280.914379
 31
0.0
  0
LINE
  8
LC-001-005-----0
  6
CONTINUOUS
  5
35
 10
528.644393
 20
279.742806
 30
0.0
 11
532.644393
 21
283.742806
 31
0.0
  0
LINE
  8
LC-001-005-----0
  6
CONTINUOUS
  5
36
 10
528.644393
 20
282.571233
 30
0.0
 11
532.644393
 21
286.571233
 31
0.0
  0
LINE
  8
LC-001-005-----0
  6
CONTINUOUS
  5
37
 10
528.644393
 20
285.39966
 30
0.0
 11
532.644393
 21
289.39966
 31
0.0
  0
LINE
  8
LC-001-005-----0
  6
CONTINUOUS
  5
38
 10
528.644393
 20
288.228087
 30
0.0
 11
532.644393
 21
292.228087
 31
0.0
  0
LINE
  8
LC-001-005-----0
  6
CONTINUOUS
  5
39
 10
528.644393
 20
291.056515
 30
0.0
 11
532.644393
 21
295.056515
 31
0.0
  0
LINE
  8
LC-001-005-----0
  6
CONTINUOUS
  5
3A
 10
528.644393
 20
293.884942
 30
0.0
 11
532.644393
 21
297.884942
 31
0.0
  0
LINE
  8
LC-001-005-----0
  6
CONTINUOUS
  5
3B
 10
528.644393
 20
296.713369
 30
0.0
 11
532.644393
 21
300.713369
 31
0.0
  0
LINE
  8
LC-001-005-----0
  6
CONTINUOUS
  5
3C
 10
528.644393
 20
299.541796
 30
0.0
 11
531.84161
 21
302.739013
 31
0.0
  0
LINE
  8
LC-001-005-----0
  6
CONTINUOUS
  5
3D
 10
527.724586
 20
301.450416
 30
0.0
 11
530.806334
 21
304.532164
 31
0.0
  0
LINE
  8
LC-001-005-----0
  6
CONTINUOUS
  5
3E
 10
526.756826
 20
303.311083
 30
0.0
 11
529.771057
 21
306.325314
 31
0.0
  0
LINE
  8
LC-001-005-----0
  6
CONTINUOUS
  5
3F
 10
525.789065
 20
305.171749
 30
0.0
 11
529.347061
 21
308.729745
 31
0.0
  0
LINE
  8
LC-001-005-----0
  6
CONTINUOUS
  5
40
 10
525.406874
 20
307.617985
 30
0.0
 11
529.186094
 21
311.397205
 31
0.0
  0
LINE
  8
LC-001-005-----0
  6
CONTINUOUS
  5
41
 10
525.245906
 20
310.285445
 30
0.0
 11
529.025126
 21
314.064665
 31
0.0
  0
LINE
  8
LC-001-005-----0
  6
CONTINUOUS
  5
42
 10
525.084939
 20
312.952904
 30
0.0
 11
528.864159
 21
316.732124
 31
0.0
  0
LINE
  8
LC-001-005-----0
  6
CONTINUOUS
  5
43
 10
524.923971
 20
315.620364
 30
0.0
 11
528.703191
 21
319.399584
 31
0.0
  0
LINE
  8
LC-001-005-----0
  6
CONTINUOUS
  5
44
 10
524.763004
 20
318.287824
 30
0.0
 11
528.542224
 21
322.067044
 31
0.0
  0
LINE
  8
LC-001-005-----0
  6
CONTINUOUS
  5
45
 10
524.602037
 20
320.955284
 30
0.0
 11
528.381257
 21
324.734504
 31
0.0
  0
LINE
  8
LC-001-005-----0
  6
CONTINUOUS
  5
46
 10
524.441069
 20
323.622743
 30
0.0
 11
528.220289
 21
327.401963
 31
0.0
  0
LINE
  8
LC-001-005-----0
  6
CONTINUOUS
  5
47
 10
524.280102
 20
326.290203
 30
0.0
 11
528.059322
 21
330.069423
 31
0.0
  0
LINE
  8
LC-001-005-----0
  6
CONTINUOUS
  5
48
 10
524.119134
 20
328.957663
 30
0.0
 11
527.898354
 21
332.736883
 31
0.0
  0
LINE
  8
LC-001-005-----0
  6
CONTINUOUS
  5
49
 10
523.958167
 20
331.625122
 30
0.0
 11
527.737387
 21
335.404342
 31
0.0
  0
LINE
  8
LC-001-005-----0
  6
CONTINUOUS
  5
4A
 10
523.7972
 20
334.292582
 30
0.0
 11
527.57642
 21
338.071802
 31
0.0
  0
LINE
  8
LC-001-005-----0
  6
CONTINUOUS
  5
4B
 10
523.636232
 20
336.960042
 30
0.0
 11
527.415452
 21
340.739262
 31
0.0
  0
LINE
  8
LC-001-005-----0
  6
CONTINUOUS
  5
4C
 10
523.475265
 20
339.627502
 30
0.0
 11
527.254485
 21
343.406722
 31
0.0
  0
LINE
  8
LC-001-005-----0
  6
CONTINUOUS
  5
4D
 10
523.314297
 20
342.294961
 30
0.0
 11
527.093517
 21
346.074181
 31
0.0
  0
LINE
  8
LC-001-005-----0
  6
CONTINUOUS
  5
4E
 10
523.15333
 20
344.962421
 30
0.0
 11
526.93255
 21
348.741641
 31
0.0
  0
LINE
  8
LC-001-005-----0
  6
CONTINUOUS
  5
4F
 10
522.992363
 20
347.629881
 30
0.0
 11
526.771583
 21
351.409101
 31
0.0
  0
LINE
  8
LC-001-005-----0
  6
CONTINUOUS
  5
50
 10
522.831395
 20
350.297341
 30
0.0
 11
526.610615
 21
354.076561
 31
0.0
  0
LINE
  8
LC-001-005-----0
  6
CONTINUOUS
  5
51
 10
522.670428
 20
352.9648
 30
0.0
 11
526.449648
 21
356.74402
 31
0.0
  0
LINE
  8
LC-001-005-----0
  6
CONTINUOUS
  5
52
 10
522.50946
 20
355.63226
 30
0.0
 11
526.28868
 21
359.41148
 31
0.0
  0
LINE
  8
LC-001-005-----0
  6
CONTINUOUS
  5
53
 10
522.348493
 20
358.29972
 30
0.0
 11
526.127713
 21
362.07894
 31
0.0
  0
LINE
  8
LC-001-005-----0
  6
CONTINUOUS
  5
54
 10
522.187526
 20
360.967179
 30
0.0
 11
525.966746
 21
364.746399
 31
0.0
  0
LINE
  8
LC-001-005-----0
  6
CONTINUOUS
  5
55
 10
522.026558
 20
363.634639
 30
0.0
 11
525.805778
 21
367.413859
 31
0.0
  0
LINE
  8
LC-001-005-----0
  6
CONTINUOUS
  5
56
 10
521.865591
 20
366.302099
 30
0.0
 11
525.644811
 21
370.081319
 31
0.0
  0
LINE
  8
LC-001-005-----0
  6
CONTINUOUS
  5
57
 10
521.704623
 20
368.969559
 30
0.0
 11
525.483843
 21
372.748779
 31
0.0
  0
LINE
  8
LC-001-005-----0
  6
CONTINUOUS
  5
58
 10
521.543656
 20
371.637018
 30
0.0
 11
525.322876
 21
375.416238
 31
0.0
  0
LINE
  8
LC-001-005-----0
  6
CONTINUOUS
  5
59
 10
521.382689
 20
374.304478
 30
0.0
 11
525.161909
 21
378.083698
 31
0.0
  0
LINE
  8
LC-001-005-----0
  6
CONTINUOUS
  5
5A
 10
521.221721
 20
376.971938
 30
0.0
 11
525.000941
 21
380.751158
 31
0.0
  0
LINE
  8
LC-001-005-----0
  6
CONTINUOUS
  5
5B
 10
521.060754
 20
379.639398
 30
0.0
 11
524.839974
 21
383.418618
 31
0.0
  0
LINE
  8
LC-001-005-----0
  6
CONTINUOUS
  5
5C
 10
520.899786
 20
382.306857
 30
0.0
 11
524.679006
 21
386.086077
 31
0.0
  0
LINE
  8
LC-001-005-----0
  6
CONTINUOUS
  5
5D
 10
520.738819
 20
384.974317
 30
0.0
 11
524.518039
 21
388.753537
 31
0.0
  0
LINE
  8
LC-001-005-----0
  6
CONTINUOUS
  5
5E
 10
520.577852
 20
387.641777
 30
0.0
 11
524.357072
 21
391.420997
 31
0.0
  0
LINE
  8
LC-001-005-----0
  6
CONTINUOUS
  5
5F
 10
520.416884
 20
390.309236
 30
0.0
 11
524.196104
 21
394.088456
 31
0.0
  0
LINE
  8
LC-001-005-----0
  6
CONTINUOUS
  5
60
 10
520.255917
 20
392.976696
 30
0.0
 11
524.035137
 21
396.755916
 31
0.0
  0
LINE
  8
LC-001-005-----0
  6
CONTINUOUS
  5
61
 10
520.094949
 20
395.644156
 30
0.0
 11
523.874169
 21
399.423376
 31
0.0
  0
LINE
  8
LC-001-005-----0
  6
CONTINUOUS
  5
62
 10
519.933982
 20
398.311616
 30
0.0
 11
523.713202
 21
402.090836
 31
0.0
  0
LINE
  8
LC-001-005-----0
  6
CONTINUOUS
  5
63
 10
519.773015
 20
400.979075
 30
0.0
 11
523.552235
 21
404.758295
 31
0.0
  0
LINE
  8
LC-001-005-----0
  6
CONTINUOUS
  5
64
 10
519.612047
 20
403.646535
 30
0.0
 11
523.391267
 21
407.425755
 31
0.0
  0
LINE
  8
LC-001-005-----0
  6
CONTINUOUS
  5
65
 10
519.45108
 20
406.313995
 30
0.0
 11
523.2303
 21
410.093215
 31
0.0
  0
LINE
  8
LC-001-005-----0
  6
CONTINUOUS
  5
66
 10
519.290112
 20
408.981455
 30
0.0
 11
523.069332
 21
412.760675
 31
0.0
  0
LINE
  8
LC-001-005-----0
  6
CONTINUOUS
  5
67
 10
519.129145
 20
411.648914
 30
0.0
 11
522.908365
 21
415.428134
 31
0.0
  0
LINE
  8
LC-001-005-----0
  6
CONTINUOUS
  5
68
 10
518.968178
 20
414.316374
 30
0.0
 11
522.747398
 21
418.095594
 31
0.0
  0
LINE
  8
LC-001-005-----0
  6
CONTINUOUS
  5
69
 10
518.80721
 20
416.983834
 30
0.0
 11
522.644393
 21
420.821017
 31
0.0
  0
LINE
  8
LC-001-005-----0
  6
CONTINUOUS
  5
6A
 10
518.646243
 20
419.651293
 30
0.0
 11
522.644393
 21
423.649444
 31
0.0
  0
LINE
  8
LC-001-005-----0
  6
CONTINUOUS
  5
6B
 10
518.644393
 20
422.477871
 30
0.0
 11
522.644393
 21
426.477871
 31
0.0
  0
LINE
  8
LC-001-005-----0
  6
CONTINUOUS
  5
6C
 10
518.644393
 20
425.306298
 30
0.0
 11
522.644393
 21
429.306298
 31
0.0
  0
LINE
  8
LC-001-005-----0
  6
CONTINUOUS
  5
6D
 10
518.644393
 20
428.134725
 30
0.0
 11
522.644393
 21
432.134725
 31
0.0
  0
LINE
  8
LC-001-005-----0
  6
CONTINUOUS
  5
6E
 10
517.52346
 20
429.842219
 30
0.0
 11
521.363188
 21
433.681947
 31
0.0
  0
LINE
  8
LC-001-005-----0
  6
CONTINUOUS
  5
6F
 10
515.761681
 20
430.908867
 30
0.0
 11
518.644393
 21
433.791579
 31
0.0
  0
LINE
  8
LC-001-005-----0
  6
CONTINUOUS
  5
70
 10
514.75835
 20
432.733964
 30
0.0
 11
518.644393
 21
436.620006
 31
0.0
  0
LINE
  8
LC-001-005-----0
  6
CONTINUOUS
  5
71
 10
514.644393
 20
435.448434
 30
0.0
 11
518.644393
 21
439.448434
 31
0.0
  0
LINE
  8
LC-001-005-----0
  6
CONTINUOUS
  5
72
 10
514.644393
 20
438.276861
 30
0.0
 11
518.644393
 21
442.276861
 31
0.0
  0
LINE
  8
LC-001-005-----0
  6
CONTINUOUS
  5
73
 10
514.644393
 20
441.105288
 30
0.0
 11
518.644393
 21
445.105288
 31
0.0
  0
LINE
  8
LC-001-005-----0
  6
CONTINUOUS
  5
74
 10
514.644393
 20
443.933715
 30
0.0
 11
518.644393
 21
447.933715
 31
0.0
  0
LINE
  8
LC-001-005-----0
  6
CONTINUOUS
  5
75
 10
514.644393
 20
446.762142
 30
0.0
 11
518.644393
 21
450.762142
 31
0.0
  0
LINE
  8
LC-001-005-----0
  6
CONTINUOUS
  5
76
 10
514.644393
 20
449.590569
 30
0.0
 11
518.644393
 21
453.590569
 31
0.0
  0
LINE
  8
LC-001-005-----0
  6
CONTINUOUS
  5
77
 10
514.644393
 20
452.418996
 30
0.0
 11
518.644393
 21
456.418996
 31
0.0
  0
LINE
  8
LC-001-005-----0
  6
CONTINUOUS
  5
78
 10
514.644393
 20
455.247423
 30
0.0
 11
518.644393
 21
459.247423
 31
0.0
  0
LINE
  8
LC-001-005-----0
  6
CONTINUOUS
  5
79
 10
514.644393
 20
458.075851
 30
0.0
 11
518.644393
 21
462.075851
 31
0.0
  0
LINE
  8
LC-001-005-----0
  6
CONTINUOUS
  5
7A
 10
514.427058
 20
460.686943
 30
0.0
 11
518.422063
 21
464.681947
 31
0.0
  0
LINE
  8
LC-001-005-----0
  6
CONTINUOUS
  5
7B
 10
511.911551
 20
460.999863
 30
0.0
 11
515.593636
 21
464.681947
 31
0.0
  0
LINE
  8
LC-001-005-----0
  6
CONTINUOUS
  5
7C
 10
509.951817
 20
461.868556
 30
0.0
 11
512.948243
 21
464.864982
 31
0.0
  0
LINE
  8
LC-001-005-----0
  6
CONTINUOUS
  5
7D
 10
508.384685
 20
463.129851
 30
0.0
 11
511.214066
 21
465.959232
 31
0.0
  0
LINE
  8
LC-001-005-----0
  6
CONTINUOUS
  5
7E
 10
507.177005
 20
464.750598
 30
0.0
 11
510.239824
 21
467.813418
 31
0.0
  0
LINE
  8
LC-001-005-----0
  6
CONTINUOUS
  5
7F
 10
506.374598
 20
466.776618
 30
0.0
 11
510.144393
 21
470.546413
 31
0.0
  0
LINE
  8
LC-001-005-----0
  6
CONTINUOUS
  5
80
 10
506.144393
 20
469.37484
 30
0.0
 11
510.144393
 21
473.37484
 31
0.0
  0
LINE
  8
LC-001-005-----0
  6
CONTINUOUS
  5
81
 10
506.144393
 20
472.203268
 30
0.0
 11
510.144393
 21
476.203268
 31
0.0
  0
LINE
  8
LC-001-005-----0
  6
CONTINUOUS
  5
82
 10
506.144393
 20
475.031695
 30
0.0
 11
510.144393
 21
479.031695
 31
0.0
  0
LINE
  8
LC-001-005-----0
  6
CONTINUOUS
  5
83
 10
506.144393
 20
477.860122
 30
0.0
 11
510.144393
 21
481.860122
 31
0.0
  0
LINE
  8
LC-001-005-----0
  6
CONTINUOUS
  5
84
 10
506.144393
 20
480.688549
 30
0.0
 11
510.144393
 21
484.688549
 31
0.0
  0
LINE
  8
LC-001-005-----0
  6
CONTINUOUS
  5
85
 10
493.011627
 20
470.38421
 30
0.0
 11
498.44213
 21
475.814713
 31
0.0
  0
LINE
  8
LC-001-005-----0
  6
CONTINUOUS
  5
86
 10
506.144393
 20
483.516976
 30
0.0
 11
510.144393
 21
487.516976
 31
0.0
  0
LINE
  8
LC-001-005-----0
  6
CONTINUOUS
  5
87
 10
491.355558
 20
471.556568
 30
0.0
 11
498.444393
 21
478.645403
 31
0.0
  0
LINE
  8
LC-001-005-----0
  6
CONTINUOUS
  5
88
 10
506.088081
 20
486.289091
 30
0.0
 11
510.144393
 21
490.345403
 31
0.0
  0
LINE
  8
LC-001-005-----0
  6
CONTINUOUS
  5
89
 10
489.941345
 20
472.970782
 30
0.0
 11
492.062665
 21
475.092102
 31
0.0
  0
LINE
  8
LC-001-005-----0
  6
CONTINUOUS
  5
8A
 10
495.144393
 20
478.17383
 30
0.0
 11
498.444393
 21
481.47383
 31
0.0
  0
LINE
  8
LC-001-005-----0
  6
CONTINUOUS
  5
8B
 10
504.35251
 20
487.381947
 30
0.0
 11
507.65251
 21
490.681947
 31
0.0
  0
LINE
  8
LC-001-005-----0
  6
CONTINUOUS
  5
8C
 10
488.527131
 20
474.384996
 30
0.0
 11
490.744393
 21
476.602257
 31
0.0
  0
LINE
  8
LC-001-005-----0
  6
CONTINUOUS
  5
8D
 10
495.144393
 20
481.002257
 30
0.0
 11
498.444393
 21
484.302257
 31
0.0
  0
LINE
  8
LC-001-005-----0
  6
CONTINUOUS
  5
8E
 10
501.524083
 20
487.381947
 30
0.0
 11
504.824083
 21
490.681947
 31
0.0
  0
LINE
  8
LC-001-005-----0
  6
CONTINUOUS
  5
8F
 10
487.444393
 20
476.130685
 30
0.0
 11
490.744393
 21
479.430685
 31
0.0
  0
LINE
  8
LC-001-005-----0
  6
CONTINUOUS
  5
90
 10
495.144393
 20
483.830685
 30
0.0
 11
501.995656
 21
490.681947
 31
0.0
  0
LINE
  8
LC-001-005-----0
  6
CONTINUOUS
  5
91
 10
487.444393
 20
478.959112
 30
0.0
 11
490.744393
 21
482.259112
 31
0.0
  0
LINE
  8
LC-001-005-----0
  6
CONTINUOUS
  5
92
 10
495.144393
 20
486.659112
 30
0.0
 11
499.167229
 21
490.681947
 31
0.0
  0
LINE
  8
LC-001-005-----0
  6
CONTINUOUS
  5
93
 10
487.444393
 20
481.787539
 30
0.0
 11
490.744393
 21
485.087539
 31
0.0
  0
LINE
  8
LC-001-005-----0
  6
CONTINUOUS
  5
94
 10
495.144393
 20
489.487539
 30
0.0
 11
496.338802
 21
490.681947
 31
0.0
  0
LINE
  8
LC-001-005-----0
  6
CONTINUOUS
  5
95
 10
487.444393
 20
484.615966
 30
0.0
 11
490.744393
 21
487.915966
 31
0.0
  0
LINE
  8
LC-001-005-----0
  6
CONTINUOUS
  5
96
 10
481.381947
 20
481.381947
 30
0.0
 11
483.833987
 21
483.833987
 31
0.0
  0
LINE
  8
LC-001-005-----0
  6
CONTINUOUS
  5
97
 10
487.119587
 20
487.119587
 30
0.0
 11
490.681947
 21
490.681947
 31
0.0
  0
LINE
  8
LC-001-005-----0
  6
CONTINUOUS
  5
98
 10
478.55352
 20
481.381947
 30
0.0
 11
487.85352
 21
490.681947
 31
0.0
  0
LINE
  8
LC-001-005-----0
  6
CONTINUOUS
  5
99
 10
475.725093
 20
481.381947
 30
0.0
 11
479.525093
 21
485.181947
 31
0.0
  0
LINE
  8
LC-001-005-----0
  6
CONTINUOUS
  5
9A
 10
481.144393
 20
486.801247
 30
0.0
 11
485.025093
 21
490.681947
 31
0.0
  0
LINE
  8
LC-001-005-----0
  6
CONTINUOUS
  5
9B
 10
472.903266
 20
481.388547
 30
0.0
 11
476.696666
 21
485.181947
 31
0.0
  0
LINE
  8
LC-001-005-----0
  6
CONTINUOUS
  5
9C
 10
481.144393
 20
489.629674
 30
0.0
 11
482.196666
 21
490.681947
 31
0.0
  0
LINE
  8
LC-001-005-----0
  6
CONTINUOUS
  5
9D
 10
471.540517
 20
482.854226
 30
0.0
 11
474.144393
 21
485.458102
 31
0.0
  0
LINE
  8
LC-001-005-----0
  6
CONTINUOUS
  5
9E
 10
471.31297
 20
485.455105
 30
0.0
 11
474.144393
 21
488.286529
 31
0.0
  0
LINE
  8
LC-001-005-----0
  6
CONTINUOUS
  5
9F
 10
470.310558
 20
487.28112
 30
0.0
 11
473.711385
 21
490.681947
 31
0.0
  0
LINE
  8
LC-001-005-----0
  6
CONTINUOUS
  5
A0
 10
467.582957
 20
487.381947
 30
0.0
 11
470.882957
 21
490.681947
 31
0.0
  0
LINE
  8
LC-001-005-----0
  6
CONTINUOUS
  5
A1
 10
464.75453
 20
487.381947
 30
0.0
 11
468.05453
 21
490.681947
 31
0.0
  0
LINE
  8
LC-001-005-----0
  6
CONTINUOUS
  5
A2
 10
462.033772
 20
487.489616
 30
0.0
 11
465.226103
 21
490.681947
 31
0.0
  0
LINE
  8
LC-001-005-----0
  6
CONTINUOUS
  5
A3
 10
459.629316
 20
487.913587
 30
0.0
 11
462.509606
 21
490.793877
 31
0.0
  0
LINE
  8
LC-001-005-----0
  6
CONTINUOUS
  5
A4
 10
457.224859
 20
488.337557
 30
0.0
 11
460.10515
 21
491.217848
 31
0.0
  0
LINE
  8
LC-001-005-----0
  6
CONTINUOUS
  5
A5
 10
454.820402
 20
488.761528
 30
0.0
 11
457.700693
 21
491.641819
 31
0.0
  0
LINE
  8
LC-001-005-----0
  6
CONTINUOUS
  5
A6
 10
452.415946
 20
489.185499
 30
0.0
 11
455.296236
 21
492.065789
 31
0.0
  0
LINE
  8
LC-001-005-----0
  6
CONTINUOUS
  5
A7
 10
450.644393
 20
490.242373
 30
0.0
 11
452.89178
 21
492.48976
 31
0.0
  0
ENDBLK
  8
0
  5
A8
  0
BLOCK
  8
0
  5
AA
  2
*X1
 70
    65
 10
684.644393
 20
237.681947
 30
0.0
  3
*X1
  0
LINE
  8
LC-001-005-----0
  6
CONTINUOUS
  5
AB
 10
687.40186
 20
237.681947
 30
0.0
 11
687.452077
 21
237.732164
 31
0.0
  0
LINE
  8
LC-001-005-----0
  6
CONTINUOUS
  5
AC
 10
684.644393
 20
237.752907
 30
0.0
 11
688.487353
 21
241.595868
 31
0.0
  0
LINE
  8
LC-001-005-----0
  6
CONTINUOUS
  5
AD
 10
684.644393
 20
240.581334
 30
0.0
 11
688.644393
 21
244.581334
 31
0.0
  0
LINE
  8
LC-001-005-----0
  6
CONTINUOUS
  5
AE
 10
684.644393
 20
243.409762
 30
0.0
 11
688.644393
 21
247.409762
 31
0.0
  0
LINE
  8
LC-001-005-----0
  6
CONTINUOUS
  5
AF
 10
684.644393
 20
246.238189
 30
0.0
 11
688.644393
 21
250.238189
 31
0.0
  0
LINE
  8
LC-001-005-----0
  6
CONTINUOUS
  5
B0
 10
684.644393
 20
249.066616
 30
0.0
 11
688.644393
 21
253.066616
 31
0.0
  0
LINE
  8
LC-001-005-----0
  6
CONTINUOUS
  5
B1
 10
684.644393
 20
251.895043
 30
0.0
 11
688.644393
 21
255.895043
 31
0.0
  0
LINE
  8
LC-001-005-----0
  6
CONTINUOUS
  5
B2
 10
684.644393
 20
254.72347
 30
0.0
 11
688.644393
 21
258.72347
 31
0.0
  0
LINE
  8
LC-001-005-----0
  6
CONTINUOUS
  5
B3
 10
684.644393
 20
257.551897
 30
0.0
 11
688.644393
 21
261.551897
 31
0.0
  0
LINE
  8
LC-001-005-----0
  6
CONTINUOUS
  5
B4
 10
684.644393
 20
260.380324
 30
0.0
 11
688.644393
 21
264.380324
 31
0.0
  0
LINE
  8
LC-001-005-----0
  6
CONTINUOUS
  5
B5
 10
684.644393
 20
263.208751
 30
0.0
 11
688.644393
 21
267.208751
 31
0.0
  0
LINE
  8
LC-001-005-----0
  6
CONTINUOUS
  5
B6
 10
684.644393
 20
266.037179
 30
0.0
 11
688.644393
 21
270.037179
 31
0.0
  0
LINE
  8
LC-001-005-----0
  6
CONTINUOUS
  5
B7
 10
684.644393
 20
268.865606
 30
0.0
 11
688.644393
 21
272.865606
 31
0.0
  0
LINE
  8
LC-001-005-----0
  6
CONTINUOUS
  5
B8
 10
684.644393
 20
271.694033
 30
0.0
 11
688.644393
 21
275.694033
 31
0.0
  0
LINE
  8
LC-001-005-----0
  6
CONTINUOUS
  5
B9
 10
684.644393
 20
274.52246
 30
0.0
 11
688.644393
 21
278.52246
 31
0.0
  0
LINE
  8
LC-001-005-----0
  6
CONTINUOUS
  5
BA
 10
684.644393
 20
277.350887
 30
0.0
 11
688.644393
 21
281.350887
 31
0.0
  0
LINE
  8
LC-001-005-----0
  6
CONTINUOUS
  5
BB
 10
684.644393
 20
280.179314
 30
0.0
 11
688.644393
 21
284.179314
 31
0.0
  0
LINE
  8
LC-001-005-----0
  6
CONTINUOUS
  5
BC
 10
684.644393
 20
283.007741
 30
0.0
 11
688.644393
 21
287.007741
 31
0.0
  0
LINE
  8
LC-001-005-----0
  6
CONTINUOUS
  5
BD
 10
684.644393
 20
285.836168
 30
0.0
 11
688.644393
 21
289.836168
 31
0.0
  0
LINE
  8
LC-001-005-----0
  6
CONTINUOUS
  5
BE
 10
684.644393
 20
288.664596
 30
0.0
 11
688.644393
 21
292.664596
 31
0.0
  0
LINE
  8
LC-001-005-----0
  6
CONTINUOUS
  5
BF
 10
684.644393
 20
291.493023
 30
0.0
 11
688.644393
 21
295.493023
 31
0.0
  0
LINE
  8
LC-001-005-----0
  6
CONTINUOUS
  5
C0
 10
684.644393
 20
294.32145
 30
0.0
 11
688.644393
 21
298.32145
 31
0.0
  0
LINE
  8
LC-001-005-----0
  6
CONTINUOUS
  5
C1
 10
684.644393
 20
297.149877
 30
0.0
 11
690.235383
 21
302.740867
 31
0.0
  0
LINE
  8
LC-001-005-----0
  6
CONTINUOUS
  5
C2
 10
684.644393
 20
299.978304
 30
0.0
 11
691.856086
 21
307.189997
 31
0.0
  0
LINE
  8
LC-001-005-----0
  6
CONTINUOUS
  5
C3
 10
686.636304
 20
304.798642
 30
0.0
 11
692.037728
 21
310.200066
 31
0.0
  0
LINE
  8
LC-001-005-----0
  6
CONTINUOUS
  5
C4
 10
687.954745
 20
308.945511
 30
0.0
 11
692.21937
 21
313.210135
 31
0.0
  0
LINE
  8
LC-001-005-----0
  6
CONTINUOUS
  5
C5
 10
688.136388
 20
311.95558
 30
0.0
 11
692.401012
 21
316.220204
 31
0.0
  0
LINE
  8
LC-001-005-----0
  6
CONTINUOUS
  5
C6
 10
688.31803
 20
314.965649
 30
0.0
 11
692.582654
 21
319.230274
 31
0.0
  0
LINE
  8
LC-001-005-----0
  6
CONTINUOUS
  5
C7
 10
688.499672
 20
317.975718
 30
0.0
 11
692.764296
 21
322.240343
 31
0.0
  0
LINE
  8
LC-001-005-----0
  6
CONTINUOUS
  5
C8
 10
688.681314
 20
320.985788
 30
0.0
 11
692.945938
 21
325.250412
 31
0.0
  0
LINE
  8
LC-001-005-----0
  6
CONTINUOUS
  5
C9
 10
688.862956
 20
323.995857
 30
0.0
 11
693.12758
 21
328.260481
 31
0.0
  0
LINE
  8
LC-001-005-----0
  6
CONTINUOUS
  5
CA
 10
689.044598
 20
327.005926
 30
0.0
 11
693.309223
 21
331.270551
 31
0.0
  0
LINE
  8
LC-001-005-----0
  6
CONTINUOUS
  5
CB
 10
689.22624
 20
330.015995
 30
0.0
 11
693.490865
 21
334.28062
 31
0.0
  0
LINE
  8
LC-001-005-----0
  6
CONTINUOUS
  5
CC
 10
689.407882
 20
333.026065
 30
0.0
 11
693.672507
 21
337.290689
 31
0.0
  0
LINE
  8
LC-001-005-----0
  6
CONTINUOUS
  5
CD
 10
689.589524
 20
336.036134
 30
0.0
 11
693.854149
 21
340.300758
 31
0.0
  0
LINE
  8
LC-001-005-----0
  6
CONTINUOUS
  5
CE
 10
689.771167
 20
339.046203
 30
0.0
 11
694.035791
 21
343.310828
 31
0.0
  0
LINE
  8
LC-001-005-----0
  6
CONTINUOUS
  5
CF
 10
689.952809
 20
342.056272
 30
0.0
 11
694.217433
 21
346.320897
 31
0.0
  0
LINE
  8
LC-001-005-----0
  6
CONTINUOUS
  5
D0
 10
690.134451
 20
345.066342
 30
0.0
 11
694.399075
 21
349.330966
 31
0.0
  0
LINE
  8
LC-001-005-----0
  6
CONTINUOUS
  5
D1
 10
690.316093
 20
348.076411
 30
0.0
 11
694.580717
 21
352.341035
 31
0.0
  0
LINE
  8
LC-001-005-----0
  6
CONTINUOUS
  5
D2
 10
690.497735
 20
351.08648
 30
0.0
 11
694.762359
 21
355.351104
 31
0.0
  0
LINE
  8
LC-001-005-----0
  6
CONTINUOUS
  5
D3
 10
690.679377
 20
354.096549
 30
0.0
 11
694.944002
 21
358.361174
 31
0.0
  0
LINE
  8
LC-001-005-----0
  6
CONTINUOUS
  5
D4
 10
690.861019
 20
357.106619
 30
0.0
 11
695.125644
 21
361.371243
 31
0.0
  0
LINE
  8
LC-001-005-----0
  6
CONTINUOUS
  5
D5
 10
691.042661
 20
360.116688
 30
0.0
 11
695.307286
 21
364.381312
 31
0.0
  0
LINE
  8
LC-001-005-----0
  6
CONTINUOUS
  5
D6
 10
691.224303
 20
363.126757
 30
0.0
 11
695.488928
 21
367.391381
 31
0.0
  0
LINE
  8
LC-001-005-----0
  6
CONTINUOUS
  5
D7
 10
691.405946
 20
366.136826
 30
0.0
 11
695.67057
 21
370.401451
 31
0.0
  0
LINE
  8
LC-001-005-----0
  6
CONTINUOUS
  5
D8
 10
691.587588
 20
369.146895
 30
0.0
 11
695.852212
 21
373.41152
 31
0.0
  0
LINE
  8
LC-001-005-----0
  6
CONTINUOUS
  5
D9
 10
691.76923
 20
372.156965
 30
0.0
 11
696.033854
 21
376.421589
 31
0.0
  0
LINE
  8
LC-001-005-----0
  6
CONTINUOUS
  5
DA
 10
691.950872
 20
375.167034
 30
0.0
 11
696.215496
 21
379.431658
 31
0.0
  0
LINE
  8
LC-001-005-----0
  6
CONTINUOUS
  5
DB
 10
692.132514
 20
378.177103
 30
0.0
 11
696.397138
 21
382.441728
 31
0.0
  0
LINE
  8
LC-001-005-----0
  6
CONTINUOUS
  5
DC
 10
692.314156
 20
381.187172
 30
0.0
 11
696.57878
 21
385.451797
 31
0.0
  0
LINE
  8
LC-001-005-----0
  6
CONTINUOUS
  5
DD
 10
692.495798
 20
384.197242
 30
0.0
 11
696.760423
 21
388.461866
 31
0.0
  0
LINE
  8
LC-001-005-----0
  6
CONTINUOUS
  5
DE
 10
692.67744
 20
387.207311
 30
0.0
 11
696.942065
 21
391.471935
 31
0.0
  0
LINE
  8
LC-001-005-----0
  6
CONTINUOUS
  5
DF
 10
692.859082
 20
390.21738
 30
0.0
 11
697.123707
 21
394.482004
 31
0.0
  0
LINE
  8
LC-001-005-----0
  6
CONTINUOUS
  5
E0
 10
693.040725
 20
393.227449
 30
0.0
 11
697.305349
 21
397.492074
 31
0.0
  0
LINE
  8
LC-001-005-----0
  6
CONTINUOUS
  5
E1
 10
693.222367
 20
396.237519
 30
0.0
 11
697.486991
 21
400.502143
 31
0.0
  0
LINE
  8
LC-001-005-----0
  6
CONTINUOUS
  5
E2
 10
693.404009
 20
399.247588
 30
0.0
 11
697.668633
 21
403.512212
 31
0.0
  0
LINE
  8
LC-001-005-----0
  6
CONTINUOUS
  5
E3
 10
693.585651
 20
402.257657
 30
0.0
 11
697.850275
 21
406.522281
 31
0.0
  0
LINE
  8
LC-001-005-----0
  6
CONTINUOUS
  5
E4
 10
693.767293
 20
405.267726
 30
0.0
 11
698.031917
 21
409.532351
 31
0.0
  0
LINE
  8
LC-001-005-----0
  6
CONTINUOUS
  5
E5
 10
693.948935
 20
408.277795
 30
0.0
 11
698.213559
 21
412.54242
 31
0.0
  0
LINE
  8
LC-001-005-----0
  6
CONTINUOUS
  5
E6
 10
694.130577
 20
411.287865
 30
0.0
 11
698.395202
 21
415.552489
 31
0.0
  0
LINE
  8
LC-001-005-----0
  6
CONTINUOUS
  5
E7
 10
694.312219
 20
414.297934
 30
0.0
 11
698.576844
 21
418.562558
 31
0.0
  0
LINE
  8
LC-001-005-----0
  6
CONTINUOUS
  5
E8
 10
694.493861
 20
417.308003
 30
0.0
 11
698.644393
 21
421.458535
 31
0.0
  0
LINE
  8
LC-001-005-----0
  6
CONTINUOUS
  5
E9
 10
694.644393
 20
420.286962
 30
0.0
 11
698.644393
 21
424.286962
 31
0.0
  0
LINE
  8
LC-001-005-----0
  6
CONTINUOUS
  5
EA
 10
763.25823
 20
488.900799
 30
0.0
 11
766.644393
 21
492.286962
 31
0.0
  0
LINE
  8
LC-001-005-----0
  6
CONTINUOUS
  5
EB
 10
694.644393
 20
423.115389
 30
0.0
 11
698.644393
 21
427.115389
 31
0.0
  0
LINE
  8
LC-001-005-----0
  6
CONTINUOUS
  5
EC
 10
759.824311
 20
488.295307
 30
0.0
 11
763.937792
 21
492.408788
 31
0.0
  0
LINE
  8
LC-001-005-----0
  6
CONTINUOUS
  5
ED
 10
694.644393
 20
425.943816
 30
0.0
 11
702.644393
 21
433.943816
 31
0.0
  0
LINE
  8
LC-001-005-----0
  6
CONTINUOUS
  5
EE
 10
756.390391
 20
487.689814
 30
0.0
 11
760.503872
 21
491.803295
 31
0.0
  0
LINE
  8
LC-001-005-----0
  6
CONTINUOUS
  5
EF
 10
694.644393
 20
428.772243
 30
0.0
 11
702.644393
 21
436.772243
 31
0.0
  0
LINE
  8
LC-001-005-----0
  6
CONTINUOUS
  5
F0
 10
753.254097
 20
487.381947
 30
0.0
 11
757.069952
 21
491.197802
 31
0.0
  0
LINE
  8
LC-001-005-----0
  6
CONTINUOUS
  5
F1
 10
694.644393
 20
431.60067
 30
0.0
 11
696.72567
 21
433.681947
 31
0.0
  0
LINE
  8
LC-001-005-----0
  6
CONTINUOUS
  5
F2
 10
698.644393
 20
435.60067
 30
0.0
 11
702.644393
 21
439.60067
 31
0.0
  0
LINE
  8
LC-001-005-----0
  6
CONTINUOUS
  5
F3
 10
744.438164
 20
481.394441
 30
0.0
 11
745.73247
 21
482.688748
 31
0.0
  0
LINE
  8
LC-001-005-----0
  6
CONTINUOUS
  5
F4
 10
750.42567
 20
487.381947
 30
0.0
 11
753.72567
 21
490.681947
 31
0.0
  0
LINE
  8
LC-001-005-----0
  6
CONTINUOUS
  5
F5
 10
698.644393
 20
438.429098
 30
0.0
 11
702.644393
 21
442.429098
 31
0.0
  0
LINE
  8
LC-001-005-----0
  6
CONTINUOUS
  5
F6
 10
741.597243
 20
481.381947
 30
0.0
 11
746.005098
 21
485.789803
 31
0.0
  0
LINE
  8
LC-001-005-----0
  6
CONTINUOUS
  5
F7
 10
747.597243
 20
487.381947
 30
0.0
 11
750.897243
 21
490.681947
 31
0.0
  0
LINE
  8
LC-001-005-----0
  6
CONTINUOUS
  5
F8
 10
698.644393
 20
441.257525
 30
0.0
 11
702.644393
 21
445.257525
 31
0.0
  0
LINE
  8
LC-001-005-----0
  6
CONTINUOUS
  5
F9
 10
738.768816
 20
481.381947
 30
0.0
 11
742.568816
 21
485.181947
 31
0.0
  0
LINE
  8
LC-001-005-----0
  6
CONTINUOUS
  5
FA
 10
743.144393
 20
485.757525
 30
0.0
 11
748.068816
 21
490.681947
 31
0.0
  0
LINE
  8
LC-001-005-----0
  6
CONTINUOUS
  5
FB
 10
698.644393
 20
444.085952
 30
0.0
 11
702.644393
 21
448.085952
 31
0.0
  0
LINE
  8
LC-001-005-----0
  6
CONTINUOUS
  5
FC
 10
735.940389
 20
481.381947
 30
0.0
 11
739.740389
 21
485.181947
 31
0.0
  0
LINE
  8
LC-001-005-----0
  6
CONTINUOUS
  5
FD
 10
743.144393
 20
488.585952
 30
0.0
 11
745.240389
 21
490.681947
 31
0.0
  0
LINE
  8
LC-001-005-----0
  6
CONTINUOUS
  5
FE
 10
698.644393
 20
446.914379
 30
0.0
 11
702.644393
 21
450.914379
 31
0.0
  0
LINE
  8
LC-001-005-----0
  6
CONTINUOUS
  5
FF
 10
723.02107
 20
471.291056
 30
0.0
 11
729.844393
 21
478.114379
 31
0.0
  0
LINE
  8
LC-001-005-----0
  6
CONTINUOUS
  5
100
 10
733.789444
 20
482.05943
 30
0.0
 11
736.911961
 21
485.181947
 31
0.0
  0
LINE
  8
LC-001-005-----0
  6
CONTINUOUS
  5
101
 10
698.644393
 20
449.742806
 30
0.0
 11
702.644393
 21
453.742806
 31
0.0
  0
LINE
  8
LC-001-005-----0
  6
CONTINUOUS
  5
102
 10
721.606857
 20
472.70527
 30
0.0
 11
723.728177
 21
474.82659
 31
0.0
  0
LINE
  8
LC-001-005-----0
  6
CONTINUOUS
  5
103
 10
726.544393
 20
477.642806
 30
0.0
 11
729.844393
 21
480.942806
 31
0.0
  0
LINE
  8
LC-001-005-----0
  6
CONTINUOUS
  5
104
 10
733.396938
 20
484.495351
 30
0.0
 11
736.144393
 21
487.242806
 31
0.0
  0
LINE
  8
LC-001-005-----0
  6
CONTINUOUS
  5
105
 10
698.644393
 20
452.571233
 30
0.0
 11
702.644393
 21
456.571233
 31
0.0
  0
LINE
  8
LC-001-005-----0
  6
CONTINUOUS
  5
106
 10
720.192643
 20
474.119483
 30
0.0
 11
722.313964
 21
476.240804
 31
0.0
  0
LINE
  8
LC-001-005-----0
  6
CONTINUOUS
  5
107
 10
726.544393
 20
480.471233
 30
0.0
 11
729.844393
 21
483.771233
 31
0.0
  0
LINE
  8
LC-001-005-----0
  6
CONTINUOUS
  5
108
 10
732.919112
 20
486.845952
 30
0.0
 11
736.144393
 21
490.071233
 31
0.0
  0
LINE
  8
LC-001-005-----0
  6
CONTINUOUS
  5
109
 10
698.644393
 20
455.39966
 30
0.0
 11
702.644393
 21
459.39966
 31
0.0
  0
LINE
  8
LC-001-005-----0
  6
CONTINUOUS
  5
10A
 10
703.969326
 20
460.724593
 30
0.0
 11
711.101747
 21
467.857014
 31
0.0
  0
LINE
  8
LC-001-005-----0
  6
CONTINUOUS
  5
10B
 10
718.876257
 20
475.631524
 30
0.0
 11
722.144393
 21
478.89966
 31
0.0
  0
LINE
  8
LC-001-005-----0
  6
CONTINUOUS
  5
10C
 10
726.544393
 20
483.29966
 30
0.0
 11
729.875962
 21
486.631229
 31
0.0
  0
LINE
  8
LC-001-005-----0
  6
CONTINUOUS
  5
10D
 10
730.595111
 20
487.350378
 30
0.0
 11
733.92668
 21
490.681947
 31
0.0
  0
LINE
  8
LC-001-005-----0
  6
CONTINUOUS
  5
10E
 10
698.644393
 20
458.228087
 30
0.0
 11
711.144393
 21
470.728087
 31
0.0
  0
LINE
  8
LC-001-005-----0
  6
CONTINUOUS
  5
10F
 10
718.844393
 20
478.428087
 30
0.0
 11
722.144393
 21
481.728087
 31
0.0
  0
LINE
  8
LC-001-005-----0
  6
CONTINUOUS
  5
110
 10
726.544393
 20
486.128087
 30
0.0
 11
731.098253
 21
490.681947
 31
0.0
  0
LINE
  8
LC-001-005-----0
  6
CONTINUOUS
  5
111
 10
698.644393
 20
461.056515
 30
0.0
 11
702.269826
 21
464.681947
 31
0.0
  0
LINE
  8
LC-001-005-----0
  6
CONTINUOUS
  5
112
 10
707.144393
 20
469.556515
 30
0.0
 11
711.144393
 21
473.556515
 31
0.0
  0
LINE
  8
LC-001-005-----0
  6
CONTINUOUS
  5
113
 10
718.844393
 20
481.256515
 30
0.0
 11
722.144393
 21
484.556515
 31
0.0
  0
LINE
  8
LC-001-005-----0
  6
CONTINUOUS
  5
114
 10
726.544393
 20
488.956515
 30
0.0
 11
728.269826
 21
490.681947
 31
0.0
  0
LINE
  8
LC-001-005-----0
  6
CONTINUOUS
  5
115
 10
698.644393
 20
463.884942
 30
0.0
 11
699.441399
 21
464.681947
 31
0.0
  0
LINE
  8
LC-001-005-----0
  6
CONTINUOUS
  5
116
 10
707.144393
 20
472.384942
 30
0.0
 11
711.144393
 21
476.384942
 31
0.0
  0
LINE
  8
LC-001-005-----0
  6
CONTINUOUS
  5
117
 10
718.844393
 20
484.084942
 30
0.0
 11
722.144393
 21
487.384942
 31
0.0
  0
LINE
  8
LC-001-005-----0
  6
CONTINUOUS
  5
118
 10
707.144393
 20
475.213369
 30
0.0
 11
711.144393
 21
479.213369
 31
0.0
  0
LINE
  8
LC-001-005-----0
  6
CONTINUOUS
  5
119
 10
718.745847
 20
486.814823
 30
0.0
 11
722.144393
 21
490.213369
 31
0.0
  0
LINE
  8
LC-001-005-----0
  6
CONTINUOUS
  5
11A
 10
707.144393
 20
478.041796
 30
0.0
 11
711.144393
 21
482.041796
 31
0.0
  0
LINE
  8
LC-001-005-----0
  6
CONTINUOUS
  5
11B
 10
716.484544
 20
487.381947
 30
0.0
 11
719.784544
 21
490.681947
 31
0.0
  0
LINE
  8
LC-001-005-----0
  6
CONTINUOUS
  5
11C
 10
707.144393
 20
480.870223
 30
0.0
 11
711.144393
 21
484.870223
 31
0.0
  0
LINE
  8
LC-001-005-----0
  6
CONTINUOUS
  5
11D
 10
713.656117
 20
487.381947
 30
0.0
 11
716.956117
 21
490.681947
 31
0.0
  0
LINE
  8
LC-001-005-----0
  6
CONTINUOUS
  5
11E
 10
707.144393
 20
483.69865
 30
0.0
 11
714.12769
 21
490.681947
 31
0.0
  0
LINE
  8
LC-001-005-----0
  6
CONTINUOUS
  5
11F
 10
707.144393
 20
486.527077
 30
0.0
 11
711.299263
 21
490.681947
 31
0.0
  0
LINE
  8
LC-001-005-----0
  6
CONTINUOUS
  5
120
 10
707.144393
 20
489.355504
 30
0.0
 11
708.470836
 21
490.681947
 31
0.0
  0
ENDBLK
  8
0
  5
121
  0
BLOCK
  8
0
  5
123
  2
*D2
 70
    65
 10
0.0
 20
0.0
 30
0.0
  3
*D2
  0
LINE
  8
LC-004-003-MTH-0
  6
CONTINUOUS
  5
125
 10
528.644393
 20
242.181947
 30
0.0
 11
528.644393
 21
185.2
 31
0.0
  0
LINE
  8
LC-004-003-MTH-0
  6
CONTINUOUS
  5
126
 10
688.644393
 20
242.181947
 30
0.0
 11
688.644393
 21
185.2
 31
0.0
  0
LINE
  8
LC-005-003-MTG-0
  6
CONTINUOUS
  5
128
 10
528.644393
 20
196.0
 30
0.0
 11
688.644393
 21
196.0
 31
0.0
  0
LINE
  8
LC-003-003-----0
  6
CONTINUOUS
  5
12A
 10
546.490401
 20
198.349471
 30
0.0
 11
528.644393
 21
196.0
 31
0.0
  0
LINE
  8
LC-003-003-----0
  6
CONTINUOUS
  5
12B
 10
528.644393
 20
196.0
 30
0.0
 11
546.490401
 21
193.650529
 31
0.0
  0
LINE
  8
LC-003-003-----0
  6
CONTINUOUS
  5
12C
 10
546.490401
 20
193.650529
 30
0.0
 11
546.490401
 21
198.349471
 31
0.0
  0
LINE
  8
LC-003-003-----0
  6
CONTINUOUS
  5
12D
 10
546.530439
 20
197.738609
 30
0.0
 11
533.324393
 21
196.0
 31
0.0
  0
LINE
  8
LC-003-003-----0
  6
CONTINUOUS
  5
12E
 10
533.324393
 20
196.0
 30
0.0
 11
546.530439
 21
194.261391
 31
0.0
  0
LINE
  8
LC-003-003-----0
  6
CONTINUOUS
  5
12F
 10
546.570477
 20
197.127746
 30
0.0
 11
538.004393
 21
196.0
 31
0.0
  0
LINE
  8
LC-003-003-----0
  6
CONTINUOUS
  5
130
 10
538.004393
 20
196.0
 30
0.0
 11
546.570477
 21
194.872254
 31
0.0
  0
LINE
  8
LC-003-003-----0
  6
CONTINUOUS
  5
131
 10
546.610515
 20
196.516884
 30
0.0
 11
542.684393
 21
196.0
 31
0.0
  0
LINE
  8
LC-003-003-----0
  6
CONTINUOUS
  5
132
 10
542.684393
 20
196.0
 30
0.0
 11
546.610515
 21
195.483116
 31
0.0
  0
LINE
  8
LC-003-003-----0
  6
CONTINUOUS
  5
133
 10
670.798386
 20
193.650529
 30
0.0
 11
688.644393
 21
196.0
 31
0.0
  0
LINE
  8
LC-003-003-----0
  6
CONTINUOUS
  5
134
 10
688.644393
 20
196.0
 30
0.0
 11
670.798386
 21
198.349471
 31
0.0
  0
LINE
  8
LC-003-003-----0
  6
CONTINUOUS
  5
135
 10
670.798386
 20
198.349471
 30
0.0
 11
670.798386
 21
193.650529
 31
0.0
  0
LINE
  8
LC-003-003-----0
  6
CONTINUOUS
  5
136
 10
670.758347
 20
194.261391
 30
0.0
 11
683.964393
 21
196.0
 31
0.0
  0
LINE
  8
LC-003-003-----0
  6
CONTINUOUS
  5
137
 10
683.964393
 20
196.0
 30
0.0
 11
670.758347
 21
197.738609
 31
0.0
  0
LINE
  8
LC-003-003-----0
  6
CONTINUOUS
  5
138
 10
670.718309
 20
194.872254
 30
0.0
 11
679.284393
 21
196.0
 31
0.0
  0
LINE
  8
LC-003-003-----0
  6
CONTINUOUS
  5
139
 10
679.284393
 20
196.0
 30
0.0
 11
670.718309
 21
197.127746
 31
0.0
  0
LINE
  8
LC-003-003-----0
  6
CONTINUOUS
  5
13A
 10
670.678271
 20
195.483116
 30
0.0
 11
674.604393
 21
196.0
 31
0.0
  0
LINE
  8
LC-003-003-----0
  6
CONTINUOUS
  5
13B
 10
674.604393
 20
196.0
 30
0.0
 11
670.678271
 21
196.516884
 31
0.0
  0
TEXT
  8
LC-003-003-----0
  6
CONTINUOUS
 62
     6
  5
13D
 10
577.764048
 20
206.431999
 30
0.0
 40
18.0
  1
DN150
 41
0.9
 51
15.0
  7
LC-TXTSTYLE-150-400-0-0-D0
 72
     1
 11
611.439639
 21
206.431999
 31
0.0
  0
ENDBLK
  8
0
  5
13E
  0
BLOCK
  8
0
  5
140
  2
*D3
 70
    65
 10
0.0
 20
0.0
 30
0.0
  3
*D3
  0
LINE
  8
LC-004-003-MTH-0
  6
CONTINUOUS
  5
141
 10
525.523703
 20
305.681947
 30
0.0
 11
525.523703
 21
143.2
 31
0.0
  0
LINE
  8
LC-004-003-MTH-0
  6
CONTINUOUS
  5
142
 10
691.765083
 20
305.681947
 30
0.0
 11
691.765083
 21
143.2
 31
0.0
  0
LINE
  8
LC-005-003-MTG-0
  6
CONTINUOUS
  5
143
 10
525.523703
 20
154.0
 30
0.0
 11
691.765083
 21
154.0
 31
0.0
  0
LINE
  8
LC-003-003-----0
  6
CONTINUOUS
  5
144
 10
543.369711
 20
156.349471
 30
0.0
 11
525.523703
 21
154.0
 31
0.0
  0
LINE
  8
LC-003-003-----0
  6
CONTINUOUS
  5
145
 10
525.523703
 20
154.0
 30
0.0
 11
543.369711
 21
151.650529
 31
0.0
  0
LINE
  8
LC-003-003-----0
  6
CONTINUOUS
  5
146
 10
543.369711
 20
151.650529
 30
0.0
 11
543.369711
 21
156.349471
 31
0.0
  0
LINE
  8
LC-003-003-----0
  6
CONTINUOUS
  5
147
 10
543.409749
 20
155.738609
 30
0.0
 11
530.203703
 21
154.0
 31
0.0
  0
LINE
  8
LC-003-003-----0
  6
CONTINUOUS
  5
148
 10
530.203703
 20
154.0
 30
0.0
 11
543.409749
 21
152.261391
 31
0.0
  0
LINE
  8
LC-003-003-----0
  6
CONTINUOUS
  5
149
 10
543.449787
 20
155.127746
 30
0.0
 11
534.883703
 21
154.0
 31
0.0
  0
LINE
  8
LC-003-003-----0
  6
CONTINUOUS
  5
14A
 10
534.883703
 20
154.0
 30
0.0
 11
543.449787
 21
152.872254
 31
0.0
  0
LINE
  8
LC-003-003-----0
  6
CONTINUOUS
  5
14B
 10
543.489825
 20
154.516884
 30
0.0
 11
539.563703
 21
154.0
 31
0.0
  0
LINE
  8
LC-003-003-----0
  6
CONTINUOUS
  5
14C
 10
539.563703
 20
154.0
 30
0.0
 11
543.489825
 21
153.483116
 31
0.0
  0
LINE
  8
LC-003-003-----0
  6
CONTINUOUS
  5
14D
 10
673.919075
 20
151.650529
 30
0.0
 11
691.765083
 21
154.0
 31
0.0
  0
LINE
  8
LC-003-003-----0
  6
CONTINUOUS
  5
14E
 10
691.765083
 20
154.0
 30
0.0
 11
673.919075
 21
156.349471
 31
0.0
  0
LINE
  8
LC-003-003-----0
  6
CONTINUOUS
  5
14F
 10
673.919075
 20
156.349471
 30
0.0
 11
673.919075
 21
151.650529
 31
0.0
  0
LINE
  8
LC-003-003-----0
  6
CONTINUOUS
  5
150
 10
673.879037
 20
152.261391
 30
0.0
 11
687.085083
 21
154.0
 31
0.0
  0
LINE
  8
LC-003-003-----0
  6
CONTINUOUS
  5
151
 10
687.085083
 20
154.0
 30
0.0
 11
673.879037
 21
155.738609
 31
0.0
  0
LINE
  8
LC-003-003-----0
  6
CONTINUOUS
  5
152
 10
673.838999
 20
152.872254
 30
0.0
 11
682.405083
 21
154.0
 31
0.0
  0
LINE
  8
LC-003-003-----0
  6
CONTINUOUS
  5
153
 10
682.405083
 20
154.0
 30
0.0
 11
673.838999
 21
155.127746
 31
0.0
  0
LINE
  8
LC-003-003-----0
  6
CONTINUOUS
  5
154
 10
673.798961
 20
153.483116
 30
0.0
 11
677.725083
 21
154.0
 31
0.0
  0
LINE
  8
LC-003-003-----0
  6
CONTINUOUS
  5
155
 10
677.725083
 20
154.0
 30
0.0
 11
673.798961
 21
154.516884
 31
0.0
  0
TEXT
  8
LC-003-003-----0
  6
CONTINUOUS
 62
     6
  5
156
 10
586.9483
 20
164.431999
 30
0.0
 40
18.0
  1
Ø166
 51
15.0
  7
LC-TXTSTYLE-150-400-0-0-D0
 72
     1
 11
611.439639
 21
164.431999
 31
0.0
  0
ENDBLK
  8
0
  5
157
  0
BLOCK
  8
0
  5
159
  2
*D4
 70
    65
 10
0.0
 20
0.0
 30
0.0
  3
*D4
  0
LINE
  8
LC-004-003-MTH-0
  6
CONTINUOUS
  5
15A
 10
490.198143
 20
589.14943
 30
0.0
 11
429.2
 21
589.14943
 31
0.0
  0
LINE
  8
LC-004-003-MTH-0
  6
CONTINUOUS
  5
15B
 10
492.168143
 20
611.80443
 30
0.0
 11
429.2
 21
611.80443
 31
0.0
  0
LINE
  8
LC-003-003-----0
  6
CONTINUOUS
  5
15C
 10
442.349471
 20
571.303422
 30
0.0
 11
440.0
 21
589.14943
 31
0.0
  0
LINE
  8
LC-003-003-----0
  6
CONTINUOUS
  5
15D
 10
440.0
 20
589.14943
 30
0.0
 11
437.650529
 21
571.303422
 31
0.0
  0
LINE
  8
LC-003-003-----0
  6
CONTINUOUS
  5
15E
 10
437.650529
 20
571.303422
 30
0.0
 11
442.349471
 21
571.303422
 31
0.0
  0
LINE
  8
LC-003-003-----0
  6
CONTINUOUS
  5
15F
 10
441.738609
 20
571.263384
 30
0.0
 11
440.0
 21
584.46943
 31
0.0
  0
LINE
  8
LC-003-003-----0
  6
CONTINUOUS
  5
160
 10
440.0
 20
584.46943
 30
0.0
 11
438.261391
 21
571.263384
 31
0.0
  0
LINE
  8
LC-003-003-----0
  6
CONTINUOUS
  5
161
 10
441.127746
 20
571.223346
 30
0.0
 11
440.0
 21
579.78943
 31
0.0
  0
LINE
  8
LC-003-003-----0
  6
CONTINUOUS
  5
162
 10
440.0
 20
579.78943
 30
0.0
 11
438.872254
 21
571.223346
 31
0.0
  0
LINE
  8
LC-003-003-----0
  6
CONTINUOUS
  5
163
 10
440.516884
 20
571.183308
 30
0.0
 11
440.0
 21
575.10943
 31
0.0
  0
LINE
  8
LC-003-003-----0
  6
CONTINUOUS
  5
164
 10
440.0
 20
575.10943
 30
0.0
 11
439.483116
 21
571.183308
 31
0.0
  0
LINE
  8
LC-003-003-----0
  6
CONTINUOUS
  5
165
 10
437.650529
 20
629.650437
 30
0.0
 11
440.0
 21
611.80443
 31
0.0
  0
LINE
  8
LC-003-003-----0
  6
CONTINUOUS
  5
166
 10
440.0
 20
611.80443
 30
0.0
 11
442.349471
 21
629.650437
 31
0.0
  0
LINE
  8
LC-003-003-----0
  6
CONTINUOUS
  5
167
 10
442.349471
 20
629.650437
 30
0.0
 11
437.650529
 21
629.650437
 31
0.0
  0
LINE
  8
LC-003-003-----0
  6
CONTINUOUS
  5
168
 10
438.261391
 20
629.690475
 30
0.0
 11
440.0
 21
616.48443
 31
0.0
  0
LINE
  8
LC-003-003-----0
  6
CONTINUOUS
  5
169
 10
440.0
 20
616.48443
 30
0.0
 11
441.738609
 21
629.690475
 31
0.0
  0
LINE
  8
LC-003-003-----0
  6
CONTINUOUS
  5
16A
 10
438.872254
 20
629.730513
 30
0.0
 11
440.0
 21
621.16443
 31
0.0
  0
LINE
  8
LC-003-003-----0
  6
CONTINUOUS
  5
16B
 10
440.0
 20
621.16443
 30
0.0
 11
441.127746
 21
629.730513
 31
0.0
  0
LINE
  8
LC-003-003-----0
  6
CONTINUOUS
  5
16C
 10
439.483116
 20
629.770551
 30
0.0
 11
440.0
 21
625.84443
 31
0.0
  0
LINE
  8
LC-003-003-----0
  6
CONTINUOUS
  5
16D
 10
440.0
 20
625.84443
 30
0.0
 11
440.516884
 21
629.770551
 31
0.0
  0
LINE
  8
LC-005-003-MTG-0
  6
CONTINUOUS
  5
16E
 10
440.0
 20
563.94943
 30
0.0
 11
440.0
 21
669.806949
 31
0.0
  0
TEXT
  8
LC-003-003-----0
  6
CONTINUOUS
 62
     6
  5
16F
 10
429.568001
 20
639.079675
 30
0.0
 40
18.0
  1
23
 50
90.0
 51
15.0
  7
LC-TXTSTYLE-150-400-0-0-D0
  0
ENDBLK
  8
0
  5
170
  0
BLOCK
  8
0
  5
172
  2
*X5
 70
    65
 10
510.144393
 20
472.369896
 30
0.0
  3
*X5
  0
LINE
  8
LC-001-005-----0
  6
CONTINUOUS
  5
173
 10
513.281515
 20
472.552164
 30
0.0
 11
514.462125
 21
473.732774
 31
0.0
  0
LINE
  8
LC-001-005-----0
  6
CONTINUOUS
  5
174
 10
512.866489
 20
472.419981
 30
0.0
 11
514.594308
 21
474.1478
 31
0.0
  0
LINE
  8
LC-001-005-----0
  6
CONTINUOUS
  5
175
 10
512.538159
 20
472.374494
 30
0.0
 11
514.639795
 21
474.47613
 31
0.0
  0
LINE
  8
LC-001-005-----0
  6
CONTINUOUS
  5
176
 10
512.255038
 20
472.374216
 30
0.0
 11
514.644393
 21
474.763571
 31
0.0
  0
LINE
  8
LC-001-005-----0
  6
CONTINUOUS
  5
177
 10
512.002302
 20
472.404323
 30
0.0
 11
514.644393
 21
475.046413
 31
0.0
  0
LINE
  8
LC-001-005-----0
  6
CONTINUOUS
  5
178
 10
511.772644
 20
472.457507
 30
0.0
 11
514.644393
 21
475.329256
 31
0.0
  0
LINE
  8
LC-001-005-----0
  6
CONTINUOUS
  5
179
 10
511.561876
 20
472.529581
 30
0.0
 11
514.644393
 21
475.612099
 31
0.0
  0
LINE
  8
LC-001-005-----0
  6
CONTINUOUS
  5
17A
 10
511.367401
 20
472.61795
 30
0.0
 11
514.644393
 21
475.894941
 31
0.0
  0
LINE
  8
LC-001-005-----0
  6
CONTINUOUS
  5
17B
 10
511.18755
 20
472.720941
 30
0.0
 11
514.644393
 21
476.177784
 31
0.0
  0
LINE
  8
LC-001-005-----0
  6
CONTINUOUS
  5
17C
 10
511.021252
 20
472.837486
 30
0.0
 11
514.644393
 21
476.460627
 31
0.0
  0
LINE
  8
LC-001-005-----0
  6
CONTINUOUS
  5
17D
 10
510.867872
 20
472.966949
 30
0.0
 11
514.643933
 21
476.74301
 31
0.0
  0
LINE
  8
LC-001-005-----0
  6
CONTINUOUS
  5
17E
 10
510.727118
 20
473.109037
 30
0.0
 11
514.62326
 21
477.005179
 31
0.0
  0
LINE
  8
LC-001-005-----0
  6
CONTINUOUS
  5
17F
 10
510.599006
 20
473.263768
 30
0.0
 11
514.577463
 21
477.242225
 31
0.0
  0
LINE
  8
LC-001-005-----0
  6
CONTINUOUS
  5
180
 10
510.483861
 20
473.431466
 30
0.0
 11
514.51156
 21
477.459165
 31
0.0
  0
LINE
  8
LC-001-005-----0
  6
CONTINUOUS
  5
181
 10
510.382361
 20
473.612808
 30
0.0
 11
514.428594
 21
477.659042
 31
0.0
  0
LINE
  8
LC-001-005-----0
  6
CONTINUOUS
  5
182
 10
510.295628
 20
473.808918
 30
0.0
 11
514.330509
 21
477.843799
 31
0.0
  0
LINE
  8
LC-001-005-----0
  6
CONTINUOUS
  5
183
 10
510.225413
 20
474.021545
 30
0.0
 11
514.218555
 21
478.014688
 31
0.0
  0
LINE
  8
LC-001-005-----0
  6
CONTINUOUS
  5
184
 10
510.17444
 20
474.253415
 30
0.0
 11
514.093506
 21
478.172482
 31
0.0
  0
LINE
  8
LC-001-005-----0
  6
CONTINUOUS
  5
185
 10
510.14713
 20
474.508948
 30
0.0
 11
513.955767
 21
478.317585
 31
0.0
  0
LINE
  8
LC-001-005-----0
  6
CONTINUOUS
  5
186
 10
510.144393
 20
474.789054
 30
0.0
 11
513.805425
 21
478.450086
 31
0.0
  0
LINE
  8
LC-001-005-----0
  6
CONTINUOUS
  5
187
 10
510.144393
 20
475.071897
 30
0.0
 11
513.642265
 21
478.569768
 31
0.0
  0
LINE
  8
LC-001-005-----0
  6
CONTINUOUS
  5
188
 10
510.144393
 20
475.354739
 30
0.0
 11
513.465738
 21
478.676085
 31
0.0
  0
LINE
  8
LC-001-005-----0
  6
CONTINUOUS
  5
189
 10
510.144393
 20
475.637582
 30
0.0
 11
513.274891
 21
478.768081
 31
0.0
  0
LINE
  8
LC-001-005-----0
  6
CONTINUOUS
  5
18A
 10
510.144393
 20
475.920425
 30
0.0
 11
513.06822
 21
478.844251
 31
0.0
  0
LINE
  8
LC-001-005-----0
  6
CONTINUOUS
  5
18B
 10
510.144393
 20
476.203268
 30
0.0
 11
512.84339
 21
478.902265
 31
0.0
  0
LINE
  8
LC-001-005-----0
  6
CONTINUOUS
  5
18C
 10
510.144393
 20
476.48611
 30
0.0
 11
512.59669
 21
478.938407
 31
0.0
  0
LINE
  8
LC-001-005-----0
  6
CONTINUOUS
  5
18D
 10
510.145565
 20
476.770125
 30
0.0
 11
512.321788
 21
478.946348
 31
0.0
  0
LINE
  8
LC-001-005-----0
  6
CONTINUOUS
  5
18E
 10
510.178096
 20
477.085499
 30
0.0
 11
512.006414
 21
478.913817
 31
0.0
  0
LINE
  8
LC-001-005-----0
  6
CONTINUOUS
  5
18F
 10
510.281964
 20
477.47221
 30
0.0
 11
511.619703
 21
478.809948
 31
0.0
  0
LINE
  8
LC-001-005-----0
  6
CONTINUOUS
  5
190
 10
510.67126
 20
478.144348
 30
0.0
 11
510.947564
 21
478.420652
 31
0.0
  0
ENDBLK
  8
0
  5
191
  0
BLOCK
  8
0
  5
193
  2
*X6
 70
    65
 10
488.228143
 20
468.681947
 30
0.0
  3
*X6
  0
LINE
  8
LC-001-005-----0
  6
CONTINUOUS
  5
194
 10
515.350995
 20
468.681947
 30
0.0
 11
517.531893
 21
470.862845
 31
0.0
  0
LINE
  8
LC-001-005-----0
  6
CONTINUOUS
  5
195
 10
511.707878
 20
469.281471
 30
0.0
 11
517.531893
 21
475.105486
 31
0.0
  0
LINE
  8
LC-001-005-----0
  6
CONTINUOUS
  5
196
 10
514.675393
 20
476.491627
 30
0.0
 11
517.531893
 21
479.348127
 31
0.0
  0
LINE
  8
LC-001-005-----0
  6
CONTINUOUS
  5
197
 10
512.784197
 20
478.843072
 30
0.0
 11
517.531893
 21
483.590768
 31
0.0
  0
LINE
  8
LC-001-005-----0
  6
CONTINUOUS
  5
198
 10
510.883143
 20
481.184658
 30
0.0
 11
511.744148
 21
482.045663
 31
0.0
  0
LINE
  8
LC-001-005-----0
  6
CONTINUOUS
  5
199
 10
514.675393
 20
484.976908
 30
0.0
 11
517.531893
 21
487.833408
 31
0.0
  0
LINE
  8
LC-001-005-----0
  6
CONTINUOUS
  5
19A
 10
513.860517
 20
488.404673
 30
0.0
 11
517.531893
 21
492.076049
 31
0.0
  0
LINE
  8
LC-001-005-----0
  6
CONTINUOUS
  5
19B
 10
510.883143
 20
489.66994
 30
0.0
 11
513.608389
 21
492.395185
 31
0.0
  0
LINE
  8
LC-001-005-----0
  6
CONTINUOUS
  5
19C
 10
514.675393
 20
493.46219
 30
0.0
 11
517.531893
 21
496.31869
 31
0.0
  0
LINE
  8
LC-001-005-----0
  6
CONTINUOUS
  5
19D
 10
514.608324
 20
497.637761
 30
0.0
 11
517.531893
 21
500.56133
 31
0.0
  0
LINE
  8
LC-001-005-----0
  6
CONTINUOUS
  5
19E
 10
511.590771
 20
498.862849
 30
0.0
 11
517.531893
 21
504.803971
 31
0.0
  0
LINE
  8
LC-001-005-----0
  6
CONTINUOUS
  5
19F
 10
514.675393
 20
506.190112
 30
0.0
 11
517.531893
 21
509.046612
 31
0.0
  0
LINE
  8
LC-001-005-----0
  6
CONTINUOUS
  5
1A0
 10
512.667091
 20
508.42445
 30
0.0
 11
517.531893
 21
513.289252
 31
0.0
  0
LINE
  8
LC-001-005-----0
  6
CONTINUOUS
  5
1A1
 10
510.883143
 20
510.883143
 30
0.0
 11
511.541314
 21
511.541314
 31
0.0
  0
LINE
  8
LC-001-005-----0
  6
CONTINUOUS
  5
1A2
 10
514.675393
 20
514.675393
 30
0.0
 11
517.531893
 21
517.531893
 31
0.0
  0
LINE
  8
LC-001-005-----0
  6
CONTINUOUS
  5
1A3
 10
513.743411
 20
517.986051
 30
0.0
 11
517.531893
 21
521.774534
 31
0.0
  0
LINE
  8
LC-001-005-----0
  6
CONTINUOUS
  5
1A4
 10
510.883143
 20
519.368424
 30
0.0
 11
513.405555
 21
521.890836
 31
0.0
  0
LINE
  8
LC-001-005-----0
  6
CONTINUOUS
  5
1A5
 10
514.675393
 20
523.160674
 30
0.0
 11
517.531893
 21
526.017174
 31
0.0
  0
LINE
  8
LC-001-005-----0
  6
CONTINUOUS
  5
1A6
 10
514.5618
 20
527.289722
 30
0.0
 11
517.531893
 21
530.259815
 31
0.0
  0
LINE
  8
LC-001-005-----0
  6
CONTINUOUS
  5
1A7
 10
511.473665
 20
528.444228
 30
0.0
 11
517.531893
 21
534.502456
 31
0.0
  0
LINE
  8
LC-001-005-----0
  6
CONTINUOUS
  5
1A8
 10
514.675393
 20
535.888596
 30
0.0
 11
517.531893
 21
538.745096
 31
0.0
  0
LINE
  8
LC-001-005-----0
  6
CONTINUOUS
  5
1A9
 10
512.549985
 20
538.005829
 30
0.0
 11
517.531893
 21
542.987737
 31
0.0
  0
LINE
  8
LC-001-005-----0
  6
CONTINUOUS
  5
1AA
 10
510.883143
 20
540.581628
 30
0.0
 11
511.33848
 21
541.036965
 31
0.0
  0
LINE
  8
LC-001-005-----0
  6
CONTINUOUS
  5
1AB
 10
514.675393
 20
544.373878
 30
0.0
 11
517.531893
 21
547.230378
 31
0.0
  0
LINE
  8
LC-001-005-----0
  6
CONTINUOUS
  5
1AC
 10
513.626304
 20
547.56743
 30
0.0
 11
517.531893
 21
551.473019
 31
0.0
  0
LINE
  8
LC-001-005-----0
  6
CONTINUOUS
  5
1AD
 10
510.883143
 20
549.066909
 30
0.0
 11
513.202721
 21
551.386487
 31
0.0
  0
LINE
  8
LC-001-005-----0
  6
CONTINUOUS
  5
1AE
 10
514.675393
 20
552.859159
 30
0.0
 11
517.531893
 21
555.715659
 31
0.0
  0
LINE
  8
LC-001-005-----0
  6
CONTINUOUS
  5
1AF
 10
514.506154
 20
556.932561
 30
0.0
 11
517.531893
 21
559.9583
 31
0.0
  0
LINE
  8
LC-001-005-----0
  6
CONTINUOUS
  5
1B0
 10
511.356559
 20
558.025606
 30
0.0
 11
517.531893
 21
564.200941
 31
0.0
  0
LINE
  8
LC-001-005-----0
  6
CONTINUOUS
  5
1B1
 10
514.675393
 20
565.587081
 30
0.0
 11
517.514962
 21
568.426651
 31
0.0
  0
LINE
  8
LC-001-005-----0
  6
CONTINUOUS
  5
1B2
 10
512.029601
 20
567.18393
 30
0.0
 11
514.984601
 21
570.13893
 31
0.0
  0
LINE
  8
LC-001-005-----0
  6
CONTINUOUS
  5
1B3
 10
508.235252
 20
567.632221
 30
0.0
 11
510.753204
 21
570.150174
 31
0.0
  0
LINE
  8
LC-001-005-----0
  6
CONTINUOUS
  5
1B4
 10
507.189393
 20
570.829003
 30
0.0
 11
509.916612
 21
573.556222
 31
0.0
  0
LINE
  8
LC-001-005-----0
  6
CONTINUOUS
  5
1B5
 10
507.189393
 20
575.071644
 30
0.0
 11
509.916612
 21
577.798863
 31
0.0
  0
LINE
  8
LC-001-005-----0
  6
CONTINUOUS
  5
1B6
 10
507.189393
 20
579.314285
 30
0.0
 11
509.916612
 21
582.041503
 31
0.0
  0
LINE
  8
LC-001-005-----0
  6
CONTINUOUS
  5
1B7
 10
507.189393
 20
583.556925
 30
0.0
 11
509.916612
 21
586.284144
 31
0.0
  0
LINE
  8
LC-001-005-----0
  6
CONTINUOUS
  5
1B8
 10
507.006948
 20
587.617121
 30
0.0
 11
509.916612
 21
590.526785
 31
0.0
  0
LINE
  8
LC-001-005-----0
  6
CONTINUOUS
  5
1B9
 10
504.296616
 20
589.14943
 30
0.0
 11
507.251616
 21
592.10443
 31
0.0
  0
LINE
  8
LC-001-005-----0
  6
CONTINUOUS
  5
1BA
 10
500.053975
 20
589.14943
 30
0.0
 11
503.008975
 21
592.10443
 31
0.0
  0
LINE
  8
LC-001-005-----0
  6
CONTINUOUS
  5
1BB
 10
495.811334
 20
589.14943
 30
0.0
 11
498.766334
 21
592.10443
 31
0.0
  0
LINE
  8
LC-001-005-----0
  6
CONTINUOUS
  5
1BC
 10
491.568694
 20
589.14943
 30
0.0
 11
494.523694
 21
592.10443
 31
0.0
  0
LINE
  8
LC-001-005-----0
  6
CONTINUOUS
  5
1BD
 10
488.722849
 20
590.546225
 30
0.0
 11
490.281053
 21
592.10443
 31
0.0
  0
LINE
  8
LC-001-005-----0
  6
CONTINUOUS
  5
1BE
 10
491.183143
 20
593.00652
 30
0.0
 11
494.138143
 21
595.96152
 31
0.0
  0
LINE
  8
LC-001-005-----0
  6
CONTINUOUS
  5
1BF
 10
491.183143
 20
597.24916
 30
0.0
 11
494.138143
 21
600.20416
 31
0.0
  0
LINE
  8
LC-001-005-----0
  6
CONTINUOUS
  5
1C0
 10
491.183143
 20
601.491801
 30
0.0
 11
494.138143
 21
604.446801
 31
0.0
  0
LINE
  8
LC-001-005-----0
  6
CONTINUOUS
  5
1C1
 10
491.183143
 20
605.734442
 30
0.0
 11
494.138143
 21
608.689442
 31
0.0
  0
LINE
  8
LC-001-005-----0
  6
CONTINUOUS
  5
1C2
 10
490.021364
 20
608.815303
 30
0.0
 11
492.87811
 21
611.672049
 31
0.0
  0
ENDBLK
  8
0
  5
1C3
  0
BLOCK
  8
0
  5
1C5
  2
*X7
 70
    65
 10
699.756893
 20
468.681947
 30
0.0
  3
*X7
  0
LINE
  8
LC-001-005-----0
  6
CONTINUOUS
  5
1C6
 10
702.027185
 20
468.681947
 30
0.0
 11
705.541691
 21
472.196453
 31
0.0
  0
LINE
  8
LC-001-005-----0
  6
CONTINUOUS
  5
1C7
 10
699.756893
 20
470.654296
 30
0.0
 11
702.634881
 21
473.532284
 31
0.0
  0
LINE
  8
LC-001-005-----0
  6
CONTINUOUS
  5
1C8
 10
699.756893
 20
474.896937
 30
0.0
 11
702.632242
 21
477.772286
 31
0.0
  0
LINE
  8
LC-001-005-----0
  6
CONTINUOUS
  5
1C9
 10
703.409637
 20
478.54968
 30
0.0
 11
706.405643
 21
481.545687
 31
0.0
  0
LINE
  8
LC-001-005-----0
  6
CONTINUOUS
  5
1CA
 10
699.756893
 20
479.139577
 30
0.0
 11
703.274126
 21
482.656811
 31
0.0
  0
LINE
  8
LC-001-005-----0
  6
CONTINUOUS
  5
1CB
 10
699.756893
 20
483.382218
 30
0.0
 11
702.613393
 21
486.238718
 31
0.0
  0
LINE
  8
LC-001-005-----0
  6
CONTINUOUS
  5
1CC
 10
705.273877
 20
488.899202
 30
0.0
 11
706.405643
 21
490.030968
 31
0.0
  0
LINE
  8
LC-001-005-----0
  6
CONTINUOUS
  5
1CD
 10
699.756893
 20
487.624859
 30
0.0
 11
704.348265
 21
492.216231
 31
0.0
  0
LINE
  8
LC-001-005-----0
  6
CONTINUOUS
  5
1CE
 10
699.756893
 20
491.867499
 30
0.0
 11
702.613393
 21
494.723999
 31
0.0
  0
LINE
  8
LC-001-005-----0
  6
CONTINUOUS
  5
1CF
 10
699.756893
 20
496.11014
 30
0.0
 11
705.424585
 21
501.777832
 31
0.0
  0
LINE
  8
LC-001-005-----0
  6
CONTINUOUS
  5
1D0
 10
699.756893
 20
500.352781
 30
0.0
 11
702.616236
 21
503.212124
 31
0.0
  0
LINE
  8
LC-001-005-----0
  6
CONTINUOUS
  5
1D1
 10
699.756893
 20
504.595421
 30
0.0
 11
702.703454
 21
507.541982
 31
0.0
  0
LINE
  8
LC-001-005-----0
  6
CONTINUOUS
  5
1D2
 10
703.186921
 20
508.025449
 30
0.0
 11
706.405643
 21
511.244171
 31
0.0
  0
LINE
  8
LC-001-005-----0
  6
CONTINUOUS
  5
1D3
 10
699.756893
 20
508.838062
 30
0.0
 11
703.169173
 21
512.250342
 31
0.0
  0
LINE
  8
LC-001-005-----0
  6
CONTINUOUS
  5
1D4
 10
699.756893
 20
513.080703
 30
0.0
 11
702.613393
 21
515.937203
 31
0.0
  0
LINE
  8
LC-001-005-----0
  6
CONTINUOUS
  5
1D5
 10
705.071043
 20
518.394853
 30
0.0
 11
706.405643
 21
519.729453
 31
0.0
  0
LINE
  8
LC-001-005-----0
  6
CONTINUOUS
  5
1D6
 10
699.756893
 20
517.323343
 30
0.0
 11
704.231159
 21
521.797609
 31
0.0
  0
LINE
  8
LC-001-005-----0
  6
CONTINUOUS
  5
1D7
 10
699.756893
 20
521.565984
 30
0.0
 11
702.613393
 21
524.422484
 31
0.0
  0
LINE
  8
LC-001-005-----0
  6
CONTINUOUS
  5
1D8
 10
699.756893
 20
525.808625
 30
0.0
 11
705.307478
 21
531.35921
 31
0.0
  0
LINE
  8
LC-001-005-----0
  6
CONTINUOUS
  5
1D9
 10
699.756893
 20
530.051266
 30
0.0
 11
702.613393
 21
532.907766
 31
0.0
  0
LINE
  8
LC-001-005-----0
  6
CONTINUOUS
  5
1DA
 10
699.756893
 20
534.293906
 30
0.0
 11
706.383798
 21
540.920811
 31
0.0
  0
LINE
  8
LC-001-005-----0
  6
CONTINUOUS
  5
1DB
 10
699.756893
 20
538.536547
 30
0.0
 11
703.073658
 21
541.853312
 31
0.0
  0
LINE
  8
LC-001-005-----0
  6
CONTINUOUS
  5
1DC
 10
699.756893
 20
542.779188
 30
0.0
 11
702.613393
 21
545.635688
 31
0.0
  0
LINE
  8
LC-001-005-----0
  6
CONTINUOUS
  5
1DD
 10
704.868209
 20
547.890504
 30
0.0
 11
706.405643
 21
549.427938
 31
0.0
  0
LINE
  8
LC-001-005-----0
  6
CONTINUOUS
  5
1DE
 10
699.756893
 20
547.021828
 30
0.0
 11
704.114052
 21
551.378988
 31
0.0
  0
LINE
  8
LC-001-005-----0
  6
CONTINUOUS
  5
1DF
 10
699.756893
 20
551.264469
 30
0.0
 11
702.613393
 21
554.120969
 31
0.0
  0
LINE
  8
LC-001-005-----0
  6
CONTINUOUS
  5
1E0
 10
699.756893
 20
555.50711
 30
0.0
 11
705.190372
 21
560.940589
 31
0.0
  0
LINE
  8
LC-001-005-----0
  6
CONTINUOUS
  5
1E1
 10
699.756893
 20
559.74975
 30
0.0
 11
702.613393
 21
562.60625
 31
0.0
  0
LINE
  8
LC-001-005-----0
  6
CONTINUOUS
  5
1E2
 10
707.191072
 20
567.18393
 30
0.0
 11
710.099393
 21
570.09225
 31
0.0
  0
LINE
  8
LC-001-005-----0
  6
CONTINUOUS
  5
1E3
 10
699.756893
 20
563.992391
 30
0.0
 11
705.903432
 21
570.13893
 31
0.0
  0
LINE
  8
LC-001-005-----0
  6
CONTINUOUS
  5
1E4
 10
707.372174
 20
571.607672
 30
0.0
 11
710.099393
 21
574.334891
 31
0.0
  0
LINE
  8
LC-001-005-----0
  6
CONTINUOUS
  5
1E5
 10
724.913932
 20
589.14943
 30
0.0
 11
727.725557
 21
591.961055
 31
0.0
  0
LINE
  8
LC-001-005-----0
  6
CONTINUOUS
  5
1E6
 10
699.758041
 20
568.23618
 30
0.0
 11
701.659643
 21
570.137781
 31
0.0
  0
LINE
  8
LC-001-005-----0
  6
CONTINUOUS
  5
1E7
 10
707.372174
 20
575.850313
 30
0.0
 11
710.099393
 21
578.577532
 31
0.0
  0
LINE
  8
LC-001-005-----0
  6
CONTINUOUS
  5
1E8
 10
720.671291
 20
589.14943
 30
0.0
 11
726.105643
 21
594.583782
 31
0.0
  0
LINE
  8
LC-001-005-----0
  6
CONTINUOUS
  5
1E9
 10
707.372174
 20
580.092954
 30
0.0
 11
710.099393
 21
582.820172
 31
0.0
  0
LINE
  8
LC-001-005-----0
  6
CONTINUOUS
  5
1EA
 10
716.42865
 20
589.14943
 30
0.0
 11
719.38365
 21
592.10443
 31
0.0
  0
LINE
  8
LC-001-005-----0
  6
CONTINUOUS
  5
1EB
 10
723.150643
 20
595.871422
 30
0.0
 11
726.105643
 21
598.826422
 31
0.0
  0
LINE
  8
LC-001-005-----0
  6
CONTINUOUS
  5
1EC
 10
707.372174
 20
584.335594
 30
0.0
 11
710.133817
 21
587.097237
 31
0.0
  0
LINE
  8
LC-001-005-----0
  6
CONTINUOUS
  5
1ED
 10
712.151586
 20
589.115006
 30
0.0
 11
715.141009
 21
592.10443
 31
0.0
  0
LINE
  8
LC-001-005-----0
  6
CONTINUOUS
  5
1EE
 10
723.150643
 20
600.114063
 30
0.0
 11
726.105643
 21
603.069063
 31
0.0
  0
LINE
  8
LC-001-005-----0
  6
CONTINUOUS
  5
1EF
 10
707.372174
 20
588.578235
 30
0.0
 11
710.898369
 21
592.10443
 31
0.0
  0
LINE
  8
LC-001-005-----0
  6
CONTINUOUS
  5
1F0
 10
723.150643
 20
604.356704
 30
0.0
 11
726.105643
 21
607.311704
 31
0.0
  0
LINE
  8
LC-001-005-----0
  6
CONTINUOUS
  5
1F1
 10
727.643369
 20
608.84943
 30
0.0
 11
728.568143
 21
609.774204
 31
0.0
  0
LINE
  8
LC-001-005-----0
  6
CONTINUOUS
  5
1F2
 10
723.150643
 20
608.599344
 30
0.0
 11
726.355728
 21
611.80443
 31
0.0
  0
ENDBLK
  8
0
  5
1F3
  0
BLOCK
  8
0
  5
1F5
  2
*X8
 70
    65
 10
511.644393
 20
579.714179
 30
0.0
  3
*X8
  0
LINE
  8
LC-001-005-----0
  6
CONTINUOUS
  5
1F6
 10
534.459345
 20
579.714179
 30
0.0
 11
536.396755
 21
581.651589
 31
0.0
  0
LINE
  8
LC-001-005-----0
  6
CONTINUOUS
  5
1F7
 10
533.873504
 20
581.956765
 30
0.0
 11
536.234202
 21
584.317463
 31
0.0
  0
LINE
  8
LC-001-005-----0
  6
CONTINUOUS
  5
1F8
 10
533.71095
 20
584.622639
 30
0.0
 11
536.071649
 21
586.983337
 31
0.0
  0
LINE
  8
LC-001-005-----0
  6
CONTINUOUS
  5
1F9
 10
532.108442
 20
585.848557
 30
0.0
 11
534.416098
 21
588.156213
 31
0.0
  0
LINE
  8
LC-001-005-----0
  6
CONTINUOUS
  5
1FA
 10
529.507562
 20
586.076105
 30
0.0
 11
531.815218
 21
588.383761
 31
0.0
  0
LINE
  8
LC-001-005-----0
  6
CONTINUOUS
  5
1FB
 10
526.906683
 20
586.303652
 30
0.0
 11
529.214338
 21
588.611308
 31
0.0
  0
LINE
  8
LC-001-005-----0
  6
CONTINUOUS
  5
1FC
 10
524.305803
 20
586.5312
 30
0.0
 11
526.613459
 21
588.838856
 31
0.0
  0
LINE
  8
LC-001-005-----0
  6
CONTINUOUS
  5
1FD
 10
521.704923
 20
586.758747
 30
0.0
 11
524.012579
 21
589.066403
 31
0.0
  0
LINE
  8
LC-001-005-----0
  6
CONTINUOUS
  5
1FE
 10
519.104044
 20
586.986295
 30
0.0
 11
521.4117
 21
589.293951
 31
0.0
  0
LINE
  8
LC-001-005-----0
  6
CONTINUOUS
  5
1FF
 10
516.503164
 20
587.213842
 30
0.0
 11
518.81082
 21
589.521498
 31
0.0
  0
LINE
  8
LC-001-005-----0
  6
CONTINUOUS
  5
200
 10
513.902284
 20
587.44139
 30
0.0
 11
516.20994
 21
589.749046
 31
0.0
  0
LINE
  8
LC-001-005-----0
  6
CONTINUOUS
  5
201
 10
511.644393
 20
588.011925
 30
0.0
 11
513.609061
 21
589.976593
 31
0.0
  0
ENDBLK
  8
0
  5
202
  0
BLOCK
  8
0
  5
204
  2
*X9
 70
    65
 10
535.900491
 20
532.039753
 30
0.0
  3
*X9
  0
LINE
  8
LC-001-005-----0
  6
CONTINUOUS
  5
205
 10
591.457514
 20
532.060544
 30
0.0
 11
591.644393
 21
532.247423
 31
0.0
  0
LINE
  8
LC-001-005-----0
  6
CONTINUOUS
  5
206
 10
588.912251
 20
532.343708
 30
0.0
 11
591.166571
 21
534.598028
 31
0.0
  0
LINE
  8
LC-001-005-----0
  6
CONTINUOUS
  5
207
 10
586.366988
 20
532.626872
 30
0.0
 11
588.621978
 21
534.881862
 31
0.0
  0
LINE
  8
LC-001-005-----0
  6
CONTINUOUS
  5
208
 10
583.821725
 20
532.910036
 30
0.0
 11
586.077385
 21
535.165697
 31
0.0
  0
LINE
  8
LC-001-005-----0
  6
CONTINUOUS
  5
209
 10
581.276462
 20
533.1932
 30
0.0
 11
583.532792
 21
535.449531
 31
0.0
  0
LINE
  8
LC-001-005-----0
  6
CONTINUOUS
  5
20A
 10
578.731199
 20
533.476365
 30
0.0
 11
580.9882
 21
535.733366
 31
0.0
  0
LINE
  8
LC-001-005-----0
  6
CONTINUOUS
  5
20B
 10
576.185936
 20
533.759529
 30
0.0
 11
578.443607
 21
536.0172
 31
0.0
  0
LINE
  8
LC-001-005-----0
  6
CONTINUOUS
  5
20C
 10
573.640673
 20
534.042693
 30
0.0
 11
575.899014
 21
536.301035
 31
0.0
  0
LINE
  8
LC-001-005-----0
  6
CONTINUOUS
  5
20D
 10
571.09541
 20
534.325857
 30
0.0
 11
573.354422
 21
536.584869
 31
0.0
  0
LINE
  8
LC-001-005-----0
  6
CONTINUOUS
  5
20E
 10
568.550147
 20
534.609021
 30
0.0
 11
570.809829
 21
536.868703
 31
0.0
  0
LINE
  8
LC-001-005-----0
  6
CONTINUOUS
  5
20F
 10
566.004884
 20
534.892185
 30
0.0
 11
568.265236
 21
537.152538
 31
0.0
  0
LINE
  8
LC-001-005-----0
  6
CONTINUOUS
  5
210
 10
563.459621
 20
535.175349
 30
0.0
 11
565.720644
 21
537.436372
 31
0.0
  0
LINE
  8
LC-001-005-----0
  6
CONTINUOUS
  5
211
 10
560.914358
 20
535.458513
 30
0.0
 11
563.176051
 21
537.720207
 31
0.0
  0
LINE
  8
LC-001-005-----0
  6
CONTINUOUS
  5
212
 10
558.369095
 20
535.741678
 30
0.0
 11
560.631458
 21
538.004041
 31
0.0
  0
LINE
  8
LC-001-005-----0
  6
CONTINUOUS
  5
213
 10
555.823832
 20
536.024842
 30
0.0
 11
558.086866
 21
538.287876
 31
0.0
  0
LINE
  8
LC-001-005-----0
  6
CONTINUOUS
  5
214
 10
553.278569
 20
536.308006
 30
0.0
 11
555.542273
 21
538.57171
 31
0.0
  0
LINE
  8
LC-001-005-----0
  6
CONTINUOUS
  5
215
 10
550.733306
 20
536.59117
 30
0.0
 11
552.99768
 21
538.855545
 31
0.0
  0
LINE
  8
LC-001-005-----0
  6
CONTINUOUS
  5
216
 10
548.188043
 20
536.874334
 30
0.0
 11
550.453087
 21
539.139379
 31
0.0
  0
LINE
  8
LC-001-005-----0
  6
CONTINUOUS
  5
217
 10
545.64278
 20
537.157498
 30
0.0
 11
547.908495
 21
539.423213
 31
0.0
  0
LINE
  8
LC-001-005-----0
  6
CONTINUOUS
  5
218
 10
543.345354
 20
537.6885
 30
0.0
 11
545.369362
 21
539.712507
 31
0.0
  0
LINE
  8
LC-001-005-----0
  6
CONTINUOUS
  5
219
 10
541.547343
 20
538.718916
 30
0.0
 11
543.347602
 21
540.519175
 31
0.0
  0
LINE
  8
LC-001-005-----0
  6
CONTINUOUS
  5
21A
 10
540.143498
 20
540.143498
 30
0.0
 11
541.954677
 21
541.954677
 31
0.0
  0
LINE
  8
LC-001-005-----0
  6
CONTINUOUS
  5
21B
 10
539.136349
 20
541.964776
 30
0.0
 11
541.204951
 21
544.033378
 31
0.0
  0
LINE
  8
LC-001-005-----0
  6
CONTINUOUS
  5
21C
 10
538.64765
 20
544.304505
 30
0.0
 11
540.731229
 21
546.388084
 31
0.0
  0
LINE
  8
LC-001-005-----0
  6
CONTINUOUS
  5
21D
 10
537.438967
 20
545.924248
 30
0.0
 11
539.317016
 21
547.802297
 31
0.0
  0
LINE
  8
LC-001-005-----0
  6
CONTINUOUS
  5
21E
 10
536.024753
 20
547.338462
 30
0.0
 11
537.40047
 21
548.714179
 31
0.0
  0
ENDBLK
  8
0
  5
21F
  0
BLOCK
  8
0
  5
221
  2
*X10
 70
    65
 10
595.644393
 20
530.148479
 30
0.0
  3
*X10
  0
LINE
  8
LC-001-005-----0
  6
CONTINUOUS
  5
222
 10
606.729092
 20
530.361559
 30
0.0
 11
608.644393
 21
532.276861
 31
0.0
  0
LINE
  8
LC-001-005-----0
  6
CONTINUOUS
  5
223
 10
604.183829
 20
530.644723
 30
0.0
 11
606.434127
 21
532.895021
 31
0.0
  0
LINE
  8
LC-001-005-----0
  6
CONTINUOUS
  5
224
 10
601.638566
 20
530.927887
 30
0.0
 11
603.889534
 21
533.178856
 31
0.0
  0
LINE
  8
LC-001-005-----0
  6
CONTINUOUS
  5
225
 10
599.093303
 20
531.211052
 30
0.0
 11
601.344941
 21
533.46269
 31
0.0
  0
LINE
  8
LC-001-005-----0
  6
CONTINUOUS
  5
226
 10
596.54804
 20
531.494216
 30
0.0
 11
598.800349
 21
533.746525
 31
0.0
  0
LINE
  8
LC-001-005-----0
  6
CONTINUOUS
  5
227
 10
595.644393
 20
533.418996
 30
0.0
 11
596.255756
 21
534.030359
 31
0.0
  0
ENDBLK
  8
0
  5
228
  0
BLOCK
  8
0
  5
22A
  2
*X11
 70
    65
 10
608.644393
 20
530.148479
 30
0.0
  3
*X11
  0
LINE
  8
LC-001-005-----0
  6
CONTINUOUS
  5
22B
 10
618.979517
 20
531.298276
 30
0.0
 11
621.644393
 21
533.963152
 31
0.0
  0
LINE
  8
LC-001-005-----0
  6
CONTINUOUS
  5
22C
 10
615.797034
 20
530.944221
 30
0.0
 11
618.613262
 21
533.760448
 31
0.0
  0
LINE
  8
LC-001-005-----0
  6
CONTINUOUS
  5
22D
 10
612.614552
 20
530.590165
 30
0.0
 11
615.42973
 21
533.405344
 31
0.0
  0
LINE
  8
LC-001-005-----0
  6
CONTINUOUS
  5
22E
 10
609.432069
 20
530.236109
 30
0.0
 11
612.246199
 21
533.05024
 31
0.0
  0
LINE
  8
LC-001-005-----0
  6
CONTINUOUS
  5
22F
 10
608.644393
 20
532.276861
 30
0.0
 11
609.062668
 21
532.695135
 31
0.0
  0
ENDBLK
  8
0
  5
230
  0
BLOCK
  8
0
  5
232
  2
*X12
 70
    65
 10
625.644393
 20
532.039753
 30
0.0
  3
*X12
  0
LINE
  8
LC-001-005-----0
  6
CONTINUOUS
  5
233
 10
673.19841
 20
537.433908
 30
0.0
 11
678.363598
 21
542.599096
 31
0.0
  0
LINE
  8
LC-001-005-----0
  6
CONTINUOUS
  5
234
 10
669.899243
 20
536.963168
 30
0.0
 11
672.918524
 21
539.98245
 31
0.0
  0
LINE
  8
LC-001-005-----0
  6
CONTINUOUS
  5
235
 10
675.787844
 20
542.851769
 30
0.0
 11
681.371285
 21
548.43521
 31
0.0
  0
LINE
  8
LC-001-005-----0
  6
CONTINUOUS
  5
236
 10
666.71676
 20
536.609113
 30
0.0
 11
669.549765
 21
539.442117
 31
0.0
  0
LINE
  8
LC-001-005-----0
  6
CONTINUOUS
  5
237
 10
663.534277
 20
536.255057
 30
0.0
 11
666.366233
 21
539.087013
 31
0.0
  0
LINE
  8
LC-001-005-----0
  6
CONTINUOUS
  5
238
 10
660.351795
 20
535.901001
 30
0.0
 11
663.182702
 21
538.731909
 31
0.0
  0
LINE
  8
LC-001-005-----0
  6
CONTINUOUS
  5
239
 10
657.169312
 20
535.546945
 30
0.0
 11
659.999171
 21
538.376804
 31
0.0
  0
LINE
  8
LC-001-005-----0
  6
CONTINUOUS
  5
23A
 10
653.986829
 20
535.19289
 30
0.0
 11
656.815639
 21
538.0217
 31
0.0
  0
LINE
  8
LC-001-005-----0
  6
CONTINUOUS
  5
23B
 10
650.804346
 20
534.838834
 30
0.0
 11
653.632108
 21
537.666596
 31
0.0
  0
LINE
  8
LC-001-005-----0
  6
CONTINUOUS
  5
23C
 10
647.621863
 20
534.484778
 30
0.0
 11
650.448576
 21
537.311491
 31
0.0
  0
LINE
  8
LC-001-005-----0
  6
CONTINUOUS
  5
23D
 10
644.43938
 20
534.130722
 30
0.0
 11
647.265045
 21
536.956387
 31
0.0
  0
LINE
  8
LC-001-005-----0
  6
CONTINUOUS
  5
23E
 10
641.256897
 20
533.776667
 30
0.0
 11
644.081513
 21
536.601283
 31
0.0
  0
LINE
  8
LC-001-005-----0
  6
CONTINUOUS
  5
23F
 10
638.074414
 20
533.422611
 30
0.0
 11
640.897982
 21
536.246178
 31
0.0
  0
LINE
  8
LC-001-005-----0
  6
CONTINUOUS
  5
240
 10
634.891932
 20
533.068555
 30
0.0
 11
637.714451
 21
535.891074
 31
0.0
  0
LINE
  8
LC-001-005-----0
  6
CONTINUOUS
  5
241
 10
631.709449
 20
532.714499
 30
0.0
 11
634.530919
 21
535.53597
 31
0.0
  0
LINE
  8
LC-001-005-----0
  6
CONTINUOUS
  5
242
 10
628.526966
 20
532.360444
 30
0.0
 11
631.347388
 21
535.180865
 31
0.0
  0
LINE
  8
LC-001-005-----0
  6
CONTINUOUS
  5
243
 10
625.644393
 20
532.306298
 30
0.0
 11
628.163856
 21
534.825761
 31
0.0
  0
ENDBLK
  8
0
  5
244
  0
BLOCK
  8
0
  5
246
  2
*X13
 70
    65
 10
680.773896
 20
579.714179
 30
0.0
  3
*X13
  0
LINE
  8
LC-001-005-----0
  6
CONTINUOUS
  5
247
 10
703.408858
 20
587.443346
 30
0.0
 11
705.644393
 21
589.678881
 31
0.0
  0
LINE
  8
LC-001-005-----0
  6
CONTINUOUS
  5
248
 10
700.30925
 20
587.172165
 30
0.0
 11
703.059407
 21
589.922322
 31
0.0
  0
LINE
  8
LC-001-005-----0
  6
CONTINUOUS
  5
249
 10
697.209642
 20
586.900984
 30
0.0
 11
699.9598
 21
589.651142
 31
0.0
  0
LINE
  8
LC-001-005-----0
  6
CONTINUOUS
  5
24A
 10
694.110035
 20
586.629804
 30
0.0
 11
696.860192
 21
589.379961
 31
0.0
  0
LINE
  8
LC-001-005-----0
  6
CONTINUOUS
  5
24B
 10
691.010427
 20
586.358623
 30
0.0
 11
693.760584
 21
589.108781
 31
0.0
  0
LINE
  8
LC-001-005-----0
  6
CONTINUOUS
  5
24C
 10
681.537555
 20
579.714179
 30
0.0
 11
683.39159
 21
581.568214
 31
0.0
  0
LINE
  8
LC-001-005-----0
  6
CONTINUOUS
  5
24D
 10
687.910819
 20
586.087443
 30
0.0
 11
690.660977
 21
588.8376
 31
0.0
  0
LINE
  8
LC-001-005-----0
  6
CONTINUOUS
  5
24E
 10
680.907972
 20
581.913023
 30
0.0
 11
683.575254
 21
584.580305
 31
0.0
  0
LINE
  8
LC-001-005-----0
  6
CONTINUOUS
  5
24F
 10
684.811212
 20
585.816262
 30
0.0
 11
687.561369
 21
588.56642
 31
0.0
  0
LINE
  8
LC-001-005-----0
  6
CONTINUOUS
  5
250
 10
681.091636
 20
584.925114
 30
0.0
 11
684.461761
 21
588.295239
 31
0.0
  0
LINE
  8
LC-001-005-----0
  6
CONTINUOUS
  5
251
 10
681.2753
 20
587.937205
 30
0.0
 11
681.362154
 21
588.024058
 31
0.0
  0
ENDBLK
  8
0
  5
252
  0
BLOCK
  8
0
  5
254
  2
*D14
 70
    65
 10
0.0
 20
0.0
 30
0.0
  3
*D14
  0
LINE
  8
LC-004-003-MTH-0
  6
CONTINUOUS
  5
255
 10
488.720643
 20
609.83443
 30
0.0
 11
488.720643
 21
690.8
 31
0.0
  0
LINE
  8
LC-004-003-MTH-0
  6
CONTINUOUS
  5
256
 10
728.568143
 20
609.83443
 30
0.0
 11
728.568143
 21
690.8
 31
0.0
  0
LINE
  8
LC-005-003-MTG-0
  6
CONTINUOUS
  5
257
 10
488.720643
 20
680.0
 30
0.0
 11
728.568143
 21
680.0
 31
0.0
  0
LINE
  8
LC-003-003-----0
  6
CONTINUOUS
  5
258
 10
506.566651
 20
682.349471
 30
0.0
 11
488.720643
 21
680.0
 31
0.0
  0
LINE
  8
LC-003-003-----0
  6
CONTINUOUS
  5
259
 10
488.720643
 20
680.0
 30
0.0
 11
506.566651
 21
677.650529
 31
0.0
  0
LINE
  8
LC-003-003-----0
  6
CONTINUOUS
  5
25A
 10
506.566651
 20
677.650529
 30
0.0
 11
506.566651
 21
682.349471
 31
0.0
  0
LINE
  8
LC-003-003-----0
  6
CONTINUOUS
  5
25B
 10
506.606689
 20
681.738609
 30
0.0
 11
493.400643
 21
680.0
 31
0.0
  0
LINE
  8
LC-003-003-----0
  6
CONTINUOUS
  5
25C
 10
493.400643
 20
680.0
 30
0.0
 11
506.606689
 21
678.261391
 31
0.0
  0
LINE
  8
LC-003-003-----0
  6
CONTINUOUS
  5
25D
 10
506.646727
 20
681.127746
 30
0.0
 11
498.080643
 21
680.0
 31
0.0
  0
LINE
  8
LC-003-003-----0
  6
CONTINUOUS
  5
25E
 10
498.080643
 20
680.0
 30
0.0
 11
506.646727
 21
678.872254
 31
0.0
  0
LINE
  8
LC-003-003-----0
  6
CONTINUOUS
  5
25F
 10
506.686765
 20
680.516884
 30
0.0
 11
502.760643
 21
680.0
 31
0.0
  0
LINE
  8
LC-003-003-----0
  6
CONTINUOUS
  5
260
 10
502.760643
 20
680.0
 30
0.0
 11
506.686765
 21
679.483116
 31
0.0
  0
LINE
  8
LC-003-003-----0
  6
CONTINUOUS
  5
261
 10
710.722136
 20
677.650529
 30
0.0
 11
728.568143
 21
680.0
 31
0.0
  0
LINE
  8
LC-003-003-----0
  6
CONTINUOUS
  5
262
 10
728.568143
 20
680.0
 30
0.0
 11
710.722136
 21
682.349471
 31
0.0
  0
LINE
  8
LC-003-003-----0
  6
CONTINUOUS
  5
263
 10
710.722136
 20
682.349471
 30
0.0
 11
710.722136
 21
677.650529
 31
0.0
  0
LINE
  8
LC-003-003-----0
  6
CONTINUOUS
  5
264
 10
710.682097
 20
678.261391
 30
0.0
 11
723.888143
 21
680.0
 31
0.0
  0
LINE
  8
LC-003-003-----0
  6
CONTINUOUS
  5
265
 10
723.888143
 20
680.0
 30
0.0
 11
710.682097
 21
681.738609
 31
0.0
  0
LINE
  8
LC-003-003-----0
  6
CONTINUOUS
  5
266
 10
710.642059
 20
678.872254
 30
0.0
 11
719.208143
 21
680.0
 31
0.0
  0
LINE
  8
LC-003-003-----0
  6
CONTINUOUS
  5
267
 10
719.208143
 20
680.0
 30
0.0
 11
710.642059
 21
681.127746
 31
0.0
  0
LINE
  8
LC-003-003-----0
  6
CONTINUOUS
  5
268
 10
710.602021
 20
679.483116
 30
0.0
 11
714.528143
 21
680.0
 31
0.0
  0
LINE
  8
LC-003-003-----0
  6
CONTINUOUS
  5
269
 10
714.528143
 20
680.0
 30
0.0
 11
710.602021
 21
680.516884
 31
0.0
  0
TEXT
  8
LC-003-003-----0
  6
CONTINUOUS
 62
     6
  5
26A
 10
596.381527
 20
690.431999
 30
0.0
 40
18.0
  1
240
 51
15.0
  7
LC-TXTSTYLE-150-400-0-0-D0
 72
     1
 11
615.515385
 21
690.431999
 31
0.0
  0
ENDBLK
  8
0
  5
26B
  0
BLOCK
  8
0
  5
26D
  2
*X15
 70
    65
 10
702.644393
 20
472.369896
 30
0.0
  3
*X15
  0
LINE
  8
LC-001-005-----0
  6
CONTINUOUS
  5
26E
 10
706.012765
 20
472.667527
 30
0.0
 11
706.846762
 21
473.501524
 31
0.0
  0
LINE
  8
LC-001-005-----0
  6
CONTINUOUS
  5
26F
 10
705.521429
 20
472.459034
 30
0.0
 11
707.055255
 21
473.99286
 31
0.0
  0
LINE
  8
LC-001-005-----0
  6
CONTINUOUS
  5
270
 10
705.165888
 20
472.386336
 30
0.0
 11
707.127953
 21
474.348401
 31
0.0
  0
LINE
  8
LC-001-005-----0
  6
CONTINUOUS
  5
271
 10
704.866775
 20
472.370066
 30
0.0
 11
707.144393
 21
474.647683
 31
0.0
  0
LINE
  8
LC-001-005-----0
  6
CONTINUOUS
  5
272
 10
704.602745
 20
472.388878
 30
0.0
 11
707.144393
 21
474.930526
 31
0.0
  0
LINE
  8
LC-001-005-----0
  6
CONTINUOUS
  5
273
 10
704.364264
 20
472.43324
 30
0.0
 11
707.144393
 21
475.213369
 31
0.0
  0
LINE
  8
LC-001-005-----0
  6
CONTINUOUS
  5
274
 10
704.14614
 20
472.497959
 30
0.0
 11
707.144393
 21
475.496212
 31
0.0
  0
LINE
  8
LC-001-005-----0
  6
CONTINUOUS
  5
275
 10
703.945235
 20
472.579896
 30
0.0
 11
707.144393
 21
475.779054
 31
0.0
  0
LINE
  8
LC-001-005-----0
  6
CONTINUOUS
  5
276
 10
703.759551
 20
472.677055
 30
0.0
 11
707.144393
 21
476.061897
 31
0.0
  0
LINE
  8
LC-001-005-----0
  6
CONTINUOUS
  5
277
 10
703.587799
 20
472.788145
 30
0.0
 11
707.144393
 21
476.34474
 31
0.0
  0
LINE
  8
LC-001-005-----0
  6
CONTINUOUS
  5
278
 10
703.429179
 20
472.912369
 30
0.0
 11
707.144393
 21
476.627582
 31
0.0
  0
LINE
  8
LC-001-005-----0
  6
CONTINUOUS
  5
279
 10
703.283267
 20
473.049299
 30
0.0
 11
707.135156
 21
476.901188
 31
0.0
  0
LINE
  8
LC-001-005-----0
  6
CONTINUOUS
  5
27A
 10
703.149954
 20
473.198829
 30
0.0
 11
707.098885
 21
477.14776
 31
0.0
  0
LINE
  8
LC-001-005-----0
  6
CONTINUOUS
  5
27B
 10
703.029436
 20
473.361153
 30
0.0
 11
707.040767
 21
477.372485
 31
0.0
  0
LINE
  8
LC-001-005-----0
  6
CONTINUOUS
  5
27C
 10
702.922237
 20
473.536798
 30
0.0
 11
706.964507
 21
477.579068
 31
0.0
  0
LINE
  8
LC-001-005-----0
  6
CONTINUOUS
  5
27D
 10
702.829284
 20
473.726687
 30
0.0
 11
706.872432
 21
477.769835
 31
0.0
  0
LINE
  8
LC-001-005-----0
  6
CONTINUOUS
  5
27E
 10
702.752037
 20
473.932283
 30
0.0
 11
706.766043
 21
477.946289
 31
0.0
  0
LINE
  8
LC-001-005-----0
  6
CONTINUOUS
  5
27F
 10
702.692765
 20
474.155854
 30
0.0
 11
706.646292
 21
478.10938
 31
0.0
  0
LINE
  8
LC-001-005-----0
  6
CONTINUOUS
  5
280
 10
702.655066
 20
474.400998
 30
0.0
 11
706.513724
 21
478.259655
 31
0.0
  0
LINE
  8
LC-001-005-----0
  6
CONTINUOUS
  5
281
 10
702.644393
 20
474.673167
 30
0.0
 11
706.368554
 21
478.397328
 31
0.0
  0
LINE
  8
LC-001-005-----0
  6
CONTINUOUS
  5
282
 10
702.644393
 20
474.956009
 30
0.0
 11
706.210692
 21
478.522309
 31
0.0
  0
LINE
  8
LC-001-005-----0
  6
CONTINUOUS
  5
283
 10
702.644393
 20
475.238852
 30
0.0
 11
706.039732
 21
478.634191
 31
0.0
  0
LINE
  8
LC-001-005-----0
  6
CONTINUOUS
  5
284
 10
702.644393
 20
475.521695
 30
0.0
 11
705.854899
 21
478.732201
 31
0.0
  0
LINE
  8
LC-001-005-----0
  6
CONTINUOUS
  5
285
 10
702.644393
 20
475.804538
 30
0.0
 11
705.654938
 21
478.815082
 31
0.0
  0
LINE
  8
LC-001-005-----0
  6
CONTINUOUS
  5
286
 10
702.644393
 20
476.08738
 30
0.0
 11
705.437901
 21
478.880888
 31
0.0
  0
LINE
  8
LC-001-005-----0
  6
CONTINUOUS
  5
287
 10
702.644393
 20
476.370223
 30
0.0
 11
705.200737
 21
478.926567
 31
0.0
  0
LINE
  8
LC-001-005-----0
  6
CONTINUOUS
  5
288
 10
702.644393
 20
476.653066
 30
0.0
 11
704.938416
 21
478.947089
 31
0.0
  0
LINE
  8
LC-001-005-----0
  6
CONTINUOUS
  5
289
 10
702.658619
 20
476.950134
 30
0.0
 11
704.641778
 21
478.933294
 31
0.0
  0
LINE
  8
LC-001-005-----0
  6
CONTINUOUS
  5
28A
 10
702.726908
 20
477.301267
 30
0.0
 11
704.290646
 21
478.865004
 31
0.0
  0
LINE
  8
LC-001-005-----0
  6
CONTINUOUS
  5
28B
 10
702.920805
 20
477.778006
 30
0.0
 11
703.813907
 21
478.671107
 31
0.0
  0
ENDBLK
  8
0
  5
28C
  0
BLOCK
  8
0
  5
28E
  2
*X16
 70
    65
 10
672.943887
 20
586.056161
 30
0.0
  3
*X16
  0
LINE
  8
LC-001-005-----0
  6
CONTINUOUS
  5
28F
 10
683.105711
 20
588.353402
 30
0.0
 11
683.187641
 21
588.435332
 31
0.0
  0
LINE
  8
LC-001-005-----0
  6
CONTINUOUS
  5
290
 10
681.443004
 20
588.104909
 30
0.0
 11
683.316277
 21
589.978182
 31
0.0
  0
LINE
  8
LC-001-005-----0
  6
CONTINUOUS
  5
291
 10
678.617644
 20
586.693762
 30
0.0
 11
682.157835
 21
590.233953
 31
0.0
  0
LINE
  8
LC-001-005-----0
  6
CONTINUOUS
  5
292
 10
676.954937
 20
586.445269
 30
0.0
 11
680.495128
 21
589.98546
 31
0.0
  0
LINE
  8
LC-001-005-----0
  6
CONTINUOUS
  5
293
 10
675.29223
 20
586.196776
 30
0.0
 11
679.61404
 21
590.518586
 31
0.0
  0
LINE
  8
LC-001-005-----0
  6
CONTINUOUS
  5
294
 10
673.998502
 20
586.317261
 30
0.0
 11
678.332368
 21
590.651127
 31
0.0
  0
LINE
  8
LC-001-005-----0
  6
CONTINUOUS
  5
295
 10
673.227337
 20
586.96031
 30
0.0
 11
676.669661
 21
590.402634
 31
0.0
  0
LINE
  8
LC-001-005-----0
  6
CONTINUOUS
  5
296
 10
673.043462
 20
588.190648
 30
0.0
 11
675.006955
 21
590.154141
 31
0.0
  0
ENDBLK
  8
0
  5
297
  0
BLOCK
  8
0
  5
299
  2
BLK1
 70
    64
 10
0.0
 20
0.0
 30
0.0
  3
BLK1
  0
ENDBLK
  8
0
  5
29A
  0
BLOCK
  8
0
  5
29C
  2
*X18
 70
    65
 10
519.644393
 20
325.91747
 30
0.0
  3
*X18
  0
LINE
  8
LC-001-005-----0
  6
CONTINUOUS
  5
29D
 10
606.33837
 20
326.324084
 30
0.0
 11
608.644393
 21
328.630108
 31
0.0
  0
LINE
  8
LC-001-005-----0
  6
CONTINUOUS
  5
29E
 10
603.933913
 20
326.748055
 30
0.0
 11
606.523567
 21
329.337709
 31
0.0
  0
LINE
  8
LC-001-005-----0
  6
CONTINUOUS
  5
29F
 10
601.529456
 20
327.172025
 30
0.0
 11
604.11911
 21
329.761679
 31
0.0
  0
LINE
  8
LC-001-005-----0
  6
CONTINUOUS
  5
2A0
 10
599.125
 20
327.595996
 30
0.0
 11
601.714654
 21
330.18565
 31
0.0
  0
LINE
  8
LC-001-005-----0
  6
CONTINUOUS
  5
2A1
 10
596.720543
 20
328.019966
 30
0.0
 11
599.310197
 21
330.60962
 31
0.0
  0
LINE
  8
LC-001-005-----0
  6
CONTINUOUS
  5
2A2
 10
594.316087
 20
328.443937
 30
0.0
 11
596.905741
 21
331.033591
 31
0.0
  0
LINE
  8
LC-001-005-----0
  6
CONTINUOUS
  5
2A3
 10
591.91163
 20
328.867908
 30
0.0
 11
594.501284
 21
331.457562
 31
0.0
  0
LINE
  8
LC-001-005-----0
  6
CONTINUOUS
  5
2A4
 10
589.507174
 20
329.291878
 30
0.0
 11
592.096828
 21
331.881532
 31
0.0
  0
LINE
  8
LC-001-005-----0
  6
CONTINUOUS
  5
2A5
 10
587.102717
 20
329.715849
 30
0.0
 11
589.692371
 21
332.305503
 31
0.0
  0
LINE
  8
LC-001-005-----0
  6
CONTINUOUS
  5
2A6
 10
584.69826
 20
330.139819
 30
0.0
 11
587.287914
 21
332.729473
 31
0.0
  0
LINE
  8
LC-001-005-----0
  6
CONTINUOUS
  5
2A7
 10
582.293804
 20
330.56379
 30
0.0
 11
584.883458
 21
333.153444
 31
0.0
  0
LINE
  8
LC-001-005-----0
  6
CONTINUOUS
  5
2A8
 10
579.889347
 20
330.98776
 30
0.0
 11
582.479001
 21
333.577414
 31
0.0
  0
LINE
  8
LC-001-005-----0
  6
CONTINUOUS
  5
2A9
 10
577.484891
 20
331.411731
 30
0.0
 11
580.074545
 21
334.001385
 31
0.0
  0
LINE
  8
LC-001-005-----0
  6
CONTINUOUS
  5
2AA
 10
575.080434
 20
331.835702
 30
0.0
 11
577.670088
 21
334.425355
 31
0.0
  0
LINE
  8
LC-001-005-----0
  6
CONTINUOUS
  5
2AB
 10
572.675978
 20
332.259672
 30
0.0
 11
575.265632
 21
334.849326
 31
0.0
  0
LINE
  8
LC-001-005-----0
  6
CONTINUOUS
  5
2AC
 10
570.271521
 20
332.683643
 30
0.0
 11
572.861175
 21
335.273297
 31
0.0
  0
LINE
  8
LC-001-005-----0
  6
CONTINUOUS
  5
2AD
 10
567.867065
 20
333.107613
 30
0.0
 11
570.456719
 21
335.697267
 31
0.0
  0
LINE
  8
LC-001-005-----0
  6
CONTINUOUS
  5
2AE
 10
565.462608
 20
333.531584
 30
0.0
 11
568.052262
 21
336.121238
 31
0.0
  0
LINE
  8
LC-001-005-----0
  6
CONTINUOUS
  5
2AF
 10
563.058151
 20
333.955554
 30
0.0
 11
565.647805
 21
336.545208
 31
0.0
  0
LINE
  8
LC-001-005-----0
  6
CONTINUOUS
  5
2B0
 10
560.653695
 20
334.379525
 30
0.0
 11
563.243349
 21
336.969179
 31
0.0
  0
LINE
  8
LC-001-005-----0
  6
CONTINUOUS
  5
2B1
 10
558.249238
 20
334.803495
 30
0.0
 11
560.838892
 21
337.393149
 31
0.0
  0
LINE
  8
LC-001-005-----0
  6
CONTINUOUS
  5
2B2
 10
555.844782
 20
335.227466
 30
0.0
 11
558.434436
 21
337.81712
 31
0.0
  0
LINE
  8
LC-001-005-----0
  6
CONTINUOUS
  5
2B3
 10
553.440325
 20
335.651437
 30
0.0
 11
556.029979
 21
338.241091
 31
0.0
  0
LINE
  8
LC-001-005-----0
  6
CONTINUOUS
  5
2B4
 10
551.059581
 20
336.099119
 30
0.0
 11
553.625523
 21
338.665061
 31
0.0
  0
LINE
  8
LC-001-005-----0
  6
CONTINUOUS
  5
2B5
 10
548.839528
 20
336.707494
 30
0.0
 11
551.265031
 21
339.132997
 31
0.0
  0
LINE
  8
LC-001-005-----0
  6
CONTINUOUS
  5
2B6
 10
546.780324
 20
337.476717
 30
0.0
 11
549.094251
 21
339.790644
 31
0.0
  0
LINE
  8
LC-001-005-----0
  6
CONTINUOUS
  5
2B7
 10
544.863535
 20
338.388355
 30
0.0
 11
547.097915
 21
340.622734
 31
0.0
  0
LINE
  8
LC-001-005-----0
  6
CONTINUOUS
  5
2B8
 10
543.076721
 20
339.429968
 30
0.0
 11
545.255816
 21
341.609063
 31
0.0
  0
LINE
  8
LC-001-005-----0
  6
CONTINUOUS
  5
2B9
 10
541.411585
 20
340.593259
 30
0.0
 11
543.555072
 21
342.736746
 31
0.0
  0
LINE
  8
LC-001-005-----0
  6
CONTINUOUS
  5
2BA
 10
539.862937
 20
341.873038
 30
0.0
 11
541.987854
 21
343.997955
 31
0.0
  0
LINE
  8
LC-001-005-----0
  6
CONTINUOUS
  5
2BB
 10
538.428119
 20
343.266647
 30
0.0
 11
540.55022
 21
345.388748
 31
0.0
  0
LINE
  8
LC-001-005-----0
  6
CONTINUOUS
  5
2BC
 10
537.10673
 20
344.773686
 30
0.0
 11
539.241581
 21
346.908536
 31
0.0
  0
LINE
  8
LC-001-005-----0
  6
CONTINUOUS
  5
2BD
 10
535.90059
 20
346.395972
 30
0.0
 11
538.064623
 21
348.560005
 31
0.0
  0
LINE
  8
LC-001-005-----0
  6
CONTINUOUS
  5
2BE
 10
534.813917
 20
348.137727
 30
0.0
 11
537.025664
 21
350.349473
 31
0.0
  0
LINE
  8
LC-001-005-----0
  6
CONTINUOUS
  5
2BF
 10
533.853788
 20
350.006025
 30
0.0
 11
536.135557
 21
352.287794
 31
0.0
  0
LINE
  8
LC-001-005-----0
  6
CONTINUOUS
  5
2C0
 10
533.030974
 20
352.011638
 30
0.0
 11
535.411481
 21
354.392145
 31
0.0
  0
LINE
  8
LC-001-005-----0
  6
CONTINUOUS
  5
2C1
 10
532.361437
 20
354.170528
 30
0.0
 11
534.880398
 21
356.689489
 31
0.0
  0
LINE
  8
LC-001-005-----0
  6
CONTINUOUS
  5
2C2
 10
531.869053
 20
356.506571
 30
0.0
 11
534.577276
 21
359.214794
 31
0.0
  0
LINE
  8
LC-001-005-----0
  6
CONTINUOUS
  5
2C3
 10
531.580541
 20
359.046487
 30
0.0
 11
534.349728
 21
361.815674
 31
0.0
  0
LINE
  8
LC-001-005-----0
  6
CONTINUOUS
  5
2C4
 10
531.352994
 20
361.647366
 30
0.0
 11
534.122181
 21
364.416553
 31
0.0
  0
LINE
  8
LC-001-005-----0
  6
CONTINUOUS
  5
2C5
 10
531.125446
 20
364.248246
 30
0.0
 11
533.894633
 21
367.017433
 31
0.0
  0
LINE
  8
LC-001-005-----0
  6
CONTINUOUS
  5
2C6
 10
530.897899
 20
366.849126
 30
0.0
 11
533.667086
 21
369.618313
 31
0.0
  0
LINE
  8
LC-001-005-----0
  6
CONTINUOUS
  5
2C7
 10
530.670351
 20
369.450005
 30
0.0
 11
533.439539
 21
372.219192
 31
0.0
  0
LINE
  8
LC-001-005-----0
  6
CONTINUOUS
  5
2C8
 10
530.442804
 20
372.050885
 30
0.0
 11
533.211991
 21
374.820072
 31
0.0
  0
LINE
  8
LC-001-005-----0
  6
CONTINUOUS
  5
2C9
 10
530.215257
 20
374.651765
 30
0.0
 11
532.984444
 21
377.420952
 31
0.0
  0
LINE
  8
LC-001-005-----0
  6
CONTINUOUS
  5
2CA
 10
529.987709
 20
377.252644
 30
0.0
 11
532.756896
 21
380.021831
 31
0.0
  0
LINE
  8
LC-001-005-----0
  6
CONTINUOUS
  5
2CB
 10
529.760162
 20
379.853524
 30
0.0
 11
532.529349
 21
382.622711
 31
0.0
  0
LINE
  8
LC-001-005-----0
  6
CONTINUOUS
  5
2CC
 10
529.532614
 20
382.454404
 30
0.0
 11
532.301801
 21
385.223591
 31
0.0
  0
LINE
  8
LC-001-005-----0
  6
CONTINUOUS
  5
2CD
 10
529.305067
 20
385.055283
 30
0.0
 11
532.074254
 21
387.82447
 31
0.0
  0
LINE
  8
LC-001-005-----0
  6
CONTINUOUS
  5
2CE
 10
529.077519
 20
387.656163
 30
0.0
 11
531.846706
 21
390.42535
 31
0.0
  0
LINE
  8
LC-001-005-----0
  6
CONTINUOUS
  5
2CF
 10
528.849972
 20
390.257043
 30
0.0
 11
531.619159
 21
393.02623
 31
0.0
  0
LINE
  8
LC-001-005-----0
  6
CONTINUOUS
  5
2D0
 10
528.622424
 20
392.857922
 30
0.0
 11
531.391611
 21
395.627109
 31
0.0
  0
LINE
  8
LC-001-005-----0
  6
CONTINUOUS
  5
2D1
 10
528.394877
 20
395.458802
 30
0.0
 11
531.164064
 21
398.227989
 31
0.0
  0
LINE
  8
LC-001-005-----0
  6
CONTINUOUS
  5
2D2
 10
528.167329
 20
398.059681
 30
0.0
 11
530.936516
 21
400.828868
 31
0.0
  0
LINE
  8
LC-001-005-----0
  6
CONTINUOUS
  5
2D3
 10
527.939782
 20
400.660561
 30
0.0
 11
530.708969
 21
403.429748
 31
0.0
  0
LINE
  8
LC-001-005-----0
  6
CONTINUOUS
  5
2D4
 10
527.712234
 20
403.261441
 30
0.0
 11
530.481421
 21
406.030628
 31
0.0
  0
LINE
  8
LC-001-005-----0
  6
CONTINUOUS
  5
2D5
 10
527.484687
 20
405.86232
 30
0.0
 11
530.253874
 21
408.631507
 31
0.0
  0
LINE
  8
LC-001-005-----0
  6
CONTINUOUS
  5
2D6
 10
527.257139
 20
408.4632
 30
0.0
 11
530.026326
 21
411.232387
 31
0.0
  0
LINE
  8
LC-001-005-----0
  6
CONTINUOUS
  5
2D7
 10
527.029592
 20
411.06408
 30
0.0
 11
529.798779
 21
413.833267
 31
0.0
  0
LINE
  8
LC-001-005-----0
  6
CONTINUOUS
  5
2D8
 10
526.802044
 20
413.664959
 30
0.0
 11
529.571231
 21
416.434146
 31
0.0
  0
LINE
  8
LC-001-005-----0
  6
CONTINUOUS
  5
2D9
 10
526.574497
 20
416.265839
 30
0.0
 11
529.343684
 21
419.035026
 31
0.0
  0
LINE
  8
LC-001-005-----0
  6
CONTINUOUS
  5
2DA
 10
526.346949
 20
418.866719
 30
0.0
 11
529.144393
 21
421.664162
 31
0.0
  0
LINE
  8
LC-001-005-----0
  6
CONTINUOUS
  5
2DB
 10
525.833751
 20
421.181947
 30
0.0
 11
529.144393
 21
424.492589
 31
0.0
  0
LINE
  8
LC-001-005-----0
  6
CONTINUOUS
  5
2DC
 10
523.394393
 20
421.571017
 30
0.0
 11
525.868516
 21
424.045139
 31
0.0
  0
LINE
  8
LC-001-005-----0
  6
CONTINUOUS
  5
2DD
 10
526.644393
 20
424.821017
 30
0.0
 11
529.144393
 21
427.321017
 31
0.0
  0
LINE
  8
LC-001-005-----0
  6
CONTINUOUS
  5
2DE
 10
526.644393
 20
427.649444
 30
0.0
 11
529.144393
 21
430.149444
 31
0.0
  0
LINE
  8
LC-001-005-----0
  6
CONTINUOUS
  5
2DF
 10
525.542724
 20
429.376201
 30
0.0
 11
528.746431
 21
432.579909
 31
0.0
  0
LINE
  8
LC-001-005-----0
  6
CONTINUOUS
  5
2E0
 10
523.394393
 20
430.056298
 30
0.0
 11
527.332218
 21
433.994123
 31
0.0
  0
LINE
  8
LC-001-005-----0
  6
CONTINUOUS
  5
2E1
 10
523.394393
 20
432.884725
 30
0.0
 11
525.918004
 21
435.408336
 31
0.0
  0
LINE
  8
LC-001-005-----0
  6
CONTINUOUS
  5
2E2
 10
521.863188
 20
434.181947
 30
0.0
 11
524.503791
 21
436.82255
 31
0.0
  0
LINE
  8
LC-001-005-----0
  6
CONTINUOUS
  5
2E3
 10
519.82366
 20
434.970846
 30
0.0
 11
522.034761
 21
437.181947
 31
0.0
  0
ENDBLK
  8
0
  5
2E4
  0
BLOCK
  8
0
  5
2E6
  2
*X19
 70
    65
 10
593.766514
 20
386.755389
 30
0.0
  3
*X19
  0
LINE
  8
LC-001-005-----0
  6
CONTINUOUS
  5
2E7
 10
608.453772
 20
387.836456
 30
0.0
 11
608.644393
 21
388.027077
 31
0.0
  0
LINE
  8
LC-001-005-----0
  6
CONTINUOUS
  5
2E8
 10
608.029801
 20
390.240913
 30
0.0
 11
608.644393
 21
390.855504
 31
0.0
  0
LINE
  8
LC-001-005-----0
  6
CONTINUOUS
  5
2E9
 10
607.605831
 20
392.645369
 30
0.0
 11
608.644393
 21
393.683932
 31
0.0
  0
LINE
  8
LC-001-005-----0
  6
CONTINUOUS
  5
2EA
 10
607.18186
 20
395.049826
 30
0.0
 11
608.644393
 21
396.512359
 31
0.0
  0
LINE
  8
LC-001-005-----0
  6
CONTINUOUS
  5
2EB
 10
606.75789
 20
397.454282
 30
0.0
 11
608.644393
 21
399.340786
 31
0.0
  0
LINE
  8
LC-001-005-----0
  6
CONTINUOUS
  5
2EC
 10
606.333919
 20
399.858739
 30
0.0
 11
608.644393
 21
402.169213
 31
0.0
  0
LINE
  8
LC-001-005-----0
  6
CONTINUOUS
  5
2ED
 10
605.909948
 20
402.263195
 30
0.0
 11
608.644393
 21
404.99764
 31
0.0
  0
LINE
  8
LC-001-005-----0
  6
CONTINUOUS
  5
2EE
 10
605.485978
 20
404.667652
 30
0.0
 11
608.507241
 21
407.688915
 31
0.0
  0
LINE
  8
LC-001-005-----0
  6
CONTINUOUS
  5
2EF
 10
605.062007
 20
407.072109
 30
0.0
 11
606.171201
 21
408.181302
 31
0.0
  0
ENDBLK
  8
0
  5
2F0
  0
BLOCK
  8
0
  5
2F2
  2
*X20
 70
    65
 10
597.994267
 20
399.857261
 30
0.0
  3
*X20
  0
LINE
  8
LC-001-005-----0
  6
CONTINUOUS
  5
2F3
 10
605.217738
 20
404.399412
 30
0.0
 11
605.485978
 21
404.667652
 31
0.0
  0
LINE
  8
LC-001-005-----0
  6
CONTINUOUS
  5
2F4
 10
602.813281
 20
404.823383
 30
0.0
 11
605.062007
 21
407.072109
 31
0.0
  0
LINE
  8
LC-001-005-----0
  6
CONTINUOUS
  5
2F5
 10
600.408825
 20
405.247353
 30
0.0
 11
602.987711
 21
407.826239
 31
0.0
  0
LINE
  8
LC-001-005-----0
  6
CONTINUOUS
  5
2F6
 10
598.004368
 20
405.671324
 30
0.0
 11
601.690133
 21
409.357088
 31
0.0
  0
LINE
  8
LC-001-005-----0
  6
CONTINUOUS
  5
2F7
 10
598.597216
 20
409.092599
 30
0.0
 11
602.774545
 21
413.269928
 31
0.0
  0
LINE
  8
LC-001-005-----0
  6
CONTINUOUS
  5
2F8
 10
605.473645
 20
415.969028
 30
0.0
 11
608.644393
 21
419.139776
 31
0.0
  0
LINE
  8
LC-001-005-----0
  6
CONTINUOUS
  5
2F9
 10
599.267252
 20
412.591062
 30
0.0
 11
606.152512
 21
419.476321
 31
0.0
  0
ENDBLK
  8
0
  5
2FA
  0
BLOCK
  8
0
  5
2FC
  2
*X21
 70
    65
 10
593.766514
 20
407.859254
 30
0.0
  3
*X21
  0
LINE
  8
LC-001-005-----0
  6
CONTINUOUS
  5
2FD
 10
606.171201
 20
408.181302
 30
0.0
 11
608.08327
 21
410.093371
 31
0.0
  0
LINE
  8
LC-001-005-----0
  6
CONTINUOUS
  5
2FE
 10
604.638037
 20
409.476565
 30
0.0
 11
606.130681
 21
410.969209
 31
0.0
  0
ENDBLK
  8
0
  5
2FF
  0
BLOCK
  8
0
  5
301
  2
*X22
 70
    65
 10
608.644393
 20
324.057645
 30
0.0
  3
*X22
  0
LINE
  8
LC-001-005-----0
  6
CONTINUOUS
  5
302
 10
618.360652
 20
324.204231
 30
0.0
 11
619.045397
 21
324.888977
 31
0.0
  0
LINE
  8
LC-001-005-----0
  6
CONTINUOUS
  5
303
 10
615.956196
 20
324.628202
 30
0.0
 11
618.54585
 21
327.217856
 31
0.0
  0
LINE
  8
LC-001-005-----0
  6
CONTINUOUS
  5
304
 10
613.551739
 20
325.052172
 30
0.0
 11
616.141393
 21
327.641826
 31
0.0
  0
LINE
  8
LC-001-005-----0
  6
CONTINUOUS
  5
305
 10
611.147283
 20
325.476143
 30
0.0
 11
613.736937
 21
328.065797
 31
0.0
  0
LINE
  8
LC-001-005-----0
  6
CONTINUOUS
  5
306
 10
608.742826
 20
325.900114
 30
0.0
 11
611.33248
 21
328.489768
 31
0.0
  0
LINE
  8
LC-001-005-----0
  6
CONTINUOUS
  5
307
 10
608.644393
 20
328.630108
 30
0.0
 11
608.928023
 21
328.913738
 31
0.0
  0
ENDBLK
  8
0
  5
308
  0
BLOCK
  8
0
  5
30A
  2
*X23
 70
    65
 10
608.644393
 20
323.76072
 30
0.0
  3
*X23
  0
LINE
  8
LC-001-005-----0
  6
CONTINUOUS
  5
30B
 10
620.958254
 20
323.973406
 30
0.0
 11
622.92224
 21
325.937392
 31
0.0
  0
LINE
  8
LC-001-005-----0
  6
CONTINUOUS
  5
30C
 10
619.477006
 20
325.320585
 30
0.0
 11
622.498269
 21
328.341848
 31
0.0
  0
LINE
  8
LC-001-005-----0
  6
CONTINUOUS
  5
30D
 10
619.053036
 20
327.725042
 30
0.0
 11
622.074299
 21
330.746305
 31
0.0
  0
LINE
  8
LC-001-005-----0
  6
CONTINUOUS
  5
30E
 10
618.629065
 20
330.129499
 30
0.0
 11
621.650328
 21
333.150762
 31
0.0
  0
LINE
  8
LC-001-005-----0
  6
CONTINUOUS
  5
30F
 10
618.205095
 20
332.533955
 30
0.0
 11
621.226358
 21
335.555218
 31
0.0
  0
LINE
  8
LC-001-005-----0
  6
CONTINUOUS
  5
310
 10
617.781124
 20
334.938412
 30
0.0
 11
620.802387
 21
337.959675
 31
0.0
  0
LINE
  8
LC-001-005-----0
  6
CONTINUOUS
  5
311
 10
617.357154
 20
337.342868
 30
0.0
 11
620.378417
 21
340.364131
 31
0.0
  0
LINE
  8
LC-001-005-----0
  6
CONTINUOUS
  5
312
 10
616.933183
 20
339.747325
 30
0.0
 11
619.954446
 21
342.768588
 31
0.0
  0
LINE
  8
LC-001-005-----0
  6
CONTINUOUS
  5
313
 10
616.509213
 20
342.151781
 30
0.0
 11
619.530475
 21
345.173044
 31
0.0
  0
LINE
  8
LC-001-005-----0
  6
CONTINUOUS
  5
314
 10
616.085242
 20
344.556238
 30
0.0
 11
619.106505
 21
347.577501
 31
0.0
  0
LINE
  8
LC-001-005-----0
  6
CONTINUOUS
  5
315
 10
615.661271
 20
346.960695
 30
0.0
 11
618.682534
 21
349.981957
 31
0.0
  0
LINE
  8
LC-001-005-----0
  6
CONTINUOUS
  5
316
 10
615.237301
 20
349.365151
 30
0.0
 11
618.258564
 21
352.386414
 31
0.0
  0
LINE
  8
LC-001-005-----0
  6
CONTINUOUS
  5
317
 10
614.81333
 20
351.769608
 30
0.0
 11
617.834593
 21
354.790871
 31
0.0
  0
LINE
  8
LC-001-005-----0
  6
CONTINUOUS
  5
318
 10
614.38936
 20
354.174064
 30
0.0
 11
617.410623
 21
357.195327
 31
0.0
  0
LINE
  8
LC-001-005-----0
  6
CONTINUOUS
  5
319
 10
613.965389
 20
356.578521
 30
0.0
 11
616.986652
 21
359.599784
 31
0.0
  0
LINE
  8
LC-001-005-----0
  6
CONTINUOUS
  5
31A
 10
613.541419
 20
358.982977
 30
0.0
 11
616.562682
 21
362.00424
 31
0.0
  0
LINE
  8
LC-001-005-----0
  6
CONTINUOUS
  5
31B
 10
613.117448
 20
361.387434
 30
0.0
 11
616.138711
 21
364.408697
 31
0.0
  0
LINE
  8
LC-001-005-----0
  6
CONTINUOUS
  5
31C
 10
612.693477
 20
363.79189
 30
0.0
 11
615.71474
 21
366.813153
 31
0.0
  0
LINE
  8
LC-001-005-----0
  6
CONTINUOUS
  5
31D
 10
612.269507
 20
366.196347
 30
0.0
 11
615.29077
 21
369.21761
 31
0.0
  0
LINE
  8
LC-001-005-----0
  6
CONTINUOUS
  5
31E
 10
611.845536
 20
368.600804
 30
0.0
 11
614.866799
 21
371.622067
 31
0.0
  0
LINE
  8
LC-001-005-----0
  6
CONTINUOUS
  5
31F
 10
611.421566
 20
371.00526
 30
0.0
 11
614.442829
 21
374.026523
 31
0.0
  0
LINE
  8
LC-001-005-----0
  6
CONTINUOUS
  5
320
 10
610.997595
 20
373.409717
 30
0.0
 11
614.018858
 21
376.43098
 31
0.0
  0
LINE
  8
LC-001-005-----0
  6
CONTINUOUS
  5
321
 10
610.573625
 20
375.814173
 30
0.0
 11
613.594888
 21
378.835436
 31
0.0
  0
LINE
  8
LC-001-005-----0
  6
CONTINUOUS
  5
322
 10
610.149654
 20
378.21863
 30
0.0
 11
613.170917
 21
381.239893
 31
0.0
  0
LINE
  8
LC-001-005-----0
  6
CONTINUOUS
  5
323
 10
609.725683
 20
380.623086
 30
0.0
 11
612.746946
 21
383.644349
 31
0.0
  0
LINE
  8
LC-001-005-----0
  6
CONTINUOUS
  5
324
 10
609.301713
 20
383.027543
 30
0.0
 11
612.322976
 21
386.048806
 31
0.0
  0
LINE
  8
LC-001-005-----0
  6
CONTINUOUS
  5
325
 10
608.877742
 20
385.431999
 30
0.0
 11
611.899005
 21
388.453262
 31
0.0
  0
LINE
  8
LC-001-005-----0
  6
CONTINUOUS
  5
326
 10
608.644393
 20
388.027077
 30
0.0
 11
611.475035
 21
390.857719
 31
0.0
  0
LINE
  8
LC-001-005-----0
  6
CONTINUOUS
  5
327
 10
608.644393
 20
390.855504
 30
0.0
 11
611.051064
 21
393.262176
 31
0.0
  0
LINE
  8
LC-001-005-----0
  6
CONTINUOUS
  5
328
 10
608.644393
 20
393.683932
 30
0.0
 11
610.627094
 21
395.666632
 31
0.0
  0
LINE
  8
LC-001-005-----0
  6
CONTINUOUS
  5
329
 10
608.644393
 20
396.512359
 30
0.0
 11
610.203123
 21
398.071089
 31
0.0
  0
LINE
  8
LC-001-005-----0
  6
CONTINUOUS
  5
32A
 10
608.644393
 20
399.340786
 30
0.0
 11
609.779152
 21
400.475545
 31
0.0
  0
LINE
  8
LC-001-005-----0
  6
CONTINUOUS
  5
32B
 10
608.644393
 20
402.169213
 30
0.0
 11
609.355182
 21
402.880002
 31
0.0
  0
LINE
  8
LC-001-005-----0
  6
CONTINUOUS
  5
32C
 10
608.644393
 20
404.99764
 30
0.0
 11
608.931211
 21
405.284458
 31
0.0
  0
ENDBLK
  8
0
  5
32D
  0
BLOCK
  8
0
  5
32F
  2
*X24
 70
    65
 10
522.644393
 20
423.829293
 30
0.0
  3
*X24
  0
LINE
  8
LC-001-005-----0
  6
DASHED
  5
331
 10
523.322966
 20
424.328017
 30
0.0
 11
526.64127
 21
427.646321
 31
0.0
  0
LINE
  8
LC-001-005-----0
  6
DASHED
  5
332
 10
522.754778
 20
425.174042
 30
0.0
 11
526.274337
 21
428.693602
 31
0.0
  0
LINE
  8
LC-001-005-----0
  6
CONTINUOUS
  5
333
 10
522.684263
 20
427.931954
 30
0.0
 11
524.24704
 21
429.494732
 31
0.0
  0
ENDBLK
  8
0
  5
334
  0
BLOCK
  8
0
  5
336
  2
*X25
 70
    65
 10
690.644393
 20
423.829293
 30
0.0
  3
*X25
  0
LINE
  8
LC-001-005-----0
  6
DASHED
  5
337
 10
691.48558
 20
424.199216
 30
0.0
 11
694.644393
 21
427.35803
 31
0.0
  0
LINE
  8
LC-001-005-----0
  6
DASHED
  5
338
 10
690.83961
 20
424.96746
 30
0.0
 11
694.387447
 21
428.515297
 31
0.0
  0
LINE
  8
LC-001-005-----0
  6
CONTINUOUS
  5
339
 10
690.645522
 20
427.6018
 30
0.0
 11
692.56418
 21
429.520458
 31
0.0
  0
ENDBLK
  8
0
  5
33A
  0
BLOCK
  8
0
  5
33C
  2
*X26
 70
    65
 10
608.644393
 20
416.854189
 30
0.0
  3
*X26
  0
LINE
  8
LC-001-005-----0
  6
CONTINUOUS
  5
33D
 10
692.712825
 20
421.183821
 30
0.0
 11
693.894393
 21
422.365389
 31
0.0
  0
LINE
  8
LC-001-005-----0
  6
CONTINUOUS
  5
33E
 10
689.80839
 20
421.107813
 30
0.0
 11
692.532976
 21
423.832399
 31
0.0
  0
LINE
  8
LC-001-005-----0
  6
CONTINUOUS
  5
33F
 10
686.823533
 20
420.951384
 30
0.0
 11
690.644393
 21
424.772243
 31
0.0
  0
LINE
  8
LC-001-005-----0
  6
CONTINUOUS
  5
340
 10
683.838677
 20
420.794954
 30
0.0
 11
687.00894
 21
423.965217
 31
0.0
  0
LINE
  8
LC-001-005-----0
  6
CONTINUOUS
  5
341
 10
688.144393
 20
425.10067
 30
0.0
 11
690.644393
 21
427.60067
 31
0.0
  0
LINE
  8
LC-001-005-----0
  6
CONTINUOUS
  5
342
 10
692.577195
 20
429.533472
 30
0.0
 11
693.894393
 21
430.85067
 31
0.0
  0
LINE
  8
LC-001-005-----0
  6
CONTINUOUS
  5
343
 10
680.85382
 20
420.638524
 30
0.0
 11
684.024083
 21
423.808788
 31
0.0
  0
LINE
  8
LC-001-005-----0
  6
CONTINUOUS
  5
344
 10
688.144393
 20
427.929098
 30
0.0
 11
693.894393
 21
433.679098
 31
0.0
  0
LINE
  8
LC-001-005-----0
  6
CONTINUOUS
  5
345
 10
694.397243
 20
434.181947
 30
0.0
 11
697.074255
 21
436.858959
 31
0.0
  0
LINE
  8
LC-001-005-----0
  6
CONTINUOUS
  5
346
 10
677.868963
 20
420.482094
 30
0.0
 11
681.039226
 21
423.652358
 31
0.0
  0
LINE
  8
LC-001-005-----0
  6
CONTINUOUS
  5
347
 10
688.144393
 20
430.757525
 30
0.0
 11
694.568816
 21
437.181947
 31
0.0
  0
LINE
  8
LC-001-005-----0
  6
CONTINUOUS
  5
348
 10
674.884106
 20
420.325665
 30
0.0
 11
678.054369
 21
423.495928
 31
0.0
  0
LINE
  8
LC-001-005-----0
  6
CONTINUOUS
  5
349
 10
671.899249
 20
420.169235
 30
0.0
 11
675.069513
 21
423.339499
 31
0.0
  0
LINE
  8
LC-001-005-----0
  6
CONTINUOUS
  5
34A
 10
668.914392
 20
420.012805
 30
0.0
 11
672.084656
 21
423.183069
 31
0.0
  0
LINE
  8
LC-001-005-----0
  6
CONTINUOUS
  5
34B
 10
665.929535
 20
419.856376
 30
0.0
 11
669.099799
 21
423.026639
 31
0.0
  0
LINE
  8
LC-001-005-----0
  6
CONTINUOUS
  5
34C
 10
662.944679
 20
419.699946
 30
0.0
 11
666.114942
 21
422.870209
 31
0.0
  0
LINE
  8
LC-001-005-----0
  6
CONTINUOUS
  5
34D
 10
659.959822
 20
419.543516
 30
0.0
 11
663.130085
 21
422.71378
 31
0.0
  0
LINE
  8
LC-001-005-----0
  6
CONTINUOUS
  5
34E
 10
656.974965
 20
419.387086
 30
0.0
 11
660.145228
 21
422.55735
 31
0.0
  0
LINE
  8
LC-001-005-----0
  6
CONTINUOUS
  5
34F
 10
653.990108
 20
419.230657
 30
0.0
 11
657.160372
 21
422.40092
 31
0.0
  0
LINE
  8
LC-001-005-----0
  6
CONTINUOUS
  5
350
 10
651.005251
 20
419.074227
 30
0.0
 11
654.175515
 21
422.244491
 31
0.0
  0
LINE
  8
LC-001-005-----0
  6
CONTINUOUS
  5
351
 10
648.020394
 20
418.917797
 30
0.0
 11
651.190658
 21
422.088061
 31
0.0
  0
LINE
  8
LC-001-005-----0
  6
CONTINUOUS
  5
352
 10
645.035538
 20
418.761368
 30
0.0
 11
648.205801
 21
421.931631
 31
0.0
  0
LINE
  8
LC-001-005-----0
  6
CONTINUOUS
  5
353
 10
642.050681
 20
418.604938
 30
0.0
 11
645.220944
 21
421.775201
 31
0.0
  0
LINE
  8
LC-001-005-----0
  6
CONTINUOUS
  5
354
 10
639.065824
 20
418.448508
 30
0.0
 11
642.236087
 21
421.618772
 31
0.0
  0
LINE
  8
LC-001-005-----0
  6
CONTINUOUS
  5
355
 10
636.080967
 20
418.292078
 30
0.0
 11
639.251231
 21
421.462342
 31
0.0
  0
LINE
  8
LC-001-005-----0
  6
CONTINUOUS
  5
356
 10
633.09611
 20
418.135649
 30
0.0
 11
636.266374
 21
421.305912
 31
0.0
  0
LINE
  8
LC-001-005-----0
  6
CONTINUOUS
  5
357
 10
630.111253
 20
417.979219
 30
0.0
 11
633.281517
 21
421.149482
 31
0.0
  0
LINE
  8
LC-001-005-----0
  6
CONTINUOUS
  5
358
 10
627.126396
 20
417.822789
 30
0.0
 11
630.29666
 21
420.993053
 31
0.0
  0
LINE
  8
LC-001-005-----0
  6
CONTINUOUS
  5
359
 10
624.14154
 20
417.66636
 30
0.0
 11
627.311803
 21
420.836623
 31
0.0
  0
LINE
  8
LC-001-005-----0
  6
CONTINUOUS
  5
35A
 10
621.156683
 20
417.50993
 30
0.0
 11
624.326946
 21
420.680193
 31
0.0
  0
LINE
  8
LC-001-005-----0
  6
CONTINUOUS
  5
35B
 10
618.171826
 20
417.3535
 30
0.0
 11
621.342089
 21
420.523764
 31
0.0
  0
LINE
  8
LC-001-005-----0
  6
CONTINUOUS
  5
35C
 10
615.186969
 20
417.19707
 30
0.0
 11
618.357233
 21
420.367334
 31
0.0
  0
LINE
  8
LC-001-005-----0
  6
CONTINUOUS
  5
35D
 10
612.202112
 20
417.040641
 30
0.0
 11
615.372376
 21
420.210904
 31
0.0
  0
LINE
  8
LC-001-005-----0
  6
CONTINUOUS
  5
35E
 10
609.217255
 20
416.884211
 30
0.0
 11
612.387519
 21
420.054474
 31
0.0
  0
LINE
  8
LC-001-005-----0
  6
CONTINUOUS
  5
35F
 10
608.644393
 20
419.139776
 30
0.0
 11
609.402662
 21
419.898045
 31
0.0
  0
ENDBLK
  8
0
  5
360
  0
BLOCK
  8
0
  5
362
  2
*D27
 70
    65
 10
0.0
 20
0.0
 30
0.0
  3
*D27
  0
LINE
  8
LC-004-003-MTH-0
  6
CONTINUOUS
  5
363
 10
514.644393
 20
436.381947
 30
0.0
 11
514.644393
 21
109.2
 31
0.0
  0
LINE
  8
LC-004-003-MTH-0
  6
CONTINUOUS
  5
364
 10
702.644393
 20
436.381947
 30
0.0
 11
702.644393
 21
109.2
 31
0.0
  0
LINE
  8
LC-005-003-MTG-0
  6
CONTINUOUS
  5
365
 10
514.644393
 20
120.0
 30
0.0
 11
702.644393
 21
120.0
 31
0.0
  0
LINE
  8
LC-003-003-----0
  6
CONTINUOUS
  5
366
 10
532.490401
 20
122.349471
 30
0.0
 11
514.644393
 21
120.0
 31
0.0
  0
LINE
  8
LC-003-003-----0
  6
CONTINUOUS
  5
367
 10
514.644393
 20
120.0
 30
0.0
 11
532.490401
 21
117.650529
 31
0.0
  0
LINE
  8
LC-003-003-----0
  6
CONTINUOUS
  5
368
 10
532.490401
 20
117.650529
 30
0.0
 11
532.490401
 21
122.349471
 31
0.0
  0
LINE
  8
LC-003-003-----0
  6
CONTINUOUS
  5
369
 10
532.530439
 20
121.738609
 30
0.0
 11
519.324393
 21
120.0
 31
0.0
  0
LINE
  8
LC-003-003-----0
  6
CONTINUOUS
  5
36A
 10
519.324393
 20
120.0
 30
0.0
 11
532.530439
 21
118.261391
 31
0.0
  0
LINE
  8
LC-003-003-----0
  6
CONTINUOUS
  5
36B
 10
532.570477
 20
121.127746
 30
0.0
 11
524.004393
 21
120.0
 31
0.0
  0
LINE
  8
LC-003-003-----0
  6
CONTINUOUS
  5
36C
 10
524.004393
 20
120.0
 30
0.0
 11
532.570477
 21
118.872254
 31
0.0
  0
LINE
  8
LC-003-003-----0
  6
CONTINUOUS
  5
36D
 10
532.610515
 20
120.516884
 30
0.0
 11
528.684393
 21
120.0
 31
0.0
  0
LINE
  8
LC-003-003-----0
  6
CONTINUOUS
  5
36E
 10
528.684393
 20
120.0
 30
0.0
 11
532.610515
 21
119.483116
 31
0.0
  0
LINE
  8
LC-003-003-----0
  6
CONTINUOUS
  5
36F
 10
684.798386
 20
117.650529
 30
0.0
 11
702.644393
 21
120.0
 31
0.0
  0
LINE
  8
LC-003-003-----0
  6
CONTINUOUS
  5
370
 10
702.644393
 20
120.0
 30
0.0
 11
684.798386
 21
122.349471
 31
0.0
  0
LINE
  8
LC-003-003-----0
  6
CONTINUOUS
  5
371
 10
684.798386
 20
122.349471
 30
0.0
 11
684.798386
 21
117.650529
 31
0.0
  0
LINE
  8
LC-003-003-----0
  6
CONTINUOUS
  5
372
 10
684.758347
 20
118.261391
 30
0.0
 11
697.964393
 21
120.0
 31
0.0
  0
LINE
  8
LC-003-003-----0
  6
CONTINUOUS
  5
373
 10
697.964393
 20
120.0
 30
0.0
 11
684.758347
 21
121.738609
 31
0.0
  0
LINE
  8
LC-003-003-----0
  6
CONTINUOUS
  5
374
 10
684.718309
 20
118.872254
 30
0.0
 11
693.284393
 21
120.0
 31
0.0
  0
LINE
  8
LC-003-003-----0
  6
CONTINUOUS
  5
375
 10
693.284393
 20
120.0
 30
0.0
 11
684.718309
 21
121.127746
 31
0.0
  0
LINE
  8
LC-003-003-----0
  6
CONTINUOUS
  5
376
 10
684.678271
 20
119.483116
 30
0.0
 11
688.604393
 21
120.0
 31
0.0
  0
LINE
  8
LC-003-003-----0
  6
CONTINUOUS
  5
377
 10
688.604393
 20
120.0
 30
0.0
 11
684.678271
 21
120.516884
 31
0.0
  0
TEXT
  8
LC-003-003-----0
  6
CONTINUOUS
 62
     6
  5
378
 10
575.305287
 20
130.431999
 30
0.0
 40
18.0
  1
Ø188
 51
15.0
  7
LC-TXTSTYLE-150-400-0-0-D0
 72
     1
 11
599.796625
 21
130.431999
 31
0.0
  0
ENDBLK
  8
0
  5
379
  0
BLOCK
  8
0
  5
37B
  2
*D28
 70
    65
 10
0.0
 20
0.0
 30
0.0
  3
*D28
  0
LINE
  8
LC-004-003-MTH-0
  6
CONTINUOUS
  5
37C
 10
450.644393
 20
492.886035
 30
0.0
 11
450.644393
 21
730.8
 31
0.0
  0
LINE
  8
LC-004-003-MTH-0
  6
CONTINUOUS
  5
37D
 10
766.644393
 20
492.886035
 30
0.0
 11
766.644393
 21
730.8
 31
0.0
  0
LINE
  8
LC-005-003-MTG-0
  6
CONTINUOUS
  5
37E
 10
450.644393
 20
720.0
 30
0.0
 11
766.644393
 21
720.0
 31
0.0
  0
LINE
  8
LC-003-003-----0
  6
CONTINUOUS
  5
37F
 10
468.490401
 20
722.349471
 30
0.0
 11
450.644393
 21
720.0
 31
0.0
  0
LINE
  8
LC-003-003-----0
  6
CONTINUOUS
  5
380
 10
450.644393
 20
720.0
 30
0.0
 11
468.490401
 21
717.650529
 31
0.0
  0
LINE
  8
LC-003-003-----0
  6
CONTINUOUS
  5
381
 10
468.490401
 20
717.650529
 30
0.0
 11
468.490401
 21
722.349471
 31
0.0
  0
LINE
  8
LC-003-003-----0
  6
CONTINUOUS
  5
382
 10
468.530439
 20
721.738609
 30
0.0
 11
455.324393
 21
720.0
 31
0.0
  0
LINE
  8
LC-003-003-----0
  6
CONTINUOUS
  5
383
 10
455.324393
 20
720.0
 30
0.0
 11
468.530439
 21
718.261391
 31
0.0
  0
LINE
  8
LC-003-003-----0
  6
CONTINUOUS
  5
384
 10
468.570477
 20
721.127746
 30
0.0
 11
460.004393
 21
720.0
 31
0.0
  0
LINE
  8
LC-003-003-----0
  6
CONTINUOUS
  5
385
 10
460.004393
 20
720.0
 30
0.0
 11
468.570477
 21
718.872254
 31
0.0
  0
LINE
  8
LC-003-003-----0
  6
CONTINUOUS
  5
386
 10
468.610515
 20
720.516884
 30
0.0
 11
464.684393
 21
720.0
 31
0.0
  0
LINE
  8
LC-003-003-----0
  6
CONTINUOUS
  5
387
 10
464.684393
 20
720.0
 30
0.0
 11
468.610515
 21
719.483116
 31
0.0
  0
LINE
  8
LC-003-003-----0
  6
CONTINUOUS
  5
388
 10
748.798386
 20
717.650529
 30
0.0
 11
766.644393
 21
720.0
 31
0.0
  0
LINE
  8
LC-003-003-----0
  6
CONTINUOUS
  5
389
 10
766.644393
 20
720.0
 30
0.0
 11
748.798386
 21
722.349471
 31
0.0
  0
LINE
  8
LC-003-003-----0
  6
CONTINUOUS
  5
38A
 10
748.798386
 20
722.349471
 30
0.0
 11
748.798386
 21
717.650529
 31
0.0
  0
LINE
  8
LC-003-003-----0
  6
CONTINUOUS
  5
38B
 10
748.758347
 20
718.261391
 30
0.0
 11
761.964393
 21
720.0
 31
0.0
  0
LINE
  8
LC-003-003-----0
  6
CONTINUOUS
  5
38C
 10
761.964393
 20
720.0
 30
0.0
 11
748.758347
 21
721.738609
 31
0.0
  0
LINE
  8
LC-003-003-----0
  6
CONTINUOUS
  5
38D
 10
748.718309
 20
718.872254
 30
0.0
 11
757.284393
 21
720.0
 31
0.0
  0
LINE
  8
LC-003-003-----0
  6
CONTINUOUS
  5
38E
 10
757.284393
 20
720.0
 30
0.0
 11
748.718309
 21
721.127746
 31
0.0
  0
LINE
  8
LC-003-003-----0
  6
CONTINUOUS
  5
38F
 10
748.678271
 20
719.483116
 30
0.0
 11
752.604393
 21
720.0
 31
0.0
  0
LINE
  8
LC-003-003-----0
  6
CONTINUOUS
  5
390
 10
752.604393
 20
720.0
 30
0.0
 11
748.678271
 21
720.516884
 31
0.0
  0
TEXT
  8
LC-003-003-----0
  6
CONTINUOUS
 62
     6
  5
391
 10
582.181482
 20
730.431999
 30
0.0
 40
18.0
  1
Ø315
 51
15.0
  7
LC-TXTSTYLE-150-400-0-0-D0
 72
     1
 11
606.672821
 21
730.431999
 31
0.0
  0
ENDBLK
  8
0
  5
392
  0
BLOCK
  8
0
  5
394
  2
*D29
 70
    65
 10
0.0
 20
0.0
 30
0.0
  3
*D29
  0
LINE
  8
LC-004-003-MTH-0
  6
CONTINUOUS
  5
395
 10
766.644393
 20
492.886035
 30
0.0
 11
836.8
 21
492.886035
 31
0.0
  0
LINE
  8
LC-004-003-MTH-0
  6
CONTINUOUS
  5
396
 10
725.120643
 20
611.80443
 30
0.0
 11
836.8
 21
611.80443
 31
0.0
  0
LINE
  8
LC-005-003-MTG-0
  6
CONTINUOUS
  5
397
 10
826.0
 20
492.886035
 30
0.0
 11
826.0
 21
611.80443
 31
0.0
  0
LINE
  8
LC-003-003-----0
  6
CONTINUOUS
  5
398
 10
823.650529
 20
510.732042
 30
0.0
 11
826.0
 21
492.886035
 31
0.0
  0
LINE
  8
LC-003-003-----0
  6
CONTINUOUS
  5
399
 10
826.0
 20
492.886035
 30
0.0
 11
828.349471
 21
510.732042
 31
0.0
  0
LINE
  8
LC-003-003-----0
  6
CONTINUOUS
  5
39A
 10
828.349471
 20
510.732042
 30
0.0
 11
823.650529
 21
510.732042
 31
0.0
  0
LINE
  8
LC-003-003-----0
  6
CONTINUOUS
  5
39B
 10
824.261391
 20
510.77208
 30
0.0
 11
826.0
 21
497.566035
 31
0.0
  0
LINE
  8
LC-003-003-----0
  6
CONTINUOUS
  5
39C
 10
826.0
 20
497.566035
 30
0.0
 11
827.738609
 21
510.77208
 31
0.0
  0
LINE
  8
LC-003-003-----0
  6
CONTINUOUS
  5
39D
 10
824.872254
 20
510.812118
 30
0.0
 11
826.0
 21
502.246035
 31
0.0
  0
LINE
  8
LC-003-003-----0
  6
CONTINUOUS
  5
39E
 10
826.0
 20
502.246035
 30
0.0
 11
827.127746
 21
510.812118
 31
0.0
  0
LINE
  8
LC-003-003-----0
  6
CONTINUOUS
  5
39F
 10
825.483116
 20
510.852156
 30
0.0
 11
826.0
 21
506.926035
 31
0.0
  0
LINE
  8
LC-003-003-----0
  6
CONTINUOUS
  5
3A0
 10
826.0
 20
506.926035
 30
0.0
 11
826.516884
 21
510.852156
 31
0.0
  0
LINE
  8
LC-003-003-----0
  6
CONTINUOUS
  5
3A1
 10
828.349471
 20
593.958422
 30
0.0
 11
826.0
 21
611.80443
 31
0.0
  0
LINE
  8
LC-003-003-----0
  6
CONTINUOUS
  5
3A2
 10
826.0
 20
611.80443
 30
0.0
 11
823.650529
 21
593.958422
 31
0.0
  0
LINE
  8
LC-003-003-----0
  6
CONTINUOUS
  5
3A3
 10
823.650529
 20
593.958422
 30
0.0
 11
828.349471
 21
593.958422
 31
0.0
  0
LINE
  8
LC-003-003-----0
  6
CONTINUOUS
  5
3A4
 10
827.738609
 20
593.918384
 30
0.0
 11
826.0
 21
607.12443
 31
0.0
  0
LINE
  8
LC-003-003-----0
  6
CONTINUOUS
  5
3A5
 10
826.0
 20
607.12443
 30
0.0
 11
824.261391
 21
593.918384
 31
0.0
  0
LINE
  8
LC-003-003-----0
  6
CONTINUOUS
  5
3A6
 10
827.127746
 20
593.878346
 30
0.0
 11
826.0
 21
602.44443
 31
0.0
  0
LINE
  8
LC-003-003-----0
  6
CONTINUOUS
  5
3A7
 10
826.0
 20
602.44443
 30
0.0
 11
824.872254
 21
593.878346
 31
0.0
  0
LINE
  8
LC-003-003-----0
  6
CONTINUOUS
  5
3A8
 10
826.516884
 20
593.838308
 30
0.0
 11
826.0
 21
597.76443
 31
0.0
  0
LINE
  8
LC-003-003-----0
  6
CONTINUOUS
  5
3A9
 10
826.0
 20
597.76443
 30
0.0
 11
825.483116
 21
593.838308
 31
0.0
  0
TEXT
  8
LC-003-003-----0
  6
CONTINUOUS
 62
     6
  5
3AA
 10
815.568001
 20
513.364887
 30
0.0
 40
18.0
  1
42-130
 50
90.0
 51
15.0
  7
LC-TXTSTYLE-150-400-0-0-D0
 72
     1
 11
815.568001
 21
555.140478
 31
0.0
  0
ENDBLK
  8
0
  5
3AB
  0
BLOCK
  8
0
  5
3AD
  2
*D30
 70
    65
 10
0.0
 20
0.0
 30
0.0
  3
*D30
  0
LINE
  8
LC-004-003-MTH-0
  6
CONTINUOUS
  5
3AE
 10
688.644393
 20
299.681947
 30
0.0
 11
836.8
 21
299.681947
 31
0.0
  0
LINE
  8
LC-004-003-MTH-0
  6
CONTINUOUS
  5
3AF
 10
766.644393
 20
492.886035
 30
0.0
 11
836.8
 21
492.886035
 31
0.0
  0
LINE
  8
LC-005-003-MTG-0
  6
CONTINUOUS
  5
3B0
 10
826.0
 20
299.681947
 30
0.0
 11
826.0
 21
492.886035
 31
0.0
  0
LINE
  8
LC-003-003-----0
  6
CONTINUOUS
  5
3B1
 10
823.650529
 20
317.527955
 30
0.0
 11
826.0
 21
299.681947
 31
0.0
  0
LINE
  8
LC-003-003-----0
  6
CONTINUOUS
  5
3B2
 10
826.0
 20
299.681947
 30
0.0
 11
828.349471
 21
317.527955
 31
0.0
  0
LINE
  8
LC-003-003-----0
  6
CONTINUOUS
  5
3B3
 10
828.349471
 20
317.527955
 30
0.0
 11
823.650529
 21
317.527955
 31
0.0
  0
LINE
  8
LC-003-003-----0
  6
CONTINUOUS
  5
3B4
 10
824.261391
 20
317.567993
 30
0.0
 11
826.0
 21
304.361947
 31
0.0
  0
LINE
  8
LC-003-003-----0
  6
CONTINUOUS
  5
3B5
 10
826.0
 20
304.361947
 30
0.0
 11
827.738609
 21
317.567993
 31
0.0
  0
LINE
  8
LC-003-003-----0
  6
CONTINUOUS
  5
3B6
 10
824.872254
 20
317.608031
 30
0.0
 11
826.0
 21
309.041947
 31
0.0
  0
LINE
  8
LC-003-003-----0
  6
CONTINUOUS
  5
3B7
 10
826.0
 20
309.041947
 30
0.0
 11
827.127746
 21
317.608031
 31
0.0
  0
LINE
  8
LC-003-003-----0
  6
CONTINUOUS
  5
3B8
 10
825.483116
 20
317.648069
 30
0.0
 11
826.0
 21
313.721947
 31
0.0
  0
LINE
  8
LC-003-003-----0
  6
CONTINUOUS
  5
3B9
 10
826.0
 20
313.721947
 30
0.0
 11
826.516884
 21
317.648069
 31
0.0
  0
LINE
  8
LC-003-003-----0
  6
CONTINUOUS
  5
3BA
 10
828.349471
 20
475.040027
 30
0.0
 11
826.0
 21
492.886035
 31
0.0
  0
LINE
  8
LC-003-003-----0
  6
CONTINUOUS
  5
3BB
 10
826.0
 20
492.886035
 30
0.0
 11
823.650529
 21
475.040027
 31
0.0
  0
LINE
  8
LC-003-003-----0
  6
CONTINUOUS
  5
3BC
 10
823.650529
 20
475.040027
 30
0.0
 11
828.349471
 21
475.040027
 31
0.0
  0
LINE
  8
LC-003-003-----0
  6
CONTINUOUS
  5
3BD
 10
827.738609
 20
474.999989
 30
0.0
 11
826.0
 21
488.206035
 31
0.0
  0
LINE
  8
LC-003-003-----0
  6
CONTINUOUS
  5
3BE
 10
826.0
 20
488.206035
 30
0.0
 11
824.261391
 21
474.999989
 31
0.0
  0
LINE
  8
LC-003-003-----0
  6
CONTINUOUS
  5
3BF
 10
827.127746
 20
474.959951
 30
0.0
 11
826.0
 21
483.526035
 31
0.0
  0
LINE
  8
LC-003-003-----0
  6
CONTINUOUS
  5
3C0
 10
826.0
 20
483.526035
 30
0.0
 11
824.872254
 21
474.959951
 31
0.0
  0
LINE
  8
LC-003-003-----0
  6
CONTINUOUS
  5
3C1
 10
826.516884
 20
474.919913
 30
0.0
 11
826.0
 21
478.846035
 31
0.0
  0
LINE
  8
LC-003-003-----0
  6
CONTINUOUS
  5
3C2
 10
826.0
 20
478.846035
 30
0.0
 11
825.483116
 21
474.919913
 31
0.0
  0
TEXT
  8
LC-003-003-----0
  6
CONTINUOUS
 62
     6
  5
3C3
 10
815.568001
 20
379.945378
 30
0.0
 40
18.0
  1
197
 50
90.0
 51
15.0
  7
LC-TXTSTYLE-150-400-0-0-D0
 72
     1
 11
815.568001
 21
399.079237
 31
0.0
  0
ENDBLK
  8
0
  5
3C4
  0
BLOCK
  8
0
  5
3C6
  2
*D31
 70
    65
 10
0.0
 20
0.0
 30
0.0
  3
*D31
  0
LINE
  8
LC-004-003-MTH-0
  6
CONTINUOUS
  5
3C7
 10
687.438622
 20
237.681947
 30
0.0
 11
836.8
 21
237.681947
 31
0.0
  0
LINE
  8
LC-004-003-MTH-0
  6
CONTINUOUS
  5
3C8
 10
688.644393
 20
299.681947
 30
0.0
 11
836.8
 21
299.681947
 31
0.0
  0
LINE
  8
LC-005-003-MTG-0
  6
CONTINUOUS
  5
3C9
 10
826.0
 20
237.681947
 30
0.0
 11
826.0
 21
299.681947
 31
0.0
  0
LINE
  8
LC-003-003-----0
  6
CONTINUOUS
  5
3CA
 10
823.650529
 20
255.527955
 30
0.0
 11
826.0
 21
237.681947
 31
0.0
  0
LINE
  8
LC-003-003-----0
  6
CONTINUOUS
  5
3CB
 10
826.0
 20
237.681947
 30
0.0
 11
828.349471
 21
255.527955
 31
0.0
  0
LINE
  8
LC-003-003-----0
  6
CONTINUOUS
  5
3CC
 10
828.349471
 20
255.527955
 30
0.0
 11
823.650529
 21
255.527955
 31
0.0
  0
LINE
  8
LC-003-003-----0
  6
CONTINUOUS
  5
3CD
 10
824.261391
 20
255.567993
 30
0.0
 11
826.0
 21
242.361947
 31
0.0
  0
LINE
  8
LC-003-003-----0
  6
CONTINUOUS
  5
3CE
 10
826.0
 20
242.361947
 30
0.0
 11
827.738609
 21
255.567993
 31
0.0
  0
LINE
  8
LC-003-003-----0
  6
CONTINUOUS
  5
3CF
 10
824.872254
 20
255.608031
 30
0.0
 11
826.0
 21
247.041947
 31
0.0
  0
LINE
  8
LC-003-003-----0
  6
CONTINUOUS
  5
3D0
 10
826.0
 20
247.041947
 30
0.0
 11
827.127746
 21
255.608031
 31
0.0
  0
LINE
  8
LC-003-003-----0
  6
CONTINUOUS
  5
3D1
 10
825.483116
 20
255.648069
 30
0.0
 11
826.0
 21
251.721947
 31
0.0
  0
LINE
  8
LC-003-003-----0
  6
CONTINUOUS
  5
3D2
 10
826.0
 20
251.721947
 30
0.0
 11
826.516884
 21
255.648069
 31
0.0
  0
LINE
  8
LC-003-003-----0
  6
CONTINUOUS
  5
3D3
 10
828.349471
 20
281.83594
 30
0.0
 11
826.0
 21
299.681947
 31
0.0
  0
LINE
  8
LC-003-003-----0
  6
CONTINUOUS
  5
3D4
 10
826.0
 20
299.681947
 30
0.0
 11
823.650529
 21
281.83594
 31
0.0
  0
LINE
  8
LC-003-003-----0
  6
CONTINUOUS
  5
3D5
 10
823.650529
 20
281.83594
 30
0.0
 11
828.349471
 21
281.83594
 31
0.0
  0
LINE
  8
LC-003-003-----0
  6
CONTINUOUS
  5
3D6
 10
827.738609
 20
281.795902
 30
0.0
 11
826.0
 21
295.001947
 31
0.0
  0
LINE
  8
LC-003-003-----0
  6
CONTINUOUS
  5
3D7
 10
826.0
 20
295.001947
 30
0.0
 11
824.261391
 21
281.795902
 31
0.0
  0
LINE
  8
LC-003-003-----0
  6
CONTINUOUS
  5
3D8
 10
827.127746
 20
281.755864
 30
0.0
 11
826.0
 21
290.321947
 31
0.0
  0
LINE
  8
LC-003-003-----0
  6
CONTINUOUS
  5
3D9
 10
826.0
 20
290.321947
 30
0.0
 11
824.872254
 21
281.755864
 31
0.0
  0
LINE
  8
LC-003-003-----0
  6
CONTINUOUS
  5
3DA
 10
826.516884
 20
281.715826
 30
0.0
 11
826.0
 21
285.641947
 31
0.0
  0
LINE
  8
LC-003-003-----0
  6
CONTINUOUS
  5
3DB
 10
826.0
 20
285.641947
 30
0.0
 11
825.483116
 21
281.715826
 31
0.0
  0
TEXT
  8
LC-003-003-----0
  6
CONTINUOUS
 62
     6
  5
3DC
 10
815.568001
 20
259.614201
 30
0.0
 40
18.0
  1
62
 50
90.0
 51
15.0
  7
LC-TXTSTYLE-150-400-0-0-D0
 72
     1
 11
815.568001
 21
271.477193
 31
0.0
  0
ENDBLK
  8
0
  5
3DD
  0
BLOCK
  8
0
  5
3DF
  2
BLK2
 70
    64
 10
0.0
 20
0.0
 30
0.0
  3
BLK2
  0
ENDBLK
  8
0
  5
3E0
  0
BLOCK
  8
0
  5
3E2
  2
*X33
 70
    65
 10
703.646652
 20
591.80443
 30
0.0
  3
*X33
  0
LINE
  8
LC-001-005-----0
  6
CONTINUOUS
  5
3E3
 10
719.981617
 20
606.550704
 30
0.0
 11
714.727892
 21
611.80443
 31
0.0
  0
LINE
  8
LC-001-005-----0
  6
CONTINUOUS
  5
3E4
 10
719.840767
 20
603.863127
 30
0.0
 11
711.899465
 21
611.80443
 31
0.0
  0
LINE
  8
LC-001-005-----0
  6
CONTINUOUS
  5
3E5
 10
719.559067
 20
598.487973
 30
0.0
 11
706.242611
 21
611.80443
 31
0.0
  0
LINE
  8
LC-001-005-----0
  6
CONTINUOUS
  5
3E6
 10
719.418217
 20
595.800396
 30
0.0
 11
704.120989
 21
611.097624
 31
0.0
  0
LINE
  8
LC-001-005-----0
  6
CONTINUOUS
  5
3E7
 10
717.715889
 20
591.845869
 30
0.0
 11
703.85886
 21
605.702899
 31
0.0
  0
LINE
  8
LC-001-005-----0
  6
CONTINUOUS
  5
3E8
 10
714.928902
 20
591.80443
 30
0.0
 11
704.015289
 21
602.718042
 31
0.0
  0
LINE
  8
LC-001-005-----0
  6
CONTINUOUS
  5
3E9
 10
709.272048
 20
591.80443
 30
0.0
 11
704.328149
 21
596.748329
 31
0.0
  0
LINE
  8
LC-001-005-----0
  6
CONTINUOUS
  5
3EA
 10
706.44318
 20
591.804871
 30
0.0
 11
704.484578
 21
593.763472
 31
0.0
  0
ENDBLK
  8
0
  5
3EB
  0
BLOCK
  8
0
  5
3ED
  2
*X34
 70
    65
 10
543.642134
 20
577.80443
 30
0.0
  3
*X34
  0
LINE
  8
LC-001-005-----0
  6
CONTINUOUS
  5
3EE
 10
673.461886
 20
610.644029
 30
0.0
 11
672.486252
 21
611.619663
 31
0.0
  0
LINE
  8
LC-001-005-----0
  6
CONTINUOUS
  5
3EF
 10
673.40017
 20
605.048891
 30
0.0
 11
666.644631
 21
611.80443
 31
0.0
  0
LINE
  8
LC-001-005-----0
  6
CONTINUOUS
  5
3F0
 10
673.25932
 20
602.361314
 30
0.0
 11
663.816204
 21
611.80443
 31
0.0
  0
LINE
  8
LC-001-005-----0
  6
CONTINUOUS
  5
3F1
 10
672.97762
 20
596.986159
 30
0.0
 11
658.159349
 21
611.80443
 31
0.0
  0
LINE
  8
LC-001-005-----0
  6
CONTINUOUS
  5
3F2
 10
672.83677
 20
594.298582
 30
0.0
 11
655.330922
 21
611.80443
 31
0.0
  0
LINE
  8
LC-001-005-----0
  6
CONTINUOUS
  5
3F3
 10
670.808128
 20
590.67037
 30
0.0
 11
649.674068
 21
611.80443
 31
0.0
  0
LINE
  8
LC-001-005-----0
  6
CONTINUOUS
  5
3F4
 10
669.105737
 20
589.544334
 30
0.0
 11
646.845641
 21
611.80443
 31
0.0
  0
LINE
  8
LC-001-005-----0
  6
CONTINUOUS
  5
3F5
 10
664.509912
 20
588.483304
 30
0.0
 11
641.188787
 21
611.80443
 31
0.0
  0
LINE
  8
LC-001-005-----0
  6
CONTINUOUS
  5
3F6
 10
662.212
 20
587.952789
 30
0.0
 11
638.36036
 21
611.80443
 31
0.0
  0
LINE
  8
LC-001-005-----0
  6
CONTINUOUS
  5
3F7
 10
657.616175
 20
586.89176
 30
0.0
 11
632.703505
 21
611.80443
 31
0.0
  0
LINE
  8
LC-001-005-----0
  6
CONTINUOUS
  5
3F8
 10
655.318263
 20
586.361245
 30
0.0
 11
629.875078
 21
611.80443
 31
0.0
  0
LINE
  8
LC-001-005-----0
  6
CONTINUOUS
  5
3F9
 10
650.722438
 20
585.300215
 30
0.0
 11
624.218224
 21
611.80443
 31
0.0
  0
LINE
  8
LC-001-005-----0
  6
CONTINUOUS
  5
3FA
 10
648.424526
 20
584.7697
 30
0.0
 11
621.389797
 21
611.80443
 31
0.0
  0
LINE
  8
LC-001-005-----0
  6
CONTINUOUS
  5
3FB
 10
643.828702
 20
583.708671
 30
0.0
 11
615.732943
 21
611.80443
 31
0.0
  0
LINE
  8
LC-001-005-----0
  6
CONTINUOUS
  5
3FC
 10
641.530789
 20
583.178156
 30
0.0
 11
612.904515
 21
611.80443
 31
0.0
  0
LINE
  8
LC-001-005-----0
  6
CONTINUOUS
  5
3FD
 10
636.934965
 20
582.117126
 30
0.0
 11
607.247661
 21
611.80443
 31
0.0
  0
LINE
  8
LC-001-005-----0
  6
CONTINUOUS
  5
3FE
 10
634.637053
 20
581.586611
 30
0.0
 11
604.419234
 21
611.80443
 31
0.0
  0
LINE
  8
LC-001-005-----0
  6
CONTINUOUS
  5
3FF
 10
630.041228
 20
580.525581
 30
0.0
 11
598.76238
 21
611.80443
 31
0.0
  0
LINE
  8
LC-001-005-----0
  6
CONTINUOUS
  5
400
 10
627.743316
 20
579.995067
 30
0.0
 11
595.933953
 21
611.80443
 31
0.0
  0
LINE
  8
LC-001-005-----0
  6
CONTINUOUS
  5
401
 10
623.147491
 20
578.934037
 30
0.0
 11
590.277098
 21
611.80443
 31
0.0
  0
LINE
  8
LC-001-005-----0
  6
CONTINUOUS
  5
402
 10
620.849579
 20
578.403522
 30
0.0
 11
587.448671
 21
611.80443
 31
0.0
  0
LINE
  8
LC-001-005-----0
  6
CONTINUOUS
  5
403
 10
615.791817
 20
577.80443
 30
0.0
 11
581.791817
 21
611.80443
 31
0.0
  0
LINE
  8
LC-001-005-----0
  6
CONTINUOUS
  5
404
 10
612.96339
 20
577.80443
 30
0.0
 11
578.96339
 21
611.80443
 31
0.0
  0
LINE
  8
LC-001-005-----0
  6
CONTINUOUS
  5
405
 10
607.306536
 20
577.80443
 30
0.0
 11
573.306536
 21
611.80443
 31
0.0
  0
LINE
  8
LC-001-005-----0
  6
CONTINUOUS
  5
406
 10
604.478109
 20
577.80443
 30
0.0
 11
570.478109
 21
611.80443
 31
0.0
  0
LINE
  8
LC-001-005-----0
  6
CONTINUOUS
  5
407
 10
598.755168
 20
577.870516
 30
0.0
 11
564.821254
 21
611.80443
 31
0.0
  0
LINE
  8
LC-001-005-----0
  6
CONTINUOUS
  5
408
 10
595.077739
 20
578.719518
 30
0.0
 11
561.992827
 21
611.80443
 31
0.0
  0
LINE
  8
LC-001-005-----0
  6
CONTINUOUS
  5
409
 10
587.722883
 20
580.41752
 30
0.0
 11
556.335973
 21
611.80443
 31
0.0
  0
LINE
  8
LC-001-005-----0
  6
CONTINUOUS
  5
40A
 10
584.045454
 20
581.266521
 30
0.0
 11
553.507546
 21
611.80443
 31
0.0
  0
LINE
  8
LC-001-005-----0
  6
CONTINUOUS
  5
40B
 10
576.690597
 20
582.964524
 30
0.0
 11
547.850692
 21
611.80443
 31
0.0
  0
LINE
  8
LC-001-005-----0
  6
CONTINUOUS
  5
40C
 10
573.013169
 20
583.813525
 30
0.0
 11
545.097772
 21
611.728922
 31
0.0
  0
LINE
  8
LC-001-005-----0
  6
CONTINUOUS
  5
40D
 10
565.658312
 20
585.511527
 30
0.0
 11
543.765155
 21
607.404685
 31
0.0
  0
LINE
  8
LC-001-005-----0
  6
CONTINUOUS
  5
40E
 10
561.980884
 20
586.360529
 30
0.0
 11
543.921584
 21
604.419828
 31
0.0
  0
LINE
  8
LC-001-005-----0
  6
CONTINUOUS
  5
40F
 10
554.626027
 20
588.058531
 30
0.0
 11
544.234444
 21
598.450115
 31
0.0
  0
LINE
  8
LC-001-005-----0
  6
CONTINUOUS
  5
410
 10
550.948599
 20
588.907532
 30
0.0
 11
544.390873
 21
595.465258
 31
0.0
  0
ENDBLK
  8
0
  5
411
  0
BLOCK
  8
0
  5
413
  2
*X35
 70
    65
 10
497.146652
 20
591.80443
 30
0.0
  3
*X35
  0
LINE
  8
LC-001-005-----0
  6
CONTINUOUS
  5
414
 10
509.500953
 20
610.556188
 30
0.0
 11
508.399375
 21
611.657767
 31
0.0
  0
LINE
  8
LC-001-005-----0
  6
CONTINUOUS
  5
415
 10
509.398656
 20
605.001631
 30
0.0
 11
502.595858
 21
611.80443
 31
0.0
  0
LINE
  8
LC-001-005-----0
  6
CONTINUOUS
  5
416
 10
509.257807
 20
602.314053
 30
0.0
 11
499.76743
 21
611.80443
 31
0.0
  0
LINE
  8
LC-001-005-----0
  6
CONTINUOUS
  5
417
 10
508.976107
 20
596.938899
 30
0.0
 11
497.201057
 21
608.713949
 31
0.0
  0
LINE
  8
LC-001-005-----0
  6
CONTINUOUS
  5
418
 10
508.835257
 20
594.251322
 30
0.0
 11
497.357487
 21
605.729092
 31
0.0
  0
LINE
  8
LC-001-005-----0
  6
CONTINUOUS
  5
419
 10
505.625295
 20
591.80443
 30
0.0
 11
497.670346
 21
599.759378
 31
0.0
  0
LINE
  8
LC-001-005-----0
  6
CONTINUOUS
  5
41A
 10
502.796868
 20
591.80443
 30
0.0
 11
497.826776
 21
596.774521
 31
0.0
  0
ENDBLK
  8
0
  5
41B
  0
BLOCK
  8
0
  5
41D
  2
*D36
 70
    65
 10
0.0
 20
0.0
 30
0.0
  3
*D36
  0
LINE
  8
LC-004-003-MTH-0
  6
CONTINUOUS
  5
41E
 10
497.146652
 20
609.80443
 30
0.0
 11
497.167663
 21
654.566711
 31
0.0
  0
LINE
  8
LC-004-003-MTH-0
  6
CONTINUOUS
  5
41F
 10
720.146652
 20
609.699758
 30
0.0
 11
720.167663
 21
654.462039
 31
0.0
  0
LINE
  8
LC-005-003-MTG-0
  6
CONTINUOUS
  5
420
 10
497.162593
 20
643.766712
 30
0.0
 11
720.162593
 21
643.66204
 31
0.0
  0
LINE
  8
LC-003-003-----0
  6
CONTINUOUS
  5
421
 10
515.009702
 20
646.107807
 30
0.0
 11
497.162593
 21
643.766712
 31
0.0
  0
LINE
  8
LC-003-003-----0
  6
CONTINUOUS
  5
422
 10
497.162593
 20
643.766712
 30
0.0
 11
515.007496
 21
641.408865
 31
0.0
  0
LINE
  8
LC-003-003-----0
  6
CONTINUOUS
  5
423
 10
515.007496
 20
641.408865
 30
0.0
 11
515.009702
 21
646.107807
 31
0.0
  0
LINE
  8
LC-003-003-----0
  6
CONTINUOUS
  5
424
 10
515.049453
 20
645.496926
 30
0.0
 11
501.842593
 21
643.764516
 31
0.0
  0
LINE
  8
LC-003-003-----0
  6
CONTINUOUS
  5
425
 10
501.842593
 20
643.764516
 30
0.0
 11
515.047821
 21
642.019708
 31
0.0
  0
LINE
  8
LC-003-003-----0
  6
CONTINUOUS
  5
426
 10
515.089204
 20
644.886044
 30
0.0
 11
506.522592
 21
643.762319
 31
0.0
  0
LINE
  8
LC-003-003-----0
  6
CONTINUOUS
  5
427
 10
506.522592
 20
643.762319
 30
0.0
 11
515.088146
 21
642.630552
 31
0.0
  0
LINE
  8
LC-003-003-----0
  6
CONTINUOUS
  5
428
 10
515.128956
 20
644.275163
 30
0.0
 11
511.202592
 21
643.760122
 31
0.0
  0
LINE
  8
LC-003-003-----0
  6
CONTINUOUS
  5
429
 10
511.202592
 20
643.760122
 30
0.0
 11
515.12847
 21
643.241396
 31
0.0
  0
LINE
  8
LC-003-003-----0
  6
CONTINUOUS
  5
42A
 10
702.315485
 20
641.320946
 30
0.0
 11
720.162593
 21
643.66204
 31
0.0
  0
LINE
  8
LC-003-003-----0
  6
CONTINUOUS
  5
42B
 10
720.162593
 20
643.66204
 30
0.0
 11
702.317691
 21
646.019888
 31
0.0
  0
LINE
  8
LC-003-003-----0
  6
CONTINUOUS
  5
42C
 10
702.317691
 20
646.019888
 30
0.0
 11
702.315485
 21
641.320946
 31
0.0
  0
LINE
  8
LC-003-003-----0
  6
CONTINUOUS
  5
42D
 10
702.275734
 20
641.931827
 30
0.0
 11
715.482594
 21
643.664237
 31
0.0
  0
LINE
  8
LC-003-003-----0
  6
CONTINUOUS
  5
42E
 10
715.482594
 20
643.664237
 30
0.0
 11
702.277366
 21
645.409045
 31
0.0
  0
LINE
  8
LC-003-003-----0
  6
CONTINUOUS
  5
42F
 10
702.235982
 20
642.542708
 30
0.0
 11
710.802594
 21
643.666434
 31
0.0
  0
LINE
  8
LC-003-003-----0
  6
CONTINUOUS
  5
430
 10
710.802594
 20
643.666434
 30
0.0
 11
702.237041
 21
644.798201
 31
0.0
  0
LINE
  8
LC-003-003-----0
  6
CONTINUOUS
  5
431
 10
702.196231
 20
643.15359
 30
0.0
 11
706.122595
 21
643.668631
 31
0.0
  0
LINE
  8
LC-003-003-----0
  6
CONTINUOUS
  5
432
 10
706.122595
 20
643.668631
 30
0.0
 11
702.196716
 21
644.187357
 31
0.0
  0
TEXT
  8
LC-003-003-----0
  6
CONTINUOUS
 62
     6
  5
433
 10
592.323981
 20
654.146375
 30
0.0
 40
18.0
  1
226
 50
360.0
 51
15.0
  7
LC-TXTSTYLE-150-400-0-0-D0
 72
     1
 11
611.457839
 21
654.146375
 31
0.0
  0
ENDBLK
  8
0
  5
434
  0
BLOCK
  8
0
  5
436
  2
*D37
 70
    65
 10
0.0
 20
0.0
 30
0.0
  3
*D37
  0
LINE
  8
LC-004-003-MTH-0
  6
CONTINUOUS
  5
437
 10
506.144393
 20
468.681947
 30
0.0
 11
506.144393
 21
73.2
 31
0.0
  0
LINE
  8
LC-004-003-MTH-0
  6
CONTINUOUS
  5
438
 10
711.144393
 20
468.681947
 30
0.0
 11
711.144393
 21
73.2
 31
0.0
  0
LINE
  8
LC-005-003-MTG-0
  6
CONTINUOUS
  5
439
 10
506.144393
 20
84.0
 30
0.0
 11
711.144393
 21
84.0
 31
0.0
  0
LINE
  8
LC-003-003-----0
  6
CONTINUOUS
  5
43A
 10
523.990401
 20
86.349471
 30
0.0
 11
506.144393
 21
84.0
 31
0.0
  0
LINE
  8
LC-003-003-----0
  6
CONTINUOUS
  5
43B
 10
506.144393
 20
84.0
 30
0.0
 11
523.990401
 21
81.650529
 31
0.0
  0
LINE
  8
LC-003-003-----0
  6
CONTINUOUS
  5
43C
 10
523.990401
 20
81.650529
 30
0.0
 11
523.990401
 21
86.349471
 31
0.0
  0
LINE
  8
LC-003-003-----0
  6
CONTINUOUS
  5
43D
 10
524.030439
 20
85.738609
 30
0.0
 11
510.824393
 21
84.0
 31
0.0
  0
LINE
  8
LC-003-003-----0
  6
CONTINUOUS
  5
43E
 10
510.824393
 20
84.0
 30
0.0
 11
524.030439
 21
82.261391
 31
0.0
  0
LINE
  8
LC-003-003-----0
  6
CONTINUOUS
  5
43F
 10
524.070477
 20
85.127746
 30
0.0
 11
515.504393
 21
84.0
 31
0.0
  0
LINE
  8
LC-003-003-----0
  6
CONTINUOUS
  5
440
 10
515.504393
 20
84.0
 30
0.0
 11
524.070477
 21
82.872254
 31
0.0
  0
LINE
  8
LC-003-003-----0
  6
CONTINUOUS
  5
441
 10
524.110515
 20
84.516884
 30
0.0
 11
520.184393
 21
84.0
 31
0.0
  0
LINE
  8
LC-003-003-----0
  6
CONTINUOUS
  5
442
 10
520.184393
 20
84.0
 30
0.0
 11
524.110515
 21
83.483116
 31
0.0
  0
LINE
  8
LC-003-003-----0
  6
CONTINUOUS
  5
443
 10
693.298386
 20
81.650529
 30
0.0
 11
711.144393
 21
84.0
 31
0.0
  0
LINE
  8
LC-003-003-----0
  6
CONTINUOUS
  5
444
 10
711.144393
 20
84.0
 30
0.0
 11
693.298386
 21
86.349471
 31
0.0
  0
LINE
  8
LC-003-003-----0
  6
CONTINUOUS
  5
445
 10
693.298386
 20
86.349471
 30
0.0
 11
693.298386
 21
81.650529
 31
0.0
  0
LINE
  8
LC-003-003-----0
  6
CONTINUOUS
  5
446
 10
693.258347
 20
82.261391
 30
0.0
 11
706.464393
 21
84.0
 31
0.0
  0
LINE
  8
LC-003-003-----0
  6
CONTINUOUS
  5
447
 10
706.464393
 20
84.0
 30
0.0
 11
693.258347
 21
85.738609
 31
0.0
  0
LINE
  8
LC-003-003-----0
  6
CONTINUOUS
  5
448
 10
693.218309
 20
82.872254
 30
0.0
 11
701.784393
 21
84.0
 31
0.0
  0
LINE
  8
LC-003-003-----0
  6
CONTINUOUS
  5
449
 10
701.784393
 20
84.0
 30
0.0
 11
693.218309
 21
85.127746
 31
0.0
  0
LINE
  8
LC-003-003-----0
  6
CONTINUOUS
  5
44A
 10
693.178271
 20
83.483116
 30
0.0
 11
697.104393
 21
84.0
 31
0.0
  0
LINE
  8
LC-003-003-----0
  6
CONTINUOUS
  5
44B
 10
697.104393
 20
84.0
 30
0.0
 11
693.178271
 21
84.516884
 31
0.0
  0
TEXT
  8
LC-003-003-----0
  6
CONTINUOUS
 62
     6
  5
44C
 10
586.9483
 20
94.431999
 30
0.0
 40
18.0
  1
Ø205
 51
15.0
  7
LC-TXTSTYLE-150-400-0-0-D0
 72
     1
 11
611.439639
 21
94.431999
 31
0.0
  0
ENDBLK
  8
0
  5
44D
  0
ENDSEC
  0
SECTION
  2
ENTITIES
  0
VIEWPORT
  8
LC-000
  5
667
 67
     1
 68
     1
 10
594.0
 20
420.0
 30
0.0
 40
1188.0
 41
840.0
 69
     1
1001
ACAD
1000
MVIEW
1002
{
1070
    16
1010
0.0
1020
0.0
1030
0.0
1010
0.0
1020
0.0
1030
1.0
1040
0.0
1040
840.0
1040
594.0
1040
420.0
1040
50.0
1040
0.0
1040
0.0
1070
     0
1070
   100
1070
     1
1070
     1
1070
     0
1070
     0
1070
     0
1070
     0
1040
0.0
1040
0.0
1040
0.0
1040
1.0
1040
1.0
1040
0.0
1040
0.0
1070
     0
1002
{
1002
}
1002
}
  0
VIEWPORT
  8
0
  5
668
 67
     1
 68
     1
 10
0.0
 20
0.0
 30
0.0
 40
0.0
 41
0.0
 69
     1
1001
ACAD
1000
MVIEW
1002
{
1070
    16
1010
0.0
1020
0.0
1030
0.0
1010
0.0
1020
0.0
1030
1.0
1040
0.0
1040
840.0
1040
0.0
1040
0.0
1040
50.0
1040
0.0
1040
0.0
1070
     0
1070
   100
1070
     0
1070
     1
1070
     0
1070
     0
1070
     0
1070
     0
1040
0.0
1040
0.0
1040
0.0
1040
0.5
1040
0.5
1040
0.5
1040
0.5
1070
     0
1002
{
1002
}
1002
}
  0
INSERT
  8
0
  5
44E
  2
*X0
 10
450.644393
 20
237.681947
 30
0.0
  0
INSERT
  8
0
  5
44F
  2
*X1
 10
684.644393
 20
237.681947
 30
0.0
  0
DIMENSION
  8
0
  5
450
  2
*D2
 10
608.644393
 20
196.0
 30
0.0
 11
608.644393
 21
196.0
 31
0.0
  1
DN150
 13
528.644393
 23
242.181947
 33
0.0
 14
688.644393
 24
242.181947
 34
0.0
  3
LC-DIM-L-0090-02-02
  0
DIMENSION
  8
0
  5
451
  2
*D3
 10
608.644393
 20
154.0
 30
0.0
 11
608.644393
 21
154.0
 31
0.0
  1
%%c166
 13
525.523703
 23
305.681947
 33
0.0
 14
691.765083
 24
305.681947
 34
0.0
  3
LC-DIM-L-0090-02-02
  0
DIMENSION
  8
0
  5
452
  2
*D4
 10
440.0
 20
600.47693
 30
0.0
 11
440.0
 21
600.47693
 31
0.0
  1
23
 13
492.168143
 23
611.80443
 33
0.0
 14
490.198143
 24
589.14943
 34
0.0
 50
90.0
  3
LC-DIM-L-0090-02-02
  0
INSERT
  8
0
  5
453
  2
*X5
 10
510.144393
 20
472.369896
 30
0.0
  0
INSERT
  8
0
  5
454
  2
*X6
 10
488.228143
 20
468.681947
 30
0.0
  0
INSERT
  8
0
  5
455
  2
*X7
 10
699.756893
 20
468.681947
 30
0.0
  0
INSERT
  8
0
  5
456
  2
*X8
 10
511.644393
 20
579.714179
 30
0.0
  0
INSERT
  8
0
  5
457
  2
*X9
 10
535.900491
 20
532.039753
 30
0.0
  0
INSERT
  8
0
  5
458
  2
*X10
 10
595.644393
 20
530.148479
 30
0.0
  0
INSERT
  8
0
  5
459
  2
*X11
 10
608.644393
 20
530.148479
 30
0.0
  0
INSERT
  8
0
  5
45A
  2
*X12
 10
625.644393
 20
532.039753
 30
0.0
  0
INSERT
  8
0
  5
45B
  2
*X13
 10
680.773896
 20
579.714179
 30
0.0
  0
DIMENSION
  8
0
  5
45C
  2
*D14
 10
612.720139
 20
680.0
 30
0.0
 11
612.720139
 21
680.0
 31
0.0
  1
240
 13
488.720643
 23
609.83443
 33
0.0
 14
728.568143
 24
609.83443
 34
0.0
  3
LC-DIM-L-0090-02-02
  0
INSERT
  8
0
  5
45D
  2
*X15
 10
702.644393
 20
472.369896
 30
0.0
  0
INSERT
  8
0
  5
45E
  2
*X16
 10
672.943887
 20
586.056161
 30
0.0
  0
INSERT
  8
0
  5
460
  2
BLK1
 10
0.0
 20
0.0
 30
0.0
  0
INSERT
  8
0
  5
461
  2
*X18
 10
519.644393
 20
325.91747
 30
0.0
  0
INSERT
  8
0
  5
462
  2
*X19
 10
593.766514
 20
386.755389
 30
0.0
  0
INSERT
  8
0
  5
463
  2
*X20
 10
597.994267
 20
399.857261
 30
0.0
  0
INSERT
  8
0
  5
464
  2
*X21
 10
593.766514
 20
407.859254
 30
0.0
  0
INSERT
  8
0
  5
465
  2
*X22
 10
608.644393
 20
324.057645
 30
0.0
  0
INSERT
  8
0
  5
466
  2
*X23
 10
608.644393
 20
323.76072
 30
0.0
  0
INSERT
  8
0
  5
467
  2
*X24
 10
522.644393
 20
423.829293
 30
0.0
  0
INSERT
  8
0
  5
468
  2
*X25
 10
690.644393
 20
423.829293
 30
0.0
  0
INSERT
  8
0
  5
469
  2
*X26
 10
608.644393
 20
416.854189
 30
0.0
  0
DIMENSION
  8
0
  5
46A
  2
*D27
 10
597.00138
 20
120.0
 30
0.0
 11
597.00138
 21
120.0
 31
0.0
  1
%%c<>
 13
514.644393
 23
436.381947
 33
0.0
 14
702.644393
 24
436.381947
 34
0.0
  3
LC-DIM-L-0090-02-02
  0
DIMENSION
  8
0
  5
46B
  2
*D28
 10
603.877575
 20
720.0
 30
0.0
 11
603.877575
 21
720.0
 31
0.0
  1
%%c315
 13
450.644393
 23
492.886035
 33
0.0
 14
766.644393
 24
492.886035
 34
0.0
  3
LC-DIM-L-0090-02-02
  0
DIMENSION
  8
0
  5
46C
  2
*D29
 10
826.0
 20
552.345232
 30
0.0
 11
826.0
 21
552.345232
 31
0.0
  1
42-130
 13
725.120643
 23
611.80443
 33
0.0
 14
766.644393
 24
492.886035
 34
0.0
 50
90.0
  3
LC-DIM-L-0090-02-02
  0
DIMENSION
  8
0
  5
46D
  2
*D30
 10
826.0
 20
396.283991
 30
0.0
 11
826.0
 21
396.283991
 31
0.0
  1
197
 13
766.644393
 23
492.886035
 33
0.0
 14
688.644393
 24
299.681947
 34
0.0
 50
90.0
  3
LC-DIM-L-0090-02-02
  0
DIMENSION
  8
0
  5
46E
  2
*D31
 10
826.0
 20
268.681947
 30
0.0
 11
826.0
 21
268.681947
 31
0.0
 13
688.644393
 23
299.681947
 33
0.0
 14
687.438622
 24
237.681947
 34
0.0
 50
90.0
  3
LC-DIM-L-0090-02-02
  0
INSERT
  8
0
  5
470
  2
BLK2
 10
0.0
 20
0.0
 30
0.0
  0
INSERT
  8
0
  5
471
  2
*X33
 10
703.646652
 20
591.80443
 30
0.0
  0
INSERT
  8
0
  5
472
  2
*X34
 10
543.642134
 20
577.80443
 30
0.0
  0
INSERT
  8
0
  5
473
  2
*X35
 10
497.146652
 20
591.80443
 30
0.0
  0
DIMENSION
  8
0
  5
474
  2
*D36
 10
608.662593
 20
643.714376
 30
0.0
 11
608.662593
 21
643.714376
 31
0.0
 70
     1
  1
226
 13
497.146652
 23
609.80443
 33
0.0
 14
720.146652
 24
609.699758
 34
0.0
  3
LC-DIM-L-0090-02-02
  0
DIMENSION
  8
0
  5
475
  2
*D37
 10
608.644393
 20
84.0
 30
0.0
 11
608.644393
 21
84.0
 31
0.0
  1
%%c<>
 13
506.144393
 23
468.681947
 33
0.0
 14
711.144393
 24
468.681947
 34
0.0
  3
LC-DIM-L-0090-02-02
  0
LINE
  8
LC-002-002-----0
  6
CONTINUOUS
  5
477
 10
525.523703
 20
305.681947
 30
0.0
 11
528.644393
 21
299.681947
 31
0.0
  0
LINE
  8
LC-002-002-----0
  6
CONTINUOUS
  5
478
 10
529.459603
 20
306.86477
 30
0.0
 11
608.644393
 21
306.86477
 31
0.0
  0
LINE
  8
LC-002-002-----0
  6
CONTINUOUS
  5
479
 10
532.644393
 20
301.348551
 30
0.0
 11
608.644393
 21
301.348551
 31
0.0
  0
LINE
  8
LC-002-002-----0
  6
CONTINUOUS
  5
47A
 10
684.644393
 20
301.348551
 30
0.0
 11
608.644393
 21
301.348551
 31
0.0
  0
LINE
  8
LC-002-002-----0
  6
CONTINUOUS
  5
47B
 10
687.829184
 20
306.86477
 30
0.0
 11
608.644393
 21
306.86477
 31
0.0
  0
LINE
  8
LC-002-002-----0
  6
CONTINUOUS
  5
47C
 10
687.829184
 20
306.86477
 30
0.0
 11
684.644393
 21
301.348551
 31
0.0
  0
LINE
  8
LC-002-002-----0
  6
CONTINUOUS
  5
47D
 10
691.765083
 20
305.681947
 30
0.0
 11
688.644393
 21
299.681947
 31
0.0
  0
LINE
  8
LC-002-002-----0
  6
CONTINUOUS
  5
47E
 10
688.644393
 20
299.681947
 30
0.0
 11
688.644393
 21
242.181947
 31
0.0
  0
LINE
  8
LC-002-002-----0
  6
CONTINUOUS
  5
47F
 10
684.644393
 20
301.348551
 30
0.0
 11
684.644393
 21
237.681947
 31
0.0
  0
LINE
  8
LC-002-002-----0
  6
CONTINUOUS
  5
480
 10
688.644393
 20
242.181947
 30
0.0
 11
687.438622
 21
237.681947
 31
0.0
  0
LINE
  8
LC-002-002-----0
  6
CONTINUOUS
 62
     2
  5
481
 10
574.044107
 20
670.059038
 30
0.0
 11
574.044107
 21
655.059038
 31
0.0
  0
LINE
  8
LC-002-002-----0
  6
CONTINUOUS
 62
     2
  5
482
 10
559.044107
 20
670.059038
 30
0.0
 11
574.044107
 21
670.059038
 31
0.0
  0
LINE
  8
LC-002-002-----0
  6
CONTINUOUS
 62
     2
  5
483
 10
559.044107
 20
707.453749
 30
0.0
 11
574.044107
 21
707.453749
 31
0.0
  0
LINE
  8
LC-002-002-----0
  6
CONTINUOUS
 62
     2
  5
484
 10
559.044107
 20
707.453749
 30
0.0
 11
559.044107
 21
692.453749
 31
0.0
  0
LINE
  8
LC-002-002-----0
  6
CONTINUOUS
 62
     2
  5
485
 10
574.044107
 20
707.453749
 30
0.0
 11
574.044107
 21
692.453749
 31
0.0
  0
LINE
  8
LC-002-002-----0
  6
CONTINUOUS
 62
     2
  5
486
 10
559.044107
 20
692.453749
 30
0.0
 11
574.044107
 21
692.453749
 31
0.0
  0
LINE
  8
LC-002-002-----0
  6
CONTINUOUS
  5
487
 10
513.144393
 20
570.63893
 30
0.0
 11
517.196134
 21
570.63893
 31
0.0
  0
LINE
  8
LC-002-002-----0
  6
CONTINUOUS
  5
488
 10
702.644393
 20
476.69752
 30
0.0
 11
702.644393
 21
474.619896
 31
0.0
  0
LINE
  8
LC-002-002-----0
  6
CONTINUOUS
  5
489
 10
511.644393
 20
590.148479
 30
0.0
 11
546.480658
 21
590.148479
 31
0.0
  0
LINE
  8
LC-002-002-----0
  6
CONTINUOUS
  5
48A
 10
536.008627
 20
588.016885
 30
0.0
 11
554.806417
 21
588.016885
 31
0.0
  0
LINE
  8
LC-002-002-----0
  6
CONTINUOUS
  5
48B
 10
511.644393
 20
590.148479
 30
0.0
 11
536.008627
 21
588.016885
 31
0.0
  0
LINE
  8
LC-002-002-----0
  6
CONTINUOUS
  5
48C
 10
494.138143
 20
592.10443
 30
0.0
 11
508.913143
 21
592.10443
 31
0.0
  0
LINE
  8
LC-002-002-----0
  6
CONTINUOUS
  5
48D
 10
514.675393
 20
566.19893
 30
0.0
 11
514.675393
 21
562.386905
 31
0.0
  0
ARC
  8
LC-006-002-RND-0
  6
CONTINUOUS
  5
48F
 10
513.690393
 20
566.19893
 30
0.0
 40
0.985
 50
0.0
 51
90.0
  0
ARC
  8
LC-006-002-RND-0
  6
CONTINUOUS
  5
490
 10
508.913143
 20
591.11943
 30
0.0
 40
0.985
 50
0.0
 51
90.0
  0
LINE
  8
LC-002-002-----0
  6
CONTINUOUS
  5
491
 10
509.898143
 20
591.11943
 30
0.0
 11
509.898143
 21
571.12393
 31
0.0
  0
LINE
  8
LC-002-002-----0
  6
CONTINUOUS
  5
492
 10
510.883143
 20
550.764958
 30
0.0
 11
510.883143
 21
548.302458
 31
0.0
  0
LINE
  8
LC-002-002-----0
  6
CONTINUOUS
  5
493
 10
509.651893
 20
567.18393
 30
0.0
 11
513.690393
 21
567.18393
 31
0.0
  0
ARC
  8
LC-006-002-RND-0
  6
CONTINUOUS
  5
494
 10
509.651893
 20
569.64643
 30
0.0
 40
2.4625
 50
180.0
 51
270.0
  0
ARC
  8
LC-006-002-RND-0
  6
CONTINUOUS
  5
495
 10
510.883143
 20
571.12393
 30
0.0
 40
0.985
 50
180.0
 51
270.0
  0
LINE
  8
LC-002-002-----0
  6
CONTINUOUS
  5
496
 10
514.675393
 20
556.38051
 30
0.0
 11
514.675393
 21
552.536905
 31
0.0
  0
LINE
  8
LC-002-002-----0
  6
CONTINUOUS
  5
497
 10
507.189393
 20
586.68693
 30
0.0
 11
507.189393
 21
569.64643
 31
0.0
  0
ARC
  8
LC-006-002-RND-0
  6
CONTINUOUS
  5
498
 10
504.726893
 20
586.68693
 30
0.0
 40
2.4625
 50
0.0
 51
90.0
  0
ARC
  8
LC-006-002-RND-0
  6
CONTINUOUS
  5
499
 10
490.198143
 20
590.62693
 30
0.0
 40
1.4775
 50
90.0
 51
180.0
  0
ARC
  8
LC-006-002-RND-0
  6
CONTINUOUS
  5
49A
 10
513.690393
 20
556.38051
 30
0.0
 40
0.985
 50
0.0
 51
75.0
  0
ARC
  8
LC-006-002-RND-0
  6
CONTINUOUS
  5
49B
 10
513.690393
 20
562.386905
 30
0.0
 40
0.985
 50
285.0
 51
0.0
  0
LINE
  8
LC-002-002-----0
  6
CONTINUOUS
  5
49C
 10
491.183143
 20
607.37193
 30
0.0
 11
491.183143
 21
592.10443
 31
0.0
  0
LINE
  8
LC-002-002-----0
  6
CONTINUOUS
  5
49D
 10
490.198143
 20
589.14943
 30
0.0
 11
504.726893
 21
589.14943
 31
0.0
  0
LINE
  8
LC-002-002-----0
  6
CONTINUOUS
  5
49E
 10
514.675393
 20
542.686905
 30
0.0
 11
514.675393
 21
546.53051
 31
0.0
  0
LINE
  8
LC-002-002-----0
  6
CONTINUOUS
  5
49F
 10
510.883143
 20
540.914958
 30
0.0
 11
513.94533
 21
541.735468
 31
0.0
  0
LINE
  8
LC-002-002-----0
  6
CONTINUOUS
  5
4A0
 10
510.883143
 20
538.452458
 30
0.0
 11
510.883143
 21
540.914958
 31
0.0
  0
LINE
  8
LC-002-002-----0
  6
CONTINUOUS
  5
4A1
 10
510.883143
 20
538.452458
 30
0.0
 11
513.94533
 21
537.631947
 31
0.0
  0
ARC
  8
LC-006-002-RND-0
  6
CONTINUOUS
  5
4A2
 10
513.690393
 20
536.68051
 30
0.0
 40
0.985
 50
0.0
 51
75.0
  0
ARC
  8
LC-006-002-RND-0
  6
CONTINUOUS
  5
4A3
 10
513.690393
 20
542.686905
 30
0.0
 40
0.985
 50
285.0
 51
0.0
  0
LINE
  8
LC-002-002-----0
  6
CONTINUOUS
  5
4A4
 10
514.675393
 20
532.836905
 30
0.0
 11
514.675393
 21
536.68051
 31
0.0
  0
ARC
  8
LC-006-002-RND-0
  6
CONTINUOUS
  5
4A5
 10
513.690393
 20
532.836905
 30
0.0
 40
0.985
 50
285.0
 51
0.0
  0
LINE
  8
LC-002-002-----0
  6
CONTINUOUS
  5
4A6
 10
510.883143
 20
531.064958
 30
0.0
 11
513.94533
 21
531.885468
 31
0.0
  0
LINE
  8
LC-002-002-----0
  6
CONTINUOUS
  5
4A7
 10
510.883143
 20
528.602458
 30
0.0
 11
510.883143
 21
531.064958
 31
0.0
  0
LINE
  8
LC-002-002-----0
  6
CONTINUOUS
  5
4A8
 10
510.883143
 20
560.614958
 30
0.0
 11
513.94533
 21
561.435468
 31
0.0
  0
LINE
  8
LC-002-002-----0
  6
CONTINUOUS
  5
4A9
 10
510.883143
 20
528.602458
 30
0.0
 11
513.94533
 21
527.781947
 31
0.0
  0
ARC
  8
LC-006-002-RND-0
  6
CONTINUOUS
  5
4AA
 10
513.690393
 20
552.536905
 30
0.0
 40
0.985
 50
285.0
 51
0.0
  0
ARC
  8
LC-006-002-RND-0
  6
CONTINUOUS
  5
4AB
 10
513.690393
 20
546.53051
 30
0.0
 40
0.985
 50
0.0
 51
75.0
  0
LINE
  8
LC-002-002-----0
  6
CONTINUOUS
  5
4AC
 10
510.883143
 20
558.152458
 30
0.0
 11
513.94533
 21
557.331947
 31
0.0
  0
ARC
  8
LC-006-002-RND-0
  6
CONTINUOUS
  5
4AD
 10
513.690393
 20
526.83051
 30
0.0
 40
0.985
 50
0.0
 51
75.0
  0
LINE
  8
LC-002-002-----0
  6
CONTINUOUS
  5
4AE
 10
510.883143
 20
550.764958
 30
0.0
 11
513.94533
 21
551.585468
 31
0.0
  0
LINE
  8
LC-002-002-----0
  6
CONTINUOUS
  5
4AF
 10
510.883143
 20
548.302458
 30
0.0
 11
513.94533
 21
547.481947
 31
0.0
  0
LINE
  8
LC-002-002-----0
  6
CONTINUOUS
  5
4B0
 10
514.675393
 20
522.986905
 30
0.0
 11
514.675393
 21
526.83051
 31
0.0
  0
ARC
  8
LC-006-002-RND-0
  6
CONTINUOUS
  5
4B1
 10
513.690393
 20
522.986905
 30
0.0
 40
0.985
 50
285.0
 51
0.0
  0
LINE
  8
LC-002-002-----0
  6
CONTINUOUS
  5
4B2
 10
510.883143
 20
521.214958
 30
0.0
 11
513.94533
 21
522.035468
 31
0.0
  0
LINE
  8
LC-002-002-----0
  6
CONTINUOUS
  5
4B3
 10
510.883143
 20
518.752458
 30
0.0
 11
510.883143
 21
521.214958
 31
0.0
  0
LINE
  8
LC-002-002-----0
  6
CONTINUOUS
  5
4B4
 10
510.883143
 20
518.752458
 30
0.0
 11
513.94533
 21
517.931947
 31
0.0
  0
LINE
  8
LC-002-002-----0
  6
CONTINUOUS
  5
4B5
 10
517.531893
 20
568.16893
 30
0.0
 11
517.531893
 21
468.681947
 31
0.0
  0
ARC
  8
LC-006-002-RND-0
  6
CONTINUOUS
  5
4B6
 10
513.690393
 20
516.98051
 30
0.0
 40
0.985
 50
0.0
 51
75.0
  0
LINE
  8
LC-002-002-----0
  6
CONTINUOUS
  5
4B7
 10
514.675393
 20
513.136905
 30
0.0
 11
514.675393
 21
516.98051
 31
0.0
  0
ARC
  8
LC-006-002-RND-0
  6
CONTINUOUS
  5
4B8
 10
515.561893
 20
568.16893
 30
0.0
 40
1.97
 50
0.0
 51
90.0
  0
ARC
  8
LC-006-002-RND-0
  6
CONTINUOUS
  5
4B9
 10
513.690393
 20
513.136905
 30
0.0
 40
0.985
 50
285.0
 51
0.0
  0
LINE
  8
LC-002-002-----0
  6
CONTINUOUS
  5
4BA
 10
510.883143
 20
511.364958
 30
0.0
 11
513.94533
 21
512.185468
 31
0.0
  0
LINE
  8
LC-002-002-----0
  6
CONTINUOUS
  5
4BB
 10
510.883143
 20
511.364958
 30
0.0
 11
510.883143
 21
508.902458
 31
0.0
  0
LINE
  8
LC-002-002-----0
  6
CONTINUOUS
  5
4BC
 10
510.883143
 20
508.902458
 30
0.0
 11
513.94533
 21
508.081947
 31
0.0
  0
ARC
  8
LC-006-002-RND-0
  6
CONTINUOUS
  5
4BD
 10
513.690393
 20
507.13051
 30
0.0
 40
0.985
 50
0.0
 51
75.0
  0
LINE
  8
LC-002-002-----0
  6
CONTINUOUS
  5
4BE
 10
514.675393
 20
507.13051
 30
0.0
 11
514.675393
 21
503.286905
 31
0.0
  0
ARC
  8
LC-006-002-RND-0
  6
CONTINUOUS
  5
4BF
 10
513.690393
 20
503.286905
 30
0.0
 40
0.985
 50
285.0
 51
0.0
  0
LINE
  8
LC-002-002-----0
  6
CONTINUOUS
  5
4C0
 10
510.883143
 20
501.514958
 30
0.0
 11
513.94533
 21
502.335468
 31
0.0
  0
LINE
  8
LC-002-002-----0
  6
CONTINUOUS
  5
4C1
 10
510.883143
 20
501.514958
 30
0.0
 11
510.883143
 21
499.052458
 31
0.0
  0
LINE
  8
LC-002-002-----0
  6
CONTINUOUS
  5
4C2
 10
510.883143
 20
499.052458
 30
0.0
 11
513.94533
 21
498.231947
 31
0.0
  0
ARC
  8
LC-006-002-RND-0
  6
CONTINUOUS
  5
4C3
 10
513.690393
 20
497.28051
 30
0.0
 40
0.985
 50
0.0
 51
75.0
  0
LINE
  8
LC-002-002-----0
  6
CONTINUOUS
  5
4C4
 10
514.675393
 20
497.28051
 30
0.0
 11
514.675393
 21
493.436905
 31
0.0
  0
LINE
  8
LC-002-002-----0
  6
CONTINUOUS
  5
4C5
 10
723.150643
 20
592.10443
 30
0.0
 11
708.375643
 21
592.10443
 31
0.0
  0
LINE
  8
LC-002-002-----0
  6
CONTINUOUS
  5
4C6
 10
702.613393
 20
566.19893
 30
0.0
 11
702.613393
 21
562.386905
 31
0.0
  0
ARC
  8
LC-006-002-RND-0
  6
CONTINUOUS
  5
4C7
 10
703.598393
 20
566.19893
 30
0.0
 40
0.985
 50
90.0
 51
180.0
  0
ARC
  8
LC-006-002-RND-0
  6
CONTINUOUS
  5
4C8
 10
708.375643
 20
591.11943
 30
0.0
 40
0.985
 50
90.0
 51
180.0
  0
LINE
  8
LC-002-002-----0
  6
CONTINUOUS
  5
4C9
 10
707.390643
 20
591.11943
 30
0.0
 11
707.390643
 21
571.12393
 31
0.0
  0
LINE
  8
LC-002-002-----0
  6
CONTINUOUS
  5
4CA
 10
706.405643
 20
550.764958
 30
0.0
 11
706.405643
 21
548.302458
 31
0.0
  0
LINE
  8
LC-002-002-----0
  6
CONTINUOUS
  5
4CB
 10
707.636893
 20
567.18393
 30
0.0
 11
703.598393
 21
567.18393
 31
0.0
  0
ARC
  8
LC-006-002-RND-0
  6
CONTINUOUS
  5
4CC
 10
707.636893
 20
569.64643
 30
0.0
 40
2.4625
 50
270.0
 51
0.0
  0
ARC
  8
LC-006-002-RND-0
  6
CONTINUOUS
  5
4CD
 10
706.405643
 20
571.12393
 30
0.0
 40
0.985
 50
270.0
 51
0.0
  0
LINE
  8
LC-002-002-----0
  6
CONTINUOUS
  5
4CE
 10
702.613393
 20
556.38051
 30
0.0
 11
702.613393
 21
552.536905
 31
0.0
  0
LINE
  8
LC-002-002-----0
  6
CONTINUOUS
  5
4CF
 10
710.099393
 20
586.68693
 30
0.0
 11
710.099393
 21
569.64643
 31
0.0
  0
ARC
  8
LC-006-002-RND-0
  6
CONTINUOUS
  5
4D0
 10
712.561893
 20
586.68693
 30
0.0
 40
2.4625
 50
90.0
 51
180.0
  0
LINE
  8
LC-002-002-----0
  6
CONTINUOUS
  5
4D1
 10
510.883143
 20
560.614958
 30
0.0
 11
510.883143
 21
558.152458
 31
0.0
  0
ARC
  8
LC-006-002-RND-0
  6
CONTINUOUS
  5
4D2
 10
727.090643
 20
590.62693
 30
0.0
 40
1.4775
 50
0.0
 51
90.0
  0
ARC
  8
LC-006-002-RND-0
  6
CONTINUOUS
  5
4D3
 10
703.598393
 20
556.38051
 30
0.0
 40
0.985
 50
105.0
 51
180.0
  0
ARC
  8
LC-006-002-RND-0
  6
CONTINUOUS
  5
4D4
 10
703.598393
 20
562.386905
 30
0.0
 40
0.985
 50
180.0
 51
255.0
  0
LINE
  8
LC-002-002-----0
  6
CONTINUOUS
  5
4D5
 10
726.105643
 20
607.37193
 30
0.0
 11
726.105643
 21
592.10443
 31
0.0
  0
LINE
  8
LC-002-002-----0
  6
CONTINUOUS
  5
4D6
 10
727.090643
 20
589.14943
 30
0.0
 11
712.561893
 21
589.14943
 31
0.0
  0
LINE
  8
LC-002-002-----0
  6
CONTINUOUS
  5
4D7
 10
702.613393
 20
542.686905
 30
0.0
 11
702.613393
 21
546.53051
 31
0.0
  0
LINE
  8
LC-002-002-----0
  6
CONTINUOUS
  5
4D8
 10
706.405643
 20
540.914958
 30
0.0
 11
703.343456
 21
541.735468
 31
0.0
  0
LINE
  8
LC-002-002-----0
  6
CONTINUOUS
  5
4D9
 10
706.405643
 20
538.452458
 30
0.0
 11
706.405643
 21
540.914958
 31
0.0
  0
LINE
  8
LC-002-002-----0
  6
CONTINUOUS
  5
4DA
 10
706.405643
 20
538.452458
 30
0.0
 11
703.343456
 21
537.631947
 31
0.0
  0
ARC
  8
LC-006-002-RND-0
  6
CONTINUOUS
  5
4DB
 10
703.598393
 20
536.68051
 30
0.0
 40
0.985
 50
105.0
 51
180.0
  0
ARC
  8
LC-006-002-RND-0
  6
CONTINUOUS
  5
4DC
 10
703.598393
 20
542.686905
 30
0.0
 40
0.985
 50
180.0
 51
255.0
  0
LINE
  8
LC-002-002-----0
  6
CONTINUOUS
  5
4DD
 10
702.613393
 20
532.836905
 30
0.0
 11
702.613393
 21
536.68051
 31
0.0
  0
ARC
  8
LC-006-002-RND-0
  6
CONTINUOUS
  5
4DE
 10
703.598393
 20
532.836905
 30
0.0
 40
0.985
 50
180.0
 51
255.0
  0
LINE
  8
LC-002-002-----0
  6
CONTINUOUS
  5
4DF
 10
706.405643
 20
531.064958
 30
0.0
 11
703.343456
 21
531.885468
 31
0.0
  0
LINE
  8
LC-002-002-----0
  6
CONTINUOUS
  5
4E0
 10
706.405643
 20
528.602458
 30
0.0
 11
706.405643
 21
531.064958
 31
0.0
  0
LINE
  8
LC-002-002-----0
  6
CONTINUOUS
  5
4E1
 10
706.405643
 20
560.614958
 30
0.0
 11
703.343456
 21
561.435468
 31
0.0
  0
LINE
  8
LC-002-002-----0
  6
CONTINUOUS
  5
4E2
 10
706.405643
 20
528.602458
 30
0.0
 11
703.343456
 21
527.781947
 31
0.0
  0
ARC
  8
LC-006-002-RND-0
  6
CONTINUOUS
  5
4E3
 10
703.598393
 20
552.536905
 30
0.0
 40
0.985
 50
180.0
 51
255.0
  0
ARC
  8
LC-006-002-RND-0
  6
CONTINUOUS
  5
4E4
 10
703.598393
 20
546.53051
 30
0.0
 40
0.985
 50
105.0
 51
180.0
  0
LINE
  8
LC-002-002-----0
  6
CONTINUOUS
  5
4E5
 10
706.405643
 20
558.152458
 30
0.0
 11
703.343456
 21
557.331947
 31
0.0
  0
ARC
  8
LC-006-002-RND-0
  6
CONTINUOUS
  5
4E6
 10
703.598393
 20
526.83051
 30
0.0
 40
0.985
 50
105.0
 51
180.0
  0
LINE
  8
LC-002-002-----0
  6
CONTINUOUS
  5
4E7
 10
706.405643
 20
550.764958
 30
0.0
 11
703.343456
 21
551.585468
 31
0.0
  0
LINE
  8
LC-002-002-----0
  6
CONTINUOUS
  5
4E8
 10
706.405643
 20
548.302458
 30
0.0
 11
703.343456
 21
547.481947
 31
0.0
  0
LINE
  8
LC-002-002-----0
  6
CONTINUOUS
  5
4E9
 10
702.613393
 20
522.986905
 30
0.0
 11
702.613393
 21
526.83051
 31
0.0
  0
ARC
  8
LC-006-002-RND-0
  6
CONTINUOUS
  5
4EA
 10
703.598393
 20
522.986905
 30
0.0
 40
0.985
 50
180.0
 51
255.0
  0
LINE
  8
LC-002-002-----0
  6
CONTINUOUS
  5
4EB
 10
706.405643
 20
521.214958
 30
0.0
 11
703.343456
 21
522.035468
 31
0.0
  0
LINE
  8
LC-002-002-----0
  6
CONTINUOUS
  5
4EC
 10
706.405643
 20
518.752458
 30
0.0
 11
706.405643
 21
521.214958
 31
0.0
  0
LINE
  8
LC-002-002-----0
  6
CONTINUOUS
  5
4ED
 10
706.405643
 20
518.752458
 30
0.0
 11
703.343456
 21
517.931947
 31
0.0
  0
LINE
  8
LC-002-002-----0
  6
CONTINUOUS
  5
4EE
 10
699.756893
 20
568.16893
 30
0.0
 11
699.756893
 21
468.681947
 31
0.0
  0
ARC
  8
LC-006-002-RND-0
  6
CONTINUOUS
  5
4EF
 10
703.598393
 20
516.98051
 30
0.0
 40
0.985
 50
105.0
 51
180.0
  0
LINE
  8
LC-002-002-----0
  6
CONTINUOUS
  5
4F0
 10
702.613393
 20
513.136905
 30
0.0
 11
702.613393
 21
516.98051
 31
0.0
  0
ARC
  8
LC-006-002-RND-0
  6
CONTINUOUS
  5
4F1
 10
701.726893
 20
568.16893
 30
0.0
 40
1.97
 50
90.0
 51
180.0
  0
ARC
  8
LC-006-002-RND-0
  6
CONTINUOUS
  5
4F2
 10
703.598393
 20
513.136905
 30
0.0
 40
0.985
 50
180.0
 51
255.0
  0
LINE
  8
LC-002-002-----0
  6
CONTINUOUS
  5
4F3
 10
706.405643
 20
511.364958
 30
0.0
 11
703.343456
 21
512.185468
 31
0.0
  0
LINE
  8
LC-002-002-----0
  6
CONTINUOUS
  5
4F4
 10
706.405643
 20
511.364958
 30
0.0
 11
706.405643
 21
508.902458
 31
0.0
  0
LINE
  8
LC-002-002-----0
  6
CONTINUOUS
  5
4F5
 10
706.405643
 20
508.902458
 30
0.0
 11
703.343456
 21
508.081947
 31
0.0
  0
ARC
  8
LC-006-002-RND-0
  6
CONTINUOUS
  5
4F6
 10
703.598393
 20
507.13051
 30
0.0
 40
0.985
 50
105.0
 51
180.0
  0
LINE
  8
LC-002-002-----0
  6
CONTINUOUS
  5
4F7
 10
702.613393
 20
507.13051
 30
0.0
 11
702.613393
 21
503.286905
 31
0.0
  0
ARC
  8
LC-006-002-RND-0
  6
CONTINUOUS
  5
4F8
 10
703.598393
 20
503.286905
 30
0.0
 40
0.985
 50
180.0
 51
255.0
  0
LINE
  8
LC-002-002-----0
  6
CONTINUOUS
  5
4F9
 10
494.138143
 20
609.83443
 30
0.0
 11
494.138143
 21
592.10443
 31
0.0
  0
LINE
  8
LC-002-002-----0
  6
CONTINUOUS
  5
4FA
 10
488.720643
 20
609.83443
 30
0.0
 11
488.720643
 21
608.84943
 31
0.0
  0
ARC
  8
LC-006-002-RND-0
  6
CONTINUOUS
  5
4FB
 10
490.690643
 20
609.83443
 30
0.0
 40
1.97
 50
90.0
 51
180.0
  0
LINE
  8
LC-002-002-----0
  6
CONTINUOUS
  5
4FC
 10
706.405643
 20
501.514958
 30
0.0
 11
703.343456
 21
502.335468
 31
0.0
  0
LINE
  8
LC-002-002-----0
  6
CONTINUOUS
  5
4FD
 10
706.405643
 20
501.514958
 30
0.0
 11
706.405643
 21
499.052458
 31
0.0
  0
LINE
  8
LC-002-002-----0
  6
CONTINUOUS
  5
4FE
 10
706.405643
 20
499.052458
 30
0.0
 11
703.343456
 21
498.231947
 31
0.0
  0
ARC
  8
LC-006-002-RND-0
  6
CONTINUOUS
  5
4FF
 10
703.598393
 20
497.28051
 30
0.0
 40
0.985
 50
105.0
 51
180.0
  0
LINE
  8
LC-002-002-----0
  6
CONTINUOUS
  5
500
 10
702.613393
 20
497.28051
 30
0.0
 11
702.613393
 21
493.436905
 31
0.0
  0
LINE
  8
LC-002-002-----0
  6
CONTINUOUS
  5
501
 10
706.405643
 20
560.614958
 30
0.0
 11
706.405643
 21
558.152458
 31
0.0
  0
LINE
  8
LC-002-002-----0
  6
CONTINUOUS
  5
502
 10
723.150643
 20
609.83443
 30
0.0
 11
723.150643
 21
592.10443
 31
0.0
  0
LINE
  8
LC-002-002-----0
  6
CONTINUOUS
  5
503
 10
728.568143
 20
609.83443
 30
0.0
 11
728.568143
 21
608.84943
 31
0.0
  0
ARC
  8
LC-006-002-RND-0
  6
CONTINUOUS
  5
504
 10
726.598143
 20
609.83443
 30
0.0
 40
1.97
 50
0.0
 51
90.0
  0
LINE
  8
LC-002-002-----0
  6
CONTINUOUS
  5
505
 10
706.405643
 20
491.664958
 30
0.0
 11
703.343456
 21
492.485468
 31
0.0
  0
LINE
  8
LC-002-002-----0
  6
CONTINUOUS
  5
506
 10
706.405643
 20
570.13893
 30
0.0
 11
701.726893
 21
570.13893
 31
0.0
  0
ARC
  8
LC-006-002-RND-0
  6
CONTINUOUS
  5
507
 10
725.120643
 20
609.83443
 30
0.0
 40
1.97
 50
90.0
 51
180.0
  0
LINE
  8
LC-002-002-----0
  6
CONTINUOUS
  5
508
 10
510.883143
 20
491.664958
 30
0.0
 11
513.94533
 21
492.485468
 31
0.0
  0
LINE
  8
LC-002-002-----0
  6
CONTINUOUS
  5
509
 10
726.598143
 20
611.80443
 30
0.0
 11
725.120643
 21
611.80443
 31
0.0
  0
ARC
  8
LC-006-002-RND-0
  6
CONTINUOUS
  5
50A
 10
727.583143
 20
607.37193
 30
0.0
 40
1.4775
 50
90.0
 51
180.0
  0
LINE
  8
LC-002-002-----0
  6
CONTINUOUS
  5
50B
 10
706.405643
 20
489.202458
 30
0.0
 11
706.405643
 21
491.664958
 31
0.0
  0
LINE
  8
LC-002-002-----0
  6
CONTINUOUS
  5
50C
 10
510.883143
 20
570.13893
 30
0.0
 11
515.561893
 21
570.13893
 31
0.0
  0
ARC
  8
LC-006-002-RND-0
  6
CONTINUOUS
  5
50D
 10
727.090643
 20
590.62693
 30
0.0
 40
1.4775
 50
270.0
 51
0.0
  0
ARC
  8
LC-006-002-RND-0
  6
CONTINUOUS
  5
50E
 10
492.168143
 20
609.83443
 30
0.0
 40
1.97
 50
0.0
 51
90.0
  0
LINE
  8
LC-002-002-----0
  6
CONTINUOUS
  5
50F
 10
490.690643
 20
611.80443
 30
0.0
 11
492.168143
 21
611.80443
 31
0.0
  0
ARC
  8
LC-006-002-RND-0
  6
CONTINUOUS
  5
510
 10
489.705643
 20
607.37193
 30
0.0
 40
1.4775
 50
0.0
 51
90.0
  0
LINE
  8
LC-002-002-----0
  6
CONTINUOUS
  5
511
 10
510.883143
 20
489.202458
 30
0.0
 11
510.883143
 21
491.664958
 31
0.0
  0
ARC
  8
LC-006-002-RND-0
  6
CONTINUOUS
  5
512
 10
490.198143
 20
590.62693
 30
0.0
 40
1.4775
 50
180.0
 51
270.0
  0
LINE
  8
LC-002-002-----0
  6
CONTINUOUS
  5
513
 10
510.883143
 20
489.202458
 30
0.0
 11
513.94533
 21
488.381947
 31
0.0
  0
ARC
  8
LC-006-002-RND-0
  6
CONTINUOUS
  5
514
 10
513.690393
 20
487.43051
 30
0.0
 40
0.985
 50
0.0
 51
75.0
  0
LINE
  8
LC-002-002-----0
  6
CONTINUOUS
  5
515
 10
490.198143
 20
592.10443
 30
0.0
 11
491.183143
 21
592.10443
 31
0.0
  0
LINE
  8
LC-002-002-----0
  6
CONTINUOUS
  5
516
 10
488.720643
 20
608.84943
 30
0.0
 11
489.705643
 21
608.84943
 31
0.0
  0
LINE
  8
LC-002-002-----0
  6
CONTINUOUS
  5
517
 10
514.675393
 20
483.586905
 30
0.0
 11
514.675393
 21
487.43051
 31
0.0
  0
ARC
  8
LC-006-002-RND-0
  6
CONTINUOUS
  5
518
 10
513.690393
 20
493.436905
 30
0.0
 40
0.985
 50
285.0
 51
0.0
  0
LINE
  8
LC-002-002-----0
  6
CONTINUOUS
  5
519
 10
510.883143
 20
481.814958
 30
0.0
 11
513.94533
 21
482.635468
 31
0.0
  0
LINE
  8
LC-002-002-----0
  6
CONTINUOUS
  5
51A
 10
510.883143
 20
479.352458
 30
0.0
 11
510.883143
 21
481.814958
 31
0.0
  0
LINE
  8
LC-002-002-----0
  6
CONTINUOUS
  5
51B
 10
514.675393
 20
473.736905
 30
0.0
 11
514.675393
 21
477.58051
 31
0.0
  0
ARC
  8
LC-006-002-RND-0
  6
CONTINUOUS
  5
51C
 10
513.690393
 20
477.58051
 30
0.0
 40
0.985
 50
0.0
 51
75.0
  0
ARC
  8
LC-006-002-RND-0
  6
CONTINUOUS
  5
51D
 10
513.690393
 20
477.58051
 30
0.0
 40
0.985
 50
0.0
 51
75.0
  0
ARC
  8
LC-006-002-RND-0
  6
CONTINUOUS
  5
51E
 10
513.690393
 20
483.586905
 30
0.0
 40
0.985
 50
285.0
 51
0.0
  0
LINE
  8
LC-002-002-----0
  6
CONTINUOUS
  5
51F
 10
706.405643
 20
489.202458
 30
0.0
 11
703.343456
 21
488.381947
 31
0.0
  0
LINE
  8
LC-002-002-----0
  6
CONTINUOUS
  5
520
 10
513.94533
 20
478.531947
 30
0.0
 11
510.883143
 21
479.352458
 31
0.0
  0
ARC
  8
LC-006-002-RND-0
  6
CONTINUOUS
  5
521
 10
513.690393
 20
473.736905
 30
0.0
 40
0.985
 50
285.0
 51
0.0
  0
LINE
  8
LC-002-002-----0
  6
CONTINUOUS
  5
522
 10
510.883143
 20
471.964958
 30
0.0
 11
510.883143
 21
469.502458
 31
0.0
  0
LINE
  8
LC-002-002-----0
  6
CONTINUOUS
  5
523
 10
510.883143
 20
469.502458
 30
0.0
 11
513.94533
 21
468.681947
 31
0.0
  0
LINE
  8
LC-002-002-----0
  6
CONTINUOUS
  5
524
 10
727.090643
 20
592.10443
 30
0.0
 11
726.105643
 21
592.10443
 31
0.0
  0
ARC
  8
LC-006-002-RND-0
  6
CONTINUOUS
  5
525
 10
703.598393
 20
487.43051
 30
0.0
 40
0.985
 50
105.0
 51
180.0
  0
LINE
  8
LC-002-002-----0
  6
CONTINUOUS
  5
526
 10
728.568143
 20
608.84943
 30
0.0
 11
727.583143
 21
608.84943
 31
0.0
  0
LINE
  8
LC-002-002-----0
  6
CONTINUOUS
  5
527
 10
702.613393
 20
483.586905
 30
0.0
 11
702.613393
 21
487.43051
 31
0.0
  0
LINE
  8
LC-002-002-----0
  6
CONTINUOUS
  5
528
 10
706.405643
 20
481.814958
 30
0.0
 11
703.343456
 21
482.635468
 31
0.0
  0
ARC
  8
LC-006-002-RND-0
  6
CONTINUOUS
  5
529
 10
703.598393
 20
493.436905
 30
0.0
 40
0.985
 50
180.0
 51
255.0
  0
LINE
  8
LC-002-002-----0
  6
CONTINUOUS
  5
52A
 10
706.405643
 20
479.352458
 30
0.0
 11
706.405643
 21
481.814958
 31
0.0
  0
LINE
  8
LC-002-002-----0
  6
CONTINUOUS
  5
52B
 10
706.405643
 20
479.352458
 30
0.0
 11
703.343456
 21
478.531947
 31
0.0
  0
LINE
  8
LC-002-002-----0
  6
CONTINUOUS
  5
52C
 10
706.405643
 20
471.964958
 30
0.0
 11
703.343456
 21
472.785468
 31
0.0
  0
ARC
  8
LC-006-002-RND-0
  6
CONTINUOUS
  5
52D
 10
703.598393
 20
477.58051
 30
0.0
 40
0.985
 50
105.0
 51
180.0
  0
LINE
  8
LC-002-002-----0
  6
CONTINUOUS
  5
52E
 10
706.405643
 20
471.964958
 30
0.0
 11
706.405643
 21
469.502458
 31
0.0
  0
ARC
  8
LC-006-002-RND-0
  6
CONTINUOUS
  5
52F
 10
703.598393
 20
477.58051
 30
0.0
 40
0.985
 50
105.0
 51
180.0
  0
ARC
  8
LC-006-002-RND-0
  6
CONTINUOUS
  5
530
 10
703.598393
 20
483.586905
 30
0.0
 40
0.985
 50
180.0
 51
255.0
  0
ARC
  8
LC-006-002-RND-0
  6
CONTINUOUS
  5
531
 10
703.598393
 20
473.736905
 30
0.0
 40
0.985
 50
180.0
 51
255.0
  0
LINE
  8
LC-002-002-----0
  6
CONTINUOUS
  5
532
 10
538.639758
 20
544.648479
 30
0.0
 11
538.639758
 21
544.714179
 31
0.0
  0
LINE
  8
LC-002-002-----0
  6
CONTINUOUS
  5
533
 10
706.405643
 20
469.502458
 30
0.0
 11
703.343456
 21
468.681947
 31
0.0
  0
LINE
  8
LC-002-002-----0
  6
CONTINUOUS
  5
534
 10
511.644393
 20
590.148479
 30
0.0
 11
511.644393
 21
572.13893
 31
0.0
  0
LINE
  8
LC-002-002-----0
  6
CONTINUOUS
  5
535
 10
510.144393
 20
476.69752
 30
0.0
 11
510.144393
 21
474.619896
 31
0.0
  0
LINE
  8
LC-002-002-----0
  6
CONTINUOUS
  5
536
 10
511.644393
 20
587.63893
 30
0.0
 11
533.644393
 21
585.714179
 31
0.0
  0
LINE
  8
LC-002-002-----0
  6
CONTINUOUS
  5
537
 10
522.644393
 20
586.676554
 30
0.0
 11
518.645023
 21
571.750701
 31
0.0
  0
ARC
  8
LC-006-002-RND-0
  6
CONTINUOUS
  5
538
 10
513.690393
 20
477.58051
 30
0.0
 40
0.985
 50
0.0
 51
75.0
  0
ARC
  8
LC-006-002-RND-0
  6
CONTINUOUS
  5
539
 10
517.196134
 20
572.13893
 30
0.0
 40
1.5
 50
270.0
 51
345.0
  0
ARC
  8
LC-006-002-RND-0
  6
CONTINUOUS
  5
53A
 10
513.144393
 20
572.13893
 30
0.0
 40
1.5
 50
180.0
 51
270.0
  0
LINE
  8
LC-002-002-----0
  6
CONTINUOUS
  5
53B
 10
511.644393
 20
590.148479
 30
0.0
 11
511.644393
 21
572.13893
 31
0.0
  0
LINE
  8
LC-002-002-----0
  6
CONTINUOUS
  5
53C
 10
533.644393
 20
585.714179
 30
0.0
 11
535.981754
 21
547.381461
 31
0.0
  0
LINE
  8
LC-002-002-----0
  6
CONTINUOUS
  5
53D
 10
536.008627
 20
588.016885
 30
0.0
 11
538.405134
 21
548.714179
 31
0.0
  0
LINE
  8
LC-002-002-----0
  6
CONTINUOUS
  5
53E
 10
535.900491
 20
548.714179
 30
0.0
 11
538.405134
 21
548.714179
 31
0.0
  0
LINE
  8
LC-002-002-----0
  6
CONTINUOUS
  5
53F
 10
538.649036
 20
544.714179
 30
0.0
 11
535.981754
 21
547.381461
 31
0.0
  0
LINE
  8
LC-002-002-----0
  6
CONTINUOUS
  5
540
 10
538.405134
 20
548.714179
 30
0.0
 11
541.072416
 21
546.046897
 31
0.0
  0
LINE
  8
LC-002-002-----0
  6
CONTINUOUS
  5
541
 10
541.072416
 20
546.046897
 30
0.0
 11
541.176241
 21
544.344166
 31
0.0
  0
ARC
  8
LC-006-002-RND-0
  6
CONTINUOUS
  5
542
 10
546.166972
 20
544.648479
 30
0.0
 40
5.0
 50
183.489325
 51
263.635301
  0
ARC
  8
LC-006-002-RND-0
  6
CONTINUOUS
  5
543
 10
546.139758
 20
544.648479
 30
0.0
 40
7.5
 50
180.0
 51
263.651867
  0
LINE
  8
LC-002-002-----0
  6
CONTINUOUS
  5
544
 10
545.612689
 20
539.679297
 30
0.0
 11
608.644393
 21
532.648479
 31
0.0
  0
LINE
  8
LC-002-002-----0
  6
CONTINUOUS
  5
545
 10
545.310489
 20
537.194466
 30
0.0
 11
608.644393
 21
530.148479
 31
0.0
  0
LINE
  8
LC-002-002-----0
  6
CONTINUOUS
  5
546
 10
591.644393
 20
534.54473
 30
0.0
 11
591.644393
 21
532.039753
 31
0.0
  0
LINE
  8
LC-002-002-----0
  6
CONTINUOUS
  5
547
 10
595.644393
 20
534.098553
 30
0.0
 11
595.644393
 21
531.594748
 31
0.0
  0
LINE
  8
LC-002-002-----0
  6
CONTINUOUS
  5
548
 10
540.644393
 20
579.714179
 30
0.0
 11
542.534637
 21
548.714179
 31
0.0
  0
LINE
  8
LC-002-002-----0
  6
CONTINUOUS
  5
549
 10
534.010247
 20
579.714179
 30
0.0
 11
536.51489
 21
579.714179
 31
0.0
  0
LINE
  8
LC-002-002-----0
  6
CONTINUOUS
  5
54A
 10
548.644393
 20
579.714179
 30
0.0
 11
548.644393
 21
548.714179
 31
0.0
  0
LINE
  8
LC-002-002-----0
  6
CONTINUOUS
  5
54B
 10
547.644393
 20
579.714179
 30
0.0
 11
547.644393
 21
548.714179
 31
0.0
  0
LINE
  8
LC-002-002-----0
  6
CONTINUOUS
  5
54C
 10
542.534637
 20
548.714179
 30
0.0
 11
548.644393
 21
548.714179
 31
0.0
  0
LINE
  8
LC-002-002-----0
  6
CONTINUOUS
  5
54D
 10
557.644393
 20
548.714179
 30
0.0
 11
567.644393
 21
548.714179
 31
0.0
  0
LINE
  8
LC-002-002-----0
  6
CONTINUOUS
  5
54E
 10
557.644393
 20
579.714179
 30
0.0
 11
557.644393
 21
548.714179
 31
0.0
  0
LINE
  8
LC-002-002-----0
  6
CONTINUOUS
  5
54F
 10
566.144393
 20
579.714179
 30
0.0
 11
566.144393
 21
548.714179
 31
0.0
  0
LINE
  8
LC-002-002-----0
  6
CONTINUOUS
  5
550
 10
567.644393
 20
579.714179
 30
0.0
 11
567.644393
 21
548.714179
 31
0.0
  0
LINE
  8
LC-002-002-----0
  6
CONTINUOUS
  5
551
 10
557.644393
 20
579.714179
 30
0.0
 11
567.644393
 21
579.714179
 31
0.0
  0
LINE
  8
LC-002-002-----0
  6
CONTINUOUS
  5
552
 10
577.644393
 20
579.714179
 30
0.0
 11
577.644393
 21
548.714179
 31
0.0
  0
LINE
  8
LC-002-002-----0
  6
CONTINUOUS
  5
553
 10
577.644393
 20
579.714179
 30
0.0
 11
589.644393
 21
579.714179
 31
0.0
  0
LINE
  8
LC-002-002-----0
  6
CONTINUOUS
  5
554
 10
587.644393
 20
579.714179
 30
0.0
 11
587.644393
 21
548.714179
 31
0.0
  0
LINE
  8
LC-002-002-----0
  6
CONTINUOUS
  5
555
 10
589.644393
 20
579.714179
 30
0.0
 11
589.644393
 21
548.714179
 31
0.0
  0
LINE
  8
LC-002-002-----0
  6
CONTINUOUS
  5
556
 10
577.644393
 20
548.714179
 30
0.0
 11
589.644393
 21
548.714179
 31
0.0
  0
LINE
  8
LC-002-002-----0
  6
CONTINUOUS
  5
557
 10
601.644393
 20
579.714179
 30
0.0
 11
601.644393
 21
548.714179
 31
0.0
  0
LINE
  8
LC-002-002-----0
  6
CONTINUOUS
  5
558
 10
601.644393
 20
548.714179
 30
0.0
 11
608.644393
 21
548.714179
 31
0.0
  0
LINE
  8
LC-002-002-----0
  6
CONTINUOUS
  5
559
 10
601.644393
 20
579.714179
 30
0.0
 11
608.644393
 21
579.714179
 31
0.0
  0
LINE
  8
LC-002-002-----0
  6
CONTINUOUS
  5
55A
 10
540.644393
 20
579.714179
 30
0.0
 11
548.644393
 21
579.714179
 31
0.0
  0
LINE
  8
LC-002-002-----0
  6
CONTINUOUS
  5
55B
 10
671.978297
 20
537.194466
 30
0.0
 11
608.644393
 21
530.148479
 31
0.0
  0
LINE
  8
LC-002-002-----0
  6
CONTINUOUS
  5
55C
 10
671.676097
 20
539.679297
 30
0.0
 11
608.644393
 21
532.648479
 31
0.0
  0
LINE
  8
LC-002-002-----0
  6
CONTINUOUS
  5
55D
 10
621.644393
 20
534.098553
 30
0.0
 11
621.644393
 21
531.594748
 31
0.0
  0
LINE
  8
LC-002-002-----0
  6
CONTINUOUS
  5
55E
 10
625.644393
 20
534.54473
 30
0.0
 11
625.644393
 21
532.039753
 31
0.0
  0
ARC
  8
LC-006-002-RND-0
  6
CONTINUOUS
  5
55F
 10
671.149028
 20
544.648479
 30
0.0
 40
7.5
 50
276.348133
 51
0.0
  0
ARC
  8
LC-006-002-RND-0
  6
CONTINUOUS
  5
560
 10
671.121814
 20
544.648479
 30
0.0
 40
5.0
 50
276.364699
 51
356.510675
  0
LINE
  8
LC-002-002-----0
  6
CONTINUOUS
  5
561
 10
678.649028
 20
544.723457
 30
0.0
 11
681.307032
 21
547.381461
 31
0.0
  0
LINE
  8
LC-002-002-----0
  6
CONTINUOUS
  5
562
 10
678.883652
 20
548.714179
 30
0.0
 11
676.21637
 21
546.046897
 31
0.0
  0
LINE
  8
LC-002-002-----0
  6
CONTINUOUS
  5
563
 10
676.21637
 20
546.046897
 30
0.0
 11
676.112545
 21
544.344166
 31
0.0
  0
LINE
  8
LC-002-002-----0
  6
CONTINUOUS
  5
564
 10
683.644393
 20
585.714179
 30
0.0
 11
681.307032
 21
547.381461
 31
0.0
  0
LINE
  8
LC-002-002-----0
  6
CONTINUOUS
  5
565
 10
681.280159
 20
588.016885
 30
0.0
 11
678.883652
 21
548.714179
 31
0.0
  0
LINE
  8
LC-002-002-----0
  6
CONTINUOUS
  5
566
 10
681.388295
 20
548.714179
 30
0.0
 11
678.883652
 21
548.714179
 31
0.0
  0
LINE
  8
LC-002-002-----0
  6
CONTINUOUS
  5
567
 10
683.278539
 20
579.714179
 30
0.0
 11
680.773896
 21
579.714179
 31
0.0
  0
LINE
  8
LC-002-002-----0
  6
CONTINUOUS
  5
568
 10
705.644393
 20
590.148479
 30
0.0
 11
683.086133
 21
590.148479
 31
0.0
  0
LINE
  8
LC-002-002-----0
  6
CONTINUOUS
  5
569
 10
705.644393
 20
590.148479
 30
0.0
 11
681.280159
 21
588.016885
 31
0.0
  0
LINE
  8
LC-002-002-----0
  6
CONTINUOUS
  5
56A
 10
705.644393
 20
587.63893
 30
0.0
 11
683.644393
 21
585.714179
 31
0.0
  0
LINE
  8
LC-002-002-----0
  6
CONTINUOUS
  5
56B
 10
705.644393
 20
590.148479
 30
0.0
 11
705.644393
 21
572.13893
 31
0.0
  0
LINE
  8
LC-002-002-----0
  6
CONTINUOUS
  5
56C
 10
694.644393
 20
586.676554
 30
0.0
 11
698.643763
 21
571.750701
 31
0.0
  0
ARC
  8
LC-006-002-RND-0
  6
CONTINUOUS
  5
56D
 10
700.092652
 20
572.13893
 30
0.0
 40
1.5
 50
195.0
 51
270.0
  0
LINE
  8
LC-002-002-----0
  6
CONTINUOUS
  5
56E
 10
704.144393
 20
570.63893
 30
0.0
 11
700.092652
 21
570.63893
 31
0.0
  0
ARC
  8
LC-006-002-RND-0
  6
CONTINUOUS
  5
56F
 10
704.144393
 20
572.13893
 30
0.0
 40
1.5
 50
270.0
 51
0.0
  0
LINE
  8
LC-002-002-----0
  6
CONTINUOUS
  5
570
 10
676.644393
 20
579.714179
 30
0.0
 11
668.644393
 21
579.714179
 31
0.0
  0
LINE
  8
LC-002-002-----0
  6
CONTINUOUS
  5
571
 10
676.644393
 20
579.714179
 30
0.0
 11
674.754149
 21
548.714179
 31
0.0
  0
LINE
  8
LC-002-002-----0
  6
CONTINUOUS
  5
572
 10
669.644393
 20
579.714179
 30
0.0
 11
669.644393
 21
548.714179
 31
0.0
  0
LINE
  8
LC-002-002-----0
  6
CONTINUOUS
  5
573
 10
668.644393
 20
579.714179
 30
0.0
 11
668.644393
 21
548.714179
 31
0.0
  0
LINE
  8
LC-002-002-----0
  6
CONTINUOUS
  5
574
 10
674.754149
 20
548.714179
 30
0.0
 11
668.644393
 21
548.714179
 31
0.0
  0
LINE
  8
LC-002-002-----0
  6
CONTINUOUS
  5
575
 10
659.644393
 20
579.714179
 30
0.0
 11
659.644393
 21
548.714179
 31
0.0
  0
LINE
  8
LC-002-002-----0
  6
CONTINUOUS
  5
576
 10
659.644393
 20
548.714179
 30
0.0
 11
649.644393
 21
548.714179
 31
0.0
  0
LINE
  8
LC-002-002-----0
  6
CONTINUOUS
  5
577
 10
651.144393
 20
579.714179
 30
0.0
 11
651.144393
 21
548.714179
 31
0.0
  0
LINE
  8
LC-002-002-----0
  6
CONTINUOUS
  5
578
 10
649.644393
 20
579.714179
 30
0.0
 11
649.644393
 21
548.714179
 31
0.0
  0
LINE
  8
LC-002-002-----0
  6
CONTINUOUS
  5
579
 10
659.644393
 20
579.714179
 30
0.0
 11
649.644393
 21
579.714179
 31
0.0
  0
LINE
  8
LC-002-002-----0
  6
CONTINUOUS
  5
57A
 10
639.644393
 20
579.714179
 30
0.0
 11
639.644393
 21
548.714179
 31
0.0
  0
LINE
  8
LC-002-002-----0
  6
CONTINUOUS
  5
57B
 10
639.644393
 20
579.714179
 30
0.0
 11
631.916163
 21
579.714179
 31
0.0
  0
LINE
  8
LC-002-002-----0
  6
CONTINUOUS
  5
57C
 10
629.644393
 20
579.374661
 30
0.0
 11
629.644393
 21
548.714179
 31
0.0
  0
LINE
  8
LC-002-002-----0
  6
CONTINUOUS
  5
57D
 10
627.644393
 20
579.075759
 30
0.0
 11
627.644393
 21
548.714179
 31
0.0
  0
LINE
  8
LC-002-002-----0
  6
CONTINUOUS
  5
57E
 10
639.644393
 20
548.714179
 30
0.0
 11
627.644393
 21
548.714179
 31
0.0
  0
LINE
  8
LC-002-002-----0
  6
CONTINUOUS
  5
57F
 10
615.644393
 20
548.714179
 30
0.0
 11
608.644393
 21
548.714179
 31
0.0
  0
LINE
  8
LC-002-002-----0
  6
CONTINUOUS
  5
580
 10
615.644393
 20
579.714179
 30
0.0
 11
615.644393
 21
548.714179
 31
0.0
  0
LINE
  8
LC-002-002-----0
  6
CONTINUOUS
  5
581
 10
615.644393
 20
579.714179
 30
0.0
 11
608.644393
 21
579.714179
 31
0.0
  0
LINE
  8
LC-002-002-----0
  6
CONTINUOUS
  5
582
 10
678.649028
 20
544.648479
 30
0.0
 11
678.649028
 21
544.723457
 31
0.0
  0
LINE
  8
LC-002-002-----0
  6
CONTINUOUS
  5
583
 10
510.883143
 20
471.964958
 30
0.0
 11
513.94533
 21
472.785468
 31
0.0
  0
LINE
  8
LC-002-002-----0
  6
CONTINUOUS
  5
584
 10
514.644393
 20
476.69752
 30
0.0
 11
514.644393
 21
474.619896
 31
0.0
  0
ARC
  8
LC-002-002-----0
  6
CONTINUOUS
  5
585
 10
512.394393
 20
476.69752
 30
0.0
 40
2.25
 50
0.0
 51
180.0
  0
ARC
  8
LC-002-002-----0
  6
CONTINUOUS
  5
586
 10
512.394393
 20
474.619896
 30
0.0
 40
2.25
 50
180.0
 51
0.0
  0
ARC
  8
LC-002-002-----0
  6
CONTINUOUS
  5
587
 10
704.894393
 20
476.69752
 30
0.0
 40
2.25
 50
0.0
 51
180.0
  0
ARC
  8
LC-002-002-----0
  6
CONTINUOUS
  5
588
 10
704.894393
 20
474.619896
 30
0.0
 40
2.25
 50
180.0
 51
0.0
  0
LINE
  8
LC-002-002-----0
  6
CONTINUOUS
  5
589
 10
702.613393
 20
473.736905
 30
0.0
 11
702.613393
 21
477.58051
 31
0.0
  0
LINE
  8
LC-002-002-----0
  6
CONTINUOUS
  5
58A
 10
674.969071
 20
590.148479
 30
0.0
 11
670.808128
 21
590.148479
 31
0.0
  0
ARC
  8
LC-002-002-----0
  6
CONTINUOUS
  5
58B
 10
621.168364
 20
580.10791
 30
0.0
 40
2.0
 50
245.607736
 51
320.392264
  0
ARC
  8
LC-002-002-----0
  6
CONTINUOUS
  5
58C
 10
621.168364
 20
580.10791
 30
0.0
 40
4.0
 50
215.160583
 51
338.862692
  0
ARC
  8
LC-002-002-----0
  6
CONTINUOUS
  5
58D
 10
621.168364
 20
580.10791
 30
0.0
 40
4.5
 50
210.789434
 51
342.424023
  0
LINE
  8
LC-002-002-----0
  6
CONTINUOUS
  5
58E
 10
621.168364
 20
578.10791
 30
0.0
 11
679.834398
 21
586.875607
 31
0.0
  0
LINE
  8
LC-002-002-----0
  6
CONTINUOUS
  5
58F
 10
541.072416
 20
546.046897
 30
0.0
 11
676.21637
 21
546.046897
 31
0.0
  0
LINE
  8
LC-002-002-----0
  6
CONTINUOUS
  5
590
 10
680.361506
 20
589.96549
 30
0.0
 11
682.834046
 21
590.335014
 31
0.0
  0
LINE
  8
LC-002-002-----0
  6
CONTINUOUS
  5
591
 10
680.657125
 20
587.987458
 30
0.0
 11
683.129665
 21
588.356982
 31
0.0
  0
LINE
  8
LC-002-002-----0
  6
CONTINUOUS
  5
592
 10
680.361506
 20
589.96549
 30
0.0
 11
679.249655
 21
590.788217
 31
0.0
  0
LINE
  8
LC-002-002-----0
  6
CONTINUOUS
  5
593
 10
680.657125
 20
587.987458
 30
0.0
 11
679.834398
 21
586.875607
 31
0.0
  0
LINE
  8
LC-002-002-----0
  6
CONTINUOUS
  5
594
 10
673.239506
 20
586.878888
 30
0.0
 11
672.943887
 21
588.85692
 31
0.0
  0
LINE
  8
LC-002-002-----0
  6
CONTINUOUS
  5
595
 10
672.943887
 20
588.85692
 30
0.0
 11
673.766614
 21
589.968771
 31
0.0
  0
LINE
  8
LC-002-002-----0
  6
CONTINUOUS
  5
596
 10
673.239506
 20
586.878888
 30
0.0
 11
674.351357
 21
586.056161
 31
0.0
  0
LINE
  8
LC-002-002-----0
  6
CONTINUOUS
  5
597
 10
682.834046
 20
590.335014
 30
0.0
 11
683.970871
 21
589.493807
 31
0.0
  0
LINE
  8
LC-002-002-----0
  6
CONTINUOUS
  5
598
 10
683.129665
 20
588.356982
 30
0.0
 11
683.970871
 21
589.493807
 31
0.0
  0
LINE
  8
LC-002-002-----0
  6
DASHDOT
 62
     2
  5
59A
 10
608.644393
 20
611.80443
 30
0.0
 11
608.644393
 21
237.681947
 31
0.0
  0
LINE
  8
LC-002-002-----0
  6
CONTINUOUS
  5
59B
 10
703.144393
 20
464.681947
 30
0.0
 11
698.644393
 21
464.681947
 31
0.0
  0
ARC
  8
LC-006-002-RND-0
  6
CONTINUOUS
  5
59C
 10
703.144393
 20
468.681947
 30
0.0
 40
4.0
 50
270.0
 51
0.0
  0
LINE
  8
LC-002-002-----0
  6
CONTINUOUS
  5
59D
 10
487.737286
 20
475.174841
 30
0.0
 11
492.237286
 21
470.674841
 31
0.0
  0
LINE
  8
LC-002-002-----0
  6
CONTINUOUS
  5
59E
 10
529.459603
 20
306.86477
 30
0.0
 11
532.644393
 21
301.348551
 31
0.0
  0
LINE
  8
LC-002-002-----0
  6
CONTINUOUS
  5
59F
 10
498.444393
 20
486.381947
 30
0.0
 11
498.444393
 21
475.881947
 31
0.0
  0
LINE
  8
LC-002-002-----0
  6
CONTINUOUS
  5
5A0
 10
618.637606
 20
327.201677
 30
0.0
 11
619.191984
 21
324.057645
 31
0.0
  0
LINE
  8
LC-002-002-----0
  6
CONTINUOUS
  5
5A1
 10
510.144393
 20
468.681947
 30
0.0
 11
608.644393
 21
468.681947
 31
0.0
  0
LINE
  8
LC-002-002-----0
  6
CONTINUOUS
  5
5A2
 10
703.343456
 20
468.681947
 30
0.0
 11
608.644393
 21
468.681947
 31
0.0
  0
LINE
  8
LC-002-002-----0
  6
CONTINUOUS
  5
5A3
 10
729.5515
 20
475.174841
 30
0.0
 11
725.0515
 21
470.674841
 31
0.0
  0
LINE
  8
LC-002-002-----0
  6
CONTINUOUS
  5
5A4
 10
718.844393
 20
486.381947
 30
0.0
 11
718.844393
 21
475.881947
 31
0.0
  0
LINE
  8
LC-002-002-----0
  6
CONTINUOUS
  5
5A5
 10
707.144393
 20
468.681947
 30
0.0
 11
698.644393
 21
468.681947
 31
0.0
  0
LINE
  8
LC-002-002-----0
  6
CONTINUOUS
  5
5A6
 10
529.850164
 20
237.681947
 30
0.0
 11
687.438622
 21
237.681947
 31
0.0
  0
LINE
  8
LC-002-002-----0
  6
CONTINUOUS
  5
5A7
 10
528.644393
 20
299.681947
 30
0.0
 11
528.644393
 21
242.181947
 31
0.0
  0
LINE
  8
LC-002-002-----0
  6
CONTINUOUS
  5
5A8
 10
532.644393
 20
301.348551
 30
0.0
 11
532.644393
 21
237.681947
 31
0.0
  0
LINE
  8
LC-002-002-----0
  6
CONTINUOUS
  5
5A9
 10
528.644393
 20
242.181947
 30
0.0
 11
529.850164
 21
237.681947
 31
0.0
  0
ARC
  8
LC-006-002-RND-0
  6
CONTINUOUS
  5
5AA
 10
730.844393
 20
486.381947
 30
0.0
 40
1.0
 50
90.0
 51
180.0
  0
LINE
  8
LC-002-002-----0
  6
CONTINUOUS
  5
5AB
 10
525.523703
 20
305.681947
 30
0.0
 11
518.644393
 21
419.681947
 31
0.0
  0
LINE
  8
LC-002-002-----0
  6
CONTINUOUS
  5
5AC
 10
529.459603
 20
306.86477
 30
0.0
 11
522.651643
 21
419.682385
 31
0.0
  0
ARC
  8
LC-006-002-RND-0
  6
CONTINUOUS
  5
5AD
 10
486.444393
 20
486.381947
 30
0.0
 40
1.0
 50
0.0
 51
90.0
  0
LINE
  8
LC-002-002-----0
  6
CONTINUOUS
  5
5AE
 10
518.644393
 20
429.681947
 30
0.0
 11
518.644393
 21
419.681947
 31
0.0
  0
LINE
  8
LC-002-002-----0
  6
CONTINUOUS
  5
5AF
 10
522.644393
 20
433.681947
 30
0.0
 11
522.644393
 21
419.681947
 31
0.0
  0
LINE
  8
LC-002-002-----0
  6
CONTINUOUS
  5
5B0
 10
529.144393
 20
432.181947
 30
0.0
 11
529.144393
 21
421.31293
 31
0.0
  0
LINE
  8
LC-002-002-----0
  6
CONTINUOUS
  5
5B1
 10
526.144393
 20
421.181947
 30
0.0
 11
531.644983
 21
358.309915
 31
0.0
  0
LINE
  8
LC-002-002-----0
  6
CONTINUOUS
  5
5B2
 10
529.144393
 20
421.31293
 30
0.0
 11
534.633567
 21
358.571382
 31
0.0
  0
LINE
  8
LC-002-002-----0
  6
CONTINUOUS
  5
5B3
 10
612.172441
 20
415.360213
 30
0.0
 11
612.320454
 21
415.350128
 31
0.0
  0
ARC
  8
LC-002-002-----0
  6
CONTINUOUS
  5
5B4
 10
604.271981
 20
419.092866
 30
0.0
 40
8.333581
 50
295.240372
 51
330.42979
  0
ARC
  8
LC-006-002-RND-0
  6
CONTINUOUS
  5
5B5
 10
556.549851
 20
360.488809
 30
0.0
 40
25.0
 50
185.0
 51
260.0
  0
ARC
  8
LC-006-002-RND-0
  6
CONTINUOUS
  5
5B6
 10
556.549851
 20
360.488809
 30
0.0
 40
22.0
 50
185.0
 51
260.0
  0
LINE
  8
LC-002-002-----0
  6
CONTINUOUS
  5
5B7
 10
552.208646
 20
335.868615
 30
0.0
 11
619.191984
 21
324.057645
 31
0.0
  0
LINE
  8
LC-002-002-----0
  6
CONTINUOUS
  5
5B8
 10
552.729591
 20
338.823038
 30
0.0
 11
618.637606
 21
327.201677
 31
0.0
  0
LINE
  8
LC-002-002-----0
  6
CONTINUOUS
  5
5B9
 10
619.752053
 20
323.76072
 30
0.0
 11
604.123717
 21
412.393418
 31
0.0
  0
ARC
  8
LC-006-002-RND-0
  6
CONTINUOUS
  5
5BA
 10
608.886313
 20
409.857261
 30
0.0
 40
10.0
 50
93.0
 51
170.0
  0
LINE
  8
LC-002-002-----0
  6
CONTINUOUS
  5
5BB
 10
597.994267
 20
405.673105
 30
0.0
 11
599.038235
 21
411.593742
 31
0.0
  0
ARC
  8
LC-006-002-RND-0
  6
CONTINUOUS
  5
5BC
 10
608.886313
 20
409.857261
 30
0.0
 40
7.0
 50
93.0
 51
170.0
  0
LINE
  8
LC-002-002-----0
  6
CONTINUOUS
  5
5BD
 10
601.467469
 20
408.094299
 30
0.0
 11
601.992659
 21
411.072798
 31
0.0
  0
LINE
  8
LC-002-002-----0
  6
CONTINUOUS
  5
5BE
 10
598.006156
 20
405.671009
 30
0.0
 11
605.543401
 21
404.341989
 31
0.0
  0
ARC
  8
LC-002-002-----0
  6
CONTINUOUS
  5
5BF
 10
603.666622
 20
417.759362
 30
0.0
 40
9.900108
 50
297.751064
 51
340.960298
  0
ARC
  8
LC-002-002-----0
  6
CONTINUOUS
  5
5C0
 10
604.271981
 20
419.092866
 30
0.0
 40
8.333581
 50
254.215261
 51
270.960321
  0
ARC
  8
LC-002-002-----0
  6
CONTINUOUS
  5
5C1
 10
603.666622
 20
417.759362
 30
0.0
 40
9.900108
 50
257.247905
 51
277.211487
  0
ARC
  8
LC-002-002-----0
  6
DASHED
 62
     2
  5
5C2
 10
603.666622
 20
417.759362
 30
0.0
 40
9.900108
 50
277.211487
 51
297.751064
  0
CIRCLE
  8
LC-002-002-----0
  6
CONTINUOUS
  5
5C3
 10
605.84713
 20
412.697302
 30
0.0
 40
1.75
  0
LINE
  8
LC-002-002-----0
  6
DASHDOT
 62
     2
  5
5C4
 10
604.15676
 20
412.244369
 30
0.0
 11
607.537501
 21
413.150235
 31
0.0
  0
LINE
  8
LC-002-002-----0
  6
DASHDOT
 62
     2
  5
5C5
 10
605.394197
 20
414.387672
 30
0.0
 11
606.300064
 21
411.006932
 31
0.0
  0
LINE
  8
LC-002-002-----0
  6
CONTINUOUS
  5
5C6
 10
601.467469
 20
408.094299
 30
0.0
 11
604.991329
 21
407.472947
 31
0.0
  0
LINE
  8
LC-002-002-----0
  6
CONTINUOUS
  5
5C7
 10
691.765083
 20
305.681947
 30
0.0
 11
698.644393
 21
419.681947
 31
0.0
  0
LINE
  8
LC-002-002-----0
  6
CONTINUOUS
  5
5C8
 10
687.829184
 20
306.86477
 30
0.0
 11
694.651656
 21
419.922888
 31
0.0
  0
ARC
  8
LC-006-002-RND-0
  6
CONTINUOUS
  5
5C9
 10
488.444393
 20
475.881947
 30
0.0
 40
1.0
 50
180.0
 51
225.0
  0
LINE
  8
LC-002-002-----0
  6
CONTINUOUS
  5
5CA
 10
623.19888
 20
324.368488
 30
0.0
 11
607.570544
 21
413.001186
 31
0.0
  0
ARC
  8
LC-006-002-RND-0
  6
CONTINUOUS
  5
5CB
 10
612.255087
 20
414.602982
 30
0.0
 40
0.75
 50
339.820923
 51
85.0
  0
LINE
  8
LC-002-002-----0
  6
CONTINUOUS
  5
5CC
 10
619.752053
 20
323.76072
 30
0.0
 11
623.19888
 21
324.368488
 31
0.0
  0
LINE
  8
LC-002-002-----0
  6
CONTINUOUS
  5
5CD
 10
490.744393
 20
476.410374
 30
0.0
 11
492.944393
 21
474.210374
 31
0.0
  0
LINE
  8
LC-002-002-----0
  6
CONTINUOUS
  5
5CE
 10
486.444393
 20
487.381947
 30
0.0
 11
485.51889
 21
487.381947
 31
0.0
  0
ARC
  8
LC-006-002-RND-0
  6
CONTINUOUS
  5
5CF
 10
492.944393
 20
471.381947
 30
0.0
 40
1.0
 50
225.0
 51
315.0
  0
LINE
  8
LC-002-002-----0
  6
CONTINUOUS
  5
5D0
 10
495.144393
 20
476.410374
 30
0.0
 11
492.944393
 21
474.210374
 31
0.0
  0
LINE
  8
LC-002-002-----0
  6
CONTINUOUS
  5
5D1
 10
484.024598
 20
486.012681
 30
0.0
 11
483.739256
 21
482.751214
 31
0.0
  0
ARC
  8
LC-006-002-RND-0
  6
CONTINUOUS
  5
5D2
 10
499.444393
 20
486.381947
 30
0.0
 40
1.0
 50
90.0
 51
180.0
  0
ARC
  8
LC-006-002-RND-0
  6
CONTINUOUS
  5
5D3
 10
514.144393
 20
468.681947
 30
0.0
 40
4.0
 50
180.0
 51
270.0
  0
ARC
  8
LC-006-002-RND-0
  6
CONTINUOUS
  5
5D4
 10
514.144393
 20
468.681947
 30
0.0
 40
8.0
 50
180.0
 51
273.583322
  0
LINE
  8
LC-002-002-----0
  6
CONTINUOUS
  5
5D5
 10
514.144393
 20
464.681947
 30
0.0
 11
518.644393
 21
464.681947
 31
0.0
  0
LINE
  8
LC-002-002-----0
  6
CONTINUOUS
  5
5D6
 10
514.644393
 20
460.697588
 30
0.0
 11
514.644393
 21
433.681947
 31
0.0
  0
LINE
  8
LC-002-002-----0
  6
CONTINUOUS
  5
5D7
 10
518.644393
 20
468.681947
 30
0.0
 11
518.644393
 21
433.681947
 31
0.0
  0
LINE
  8
LC-002-002-----0
  6
CONTINUOUS
  5
5D8
 10
518.644393
 20
433.681947
 30
0.0
 11
522.644393
 21
433.681947
 31
0.0
  0
ARC
  8
LC-006-002-RND-0
  6
CONTINUOUS
  5
5D9
 10
518.644393
 20
433.681947
 30
0.0
 40
4.0
 50
180.0
 51
270.0
  0
LINE
  8
LC-002-002-----0
  6
CONTINUOUS
  5
5DA
 10
521.144393
 20
437.181947
 30
0.0
 11
678.018715
 21
437.181947
 31
0.0
  0
ARC
  8
LC-006-002-RND-0
  6
CONTINUOUS
  5
5DB
 10
521.144393
 20
435.681947
 30
0.0
 40
1.5
 50
90.0
 51
180.0
  0
ARC
  8
LC-006-002-RND-0
  6
CONTINUOUS
  5
5DC
 10
521.144393
 20
435.681947
 30
0.0
 40
1.5
 50
180.0
 51
270.0
  0
LINE
  8
LC-002-002-----0
  6
CONTINUOUS
  5
5DD
 10
521.144393
 20
434.181947
 30
0.0
 11
523.394393
 21
434.181947
 31
0.0
  0
LINE
  8
LC-002-002-----0
  6
CONTINUOUS
  5
5DE
 10
523.394393
 20
434.181947
 30
0.0
 11
523.394393
 21
429.75501
 31
0.0
  0
LINE
  8
LC-002-002-----0
  6
CONTINUOUS
  5
5DF
 10
526.644393
 20
429.181947
 30
0.0
 11
523.394393
 21
429.75501
 31
0.0
  0
LINE
  8
LC-002-002-----0
  6
CONTINUOUS
  5
5E0
 10
526.644393
 20
429.181947
 30
0.0
 11
526.644393
 21
424.181947
 31
0.0
  0
LINE
  8
LC-002-002-----0
  6
CONTINUOUS
  5
5E1
 10
526.644393
 20
424.181947
 30
0.0
 11
523.394393
 21
423.608885
 31
0.0
  0
LINE
  8
LC-002-002-----0
  6
CONTINUOUS
  5
5E2
 10
523.394393
 20
423.608885
 30
0.0
 11
523.394393
 21
421.181947
 31
0.0
  0
LINE
  8
LC-002-002-----0
  6
CONTINUOUS
  5
5E3
 10
523.394393
 20
421.181947
 30
0.0
 11
526.144393
 21
421.181947
 31
0.0
  0
ARC
  8
LC-002-002-----0
  6
CONTINUOUS
  5
5E4
 10
524.644393
 20
425.829293
 30
0.0
 40
2.0
 50
180.0
 51
0.0
  0
ARC
  8
LC-002-002-----0
  6
CONTINUOUS
  5
5E5
 10
524.644393
 20
427.534601
 30
0.0
 40
2.0
 50
0.0
 51
180.0
  0
LINE
  8
LC-002-002-----0
  6
CONTINUOUS
  5
5E6
 10
529.144393
 20
432.181947
 30
0.0
 11
524.144393
 21
437.181947
 31
0.0
  0
ARC
  8
LC-006-002-RND-0
  6
CONTINUOUS
  5
5E7
 10
485.51889
 20
485.881947
 30
0.0
 40
1.5
 50
90.0
 51
175.0
  0
LINE
  8
LC-002-002-----0
  6
CONTINUOUS
  5
5E8
 10
482.244964
 20
481.381947
 30
0.0
 11
473.043822
 21
481.381947
 31
0.0
  0
LINE
  8
LC-002-002-----0
  6
CONTINUOUS
  5
5E9
 10
529.144393
 20
432.181947
 30
0.0
 11
666.984775
 21
432.181947
 31
0.0
  0
ARC
  8
LC-006-002-RND-0
  6
CONTINUOUS
  5
5EA
 10
469.769896
 20
485.881947
 30
0.0
 40
1.5
 50
5.0
 51
90.0
  0
LINE
  8
LC-002-002-----0
  6
CONTINUOUS
  5
5EB
 10
691.301401
 20
421.186059
 30
0.0
 11
608.519961
 21
416.847667
 31
0.0
  0
LINE
  8
LC-002-002-----0
  6
CONTINUOUS
  5
5EC
 10
688.144393
 20
424.024724
 30
0.0
 11
608.362953
 21
419.843556
 31
0.0
  0
LINE
  8
LC-002-002-----0
  6
CONTINUOUS
  5
5ED
 10
688.144393
 20
432.181947
 30
0.0
 11
688.144393
 21
424.024724
 31
0.0
  0
LINE
  8
LC-002-002-----0
  6
CONTINUOUS
  5
5EE
 10
666.984775
 20
432.181947
 30
0.0
 11
688.144393
 21
432.181947
 31
0.0
  0
LINE
  8
LC-002-002-----0
  6
CONTINUOUS
  5
5EF
 10
678.018715
 20
437.181947
 30
0.0
 11
689.144393
 21
437.181947
 31
0.0
  0
LINE
  8
LC-002-002-----0
  6
CONTINUOUS
  5
5F0
 10
688.144393
 20
432.181947
 30
0.0
 11
693.144393
 21
437.181947
 31
0.0
  0
LINE
  8
LC-002-002-----0
  6
CONTINUOUS
  5
5F1
 10
696.144393
 20
437.181947
 30
0.0
 11
689.144393
 21
437.181947
 31
0.0
  0
ARC
  8
LC-006-002-RND-0
  6
CONTINUOUS
  5
5F2
 10
696.144393
 20
435.681947
 30
0.0
 40
1.5
 50
0.0
 51
90.0
  0
ARC
  8
LC-006-002-RND-0
  6
CONTINUOUS
  5
5F3
 10
696.144393
 20
435.681947
 30
0.0
 40
1.5
 50
270.0
 51
0.0
  0
LINE
  8
LC-002-002-----0
  6
CONTINUOUS
  5
5F4
 10
693.894393
 20
434.181947
 30
0.0
 11
696.144393
 21
434.181947
 31
0.0
  0
LINE
  8
LC-002-002-----0
  6
CONTINUOUS
  5
5F5
 10
693.894393
 20
434.181947
 30
0.0
 11
693.894393
 21
429.75501
 31
0.0
  0
LINE
  8
LC-002-002-----0
  6
CONTINUOUS
  5
5F6
 10
690.644393
 20
429.181947
 30
0.0
 11
693.894393
 21
429.75501
 31
0.0
  0
LINE
  8
LC-002-002-----0
  6
CONTINUOUS
  5
5F7
 10
690.644393
 20
429.181947
 30
0.0
 11
690.644393
 21
424.181947
 31
0.0
  0
LINE
  8
LC-002-002-----0
  6
CONTINUOUS
  5
5F8
 10
690.644393
 20
424.181947
 30
0.0
 11
693.894393
 21
423.608885
 31
0.0
  0
LINE
  8
LC-002-002-----0
  6
CONTINUOUS
  5
5F9
 10
693.894393
 20
423.608885
 30
0.0
 11
693.894393
 21
421.181947
 31
0.0
  0
LINE
  8
LC-002-002-----0
  6
CONTINUOUS
  5
5FA
 10
693.894393
 20
421.181947
 30
0.0
 11
691.222951
 21
421.181947
 31
0.0
  0
ARC
  8
LC-002-002-----0
  6
CONTINUOUS
  5
5FB
 10
692.644393
 20
427.534601
 30
0.0
 40
2.0
 50
0.0
 51
180.0
  0
ARC
  8
LC-002-002-----0
  6
CONTINUOUS
  5
5FC
 10
692.644393
 20
425.829293
 30
0.0
 40
2.0
 50
180.0
 51
0.0
  0
ARC
  8
LC-006-002-RND-0
  6
CONTINUOUS
  5
5FD
 10
728.844393
 20
475.881947
 30
0.0
 40
1.0
 50
315.0
 51
0.0
  0
LINE
  8
LC-002-002-----0
  6
CONTINUOUS
  5
5FE
 10
726.544393
 20
476.410374
 30
0.0
 11
724.344393
 21
474.210374
 31
0.0
  0
LINE
  8
LC-002-002-----0
  6
CONTINUOUS
  5
5FF
 10
730.844393
 20
487.381947
 30
0.0
 11
731.769896
 21
487.381947
 31
0.0
  0
ARC
  8
LC-006-002-RND-0
  6
CONTINUOUS
  5
600
 10
724.344393
 20
471.381947
 30
0.0
 40
1.0
 50
225.0
 51
315.0
  0
LINE
  8
LC-002-002-----0
  6
CONTINUOUS
  5
601
 10
722.144393
 20
476.410374
 30
0.0
 11
724.344393
 21
474.210374
 31
0.0
  0
LINE
  8
LC-002-002-----0
  6
CONTINUOUS
  5
602
 10
733.264188
 20
486.012681
 30
0.0
 11
733.54953
 21
482.751214
 31
0.0
  0
ARC
  8
LC-006-002-RND-0
  6
CONTINUOUS
  5
603
 10
717.844393
 20
486.381947
 30
0.0
 40
1.0
 50
0.0
 51
90.0
  0
LINE
  8
LC-002-002-----0
  6
CONTINUOUS
  5
604
 10
698.644393
 20
468.681947
 30
0.0
 11
698.644393
 21
433.681947
 31
0.0
  0
LINE
  8
LC-002-002-----0
  6
CONTINUOUS
  5
605
 10
702.644393
 20
460.697588
 30
0.0
 11
702.644393
 21
433.681947
 31
0.0
  0
ARC
  8
LC-006-002-RND-0
  6
CONTINUOUS
  5
606
 10
703.144393
 20
468.681947
 30
0.0
 40
8.0
 50
266.416678
 51
0.0
  0
ARC
  8
LC-006-002-RND-0
  6
CONTINUOUS
  5
607
 10
698.644393
 20
433.681947
 30
0.0
 40
4.0
 50
270.0
 51
0.0
  0
LINE
  8
LC-002-002-----0
  6
CONTINUOUS
  5
608
 10
698.644393
 20
433.681947
 30
0.0
 11
694.644393
 21
433.681947
 31
0.0
  0
LINE
  8
LC-002-002-----0
  6
CONTINUOUS
  5
609
 10
698.644393
 20
429.681947
 30
0.0
 11
698.644393
 21
419.681947
 31
0.0
  0
LINE
  8
LC-002-002-----0
  6
CONTINUOUS
  5
60A
 10
694.644393
 20
433.681947
 30
0.0
 11
694.644393
 21
419.681947
 31
0.0
  0
ARC
  8
LC-006-002-RND-0
  6
CONTINUOUS
  5
60B
 10
731.769896
 20
485.881947
 30
0.0
 40
1.5
 50
5.0
 51
90.0
  0
LINE
  8
LC-002-002-----0
  6
CONTINUOUS
  5
60C
 10
735.043822
 20
481.381947
 30
0.0
 11
744.244964
 21
481.381947
 31
0.0
  0
ARC
  8
LC-006-002-RND-0
  6
CONTINUOUS
  5
60D
 10
747.51889
 20
485.881947
 30
0.0
 40
1.5
 50
90.0
 51
175.0
  0
LINE
  8
LC-002-002-----0
  6
CONTINUOUS
  5
60E
 10
450.644393
 20
489.497871
 30
0.0
 11
450.644393
 21
492.886035
 31
0.0
  0
LINE
  8
LC-002-002-----0
  6
CONTINUOUS
  5
60F
 10
766.644393
 20
489.497871
 30
0.0
 11
766.644393
 21
492.886035
 31
0.0
  0
LINE
  8
LC-002-002-----0
  6
CONTINUOUS
  5
610
 10
736.144393
 20
485.181947
 30
0.0
 11
743.144393
 21
485.181947
 31
0.0
  0
LINE
  8
LC-002-002-----0
  6
CONTINUOUS
  5
611
 10
743.144393
 20
490.681947
 30
0.0
 11
743.144393
 21
485.181947
 31
0.0
  0
LINE
  8
LC-002-002-----0
  6
CONTINUOUS
  5
612
 10
736.144393
 20
490.681947
 30
0.0
 11
736.144393
 21
485.181947
 31
0.0
  0
LINE
  8
LC-002-002-----0
  6
CONTINUOUS
  5
613
 10
754.144393
 20
490.681947
 30
0.0
 11
722.144393
 21
490.681947
 31
0.0
  0
LINE
  8
LC-002-002-----0
  6
CONTINUOUS
  5
614
 10
754.644393
 20
487.381947
 30
0.0
 11
747.51889
 21
487.381947
 31
0.0
  0
ARC
  8
LC-006-002-RND-0
  6
CONTINUOUS
  5
615
 10
744.244964
 20
482.881947
 30
0.0
 40
1.5
 50
270.0
 51
355.0
  0
LINE
  8
LC-002-002-----0
  6
CONTINUOUS
  5
616
 10
729.844393
 20
486.381947
 30
0.0
 11
729.844393
 21
475.881947
 31
0.0
  0
LINE
  8
LC-002-002-----0
  6
CONTINUOUS
  5
617
 10
746.024598
 20
486.012681
 30
0.0
 11
745.739256
 21
482.751214
 31
0.0
  0
ARC
  8
LC-006-002-RND-0
  6
CONTINUOUS
  5
618
 10
719.844393
 20
475.881947
 30
0.0
 40
1.0
 50
180.0
 51
225.0
  0
ARC
  8
LC-006-002-RND-0
  6
CONTINUOUS
  5
619
 10
735.043822
 20
482.881947
 30
0.0
 40
1.5
 50
185.0
 51
270.0
  0
LINE
  8
LC-002-002-----0
  6
CONTINUOUS
  5
61A
 10
481.144393
 20
485.181947
 30
0.0
 11
474.144393
 21
485.181947
 31
0.0
  0
LINE
  8
LC-002-002-----0
  6
CONTINUOUS
  5
61B
 10
474.144393
 20
490.681947
 30
0.0
 11
474.144393
 21
485.181947
 31
0.0
  0
LINE
  8
LC-002-002-----0
  6
CONTINUOUS
  5
61C
 10
481.144393
 20
490.681947
 30
0.0
 11
481.144393
 21
485.181947
 31
0.0
  0
LINE
  8
LC-002-002-----0
  6
CONTINUOUS
  5
61D
 10
463.144393
 20
490.681947
 30
0.0
 11
495.144393
 21
490.681947
 31
0.0
  0
LINE
  8
LC-002-002-----0
  6
CONTINUOUS
  5
61E
 10
719.137286
 20
475.174841
 30
0.0
 11
723.637286
 21
470.674841
 31
0.0
  0
LINE
  8
LC-002-002-----0
  6
CONTINUOUS
  5
61F
 10
462.644393
 20
487.381947
 30
0.0
 11
469.769896
 21
487.381947
 31
0.0
  0
ARC
  8
LC-006-002-RND-0
  6
CONTINUOUS
  5
620
 10
473.043822
 20
482.881947
 30
0.0
 40
1.5
 50
185.0
 51
270.0
  0
LINE
  8
LC-002-002-----0
  6
CONTINUOUS
  5
621
 10
487.444393
 20
486.381947
 30
0.0
 11
487.444393
 21
475.881947
 31
0.0
  0
LINE
  8
LC-002-002-----0
  6
CONTINUOUS
  5
622
 10
471.264188
 20
486.012681
 30
0.0
 11
471.54953
 21
482.751214
 31
0.0
  0
ARC
  8
LC-006-002-RND-0
  6
CONTINUOUS
  5
623
 10
497.444393
 20
475.881947
 30
0.0
 40
1.0
 50
315.0
 51
0.0
  0
ARC
  8
LC-006-002-RND-0
  6
CONTINUOUS
  5
624
 10
482.244964
 20
482.881947
 30
0.0
 40
1.5
 50
270.0
 51
355.0
  0
LINE
  8
LC-002-002-----0
  6
CONTINUOUS
  5
625
 10
498.1515
 20
475.174841
 30
0.0
 11
493.6515
 21
470.674841
 31
0.0
  0
LINE
  8
LC-002-002-----0
  6
CONTINUOUS
  5
626
 10
499.444393
 20
487.381947
 30
0.0
 11
504.644393
 21
487.381947
 31
0.0
  0
LINE
  8
LC-002-002-----0
  6
CONTINUOUS
  5
627
 10
717.844393
 20
487.381947
 30
0.0
 11
712.644393
 21
487.381947
 31
0.0
  0
ARC
  8
LC-006-002-RND-0
  6
CONTINUOUS
  5
628
 10
504.644393
 20
485.881947
 30
0.0
 40
1.5
 50
0.0
 51
90.0
  0
LINE
  8
LC-002-002-----0
  6
CONTINUOUS
  5
629
 10
506.144393
 20
485.881947
 30
0.0
 11
506.144393
 21
468.681947
 31
0.0
  0
ARC
  8
LC-006-002-RND-0
  6
CONTINUOUS
  5
62A
 10
712.644393
 20
485.881947
 30
0.0
 40
1.5
 50
90.0
 51
180.0
  0
LINE
  8
LC-002-002-----0
  6
CONTINUOUS
  5
62B
 10
711.144393
 20
485.881947
 30
0.0
 11
711.144393
 21
468.681947
 31
0.0
  0
LINE
  8
LC-002-002-----0
  6
CONTINUOUS
  5
62C
 10
495.144393
 20
490.681947
 30
0.0
 11
510.144393
 21
490.681947
 31
0.0
  0
LINE
  8
LC-002-002-----0
  6
CONTINUOUS
  5
62D
 10
462.644393
 20
487.381947
 30
0.0
 11
450.644393
 21
489.497871
 31
0.0
  0
LINE
  8
LC-002-002-----0
  6
CONTINUOUS
  5
62E
 10
753.644393
 20
487.381947
 30
0.0
 11
702.644393
 21
436.381947
 31
0.0
  0
LINE
  8
LC-002-002-----0
  6
CONTINUOUS
  5
62F
 10
722.144393
 20
490.681947
 30
0.0
 11
707.144393
 21
490.681947
 31
0.0
  0
LINE
  8
LC-002-002-----0
  6
CONTINUOUS
  5
630
 10
754.644393
 20
487.381947
 30
0.0
 11
766.644393
 21
489.497871
 31
0.0
  0
LINE
  8
LC-002-002-----0
  6
CONTINUOUS
  5
631
 10
518.644393
 20
464.681947
 30
0.0
 11
698.644393
 21
464.681947
 31
0.0
  0
LINE
  8
LC-002-002-----0
  6
CONTINUOUS
  5
632
 10
463.644393
 20
487.381947
 30
0.0
 11
514.644393
 21
436.381947
 31
0.0
  0
LINE
  8
LC-002-002-----0
  6
CONTINUOUS
 62
     2
  5
633
 10
559.044107
 20
655.059038
 30
0.0
 11
574.044107
 21
655.059038
 31
0.0
  0
LINE
  8
LC-002-002-----0
  6
CONTINUOUS
 62
     2
  5
634
 10
559.044107
 20
670.059038
 30
0.0
 11
559.044107
 21
655.059038
 31
0.0
  0
LINE
  8
LC-002-002-----0
  6
CONTINUOUS
  5
635
 10
463.144393
 20
490.681947
 30
0.0
 11
450.644393
 21
492.886035
 31
0.0
  0
LINE
  8
LC-002-002-----0
  6
DASHDOT
 62
     2
  5
636
 10
477.644393
 20
490.681947
 30
0.0
 11
477.644393
 21
485.181947
 31
0.0
  0
LINE
  8
LC-002-002-----0
  6
CONTINUOUS
  5
637
 10
490.744393
 20
490.681947
 30
0.0
 11
490.744393
 21
476.410374
 31
0.0
  0
LINE
  8
LC-008-061-----0
  5
639
 10
492.944393
 20
490.681947
 30
0.0
 11
492.944393
 21
474.210374
 31
0.0
  0
LINE
  8
LC-002-002-----0
  6
CONTINUOUS
  5
63A
 10
495.144393
 20
490.681947
 30
0.0
 11
495.144393
 21
476.410374
 31
0.0
  0
LINE
  8
LC-002-002-----0
  6
CONTINUOUS
  5
63B
 10
510.144393
 20
468.681947
 30
0.0
 11
510.144393
 21
490.681947
 31
0.0
  0
LINE
  8
LC-002-002-----0
  6
CONTINUOUS
  5
63C
 10
490.744393
 20
476.410374
 30
0.0
 11
495.144393
 21
476.410374
 31
0.0
  0
LINE
  8
LC-002-002-----0
  6
CONTINUOUS
  5
63D
 10
754.144393
 20
490.681947
 30
0.0
 11
766.644393
 21
492.886035
 31
0.0
  0
LINE
  8
LC-002-002-----0
  6
DASHDOT
 62
     2
  5
63E
 10
739.644393
 20
490.681947
 30
0.0
 11
739.644393
 21
485.181947
 31
0.0
  0
LINE
  8
LC-002-002-----0
  6
CONTINUOUS
  5
63F
 10
726.544393
 20
490.681947
 30
0.0
 11
726.544393
 21
476.410374
 31
0.0
  0
LINE
  8
LC-002-002-----0
  6
DASHDOT
 62
     2
  5
640
 10
724.344393
 20
490.681947
 30
0.0
 11
724.344393
 21
470.381947
 31
0.0
  0
LINE
  8
LC-002-002-----0
  6
CONTINUOUS
  5
641
 10
722.144393
 20
490.681947
 30
0.0
 11
722.144393
 21
476.410374
 31
0.0
  0
LINE
  8
LC-002-002-----0
  6
CONTINUOUS
  5
642
 10
707.144393
 20
468.681947
 30
0.0
 11
707.144393
 21
490.681947
 31
0.0
  0
LINE
  8
LC-002-002-----0
  6
CONTINUOUS
  5
643
 10
722.144393
 20
476.410374
 30
0.0
 11
726.544393
 21
476.410374
 31
0.0
  0
ARC
  8
LC-002-002-----0
  6
CONTINUOUS
  5
644
 10
612.198419
 20
414.563296
 30
0.0
 40
0.79624
 50
91.867095
 51
148.415561
  0
LINE
  8
LC-002-002-----0
  6
CONTINUOUS
  5
645
 10
608.648023
 20
577.80443
 30
0.0
 11
618.254624
 21
577.80443
 31
0.0
  0
LINE
  8
LC-002-002-----0
  6
CONTINUOUS
  5
646
 10
671.646652
 20
611.80443
 30
0.0
 11
545.642134
 21
611.80443
 31
0.0
  0
LINE
  8
LC-002-002-----0
  6
CONTINUOUS
  5
647
 10
599.041421
 20
577.80443
 30
0.0
 11
546.480658
 21
589.939038
 31
0.0
  0
LINE
  8
LC-002-002-----0
  6
CONTINUOUS
  5
648
 10
599.041421
 20
577.80443
 30
0.0
 11
608.648023
 21
577.80443
 31
0.0
  0
LINE
  8
LC-002-002-----0
  6
CONTINUOUS
  5
649
 10
719.308128
 20
593.699758
 30
0.0
 11
720.146652
 21
609.699758
 31
0.0
  0
LINE
  8
LC-002-002-----0
  6
CONTINUOUS
  5
64A
 10
672.805387
 20
593.699758
 30
0.0
 11
673.643911
 21
609.699758
 31
0.0
  0
LINE
  8
LC-002-002-----0
  6
CONTINUOUS
  5
64B
 10
703.649393
 20
609.699758
 30
0.0
 11
704.487917
 21
593.699758
 31
0.0
  0
LINE
  8
LC-002-002-----0
  6
CONTINUOUS
  5
64C
 10
718.149393
 20
611.80443
 30
0.0
 11
671.646652
 21
611.80443
 31
0.0
  0
LINE
  8
LC-002-002-----0
  6
CONTINUOUS
  5
64D
 10
706.485177
 20
591.80443
 30
0.0
 11
717.310869
 21
591.80443
 31
0.0
  0
LINE
  8
LC-002-002-----0
  6
CONTINUOUS
  5
64E
 10
497.149393
 20
609.699758
 30
0.0
 11
497.987917
 21
593.699758
 31
0.0
  0
LINE
  8
LC-002-002-----0
  6
CONTINUOUS
  5
64F
 10
545.642134
 20
611.80443
 30
0.0
 11
499.146652
 21
611.80443
 31
0.0
  0
LINE
  8
LC-002-002-----0
  6
CONTINUOUS
  5
650
 10
543.644875
 20
609.699758
 30
0.0
 11
544.483399
 21
593.699758
 31
0.0
  0
LINE
  8
LC-002-002-----0
  6
CONTINUOUS
  5
651
 10
508.80635
 20
593.699758
 30
0.0
 11
509.644875
 21
609.699758
 31
0.0
  0
LINE
  8
LC-010-100-D00-0
  6
CONTINUOUS
  5
653
 10
499.985177
 20
591.80443
 30
0.0
 11
506.809091
 21
591.80443
 31
0.0
  0
LINE
  8
LC-002-002-----0
  6
CONTINUOUS
  5
654
 10
506.809091
 20
591.80443
 30
0.0
 11
546.480658
 21
591.80443
 31
0.0
  0
LINE
  8
LC-002-002-----0
  6
CONTINUOUS
  5
655
 10
670.808128
 20
591.80443
 30
0.0
 11
706.485177
 21
591.80443
 31
0.0
  0
LINE
  8
LC-002-002-----0
  6
CONTINUOUS
  5
656
 10
670.808128
 20
591.80443
 30
0.0
 11
670.808128
 21
589.937362
 31
0.0
  0
LINE
  8
LC-002-002-----0
  6
CONTINUOUS
  5
657
 10
670.808128
 20
589.937362
 30
0.0
 11
618.254624
 21
577.80443
 31
0.0
  0
LINE
  8
LC-002-002-----0
  6
CONTINUOUS
  5
658
 10
546.480658
 20
591.80443
 30
0.0
 11
546.480658
 21
589.939038
 31
0.0
  0
ARC
  8
LC-002-002-----0
  6
CONTINUOUS
  5
659
 10
718.149393
 20
609.80443
 30
0.0
 40
2.0
 50
357.0
 51
90.0
  0
ARC
  8
LC-002-002-----0
  6
CONTINUOUS
  5
65A
 10
717.310869
 20
593.80443
 30
0.0
 40
2.0
 50
270.0
 51
357.0
  0
ARC
  8
LC-002-002-----0
  6
CONTINUOUS
  5
65B
 10
671.646652
 20
609.80443
 30
0.0
 40
2.0
 50
357.0
 51
90.0
  0
ARC
  8
LC-002-002-----0
  6
CONTINUOUS
  5
65C
 10
670.808128
 20
593.80443
 30
0.0
 40
2.0
 50
270.0
 51
357.0
  0
ARC
  8
LC-002-002-----0
  6
CONTINUOUS
  5
65D
 10
705.646652
 20
609.80443
 30
0.0
 40
2.0
 50
90.0
 51
183.0
  0
ARC
  8
LC-002-002-----0
  6
CONTINUOUS
  5
65E
 10
706.485177
 20
593.80443
 30
0.0
 40
2.0
 50
183.0
 51
270.0
  0
ARC
  8
LC-002-002-----0
  6
CONTINUOUS
  5
65F
 10
499.146652
 20
609.80443
 30
0.0
 40
2.0
 50
90.0
 51
183.0
  0
ARC
  8
LC-002-002-----0
  6
CONTINUOUS
  5
660
 10
499.985177
 20
593.80443
 30
0.0
 40
2.0
 50
183.0
 51
270.0
  0
ARC
  8
LC-002-002-----0
  6
CONTINUOUS
  5
661
 10
545.642134
 20
609.80443
 30
0.0
 40
2.0
 50
90.0
 51
183.0
  0
ARC
  8
LC-002-002-----0
  6
CONTINUOUS
  5
662
 10
546.480658
 20
593.80443
 30
0.0
 40
2.0
 50
183.0
 51
270.0
  0
ARC
  8
LC-002-002-----0
  6
CONTINUOUS
  5
663
 10
507.647616
 20
609.80443
 30
0.0
 40
2.0
 50
357.0
 51
90.0
  0
ARC
  8
LC-002-002-----0
  6
CONTINUOUS
  5
664
 10
506.809091
 20
593.80443
 30
0.0
 40
2.0
 50
270.0
 51
357.0
  0
LINE
  8
LC-002-002-----0
  6
CONTINUOUS
  5
665
 10
665.76325
 20
588.77266
 30
0.0
 11
679.249655
 21
590.788217
 31
0.0
  0
ENDSEC
  0
EOF
