  0
SECTION
  2
HEADER
  9
$ACADVER
  1
AC1009
  9
$INSBASE
 10
0.0
 20
0.0
 30
0.0
  9
$EXTMIN
 10
-120.995097
 20
-200.697
 30
0.0
  9
$EXTMAX
 10
719.004903
 20
393.303
 30
0.0
  9
$LIMMIN
 10
-120.995097
 20
-200.697
  9
$LIMMAX
 10
719.004903
 20
393.303
  9
$ORTHOMODE
 70
     0
  9
$REGENMODE
 70
     1
  9
$FILLMODE
 70
     1
  9
$QTEXTMODE
 70
     0
  9
$MIRRTEXT
 70
     1
  9
$DRAGMODE
 70
     2
  9
$LTSCALE
 40
2.0
  9
$OSMODE
 70
     0
  9
$ATTMODE
 70
     1
  9
$TEXTSIZE
 40
0.2
  9
$TRACEWID
 40
0.05
  9
$TEXTSTYLE
  7
STANDARD
  9
$CLAYER
  8
0
  9
$CELTYPE
  6
BYLAYER
  9
$CECOLOR
 62
     7
  9
$DIMSCALE
 40
2.0
  9
$DIMASZ
 40
3.5
  9
$DIMEXO
 40
0.0625
  9
$DIMDLI
 40
0.38
  9
$DIMRND
 40
0.0
  9
$DIMDLE
 40
0.0
  9
$DIMEXE
 40
0.18
  9
$DIMTP
 40
0.0
  9
$DIMTM
 40
0.0
  9
$DIMTXT
 40
3.5
  9
$DIMCEN
 40
0.09
  9
$DIMTSZ
 40
0.0
  9
$DIMTOL
 70
     0
  9
$DIMLIM
 70
     0
  9
$DIMTIH
 70
     1
  9
$DIMTOH
 70
     1
  9
$DIMSE1
 70
     0
  9
$DIMSE2
 70
     0
  9
$DIMTAD
 70
     1
  9
$DIMZIN
 70
     0
  9
$DIMBLK
  1

  9
$DIMASO
 70
     1
  9
$DIMSHO
 70
     1
  9
$DIMPOST
  1

  9
$DIMAPOST
  1

  9
$DIMALT
 70
     0
  9
$DIMALTD
 70
     2
  9
$DIMALTF
 40
25.4
  9
$DIMLFAC
 40
1.0
  9
$DIMTOFL
 70
     0
  9
$DIMTVP
 40
0.0
  9
$DIMTIX
 70
     0
  9
$DIMSOXD
 70
     0
  9
$DIMSAH
 70
     0
  9
$DIMBLK1
  1

  9
$DIMBLK2
  1

  9
$DIMSTYLE
  2
STANDARD
  9
$DIMCLRD
 70
     0
  9
$DIMCLRE
 70
     0
  9
$DIMCLRT
 70
     0
  9
$DIMTFAC
 40
1.0
  9
$DIMGAP
 40
0.09
  9
$LUNITS
 70
     2
  9
$LUPREC
 70
     2
  9
$AXISMODE
 70
     0
  9
$AXISUNIT
 10
0.0
 20
0.0
  9
$SKETCHINC
 40
0.1
  9
$FILLETRAD
 40
0.0
  9
$AUNITS
 70
     0
  9
$AUPREC
 70
     0
  9
$MENU
  1
acad
  9
$ELEVATION
 40
0.0
  9
$PELEVATION
 40
0.0
  9
$THICKNESS
 40
0.0
  9
$LIMCHECK
 70
     0
  9
$BLIPMODE
 70
     1
  9
$CHAMFERA
 40
0.0
  9
$CHAMFERB
 40
0.0
  9
$SKPOLY
 70
     0
  9
$TDCREATE
 40
0.000000000
  9
$TDUPDATE
 40
0.000000000
  9
$TDINDWG
 40
0.0000000000
  9
$TDUSRTIMER
 40
0.0000000000
  9
$USRTIMER
 70
     1
  9
$ANGBASE
 50
0.0
  9
$ANGDIR
 70
     0
  9
$PDMODE
 70
     0
  9
$PDSIZE
 40
0.0
  9
$PLINEWID
 40
0.0
  9
$COORDS
 70
     0
  9
$SPLFRAME
 70
     0
  9
$SPLINETYPE
 70
     6
  9
$SPLINESEGS
 70
     8
  9
$ATTDIA
 70
     0
  9
$ATTREQ
 70
     1
  9
$HANDLING
 70
     1
  9
$HANDSEED
  5
38F
  9
$SURFTAB1
 70
     6
  9
$SURFTAB2
 70
     6
  9
$SURFTYPE
 70
     6
  9
$SURFU
 70
     6
  9
$SURFV
 70
     6
  9
$UCSNAME
  2

  9
$UCSORG
 10
0.0
 20
0.0
 30
0.0
  9
$UCSXDIR
 10
1.0
 20
0.0
 30
0.0
  9
$UCSYDIR
 10
0.0
 20
1.0
 30
0.0
  9
$PUCSNAME
  2

  9
$PUCSORG
 10
0.0
 20
0.0
 30
0.0
  9
$PUCSXDIR
 10
1.0
 20
0.0
 30
0.0
  9
$PUCSYDIR
 10
0.0
 20
1.0
 30
0.0
  9
$USERI1
 70
     0
  9
$USERI2
 70
     0
  9
$USERI3
 70
     0
  9
$USERI4
 70
     0
  9
$USERI5
 70
     0
  9
$USERR1
 40
0.0
  9
$USERR2
 40
0.0
  9
$USERR3
 40
0.0
  9
$USERR4
 40
0.0
  9
$USERR5
 40
0.0
  9
$WORLDVIEW
 70
     1
  9
$SHADEDGE
 70
     3
  9
$SHADEDIF
 70
    70
  9
$TILEMODE
 70
     1
  9
$MAXACTVP
 70
    16
  9
$PINSBASE
 10
0.0
 20
0.0
 30
0.0
  9
$PLIMCHECK
 70
     0
  9
$PEXTMIN
 10
1.000000E+20
 20
1.000000E+20
 30
1.000000E+20
  9
$PEXTMAX
 10
-1.000000E+20
 20
-1.000000E+20
 30
-1.000000E+20
  9
$PLIMMIN
 10
-120.995097
 20
-200.697
  9
$PLIMMAX
 10
719.004903
 20
393.303
  9
$UNITMODE
 70
     0
  9
$VISRETAIN
 70
     0
  9
$PLINEGEN
 70
     1
  9
$PSLTSCALE
 70
     0
  9
$TREEDEPTH
 70
  3020
  9
$DWGCODEPAGE
  3
dos850
  0
ENDSEC
  0
SECTION
  2
TABLES
  0
TABLE
  2
VPORT
 70
     1
  0
VPORT
  2
*ACTIVE
 70
     0
 10
0.0
 20
0.0
 11
1.0
 21
1.0
 12
420.0
 22
297.0
 13
0.0
 23
0.0
 14
1.0
 24
1.0
 15
0.0
 25
0.0
 16
0.0
 26
0.0
 36
1.0
 17
-120.995097
 27
-200.697
 37
0.0
 40
594.0
 41
1.604229
 42
50.0
 43
0.0
 44
0.0
 50
0.0
 51
0.0
 71
     0
 72
   100
 73
     1
 74
     1
 75
     0
 76
     0
 77
     0
 78
     0
  0
ENDTAB
  0
TABLE
  2
LTYPE
 70
     4
  0
LTYPE
  2
CONTINUOUS
 70
    64
  3
Solid line
 72
    65
 73
     0
 40
0.0
  0
LTYPE
  2
DASHED
 70
    64
  3
__ __ __ __ __
 72
    65
 73
     2
 40
6.25
 49
5.0
 49
-1.25
  0
LTYPE
  2
DASHDOT
 70
    64
  3
__ . __ . __ . __ . __
 72
    65
 73
     4
 40
7.5
 49
5.0
 49
-1.25
 49
0.0
 49
-1.25
  0
LTYPE
  2
CENTER
 70
    64
  3
__ . __ . __ . __ . __
 72
    65
 73
     4
 40
7.5
 49
5.0
 49
-1.25
 49
0.0
 49
-1.25
  0
ENDTAB
  0
TABLE
  2
LAYER
 70
    13
  0
LAYER
  2
0
 70
     0
 62
     7
  6
CONTINUOUS
  0
LAYER
  2
LC-INFO-1-2-MM-A3-0
 70
     1
 62
    -1
  6
CONTINUOUS
  0
LAYER
  2
LC-003-005-----0
 70
     0
 62
     2
  6
CONTINUOUS
  0
LAYER
  2
LC-005-003-MTH-0
 70
     0
 62
     2
  6
CONTINUOUS
  0
LAYER
  2
LC-006-003-MTG-0
 70
     0
 62
     2
  6
CONTINUOUS
  0
LAYER
  2
LC-004-003-----0
 70
     0
 62
     2
  6
CONTINUOUS
  0
LAYER
  2
LC-002-002-----0
 70
     0
 62
     1
  6
CONTINUOUS
  0
LAYER
  2
LC-009-000-----0
 70
     0
 62
     7
  6
CONTINUOUS
  0
LAYER
  2
LC-001-000-----0
 70
     0
 62
     7
  6
CONTINUOUS
  0
LAYER
  2
LC-007-002-RND-0
 70
     0
 62
     1
  6
CONTINUOUS
  0
LAYER
  2
LC-008-004-----0
 70
     0
 62
     1
  6
CONTINUOUS
  0
LAYER
  2
LC-010-006-MLN-0
 70
     0
 62
     2
  6
CENTER
  0
LAYER
  2
LC-000
 70
     0
 62
     7
  6
CONTINUOUS
  0
ENDTAB
  0
TABLE
  2
STYLE
 70
     4
  0
STYLE
  2
STANDARD
 70
     0
 40
0.0
 41
1.0
 50
0.0
 71
     0
 42
0.0
  3
txt
  4

  0
STYLE
  2
LC-STANDARD
 70
    64
 40
0.0
 41
1.0
 50
0.0
 71
     0
 42
3.5
  3
MONOTXT
  4

  0
STYLE
  2
LC-TXTSTYLE-150-400-0-0-D2
 70
    64
 40
0.0
 41
1.0
 50
15.0
 71
     0
 42
3.5
  3
MONOTXT
  4

  0
STYLE
  2
LC-TXTSTYLE-150-400-0-0-D3
 70
    64
 40
0.0
 41
1.0
 50
15.0
 71
     0
 42
3.5
  3
LC-STANDARD
  4

  0
ENDTAB
  0
TABLE
  2
VIEW
 70
     0
  0
ENDTAB
  0
TABLE
  2
UCS
 70
     0
  0
ENDTAB
  0
TABLE
  2
APPID
 70
     1
  0
APPID
  2
ACAD
 70
     0
  0
ENDTAB
  0
TABLE
  2
DIMSTYLE
 70
     3
  0
DIMSTYLE
  2
STANDARD
 70
     0
  3

  4

  5

  6

  7

 40
1.0
 41
0.18
 42
0.0625
 43
0.38
 44
0.18
 45
0.0
 46
0.0
 47
0.0
 48
0.0
 71
     0
 72
     0
 73
     1
 74
     1
 75
     0
 76
     0
 77
     0
 78
     0
140
0.18
141
0.09
142
0.0
143
25.4
144
1.0
145
0.0
146
1.0
147
0.09
170
     0
171
     2
172
     0
173
     0
174
     0
175
     0
176
     0
177
     0
178
     0
  0
DIMSTYLE
  2
LC-STANDARD
 70
     0
  3

  4

  5

  6

  7

 40
1.0
 41
3.5
 42
0.0
 43
7.5
 44
1.8
 45
0.0
 46
0.0
 47
0.0
 48
0.0
 71
     0
 72
     0
 73
     0
 74
     0
 75
     0
 76
     0
 77
     1
 78
     8
140
3.5
141
0.0
142
0.0
143
25.4
144
1.0
145
0.0
146
0.71
147
1.5
170
     0
171
     2
172
     1
173
     0
174
     0
175
     0
176
     0
177
     0
178
     3
  0
DIMSTYLE
  2
LC-DIM-L-0090-02-02
 70
     0
  3

  4

  5

  6

  7

 40
2.0
 41
3.5
 42
0.0
 43
7.5
 44
1.8
 45
0.0
 46
0.0
 47
0.0
 48
0.0
 71
     0
 72
     0
 73
     0
 74
     0
 75
     0
 76
     0
 77
     1
 78
     8
140
9.0
141
0.0
142
0.0
143
25.4
144
1.0
145
0.0
146
0.71
147
1.5
170
     0
171
     2
172
     0
173
     0
174
     0
175
     0
176
     2
177
     2
178
     6
  0
ENDTAB
  0
ENDSEC
  0
SECTION
  2
BLOCKS
  0
BLOCK
  8
0
  5
23
  2
*X0
 70
    65
 10
276.323098
 20
93.4093
 30
0.0
  3
*X0
  0
LINE
  8
LC-003-005-----0
  6
CONTINUOUS
  5
25
 10
320.798447
 20
97.352704
 30
0.0
 11
321.70725
 21
98.261507
 31
0.0
  0
LINE
  8
LC-003-005-----0
  6
CONTINUOUS
  5
26
 10
317.206515
 20
96.589199
 30
0.0
 11
318.115321
 21
97.498005
 31
0.0
  0
LINE
  8
LC-003-005-----0
  6
CONTINUOUS
  5
27
 10
313.614583
 20
95.825694
 30
0.0
 11
314.523391
 21
96.734503
 31
0.0
  0
LINE
  8
LC-003-005-----0
  6
CONTINUOUS
  5
28
 10
310.022651
 20
95.062189
 30
0.0
 11
310.931462
 21
95.971001
 31
0.0
  0
LINE
  8
LC-003-005-----0
  6
CONTINUOUS
  5
29
 10
306.430719
 20
94.298684
 30
0.0
 11
307.339533
 21
95.207499
 31
0.0
  0
LINE
  8
LC-003-005-----0
  6
CONTINUOUS
  5
2A
 10
302.838787
 20
93.535179
 30
0.0
 11
303.747604
 21
94.443997
 31
0.0
  0
LINE
  8
LC-003-005-----0
  6
CONTINUOUS
  5
2B
 10
299.884485
 20
93.409305
 30
0.0
 11
300.584484
 21
94.109304
 31
0.0
  0
LINE
  8
LC-003-005-----0
  6
CONTINUOUS
  5
2C
 10
297.067261
 20
93.420508
 30
0.0
 11
297.756063
 21
94.10931
 31
0.0
  0
LINE
  8
LC-003-005-----0
  6
CONTINUOUS
  5
2D
 10
295.514953
 20
94.696627
 30
0.0
 11
296.009928
 21
95.191602
 31
0.0
  0
LINE
  8
LC-003-005-----0
  6
CONTINUOUS
  5
2E
 10
293.89907
 20
95.909171
 30
0.0
 11
294.552767
 21
96.562868
 31
0.0
  0
LINE
  8
LC-003-005-----0
  6
CONTINUOUS
  5
2F
 10
285.413842
 20
95.909224
 30
0.0
 11
285.57359
 21
96.068973
 31
0.0
  0
LINE
  8
LC-003-005-----0
  6
CONTINUOUS
  5
30
 10
281.585438
 20
94.909248
 30
0.0
 11
283.284325
 21
96.608135
 31
0.0
  0
LINE
  8
LC-003-005-----0
  6
CONTINUOUS
  5
31
 10
277.457037
 20
93.609274
 30
0.0
 11
278.157033
 21
94.30927
 31
0.0
  0
LINE
  8
LC-003-005-----0
  6
CONTINUOUS
  5
32
 10
278.757029
 20
94.909266
 30
0.0
 11
279.457025
 21
95.609261
 31
0.0
  0
ENDBLK
  8
0
  5
33
  0
BLOCK
  8
0
  5
35
  2
*D1
 70
    65
 10
0.0
 20
0.0
 30
0.0
  3
*D1
  0
LINE
  8
LC-005-003-MTH-0
  6
CONTINUOUS
  5
37
 10
364.190779
 20
2.898191
 30
0.0
 11
425.33253
 21
0.228685
 31
0.0
  0
LINE
  8
LC-005-003-MTH-0
  6
CONTINUOUS
  5
38
 10
367.462233
 20
77.826808
 30
0.0
 11
428.603984
 21
75.157301
 31
0.0
  0
LINE
  8
LC-006-003-MTG-0
  6
CONTINUOUS
  5
3A
 10
414.542809
 20
0.699774
 30
0.0
 11
417.814263
 21
75.628391
 31
0.0
  0
LINE
  8
LC-004-003-----0
  6
CONTINUOUS
  5
3C
 10
412.974006
 20
18.631279
 30
0.0
 11
414.542809
 21
0.699774
 31
0.0
  0
LINE
  8
LC-004-003-----0
  6
CONTINUOUS
  5
3D
 10
414.542809
 20
0.699774
 30
0.0
 11
417.668476
 21
18.426314
 31
0.0
  0
LINE
  8
LC-004-003-----0
  6
CONTINUOUS
  5
3E
 10
417.668476
 20
18.426314
 30
0.0
 11
412.974006
 21
18.631279
 31
0.0
  0
LINE
  8
LC-004-003-----0
  6
CONTINUOUS
  5
3F
 10
413.586033
 20
18.644633
 30
0.0
 11
414.746948
 21
5.37532
 31
0.0
  0
LINE
  8
LC-004-003-----0
  6
CONTINUOUS
  5
40
 10
414.746948
 20
5.37532
 30
0.0
 11
417.059941
 21
18.492959
 31
0.0
  0
LINE
  8
LC-004-003-----0
  6
CONTINUOUS
  5
41
 10
414.198061
 20
18.657988
 30
0.0
 11
414.951086
 21
10.050865
 31
0.0
  0
LINE
  8
LC-004-003-----0
  6
CONTINUOUS
  5
42
 10
414.951086
 20
10.050865
 30
0.0
 11
416.451407
 21
18.559604
 31
0.0
  0
LINE
  8
LC-004-003-----0
  6
CONTINUOUS
  5
43
 10
414.810088
 20
18.671342
 30
0.0
 11
415.155225
 21
14.726411
 31
0.0
  0
LINE
  8
LC-004-003-----0
  6
CONTINUOUS
  5
44
 10
415.155225
 20
14.726411
 30
0.0
 11
415.842872
 21
18.62625
 31
0.0
  0
LINE
  8
LC-004-003-----0
  6
CONTINUOUS
  5
45
 10
419.383066
 20
57.696886
 30
0.0
 11
417.814263
 21
75.628391
 31
0.0
  0
LINE
  8
LC-004-003-----0
  6
CONTINUOUS
  5
46
 10
417.814263
 20
75.628391
 30
0.0
 11
414.688596
 21
57.901851
 31
0.0
  0
LINE
  8
LC-004-003-----0
  6
CONTINUOUS
  5
47
 10
414.688596
 20
57.901851
 30
0.0
 11
419.383066
 21
57.696886
 31
0.0
  0
LINE
  8
LC-004-003-----0
  6
CONTINUOUS
  5
48
 10
418.771039
 20
57.683532
 30
0.0
 11
417.610124
 21
70.952845
 31
0.0
  0
LINE
  8
LC-004-003-----0
  6
CONTINUOUS
  5
49
 10
417.610124
 20
70.952845
 30
0.0
 11
415.29713
 21
57.835206
 31
0.0
  0
LINE
  8
LC-004-003-----0
  6
CONTINUOUS
  5
4A
 10
418.159011
 20
57.670177
 30
0.0
 11
417.405985
 21
66.277299
 31
0.0
  0
LINE
  8
LC-004-003-----0
  6
CONTINUOUS
  5
4B
 10
417.405985
 20
66.277299
 30
0.0
 11
415.905665
 21
57.76856
 31
0.0
  0
LINE
  8
LC-004-003-----0
  6
CONTINUOUS
  5
4C
 10
417.546983
 20
57.656823
 30
0.0
 11
417.201847
 21
61.601754
 31
0.0
  0
LINE
  8
LC-004-003-----0
  6
CONTINUOUS
  5
4D
 10
417.201847
 20
61.601754
 30
0.0
 11
416.5142
 21
57.701915
 31
0.0
  0
TEXT
  8
LC-004-003-----0
  6
CONTINUOUS
 62
     6
  5
4F
 10
409.968216
 20
11.285904
 30
0.0
 40
18.0
  1
DN70
 50
87.5
 41
0.9
 51
15.0
  7
LC-TXTSTYLE-150-400-0-0-D0
 72
     1
 11
411.119974
 21
37.665497
 31
0.0
  0
ENDBLK
  8
0
  5
50
  0
BLOCK
  8
0
  5
52
  2
*D2
 70
    65
 10
0.0
 20
0.0
 30
0.0
  3
*D2
  0
LINE
  8
LC-005-003-MTH-0
  6
CONTINUOUS
  5
53
 10
219.323105
 20
9.223247
 30
0.0
 11
219.323105
 21
-50.8
 31
0.0
  0
LINE
  8
LC-005-003-MTH-0
  6
CONTINUOUS
  5
54
 10
369.323174
 20
40.209832
 30
0.0
 11
369.323174
 21
-50.8
 31
0.0
  0
LINE
  8
LC-006-003-MTG-0
  6
CONTINUOUS
  5
55
 10
219.323105
 20
-40.0
 30
0.0
 11
369.323174
 21
-40.0
 31
0.0
  0
LINE
  8
LC-004-003-----0
  6
CONTINUOUS
  5
56
 10
237.169113
 20
-37.650529
 30
0.0
 11
219.323105
 21
-40.0
 31
0.0
  0
LINE
  8
LC-004-003-----0
  6
CONTINUOUS
  5
57
 10
219.323105
 20
-40.0
 30
0.0
 11
237.169113
 21
-42.349471
 31
0.0
  0
LINE
  8
LC-004-003-----0
  6
CONTINUOUS
  5
58
 10
237.169113
 20
-42.349471
 30
0.0
 11
237.169113
 21
-37.650529
 31
0.0
  0
LINE
  8
LC-004-003-----0
  6
CONTINUOUS
  5
59
 10
237.209151
 20
-38.261391
 30
0.0
 11
224.003105
 21
-40.0
 31
0.0
  0
LINE
  8
LC-004-003-----0
  6
CONTINUOUS
  5
5A
 10
224.003105
 20
-40.0
 30
0.0
 11
237.209151
 21
-41.738609
 31
0.0
  0
LINE
  8
LC-004-003-----0
  6
CONTINUOUS
  5
5B
 10
237.249189
 20
-38.872254
 30
0.0
 11
228.683105
 21
-40.0
 31
0.0
  0
LINE
  8
LC-004-003-----0
  6
CONTINUOUS
  5
5C
 10
228.683105
 20
-40.0
 30
0.0
 11
237.249189
 21
-41.127746
 31
0.0
  0
LINE
  8
LC-004-003-----0
  6
CONTINUOUS
  5
5D
 10
237.289227
 20
-39.483116
 30
0.0
 11
233.363105
 21
-40.0
 31
0.0
  0
LINE
  8
LC-004-003-----0
  6
CONTINUOUS
  5
5E
 10
233.363105
 20
-40.0
 30
0.0
 11
237.289227
 21
-40.516884
 31
0.0
  0
LINE
  8
LC-004-003-----0
  6
CONTINUOUS
  5
5F
 10
351.477167
 20
-42.349471
 30
0.0
 11
369.323174
 21
-40.0
 31
0.0
  0
LINE
  8
LC-004-003-----0
  6
CONTINUOUS
  5
60
 10
369.323174
 20
-40.0
 30
0.0
 11
351.477167
 21
-37.650529
 31
0.0
  0
LINE
  8
LC-004-003-----0
  6
CONTINUOUS
  5
61
 10
351.477167
 20
-37.650529
 30
0.0
 11
351.477167
 21
-42.349471
 31
0.0
  0
LINE
  8
LC-004-003-----0
  6
CONTINUOUS
  5
62
 10
351.437129
 20
-41.738609
 30
0.0
 11
364.643174
 21
-40.0
 31
0.0
  0
LINE
  8
LC-004-003-----0
  6
CONTINUOUS
  5
63
 10
364.643174
 20
-40.0
 30
0.0
 11
351.437129
 21
-38.261391
 31
0.0
  0
LINE
  8
LC-004-003-----0
  6
CONTINUOUS
  5
64
 10
351.397091
 20
-41.127746
 30
0.0
 11
359.963174
 21
-40.0
 31
0.0
  0
LINE
  8
LC-004-003-----0
  6
CONTINUOUS
  5
65
 10
359.963174
 20
-40.0
 30
0.0
 11
351.397091
 21
-38.872254
 31
0.0
  0
LINE
  8
LC-004-003-----0
  6
CONTINUOUS
  5
66
 10
351.357053
 20
-40.516884
 30
0.0
 11
355.283174
 21
-40.0
 31
0.0
  0
LINE
  8
LC-004-003-----0
  6
CONTINUOUS
  5
67
 10
355.283174
 20
-40.0
 30
0.0
 11
351.357053
 21
-39.483116
 31
0.0
  0
TEXT
  8
LC-004-003-----0
  6
CONTINUOUS
 62
     6
  5
68
 10
277.984527
 20
-29.568001
 30
0.0
 40
18.0
  1
150
 51
15.0
  7
LC-TXTSTYLE-150-400-0-0-D0
 72
     1
 11
297.118385
 21
-29.568001
 31
0.0
  0
ENDBLK
  8
0
  5
69
  0
BLOCK
  8
0
  5
6B
  2
*D3
 70
    65
 10
0.0
 20
0.0
 30
0.0
  3
*D3
  0
LINE
  8
LC-005-003-MTH-0
  6
CONTINUOUS
  5
6C
 10
369.323174
 20
40.209832
 30
0.0
 11
472.8
 21
40.209832
 31
0.0
  0
LINE
  8
LC-005-003-MTH-0
  6
CONTINUOUS
  5
6D
 10
324.948713
 20
94.72786
 30
0.0
 11
472.8
 21
94.72786
 31
0.0
  0
LINE
  8
LC-006-003-MTG-0
  6
CONTINUOUS
  5
6E
 10
462.0
 20
40.209832
 30
0.0
 11
462.0
 21
94.72786
 31
0.0
  0
LINE
  8
LC-004-003-----0
  6
CONTINUOUS
  5
6F
 10
459.650529
 20
58.055839
 30
0.0
 11
462.0
 21
40.209832
 31
0.0
  0
LINE
  8
LC-004-003-----0
  6
CONTINUOUS
  5
70
 10
462.0
 20
40.209832
 30
0.0
 11
464.349471
 21
58.055839
 31
0.0
  0
LINE
  8
LC-004-003-----0
  6
CONTINUOUS
  5
71
 10
464.349471
 20
58.055839
 30
0.0
 11
459.650529
 21
58.055839
 31
0.0
  0
LINE
  8
LC-004-003-----0
  6
CONTINUOUS
  5
72
 10
460.261391
 20
58.095877
 30
0.0
 11
462.0
 21
44.889832
 31
0.0
  0
LINE
  8
LC-004-003-----0
  6
CONTINUOUS
  5
73
 10
462.0
 20
44.889832
 30
0.0
 11
463.738609
 21
58.095877
 31
0.0
  0
LINE
  8
LC-004-003-----0
  6
CONTINUOUS
  5
74
 10
460.872254
 20
58.135915
 30
0.0
 11
462.0
 21
49.569832
 31
0.0
  0
LINE
  8
LC-004-003-----0
  6
CONTINUOUS
  5
75
 10
462.0
 20
49.569832
 30
0.0
 11
463.127746
 21
58.135915
 31
0.0
  0
LINE
  8
LC-004-003-----0
  6
CONTINUOUS
  5
76
 10
461.483116
 20
58.175953
 30
0.0
 11
462.0
 21
54.249832
 31
0.0
  0
LINE
  8
LC-004-003-----0
  6
CONTINUOUS
  5
77
 10
462.0
 20
54.249832
 30
0.0
 11
462.516884
 21
58.175953
 31
0.0
  0
LINE
  8
LC-004-003-----0
  6
CONTINUOUS
  5
78
 10
464.349471
 20
76.881853
 30
0.0
 11
462.0
 21
94.72786
 31
0.0
  0
LINE
  8
LC-004-003-----0
  6
CONTINUOUS
  5
79
 10
462.0
 20
94.72786
 30
0.0
 11
459.650529
 21
76.881853
 31
0.0
  0
LINE
  8
LC-004-003-----0
  6
CONTINUOUS
  5
7A
 10
459.650529
 20
76.881853
 30
0.0
 11
464.349471
 21
76.881853
 31
0.0
  0
LINE
  8
LC-004-003-----0
  6
CONTINUOUS
  5
7B
 10
463.738609
 20
76.841815
 30
0.0
 11
462.0
 21
90.04786
 31
0.0
  0
LINE
  8
LC-004-003-----0
  6
CONTINUOUS
  5
7C
 10
462.0
 20
90.04786
 30
0.0
 11
460.261391
 21
76.841815
 31
0.0
  0
LINE
  8
LC-004-003-----0
  6
CONTINUOUS
  5
7D
 10
463.127746
 20
76.801777
 30
0.0
 11
462.0
 21
85.36786
 31
0.0
  0
LINE
  8
LC-004-003-----0
  6
CONTINUOUS
  5
7E
 10
462.0
 20
85.36786
 30
0.0
 11
460.872254
 21
76.801777
 31
0.0
  0
LINE
  8
LC-004-003-----0
  6
CONTINUOUS
  5
7F
 10
462.516884
 20
76.761739
 30
0.0
 11
462.0
 21
80.68786
 31
0.0
  0
LINE
  8
LC-004-003-----0
  6
CONTINUOUS
  5
80
 10
462.0
 20
80.68786
 30
0.0
 11
461.483116
 21
76.761739
 31
0.0
  0
TEXT
  8
LC-004-003-----0
  6
CONTINUOUS
 62
     6
  5
81
 10
451.568001
 20
58.4011
 30
0.0
 40
18.0
  1
54
 50
90.0
 51
15.0
  7
LC-TXTSTYLE-150-400-0-0-D0
 72
     1
 11
451.568001
 21
70.264092
 31
0.0
  0
ENDBLK
  8
0
  5
82
  0
BLOCK
  8
0
  5
84
  2
BLK1
 70
    64
 10
0.0
 20
0.0
 30
0.0
  3
BLK1
  0
ENDBLK
  8
0
  5
85
  0
BLOCK
  8
0
  5
87
  2
BLK2
 70
    64
 10
0.0
 20
0.0
 30
0.0
  3
BLK2
  0
ENDBLK
  8
0
  5
88
  0
BLOCK
  8
0
  5
8A
  2
*X6
 70
    65
 10
113.637364
 20
93.4093
 30
0.0
  3
*X6
  0
LINE
  8
LC-003-005-----0
  6
CONTINUOUS
  5
8B
 10
161.508944
 20
93.626693
 30
0.0
 11
162.305694
 21
94.423443
 31
0.0
  0
LINE
  8
LC-003-005-----0
  6
CONTINUOUS
  5
8C
 10
159.96309
 20
94.909266
 30
0.0
 11
160.663095
 21
95.609271
 31
0.0
  0
LINE
  8
LC-003-005-----0
  6
CONTINUOUS
  5
8D
 10
157.134645
 20
94.909249
 30
0.0
 11
157.83465
 21
95.609253
 31
0.0
  0
LINE
  8
LC-003-005-----0
  6
CONTINUOUS
  5
8E
 10
155.306207
 20
95.909237
 30
0.0
 11
155.80932
 21
96.412351
 31
0.0
  0
LINE
  8
LC-003-005-----0
  6
CONTINUOUS
  5
8F
 10
153.07262
 20
96.504078
 30
0.0
 11
153.177766
 21
96.609224
 31
0.0
  0
LINE
  8
LC-003-005-----0
  6
CONTINUOUS
  5
90
 10
141.494684
 20
93.411423
 30
0.0
 11
144.692432
 21
96.609171
 31
0.0
  0
LINE
  8
LC-003-005-----0
  6
CONTINUOUS
  5
91
 10
138.664139
 20
93.409305
 30
0.0
 11
139.364141
 21
94.109307
 31
0.0
  0
LINE
  8
LC-003-005-----0
  6
CONTINUOUS
  5
92
 10
135.934562
 20
93.508155
 30
0.0
 11
136.535707
 21
94.1093
 31
0.0
  0
LINE
  8
LC-003-005-----0
  6
CONTINUOUS
  5
93
 10
133.601956
 20
94.003976
 30
0.0
 11
134.192143
 21
94.594163
 31
0.0
  0
LINE
  8
LC-003-005-----0
  6
CONTINUOUS
  5
94
 10
131.26935
 20
94.499797
 30
0.0
 11
131.859535
 21
95.089983
 31
0.0
  0
LINE
  8
LC-003-005-----0
  6
CONTINUOUS
  5
95
 10
128.936744
 20
94.995618
 30
0.0
 11
129.526928
 21
95.585803
 31
0.0
  0
LINE
  8
LC-003-005-----0
  6
CONTINUOUS
  5
96
 10
126.604138
 20
95.49144
 30
0.0
 11
127.194321
 21
96.081623
 31
0.0
  0
LINE
  8
LC-003-005-----0
  6
CONTINUOUS
  5
97
 10
124.271532
 20
95.987261
 30
0.0
 11
124.861714
 21
96.577443
 31
0.0
  0
LINE
  8
LC-003-005-----0
  6
CONTINUOUS
  5
98
 10
121.938926
 20
96.483082
 30
0.0
 11
122.529107
 21
97.073263
 31
0.0
  0
LINE
  8
LC-003-005-----0
  6
CONTINUOUS
  5
99
 10
119.60632
 20
96.978903
 30
0.0
 11
120.1965
 21
97.569083
 31
0.0
  0
LINE
  8
LC-003-005-----0
  6
CONTINUOUS
  5
9A
 10
117.273714
 20
97.474725
 30
0.0
 11
117.863893
 21
98.064903
 31
0.0
  0
LINE
  8
LC-003-005-----0
  6
CONTINUOUS
  5
9B
 10
115.073551
 20
98.102989
 30
0.0
 11
115.597436
 21
98.626873
 31
0.0
  0
ENDBLK
  8
0
  5
9C
  0
BLOCK
  8
0
  5
9E
  2
BLK3
 70
    64
 10
0.0
 20
0.0
 30
0.0
  3
BLK3
  0
ENDBLK
  8
0
  5
9F
  0
BLOCK
  8
0
  5
A1
  2
BLK4
 70
    64
 10
0.0
 20
0.0
 30
0.0
  3
BLK4
  0
ARC
  8
LC-002-002-----0
  6
CONTINUOUS
  5
A3
 10
271.452035
 20
73.490181
 30
0.0
 40
6.120453
 50
91.207453
 51
126.461927
  0
ARC
  8
LC-002-002-----0
  6
CONTINUOUS
  5
A4
 10
275.536258
 20
67.940291
 30
0.0
 40
13.011176
 50
126.402517
 51
147.641872
  0
ARC
  8
LC-002-002-----0
  6
CONTINUOUS
  5
A5
 10
297.769415
 20
54.695857
 30
0.0
 40
38.887012
 50
148.690352
 51
169.100408
  0
ARC
  8
LC-002-002-----0
  6
CONTINUOUS
  5
A6
 10
339.839487
 20
44.875015
 30
0.0
 40
82.072525
 50
167.921417
 51
180.269755
  0
ARC
  8
LC-002-002-----0
  6
CONTINUOUS
  5
A7
 10
339.839487
 20
44.102203
 30
0.0
 40
82.072525
 50
179.730245
 51
192.078583
  0
ARC
  8
LC-002-002-----0
  6
CONTINUOUS
  5
A8
 10
297.769415
 20
34.281361
 30
0.0
 40
38.887012
 50
190.899592
 51
211.309648
  0
ARC
  8
LC-002-002-----0
  6
CONTINUOUS
  5
A9
 10
275.536258
 20
21.036927
 30
0.0
 40
13.011176
 50
212.358128
 51
233.597483
  0
ARC
  8
LC-002-002-----0
  6
CONTINUOUS
  5
AA
 10
271.452035
 20
15.487037
 30
0.0
 40
6.120453
 50
233.538073
 51
268.792547
  0
ENDBLK
  8
0
  5
AB
  0
BLOCK
  8
0
  5
AD
  2
BLK5
 70
    64
 10
0.0
 20
0.0
 30
0.0
  3
BLK5
  0
ENDBLK
  8
0
  5
AE
  0
BLOCK
  8
0
  5
B0
  2
*X10
 70
    65
 10
136.822801
 20
88.609275
 30
0.0
  3
*X10
  0
LINE
  8
LC-003-005-----0
  6
DASHED
  5
B2
 10
142.447275
 20
89.483749
 30
0.0
 11
139.071749
 21
92.859275
 31
0.0
  0
LINE
  8
LC-003-005-----0
  6
DASHED
  5
B3
 10
141.657536
 20
88.859275
 30
0.0
 11
137.740169
 21
92.776642
 31
0.0
  0
LINE
  8
LC-003-005-----0
  6
CONTINUOUS
  5
B4
 10
138.829109
 20
88.859275
 30
0.0
 11
136.822801
 21
90.865582
 31
0.0
  0
ENDBLK
  8
0
  5
B5
  0
BLOCK
  8
0
  5
B7
  2
*D11
 70
    65
 10
0.0
 20
0.0
 30
0.0
  3
*D11
  0
LINE
  8
LC-005-003-MTH-0
  6
CONTINUOUS
  5
B8
 10
215.867925
 20
9.392745
 30
0.0
 11
73.2
 21
9.392745
 31
0.0
  0
LINE
  8
LC-005-003-MTH-0
  6
CONTINUOUS
  5
B9
 10
113.697411
 20
94.72786
 30
0.0
 11
73.2
 21
94.72786
 31
0.0
  0
LINE
  8
LC-006-003-MTG-0
  6
CONTINUOUS
  5
BA
 10
84.0
 20
9.392745
 30
0.0
 11
84.0
 21
94.72786
 31
0.0
  0
LINE
  8
LC-004-003-----0
  6
CONTINUOUS
  5
BB
 10
81.650529
 20
27.238753
 30
0.0
 11
84.0
 21
9.392745
 31
0.0
  0
LINE
  8
LC-004-003-----0
  6
CONTINUOUS
  5
BC
 10
84.0
 20
9.392745
 30
0.0
 11
86.349471
 21
27.238753
 31
0.0
  0
LINE
  8
LC-004-003-----0
  6
CONTINUOUS
  5
BD
 10
86.349471
 20
27.238753
 30
0.0
 11
81.650529
 21
27.238753
 31
0.0
  0
LINE
  8
LC-004-003-----0
  6
CONTINUOUS
  5
BE
 10
82.261391
 20
27.278791
 30
0.0
 11
84.0
 21
14.072745
 31
0.0
  0
LINE
  8
LC-004-003-----0
  6
CONTINUOUS
  5
BF
 10
84.0
 20
14.072745
 30
0.0
 11
85.738609
 21
27.278791
 31
0.0
  0
LINE
  8
LC-004-003-----0
  6
CONTINUOUS
  5
C0
 10
82.872254
 20
27.318829
 30
0.0
 11
84.0
 21
18.752745
 31
0.0
  0
LINE
  8
LC-004-003-----0
  6
CONTINUOUS
  5
C1
 10
84.0
 20
18.752745
 30
0.0
 11
85.127746
 21
27.318829
 31
0.0
  0
LINE
  8
LC-004-003-----0
  6
CONTINUOUS
  5
C2
 10
83.483116
 20
27.358867
 30
0.0
 11
84.0
 21
23.432745
 31
0.0
  0
LINE
  8
LC-004-003-----0
  6
CONTINUOUS
  5
C3
 10
84.0
 20
23.432745
 30
0.0
 11
84.516884
 21
27.358867
 31
0.0
  0
LINE
  8
LC-004-003-----0
  6
CONTINUOUS
  5
C4
 10
86.349471
 20
76.881853
 30
0.0
 11
84.0
 21
94.72786
 31
0.0
  0
LINE
  8
LC-004-003-----0
  6
CONTINUOUS
  5
C5
 10
84.0
 20
94.72786
 30
0.0
 11
81.650529
 21
76.881853
 31
0.0
  0
LINE
  8
LC-004-003-----0
  6
CONTINUOUS
  5
C6
 10
81.650529
 20
76.881853
 30
0.0
 11
86.349471
 21
76.881853
 31
0.0
  0
LINE
  8
LC-004-003-----0
  6
CONTINUOUS
  5
C7
 10
85.738609
 20
76.841815
 30
0.0
 11
84.0
 21
90.04786
 31
0.0
  0
LINE
  8
LC-004-003-----0
  6
CONTINUOUS
  5
C8
 10
84.0
 20
90.04786
 30
0.0
 11
82.261391
 21
76.841815
 31
0.0
  0
LINE
  8
LC-004-003-----0
  6
CONTINUOUS
  5
C9
 10
85.127746
 20
76.801777
 30
0.0
 11
84.0
 21
85.36786
 31
0.0
  0
LINE
  8
LC-004-003-----0
  6
CONTINUOUS
  5
CA
 10
84.0
 20
85.36786
 30
0.0
 11
82.872254
 21
76.801777
 31
0.0
  0
LINE
  8
LC-004-003-----0
  6
CONTINUOUS
  5
CB
 10
84.516884
 20
76.761739
 30
0.0
 11
84.0
 21
80.68786
 31
0.0
  0
LINE
  8
LC-004-003-----0
  6
CONTINUOUS
  5
CC
 10
84.0
 20
80.68786
 30
0.0
 11
83.483116
 21
76.761739
 31
0.0
  0
TEXT
  8
LC-004-003-----0
  6
CONTINUOUS
 62
     6
  5
CD
 10
73.568001
 20
42.992556
 30
0.0
 40
18.0
  1
85
 50
90.0
 51
15.0
  7
LC-TXTSTYLE-150-400-0-0-D0
 72
     1
 11
73.568001
 21
54.855548
 31
0.0
  0
ENDBLK
  8
0
  5
CE
  0
BLOCK
  8
0
  5
D0
  2
BLK6
 70
    64
 10
0.0
 20
0.0
 30
0.0
  3
BLK6
  0
ENDBLK
  8
0
  5
D1
  0
BLOCK
  8
0
  5
D3
  2
*X13
 70
    65
 10
295.823409
 20
88.609275
 30
0.0
  3
*X13
  0
LINE
  8
LC-003-005-----0
  6
CONTINUOUS
  5
D4
 10
301.823409
 20
91.327961
 30
0.0
 11
300.220441
 21
92.930929
 31
0.0
  0
LINE
  8
LC-003-005-----0
  6
DASHED
  5
D5
 10
301.143539
 20
89.179404
 30
0.0
 11
297.283241
 21
93.039702
 31
0.0
  0
LINE
  8
LC-003-005-----0
  6
DASHED
  5
D6
 10
300.049455
 20
88.859275
 30
0.0
 11
296.436432
 21
92.472298
 31
0.0
  0
LINE
  8
LC-003-005-----0
  6
CONTINUOUS
  5
D7
 10
297.377441
 20
88.702861
 30
0.0
 11
295.823409
 21
90.256893
 31
0.0
  0
ENDBLK
  8
0
  5
D8
  0
BLOCK
  8
0
  5
DA
  2
*X14
 70
    65
 10
161.323112
 20
85.609275
 30
0.0
  3
*X14
  0
LINE
  8
LC-003-005-----0
  6
CONTINUOUS
  5
DB
 10
275.113892
 20
85.609275
 30
0.0
 11
275.823105
 21
86.318488
 31
0.0
  0
LINE
  8
LC-003-005-----0
  6
CONTINUOUS
  5
DC
 10
273.823105
 20
87.146915
 30
0.0
 11
275.823105
 21
89.146915
 31
0.0
  0
LINE
  8
LC-003-005-----0
  6
CONTINUOUS
  5
DD
 10
273.823105
 20
89.975342
 30
0.0
 11
276.449072
 21
92.601308
 31
0.0
  0
LINE
  8
LC-003-005-----0
  6
CONTINUOUS
  5
DE
 10
273.823105
 20
92.803769
 30
0.0
 11
275.823105
 21
94.803769
 31
0.0
  0
LINE
  8
LC-003-005-----0
  6
CONTINUOUS
  5
DF
 10
259.578888
 20
132.299667
 30
0.0
 11
260.60506
 21
133.325839
 31
0.0
  0
LINE
  8
LC-003-005-----0
  6
CONTINUOUS
  5
E0
 10
258.434491
 20
133.983698
 30
0.0
 11
259.987417
 21
135.536623
 31
0.0
  0
LINE
  8
LC-003-005-----0
  6
CONTINUOUS
  5
E1
 10
258.430545
 20
136.808178
 30
0.0
 11
259.369774
 21
137.747408
 31
0.0
  0
LINE
  8
LC-003-005-----0
  6
CONTINUOUS
  5
E2
 10
258.430545
 20
139.636606
 30
0.0
 11
258.752131
 21
139.958192
 31
0.0
  0
LINE
  8
LC-003-005-----0
  6
CONTINUOUS
  5
E3
 10
249.323105
 20
167.298719
 30
0.0
 11
251.323105
 21
169.298719
 31
0.0
  0
LINE
  8
LC-003-005-----0
  6
CONTINUOUS
  5
E4
 10
164.805234
 20
85.609275
 30
0.0
 11
164.823105
 21
85.627146
 31
0.0
  0
LINE
  8
LC-003-005-----0
  6
CONTINUOUS
  5
E5
 10
249.323105
 20
170.127146
 30
0.0
 11
249.805234
 21
170.609275
 31
0.0
  0
LINE
  8
LC-003-005-----0
  6
CONTINUOUS
  5
E6
 10
162.823105
 20
86.455573
 30
0.0
 11
164.823105
 21
88.455573
 31
0.0
  0
LINE
  8
LC-003-005-----0
  6
CONTINUOUS
  5
E7
 10
162.823105
 20
89.284
 30
0.0
 11
164.823105
 21
91.284
 31
0.0
  0
LINE
  8
LC-003-005-----0
  6
CONTINUOUS
  5
E8
 10
161.821532
 20
91.110854
 30
0.0
 11
164.823105
 21
94.112427
 31
0.0
  0
LINE
  8
LC-003-005-----0
  6
CONTINUOUS
  5
E9
 10
162.823105
 20
94.940854
 30
0.0
 11
163.491525
 21
95.609274
 31
0.0
  0
LINE
  8
LC-003-005-----0
  6
CONTINUOUS
  5
EA
 10
223.177817
 20
166.609275
 30
0.0
 11
224.323105
 21
167.754563
 31
0.0
  0
LINE
  8
LC-003-005-----0
  6
CONTINUOUS
  5
EB
 10
220.34939
 20
166.609275
 30
0.0
 11
224.323105
 21
170.58299
 31
0.0
  0
LINE
  8
LC-003-005-----0
  6
CONTINUOUS
  5
EC
 10
217.520963
 20
166.609275
 30
0.0
 11
221.520963
 21
170.609275
 31
0.0
  0
LINE
  8
LC-003-005-----0
  6
CONTINUOUS
  5
ED
 10
214.692536
 20
166.609275
 30
0.0
 11
218.692536
 21
170.609275
 31
0.0
  0
LINE
  8
LC-003-005-----0
  6
CONTINUOUS
  5
EE
 10
177.831984
 20
132.57715
 30
0.0
 11
180.215666
 21
134.960832
 31
0.0
  0
LINE
  8
LC-003-005-----0
  6
CONTINUOUS
  5
EF
 10
214.323105
 20
169.068271
 30
0.0
 11
215.864109
 21
170.609275
 31
0.0
  0
LINE
  8
LC-003-005-----0
  6
CONTINUOUS
  5
F0
 10
178.928533
 20
136.502126
 30
0.0
 11
180.215666
 21
137.789259
 31
0.0
  0
LINE
  8
LC-003-005-----0
  6
CONTINUOUS
  5
F1
 10
180.025082
 20
140.427102
 30
0.0
 11
180.215666
 21
140.617686
 31
0.0
  0
LINE
  8
LC-003-005-----0
  6
CONTINUOUS
  5
F2
 10
189.236692
 20
166.609275
 30
0.0
 11
189.323105
 21
166.695688
 31
0.0
  0
LINE
  8
LC-003-005-----0
  6
CONTINUOUS
  5
F3
 10
187.323105
 20
167.524115
 30
0.0
 11
189.323105
 21
169.524115
 31
0.0
  0
LINE
  8
LC-003-005-----0
  6
CONTINUOUS
  5
F4
 10
187.323105
 20
170.352542
 30
0.0
 11
187.579838
 21
170.609275
 31
0.0
  0
ENDBLK
  8
0
  5
F5
  0
BLOCK
  8
0
  5
F7
  2
*D15
 70
    65
 10
0.0
 20
0.0
 30
0.0
  3
*D15
  0
LINE
  8
LC-005-003-MTH-0
  6
CONTINUOUS
  5
F8
 10
104.323062
 20
96.565617
 30
0.0
 11
104.323062
 21
190.8
 31
0.0
  0
LINE
  8
LC-005-003-MTH-0
  6
CONTINUOUS
  5
F9
 10
334.323062
 20
96.565617
 30
0.0
 11
334.323062
 21
190.8
 31
0.0
  0
LINE
  8
LC-006-003-MTG-0
  6
CONTINUOUS
  5
FA
 10
104.323062
 20
180.0
 30
0.0
 11
334.323062
 21
180.0
 31
0.0
  0
LINE
  8
LC-004-003-----0
  6
CONTINUOUS
  5
FB
 10
122.16907
 20
182.349471
 30
0.0
 11
104.323062
 21
180.0
 31
0.0
  0
LINE
  8
LC-004-003-----0
  6
CONTINUOUS
  5
FC
 10
104.323062
 20
180.0
 30
0.0
 11
122.16907
 21
177.650529
 31
0.0
  0
LINE
  8
LC-004-003-----0
  6
CONTINUOUS
  5
FD
 10
122.16907
 20
177.650529
 30
0.0
 11
122.16907
 21
182.349471
 31
0.0
  0
LINE
  8
LC-004-003-----0
  6
CONTINUOUS
  5
FE
 10
122.209108
 20
181.738609
 30
0.0
 11
109.003062
 21
180.0
 31
0.0
  0
LINE
  8
LC-004-003-----0
  6
CONTINUOUS
  5
FF
 10
109.003062
 20
180.0
 30
0.0
 11
122.209108
 21
178.261391
 31
0.0
  0
LINE
  8
LC-004-003-----0
  6
CONTINUOUS
  5
100
 10
122.249146
 20
181.127746
 30
0.0
 11
113.683062
 21
180.0
 31
0.0
  0
LINE
  8
LC-004-003-----0
  6
CONTINUOUS
  5
101
 10
113.683062
 20
180.0
 30
0.0
 11
122.249146
 21
178.872254
 31
0.0
  0
LINE
  8
LC-004-003-----0
  6
CONTINUOUS
  5
102
 10
122.289184
 20
180.516884
 30
0.0
 11
118.363062
 21
180.0
 31
0.0
  0
LINE
  8
LC-004-003-----0
  6
CONTINUOUS
  5
103
 10
118.363062
 20
180.0
 30
0.0
 11
122.289184
 21
179.483116
 31
0.0
  0
LINE
  8
LC-004-003-----0
  6
CONTINUOUS
  5
104
 10
316.477055
 20
177.650529
 30
0.0
 11
334.323062
 21
180.0
 31
0.0
  0
LINE
  8
LC-004-003-----0
  6
CONTINUOUS
  5
105
 10
334.323062
 20
180.0
 30
0.0
 11
316.477055
 21
182.349471
 31
0.0
  0
LINE
  8
LC-004-003-----0
  6
CONTINUOUS
  5
106
 10
316.477055
 20
182.349471
 30
0.0
 11
316.477055
 21
177.650529
 31
0.0
  0
LINE
  8
LC-004-003-----0
  6
CONTINUOUS
  5
107
 10
316.437017
 20
178.261391
 30
0.0
 11
329.643062
 21
180.0
 31
0.0
  0
LINE
  8
LC-004-003-----0
  6
CONTINUOUS
  5
108
 10
329.643062
 20
180.0
 30
0.0
 11
316.437017
 21
181.738609
 31
0.0
  0
LINE
  8
LC-004-003-----0
  6
CONTINUOUS
  5
109
 10
316.396979
 20
178.872254
 30
0.0
 11
324.963062
 21
180.0
 31
0.0
  0
LINE
  8
LC-004-003-----0
  6
CONTINUOUS
  5
10A
 10
324.963062
 20
180.0
 30
0.0
 11
316.396979
 21
181.127746
 31
0.0
  0
LINE
  8
LC-004-003-----0
  6
CONTINUOUS
  5
10B
 10
316.35694
 20
179.483116
 30
0.0
 11
320.283062
 21
180.0
 31
0.0
  0
LINE
  8
LC-004-003-----0
  6
CONTINUOUS
  5
10C
 10
320.283062
 20
180.0
 30
0.0
 11
316.35694
 21
180.516884
 31
0.0
  0
TEXT
  8
LC-004-003-----0
  6
CONTINUOUS
 62
     6
  5
10D
 10
191.351442
 20
190.431999
 30
0.0
 40
18.0
  1
Ø230
 51
15.0
  7
LC-TXTSTYLE-150-400-0-0-D0
 72
     1
 11
215.84278
 21
190.431999
 31
0.0
  0
ENDBLK
  8
0
  5
10E
  0
BLOCK
  8
0
  5
110
  2
BLK7
 70
    64
 10
0.0
 20
0.0
 30
0.0
  3
BLK7
  0
ENDBLK
  8
0
  5
111
  0
BLOCK
  8
0
  5
113
  2
BLK8
 70
    64
 10
0.0
 20
0.0
 30
0.0
  3
BLK8
  0
ENDBLK
  8
0
  5
114
  0
BLOCK
  8
0
  5
116
  2
BLK9
 70
    64
 10
0.0
 20
0.0
 30
0.0
  3
BLK9
  0
ENDBLK
  8
0
  5
117
  0
BLOCK
  8
0
  5
119
  2
BLK10
 70
    64
 10
0.0
 20
0.0
 30
0.0
  3
BLK10
  0
ENDBLK
  8
0
  5
11A
  0
BLOCK
  8
0
  5
11C
  2
BLK11
 70
    64
 10
0.0
 20
0.0
 30
0.0
  3
BLK11
  0
ENDBLK
  8
0
  5
11D
  0
BLOCK
  8
0
  5
11F
  2
BLK12
 70
    64
 10
0.0
 20
0.0
 30
0.0
  3
BLK12
  0
ENDBLK
  8
0
  5
120
  0
BLOCK
  8
0
  5
122
  2
BLK13
 70
    64
 10
0.0
 20
0.0
 30
0.0
  3
BLK13
  0
ENDBLK
  8
0
  5
123
  0
BLOCK
  8
0
  5
125
  2
BLK14
 70
    64
 10
0.0
 20
0.0
 30
0.0
  3
BLK14
  0
ENDBLK
  8
0
  5
126
  0
BLOCK
  8
0
  5
128
  2
BLK15
 70
    64
 10
0.0
 20
0.0
 30
0.0
  3
BLK15
  0
ENDBLK
  8
0
  5
129
  0
BLOCK
  8
0
  5
12B
  2
BLK16
 70
    64
 10
0.0
 20
0.0
 30
0.0
  3
BLK16
  0
ENDBLK
  8
0
  5
12C
  0
BLOCK
  8
0
  5
12E
  2
BLK17
 70
    64
 10
0.0
 20
0.0
 30
0.0
  3
BLK17
  0
ENDBLK
  8
0
  5
12F
  0
BLOCK
  8
0
  5
131
  2
BLK18
 70
    64
 10
0.0
 20
0.0
 30
0.0
  3
BLK18
  0
ENDBLK
  8
0
  5
132
  0
BLOCK
  8
0
  5
134
  2
BLK19
 70
    64
 10
0.0
 20
0.0
 30
0.0
  3
BLK19
  0
ENDBLK
  8
0
  5
135
  0
BLOCK
  8
0
  5
137
  2
BLK20
 70
    64
 10
0.0
 20
0.0
 30
0.0
  3
BLK20
  0
ENDBLK
  8
0
  5
138
  0
BLOCK
  8
0
  5
13A
  2
BLK21
 70
    64
 10
0.0
 20
0.0
 30
0.0
  3
BLK21
  0
ENDBLK
  8
0
  5
13B
  0
BLOCK
  8
0
  5
13D
  2
BLK22
 70
    64
 10
0.0
 20
0.0
 30
0.0
  3
BLK22
  0
ENDBLK
  8
0
  5
13E
  0
BLOCK
  8
0
  5
140
  2
BLK23
 70
    64
 10
0.0
 20
0.0
 30
0.0
  3
BLK23
  0
ENDBLK
  8
0
  5
141
  0
BLOCK
  8
0
  5
143
  2
BLK24
 70
    64
 10
0.0
 20
0.0
 30
0.0
  3
BLK24
  0
ENDBLK
  8
0
  5
144
  0
BLOCK
  8
0
  5
146
  2
BLK25
 70
    64
 10
0.0
 20
0.0
 30
0.0
  3
BLK25
  0
ENDBLK
  8
0
  5
147
  0
BLOCK
  8
0
  5
149
  2
BLK26
 70
    64
 10
0.0
 20
0.0
 30
0.0
  3
BLK26
  0
ENDBLK
  8
0
  5
14A
  0
BLOCK
  8
0
  5
14C
  2
BLK27
 70
    64
 10
0.0
 20
0.0
 30
0.0
  3
BLK27
  0
ENDBLK
  8
0
  5
14D
  0
ENDSEC
  0
SECTION
  2
ENTITIES
  0
VIEWPORT
  8
LC-000
  5
370
 67
     1
 68
     1
 10
420.0
 20
297.0
 30
0.0
 40
840.0
 41
594.0
 69
     1
1001
ACAD
1000
MVIEW
1002
{
1070
    16
1010
0.0
1020
0.0
1030
0.0
1010
0.0
1020
0.0
1030
1.0
1040
0.0
1040
594.0
1040
420.0
1040
297.0
1040
50.0
1040
0.0
1040
0.0
1070
     0
1070
   100
1070
     1
1070
     1
1070
     0
1070
     0
1070
     0
1070
     0
1040
0.0
1040
0.0
1040
0.0
1040
1.0
1040
1.0
1040
0.0
1040
0.0
1070
     0
1002
{
1002
}
1002
}
  0
VIEWPORT
  8
0
  5
371
 67
     1
 68
     1
 10
0.0
 20
0.0
 30
0.0
 40
0.0
 41
0.0
 69
     1
1001
ACAD
1000
MVIEW
1002
{
1070
    16
1010
0.0
1020
0.0
1030
0.0
1010
0.0
1020
0.0
1030
1.0
1040
0.0
1040
594.0
1040
0.0
1040
0.0
1040
50.0
1040
0.0
1040
0.0
1070
     0
1070
   100
1070
     0
1070
     1
1070
     0
1070
     0
1070
     0
1070
     0
1040
0.0
1040
0.0
1040
0.0
1040
0.5
1040
0.5
1040
0.5
1040
0.5
1070
     0
1002
{
1002
}
1002
}
  0
INSERT
  8
0
  5
14E
  2
*X0
 10
276.323098
 20
93.4093
 30
0.0
  0
DIMENSION
  8
0
  5
14F
  2
*D1
 10
416.025257
 20
34.653419
 30
0.0
 11
416.025257
 21
34.653419
 31
0.0
 70
     1
  1
DN70
 13
367.462233
 23
77.826808
 33
0.0
 14
364.190779
 24
2.898191
 34
0.0
  3
LC-DIM-L-0090-02-02
  0
DIMENSION
  8
0
  5
150
  2
*D2
 10
294.32314
 20
-40.0
 30
0.0
 11
294.32314
 21
-40.0
 31
0.0
 13
219.323105
 23
9.223247
 33
0.0
 14
369.323174
 24
40.209832
 34
0.0
  3
LC-DIM-L-0090-02-02
  0
DIMENSION
  8
0
  5
151
  2
*D3
 10
462.0
 20
67.468846
 30
0.0
 11
462.0
 21
67.468846
 31
0.0
  1
54
 13
324.948713
 23
94.72786
 33
0.0
 14
369.323174
 24
40.209832
 34
0.0
 50
90.0
  3
LC-DIM-L-0090-02-02
  0
INSERT
  8
0
  5
153
  2
BLK1
 10
0.0
 20
0.0
 30
0.0
  0
INSERT
  8
0
  5
154
  2
BLK2
 10
0.0
 20
0.0
 30
0.0
  0
INSERT
  8
0
  5
155
  2
*X6
 10
113.637364
 20
93.4093
 30
0.0
  0
INSERT
  8
0
  5
157
  2
BLK3
 10
0.0
 20
0.0
 30
0.0
  0
INSERT
  8
0
  5
158
  2
BLK4
 10
0.0
 20
0.0
 30
0.0
  0
INSERT
  8
0
  5
159
  2
BLK5
 10
0.0
 20
0.0
 30
0.0
  0
INSERT
  8
0
  5
15A
  2
*X10
 10
136.822801
 20
88.609275
 30
0.0
  0
DIMENSION
  8
0
  5
15B
  2
*D11
 10
84.0
 20
52.060303
 30
0.0
 11
84.0
 21
52.060303
 31
0.0
  1
85
 13
113.697411
 23
94.72786
 33
0.0
 14
215.867925
 24
9.392745
 34
0.0
 50
90.0
  3
LC-DIM-L-0090-02-02
  0
INSERT
  8
0
  5
15C
  2
BLK6
 10
0.0
 20
0.0
 30
0.0
  0
INSERT
  8
0
  5
15D
  2
*X13
 10
295.823409
 20
88.609275
 30
0.0
  0
INSERT
  8
0
  5
15E
  2
*X14
 10
161.323112
 20
85.609275
 30
0.0
  0
DIMENSION
  8
0
  5
15F
  2
*D15
 10
213.047534
 20
180.0
 30
0.0
 11
213.047534
 21
180.0
 31
0.0
  1
%%c<>
 13
104.323062
 23
96.565617
 33
0.0
 14
334.323062
 24
96.565617
 34
0.0
  3
LC-DIM-L-0090-02-02
  0
INSERT
  8
0
  5
160
  2
BLK7
 10
0.0
 20
0.0
 30
0.0
  0
INSERT
  8
0
  5
161
  2
BLK8
 10
0.0
 20
0.0
 30
0.0
  0
INSERT
  8
0
  5
162
  2
BLK9
 10
0.0
 20
0.0
 30
0.0
  0
INSERT
  8
0
  5
163
  2
BLK10
 10
0.0
 20
0.0
 30
0.0
  0
INSERT
  8
0
  5
164
  2
BLK11
 10
0.0
 20
0.0
 30
0.0
  0
INSERT
  8
0
  5
165
  2
BLK12
 10
0.0
 20
0.0
 30
0.0
  0
INSERT
  8
0
  5
166
  2
BLK13
 10
0.0
 20
0.0
 30
0.0
  0
INSERT
  8
0
  5
167
  2
BLK14
 10
0.0
 20
0.0
 30
0.0
  0
INSERT
  8
0
  5
168
  2
BLK15
 10
0.0
 20
0.0
 30
0.0
  0
INSERT
  8
0
  5
169
  2
BLK16
 10
0.0
 20
0.0
 30
0.0
  0
INSERT
  8
0
  5
16A
  2
BLK17
 10
0.0
 20
0.0
 30
0.0
  0
INSERT
  8
0
  5
16B
  2
BLK18
 10
0.0
 20
0.0
 30
0.0
  0
INSERT
  8
0
  5
16C
  2
BLK19
 10
0.0
 20
0.0
 30
0.0
  0
INSERT
  8
0
  5
16D
  2
BLK20
 10
0.0
 20
0.0
 30
0.0
  0
INSERT
  8
0
  5
16E
  2
BLK21
 10
0.0
 20
0.0
 30
0.0
  0
INSERT
  8
0
  5
16F
  2
BLK22
 10
0.0
 20
0.0
 30
0.0
  0
INSERT
  8
0
  5
170
  2
BLK23
 10
0.0
 20
0.0
 30
0.0
  0
INSERT
  8
0
  5
171
  2
BLK24
 10
0.0
 20
0.0
 30
0.0
  0
INSERT
  8
0
  5
172
  2
BLK25
 10
0.0
 20
0.0
 30
0.0
  0
INSERT
  8
0
  5
173
  2
BLK26
 10
0.0
 20
0.0
 30
0.0
  0
INSERT
  8
0
  5
174
  2
BLK27
 10
0.0
 20
0.0
 30
0.0
  0
LINE
  8
LC-002-002-----0
  6
CONTINUOUS
  5
175
 10
278.823098
 20
93.609265
 30
0.0
 11
277.323092
 21
93.609275
 31
0.0
  0
LINE
  8
LC-002-002-----0
  6
CONTINUOUS
  5
176
 10
282.223589
 20
94.909242
 30
0.0
 11
295.302272
 21
94.909242
 31
0.0
  0
LINE
  8
LC-002-002-----0
  6
CONTINUOUS
  5
177
 10
282.323174
 20
81.544059
 30
0.0
 11
282.323174
 21
86.109275
 31
0.0
  0
ARC
  8
LC-007-002-RND-0
  6
CONTINUOUS
  5
179
 10
294.302412
 20
95.909169
 30
0.0
 40
0.7
 50
45.0
 51
89.999642
  0
LINE
  8
LC-002-002-----0
  6
CONTINUOUS
  5
17A
 10
295.322359
 20
98.108535
 30
0.0
 11
283.323618
 21
98.108503
 31
0.0
  0
ARC
  8
LC-007-002-RND-0
  6
CONTINUOUS
  5
17B
 10
332.323148
 20
96.565617
 30
0.0
 40
2.0
 50
0.0
 51
91.898364
  0
LINE
  8
LC-002-002-----0
  6
CONTINUOUS
  5
17C
 10
334.323148
 20
95.084473
 30
0.0
 11
334.323148
 21
96.565617
 31
0.0
  0
LINE
  8
LC-002-002-----0
  6
CONTINUOUS
  5
17D
 10
104.323062
 20
95.084473
 30
0.0
 11
104.323062
 21
96.565617
 31
0.0
  0
LINE
  8
LC-002-002-----0
  6
DASHDOT
 62
     2
  5
17F
 10
149.322547
 20
79.108584
 30
0.0
 11
149.322634
 21
99.10761
 31
0.0
  0
LINE
  8
LC-008-004-----0
  6
CONTINUOUS
  5
181
 10
290.122349
 20
100.076513
 30
0.0
 11
290.122352
 21
99.10761
 31
0.0
  0
LINE
  8
LC-008-004-----0
  6
CONTINUOUS
  5
182
 10
288.523617
 20
100.076509
 30
0.0
 11
288.523618
 21
99.107609
 31
0.0
  0
ARC
  8
LC-002-002-----0
  6
CONTINUOUS
  5
183
 10
289.323008
 20
90.110408
 30
0.0
 40
9.99811
 50
53.126659
 51
85.414352
  0
LINE
  8
LC-002-002-----0
  6
CONTINUOUS
  5
184
 10
288.523618
 20
99.107609
 30
0.0
 11
290.122352
 21
99.10761
 31
0.0
  0
ARC
  8
LC-002-002-----0
  6
CONTINUOUS
  5
185
 10
289.323008
 20
90.110408
 30
0.0
 40
9.99811
 50
94.585934
 51
126.87365
  0
ARC
  8
LC-007-002-RND-0
  6
CONTINUOUS
  5
186
 10
283.32359
 20
95.909237
 30
0.0
 40
0.7
 50
89.999642
 51
143.129973
  0
LINE
  8
LC-002-002-----0
  6
CONTINUOUS
  5
187
 10
146.32385
 20
95.909181
 30
0.0
 11
145.57262
 21
95.909176
 31
0.0
  0
LINE
  8
LC-008-004-----0
  6
CONTINUOUS
  5
188
 10
295.322355
 20
98.108535
 30
0.0
 11
295.322359
 21
96.608535
 31
0.0
  0
ARC
  8
LC-007-002-RND-0
  6
CONTINUOUS
  5
189
 10
282.223593
 20
95.609244
 30
0.0
 40
0.7
 50
269.999642
 51
323.129973
  0
LINE
  8
LC-008-004-----0
  6
CONTINUOUS
  5
18A
 10
283.323618
 20
98.108503
 30
0.0
 11
283.323619
 21
96.607606
 31
0.0
  0
LINE
  8
LC-002-002-----0
  6
CONTINUOUS
  5
18B
 10
159.823112
 20
93.609265
 30
0.0
 11
161.323118
 21
93.609275
 31
0.0
  0
LINE
  8
LC-002-002-----0
  6
CONTINUOUS
  5
18C
 10
177.70127
 20
132.109275
 30
0.0
 11
260.94494
 21
132.109275
 31
0.0
  0
ARC
  8
LC-002-002-----0
  6
CONTINUOUS
  5
18D
 10
149.322573
 20
87.608595
 30
0.0
 40
10.0
 50
244.158193
 51
295.842059
  0
LINE
  8
LC-002-002-----0
  6
CONTINUOUS
  5
18E
 10
164.823105
 20
95.609275
 30
0.0
 11
219.323105
 21
95.609275
 31
0.0
  0
LINE
  8
LC-002-002-----0
  6
CONTINUOUS
  5
18F
 10
167.504001
 20
95.609275
 30
0.0
 11
187.339785
 21
166.609275
 31
0.0
  0
LINE
  8
LC-002-002-----0
  6
CONTINUOUS
  5
190
 10
258.430545
 20
141.109275
 30
0.0
 11
180.215666
 21
141.109275
 31
0.0
  0
LINE
  8
LC-003-005-----0
  6
CONTINUOUS
  5
191
 10
152.322587
 20
90.09719
 30
0.0
 11
154.184529
 21
91.959133
 31
0.0
  0
ARC
  8
LC-007-002-RND-0
  6
CONTINUOUS
  5
192
 10
144.343798
 20
95.909169
 30
0.0
 40
0.7
 50
90.000358
 51
135.0
  0
LINE
  8
LC-003-005-----0
  6
CONTINUOUS
  5
193
 10
365.14938
 20
3.110708
 30
0.0
 11
367.303347
 21
5.264675
 31
0.0
  0
LINE
  8
LC-002-002-----0
  6
CONTINUOUS
  5
194
 10
282.223593
 20
95.609244
 30
0.0
 11
282.763591
 21
96.329239
 31
0.0
  0
LINE
  8
LC-002-002-----0
  6
CONTINUOUS
  5
195
 10
143.32254
 20
78.607894
 30
0.0
 11
144.965121
 21
78.607894
 31
0.0
  0
LINE
  8
LC-003-005-----0
  6
CONTINUOUS
  5
196
 10
362.19555
 20
2.985305
 30
0.0
 11
364.593246
 21
5.383001
 31
0.0
  0
LINE
  8
LC-003-005-----0
  6
CONTINUOUS
  5
197
 10
152.322585
 20
87.268761
 30
0.0
 11
158.663099
 21
93.609275
 31
0.0
  0
LINE
  8
LC-010-006-MLN-0
  6
DASHDOT
  5
19A
 10
289.323567
 20
101.203053
 30
0.0
 11
289.323663
 21
79.125789
 31
0.0
  0
LINE
  8
LC-003-005-----0
  6
CONTINUOUS
  5
19B
 10
359.485448
 20
3.10363
 30
0.0
 11
361.883144
 21
5.501326
 31
0.0
  0
LINE
  8
LC-003-005-----0
  6
CONTINUOUS
  5
19C
 10
356.775346
 20
3.221956
 30
0.0
 11
359.173043
 21
5.619652
 31
0.0
  0
LINE
  8
LC-003-005-----0
  6
CONTINUOUS
  5
19D
 10
354.065245
 20
3.340281
 30
0.0
 11
356.462941
 21
5.737978
 31
0.0
  0
LINE
  8
LC-003-005-----0
  6
CONTINUOUS
  5
19E
 10
351.355143
 20
3.458607
 30
0.0
 11
353.752839
 21
5.856303
 31
0.0
  0
LINE
  8
LC-003-005-----0
  6
CONTINUOUS
  5
19F
 10
348.645042
 20
3.576933
 30
0.0
 11
351.042738
 21
5.974629
 31
0.0
  0
LINE
  8
LC-003-005-----0
  6
CONTINUOUS
  5
1A0
 10
345.93494
 20
3.695258
 30
0.0
 11
348.332636
 21
6.092954
 31
0.0
  0
LINE
  8
LC-003-005-----0
  6
CONTINUOUS
  5
1A1
 10
343.224839
 20
3.813584
 30
0.0
 11
345.622535
 21
6.21128
 31
0.0
  0
ARC
  8
LC-007-002-RND-0
  6
CONTINUOUS
  5
1A2
 10
155.32262
 20
95.909237
 30
0.0
 40
0.7
 50
36.870027
 51
90.000358
  0
LINE
  8
LC-003-005-----0
  6
CONTINUOUS
  5
1A3
 10
340.514737
 20
3.931909
 30
0.0
 11
342.912433
 21
6.329605
 31
0.0
  0
LINE
  8
LC-002-002-----0
  6
CONTINUOUS
  5
1A4
 10
282.223589
 20
94.909244
 30
0.0
 11
277.3231
 21
94.909275
 31
0.0
  0
LINE
  8
LC-002-002-----0
  6
CONTINUOUS
  5
1A5
 10
285.57359
 20
95.909223
 30
0.0
 11
293.07359
 21
95.909176
 31
0.0
  0
LINE
  8
LC-002-002-----0
  6
CONTINUOUS
  5
1A6
 10
302.246584
 20
93.4093
 30
0.0
 11
297.216473
 21
93.409311
 31
0.0
  0
LINE
  8
LC-002-002-----0
  6
CONTINUOUS
  5
1A7
 10
302.246584
 20
93.4093
 30
0.0
 11
322.638288
 21
97.743783
 31
0.0
  0
LINE
  8
LC-002-002-----0
  6
CONTINUOUS
  5
1A8
 10
293.07359
 20
96.609176
 30
0.0
 11
285.57359
 21
96.609223
 31
0.0
  0
ARC
  8
LC-007-002-RND-0
  6
CONTINUOUS
  5
1A9
 10
156.422617
 20
95.609244
 30
0.0
 40
0.7
 50
216.870027
 51
270.000358
  0
ARC
  8
LC-007-002-RND-0
  6
CONTINUOUS
  5
1AA
 10
297.216483
 20
94.409311
 30
0.0
 40
1.0
 50
225.0
 51
269.999425
  0
ARC
  8
LC-007-002-RND-0
  6
CONTINUOUS
  5
1AB
 10
304.333517
 20
92.823336
 30
0.0
 40
1.0
 50
101.228794
 51
108.020284
  0
LINE
  8
LC-010-006-MLN-0
  6
DASHDOT
  5
1AC
 10
219.323105
 20
44.505536
 30
0.0
 11
219.323105
 21
171.049
 31
0.0
  0
LINE
  8
LC-002-002-----0
  6
CONTINUOUS
  5
1AD
 10
294.302412
 20
95.909169
 30
0.0
 11
296.509376
 21
93.702204
 31
0.0
  0
LINE
  8
LC-002-002-----0
  6
CONTINUOUS
  5
1AE
 10
324.817816
 20
99.609744
 30
0.0
 11
324.038188
 21
99.609742
 31
0.0
  0
ARC
  8
LC-002-002-----0
  6
CONTINUOUS
  5
1AF
 10
277.323098
 20
94.609275
 30
0.0
 40
1.0
 50
89.998287
 51
270.000997
  0
ARC
  8
LC-002-002-----0
  6
CONTINUOUS
  5
1B0
 10
322.008846
 20
100.663162
 30
0.0
 40
3.0
 50
282.000248
 51
339.442977
  0
LINE
  8
LC-002-002-----0
  6
CONTINUOUS
  5
1B1
 10
282.783592
 20
95.189243
 30
0.0
 11
283.32359
 21
95.909237
 31
0.0
  0
LINE
  8
LC-003-005-----0
  6
CONTINUOUS
  5
1B2
 10
337.804636
 20
4.050235
 30
0.0
 11
340.202332
 21
6.447931
 31
0.0
  0
LINE
  8
LC-003-005-----0
  6
CONTINUOUS
  5
1B3
 10
335.094534
 20
4.168561
 30
0.0
 11
337.49223
 21
6.566257
 31
0.0
  0
LINE
  8
LC-002-002-----0
  6
CONTINUOUS
  5
1B4
 10
277.323096
 20
94.309275
 30
0.0
 11
278.823098
 21
94.309265
 31
0.0
  0
LINE
  8
LC-002-002-----0
  6
CONTINUOUS
  5
1B5
 10
278.823098
 20
94.309265
 30
0.0
 11
278.823098
 21
93.609265
 31
0.0
  0
ARC
  8
LC-002-002-----0
  6
CONTINUOUS
  5
1B6
 10
277.323098
 20
94.609275
 30
0.0
 40
0.3
 50
89.990988
 51
270.008296
  0
LINE
  8
LC-002-002-----0
  6
CONTINUOUS
  5
1B7
 10
156.422617
 20
95.609244
 30
0.0
 11
155.882619
 21
96.329239
 31
0.0
  0
LINE
  8
LC-003-005-----0
  6
CONTINUOUS
  5
1B8
 10
332.384433
 20
4.286886
 30
0.0
 11
334.782129
 21
6.684582
 31
0.0
  0
LINE
  8
LC-003-005-----0
  6
CONTINUOUS
  5
1B9
 10
329.674331
 20
4.405212
 30
0.0
 11
332.072027
 21
6.802908
 31
0.0
  0
LINE
  8
LC-002-002-----0
  6
CONTINUOUS
  5
1BA
 10
283.32359
 20
95.909237
 30
0.0
 11
285.57359
 21
95.909223
 31
0.0
  0
LINE
  8
LC-002-002-----0
  6
CONTINUOUS
  5
1BB
 10
285.57359
 20
95.909223
 30
0.0
 11
285.57359
 21
96.609223
 31
0.0
  0
LINE
  8
LC-002-002-----0
  6
CONTINUOUS
  5
1BC
 10
225.567875
 20
141.109275
 30
0.0
 11
224.489348
 21
166.609275
 31
0.0
  0
ARC
  8
LC-002-002-----0
  6
CONTINUOUS
  5
1BD
 10
162.323112
 20
91.609275
 30
0.0
 40
1.0
 50
90.0
 51
180.0
  0
LINE
  8
LC-002-002-----0
  6
CONTINUOUS
  5
1BE
 10
187.323105
 20
170.609275
 30
0.0
 11
187.181353
 21
170.609275
 31
0.0
  0
LINE
  8
LC-002-002-----0
  6
CONTINUOUS
  5
1BF
 10
285.57359
 20
96.609223
 30
0.0
 11
283.323595
 21
96.609237
 31
0.0
  0
LINE
  8
LC-002-002-----0
  6
CONTINUOUS
  5
1C0
 10
189.323105
 20
170.609275
 30
0.0
 11
219.323105
 21
170.609275
 31
0.0
  0
LINE
  8
LC-002-002-----0
  6
CONTINUOUS
  5
1C1
 10
223.965641
 20
132.109275
 30
0.0
 11
225.509414
 21
95.609275
 31
0.0
  0
LINE
  8
LC-002-002-----0
  6
CONTINUOUS
  5
1C2
 10
213.078336
 20
141.109275
 30
0.0
 11
214.156862
 21
166.609275
 31
0.0
  0
LINE
  8
LC-002-002-----0
  6
CONTINUOUS
  5
1C3
 10
214.680569
 20
132.109275
 30
0.0
 11
213.136796
 21
95.609275
 31
0.0
  0
LINE
  8
LC-002-002-----0
  6
CONTINUOUS
  5
1C4
 10
203.728989
 20
132.109275
 30
0.0
 11
199.202876
 21
95.609275
 31
0.0
  0
LINE
  8
LC-003-005-----0
  6
CONTINUOUS
  5
1C5
 10
326.96423
 20
4.523537
 30
0.0
 11
329.361926
 21
6.921233
 31
0.0
  0
LINE
  8
LC-002-002-----0
  6
CONTINUOUS
  5
1C6
 10
189.323105
 20
166.609275
 30
0.0
 11
219.323105
 21
166.609275
 31
0.0
  0
ARC
  8
LC-007-002-RND-0
  6
CONTINUOUS
  5
1C7
 10
186.894541
 20
157.609275
 30
0.0
 40
13.0
 50
88.110819
 51
165.0
  0
LINE
  8
LC-003-005-----0
  6
CONTINUOUS
  5
1C8
 10
324.254128
 20
4.641863
 30
0.0
 11
326.651824
 21
7.039559
 31
0.0
  0
LINE
  8
LC-002-002-----0
  6
CONTINUOUS
  5
1C9
 10
370.917994
 20
76.73721
 30
0.0
 11
370.849853
 21
75.176519
 31
0.0
  0
LINE
  8
LC-002-002-----0
  6
CONTINUOUS
  5
1CA
 10
201.88123
 20
132.109275
 30
0.0
 11
197.355117
 21
95.609275
 31
0.0
  0
LINE
  8
LC-002-002-----0
  6
CONTINUOUS
  5
1CB
 10
186.128922
 20
33.939978
 30
0.0
 11
167.323105
 21
81.609275
 31
0.0
  0
ARC
  8
LC-002-002-----0
  6
CONTINUOUS
  5
1CC
 10
218.683079
 20
46.782784
 30
0.0
 40
34.995867
 50
201.529525
 51
267.5
  0
LINE
  8
LC-002-002-----0
  6
CONTINUOUS
  5
1CD
 10
294.302412
 20
95.909169
 30
0.0
 11
293.07359
 21
95.909176
 31
0.0
  0
LINE
  8
LC-002-002-----0
  6
CONTINUOUS
  5
1CE
 10
293.07359
 20
95.909176
 30
0.0
 11
293.07359
 21
96.609176
 31
0.0
  0
LINE
  8
LC-002-002-----0
  6
CONTINUOUS
  5
1CF
 10
183.803351
 20
33.022527
 30
0.0
 11
165.819384
 21
78.608584
 31
0.0
  0
LINE
  8
LC-002-002-----0
  6
CONTINUOUS
  5
1D0
 10
193.840122
 20
132.109275
 30
0.0
 11
186.640115
 21
95.609275
 31
0.0
  0
LINE
  8
LC-002-002-----0
  6
CONTINUOUS
  5
1D1
 10
192.327431
 20
132.109275
 30
0.0
 11
185.053409
 21
95.609275
 31
0.0
  0
LINE
  8
LC-002-002-----0
  6
CONTINUOUS
  5
1D2
 10
161.323112
 20
91.609275
 30
0.0
 11
162.823112
 21
90.109275
 31
0.0
  0
ARC
  8
LC-002-002-----0
  6
CONTINUOUS
  5
1D3
 10
219.323105
 20
43.151115
 30
0.0
 40
38.458159
 50
359.710305
 51
90.0
  0
LINE
  8
LC-002-002-----0
  6
CONTINUOUS
  5
1D4
 10
164.823105
 20
85.609275
 30
0.0
 11
273.823105
 21
85.609275
 31
0.0
  0
LINE
  8
LC-002-002-----0
  6
CONTINUOUS
  5
1D5
 10
184.470355
 20
132.109275
 30
0.0
 11
175.087124
 21
95.609275
 31
0.0
  0
LINE
  8
LC-002-002-----0
  6
CONTINUOUS
  5
1D6
 10
275.823105
 20
92.609275
 30
0.0
 11
275.823105
 21
95.609273
 31
0.0
  0
LINE
  8
LC-002-002-----0
  6
CONTINUOUS
  5
1D7
 10
162.823105
 20
95.609273
 30
0.0
 11
156.823105
 21
95.60929
 31
0.0
  0
LINE
  8
LC-002-002-----0
  6
CONTINUOUS
  5
1D8
 10
185.687878
 20
132.109275
 30
0.0
 11
176.304647
 21
95.609275
 31
0.0
  0
LINE
  8
LC-002-002-----0
  6
CONTINUOUS
  5
1D9
 10
179.827819
 20
132.109275
 30
0.0
 11
168.900815
 21
95.609275
 31
0.0
  0
LINE
  8
LC-002-002-----0
  6
CONTINUOUS
  5
1DA
 10
258.818391
 20
132.109275
 30
0.0
 11
269.745395
 21
95.609275
 31
0.0
  0
LINE
  8
LC-002-002-----0
  6
CONTINUOUS
  5
1DB
 10
224.323105
 20
170.609275
 30
0.0
 11
224.323105
 21
166.609275
 31
0.0
  0
ARC
  8
LC-002-002-----0
  6
CONTINUOUS
  5
1DC
 10
218.683079
 20
46.782784
 30
0.0
 40
37.495867
 50
201.529525
 51
267.5
  0
LINE
  8
LC-002-002-----0
  6
CONTINUOUS
  5
1DD
 10
367.796496
 20
5.243144
 30
0.0
 11
217.15658
 21
11.820225
 31
0.0
  0
LINE
  8
LC-002-002-----0
  6
CONTINUOUS
  5
1DE
 10
174.337506
 20
160.973922
 30
0.0
 11
156.823105
 21
95.60929
 31
0.0
  0
LINE
  8
LC-002-002-----0
  6
CONTINUOUS
  5
1DF
 10
251.323105
 20
170.609275
 30
0.0
 11
251.464858
 21
170.609275
 31
0.0
  0
LINE
  8
LC-002-002-----0
  6
CONTINUOUS
  5
1E0
 10
367.796496
 20
5.243144
 30
0.0
 11
367.728355
 21
3.682453
 31
0.0
  0
LINE
  8
LC-002-002-----0
  6
CONTINUOUS
  5
1E1
 10
249.323105
 20
170.609275
 30
0.0
 11
249.323105
 21
166.609275
 31
0.0
  0
LINE
  8
LC-002-002-----0
  6
CONTINUOUS
  5
1E2
 10
251.323105
 20
170.609275
 30
0.0
 11
249.323105
 21
170.609275
 31
0.0
  0
LINE
  8
LC-003-005-----0
  6
CONTINUOUS
  5
1E3
 10
321.544027
 20
4.760189
 30
0.0
 11
323.941723
 21
7.157885
 31
0.0
  0
LINE
  8
LC-002-002-----0
  6
CONTINUOUS
  5
1E4
 10
251.323105
 20
166.549571
 30
0.0
 11
251.323105
 21
170.609275
 31
0.0
  0
LINE
  8
LC-002-002-----0
  6
CONTINUOUS
  5
1E5
 10
283.323062
 20
93.609275
 30
0.0
 11
283.323062
 21
92.109275
 31
0.0
  0
LINE
  8
LC-002-002-----0
  6
CONTINUOUS
  5
1E6
 10
295.323062
 20
92.109275
 30
0.0
 11
295.323062
 21
88.609275
 31
0.0
  0
LINE
  8
LC-002-002-----0
  6
CONTINUOUS
  5
1E7
 10
283.323062
 20
92.109275
 30
0.0
 11
295.323062
 21
92.109275
 31
0.0
  0
LINE
  8
LC-002-002-----0
  6
CONTINUOUS
  5
1E8
 10
295.323584
 20
88.609275
 30
0.0
 11
302.323584
 21
88.609275
 31
0.0
  0
LINE
  8
LC-002-002-----0
  6
CONTINUOUS
  5
1E9
 10
302.323584
 20
88.609275
 30
0.0
 11
302.323584
 21
92.109275
 31
0.0
  0
LINE
  8
LC-002-002-----0
  6
CONTINUOUS
  5
1EA
 10
282.323174
 20
86.109275
 30
0.0
 11
302.323584
 21
86.109275
 31
0.0
  0
LINE
  8
LC-002-002-----0
  6
CONTINUOUS
  5
1EB
 10
302.323584
 20
86.109275
 30
0.0
 11
304.772211
 21
88.557902
 31
0.0
  0
LINE
  8
LC-002-002-----0
  6
CONTINUOUS
  5
1EC
 10
187.323105
 20
166.609275
 30
0.0
 11
187.323105
 21
170.609275
 31
0.0
  0
LINE
  8
LC-002-002-----0
  6
CONTINUOUS
  5
1ED
 10
283.323062
 20
93.609275
 30
0.0
 11
279.323174
 21
93.609275
 31
0.0
  0
LINE
  8
LC-002-002-----0
  6
CONTINUOUS
  5
1EE
 10
187.323105
 20
170.609275
 30
0.0
 11
189.323105
 21
170.609275
 31
0.0
  0
LINE
  8
LC-002-002-----0
  6
CONTINUOUS
  5
1EF
 10
189.323105
 20
170.609275
 30
0.0
 11
189.323105
 21
166.609275
 31
0.0
  0
LINE
  8
LC-003-005-----0
  6
CONTINUOUS
  5
1F0
 10
318.833925
 20
4.878514
 30
0.0
 11
321.231621
 21
7.27621
 31
0.0
  0
LINE
  8
LC-002-002-----0
  6
CONTINUOUS
  5
1F1
 10
214.323105
 20
170.609275
 30
0.0
 11
214.323105
 21
166.609275
 31
0.0
  0
LINE
  8
LC-002-002-----0
  6
CONTINUOUS
  5
1F2
 10
208.007096
 20
166.609275
 30
0.0
 11
204.845017
 21
141.109275
 31
0.0
  0
LINE
  8
LC-002-002-----0
  6
CONTINUOUS
  5
1F3
 10
206.159337
 20
166.609275
 30
0.0
 11
202.997258
 21
141.109275
 31
0.0
  0
LINE
  8
LC-003-005-----0
  6
CONTINUOUS
  5
1F4
 10
316.123823
 20
4.99684
 30
0.0
 11
318.521519
 21
7.394536
 31
0.0
  0
LINE
  8
LC-002-002-----0
  6
CONTINUOUS
  5
1F5
 10
211.153907
 20
95.609275
 30
0.0
 11
212.69768
 21
132.109275
 31
0.0
  0
LINE
  8
LC-003-005-----0
  6
CONTINUOUS
  5
1F6
 10
313.413722
 20
5.115165
 30
0.0
 11
315.811418
 21
7.512861
 31
0.0
  0
LINE
  8
LC-003-005-----0
  6
CONTINUOUS
  5
1F7
 10
310.70362
 20
5.233491
 30
0.0
 11
313.101316
 21
7.631187
 31
0.0
  0
LINE
  8
LC-002-002-----0
  6
CONTINUOUS
  5
1F8
 10
216.139752
 20
166.609275
 30
0.0
 11
215.061226
 21
141.109275
 31
0.0
  0
LINE
  8
LC-002-002-----0
  6
CONTINUOUS
  5
1F9
 10
302.323584
 20
92.109275
 30
0.0
 11
304.323062
 21
92.109275
 31
0.0
  0
LINE
  8
LC-002-002-----0
  6
CONTINUOUS
  5
1FA
 10
279.323174
 20
93.609275
 30
0.0
 11
279.323174
 21
81.609275
 31
0.0
  0
LINE
  8
LC-003-005-----0
  6
CONTINUOUS
  5
1FB
 10
307.993519
 20
5.351816
 30
0.0
 11
310.391215
 21
7.749513
 31
0.0
  0
ARC
  8
LC-007-002-RND-0
  6
CONTINUOUS
  5
1FC
 10
106.323062
 20
96.565617
 30
0.0
 40
2.0
 50
88.101636
 51
180.0
  0
LINE
  8
LC-002-002-----0
  6
CONTINUOUS
  5
1FD
 10
200.645607
 20
166.609275
 30
0.0
 11
195.615466
 21
141.109275
 31
0.0
  0
LINE
  8
LC-003-005-----0
  6
CONTINUOUS
  5
1FE
 10
305.283417
 20
5.470142
 30
0.0
 11
307.681113
 21
7.867838
 31
0.0
  0
LINE
  8
LC-002-002-----0
  6
CONTINUOUS
  5
1FF
 10
199.202876
 20
166.609275
 30
0.0
 11
194.121025
 21
141.109275
 31
0.0
  0
LINE
  8
LC-003-005-----0
  6
CONTINUOUS
  5
200
 10
302.573316
 20
5.588468
 30
0.0
 11
304.971012
 21
7.986164
 31
0.0
  0
LINE
  8
LC-003-005-----0
  6
CONTINUOUS
  5
201
 10
299.863214
 20
5.706793
 30
0.0
 11
302.26091
 21
8.104489
 31
0.0
  0
LINE
  8
LC-003-005-----0
  6
CONTINUOUS
  5
202
 10
297.153113
 20
5.825119
 30
0.0
 11
299.550809
 21
8.222815
 31
0.0
  0
LINE
  8
LC-003-005-----0
  6
CONTINUOUS
  5
203
 10
294.443011
 20
5.943444
 30
0.0
 11
296.840707
 21
8.34114
 31
0.0
  0
LINE
  8
LC-003-005-----0
  6
CONTINUOUS
  5
204
 10
291.73291
 20
6.06177
 30
0.0
 11
294.130606
 21
8.459466
 31
0.0
  0
LINE
  8
LC-003-005-----0
  6
CONTINUOUS
  5
205
 10
289.022808
 20
6.180096
 30
0.0
 11
291.420504
 21
8.577792
 31
0.0
  0
LINE
  8
LC-003-005-----0
  6
CONTINUOUS
  5
206
 10
286.312707
 20
6.298421
 30
0.0
 11
288.710403
 21
8.696117
 31
0.0
  0
LINE
  8
LC-002-002-----0
  6
CONTINUOUS
  5
207
 10
194.556959
 20
166.609275
 30
0.0
 11
188.001551
 21
141.109275
 31
0.0
  0
LINE
  8
LC-002-002-----0
  6
CONTINUOUS
  5
208
 10
146.32384
 20
92.109275
 30
0.0
 11
144.034387
 21
92.109275
 31
0.0
  0
LINE
  8
LC-002-002-----0
  6
CONTINUOUS
  5
209
 10
193.339436
 20
166.609275
 30
0.0
 11
186.784028
 21
141.109275
 31
0.0
  0
LINE
  8
LC-003-005-----0
  6
CONTINUOUS
  5
20A
 10
283.602605
 20
6.416747
 30
0.0
 11
286.000301
 21
8.814443
 31
0.0
  0
LINE
  8
LC-002-002-----0
  6
CONTINUOUS
  5
20B
 10
190.156083
 20
166.609275
 30
0.0
 11
182.522149
 21
141.109275
 31
0.0
  0
LINE
  8
LC-002-002-----0
  6
CONTINUOUS
  5
20C
 10
137.822801
 20
92.859275
 30
0.0
 11
136.822801
 21
91.859275
 31
0.0
  0
LINE
  8
LC-002-002-----0
  6
CONTINUOUS
  5
20D
 10
137.822801
 20
88.859275
 30
0.0
 11
136.822801
 21
89.859275
 31
0.0
  0
LINE
  8
LC-003-005-----0
  6
CONTINUOUS
  5
20E
 10
280.892503
 20
6.535072
 30
0.0
 11
283.2902
 21
8.932768
 31
0.0
  0
LINE
  8
LC-002-002-----0
  6
CONTINUOUS
  5
20F
 10
142.822801
 20
91.859275
 30
0.0
 11
141.822801
 21
92.859275
 31
0.0
  0
LINE
  8
LC-003-005-----0
  6
CONTINUOUS
  5
210
 10
278.182402
 20
6.653398
 30
0.0
 11
280.580098
 21
9.051094
 31
0.0
  0
LINE
  8
LC-002-002-----0
  6
CONTINUOUS
  5
211
 10
155.323062
 20
93.609275
 30
0.0
 11
155.323062
 21
92.109275
 31
0.0
  0
LINE
  8
LC-002-002-----0
  6
CONTINUOUS
  5
212
 10
143.323062
 20
92.109275
 30
0.0
 11
143.323062
 21
88.609275
 31
0.0
  0
LINE
  8
LC-002-002-----0
  6
CONTINUOUS
  5
213
 10
136.822801
 20
89.859275
 30
0.0
 11
136.822801
 21
91.859275
 31
0.0
  0
LINE
  8
LC-002-002-----0
  6
CONTINUOUS
  5
214
 10
141.822801
 20
88.859275
 30
0.0
 11
141.467139
 21
88.859275
 31
0.0
  0
LINE
  8
LC-002-002-----0
  6
CONTINUOUS
  5
215
 10
142.822801
 20
91.859275
 30
0.0
 11
142.822801
 21
89.859275
 31
0.0
  0
LINE
  8
LC-002-002-----0
  6
CONTINUOUS
  5
216
 10
155.323062
 20
92.109275
 30
0.0
 11
154.034387
 21
92.109275
 31
0.0
  0
LINE
  8
LC-002-002-----0
  6
CONTINUOUS
  5
217
 10
142.822801
 20
89.859275
 30
0.0
 11
141.822801
 21
88.859275
 31
0.0
  0
LINE
  8
LC-002-002-----0
  6
CONTINUOUS
  5
218
 10
143.323852
 20
98.108535
 30
0.0
 11
155.322592
 21
98.108503
 31
0.0
  0
LINE
  8
LC-002-002-----0
  6
CONTINUOUS
  5
219
 10
271.323062
 20
81.609275
 30
0.0
 11
279.323174
 21
81.609275
 31
0.0
  0
LINE
  8
LC-002-002-----0
  6
CONTINUOUS
  5
21A
 10
271.323062
 20
81.609275
 30
0.0
 11
279.323174
 21
81.609275
 31
0.0
  0
LINE
  8
LC-002-002-----0
  6
CONTINUOUS
  5
21B
 10
271.323062
 20
79.609275
 30
0.0
 11
271.323062
 21
81.609275
 31
0.0
  0
LINE
  8
LC-002-002-----0
  6
CONTINUOUS
  5
21C
 10
143.32254
 20
88.609275
 30
0.0
 11
136.32254
 21
88.609275
 31
0.0
  0
LINE
  8
LC-002-002-----0
  6
CONTINUOUS
  5
21D
 10
136.32254
 20
88.609275
 30
0.0
 11
136.32254
 21
92.109275
 31
0.0
  0
LINE
  8
LC-002-002-----0
  6
CONTINUOUS
  5
21E
 10
143.32254
 20
86.109275
 30
0.0
 11
136.32254
 21
86.109275
 31
0.0
  0
LINE
  8
LC-002-002-----0
  6
CONTINUOUS
  5
21F
 10
138.322801
 20
93.109275
 30
0.0
 11
138.467139
 21
92.859275
 31
0.0
  0
LINE
  8
LC-002-002-----0
  6
CONTINUOUS
  5
220
 10
138.178464
 20
92.859275
 30
0.0
 11
138.322801
 21
93.109275
 31
0.0
  0
LINE
  8
LC-002-002-----0
  6
CONTINUOUS
  5
221
 10
139.678464
 20
92.859275
 30
0.0
 11
139.822801
 21
93.109275
 31
0.0
  0
LINE
  8
LC-002-002-----0
  6
CONTINUOUS
  5
222
 10
141.178464
 20
92.859275
 30
0.0
 11
141.322801
 21
93.109275
 31
0.0
  0
LINE
  8
LC-002-002-----0
  6
CONTINUOUS
  5
223
 10
141.322801
 20
88.609275
 30
0.0
 11
141.467139
 21
88.859275
 31
0.0
  0
LINE
  8
LC-002-002-----0
  6
CONTINUOUS
  5
224
 10
139.822801
 20
88.609275
 30
0.0
 11
139.967139
 21
88.859275
 31
0.0
  0
LINE
  8
LC-002-002-----0
  6
CONTINUOUS
  5
225
 10
138.322801
 20
88.609275
 30
0.0
 11
138.467139
 21
88.859275
 31
0.0
  0
LINE
  8
LC-002-002-----0
  6
CONTINUOUS
  5
226
 10
139.822801
 20
93.109275
 30
0.0
 11
139.967139
 21
92.859275
 31
0.0
  0
LINE
  8
LC-002-002-----0
  6
CONTINUOUS
  5
227
 10
141.322801
 20
93.109275
 30
0.0
 11
141.467139
 21
92.859275
 31
0.0
  0
LINE
  8
LC-002-002-----0
  6
CONTINUOUS
  5
228
 10
141.178464
 20
88.859275
 30
0.0
 11
141.322801
 21
88.609275
 31
0.0
  0
LINE
  8
LC-008-004-----0
  6
CONTINUOUS
  5
229
 10
143.323852
 20
96.608535
 30
0.0
 11
149.323852
 21
96.608519
 31
0.0
  0
LINE
  8
LC-008-004-----0
  6
CONTINUOUS
  5
22A
 10
146.323852
 20
96.608527
 30
0.0
 11
146.323819
 21
84.608527
 31
0.0
  0
LINE
  8
LC-002-002-----0
  6
CONTINUOUS
  5
22B
 10
156.422622
 20
94.909244
 30
0.0
 11
161.32311
 21
94.909275
 31
0.0
  0
LINE
  8
LC-002-002-----0
  6
CONTINUOUS
  5
22C
 10
153.07262
 20
95.909223
 30
0.0
 11
152.322591
 21
95.909219
 31
0.0
  0
LINE
  8
LC-002-002-----0
  6
CONTINUOUS
  5
22D
 10
293.07359
 20
96.609176
 30
0.0
 11
295.322359
 21
96.609162
 31
0.0
  0
LINE
  8
LC-002-002-----0
  6
CONTINUOUS
  5
22E
 10
139.678464
 20
88.859275
 30
0.0
 11
139.822801
 21
88.609275
 31
0.0
  0
LINE
  8
LC-002-002-----0
  6
CONTINUOUS
  5
22F
 10
302.173011
 20
94.1093
 30
0.0
 11
322.484239
 21
98.426664
 31
0.0
  0
ARC
  8
LC-002-002-----0
  6
CONTINUOUS
  5
230
 10
322.008846
 20
100.663162
 30
0.0
 40
2.286465
 50
282.000248
 51
332.56643
  0
LINE
  8
LC-002-002-----0
  6
CONTINUOUS
  5
231
 10
136.32254
 20
86.109275
 30
0.0
 11
133.873913
 21
88.557902
 31
0.0
  0
LINE
  8
LC-002-002-----0
  6
CONTINUOUS
  5
232
 10
136.399626
 20
93.4093
 30
0.0
 11
141.429738
 21
93.409311
 31
0.0
  0
LINE
  8
LC-002-002-----0
  6
CONTINUOUS
  5
233
 10
136.399626
 20
93.4093
 30
0.0
 11
116.007922
 21
97.743783
 31
0.0
  0
LINE
  8
LC-002-002-----0
  6
CONTINUOUS
  5
234
 10
145.57262
 20
96.609176
 30
0.0
 11
153.07262
 21
96.609223
 31
0.0
  0
ARC
  8
LC-007-002-RND-0
  6
CONTINUOUS
  5
235
 10
141.429727
 20
94.409311
 30
0.0
 40
1.0
 50
270.000575
 51
315.0
  0
ARC
  8
LC-007-002-RND-0
  6
CONTINUOUS
  5
236
 10
134.312694
 20
92.823336
 30
0.0
 40
1.0
 50
71.979716
 51
78.771206
  0
LINE
  8
LC-002-002-----0
  6
CONTINUOUS
  5
237
 10
144.343798
 20
95.909169
 30
0.0
 11
142.136834
 21
93.702204
 31
0.0
  0
LINE
  8
LC-002-002-----0
  6
CONTINUOUS
  5
238
 10
113.828395
 20
99.609744
 30
0.0
 11
114.608022
 21
99.609742
 31
0.0
  0
ARC
  8
LC-002-002-----0
  6
CONTINUOUS
  5
239
 10
161.323112
 20
94.609275
 30
0.0
 40
1.0
 50
269.999003
 51
90.001713
  0
ARC
  8
LC-002-002-----0
  6
CONTINUOUS
  5
23A
 10
116.637364
 20
100.663162
 30
0.0
 40
3.0
 50
200.557023
 51
257.999752
  0
LINE
  8
LC-002-002-----0
  6
CONTINUOUS
  5
23B
 10
294.797387
 20
96.404143
 30
0.0
 11
297.004351
 21
94.197179
 31
0.0
  0
ARC
  8
LC-002-002-----0
  6
CONTINUOUS
  5
23C
 10
297.216483
 20
94.409311
 30
0.0
 40
0.3
 50
225.0
 51
269.999874
  0
LINE
  8
LC-002-002-----0
  6
CONTINUOUS
  5
23D
 10
297.216482
 20
94.109311
 30
0.0
 11
302.173011
 21
94.1093
 31
0.0
  0
LINE
  8
LC-002-002-----0
  6
CONTINUOUS
  5
23E
 10
155.862618
 20
95.189243
 30
0.0
 11
155.32262
 21
95.909237
 31
0.0
  0
LINE
  8
LC-002-002-----0
  6
CONTINUOUS
  5
23F
 10
161.323114
 20
94.309275
 30
0.0
 11
159.823112
 21
94.309265
 31
0.0
  0
LINE
  8
LC-002-002-----0
  6
CONTINUOUS
  5
240
 10
159.823112
 20
94.309265
 30
0.0
 11
159.823112
 21
93.609265
 31
0.0
  0
ARC
  8
LC-002-002-----0
  6
CONTINUOUS
  5
241
 10
161.323112
 20
94.609275
 30
0.0
 40
0.3
 50
269.991704
 51
90.009012
  0
LINE
  8
LC-002-002-----0
  6
CONTINUOUS
  5
242
 10
155.32262
 20
95.909237
 30
0.0
 11
153.07262
 21
95.909223
 31
0.0
  0
LINE
  8
LC-002-002-----0
  6
CONTINUOUS
  5
243
 10
138.178464
 20
88.859275
 30
0.0
 11
138.322801
 21
88.609275
 31
0.0
  0
LINE
  8
LC-002-002-----0
  6
CONTINUOUS
  5
244
 10
138.178464
 20
88.859275
 30
0.0
 11
137.822801
 21
88.859275
 31
0.0
  0
LINE
  8
LC-002-002-----0
  6
CONTINUOUS
  5
245
 10
153.07262
 20
95.909223
 30
0.0
 11
153.07262
 21
96.609223
 31
0.0
  0
LINE
  8
LC-002-002-----0
  6
CONTINUOUS
  5
246
 10
139.678464
 20
88.859275
 30
0.0
 11
138.467139
 21
88.859275
 31
0.0
  0
LINE
  8
LC-002-002-----0
  6
CONTINUOUS
  5
247
 10
153.07262
 20
96.609223
 30
0.0
 11
155.322616
 21
96.609237
 31
0.0
  0
LINE
  8
LC-002-002-----0
  6
CONTINUOUS
  5
248
 10
277.323105
 20
95.609275
 30
0.0
 11
282.223593
 21
95.609244
 31
0.0
  0
LINE
  8
LC-002-002-----0
  6
CONTINUOUS
  5
249
 10
144.343798
 20
95.909169
 30
0.0
 11
145.57262
 21
95.909176
 31
0.0
  0
LINE
  8
LC-002-002-----0
  6
CONTINUOUS
  5
24A
 10
145.57262
 20
95.909176
 30
0.0
 11
145.57262
 21
96.609176
 31
0.0
  0
LINE
  8
LC-002-002-----0
  6
CONTINUOUS
  5
24B
 10
145.57262
 20
96.609176
 30
0.0
 11
144.343794
 21
96.609169
 31
0.0
  0
LINE
  8
LC-002-002-----0
  6
CONTINUOUS
  5
24C
 10
136.4732
 20
94.1093
 30
0.0
 11
116.161972
 21
98.426664
 31
0.0
  0
ARC
  8
LC-002-002-----0
  6
CONTINUOUS
  5
24D
 10
116.637364
 20
100.663162
 30
0.0
 40
2.286465
 50
207.43357
 51
257.999752
  0
LINE
  8
LC-002-002-----0
  6
CONTINUOUS
  5
24E
 10
143.848824
 20
96.404143
 30
0.0
 11
141.64186
 21
94.197179
 31
0.0
  0
ARC
  8
LC-002-002-----0
  6
CONTINUOUS
  5
24F
 10
141.429727
 20
94.409311
 30
0.0
 40
0.3
 50
270.000126
 51
315.0
  0
LINE
  8
LC-002-002-----0
  6
CONTINUOUS
  5
250
 10
141.429728
 20
94.109311
 30
0.0
 11
136.4732
 21
94.1093
 31
0.0
  0
LINE
  8
LC-002-002-----0
  6
CONTINUOUS
  5
251
 10
161.323106
 20
95.609275
 30
0.0
 11
156.422617
 21
95.609244
 31
0.0
  0
LINE
  8
LC-002-002-----0
  6
CONTINUOUS
  5
252
 10
141.178464
 20
88.859275
 30
0.0
 11
139.967139
 21
88.859275
 31
0.0
  0
LINE
  8
LC-002-002-----0
  6
CONTINUOUS
  5
253
 10
141.178464
 20
92.859275
 30
0.0
 11
139.967139
 21
92.859275
 31
0.0
  0
LINE
  8
LC-002-002-----0
  6
CONTINUOUS
  5
254
 10
139.678464
 20
92.859275
 30
0.0
 11
138.467139
 21
92.859275
 31
0.0
  0
LINE
  8
LC-002-002-----0
  6
CONTINUOUS
  5
255
 10
138.178464
 20
92.859275
 30
0.0
 11
137.822801
 21
92.859275
 31
0.0
  0
LINE
  8
LC-008-004-----0
  6
CONTINUOUS
  5
256
 10
146.323819
 20
84.608527
 30
0.0
 11
149.323806
 21
79.608519
 31
0.0
  0
LINE
  8
LC-002-002-----0
  6
CONTINUOUS
  5
257
 10
141.822801
 20
92.859275
 30
0.0
 11
141.467139
 21
92.859275
 31
0.0
  0
LINE
  8
LC-002-002-----0
  6
CONTINUOUS
  5
258
 10
300.823409
 20
92.859275
 30
0.0
 11
301.823409
 21
91.859275
 31
0.0
  0
LINE
  8
LC-002-002-----0
  6
CONTINUOUS
  5
259
 10
300.823409
 20
88.859275
 30
0.0
 11
301.823409
 21
89.859275
 31
0.0
  0
LINE
  8
LC-002-002-----0
  6
CONTINUOUS
  5
25A
 10
295.823409
 20
91.859275
 30
0.0
 11
296.823409
 21
92.859275
 31
0.0
  0
LINE
  8
LC-002-002-----0
  6
CONTINUOUS
  5
25B
 10
301.823409
 20
89.859275
 30
0.0
 11
301.823409
 21
91.859275
 31
0.0
  0
LINE
  8
LC-002-002-----0
  6
CONTINUOUS
  5
25C
 10
296.823409
 20
88.859275
 30
0.0
 11
297.179072
 21
88.859275
 31
0.0
  0
LINE
  8
LC-002-002-----0
  6
CONTINUOUS
  5
25D
 10
295.823409
 20
91.859275
 30
0.0
 11
295.823409
 21
89.859275
 31
0.0
  0
LINE
  8
LC-002-002-----0
  6
CONTINUOUS
  5
25E
 10
295.823409
 20
89.859275
 30
0.0
 11
296.823409
 21
88.859275
 31
0.0
  0
LINE
  8
LC-002-002-----0
  6
CONTINUOUS
  5
25F
 10
168.135448
 20
95.609275
 30
0.0
 11
179.062452
 21
132.109275
 31
0.0
  0
LINE
  8
LC-002-002-----0
  6
CONTINUOUS
  5
260
 10
254.175855
 20
132.109275
 30
0.0
 11
263.559086
 21
95.609275
 31
0.0
  0
LINE
  8
LC-002-002-----0
  6
CONTINUOUS
  5
261
 10
273.823105
 20
95.609275
 30
0.0
 11
219.323105
 21
95.609275
 31
0.0
  0
LINE
  8
LC-002-002-----0
  6
CONTINUOUS
  5
262
 10
271.142209
 20
95.609275
 30
0.0
 11
260.94494
 21
132.109275
 31
0.0
  0
LINE
  8
LC-002-002-----0
  6
CONTINUOUS
  5
263
 10
252.958333
 20
132.109275
 30
0.0
 11
262.341563
 21
95.609275
 31
0.0
  0
LINE
  8
LC-002-002-----0
  6
CONTINUOUS
  5
264
 10
246.31878
 20
132.109275
 30
0.0
 11
253.592802
 21
95.609275
 31
0.0
  0
LINE
  8
LC-002-002-----0
  6
CONTINUOUS
  5
265
 10
244.806089
 20
132.109275
 30
0.0
 11
252.006095
 21
95.609275
 31
0.0
  0
LINE
  8
LC-002-002-----0
  6
CONTINUOUS
  5
266
 10
164.823105
 20
90.109275
 30
0.0
 11
164.823105
 21
85.609275
 31
0.0
  0
LINE
  8
LC-002-002-----0
  6
CONTINUOUS
  5
267
 10
251.751669
 20
170.609275
 30
0.0
 11
219.323105
 21
170.609275
 31
0.0
  0
LINE
  8
LC-002-002-----0
  6
CONTINUOUS
  5
268
 10
236.764981
 20
132.109275
 30
0.0
 11
241.291094
 21
95.609275
 31
0.0
  0
LINE
  8
LC-002-002-----0
  6
CONTINUOUS
  5
269
 10
234.917222
 20
132.109275
 30
0.0
 11
239.443335
 21
95.609275
 31
0.0
  0
LINE
  8
LC-002-002-----0
  6
CONTINUOUS
  5
26A
 10
273.823105
 20
90.109275
 30
0.0
 11
273.823105
 21
95.609275
 31
0.0
  0
LINE
  8
LC-002-002-----0
  6
CONTINUOUS
  5
26B
 10
251.306425
 20
166.609275
 30
0.0
 11
219.323105
 21
166.609275
 31
0.0
  0
ARC
  8
LC-007-002-RND-0
  6
CONTINUOUS
  5
26C
 10
251.751669
 20
157.609275
 30
0.0
 40
13.0
 50
15.0
 51
90.0
  0
LINE
  8
LC-002-002-----0
  6
CONTINUOUS
  5
26D
 10
277.323098
 20
91.609275
 30
0.0
 11
275.823098
 21
90.109275
 31
0.0
  0
LINE
  8
LC-002-002-----0
  6
CONTINUOUS
  5
26E
 10
276.323098
 20
92.609275
 30
0.0
 11
275.823105
 21
92.609275
 31
0.0
  0
LINE
  8
LC-002-002-----0
  6
CONTINUOUS
  5
26F
 10
162.823105
 20
85.609275
 30
0.0
 11
164.823105
 21
85.609275
 31
0.0
  0
LINE
  8
LC-002-002-----0
  6
CONTINUOUS
  5
270
 10
275.823105
 20
95.609273
 30
0.0
 11
273.823105
 21
95.609275
 31
0.0
  0
LINE
  8
LC-002-002-----0
  6
CONTINUOUS
  5
271
 10
275.823105
 20
95.609273
 30
0.0
 11
281.823105
 21
95.60929
 31
0.0
  0
LINE
  8
LC-002-002-----0
  6
CONTINUOUS
  5
272
 10
270.510762
 20
95.609275
 30
0.0
 11
259.583758
 21
132.109275
 31
0.0
  0
LINE
  8
LC-002-002-----0
  6
CONTINUOUS
  5
273
 10
248.490128
 20
166.609275
 30
0.0
 11
256.124062
 21
141.109275
 31
0.0
  0
LINE
  8
LC-002-002-----0
  6
CONTINUOUS
  5
274
 10
245.306774
 20
166.609275
 30
0.0
 11
251.862182
 21
141.109275
 31
0.0
  0
LINE
  8
LC-002-002-----0
  6
CONTINUOUS
  5
275
 10
244.089251
 20
166.609275
 30
0.0
 11
250.644659
 21
141.109275
 31
0.0
  0
LINE
  8
LC-002-002-----0
  6
CONTINUOUS
  5
276
 10
239.443335
 20
166.609275
 30
0.0
 11
244.525185
 21
141.109275
 31
0.0
  0
LINE
  8
LC-002-002-----0
  6
CONTINUOUS
  5
277
 10
238.000603
 20
166.609275
 30
0.0
 11
243.030745
 21
141.109275
 31
0.0
  0
LINE
  8
LC-002-002-----0
  6
CONTINUOUS
  5
278
 10
222.506459
 20
166.609275
 30
0.0
 11
223.584985
 21
141.109275
 31
0.0
  0
LINE
  8
LC-002-002-----0
  6
CONTINUOUS
  5
279
 10
227.492304
 20
95.609275
 30
0.0
 11
225.948531
 21
132.109275
 31
0.0
  0
LINE
  8
LC-002-002-----0
  6
CONTINUOUS
  5
27A
 10
232.486874
 20
166.609275
 30
0.0
 11
235.648953
 21
141.109275
 31
0.0
  0
LINE
  8
LC-002-002-----0
  6
CONTINUOUS
  5
27B
 10
230.639115
 20
166.609275
 30
0.0
 11
233.801194
 21
141.109275
 31
0.0
  0
LINE
  8
LC-002-002-----0
  6
CONTINUOUS
  5
27C
 10
258.430545
 20
141.109275
 30
0.0
 11
258.430545
 21
134.109275
 31
0.0
  0
LINE
  8
LC-002-002-----0
  6
CONTINUOUS
  5
27D
 10
260.430545
 20
132.109275
 30
0.0
 11
260.94494
 21
132.109275
 31
0.0
  0
LINE
  8
LC-008-004-----0
  6
CONTINUOUS
 62
     2
  5
27E
 10
146.323848
 20
95.108527
 30
0.0
 11
147.323848
 21
95.108524
 31
0.0
  0
LINE
  8
LC-002-002-----0
  6
CONTINUOUS
  5
27F
 10
300.323409
 20
93.109275
 30
0.0
 11
300.179072
 21
92.859275
 31
0.0
  0
LINE
  8
LC-002-002-----0
  6
CONTINUOUS
  5
280
 10
158.32295
 20
93.609275
 30
0.0
 11
159.32295
 21
93.609275
 31
0.0
  0
LINE
  8
LC-008-004-----0
  6
CONTINUOUS
 62
     2
  5
281
 10
147.323848
 20
95.108524
 30
0.0
 11
147.323815
 21
83.108524
 31
0.0
  0
LINE
  8
LC-003-005-----0
  6
CONTINUOUS
  5
282
 10
275.4723
 20
6.771724
 30
0.0
 11
277.869996
 21
9.16942
 31
0.0
  0
LINE
  8
LC-003-005-----0
  6
CONTINUOUS
  5
283
 10
272.762199
 20
6.890049
 30
0.0
 11
275.159895
 21
9.287745
 31
0.0
  0
LINE
  8
LC-003-005-----0
  6
CONTINUOUS
  5
284
 10
270.052097
 20
7.008375
 30
0.0
 11
272.449793
 21
9.406071
 31
0.0
  0
LINE
  8
LC-002-002-----0
  6
CONTINUOUS
  5
285
 10
300.467747
 20
92.859275
 30
0.0
 11
300.323409
 21
93.109275
 31
0.0
  0
LINE
  8
LC-003-005-----0
  6
CONTINUOUS
  5
286
 10
267.341996
 20
7.1267
 30
0.0
 11
269.739692
 21
9.524396
 31
0.0
  0
LINE
  8
LC-002-002-----0
  6
CONTINUOUS
  5
287
 10
298.967747
 20
92.859275
 30
0.0
 11
298.823409
 21
93.109275
 31
0.0
  0
LINE
  8
LC-002-002-----0
  6
CONTINUOUS
  5
288
 10
297.467747
 20
92.859275
 30
0.0
 11
297.323409
 21
93.109275
 31
0.0
  0
LINE
  8
LC-003-005-----0
  6
CONTINUOUS
  5
289
 10
264.631894
 20
7.245026
 30
0.0
 11
267.02959
 21
9.642722
 31
0.0
  0
LINE
  8
LC-002-002-----0
  6
CONTINUOUS
  5
28A
 10
297.323409
 20
88.609275
 30
0.0
 11
297.179072
 21
88.859275
 31
0.0
  0
LINE
  8
LC-002-002-----0
  6
CONTINUOUS
  5
28B
 10
298.823409
 20
88.609275
 30
0.0
 11
298.679072
 21
88.859275
 31
0.0
  0
LINE
  8
LC-002-002-----0
  6
CONTINUOUS
  5
28C
 10
300.323409
 20
88.609275
 30
0.0
 11
300.179072
 21
88.859275
 31
0.0
  0
LINE
  8
LC-002-002-----0
  6
CONTINUOUS
  5
28D
 10
144.034387
 20
92.109275
 30
0.0
 11
143.323062
 21
92.109275
 31
0.0
  0
LINE
  8
LC-002-002-----0
  6
CONTINUOUS
  5
28E
 10
298.823409
 20
93.109275
 30
0.0
 11
298.679072
 21
92.859275
 31
0.0
  0
LINE
  8
LC-002-002-----0
  6
CONTINUOUS
  5
28F
 10
297.323409
 20
93.109275
 30
0.0
 11
297.179072
 21
92.859275
 31
0.0
  0
LINE
  8
LC-002-002-----0
  6
CONTINUOUS
  5
290
 10
297.467747
 20
88.859275
 30
0.0
 11
297.323409
 21
88.609275
 31
0.0
  0
LINE
  8
LC-002-002-----0
  6
CONTINUOUS
  5
291
 10
298.967747
 20
88.859275
 30
0.0
 11
298.823409
 21
88.609275
 31
0.0
  0
LINE
  8
LC-003-005-----0
  6
CONTINUOUS
  5
292
 10
261.921793
 20
7.363351
 30
0.0
 11
264.319489
 21
9.761048
 31
0.0
  0
LINE
  8
LC-003-005-----0
  6
CONTINUOUS
  5
293
 10
259.211691
 20
7.481677
 30
0.0
 11
261.609387
 21
9.879373
 31
0.0
  0
LINE
  8
LC-002-002-----0
  6
CONTINUOUS
  5
294
 10
300.467747
 20
88.859275
 30
0.0
 11
300.323409
 21
88.609275
 31
0.0
  0
LINE
  8
LC-002-002-----0
  6
CONTINUOUS
  5
295
 10
300.467747
 20
88.859275
 30
0.0
 11
300.823409
 21
88.859275
 31
0.0
  0
LINE
  8
LC-008-004-----0
  6
CONTINUOUS
  5
296
 10
148.523861
 20
100.076513
 30
0.0
 11
148.523858
 21
99.10761
 31
0.0
  0
LINE
  8
LC-002-002-----0
  6
CONTINUOUS
  5
297
 10
154.034387
 20
92.109275
 30
0.0
 11
152.322588
 21
92.109275
 31
0.0
  0
LINE
  8
LC-002-002-----0
  6
CONTINUOUS
  5
298
 10
298.967747
 20
88.859275
 30
0.0
 11
300.179072
 21
88.859275
 31
0.0
  0
LINE
  8
LC-002-002-----0
  6
CONTINUOUS
  5
299
 10
297.467747
 20
88.859275
 30
0.0
 11
298.679072
 21
88.859275
 31
0.0
  0
LINE
  8
LC-002-002-----0
  6
CONTINUOUS
  5
29A
 10
297.467747
 20
92.859275
 30
0.0
 11
298.679072
 21
92.859275
 31
0.0
  0
LINE
  8
LC-002-002-----0
  6
CONTINUOUS
  5
29B
 10
298.967747
 20
92.859275
 30
0.0
 11
300.179072
 21
92.859275
 31
0.0
  0
LINE
  8
LC-002-002-----0
  6
CONTINUOUS
  5
29C
 10
300.467747
 20
92.859275
 30
0.0
 11
300.823409
 21
92.859275
 31
0.0
  0
LINE
  8
LC-002-002-----0
  6
CONTINUOUS
  5
29D
 10
155.323062
 20
93.609275
 30
0.0
 11
156.32295
 21
93.609275
 31
0.0
  0
LINE
  8
LC-002-002-----0
  6
CONTINUOUS
  5
29E
 10
136.32254
 20
92.109275
 30
0.0
 11
134.323062
 21
92.109275
 31
0.0
  0
LINE
  8
LC-002-002-----0
  6
CONTINUOUS
  5
29F
 10
159.32295
 20
93.609275
 30
0.0
 11
159.32295
 21
81.609275
 31
0.0
  0
LINE
  8
LC-002-002-----0
  6
CONTINUOUS
  5
2A0
 10
158.32295
 20
93.609275
 30
0.0
 11
156.32295
 21
93.609275
 31
0.0
  0
LINE
  8
LC-008-004-----0
  6
CONTINUOUS
  5
2A1
 10
146.323819
 20
84.608527
 30
0.0
 11
149.323819
 21
84.608519
 31
0.0
  0
LINE
  8
LC-002-002-----0
  6
CONTINUOUS
  5
2A2
 10
264.308705
 20
160.973922
 30
0.0
 11
281.823105
 21
95.60929
 31
0.0
  0
LINE
  8
LC-002-002-----0
  6
CONTINUOUS
  5
2A3
 10
256.889429
 20
141.109275
 30
0.0
 11
249.255495
 21
166.609275
 31
0.0
  0
ARC
  8
LC-007-002-RND-0
  6
CONTINUOUS
  5
2A4
 10
260.430545
 20
134.109275
 30
0.0
 40
2.0
 50
180.0
 51
270.0
  0
LINE
  8
LC-002-002-----0
  6
CONTINUOUS
  5
2A5
 10
162.823105
 20
92.609275
 30
0.0
 11
162.823105
 21
95.609273
 31
0.0
  0
LINE
  8
LC-003-005-----0
  6
CONTINUOUS
  5
2A6
 10
256.50159
 20
7.600003
 30
0.0
 11
258.899286
 21
9.997699
 31
0.0
  0
LINE
  8
LC-008-004-----0
  6
CONTINUOUS
  5
2A7
 10
152.322591
 20
96.607608
 30
0.0
 11
152.322583
 21
84.607608
 31
0.0
  0
LINE
  8
LC-008-004-----0
  6
CONTINUOUS
  5
2A8
 10
152.322583
 20
84.607608
 30
0.0
 11
149.32258
 21
79.60761
 31
0.0
  0
LINE
  8
LC-008-004-----0
  6
CONTINUOUS
 62
     2
  5
2A9
 10
152.32259
 20
95.107608
 30
0.0
 11
147.323848
 21
95.107611
 31
0.0
  0
LINE
  8
LC-008-004-----0
  6
CONTINUOUS
 62
     2
  5
2AA
 10
151.32259
 20
95.107608
 30
0.0
 11
151.322582
 21
83.107609
 31
0.0
  0
LINE
  8
LC-008-004-----0
  6
CONTINUOUS
  5
2AB
 10
150.122593
 20
100.076509
 30
0.0
 11
150.122593
 21
99.107609
 31
0.0
  0
LINE
  8
LC-008-004-----0
  6
CONTINUOUS
  5
2AC
 10
152.322583
 20
84.607608
 30
0.0
 11
149.322583
 21
84.60761
 31
0.0
  0
LINE
  8
LC-008-004-----0
  6
CONTINUOUS
  5
2AD
 10
143.323856
 20
98.108535
 30
0.0
 11
143.323852
 21
96.608535
 31
0.0
  0
ARC
  8
LC-002-002-----0
  6
CONTINUOUS
  5
2AE
 10
149.323202
 20
90.110408
 30
0.0
 40
9.99811
 50
94.585648
 51
126.873341
  0
LINE
  8
LC-002-002-----0
  6
CONTINUOUS
  5
2AF
 10
150.122593
 20
99.107609
 30
0.0
 11
148.523858
 21
99.10761
 31
0.0
  0
LINE
  8
LC-008-004-----0
  6
CONTINUOUS
  5
2B0
 10
155.322592
 20
98.108503
 30
0.0
 11
155.322591
 21
96.607606
 31
0.0
  0
ARC
  8
LC-002-002-----0
  6
CONTINUOUS
  5
2B1
 10
149.323202
 20
90.110408
 30
0.0
 40
9.99811
 50
53.12635
 51
85.414066
  0
LINE
  8
LC-003-005-----0
  6
CONTINUOUS
  5
2B2
 10
253.791488
 20
7.718328
 30
0.0
 11
256.189184
 21
10.116024
 31
0.0
  0
LINE
  8
LC-003-005-----0
  6
CONTINUOUS
  5
2B3
 10
251.081387
 20
7.836654
 30
0.0
 11
253.479083
 21
10.23435
 31
0.0
  0
LINE
  8
LC-003-005-----0
  6
CONTINUOUS
  5
2B4
 10
248.371285
 20
7.954979
 30
0.0
 11
250.768981
 21
10.352675
 31
0.0
  0
LINE
  8
LC-003-005-----0
  6
CONTINUOUS
  5
2B5
 10
245.661184
 20
8.073305
 30
0.0
 11
248.05888
 21
10.471001
 31
0.0
  0
LINE
  8
LC-003-005-----0
  6
CONTINUOUS
  5
2B6
 10
242.951082
 20
8.191631
 30
0.0
 11
245.348778
 21
10.589327
 31
0.0
  0
LINE
  8
LC-003-005-----0
  6
CONTINUOUS
  5
2B7
 10
240.24098
 20
8.309956
 30
0.0
 11
242.638676
 21
10.707652
 31
0.0
  0
LINE
  8
LC-003-005-----0
  6
CONTINUOUS
  5
2B8
 10
237.530879
 20
8.428282
 30
0.0
 11
239.928575
 21
10.825978
 31
0.0
  0
LINE
  8
LC-002-002-----0
  6
CONTINUOUS
  5
2B9
 10
146.822573
 20
79.108584
 30
0.0
 11
151.822573
 21
79.108584
 31
0.0
  0
LINE
  8
LC-003-005-----0
  6
CONTINUOUS
  5
2BA
 10
234.820777
 20
8.546607
 30
0.0
 11
237.218473
 21
10.944303
 31
0.0
  0
LINE
  8
LC-003-005-----0
  6
CONTINUOUS
  5
2BB
 10
232.110676
 20
8.664933
 30
0.0
 11
234.508372
 21
11.062629
 31
0.0
  0
LINE
  8
LC-003-005-----0
  6
CONTINUOUS
  5
2BC
 10
229.400574
 20
8.783259
 30
0.0
 11
231.79827
 21
11.180955
 31
0.0
  0
LINE
  8
LC-002-002-----0
  6
CONTINUOUS
  5
2BD
 10
151.822573
 20
83.774258
 30
0.0
 11
151.822573
 21
79.108584
 31
0.0
  0
LINE
  8
LC-002-002-----0
  6
CONTINUOUS
  5
2BE
 10
146.822573
 20
83.777266
 30
0.0
 11
146.822573
 21
79.108584
 31
0.0
  0
LINE
  8
LC-002-002-----0
  6
CONTINUOUS
  5
2BF
 10
143.32254
 20
86.109275
 30
0.0
 11
143.32254
 21
78.607894
 31
0.0
  0
LINE
  8
LC-003-005-----0
  6
CONTINUOUS
  5
2C0
 10
226.690473
 20
8.901584
 30
0.0
 11
229.088169
 21
11.29928
 31
0.0
  0
LINE
  8
LC-003-005-----0
  6
CONTINUOUS
  5
2C1
 10
223.980371
 20
9.01991
 30
0.0
 11
226.378067
 21
11.417606
 31
0.0
  0
LINE
  8
LC-003-005-----0
  6
CONTINUOUS
  5
2C2
 10
221.27027
 20
9.138235
 30
0.0
 11
223.667966
 21
11.535931
 31
0.0
  0
LINE
  8
LC-003-005-----0
  6
CONTINUOUS
  5
2C3
 10
218.560168
 20
9.256561
 30
0.0
 11
220.957864
 21
11.654257
 31
0.0
  0
LINE
  8
LC-003-005-----0
  6
CONTINUOUS
  5
2C4
 10
215.867925
 20
9.392745
 30
0.0
 11
218.247763
 21
11.772583
 31
0.0
  0
LINE
  8
LC-003-005-----0
  6
CONTINUOUS
  5
2C5
 10
213.319297
 20
9.672544
 30
0.0
 11
215.57221
 21
11.925457
 31
0.0
  0
LINE
  8
LC-002-002-----0
  6
CONTINUOUS
  5
2C6
 10
145.572577
 20
96.608495
 30
0.0
 11
153.072577
 21
96.608542
 31
0.0
  0
LINE
  8
LC-003-005-----0
  6
CONTINUOUS
  5
2C7
 10
210.918078
 20
10.099752
 30
0.0
 11
213.059957
 21
12.241631
 31
0.0
  0
LINE
  8
LC-003-005-----0
  6
CONTINUOUS
  5
2C8
 10
208.645351
 20
10.655452
 30
0.0
 11
210.699602
 21
12.709703
 31
0.0
  0
LINE
  8
LC-003-005-----0
  6
CONTINUOUS
  5
2C9
 10
206.487223
 20
11.325751
 30
0.0
 11
208.471396
 21
13.309925
 31
0.0
  0
LINE
  8
LC-003-005-----0
  6
CONTINUOUS
  5
2CA
 10
204.433237
 20
12.100193
 30
0.0
 11
206.361018
 21
14.027974
 31
0.0
  0
LINE
  8
LC-003-005-----0
  6
CONTINUOUS
  5
2CB
 10
202.475402
 20
12.970785
 30
0.0
 11
204.357825
 21
14.853207
 31
0.0
  0
LINE
  8
LC-003-005-----0
  6
CONTINUOUS
  5
2CC
 10
200.607557
 20
13.931367
 30
0.0
 11
202.453795
 21
15.777605
 31
0.0
  0
LINE
  8
LC-003-005-----0
  6
CONTINUOUS
  5
2CD
 10
198.824961
 20
14.977198
 30
0.0
 11
200.642861
 21
16.795098
 31
0.0
  0
LINE
  8
LC-003-005-----0
  6
CONTINUOUS
  5
2CE
 10
197.124008
 20
16.104672
 30
0.0
 11
198.920466
 21
17.90113
 31
0.0
  0
LINE
  8
LC-003-005-----0
  6
CONTINUOUS
  5
2CF
 10
195.502028
 20
17.31112
 30
0.0
 11
197.283276
 21
19.092367
 31
0.0
  0
LINE
  8
LC-003-005-----0
  6
CONTINUOUS
  5
2D0
 10
193.957162
 20
18.594681
 30
0.0
 11
195.72898
 21
20.366499
 31
0.0
  0
LINE
  8
LC-003-005-----0
  6
CONTINUOUS
  5
2D1
 10
192.48827
 20
19.954215
 30
0.0
 11
194.256172
 21
21.722118
 31
0.0
  0
LINE
  8
LC-003-005-----0
  6
CONTINUOUS
  5
2D2
 10
191.094881
 20
21.389253
 30
0.0
 11
192.864272
 21
23.158644
 31
0.0
  0
LINE
  8
LC-003-005-----0
  6
CONTINUOUS
  5
2D3
 10
189.777173
 20
22.899972
 30
0.0
 11
191.553499
 21
24.676299
 31
0.0
  0
LINE
  8
LC-003-005-----0
  6
CONTINUOUS
  5
2D4
 10
188.535982
 20
24.487209
 30
0.0
 11
190.324885
 21
26.276112
 31
0.0
  0
LINE
  8
LC-003-005-----0
  6
CONTINUOUS
  5
2D5
 10
187.372838
 20
26.152492
 30
0.0
 11
189.180322
 21
27.959976
 31
0.0
  0
LINE
  8
LC-003-005-----0
  6
CONTINUOUS
  5
2D6
 10
186.290034
 20
27.898115
 30
0.0
 11
188.122666
 21
29.730747
 31
0.0
  0
LINE
  8
LC-003-005-----0
  6
CONTINUOUS
  5
2D7
 10
185.290735
 20
29.727243
 30
0.0
 11
187.155897
 21
31.592406
 31
0.0
  0
LINE
  8
LC-003-005-----0
  6
CONTINUOUS
  5
2D8
 10
184.379146
 20
31.644082
 30
0.0
 11
186.285362
 21
33.550297
 31
0.0
  0
LINE
  8
LC-003-005-----0
  6
CONTINUOUS
  5
2D9
 10
183.556043
 20
33.649406
 30
0.0
 11
185.483258
 21
35.57662
 31
0.0
  0
LINE
  8
LC-003-005-----0
  6
CONTINUOUS
  5
2DA
 10
182.755881
 20
35.677671
 30
0.0
 11
184.683095
 21
37.604885
 31
0.0
  0
LINE
  8
LC-003-005-----0
  6
CONTINUOUS
  5
2DB
 10
181.955719
 20
37.705935
 30
0.0
 11
183.882933
 21
39.63315
 31
0.0
  0
LINE
  8
LC-003-005-----0
  6
CONTINUOUS
  5
2DC
 10
181.155556
 20
39.7342
 30
0.0
 11
183.082771
 21
41.661414
 31
0.0
  0
LINE
  8
LC-003-005-----0
  6
CONTINUOUS
  5
2DD
 10
180.355394
 20
41.762465
 30
0.0
 11
182.282608
 21
43.689679
 31
0.0
  0
LINE
  8
LC-003-005-----0
  6
CONTINUOUS
  5
2DE
 10
179.555232
 20
43.79073
 30
0.0
 11
181.482446
 21
45.717944
 31
0.0
  0
LINE
  8
LC-003-005-----0
  6
CONTINUOUS
  5
2DF
 10
178.755069
 20
45.818994
 30
0.0
 11
180.682283
 21
47.746209
 31
0.0
  0
LINE
  8
LC-003-005-----0
  6
CONTINUOUS
  5
2E0
 10
177.954907
 20
47.847259
 30
0.0
 11
179.882121
 21
49.774473
 31
0.0
  0
LINE
  8
LC-003-005-----0
  6
CONTINUOUS
  5
2E1
 10
177.154745
 20
49.875524
 30
0.0
 11
179.081959
 21
51.802738
 31
0.0
  0
LINE
  8
LC-003-005-----0
  6
CONTINUOUS
  5
2E2
 10
176.354582
 20
51.903789
 30
0.0
 11
178.281796
 21
53.831003
 31
0.0
  0
LINE
  8
LC-003-005-----0
  6
CONTINUOUS
  5
2E3
 10
175.55442
 20
53.932054
 30
0.0
 11
177.481634
 21
55.859268
 31
0.0
  0
LINE
  8
LC-003-005-----0
  6
CONTINUOUS
  5
2E4
 10
174.754258
 20
55.960318
 30
0.0
 11
176.681472
 21
57.887532
 31
0.0
  0
LINE
  8
LC-003-005-----0
  6
CONTINUOUS
  5
2E5
 10
173.954095
 20
57.988583
 30
0.0
 11
175.881309
 21
59.915797
 31
0.0
  0
LINE
  8
LC-003-005-----0
  6
CONTINUOUS
  5
2E6
 10
173.153933
 20
60.016848
 30
0.0
 11
175.081147
 21
61.944062
 31
0.0
  0
LINE
  8
LC-003-005-----0
  6
CONTINUOUS
  5
2E7
 10
172.35377
 20
62.045113
 30
0.0
 11
174.280985
 21
63.972327
 31
0.0
  0
LINE
  8
LC-003-005-----0
  6
CONTINUOUS
  5
2E8
 10
171.553608
 20
64.073377
 30
0.0
 11
173.480822
 21
66.000592
 31
0.0
  0
LINE
  8
LC-003-005-----0
  6
CONTINUOUS
  5
2E9
 10
170.753446
 20
66.101642
 30
0.0
 11
172.68066
 21
68.028856
 31
0.0
  0
LINE
  8
LC-003-005-----0
  6
CONTINUOUS
  5
2EA
 10
169.953283
 20
68.129907
 30
0.0
 11
171.880498
 21
70.057121
 31
0.0
  0
LINE
  8
LC-003-005-----0
  6
CONTINUOUS
  5
2EB
 10
169.153121
 20
70.158172
 30
0.0
 11
171.080335
 21
72.085386
 31
0.0
  0
LINE
  8
LC-003-005-----0
  6
CONTINUOUS
  5
2EC
 10
168.352959
 20
72.186436
 30
0.0
 11
170.280173
 21
74.113651
 31
0.0
  0
LINE
  8
LC-003-005-----0
  6
CONTINUOUS
  5
2ED
 10
167.552796
 20
74.214701
 30
0.0
 11
169.480011
 21
76.141915
 31
0.0
  0
LINE
  8
LC-003-005-----0
  6
CONTINUOUS
  5
2EE
 10
166.752634
 20
76.242966
 30
0.0
 11
168.679848
 21
78.17018
 31
0.0
  0
LINE
  8
LC-003-005-----0
  6
CONTINUOUS
  5
2EF
 10
165.952472
 20
78.271231
 30
0.0
 11
167.879686
 21
80.198445
 31
0.0
  0
LINE
  8
LC-003-005-----0
  6
CONTINUOUS
  5
2F0
 10
163.461398
 20
78.608584
 30
0.0
 11
166.462089
 21
81.609275
 31
0.0
  0
LINE
  8
LC-003-005-----0
  6
CONTINUOUS
  5
2F1
 10
160.632971
 20
78.608584
 30
0.0
 11
163.633661
 21
81.609275
 31
0.0
  0
LINE
  8
LC-003-005-----0
  6
CONTINUOUS
  5
2F2
 10
157.804544
 20
78.608584
 30
0.0
 11
160.805234
 21
81.609275
 31
0.0
  0
LINE
  8
LC-003-005-----0
  6
CONTINUOUS
  5
2F3
 10
154.976117
 20
78.608584
 30
0.0
 11
159.32295
 21
82.955418
 31
0.0
  0
LINE
  8
LC-003-005-----0
  6
CONTINUOUS
  5
2F4
 10
151.356787
 20
77.817682
 30
0.0
 11
159.32295
 21
85.783845
 31
0.0
  0
LINE
  8
LC-003-005-----0
  6
CONTINUOUS
  5
2F5
 10
148.365206
 20
77.654528
 30
0.0
 11
149.819262
 21
79.108584
 31
0.0
  0
LINE
  8
LC-003-005-----0
  6
CONTINUOUS
  5
2F6
 10
146.043683
 20
78.161432
 30
0.0
 11
146.822573
 21
78.940322
 31
0.0
  0
LINE
  8
LC-003-005-----0
  6
CONTINUOUS
  5
2F7
 10
143.661718
 20
78.607894
 30
0.0
 11
146.822573
 21
81.768749
 31
0.0
  0
LINE
  8
LC-003-005-----0
  6
CONTINUOUS
  5
2F8
 10
143.32254
 20
81.097144
 30
0.0
 11
146.515108
 21
84.289711
 31
0.0
  0
LINE
  8
LC-003-005-----0
  6
CONTINUOUS
  5
2F9
 10
155.323062
 20
93.097665
 30
0.0
 11
155.834672
 21
93.609275
 31
0.0
  0
LINE
  8
LC-003-005-----0
  6
CONTINUOUS
  5
2FA
 10
143.32254
 20
83.925571
 30
0.0
 11
146.323826
 21
86.926856
 31
0.0
  0
LINE
  8
LC-003-005-----0
  6
CONTINUOUS
  5
2FB
 10
142.677817
 20
86.109275
 30
0.0
 11
146.323833
 21
89.755291
 31
0.0
  0
LINE
  8
LC-003-005-----0
  6
CONTINUOUS
  5
2FC
 10
139.84939
 20
86.109275
 30
0.0
 11
142.34939
 21
88.609275
 31
0.0
  0
LINE
  8
LC-003-005-----0
  6
CONTINUOUS
  5
2FD
 10
143.323062
 20
89.582947
 30
0.0
 11
145.84939
 21
92.109275
 31
0.0
  0
LINE
  8
LC-003-005-----0
  6
CONTINUOUS
  5
2FE
 10
146.287098
 20
92.546982
 30
0.0
 11
146.332699
 21
92.592584
 31
0.0
  0
LINE
  8
LC-003-005-----0
  6
CONTINUOUS
  5
2FF
 10
137.020963
 20
86.109275
 30
0.0
 11
139.520963
 21
88.609275
 31
0.0
  0
LINE
  8
LC-003-005-----0
  6
CONTINUOUS
  5
300
 10
135.257538
 20
87.174277
 30
0.0
 11
136.692536
 21
88.609275
 31
0.0
  0
LINE
  8
LC-003-005-----0
  6
CONTINUOUS
  5
301
 10
133.827063
 20
88.572229
 30
0.0
 11
136.32254
 21
91.067706
 31
0.0
  0
LINE
  8
LC-003-005-----0
  6
CONTINUOUS
  5
302
 10
131.661012
 20
89.234605
 30
0.0
 11
134.535682
 21
92.109275
 31
0.0
  0
LINE
  8
LC-003-005-----0
  6
CONTINUOUS
  5
303
 10
129.494962
 20
89.896982
 30
0.0
 11
132.319734
 21
92.721754
 31
0.0
  0
LINE
  8
LC-003-005-----0
  6
CONTINUOUS
  5
304
 10
127.328911
 20
90.559358
 30
0.0
 11
130.153569
 21
93.384017
 31
0.0
  0
LINE
  8
LC-003-005-----0
  6
CONTINUOUS
  5
305
 10
125.162861
 20
91.221735
 30
0.0
 11
127.987405
 21
94.04628
 31
0.0
  0
LINE
  8
LC-003-005-----0
  6
CONTINUOUS
  5
306
 10
122.99681
 20
91.884112
 30
0.0
 11
125.821241
 21
94.708542
 31
0.0
  0
LINE
  8
LC-003-005-----0
  6
CONTINUOUS
  5
307
 10
120.830759
 20
92.546488
 30
0.0
 11
123.655077
 21
95.370805
 31
0.0
  0
LINE
  8
LC-003-005-----0
  6
CONTINUOUS
  5
308
 10
118.664709
 20
93.208865
 30
0.0
 11
121.488912
 21
96.033068
 31
0.0
  0
LINE
  8
LC-003-005-----0
  6
CONTINUOUS
  5
309
 10
116.498658
 20
93.871241
 30
0.0
 11
119.322748
 21
96.695331
 31
0.0
  0
LINE
  8
LC-003-005-----0
  6
CONTINUOUS
  5
30A
 10
114.332608
 20
94.533618
 30
0.0
 11
117.156584
 21
97.357594
 31
0.0
  0
LINE
  8
LC-003-005-----0
  6
CONTINUOUS
  5
30B
 10
111.7694
 20
94.798838
 30
0.0
 11
114.99042
 21
98.019857
 31
0.0
  0
LINE
  8
LC-003-005-----0
  6
CONTINUOUS
  5
30C
 10
109.041401
 20
94.899265
 30
0.0
 11
112.501926
 21
98.35979
 31
0.0
  0
LINE
  8
LC-003-005-----0
  6
CONTINUOUS
  5
30D
 10
106.313402
 20
94.999693
 30
0.0
 11
109.760565
 21
98.446857
 31
0.0
  0
LINE
  8
LC-003-005-----0
  6
CONTINUOUS
  5
30E
 10
104.323062
 20
95.837781
 30
0.0
 11
107.019205
 21
98.533923
 31
0.0
  0
LINE
  8
LC-003-005-----0
  6
CONTINUOUS
  5
30F
 10
369.39762
 20
75.241199
 30
0.0
 11
370.899471
 21
76.74305
 31
0.0
  0
LINE
  8
LC-003-005-----0
  6
CONTINUOUS
  5
310
 10
366.689795
 20
75.361801
 30
0.0
 11
368.749065
 21
77.421071
 31
0.0
  0
LINE
  8
LC-003-005-----0
  6
CONTINUOUS
  5
311
 10
363.98197
 20
75.482403
 30
0.0
 11
366.373892
 21
77.874326
 31
0.0
  0
LINE
  8
LC-003-005-----0
  6
CONTINUOUS
  5
312
 10
361.274145
 20
75.603005
 30
0.0
 11
363.663791
 21
77.992651
 31
0.0
  0
LINE
  8
LC-003-005-----0
  6
CONTINUOUS
  5
313
 10
358.56632
 20
75.723607
 30
0.0
 11
360.953689
 21
78.110977
 31
0.0
  0
LINE
  8
LC-003-005-----0
  6
CONTINUOUS
  5
314
 10
355.858495
 20
75.844209
 30
0.0
 11
358.243588
 21
78.229302
 31
0.0
  0
LINE
  8
LC-003-005-----0
  6
CONTINUOUS
  5
315
 10
353.150669
 20
75.964811
 30
0.0
 11
355.533486
 21
78.347628
 31
0.0
  0
LINE
  8
LC-003-005-----0
  6
CONTINUOUS
  5
316
 10
350.442844
 20
76.085413
 30
0.0
 11
352.823385
 21
78.465954
 31
0.0
  0
LINE
  8
LC-003-005-----0
  6
CONTINUOUS
  5
317
 10
347.735019
 20
76.206015
 30
0.0
 11
350.113283
 21
78.584279
 31
0.0
  0
LINE
  8
LC-003-005-----0
  6
CONTINUOUS
  5
318
 10
345.027194
 20
76.326617
 30
0.0
 11
347.403182
 21
78.702605
 31
0.0
  0
LINE
  8
LC-003-005-----0
  6
CONTINUOUS
  5
319
 10
152.071669
 20
84.189418
 30
0.0
 11
159.32295
 21
91.440699
 31
0.0
  0
LINE
  8
LC-003-005-----0
  6
CONTINUOUS
  5
31A
 10
151.822573
 20
81.111895
 30
0.0
 11
159.32295
 21
88.612272
 31
0.0
  0
LINE
  8
LC-002-002-----0
  6
CONTINUOUS
  5
31B
 10
273.823105
 20
90.109275
 30
0.0
 11
273.823105
 21
85.609275
 31
0.0
  0
LINE
  8
LC-002-002-----0
  6
CONTINUOUS
  5
31C
 10
275.823105
 20
90.109275
 30
0.0
 11
275.823105
 21
85.609275
 31
0.0
  0
LINE
  8
LC-002-002-----0
  6
CONTINUOUS
  5
31D
 10
275.823105
 20
85.609275
 30
0.0
 11
273.823105
 21
85.609275
 31
0.0
  0
LINE
  8
LC-002-002-----0
  6
CONTINUOUS
  5
31E
 10
164.823105
 20
90.109275
 30
0.0
 11
164.823105
 21
95.609275
 31
0.0
  0
LINE
  8
LC-002-002-----0
  6
CONTINUOUS
  5
31F
 10
162.823105
 20
90.109275
 30
0.0
 11
162.823105
 21
85.609275
 31
0.0
  0
ARC
  8
LC-002-002-----0
  6
CONTINUOUS
  5
320
 10
276.323098
 20
91.609275
 30
0.0
 40
1.0
 50
0.0
 51
90.0
  0
LINE
  8
LC-002-002-----0
  6
CONTINUOUS
  5
321
 10
162.323112
 20
92.609275
 30
0.0
 11
162.823105
 21
92.609275
 31
0.0
  0
LINE
  8
LC-002-002-----0
  6
CONTINUOUS
  5
322
 10
162.823105
 20
95.609273
 30
0.0
 11
164.823105
 21
95.609275
 31
0.0
  0
LINE
  8
LC-002-002-----0
  6
CONTINUOUS
  5
323
 10
189.323105
 20
166.609275
 30
0.0
 11
187.339785
 21
166.609275
 31
0.0
  0
LINE
  8
LC-002-002-----0
  6
CONTINUOUS
  5
324
 10
258.430545
 20
141.109275
 30
0.0
 11
251.323105
 21
166.549571
 31
0.0
  0
LINE
  8
LC-002-002-----0
  6
CONTINUOUS
  5
325
 10
258.430545
 20
141.109275
 30
0.0
 11
260.94494
 21
132.109275
 31
0.0
  0
LINE
  8
LC-002-002-----0
  6
CONTINUOUS
  5
326
 10
180.215666
 20
141.109275
 30
0.0
 11
180.215666
 21
134.109275
 31
0.0
  0
LINE
  8
LC-002-002-----0
  6
CONTINUOUS
  5
327
 10
178.215666
 20
132.109275
 30
0.0
 11
177.70127
 21
132.109275
 31
0.0
  0
ARC
  8
LC-007-002-RND-0
  6
CONTINUOUS
  5
328
 10
178.215666
 20
134.109275
 30
0.0
 40
2.0
 50
270.0
 51
0.0
  0
LINE
  8
LC-002-002-----0
  6
CONTINUOUS
  5
329
 10
180.215666
 20
141.109275
 30
0.0
 11
177.70127
 21
132.109275
 31
0.0
  0
LINE
  8
LC-002-002-----0
  6
CONTINUOUS
  5
32A
 10
181.756782
 20
141.109275
 30
0.0
 11
189.390716
 21
166.609275
 31
0.0
  0
LINE
  8
LC-002-002-----0
  6
CONTINUOUS
  5
32B
 10
296.823409
 20
92.859275
 30
0.0
 11
297.179072
 21
92.859275
 31
0.0
  0
LINE
  8
LC-003-005-----0
  6
CONTINUOUS
  5
32C
 10
342.319369
 20
76.447219
 30
0.0
 11
344.69308
 21
78.82093
 31
0.0
  0
LINE
  8
LC-003-005-----0
  6
CONTINUOUS
  5
32D
 10
339.611544
 20
76.567821
 30
0.0
 11
341.982979
 21
78.939256
 31
0.0
  0
LINE
  8
LC-003-005-----0
  6
CONTINUOUS
  5
32E
 10
336.903718
 20
76.688423
 30
0.0
 11
339.272877
 21
79.057582
 31
0.0
  0
LINE
  8
LC-003-005-----0
  6
CONTINUOUS
  5
32F
 10
334.195893
 20
76.809025
 30
0.0
 11
336.562776
 21
79.175907
 31
0.0
  0
LINE
  8
LC-003-005-----0
  6
CONTINUOUS
  5
330
 10
331.488068
 20
76.929627
 30
0.0
 11
333.852674
 21
79.294233
 31
0.0
  0
LINE
  8
LC-003-005-----0
  6
CONTINUOUS
  5
331
 10
328.780243
 20
77.050229
 30
0.0
 11
331.142572
 21
79.412558
 31
0.0
  0
LINE
  8
LC-003-005-----0
  6
CONTINUOUS
  5
332
 10
326.072418
 20
77.170831
 30
0.0
 11
328.432471
 21
79.530884
 31
0.0
  0
LINE
  8
LC-003-005-----0
  6
CONTINUOUS
  5
333
 10
323.364593
 20
77.291433
 30
0.0
 11
325.722369
 21
79.64921
 31
0.0
  0
LINE
  8
LC-003-005-----0
  6
CONTINUOUS
  5
334
 10
320.656767
 20
77.412035
 30
0.0
 11
323.012268
 21
79.767535
 31
0.0
  0
LINE
  8
LC-003-005-----0
  6
CONTINUOUS
  5
335
 10
317.948942
 20
77.532637
 30
0.0
 11
320.302166
 21
79.885861
 31
0.0
  0
LINE
  8
LC-003-005-----0
  6
CONTINUOUS
  5
336
 10
315.241117
 20
77.653239
 30
0.0
 11
317.592065
 21
80.004186
 31
0.0
  0
LINE
  8
LC-003-005-----0
  6
CONTINUOUS
  5
337
 10
332.597312
 20
95.009434
 30
0.0
 11
334.238279
 21
96.6504
 31
0.0
  0
LINE
  8
LC-003-005-----0
  6
CONTINUOUS
  5
338
 10
312.533292
 20
77.773841
 30
0.0
 11
314.881963
 21
80.122512
 31
0.0
  0
LINE
  8
LC-003-005-----0
  6
CONTINUOUS
  5
339
 10
329.66078
 20
94.901329
 30
0.0
 11
333.348038
 21
98.588586
 31
0.0
  0
LINE
  8
LC-003-005-----0
  6
CONTINUOUS
  5
33A
 10
309.825467
 20
77.894443
 30
0.0
 11
312.171862
 21
80.240837
 31
0.0
  0
LINE
  8
LC-003-005-----0
  6
CONTINUOUS
  5
33B
 10
326.724249
 20
94.793224
 30
0.0
 11
330.426832
 21
98.495808
 31
0.0
  0
LINE
  8
LC-003-005-----0
  6
CONTINUOUS
  5
33C
 10
307.117642
 20
78.015045
 30
0.0
 11
309.46176
 21
80.359163
 31
0.0
  0
LINE
  8
LC-003-005-----0
  6
CONTINUOUS
  5
33D
 10
323.33786
 20
94.235263
 30
0.0
 11
327.505627
 21
98.40303
 31
0.0
  0
LINE
  8
LC-003-005-----0
  6
CONTINUOUS
  5
33E
 10
304.409817
 20
78.135647
 30
0.0
 11
306.751659
 21
80.477489
 31
0.0
  0
LINE
  8
LC-003-005-----0
  6
CONTINUOUS
  5
33F
 10
319.263495
 20
92.989325
 30
0.0
 11
324.57512
 21
98.30095
 31
0.0
  0
LINE
  8
LC-003-005-----0
  6
CONTINUOUS
  5
340
 10
301.701991
 20
78.256248
 30
0.0
 11
304.041557
 21
80.595814
 31
0.0
  0
LINE
  8
LC-003-005-----0
  6
CONTINUOUS
  5
341
 10
315.189131
 20
91.743388
 30
0.0
 11
320.501158
 21
97.055415
 31
0.0
  0
LINE
  8
LC-003-005-----0
  6
CONTINUOUS
  5
342
 10
298.994166
 20
78.37685
 30
0.0
 11
301.331456
 21
80.71414
 31
0.0
  0
LINE
  8
LC-003-005-----0
  6
CONTINUOUS
  5
343
 10
311.114766
 20
90.49745
 30
0.0
 11
316.427195
 21
95.80988
 31
0.0
  0
LINE
  8
LC-003-005-----0
  6
CONTINUOUS
  5
344
 10
296.286341
 20
78.497452
 30
0.0
 11
298.621354
 21
80.832465
 31
0.0
  0
LINE
  8
LC-003-005-----0
  6
CONTINUOUS
  5
345
 10
307.040401
 20
89.251513
 30
0.0
 11
312.353233
 21
94.564344
 31
0.0
  0
LINE
  8
LC-003-005-----0
  6
CONTINUOUS
  5
346
 10
293.578516
 20
78.618054
 30
0.0
 11
295.911253
 21
80.950791
 31
0.0
  0
LINE
  8
LC-003-005-----0
  6
CONTINUOUS
  5
347
 10
301.069736
 20
86.109275
 30
0.0
 11
308.279271
 21
93.318809
 31
0.0
  0
LINE
  8
LC-003-005-----0
  6
CONTINUOUS
  5
348
 10
290.870691
 20
78.738656
 30
0.0
 11
293.201151
 21
81.069117
 31
0.0
  0
LINE
  8
LC-003-005-----0
  6
CONTINUOUS
  5
349
 10
298.241309
 20
86.109275
 30
0.0
 11
300.741309
 21
88.609275
 31
0.0
  0
LINE
  8
LC-003-005-----0
  6
CONTINUOUS
  5
34A
 10
302.323584
 20
90.19155
 30
0.0
 11
304.241309
 21
92.109275
 31
0.0
  0
LINE
  8
LC-003-005-----0
  6
CONTINUOUS
  5
34B
 10
288.162866
 20
78.859258
 30
0.0
 11
290.491049
 21
81.187442
 31
0.0
  0
LINE
  8
LC-003-005-----0
  6
CONTINUOUS
  5
34C
 10
295.412882
 20
86.109275
 30
0.0
 11
297.912882
 21
88.609275
 31
0.0
  0
LINE
  8
LC-003-005-----0
  6
CONTINUOUS
  5
34D
 10
285.45504
 20
78.97986
 30
0.0
 11
287.780948
 21
81.305768
 31
0.0
  0
LINE
  8
LC-003-005-----0
  6
CONTINUOUS
  5
34E
 10
292.584455
 20
86.109275
 30
0.0
 11
295.323062
 21
88.847882
 31
0.0
  0
LINE
  8
LC-003-005-----0
  6
CONTINUOUS
  5
34F
 10
282.747215
 20
79.100462
 30
0.0
 11
285.070846
 21
81.424093
 31
0.0
  0
LINE
  8
LC-003-005-----0
  6
CONTINUOUS
  5
350
 10
289.756028
 20
86.109275
 30
0.0
 11
295.323062
 21
91.676309
 31
0.0
  0
LINE
  8
LC-003-005-----0
  6
CONTINUOUS
  5
351
 10
280.03939
 20
79.221064
 30
0.0
 11
282.360745
 21
81.542419
 31
0.0
  0
LINE
  8
LC-003-005-----0
  6
CONTINUOUS
  5
352
 10
286.927601
 20
86.109275
 30
0.0
 11
292.927601
 21
92.109275
 31
0.0
  0
LINE
  8
LC-003-005-----0
  6
CONTINUOUS
  5
353
 10
277.331565
 20
79.341666
 30
0.0
 11
282.323174
 21
84.333276
 31
0.0
  0
LINE
  8
LC-003-005-----0
  6
CONTINUOUS
  5
354
 10
284.099173
 20
86.109275
 30
0.0
 11
290.424126
 21
92.434227
 31
0.0
  0
LINE
  8
LC-003-005-----0
  6
CONTINUOUS
  5
355
 10
274.62374
 20
79.462268
 30
0.0
 11
276.770746
 21
81.609275
 31
0.0
  0
LINE
  8
LC-003-005-----0
  6
CONTINUOUS
  5
356
 10
279.323174
 20
84.161703
 30
0.0
 11
287.270746
 21
92.109275
 31
0.0
  0
LINE
  8
LC-003-005-----0
  6
CONTINUOUS
  5
357
 10
271.915915
 20
79.58287
 30
0.0
 11
273.942319
 21
81.609275
 31
0.0
  0
LINE
  8
LC-003-005-----0
  6
CONTINUOUS
  5
358
 10
279.323174
 20
86.99013
 30
0.0
 11
284.549726
 21
92.216682
 31
0.0
  0
LINE
  8
LC-003-005-----0
  6
CONTINUOUS
  5
359
 10
279.323174
 20
89.818557
 30
0.0
 11
283.113892
 21
93.609275
 31
0.0
  0
LINE
  8
LC-003-005-----0
  6
CONTINUOUS
  5
35A
 10
279.323174
 20
92.646984
 30
0.0
 11
280.285465
 21
93.609275
 31
0.0
  0
LINE
  8
LC-002-002-----0
  6
CONTINUOUS
  5
35B
 10
367.462233
 20
77.826808
 30
0.0
 11
282.323174
 21
81.544059
 31
0.0
  0
LINE
  8
LC-002-002-----0
  6
CONTINUOUS
  5
35C
 10
114.038132
 20
98.311
 30
0.0
 11
106.388979
 21
98.553939
 31
0.0
  0
LINE
  8
LC-002-002-----0
  6
CONTINUOUS
  5
35D
 10
159.323036
 20
81.609275
 30
0.0
 11
167.323105
 21
81.609275
 31
0.0
  0
LINE
  8
LC-010-006-MLN-0
  6
DASHDOT
  5
35E
 10
369.387859
 20
40.207007
 30
0.0
 11
213.219962
 21
47.025445
 31
0.0
  0
LINE
  8
LC-002-002-----0
  6
CONTINUOUS
  5
35F
 10
159.323036
 20
81.609275
 30
0.0
 11
159.323036
 21
85.609275
 31
0.0
  0
LINE
  8
LC-002-002-----0
  6
CONTINUOUS
  5
360
 10
134.323062
 20
92.109275
 30
0.0
 11
114.038132
 21
98.311
 31
0.0
  0
LINE
  8
LC-002-002-----0
  6
CONTINUOUS
  5
361
 10
370.849853
 20
75.176519
 30
0.0
 11
367.796496
 21
5.243144
 31
0.0
  0
LINE
  8
LC-002-002-----0
  6
CONTINUOUS
  5
362
 10
279.323174
 20
93.608584
 30
0.0
 11
279.323174
 21
81.609275
 31
0.0
  0
LINE
  8
LC-002-002-----0
  6
CONTINUOUS
  5
363
 10
133.873913
 20
88.557902
 30
0.0
 11
113.697411
 21
94.72786
 31
0.0
  0
LINE
  8
LC-002-002-----0
  6
CONTINUOUS
  5
364
 10
370.917994
 20
76.73721
 30
0.0
 11
367.462233
 21
77.826808
 31
0.0
  0
LINE
  8
LC-002-002-----0
  6
CONTINUOUS
  5
365
 10
367.728355
 20
3.682453
 30
0.0
 11
364.190779
 21
2.898191
 31
0.0
  0
LINE
  8
LC-002-002-----0
  6
CONTINUOUS
  5
366
 10
113.697411
 20
94.72786
 30
0.0
 11
104.323062
 21
95.072965
 31
0.0
  0
LINE
  8
LC-002-002-----0
  6
CONTINUOUS
  5
367
 10
324.948713
 20
94.72786
 30
0.0
 11
334.323148
 21
95.072968
 31
0.0
  0
LINE
  8
LC-002-002-----0
  6
CONTINUOUS
  5
368
 10
304.772211
 20
88.557902
 30
0.0
 11
324.948713
 21
94.72786
 31
0.0
  0
LINE
  8
LC-002-002-----0
  6
CONTINUOUS
  5
369
 10
304.323062
 20
92.109275
 30
0.0
 11
324.607992
 21
98.311
 31
0.0
  0
LINE
  8
LC-002-002-----0
  6
CONTINUOUS
  5
36A
 10
324.607992
 20
98.311
 30
0.0
 11
332.257231
 21
98.553942
 31
0.0
  0
LINE
  8
LC-002-002-----0
  6
CONTINUOUS
  5
36B
 10
153.681491
 20
78.608584
 30
0.0
 11
165.819384
 21
78.608584
 31
0.0
  0
LINE
  8
LC-002-002-----0
  6
CONTINUOUS
  5
36C
 10
370.849853
 20
75.176519
 30
0.0
 11
271.323062
 21
79.609275
 31
0.0
  0
LINE
  8
LC-002-002-----0
  6
CONTINUOUS
  5
36D
 10
364.190779
 20
2.898191
 30
0.0
 11
217.142093
 21
9.318475
 31
0.0
  0
LINE
  8
LC-002-002-----0
  6
CONTINUOUS
  5
36E
 10
167.323105
 20
81.609275
 30
0.0
 11
271.323062
 21
81.609275
 31
0.0
  0
ENDSEC
  0
EOF
