  0
SECTION
  2
HEADER
  9
$ACADVER
  1
AC1009
  9
$INSBASE
 10
389.045064
 20
542.712773
 30
0.0
  9
$EXTMIN
 10
0.0
 20
0.0
 30
0.0
  9
$EXTMAX
 10
840.0
 20
594.0
 30
0.0
  9
$LIMMIN
 10
0.0
 20
0.0
  9
$LIMMAX
 10
840.0
 20
594.0
  9
$ORTHOMODE
 70
     0
  9
$REGENMODE
 70
     1
  9
$FILLMODE
 70
     1
  9
$QTEXTMODE
 70
     0
  9
$MIRRTEXT
 70
     1
  9
$DRAGMODE
 70
     2
  9
$LTSCALE
 40
2.0
  9
$OSMODE
 70
     0
  9
$ATTMODE
 70
     1
  9
$TEXTSIZE
 40
0.2
  9
$TRACEWID
 40
0.05
  9
$TEXTSTYLE
  7
STANDARD
  9
$CLAYER
  8
0
  9
$CELTYPE
  6
BYLAYER
  9
$CECOLOR
 62
     7
  9
$DIMSCALE
 40
2.0
  9
$DIMASZ
 40
3.5
  9
$DIMEXO
 40
0.0625
  9
$DIMDLI
 40
0.38
  9
$DIMRND
 40
0.0
  9
$DIMDLE
 40
0.0
  9
$DIMEXE
 40
0.18
  9
$DIMTP
 40
0.0
  9
$DIMTM
 40
0.0
  9
$DIMTXT
 40
3.5
  9
$DIMCEN
 40
0.09
  9
$DIMTSZ
 40
0.0
  9
$DIMTOL
 70
     0
  9
$DIMLIM
 70
     0
  9
$DIMTIH
 70
     1
  9
$DIMTOH
 70
     1
  9
$DIMSE1
 70
     0
  9
$DIMSE2
 70
     0
  9
$DIMTAD
 70
     1
  9
$DIMZIN
 70
     0
  9
$DIMBLK
  1

  9
$DIMASO
 70
     1
  9
$DIMSHO
 70
     1
  9
$DIMPOST
  1

  9
$DIMAPOST
  1

  9
$DIMALT
 70
     0
  9
$DIMALTD
 70
     2
  9
$DIMALTF
 40
25.4
  9
$DIMLFAC
 40
1.0
  9
$DIMTOFL
 70
     0
  9
$DIMTVP
 40
0.0
  9
$DIMTIX
 70
     0
  9
$DIMSOXD
 70
     0
  9
$DIMSAH
 70
     0
  9
$DIMBLK1
  1

  9
$DIMBLK2
  1

  9
$DIMSTYLE
  2
STANDARD
  9
$DIMCLRD
 70
     0
  9
$DIMCLRE
 70
     0
  9
$DIMCLRT
 70
     0
  9
$DIMTFAC
 40
1.0
  9
$DIMGAP
 40
0.09
  9
$LUNITS
 70
     2
  9
$LUPREC
 70
     2
  9
$AXISMODE
 70
     0
  9
$AXISUNIT
 10
0.0
 20
0.0
  9
$SKETCHINC
 40
0.1
  9
$FILLETRAD
 40
0.0
  9
$AUNITS
 70
     0
  9
$AUPREC
 70
     0
  9
$MENU
  1
acad
  9
$ELEVATION
 40
0.0
  9
$PELEVATION
 40
0.0
  9
$THICKNESS
 40
0.0
  9
$LIMCHECK
 70
     0
  9
$BLIPMODE
 70
     1
  9
$CHAMFERA
 40
0.0
  9
$CHAMFERB
 40
0.0
  9
$SKPOLY
 70
     0
  9
$TDCREATE
 40
0.000000000
  9
$TDUPDATE
 40
0.000000000
  9
$TDINDWG
 40
0.0000000000
  9
$TDUSRTIMER
 40
0.0000000000
  9
$USRTIMER
 70
     1
  9
$ANGBASE
 50
0.0
  9
$ANGDIR
 70
     0
  9
$PDMODE
 70
     0
  9
$PDSIZE
 40
0.0
  9
$PLINEWID
 40
0.0
  9
$COORDS
 70
     0
  9
$SPLFRAME
 70
     0
  9
$SPLINETYPE
 70
     6
  9
$SPLINESEGS
 70
     8
  9
$ATTDIA
 70
     0
  9
$ATTREQ
 70
     1
  9
$HANDLING
 70
     1
  9
$HANDSEED
  5
D4
  9
$SURFTAB1
 70
     6
  9
$SURFTAB2
 70
     6
  9
$SURFTYPE
 70
     6
  9
$SURFU
 70
     6
  9
$SURFV
 70
     6
  9
$UCSNAME
  2

  9
$UCSORG
 10
0.0
 20
0.0
 30
0.0
  9
$UCSXDIR
 10
1.0
 20
0.0
 30
0.0
  9
$UCSYDIR
 10
0.0
 20
1.0
 30
0.0
  9
$PUCSNAME
  2

  9
$PUCSORG
 10
0.0
 20
0.0
 30
0.0
  9
$PUCSXDIR
 10
1.0
 20
0.0
 30
0.0
  9
$PUCSYDIR
 10
0.0
 20
1.0
 30
0.0
  9
$USERI1
 70
     0
  9
$USERI2
 70
     0
  9
$USERI3
 70
     0
  9
$USERI4
 70
     0
  9
$USERI5
 70
     0
  9
$USERR1
 40
0.0
  9
$USERR2
 40
0.0
  9
$USERR3
 40
0.0
  9
$USERR4
 40
0.0
  9
$USERR5
 40
0.0
  9
$WORLDVIEW
 70
     1
  9
$SHADEDGE
 70
     3
  9
$SHADEDIF
 70
    70
  9
$TILEMODE
 70
     1
  9
$MAXACTVP
 70
    16
  9
$PINSBASE
 10
0.0
 20
0.0
 30
0.0
  9
$PLIMCHECK
 70
     0
  9
$PEXTMIN
 10
1.000000E+20
 20
1.000000E+20
 30
1.000000E+20
  9
$PEXTMAX
 10
-1.000000E+20
 20
-1.000000E+20
 30
-1.000000E+20
  9
$PLIMMIN
 10
0.0
 20
0.0
  9
$PLIMMAX
 10
840.0
 20
594.0
  9
$UNITMODE
 70
     0
  9
$VISRETAIN
 70
     0
  9
$PLINEGEN
 70
     1
  9
$PSLTSCALE
 70
     0
  9
$TREEDEPTH
 70
  3020
  9
$DWGCODEPAGE
  3
dos850
  0
ENDSEC
  0
SECTION
  2
TABLES
  0
TABLE
  2
VPORT
 70
     1
  0
VPORT
  2
*ACTIVE
 70
     0
 10
0.0
 20
0.0
 11
1.0
 21
1.0
 12
420.0
 22
297.0
 13
0.0
 23
0.0
 14
1.0
 24
1.0
 15
0.0
 25
0.0
 16
0.0
 26
0.0
 36
1.0
 17
0.0
 27
0.0
 37
0.0
 40
594.0
 41
1.604229
 42
50.0
 43
0.0
 44
0.0
 50
0.0
 51
0.0
 71
     0
 72
   100
 73
     1
 74
     1
 75
     0
 76
     0
 77
     0
 78
     0
  0
ENDTAB
  0
TABLE
  2
LTYPE
 70
     2
  0
LTYPE
  2
CONTINUOUS
 70
    64
  3
Solid line
 72
    65
 73
     0
 40
0.0
  0
LTYPE
  2
DASHDOT
 70
    64
  3
__ . __ . __ . __ . __
 72
    65
 73
     4
 40
7.5
 49
5.0
 49
-1.25
 49
0.0
 49
-1.25
  0
ENDTAB
  0
TABLE
  2
LAYER
 70
     9
  0
LAYER
  2
0
 70
     0
 62
     7
  6
CONTINUOUS
  0
LAYER
  2
LC-INFO-1-2-MM-A3-0
 70
     1
 62
    -1
  6
CONTINUOUS
  0
LAYER
  2
LC-003-005-----0
 70
     0
 62
     2
  6
CONTINUOUS
  0
LAYER
  2
LC-005-003-MTH-0
 70
     0
 62
     2
  6
CONTINUOUS
  0
LAYER
  2
LC-006-003-MTG-0
 70
     0
 62
     2
  6
CONTINUOUS
  0
LAYER
  2
LC-004-003-----0
 70
     0
 62
     2
  6
CONTINUOUS
  0
LAYER
  2
LC-001-002-----0
 70
     0
 62
     1
  6
CONTINUOUS
  0
LAYER
  2
LC-002-001-----0
 70
     0
 62
     1
  6
CONTINUOUS
  0
LAYER
  2
LC-000
 70
     0
 62
     7
  6
CONTINUOUS
  0
ENDTAB
  0
TABLE
  2
STYLE
 70
     4
  0
STYLE
  2
STANDARD
 70
     0
 40
0.0
 41
1.0
 50
0.0
 71
     0
 42
0.0
  3
txt
  4

  0
STYLE
  2
LC-STANDARD
 70
    64
 40
0.0
 41
1.0
 50
0.0
 71
     0
 42
3.5
  3
MONOTXT
  4

  0
STYLE
  2
LC-TXTSTYLE-150-400-0-0-D2
 70
    64
 40
0.0
 41
1.0
 50
15.0
 71
     0
 42
3.5
  3
MONOTXT
  4

  0
STYLE
  2
LC-TXTSTYLE-150-400-0-0-D3
 70
    64
 40
0.0
 41
1.0
 50
15.0
 71
     0
 42
3.5
  3
LC-STANDARD
  4

  0
ENDTAB
  0
TABLE
  2
VIEW
 70
     0
  0
ENDTAB
  0
TABLE
  2
UCS
 70
     0
  0
ENDTAB
  0
TABLE
  2
APPID
 70
     1
  0
APPID
  2
ACAD
 70
     0
  0
ENDTAB
  0
TABLE
  2
DIMSTYLE
 70
     3
  0
DIMSTYLE
  2
STANDARD
 70
     0
  3

  4

  5

  6

  7

 40
1.0
 41
0.18
 42
0.0625
 43
0.38
 44
0.18
 45
0.0
 46
0.0
 47
0.0
 48
0.0
 71
     0
 72
     0
 73
     1
 74
     1
 75
     0
 76
     0
 77
     0
 78
     0
140
0.18
141
0.09
142
0.0
143
25.4
144
1.0
145
0.0
146
1.0
147
0.09
170
     0
171
     2
172
     0
173
     0
174
     0
175
     0
176
     0
177
     0
178
     0
  0
DIMSTYLE
  2
LC-STANDARD
 70
     0
  3

  4

  5

  6

  7

 40
1.0
 41
3.5
 42
0.0
 43
7.5
 44
1.8
 45
0.0
 46
0.0
 47
0.0
 48
0.0
 71
     0
 72
     0
 73
     0
 74
     0
 75
     0
 76
     0
 77
     1
 78
     8
140
3.5
141
0.0
142
0.0
143
25.4
144
1.0
145
0.0
146
0.71
147
1.5
170
     0
171
     2
172
     1
173
     0
174
     0
175
     0
176
     0
177
     0
178
     3
  0
DIMSTYLE
  2
LC-DIM-L-0090-02-02
 70
     0
  3

  4

  5

  6

  7

 40
2.0
 41
3.5
 42
0.0
 43
7.5
 44
1.8
 45
0.0
 46
0.0
 47
0.0
 48
0.0
 71
     0
 72
     0
 73
     0
 74
     0
 75
     0
 76
     0
 77
     1
 78
     8
140
9.0
141
0.0
142
0.0
143
25.4
144
1.0
145
0.0
146
0.71
147
1.5
170
     0
171
     2
172
     0
173
     0
174
     0
175
     0
176
     2
177
     2
178
     6
  0
ENDTAB
  0
ENDSEC
  0
SECTION
  2
BLOCKS
  0
BLOCK
  8
0
  5
23
  2
*X0
 70
    65
 10
459.029423
 20
273.741501
 30
0.0
  3
*X0
  0
LINE
  8
LC-003-005-----0
  6
CONTINUOUS
  5
25
 10
461.657918
 20
274.981239
 30
0.0
 11
463.644359
 21
276.967678
 31
0.0
  0
LINE
  8
LC-003-005-----0
  6
CONTINUOUS
  5
26
 10
461.629057
 20
279.195016
 30
0.0
 11
463.615498
 21
281.181454
 31
0.0
  0
LINE
  8
LC-003-005-----0
  6
CONTINUOUS
  5
27
 10
461.600195
 20
283.408792
 30
0.0
 11
463.586636
 21
285.395231
 31
0.0
  0
LINE
  8
LC-003-005-----0
  6
CONTINUOUS
  5
28
 10
471.932918
 20
293.741501
 30
0.0
 11
472.029423
 21
293.838006
 31
0.0
  0
LINE
  8
LC-003-005-----0
  6
CONTINUOUS
  5
29
 10
461.571334
 20
287.622569
 30
0.0
 11
463.557775
 21
289.609007
 31
0.0
  0
LINE
  8
LC-003-005-----0
  6
CONTINUOUS
  5
2A
 10
467.690275
 20
293.741501
 30
0.0
 11
469.690277
 21
295.741501
 31
0.0
  0
LINE
  8
LC-003-005-----0
  6
CONTINUOUS
  5
2B
 10
461.542472
 20
291.836345
 30
0.0
 11
465.447634
 21
295.741501
 31
0.0
  0
LINE
  8
LC-003-005-----0
  6
CONTINUOUS
  5
2C
 10
459.204988
 20
293.741501
 30
0.0
 11
461.20499
 21
295.741501
 31
0.0
  0
ENDBLK
  8
0
  5
2D
  0
BLOCK
  8
0
  5
2F
  2
*X1
 70
    65
 10
498.029423
 20
273.741501
 30
0.0
  3
*X1
  0
LINE
  8
LC-003-005-----0
  6
CONTINUOUS
  5
30
 10
507.087257
 20
273.741501
 30
0.0
 11
508.401438
 21
275.055681
 31
0.0
  0
LINE
  8
LC-003-005-----0
  6
CONTINUOUS
  5
31
 10
506.416857
 20
277.31374
 30
0.0
 11
508.430698
 21
279.327578
 31
0.0
  0
LINE
  8
LC-003-005-----0
  6
CONTINUOUS
  5
32
 10
506.446117
 20
281.585638
 30
0.0
 11
508.459957
 21
283.599475
 31
0.0
  0
LINE
  8
LC-003-005-----0
  6
CONTINUOUS
  5
33
 10
506.475377
 20
285.857535
 30
0.0
 11
508.489217
 21
287.871373
 31
0.0
  0
LINE
  8
LC-003-005-----0
  6
CONTINUOUS
  5
34
 10
506.504636
 20
290.129433
 30
0.0
 11
508.518476
 21
292.14327
 31
0.0
  0
LINE
  8
LC-003-005-----0
  6
CONTINUOUS
  5
35
 10
510.11671
 20
293.741501
 30
0.0
 11
511.029423
 21
294.654214
 31
0.0
  0
LINE
  8
LC-003-005-----0
  6
CONTINUOUS
  5
36
 10
505.874066
 20
293.741501
 30
0.0
 11
507.874069
 21
295.741501
 31
0.0
  0
LINE
  8
LC-003-005-----0
  6
CONTINUOUS
  5
37
 10
501.631423
 20
293.741501
 30
0.0
 11
503.631425
 21
295.741501
 31
0.0
  0
LINE
  8
LC-003-005-----0
  6
CONTINUOUS
  5
38
 10
498.029423
 20
294.382145
 30
0.0
 11
499.388782
 21
295.741501
 31
0.0
  0
ENDBLK
  8
0
  5
39
  0
BLOCK
  8
0
  5
3B
  2
*D2
 70
    65
 10
0.0
 20
0.0
 30
0.0
  3
*D2
  0
LINE
  8
LC-005-003-MTH-0
  6
CONTINUOUS
  5
3D
 10
242.029423
 20
295.741501
 30
0.0
 11
242.029423
 21
346.8
 31
0.0
  0
LINE
  8
LC-005-003-MTH-0
  6
CONTINUOUS
  5
3E
 10
389.029423
 20
295.741501
 30
0.0
 11
389.029423
 21
346.8
 31
0.0
  0
LINE
  8
LC-006-003-MTG-0
  6
CONTINUOUS
  5
40
 10
242.029423
 20
336.0
 30
0.0
 11
389.029423
 21
336.0
 31
0.0
  0
LINE
  8
LC-004-003-----0
  6
CONTINUOUS
  5
42
 10
259.875431
 20
338.349471
 30
0.0
 11
242.029423
 21
336.0
 31
0.0
  0
LINE
  8
LC-004-003-----0
  6
CONTINUOUS
  5
43
 10
242.029423
 20
336.0
 30
0.0
 11
259.875431
 21
333.650529
 31
0.0
  0
LINE
  8
LC-004-003-----0
  6
CONTINUOUS
  5
44
 10
259.875431
 20
333.650529
 30
0.0
 11
259.875431
 21
338.349471
 31
0.0
  0
LINE
  8
LC-004-003-----0
  6
CONTINUOUS
  5
45
 10
259.915469
 20
337.738609
 30
0.0
 11
246.709423
 21
336.0
 31
0.0
  0
LINE
  8
LC-004-003-----0
  6
CONTINUOUS
  5
46
 10
246.709423
 20
336.0
 30
0.0
 11
259.915469
 21
334.261391
 31
0.0
  0
LINE
  8
LC-004-003-----0
  6
CONTINUOUS
  5
47
 10
259.955507
 20
337.127746
 30
0.0
 11
251.389423
 21
336.0
 31
0.0
  0
LINE
  8
LC-004-003-----0
  6
CONTINUOUS
  5
48
 10
251.389423
 20
336.0
 30
0.0
 11
259.955507
 21
334.872254
 31
0.0
  0
LINE
  8
LC-004-003-----0
  6
CONTINUOUS
  5
49
 10
259.995545
 20
336.516884
 30
0.0
 11
256.069423
 21
336.0
 31
0.0
  0
LINE
  8
LC-004-003-----0
  6
CONTINUOUS
  5
4A
 10
256.069423
 20
336.0
 30
0.0
 11
259.995545
 21
335.483116
 31
0.0
  0
LINE
  8
LC-004-003-----0
  6
CONTINUOUS
  5
4B
 10
371.183416
 20
333.650529
 30
0.0
 11
389.029423
 21
336.0
 31
0.0
  0
LINE
  8
LC-004-003-----0
  6
CONTINUOUS
  5
4C
 10
389.029423
 20
336.0
 30
0.0
 11
371.183416
 21
338.349471
 31
0.0
  0
LINE
  8
LC-004-003-----0
  6
CONTINUOUS
  5
4D
 10
371.183416
 20
338.349471
 30
0.0
 11
371.183416
 21
333.650529
 31
0.0
  0
LINE
  8
LC-004-003-----0
  6
CONTINUOUS
  5
4E
 10
371.143378
 20
334.261391
 30
0.0
 11
384.349423
 21
336.0
 31
0.0
  0
LINE
  8
LC-004-003-----0
  6
CONTINUOUS
  5
4F
 10
384.349423
 20
336.0
 30
0.0
 11
371.143378
 21
337.738609
 31
0.0
  0
LINE
  8
LC-004-003-----0
  6
CONTINUOUS
  5
50
 10
371.10334
 20
334.872254
 30
0.0
 11
379.669423
 21
336.0
 31
0.0
  0
LINE
  8
LC-004-003-----0
  6
CONTINUOUS
  5
51
 10
379.669423
 20
336.0
 30
0.0
 11
371.10334
 21
337.127746
 31
0.0
  0
LINE
  8
LC-004-003-----0
  6
CONTINUOUS
  5
52
 10
371.063302
 20
335.483116
 30
0.0
 11
374.989423
 21
336.0
 31
0.0
  0
LINE
  8
LC-004-003-----0
  6
CONTINUOUS
  5
53
 10
374.989423
 20
336.0
 30
0.0
 11
371.063302
 21
336.516884
 31
0.0
  0
TEXT
  8
LC-004-003-----0
  6
CONTINUOUS
 62
     6
  5
55
 10
299.190811
 20
346.431999
 30
0.0
 40
18.0
  1
147
 41
0.9
 51
15.0
  7
LC-TXTSTYLE-150-400-0-0-D0
 72
     1
 11
318.324669
 21
346.431999
 31
0.0
  0
ENDBLK
  8
0
  5
56
  0
BLOCK
  8
0
  5
58
  2
*D3
 70
    65
 10
0.0
 20
0.0
 30
0.0
  3
*D3
  0
LINE
  8
LC-005-003-MTH-0
  6
CONTINUOUS
  5
59
 10
459.029423
 20
295.741501
 30
0.0
 11
459.029423
 21
346.8
 31
0.0
  0
LINE
  8
LC-005-003-MTH-0
  6
CONTINUOUS
  5
5A
 10
511.029423
 20
295.741501
 30
0.0
 11
511.029423
 21
346.8
 31
0.0
  0
LINE
  8
LC-006-003-MTG-0
  6
CONTINUOUS
  5
5B
 10
459.029423
 20
336.0
 30
0.0
 11
511.029423
 21
336.0
 31
0.0
  0
LINE
  8
LC-004-003-----0
  6
CONTINUOUS
  5
5C
 10
476.875431
 20
338.349471
 30
0.0
 11
459.029423
 21
336.0
 31
0.0
  0
LINE
  8
LC-004-003-----0
  6
CONTINUOUS
  5
5D
 10
459.029423
 20
336.0
 30
0.0
 11
476.875431
 21
333.650529
 31
0.0
  0
LINE
  8
LC-004-003-----0
  6
CONTINUOUS
  5
5E
 10
476.875431
 20
333.650529
 30
0.0
 11
476.875431
 21
338.349471
 31
0.0
  0
LINE
  8
LC-004-003-----0
  6
CONTINUOUS
  5
5F
 10
476.915469
 20
337.738609
 30
0.0
 11
463.709423
 21
336.0
 31
0.0
  0
LINE
  8
LC-004-003-----0
  6
CONTINUOUS
  5
60
 10
463.709423
 20
336.0
 30
0.0
 11
476.915469
 21
334.261391
 31
0.0
  0
LINE
  8
LC-004-003-----0
  6
CONTINUOUS
  5
61
 10
476.955507
 20
337.127746
 30
0.0
 11
468.389423
 21
336.0
 31
0.0
  0
LINE
  8
LC-004-003-----0
  6
CONTINUOUS
  5
62
 10
468.389423
 20
336.0
 30
0.0
 11
476.955507
 21
334.872254
 31
0.0
  0
LINE
  8
LC-004-003-----0
  6
CONTINUOUS
  5
63
 10
476.995545
 20
336.516884
 30
0.0
 11
473.069423
 21
336.0
 31
0.0
  0
LINE
  8
LC-004-003-----0
  6
CONTINUOUS
  5
64
 10
473.069423
 20
336.0
 30
0.0
 11
476.995545
 21
335.483116
 31
0.0
  0
LINE
  8
LC-004-003-----0
  6
CONTINUOUS
  5
65
 10
493.183416
 20
333.650529
 30
0.0
 11
511.029423
 21
336.0
 31
0.0
  0
LINE
  8
LC-004-003-----0
  6
CONTINUOUS
  5
66
 10
511.029423
 20
336.0
 30
0.0
 11
493.183416
 21
338.349471
 31
0.0
  0
LINE
  8
LC-004-003-----0
  6
CONTINUOUS
  5
67
 10
493.183416
 20
338.349471
 30
0.0
 11
493.183416
 21
333.650529
 31
0.0
  0
LINE
  8
LC-004-003-----0
  6
CONTINUOUS
  5
68
 10
493.143378
 20
334.261391
 30
0.0
 11
506.349423
 21
336.0
 31
0.0
  0
LINE
  8
LC-004-003-----0
  6
CONTINUOUS
  5
69
 10
506.349423
 20
336.0
 30
0.0
 11
493.143378
 21
337.738609
 31
0.0
  0
LINE
  8
LC-004-003-----0
  6
CONTINUOUS
  5
6A
 10
493.10334
 20
334.872254
 30
0.0
 11
501.669423
 21
336.0
 31
0.0
  0
LINE
  8
LC-004-003-----0
  6
CONTINUOUS
  5
6B
 10
501.669423
 20
336.0
 30
0.0
 11
493.10334
 21
337.127746
 31
0.0
  0
LINE
  8
LC-004-003-----0
  6
CONTINUOUS
  5
6C
 10
493.063302
 20
335.483116
 30
0.0
 11
496.989423
 21
336.0
 31
0.0
  0
LINE
  8
LC-004-003-----0
  6
CONTINUOUS
  5
6D
 10
496.989423
 20
336.0
 30
0.0
 11
493.063302
 21
336.516884
 31
0.0
  0
TEXT
  8
LC-004-003-----0
  6
CONTINUOUS
 62
     6
  5
6E
 10
475.961677
 20
346.431999
 30
0.0
 40
18.0
  1
52
 51
15.0
  7
LC-TXTSTYLE-150-400-0-0-D0
 72
     1
 11
487.824669
 21
346.431999
 31
0.0
  0
ENDBLK
  8
0
  5
6F
  0
BLOCK
  8
0
  5
71
  2
*D4
 70
    65
 10
0.0
 20
0.0
 30
0.0
  3
*D4
  0
LINE
  8
LC-005-003-MTH-0
  6
CONTINUOUS
  5
72
 10
377.692118
 20
220.741501
 30
0.0
 11
444.8
 21
220.741501
 31
0.0
  0
LINE
  8
LC-005-003-MTH-0
  6
CONTINUOUS
  5
73
 10
389.029423
 20
295.741501
 30
0.0
 11
444.8
 21
295.741501
 31
0.0
  0
LINE
  8
LC-006-003-MTG-0
  6
CONTINUOUS
  5
74
 10
434.0
 20
220.741501
 30
0.0
 11
434.0
 21
295.741501
 31
0.0
  0
LINE
  8
LC-004-003-----0
  6
CONTINUOUS
  5
75
 10
431.650529
 20
238.587509
 30
0.0
 11
434.0
 21
220.741501
 31
0.0
  0
LINE
  8
LC-004-003-----0
  6
CONTINUOUS
  5
76
 10
434.0
 20
220.741501
 30
0.0
 11
436.349471
 21
238.587509
 31
0.0
  0
LINE
  8
LC-004-003-----0
  6
CONTINUOUS
  5
77
 10
436.349471
 20
238.587509
 30
0.0
 11
431.650529
 21
238.587509
 31
0.0
  0
LINE
  8
LC-004-003-----0
  6
CONTINUOUS
  5
78
 10
432.261391
 20
238.627547
 30
0.0
 11
434.0
 21
225.421501
 31
0.0
  0
LINE
  8
LC-004-003-----0
  6
CONTINUOUS
  5
79
 10
434.0
 20
225.421501
 30
0.0
 11
435.738609
 21
238.627547
 31
0.0
  0
LINE
  8
LC-004-003-----0
  6
CONTINUOUS
  5
7A
 10
432.872254
 20
238.667585
 30
0.0
 11
434.0
 21
230.101501
 31
0.0
  0
LINE
  8
LC-004-003-----0
  6
CONTINUOUS
  5
7B
 10
434.0
 20
230.101501
 30
0.0
 11
435.127746
 21
238.667585
 31
0.0
  0
LINE
  8
LC-004-003-----0
  6
CONTINUOUS
  5
7C
 10
433.483116
 20
238.707623
 30
0.0
 11
434.0
 21
234.781501
 31
0.0
  0
LINE
  8
LC-004-003-----0
  6
CONTINUOUS
  5
7D
 10
434.0
 20
234.781501
 30
0.0
 11
434.516884
 21
238.707623
 31
0.0
  0
LINE
  8
LC-004-003-----0
  6
CONTINUOUS
  5
7E
 10
436.349471
 20
277.895494
 30
0.0
 11
434.0
 21
295.741501
 31
0.0
  0
LINE
  8
LC-004-003-----0
  6
CONTINUOUS
  5
7F
 10
434.0
 20
295.741501
 30
0.0
 11
431.650529
 21
277.895494
 31
0.0
  0
LINE
  8
LC-004-003-----0
  6
CONTINUOUS
  5
80
 10
431.650529
 20
277.895494
 30
0.0
 11
436.349471
 21
277.895494
 31
0.0
  0
LINE
  8
LC-004-003-----0
  6
CONTINUOUS
  5
81
 10
435.738609
 20
277.855456
 30
0.0
 11
434.0
 21
291.061501
 31
0.0
  0
LINE
  8
LC-004-003-----0
  6
CONTINUOUS
  5
82
 10
434.0
 20
291.061501
 30
0.0
 11
432.261391
 21
277.855456
 31
0.0
  0
LINE
  8
LC-004-003-----0
  6
CONTINUOUS
  5
83
 10
435.127746
 20
277.815418
 30
0.0
 11
434.0
 21
286.381501
 31
0.0
  0
LINE
  8
LC-004-003-----0
  6
CONTINUOUS
  5
84
 10
434.0
 20
286.381501
 30
0.0
 11
432.872254
 21
277.815418
 31
0.0
  0
LINE
  8
LC-004-003-----0
  6
CONTINUOUS
  5
85
 10
434.516884
 20
277.77538
 30
0.0
 11
434.0
 21
281.701501
 31
0.0
  0
LINE
  8
LC-004-003-----0
  6
CONTINUOUS
  5
86
 10
434.0
 20
281.701501
 30
0.0
 11
433.483116
 21
277.77538
 31
0.0
  0
TEXT
  8
LC-004-003-----0
  6
CONTINUOUS
 62
     6
  5
87
 10
423.568001
 20
249.173755
 30
0.0
 40
18.0
  1
75
 50
90.0
 51
15.0
  7
LC-TXTSTYLE-150-400-0-0-D0
 72
     1
 11
423.568001
 21
261.036747
 31
0.0
  0
ENDBLK
  8
0
  5
88
  0
ENDSEC
  0
SECTION
  2
ENTITIES
  0
VIEWPORT
  8
LC-000
  5
D0
 67
     1
 68
     1
 10
420.0
 20
297.0
 30
0.0
 40
840.0
 41
594.0
 69
     1
1001
ACAD
1000
MVIEW
1002
{
1070
    16
1010
0.0
1020
0.0
1030
0.0
1010
0.0
1020
0.0
1030
1.0
1040
0.0
1040
594.0
1040
420.0
1040
297.0
1040
50.0
1040
0.0
1040
0.0
1070
     0
1070
   100
1070
     1
1070
     1
1070
     0
1070
     0
1070
     0
1070
     0
1040
0.0
1040
0.0
1040
0.0
1040
1.0
1040
1.0
1040
0.0
1040
0.0
1070
     0
1002
{
1002
}
1002
}
  0
VIEWPORT
  8
0
  5
D1
 67
     1
 68
     1
 10
0.0
 20
0.0
 30
0.0
 40
0.0
 41
0.0
 69
     1
1001
ACAD
1000
MVIEW
1002
{
1070
    16
1010
0.0
1020
0.0
1030
0.0
1010
0.0
1020
0.0
1030
1.0
1040
0.0
1040
594.0
1040
0.0
1040
0.0
1040
50.0
1040
0.0
1040
0.0
1070
     0
1070
   100
1070
     0
1070
     1
1070
     0
1070
     0
1070
     0
1070
     0
1040
0.0
1040
0.0
1040
0.0
1040
0.5
1040
0.5
1040
0.5
1040
0.5
1070
     0
1002
{
1002
}
1002
}
  0
INSERT
  8
0
  5
89
  2
*X0
 10
459.029423
 20
273.741501
 30
0.0
  0
INSERT
  8
0
  5
8A
  2
*X1
 10
498.029423
 20
273.741501
 30
0.0
  0
DIMENSION
  8
0
  5
8B
  2
*D2
 10
315.529423
 20
336.0
 30
0.0
 11
315.529423
 21
336.0
 31
0.0
 13
242.029423
 23
295.741501
 33
0.0
 14
389.029423
 24
295.741501
 34
0.0
  3
LC-DIM-L-0090-02-02
  0
DIMENSION
  8
0
  5
8C
  2
*D3
 10
485.029423
 20
336.0
 30
0.0
 11
485.029423
 21
336.0
 31
0.0
 13
459.029423
 23
295.741501
 33
0.0
 14
511.029423
 24
295.741501
 34
0.0
  3
LC-DIM-L-0090-02-02
  0
DIMENSION
  8
0
  5
8D
  2
*D4
 10
434.0
 20
258.241501
 30
0.0
 11
434.0
 21
258.241501
 31
0.0
 13
389.029423
 23
295.741501
 33
0.0
 14
377.692118
 24
220.741501
 34
0.0
 50
90.0
  3
LC-DIM-L-0090-02-02
  0
LINE
  8
LC-001-002-----0
  6
CONTINUOUS
  5
8F
 10
511.029423
 20
295.741501
 30
0.0
 11
498.029423
 21
295.741501
 31
0.0
  0
LINE
  8
LC-001-002-----0
  6
CONTINUOUS
  5
90
 10
511.029423
 20
295.741501
 30
0.0
 11
511.029423
 21
293.741501
 31
0.0
  0
LINE
  8
LC-001-002-----0
  6
CONTINUOUS
  5
91
 10
511.029423
 20
293.741501
 30
0.0
 11
508.529423
 21
293.741501
 31
0.0
  0
LINE
  8
LC-001-002-----0
  6
CONTINUOUS
  5
92
 10
459.029423
 20
293.741501
 30
0.0
 11
459.029423
 21
295.741501
 31
0.0
  0
LINE
  8
LC-001-002-----0
  6
CONTINUOUS
  5
93
 10
461.529423
 20
293.741501
 30
0.0
 11
461.975004
 21
228.686708
 31
0.0
  0
ARC
  8
LC-001-002-----0
  6
CONTINUOUS
  5
94
 10
469.974816
 20
228.741501
 30
0.0
 40
8.0
 50
180.392431
 51
270.000058
  0
LINE
  8
LC-001-002-----0
  6
CONTINUOUS
  5
95
 10
508.529423
 20
293.741501
 30
0.0
 11
508.083842
 21
228.686708
 31
0.0
  0
ARC
  8
LC-001-002-----0
  6
CONTINUOUS
  5
96
 10
500.08403
 20
228.741501
 30
0.0
 40
8.0
 50
270.000058
 51
359.607569
  0
LINE
  8
LC-001-002-----0
  6
CONTINUOUS
  5
97
 10
469.974816
 20
220.741501
 30
0.0
 11
500.08403
 21
220.741501
 31
0.0
  0
CIRCLE
  8
LC-001-002-----0
  6
CONTINUOUS
  5
98
 10
485.029423
 20
306.741501
 30
0.0
 40
9.0
  0
ARC
  8
LC-001-002-----0
  6
CONTINUOUS
  5
99
 10
485.029423
 20
306.741501
 30
0.0
 40
11.5
 50
0.0
 51
179.999829
  0
LINE
  8
LC-001-002-----0
  6
CONTINUOUS
  5
9A
 10
473.529423
 20
306.741501
 30
0.0
 11
473.529423
 21
297.741501
 31
0.0
  0
LINE
  8
LC-001-002-----0
  6
CONTINUOUS
  5
9B
 10
496.529423
 20
306.741501
 30
0.0
 11
496.529423
 21
297.741501
 31
0.0
  0
LINE
  8
LC-001-002-----0
  6
DASHDOT
 62
     2
  5
9D
 10
495.029423
 20
220.741501
 30
0.0
 11
495.029423
 21
215.741501
 31
0.0
  0
LINE
  8
LC-001-002-----0
  6
DASHDOT
 62
     2
  5
9E
 10
475.029423
 20
220.741501
 30
0.0
 11
475.029423
 21
215.741501
 31
0.0
  0
LINE
  8
LC-001-002-----0
  6
CONTINUOUS
  5
9F
 10
476.529423
 20
215.741501
 30
0.0
 11
473.529423
 21
215.741501
 31
0.0
  0
LINE
  8
LC-001-002-----0
  6
CONTINUOUS
  5
A0
 10
473.529423
 20
215.741501
 30
0.0
 11
472.779423
 21
220.741501
 31
0.0
  0
LINE
  8
LC-001-002-----0
  6
CONTINUOUS
  5
A1
 10
476.529423
 20
215.741501
 30
0.0
 11
477.279423
 21
220.741501
 31
0.0
  0
LINE
  8
LC-001-002-----0
  6
CONTINUOUS
  5
A2
 10
496.529423
 20
215.741501
 30
0.0
 11
497.279423
 21
220.741501
 31
0.0
  0
LINE
  8
LC-001-002-----0
  6
CONTINUOUS
  5
A3
 10
496.529423
 20
215.741501
 30
0.0
 11
493.529423
 21
215.741501
 31
0.0
  0
LINE
  8
LC-001-002-----0
  6
CONTINUOUS
  5
A4
 10
493.529423
 20
215.741501
 30
0.0
 11
492.779423
 21
220.741501
 31
0.0
  0
LINE
  8
LC-002-001-----0
  6
CONTINUOUS
  5
A6
 10
463.529376
 20
293.7552
 30
0.0
 11
463.666456
 21
273.741501
 31
0.0
  0
LINE
  8
LC-002-001-----0
  6
CONTINUOUS
  5
A7
 10
506.52947
 20
293.7552
 30
0.0
 11
506.39239
 21
273.741501
 31
0.0
  0
LINE
  8
LC-001-002-----0
  6
CONTINUOUS
  5
A8
 10
461.66641
 20
273.741501
 30
0.0
 11
463.666456
 21
273.741501
 31
0.0
  0
LINE
  8
LC-001-002-----0
  6
CONTINUOUS
  5
A9
 10
506.39239
 20
273.741501
 30
0.0
 11
508.392437
 21
273.741501
 31
0.0
  0
LINE
  8
LC-001-002-----0
  6
CONTINUOUS
  5
AA
 10
461.529423
 20
293.741501
 30
0.0
 11
459.029423
 21
293.741501
 31
0.0
  0
LINE
  8
LC-001-002-----0
  6
CONTINUOUS
  5
AB
 10
506.52947
 20
293.741501
 30
0.0
 11
463.529376
 21
293.741501
 31
0.0
  0
LINE
  8
LC-001-002-----0
  6
CONTINUOUS
  5
AC
 10
500.029423
 20
293.741501
 30
0.0
 11
500.029423
 21
288.741501
 31
0.0
  0
LINE
  8
LC-001-002-----0
  6
CONTINUOUS
  5
AD
 10
500.029423
 20
288.741501
 30
0.0
 11
470.029423
 21
288.741501
 31
0.0
  0
LINE
  8
LC-001-002-----0
  6
CONTINUOUS
  5
AE
 10
470.029423
 20
288.741501
 30
0.0
 11
470.029423
 21
293.741501
 31
0.0
  0
LINE
  8
LC-001-002-----0
  6
CONTINUOUS
  5
AF
 10
472.029423
 20
295.741501
 30
0.0
 11
459.029423
 21
295.741501
 31
0.0
  0
LINE
  8
LC-001-002-----0
  6
CONTINUOUS
  5
B0
 10
473.529423
 20
297.741501
 30
0.0
 11
473.529423
 21
297.741501
 31
0.0
  0
ARC
  8
LC-001-002-----0
  6
CONTINUOUS
  5
B1
 10
473.529423
 20
296.241501
 30
0.0
 40
1.5
 50
90.0
 51
179.999848
  0
LINE
  8
LC-001-002-----0
  6
CONTINUOUS
  5
B2
 10
472.029423
 20
296.241501
 30
0.0
 11
472.029423
 21
293.741501
 31
0.0
  0
LINE
  8
LC-001-002-----0
  6
CONTINUOUS
  5
B3
 10
496.529423
 20
297.741501
 30
0.0
 11
496.529423
 21
297.741501
 31
0.0
  0
ARC
  8
LC-001-002-----0
  6
CONTINUOUS
  5
B4
 10
496.529423
 20
296.241501
 30
0.0
 40
1.5
 50
0.0
 51
90.0
  0
LINE
  8
LC-001-002-----0
  6
CONTINUOUS
  5
B5
 10
498.029423
 20
296.241501
 30
0.0
 11
498.029423
 21
293.741501
 31
0.0
  0
LINE
  8
LC-001-002-----0
  6
CONTINUOUS
  5
B6
 10
389.029423
 20
295.741501
 30
0.0
 11
242.029423
 21
295.741501
 31
0.0
  0
LINE
  8
LC-001-002-----0
  6
CONTINUOUS
  5
B7
 10
242.029423
 20
295.741501
 30
0.0
 11
242.029423
 21
293.741501
 31
0.0
  0
LINE
  8
LC-001-002-----0
  6
CONTINUOUS
  5
B8
 10
242.029423
 20
293.741501
 30
0.0
 11
389.029423
 21
293.741501
 31
0.0
  0
LINE
  8
LC-001-002-----0
  6
CONTINUOUS
  5
B9
 10
389.029423
 20
293.741501
 30
0.0
 11
389.029423
 21
295.741501
 31
0.0
  0
LINE
  8
LC-001-002-----0
  6
CONTINUOUS
  5
BA
 10
310.347605
 20
273.741501
 30
0.0
 11
305.529423
 21
220.741501
 31
0.0
  0
LINE
  8
LC-001-002-----0
  6
CONTINUOUS
  5
BB
 10
320.711241
 20
273.741501
 30
0.0
 11
325.529423
 21
220.741501
 31
0.0
  0
LINE
  8
LC-001-002-----0
  6
DASHDOT
 62
     2
  5
BC
 10
260.529423
 20
220.741501
 30
0.0
 11
260.529423
 21
215.741501
 31
0.0
  0
LINE
  8
LC-001-002-----0
  6
CONTINUOUS
  5
BD
 10
262.029423
 20
215.741501
 30
0.0
 11
259.029423
 21
215.741501
 31
0.0
  0
LINE
  8
LC-001-002-----0
  6
CONTINUOUS
  5
BE
 10
259.029423
 20
215.741501
 30
0.0
 11
258.279423
 21
220.741501
 31
0.0
  0
LINE
  8
LC-001-002-----0
  6
CONTINUOUS
  5
BF
 10
262.029423
 20
215.741501
 30
0.0
 11
262.779423
 21
220.741501
 31
0.0
  0
LINE
  8
LC-001-002-----0
  6
DASHDOT
 62
     2
  5
C0
 10
370.529423
 20
220.741501
 30
0.0
 11
370.529423
 21
215.741501
 31
0.0
  0
LINE
  8
LC-001-002-----0
  6
CONTINUOUS
  5
C1
 10
372.029423
 20
215.741501
 30
0.0
 11
369.029423
 21
215.741501
 31
0.0
  0
LINE
  8
LC-001-002-----0
  6
CONTINUOUS
  5
C2
 10
369.029423
 20
215.741501
 30
0.0
 11
368.279423
 21
220.741501
 31
0.0
  0
LINE
  8
LC-001-002-----0
  6
CONTINUOUS
  5
C3
 10
372.029423
 20
215.741501
 30
0.0
 11
372.779423
 21
220.741501
 31
0.0
  0
LINE
  8
LC-001-002-----0
  6
CONTINUOUS
  5
C4
 10
316.779423
 20
316.991501
 30
0.0
 11
316.779423
 21
295.741501
 31
0.0
  0
LINE
  8
LC-001-002-----0
  6
CONTINUOUS
  5
C5
 10
314.279423
 20
316.991501
 30
0.0
 11
314.279423
 21
295.741501
 31
0.0
  0
ARC
  8
LC-001-002-----0
  6
CONTINUOUS
  5
C6
 10
315.529423
 20
316.991501
 30
0.0
 40
1.25
 50
0.0
 51
180.0
  0
LINE
  8
LC-001-002-----0
  6
CONTINUOUS
  5
C7
 10
314.279423
 20
297.741501
 30
0.0
 11
316.779423
 21
297.741501
 31
0.0
  0
LINE
  8
LC-001-002-----0
  6
CONTINUOUS
  5
C8
 10
305.529423
 20
220.741501
 30
0.0
 11
253.366728
 21
220.741501
 31
0.0
  0
ARC
  8
LC-001-002-----0
  6
CONTINUOUS
  5
C9
 10
253.366728
 20
228.741501
 30
0.0
 40
8.0
 50
181.177145
 51
270.0
  0
LINE
  8
LC-001-002-----0
  6
CONTINUOUS
  5
CA
 10
244.029423
 20
293.741501
 30
0.0
 11
245.368417
 21
228.577153
 31
0.0
  0
LINE
  8
LC-001-002-----0
  6
CONTINUOUS
  5
CB
 10
387.029423
 20
293.741501
 30
0.0
 11
385.69043
 21
228.577153
 31
0.0
  0
ARC
  8
LC-001-002-----0
  6
CONTINUOUS
  5
CC
 10
377.692118
 20
228.741501
 30
0.0
 40
8.0
 50
270.0
 51
358.822855
  0
LINE
  8
LC-001-002-----0
  6
CONTINUOUS
  5
CD
 10
377.692118
 20
220.741501
 30
0.0
 11
325.529423
 21
220.741501
 31
0.0
  0
LINE
  8
LC-001-002-----0
  6
CONTINUOUS
  5
CE
 10
320.711241
 20
273.741501
 30
0.0
 11
310.347605
 21
273.741501
 31
0.0
  0
ENDSEC
  0
EOF
