  0
SECTION
  2
HEADER
  9
$ACADVER
  1
AC1009
  9
$INSBASE
 10
-111.419116
 20
-1135.36516
 30
0.0
  9
$EXTMIN
 10
-321.419116
 20
-1283.86516
 30
0.0
  9
$EXTMAX
 10
518.580884
 20
-689.86516
 30
0.0
  9
$LIMMIN
 10
-321.419116
 20
-1283.86516
  9
$LIMMAX
 10
518.580884
 20
-689.86516
  9
$ORTHOMODE
 70
     0
  9
$REGENMODE
 70
     1
  9
$FILLMODE
 70
     1
  9
$QTEXTMODE
 70
     0
  9
$MIRRTEXT
 70
     1
  9
$DRAGMODE
 70
     2
  9
$LTSCALE
 40
2.0
  9
$OSMODE
 70
     0
  9
$ATTMODE
 70
     1
  9
$TEXTSIZE
 40
0.2
  9
$TRACEWID
 40
0.05
  9
$TEXTSTYLE
  7
STANDARD
  9
$CLAYER
  8
0
  9
$CELTYPE
  6
BYLAYER
  9
$CECOLOR
 62
     7
  9
$DIMSCALE
 40
2.0
  9
$DIMASZ
 40
3.5
  9
$DIMEXO
 40
0.0625
  9
$DIMDLI
 40
0.38
  9
$DIMRND
 40
0.0
  9
$DIMDLE
 40
0.0
  9
$DIMEXE
 40
0.18
  9
$DIMTP
 40
0.0
  9
$DIMTM
 40
0.0
  9
$DIMTXT
 40
3.5
  9
$DIMCEN
 40
0.09
  9
$DIMTSZ
 40
0.0
  9
$DIMTOL
 70
     0
  9
$DIMLIM
 70
     0
  9
$DIMTIH
 70
     1
  9
$DIMTOH
 70
     1
  9
$DIMSE1
 70
     0
  9
$DIMSE2
 70
     0
  9
$DIMTAD
 70
     1
  9
$DIMZIN
 70
     0
  9
$DIMBLK
  1

  9
$DIMASO
 70
     1
  9
$DIMSHO
 70
     1
  9
$DIMPOST
  1

  9
$DIMAPOST
  1

  9
$DIMALT
 70
     0
  9
$DIMALTD
 70
     2
  9
$DIMALTF
 40
25.4
  9
$DIMLFAC
 40
1.0
  9
$DIMTOFL
 70
     0
  9
$DIMTVP
 40
0.0
  9
$DIMTIX
 70
     0
  9
$DIMSOXD
 70
     0
  9
$DIMSAH
 70
     0
  9
$DIMBLK1
  1

  9
$DIMBLK2
  1

  9
$DIMSTYLE
  2
STANDARD
  9
$DIMCLRD
 70
     0
  9
$DIMCLRE
 70
     0
  9
$DIMCLRT
 70
     0
  9
$DIMTFAC
 40
1.0
  9
$DIMGAP
 40
0.09
  9
$LUNITS
 70
     2
  9
$LUPREC
 70
     2
  9
$AXISMODE
 70
     0
  9
$AXISUNIT
 10
0.0
 20
0.0
  9
$SKETCHINC
 40
0.1
  9
$FILLETRAD
 40
0.0
  9
$AUNITS
 70
     0
  9
$AUPREC
 70
     0
  9
$MENU
  1
acad
  9
$ELEVATION
 40
0.0
  9
$PELEVATION
 40
0.0
  9
$THICKNESS
 40
0.0
  9
$LIMCHECK
 70
     0
  9
$BLIPMODE
 70
     1
  9
$CHAMFERA
 40
0.0
  9
$CHAMFERB
 40
0.0
  9
$SKPOLY
 70
     0
  9
$TDCREATE
 40
0.000000000
  9
$TDUPDATE
 40
0.000000000
  9
$TDINDWG
 40
0.0000000000
  9
$TDUSRTIMER
 40
0.0000000000
  9
$USRTIMER
 70
     1
  9
$ANGBASE
 50
0.0
  9
$ANGDIR
 70
     0
  9
$PDMODE
 70
     0
  9
$PDSIZE
 40
0.0
  9
$PLINEWID
 40
0.0
  9
$COORDS
 70
     0
  9
$SPLFRAME
 70
     0
  9
$SPLINETYPE
 70
     6
  9
$SPLINESEGS
 70
     8
  9
$ATTDIA
 70
     0
  9
$ATTREQ
 70
     1
  9
$HANDLING
 70
     1
  9
$HANDSEED
  5
105
  9
$SURFTAB1
 70
     6
  9
$SURFTAB2
 70
     6
  9
$SURFTYPE
 70
     6
  9
$SURFU
 70
     6
  9
$SURFV
 70
     6
  9
$UCSNAME
  2

  9
$UCSORG
 10
0.0
 20
0.0
 30
0.0
  9
$UCSXDIR
 10
1.0
 20
0.0
 30
0.0
  9
$UCSYDIR
 10
0.0
 20
1.0
 30
0.0
  9
$PUCSNAME
  2

  9
$PUCSORG
 10
0.0
 20
0.0
 30
0.0
  9
$PUCSXDIR
 10
1.0
 20
0.0
 30
0.0
  9
$PUCSYDIR
 10
0.0
 20
1.0
 30
0.0
  9
$USERI1
 70
     0
  9
$USERI2
 70
     0
  9
$USERI3
 70
     0
  9
$USERI4
 70
     0
  9
$USERI5
 70
     0
  9
$USERR1
 40
0.0
  9
$USERR2
 40
0.0
  9
$USERR3
 40
0.0
  9
$USERR4
 40
0.0
  9
$USERR5
 40
0.0
  9
$WORLDVIEW
 70
     1
  9
$SHADEDGE
 70
     3
  9
$SHADEDIF
 70
    70
  9
$TILEMODE
 70
     1
  9
$MAXACTVP
 70
    16
  9
$PINSBASE
 10
0.0
 20
0.0
 30
0.0
  9
$PLIMCHECK
 70
     0
  9
$PEXTMIN
 10
1.000000E+20
 20
1.000000E+20
 30
1.000000E+20
  9
$PEXTMAX
 10
-1.000000E+20
 20
-1.000000E+20
 30
-1.000000E+20
  9
$PLIMMIN
 10
-321.419116
 20
-1283.86516
  9
$PLIMMAX
 10
518.580884
 20
-689.86516
  9
$UNITMODE
 70
     0
  9
$VISRETAIN
 70
     0
  9
$PLINEGEN
 70
     1
  9
$PSLTSCALE
 70
     0
  9
$TREEDEPTH
 70
  3020
  9
$DWGCODEPAGE
  3
dos850
  0
ENDSEC
  0
SECTION
  2
TABLES
  0
TABLE
  2
VPORT
 70
     1
  0
VPORT
  2
*ACTIVE
 70
     0
 10
0.0
 20
0.0
 11
1.0
 21
1.0
 12
420.0
 22
297.0
 13
0.0
 23
0.0
 14
1.0
 24
1.0
 15
0.0
 25
0.0
 16
0.0
 26
0.0
 36
1.0
 17
-321.419116
 27
-1283.86516
 37
0.0
 40
594.0
 41
1.604229
 42
50.0
 43
0.0
 44
0.0
 50
0.0
 51
0.0
 71
     0
 72
   100
 73
     1
 74
     1
 75
     0
 76
     0
 77
     0
 78
     0
  0
ENDTAB
  0
TABLE
  2
LTYPE
 70
     3
  0
LTYPE
  2
CONTINUOUS
 70
    64
  3
Solid line
 72
    65
 73
     0
 40
0.0
  0
LTYPE
  2
DASHDOT
 70
    64
  3
__ . __ . __ . __ . __
 72
    65
 73
     4
 40
7.5
 49
5.0
 49
-1.25
 49
0.0
 49
-1.25
  0
LTYPE
  2
CENTER
 70
    64
  3
__ . __ . __ . __ . __
 72
    65
 73
     4
 40
7.5
 49
5.0
 49
-1.25
 49
0.0
 49
-1.25
  0
ENDTAB
  0
TABLE
  2
LAYER
 70
    10
  0
LAYER
  2
0
 70
     0
 62
     7
  6
CONTINUOUS
  0
LAYER
  2
LC-INFO-1-2-MM-A3-0
 70
     1
 62
    -1
  6
CONTINUOUS
  0
LAYER
  2
LC-005-003-MTH-0
 70
     0
 62
     2
  6
CONTINUOUS
  0
LAYER
  2
LC-004-003-----0
 70
     0
 62
     2
  6
CONTINUOUS
  0
LAYER
  2
LC-006-003-MTG-0
 70
     0
 62
     2
  6
CONTINUOUS
  0
LAYER
  2
LC-007-000-----0
 70
     0
 62
     7
  6
CONTINUOUS
  0
LAYER
  2
LC-001-006-MLN-0
 70
     0
 62
     2
  6
CENTER
  0
LAYER
  2
LC-002-002-----0
 70
     0
 62
     1
  6
CONTINUOUS
  0
LAYER
  2
LC-003-002-RND-0
 70
     0
 62
     1
  6
CONTINUOUS
  0
LAYER
  2
LC-000
 70
     0
 62
     7
  6
CONTINUOUS
  0
ENDTAB
  0
TABLE
  2
STYLE
 70
     3
  0
STYLE
  2
STANDARD
 70
     0
 40
0.0
 41
1.0
 50
0.0
 71
     0
 42
0.0
  3
txt
  4

  0
STYLE
  2
LC-TXTSTYLE-150-400-0-0-A1
 70
    64
 40
0.0
 41
1.0
 50
15.0
 71
     0
 42
3.5
  3
Arial
  4

  0
STYLE
  2
LC-STANDARD
 70
    64
 40
0.0
 41
1.0
 50
0.0
 71
     0
 42
3.5
  3
MONOTXT
  4

  0
ENDTAB
  0
TABLE
  2
VIEW
 70
     0
  0
ENDTAB
  0
TABLE
  2
UCS
 70
     0
  0
ENDTAB
  0
TABLE
  2
APPID
 70
     1
  0
APPID
  2
ACAD
 70
     0
  0
ENDTAB
  0
TABLE
  2
DIMSTYLE
 70
     4
  0
DIMSTYLE
  2
STANDARD
 70
     0
  3

  4

  5

  6

  7

 40
1.0
 41
0.18
 42
0.0625
 43
0.38
 44
0.18
 45
0.0
 46
0.0
 47
0.0
 48
0.0
 71
     0
 72
     0
 73
     1
 74
     1
 75
     0
 76
     0
 77
     0
 78
     0
140
0.18
141
0.09
142
0.0
143
25.4
144
1.0
145
0.0
146
1.0
147
0.09
170
     0
171
     2
172
     0
173
     0
174
     0
175
     0
176
     0
177
     0
178
     0
  0
DIMSTYLE
  2
LC-STANDARD
 70
     0
  3

  4

  5

  6

  7

 40
1.0
 41
3.5
 42
0.0
 43
7.5
 44
1.8
 45
0.0
 46
0.0
 47
0.0
 48
0.0
 71
     0
 72
     0
 73
     0
 74
     0
 75
     0
 76
     0
 77
     1
 78
     8
140
3.5
141
0.0
142
0.0
143
25.4
144
1.0
145
0.0
146
0.71
147
1.5
170
     0
171
     2
172
     1
173
     0
174
     0
175
     0
176
     0
177
     0
178
     3
  0
DIMSTYLE
  2
LC-DIM-L-0140-01-02
 70
     0
  3

  4

  5

  6

  7

 40
2.0
 41
3.5
 42
0.0
 43
7.5
 44
1.8
 45
0.0
 46
0.0
 47
0.0
 48
0.0
 71
     0
 72
     0
 73
     0
 74
     0
 75
     0
 76
     0
 77
     1
 78
     8
140
14.0
141
0.0
142
0.0
143
25.4
144
1.0
145
0.0
146
0.71
147
1.5
170
     0
171
     2
172
     0
173
     0
174
     0
175
     0
176
     2
177
     2
178
     8
  0
DIMSTYLE
  2
LC-DIM-L-0140-02-02
 70
     0
  3

  4

  5

  6

  7

 40
2.0
 41
3.5
 42
0.0
 43
7.5
 44
1.8
 45
0.0
 46
0.0
 47
0.0
 48
0.0
 71
     0
 72
     0
 73
     0
 74
     0
 75
     0
 76
     0
 77
     1
 78
     8
140
14.0
141
0.0
142
0.0
143
25.4
144
1.0
145
0.0
146
0.71
147
1.5
170
     0
171
     2
172
     0
173
     0
174
     0
175
     0
176
     2
177
     2
178
     8
  0
ENDTAB
  0
ENDSEC
  0
SECTION
  2
BLOCKS
  0
BLOCK
  8
0
  5
24
  2
*D0
 70
    65
 10
0.0
 20
0.0
 30
0.0
  3
*D0
  0
LINE
  8
LC-005-003-MTH-0
  6
CONTINUOUS
  5
26
 10
117.422408
 20
-1059.094676
 30
0.0
 11
173.6
 21
-1059.094676
 31
0.0
  0
LINE
  8
LC-005-003-MTH-0
  6
CONTINUOUS
  5
27
 10
117.922408
 20
-1021.594676
 30
0.0
 11
173.6
 21
-1021.594676
 31
0.0
  0
LINE
  8
LC-004-003-----0
  6
CONTINUOUS
  5
29
 10
160.454733
 20
-1086.855132
 30
0.0
 11
156.8
 21
-1059.094676
 31
0.0
  0
LINE
  8
LC-004-003-----0
  6
CONTINUOUS
  5
2A
 10
156.8
 20
-1059.094676
 30
0.0
 11
153.145267
 21
-1086.855132
 31
0.0
  0
LINE
  8
LC-004-003-----0
  6
CONTINUOUS
  5
2B
 10
153.145267
 20
-1086.855132
 30
0.0
 11
160.454733
 21
-1086.855132
 31
0.0
  0
LINE
  8
LC-004-003-----0
  6
CONTINUOUS
  5
2C
 10
159.504503
 20
-1086.917414
 30
0.0
 11
156.8
 21
-1066.374676
 31
0.0
  0
LINE
  8
LC-004-003-----0
  6
CONTINUOUS
  5
2D
 10
156.8
 20
-1066.374676
 30
0.0
 11
154.095497
 21
-1086.917414
 31
0.0
  0
LINE
  8
LC-004-003-----0
  6
CONTINUOUS
  5
2E
 10
158.554272
 20
-1086.979695
 30
0.0
 11
156.8
 21
-1073.654676
 31
0.0
  0
LINE
  8
LC-004-003-----0
  6
CONTINUOUS
  5
2F
 10
156.8
 20
-1073.654676
 30
0.0
 11
155.045728
 21
-1086.979695
 31
0.0
  0
LINE
  8
LC-004-003-----0
  6
CONTINUOUS
  5
30
 10
157.604041
 20
-1087.041977
 30
0.0
 11
156.8
 21
-1080.934676
 31
0.0
  0
LINE
  8
LC-004-003-----0
  6
CONTINUOUS
  5
31
 10
156.8
 20
-1080.934676
 30
0.0
 11
155.995959
 21
-1087.041977
 31
0.0
  0
LINE
  8
LC-004-003-----0
  6
CONTINUOUS
  5
32
 10
153.145267
 20
-993.83422
 30
0.0
 11
156.8
 21
-1021.594676
 31
0.0
  0
LINE
  8
LC-004-003-----0
  6
CONTINUOUS
  5
33
 10
156.8
 20
-1021.594676
 30
0.0
 11
160.454733
 21
-993.83422
 31
0.0
  0
LINE
  8
LC-004-003-----0
  6
CONTINUOUS
  5
34
 10
160.454733
 20
-993.83422
 30
0.0
 11
153.145267
 21
-993.83422
 31
0.0
  0
LINE
  8
LC-004-003-----0
  6
CONTINUOUS
  5
35
 10
154.095497
 20
-993.771939
 30
0.0
 11
156.8
 21
-1014.314676
 31
0.0
  0
LINE
  8
LC-004-003-----0
  6
CONTINUOUS
  5
36
 10
156.8
 20
-1014.314676
 30
0.0
 11
159.504503
 21
-993.771939
 31
0.0
  0
LINE
  8
LC-004-003-----0
  6
CONTINUOUS
  5
37
 10
155.045728
 20
-993.709657
 30
0.0
 11
156.8
 21
-1007.034676
 31
0.0
  0
LINE
  8
LC-004-003-----0
  6
CONTINUOUS
  5
38
 10
156.8
 20
-1007.034676
 30
0.0
 11
158.554272
 21
-993.709657
 31
0.0
  0
LINE
  8
LC-004-003-----0
  6
CONTINUOUS
  5
39
 10
155.995959
 20
-993.647376
 30
0.0
 11
156.8
 21
-999.754676
 31
0.0
  0
LINE
  8
LC-004-003-----0
  6
CONTINUOUS
  5
3A
 10
156.8
 20
-999.754676
 30
0.0
 11
157.604041
 21
-993.647376
 31
0.0
  0
LINE
  8
LC-006-003-MTG-0
  6
CONTINUOUS
  5
3C
 10
156.8
 20
-1098.294676
 30
0.0
 11
156.8
 21
-911.826976
 31
0.0
  0
TEXT
  8
LC-004-003-----0
  6
CONTINUOUS
 62
     8
  5
3D
 10
148.972446
 20
-979.166516
 30
0.0
 40
28.0
  1
37,5
 50
90.0
 41
0.9
 51
15.0
  7
LC-TXTSTYLE-150-400-0-0-A0
  0
ENDBLK
  8
0
  5
3E
  0
BLOCK
  8
0
  5
40
  2
*D1
 70
    65
 10
0.0
 20
0.0
 30
0.0
  3
*D1
  0
LINE
  8
LC-005-003-MTH-0
  6
CONTINUOUS
  5
41
 10
19.922408
 20
-1023.594676
 30
0.0
 11
19.922408
 21
-963.2
 31
0.0
  0
LINE
  8
LC-005-003-MTH-0
  6
CONTINUOUS
  5
42
 10
119.922408
 20
-1023.594676
 30
0.0
 11
119.922408
 21
-963.2
 31
0.0
  0
LINE
  8
LC-006-003-MTG-0
  6
CONTINUOUS
  5
43
 10
19.922408
 20
-980.0
 30
0.0
 11
119.922408
 21
-980.0
 31
0.0
  0
LINE
  8
LC-004-003-----0
  6
CONTINUOUS
  5
44
 10
47.682864
 20
-976.345267
 30
0.0
 11
19.922408
 21
-980.0
 31
0.0
  0
LINE
  8
LC-004-003-----0
  6
CONTINUOUS
  5
45
 10
19.922408
 20
-980.0
 30
0.0
 11
47.682864
 21
-983.654733
 31
0.0
  0
LINE
  8
LC-004-003-----0
  6
CONTINUOUS
  5
46
 10
47.682864
 20
-983.654733
 30
0.0
 11
47.682864
 21
-976.345267
 31
0.0
  0
LINE
  8
LC-004-003-----0
  6
CONTINUOUS
  5
47
 10
47.745146
 20
-977.295497
 30
0.0
 11
27.202408
 21
-980.0
 31
0.0
  0
LINE
  8
LC-004-003-----0
  6
CONTINUOUS
  5
48
 10
27.202408
 20
-980.0
 30
0.0
 11
47.745146
 21
-982.704503
 31
0.0
  0
LINE
  8
LC-004-003-----0
  6
CONTINUOUS
  5
49
 10
47.807427
 20
-978.245728
 30
0.0
 11
34.482408
 21
-980.0
 31
0.0
  0
LINE
  8
LC-004-003-----0
  6
CONTINUOUS
  5
4A
 10
34.482408
 20
-980.0
 30
0.0
 11
47.807427
 21
-981.754272
 31
0.0
  0
LINE
  8
LC-004-003-----0
  6
CONTINUOUS
  5
4B
 10
47.869708
 20
-979.195959
 30
0.0
 11
41.762408
 21
-980.0
 31
0.0
  0
LINE
  8
LC-004-003-----0
  6
CONTINUOUS
  5
4C
 10
41.762408
 20
-980.0
 30
0.0
 11
47.869708
 21
-980.804041
 31
0.0
  0
LINE
  8
LC-004-003-----0
  6
CONTINUOUS
  5
4D
 10
92.161952
 20
-983.654733
 30
0.0
 11
119.922408
 21
-980.0
 31
0.0
  0
LINE
  8
LC-004-003-----0
  6
CONTINUOUS
  5
4E
 10
119.922408
 20
-980.0
 30
0.0
 11
92.161952
 21
-976.345267
 31
0.0
  0
LINE
  8
LC-004-003-----0
  6
CONTINUOUS
  5
4F
 10
92.161952
 20
-976.345267
 30
0.0
 11
92.161952
 21
-983.654733
 31
0.0
  0
LINE
  8
LC-004-003-----0
  6
CONTINUOUS
  5
50
 10
92.099671
 20
-982.704503
 30
0.0
 11
112.642408
 21
-980.0
 31
0.0
  0
LINE
  8
LC-004-003-----0
  6
CONTINUOUS
  5
51
 10
112.642408
 20
-980.0
 30
0.0
 11
92.099671
 21
-977.295497
 31
0.0
  0
LINE
  8
LC-004-003-----0
  6
CONTINUOUS
  5
52
 10
92.037389
 20
-981.754272
 30
0.0
 11
105.362408
 21
-980.0
 31
0.0
  0
LINE
  8
LC-004-003-----0
  6
CONTINUOUS
  5
53
 10
105.362408
 20
-980.0
 30
0.0
 11
92.037389
 21
-978.245728
 31
0.0
  0
LINE
  8
LC-004-003-----0
  6
CONTINUOUS
  5
54
 10
91.975108
 20
-980.804041
 30
0.0
 11
98.082408
 21
-980.0
 31
0.0
  0
LINE
  8
LC-004-003-----0
  6
CONTINUOUS
  5
55
 10
98.082408
 20
-980.0
 30
0.0
 11
91.975108
 21
-979.195959
 31
0.0
  0
TEXT
  8
LC-004-003-----0
  6
CONTINUOUS
 62
     8
  5
56
 10
47.867268
 20
-972.172446
 30
0.0
 40
28.0
  1
100
 41
0.9
 51
15.0
  7
LC-TXTSTYLE-150-400-0-0-A0
 72
     1
 11
74.270568
 21
-972.172446
 31
0.0
  0
ENDBLK
  8
0
  5
57
  0
BLOCK
  8
0
  5
59
  2
BLK1
 70
    64
 10
0.0
 20
0.0
 30
0.0
  3
BLK1
  0
ENDBLK
  8
0
  5
5A
  0
BLOCK
  8
0
  5
5C
  2
*D3
 70
    65
 10
0.0
 20
0.0
 30
0.0
  3
*D3
  0
LINE
  8
LC-005-003-MTH-0
  6
CONTINUOUS
  5
5D
 10
22.422408
 20
-946.482567
 30
0.0
 11
-16.8
 21
-946.482567
 31
0.0
  0
LINE
  8
LC-005-003-MTH-0
  6
CONTINUOUS
  5
5E
 10
22.422408
 20
-863.482567
 30
0.0
 11
-16.8
 21
-863.482567
 31
0.0
  0
LINE
  8
LC-006-003-MTG-0
  6
CONTINUOUS
  5
5F
 10
-0.0
 20
-946.482567
 30
0.0
 11
-0.0
 21
-863.482567
 31
0.0
  0
LINE
  8
LC-004-003-----0
  6
CONTINUOUS
  5
60
 10
-3.654733
 20
-918.722111
 30
0.0
 11
-0.0
 21
-946.482567
 31
0.0
  0
LINE
  8
LC-004-003-----0
  6
CONTINUOUS
  5
61
 10
-0.0
 20
-946.482567
 30
0.0
 11
3.654733
 21
-918.722111
 31
0.0
  0
LINE
  8
LC-004-003-----0
  6
CONTINUOUS
  5
62
 10
3.654733
 20
-918.722111
 30
0.0
 11
-3.654733
 21
-918.722111
 31
0.0
  0
LINE
  8
LC-004-003-----0
  6
CONTINUOUS
  5
63
 10
-2.704503
 20
-918.65983
 30
0.0
 11
-0.0
 21
-939.202567
 31
0.0
  0
LINE
  8
LC-004-003-----0
  6
CONTINUOUS
  5
64
 10
-0.0
 20
-939.202567
 30
0.0
 11
2.704503
 21
-918.65983
 31
0.0
  0
LINE
  8
LC-004-003-----0
  6
CONTINUOUS
  5
65
 10
-1.754272
 20
-918.597548
 30
0.0
 11
-0.0
 21
-931.922567
 31
0.0
  0
LINE
  8
LC-004-003-----0
  6
CONTINUOUS
  5
66
 10
-0.0
 20
-931.922567
 30
0.0
 11
1.754272
 21
-918.597548
 31
0.0
  0
LINE
  8
LC-004-003-----0
  6
CONTINUOUS
  5
67
 10
-0.804041
 20
-918.535267
 30
0.0
 11
-0.0
 21
-924.642567
 31
0.0
  0
LINE
  8
LC-004-003-----0
  6
CONTINUOUS
  5
68
 10
-0.0
 20
-924.642567
 30
0.0
 11
0.804041
 21
-918.535267
 31
0.0
  0
LINE
  8
LC-004-003-----0
  6
CONTINUOUS
  5
69
 10
3.654733
 20
-891.243024
 30
0.0
 11
-0.0
 21
-863.482567
 31
0.0
  0
LINE
  8
LC-004-003-----0
  6
CONTINUOUS
  5
6A
 10
-0.0
 20
-863.482567
 30
0.0
 11
-3.654733
 21
-891.243024
 31
0.0
  0
LINE
  8
LC-004-003-----0
  6
CONTINUOUS
  5
6B
 10
-3.654733
 20
-891.243024
 30
0.0
 11
3.654733
 21
-891.243024
 31
0.0
  0
LINE
  8
LC-004-003-----0
  6
CONTINUOUS
  5
6C
 10
2.704503
 20
-891.305305
 30
0.0
 11
-0.0
 21
-870.762567
 31
0.0
  0
LINE
  8
LC-004-003-----0
  6
CONTINUOUS
  5
6D
 10
-0.0
 20
-870.762567
 30
0.0
 11
-2.704503
 21
-891.305305
 31
0.0
  0
LINE
  8
LC-004-003-----0
  6
CONTINUOUS
  5
6E
 10
1.754272
 20
-891.367586
 30
0.0
 11
-0.0
 21
-878.042567
 31
0.0
  0
LINE
  8
LC-004-003-----0
  6
CONTINUOUS
  5
6F
 10
-0.0
 20
-878.042567
 30
0.0
 11
-1.754272
 21
-891.367586
 31
0.0
  0
LINE
  8
LC-004-003-----0
  6
CONTINUOUS
  5
70
 10
0.804041
 20
-891.429868
 30
0.0
 11
-0.0
 21
-885.322567
 31
0.0
  0
LINE
  8
LC-004-003-----0
  6
CONTINUOUS
  5
71
 10
-0.0
 20
-885.322567
 30
0.0
 11
-0.804041
 21
-891.429868
 31
0.0
  0
TEXT
  8
LC-004-003-----0
  6
CONTINUOUS
 62
     8
  5
72
 10
-7.827554
 20
-918.236607
 30
0.0
 40
28.0
  1
83
 50
90.0
 41
0.9
 51
15.0
  7
LC-TXTSTYLE-150-400-0-0-A0
 72
     1
 11
-7.827554
 21
-900.634407
 31
0.0
  0
ENDBLK
  8
0
  5
73
  0
ENDSEC
  0
SECTION
  2
ENTITIES
  0
VIEWPORT
  8
LC-000
  5
100
 67
     1
 68
     1
 10
420.0
 20
297.0
 30
0.0
 40
840.0
 41
594.0
 69
     1
1001
ACAD
1000
MVIEW
1002
{
1070
    16
1010
0.0
1020
0.0
1030
0.0
1010
0.0
1020
0.0
1030
1.0
1040
0.0
1040
594.0
1040
420.0
1040
297.0
1040
50.0
1040
0.0
1040
0.0
1070
     0
1070
   100
1070
     1
1070
     1
1070
     0
1070
     0
1070
     0
1070
     0
1040
0.0
1040
0.0
1040
0.0
1040
1.0
1040
1.0
1040
0.0
1040
0.0
1070
     0
1002
{
1002
}
1002
}
  0
VIEWPORT
  8
0
  5
101
 67
     1
 68
     1
 10
0.0
 20
0.0
 30
0.0
 40
0.0
 41
0.0
 69
     1
1001
ACAD
1000
MVIEW
1002
{
1070
    16
1010
0.0
1020
0.0
1030
0.0
1010
0.0
1020
0.0
1030
1.0
1040
0.0
1040
594.0
1040
0.0
1040
0.0
1040
50.0
1040
0.0
1040
0.0
1070
     0
1070
   100
1070
     0
1070
     1
1070
     0
1070
     0
1070
     0
1070
     0
1040
0.0
1040
0.0
1040
0.0
1040
0.5
1040
0.5
1040
0.5
1040
0.5
1070
     0
1002
{
1002
}
1002
}
  0
DIMENSION
  8
LC-004-003-----0
  6
CONTINUOUS
  5
74
  2
*D0
 10
156.8
 20
-1040.344676
 30
0.0
 11
156.8
 21
-1040.344676
 31
0.0
 13
117.922408
 23
-1021.594676
 33
0.0
 14
117.422408
 24
-1059.094676
 34
0.0
 50
90.0
  3
LC-DIM-L-0140-01-02
  0
DIMENSION
  8
LC-004-003-----0
  6
CONTINUOUS
  5
75
  2
*D1
 10
69.922408
 20
-980.0
 30
0.0
 11
69.922408
 21
-980.0
 31
0.0
 13
19.922408
 23
-1023.594676
 33
0.0
 14
119.922408
 24
-1023.594676
 34
0.0
  3
LC-DIM-L-0140-01-02
  0
INSERT
  8
LC-007-000-----0
  5
77
  2
BLK1
 10
0.0
 20
0.0
 30
0.0
  0
DIMENSION
  8
LC-004-003-----0
  6
CONTINUOUS
  5
78
  2
*D3
 10
-0.0
 20
-904.982567
 30
0.0
 11
-0.0
 21
-904.982567
 31
0.0
 13
22.422408
 23
-863.482567
 33
0.0
 14
22.422408
 24
-946.482567
 34
0.0
 50
90.0
  3
LC-DIM-L-0140-02-02
  0
LINE
  8
LC-001-006-MLN-0
  6
DASHDOT
  5
7C
 10
39.922408
 20
-1036.594676
 30
0.0
 11
9.004499
 21
-1036.594676
 31
0.0
  0
LINE
  8
LC-002-002-----0
  6
CONTINUOUS
  5
7E
 10
119.922408
 20
-1059.094676
 30
0.0
 11
119.922408
 21
-1023.594676
 31
0.0
  0
LINE
  8
LC-002-002-----0
  6
CONTINUOUS
  5
7F
 10
19.922408
 20
-1059.094676
 30
0.0
 11
19.922408
 21
-1023.594676
 31
0.0
  0
LINE
  8
LC-002-002-----0
  6
CONTINUOUS
  5
80
 10
117.922408
 20
-1021.594676
 30
0.0
 11
21.922408
 21
-1021.594676
 31
0.0
  0
LINE
  8
LC-002-002-----0
  6
CONTINUOUS
  5
81
 10
119.922408
 20
-1059.094676
 30
0.0
 11
111.922408
 21
-1059.094676
 31
0.0
  0
LINE
  8
LC-002-002-----0
  6
CONTINUOUS
  5
82
 10
119.922408
 20
-1040.094676
 30
0.0
 11
109.471162
 21
-1040.094676
 31
0.0
  0
LINE
  8
LC-002-002-----0
  6
CONTINUOUS
  5
83
 10
29.922408
 20
-1057.094676
 30
0.0
 11
29.922408
 21
-1032.604893
 31
0.0
  0
LINE
  8
LC-002-002-----0
  6
CONTINUOUS
  5
84
 10
109.922408
 20
-1057.094676
 30
0.0
 11
109.922408
 21
-1032.604893
 31
0.0
  0
LINE
  8
LC-002-002-----0
  6
CONTINUOUS
  5
85
 10
22.422408
 20
-1059.094676
 30
0.0
 11
22.422408
 21
-1040.094676
 31
0.0
  0
LINE
  8
LC-002-002-----0
  6
CONTINUOUS
  5
86
 10
117.422408
 20
-1059.094676
 30
0.0
 11
117.422408
 21
-1040.094676
 31
0.0
  0
LINE
  8
LC-002-002-----0
  6
CONTINUOUS
  5
87
 10
119.922408
 20
-1032.604893
 30
0.0
 11
109.922408
 21
-1032.604893
 31
0.0
  0
ARC
  8
LC-002-002-----0
  6
CONTINUOUS
  5
88
 10
39.922408
 20
-1045.362503
 30
0.0
 40
10.0
 50
37.275791
 51
142.724209
  0
ARC
  8
LC-002-002-----0
  6
CONTINUOUS
  5
89
 10
79.922408
 20
-1045.362503
 30
0.0
 40
10.0
 50
37.275791
 51
142.724209
  0
ARC
  8
LC-002-002-----0
  6
CONTINUOUS
  5
8A
 10
99.922408
 20
-1045.362503
 30
0.0
 40
10.0
 50
37.275791
 51
142.724209
  0
LINE
  8
LC-002-002-----0
  6
CONTINUOUS
  5
8B
 10
90.373655
 20
-1040.094676
 30
0.0
 11
89.471162
 21
-1040.094676
 31
0.0
  0
LINE
  8
LC-002-002-----0
  6
CONTINUOUS
  5
8C
 10
29.922408
 20
-1032.604893
 30
0.0
 11
19.922408
 21
-1032.604893
 31
0.0
  0
LINE
  8
LC-002-002-----0
  6
CONTINUOUS
  5
8D
 10
109.802715
 20
-1040.094676
 30
0.0
 11
109.141953
 21
-1040.094676
 31
0.0
  0
ARC
  8
LC-002-002-----0
  6
CONTINUOUS
  5
8E
 10
59.922408
 20
-1045.362503
 30
0.0
 40
10.0
 50
37.275791
 51
142.724209
  0
LINE
  8
LC-002-002-----0
  6
CONTINUOUS
  5
8F
 10
111.757976
 20
-1040.094676
 30
0.0
 11
109.471162
 21
-1040.094676
 31
0.0
  0
LINE
  8
LC-001-006-MLN-0
  6
DASHDOT
  5
90
 10
129.922408
 20
-1036.594676
 30
0.0
 11
99.922408
 21
-1036.594676
 31
0.0
  0
LINE
  8
LC-002-002-----0
  6
CONTINUOUS
  5
91
 10
27.922408
 20
-1059.094676
 30
0.0
 11
19.922408
 21
-1059.094676
 31
0.0
  0
ARC
  8
LC-002-002-----0
  6
CONTINUOUS
  5
92
 10
21.922408
 20
-1023.594676
 30
0.0
 40
2.0
 50
90.0
 51
180.0
  0
ARC
  8
LC-003-002-RND-0
  6
CONTINUOUS
  5
94
 10
117.922408
 20
-1023.594676
 30
0.0
 40
2.0
 50
0.0
 51
90.0
  0
ARC
  8
LC-003-002-RND-0
  6
CONTINUOUS
  5
95
 10
27.922408
 20
-1057.094676
 30
0.0
 40
2.0
 50
270.0
 51
0.0
  0
ARC
  8
LC-003-002-RND-0
  6
CONTINUOUS
  5
96
 10
111.922408
 20
-1057.094676
 30
0.0
 40
2.0
 50
180.0
 51
270.0
  0
LINE
  8
LC-002-002-----0
  6
CONTINUOUS
  5
97
 10
70.373655
 20
-1040.094676
 30
0.0
 11
69.471162
 21
-1040.094676
 31
0.0
  0
LINE
  8
LC-002-002-----0
  6
CONTINUOUS
  5
98
 10
50.373655
 20
-1040.094676
 30
0.0
 11
49.471162
 21
-1040.094676
 31
0.0
  0
LINE
  8
LC-002-002-----0
  6
CONTINUOUS
  5
99
 10
30.373655
 20
-1040.094676
 30
0.0
 11
19.922408
 21
-1040.094676
 31
0.0
  0
ARC
  8
LC-003-002-RND-0
  6
CONTINUOUS
  5
9A
 10
49.471162
 20
-1038.094676
 30
0.0
 40
2.0
 50
217.275791
 51
270.0
  0
ARC
  8
LC-003-002-RND-0
  6
CONTINUOUS
  5
9B
 10
50.373655
 20
-1038.094676
 30
0.0
 40
2.0
 50
270.0
 51
322.724209
  0
ARC
  8
LC-003-002-RND-0
  6
CONTINUOUS
  5
9C
 10
69.471162
 20
-1038.094676
 30
0.0
 40
2.0
 50
217.275791
 51
270.0
  0
ARC
  8
LC-003-002-RND-0
  6
CONTINUOUS
  5
9D
 10
70.373655
 20
-1038.094676
 30
0.0
 40
2.0
 50
270.0
 51
322.724209
  0
ARC
  8
LC-003-002-RND-0
  6
CONTINUOUS
  5
9E
 10
89.471162
 20
-1038.094676
 30
0.0
 40
2.0
 50
217.275791
 51
270.0
  0
ARC
  8
LC-003-002-RND-0
  6
CONTINUOUS
  5
9F
 10
30.373655
 20
-1038.094676
 30
0.0
 40
2.0
 50
270.0
 51
322.724209
  0
ARC
  8
LC-003-002-RND-0
  6
CONTINUOUS
  5
A0
 10
90.373655
 20
-1038.094676
 30
0.0
 40
2.0
 50
270.0
 51
322.724209
  0
ARC
  8
LC-003-002-RND-0
  6
CONTINUOUS
  5
A1
 10
109.471162
 20
-1038.094676
 30
0.0
 40
2.0
 50
217.275791
 51
270.0
  0
LINE
  8
LC-002-002-----0
  6
CONTINUOUS
  5
A2
 10
30.322408
 20
-860.482567
 30
0.0
 11
22.672408
 21
-860.482567
 31
0.0
  0
LINE
  8
LC-002-002-----0
  6
CONTINUOUS
  5
A3
 10
117.172408
 20
-855.482567
 30
0.0
 11
109.522408
 21
-855.482567
 31
0.0
  0
ARC
  8
LC-002-002-----0
  6
CONTINUOUS
  5
A4
 10
117.172423
 20
-857.982552
 30
0.0
 40
2.5
 50
0.0
 51
90.0
  0
ARC
  8
LC-002-002-----0
  6
CONTINUOUS
  5
A5
 10
117.172423
 20
-857.982552
 30
0.0
 40
2.5
 50
270.0
 51
0.0
  0
ARC
  8
LC-002-002-----0
  6
CONTINUOUS
  5
A6
 10
22.672423
 20
-857.982552
 30
0.0
 40
2.5
 50
90.0
 51
270.0
  0
ARC
  8
LC-002-002-----0
  6
CONTINUOUS
  5
A7
 10
30.322423
 20
-855.982552
 30
0.0
 40
0.5
 50
0.0
 51
90.0
  0
LINE
  8
LC-002-002-----0
  6
CONTINUOUS
  5
A8
 10
30.322408
 20
-855.482567
 30
0.0
 11
22.672408
 21
-855.482567
 31
0.0
  0
LINE
  8
LC-002-002-----0
  6
CONTINUOUS
  5
A9
 10
109.022408
 20
-855.982567
 30
0.0
 11
30.822408
 21
-855.982567
 31
0.0
  0
ARC
  8
LC-002-002-----0
  6
CONTINUOUS
  5
AA
 10
30.322423
 20
-859.982552
 30
0.0
 40
0.5
 50
270.0
 51
0.0
  0
ARC
  8
LC-002-002-----0
  6
CONTINUOUS
  5
AB
 10
109.522423
 20
-859.982552
 30
0.0
 40
0.5
 50
180.0
 51
270.0
  0
LINE
  8
LC-002-002-----0
  6
CONTINUOUS
  5
AC
 10
117.172408
 20
-860.482567
 30
0.0
 11
109.522408
 21
-860.482567
 31
0.0
  0
ARC
  8
LC-002-002-----0
  6
CONTINUOUS
  5
AD
 10
109.522423
 20
-855.982552
 30
0.0
 40
0.5
 50
90.0
 51
180.0
  0
ARC
  8
LC-002-002-----0
  6
CONTINUOUS
  5
AE
 10
108.522423
 20
-945.982552
 30
0.0
 40
0.5
 50
270.0
 51
0.0
  0
LINE
  8
LC-002-002-----0
  6
CONTINUOUS
  5
AF
 10
33.922408
 20
-857.982567
 30
0.0
 11
33.922408
 21
-861.482567
 31
0.0
  0
LINE
  8
LC-002-002-----0
  6
CONTINUOUS
  5
B0
 10
119.672408
 20
-943.482567
 30
0.0
 11
119.672408
 21
-866.482567
 31
0.0
  0
ARC
  8
LC-002-002-----0
  6
CONTINUOUS
  5
B1
 10
117.422423
 20
-945.982552
 30
0.0
 40
0.5
 50
180.0
 51
270.0
  0
LINE
  8
LC-002-002-----0
  6
CONTINUOUS
  5
B2
 10
22.922408
 20
-863.982567
 30
0.0
 11
22.922408
 21
-866.482567
 31
0.0
  0
ARC
  8
LC-002-002-----0
  6
CONTINUOUS
  5
B3
 10
20.672423
 20
-945.982552
 30
0.0
 40
0.5
 50
180.0
 51
270.0
  0
LINE
  8
LC-002-002-----0
  6
CONTINUOUS
  5
B4
 10
117.422408
 20
-863.482567
 30
0.0
 11
109.022408
 21
-863.482567
 31
0.0
  0
LINE
  8
LC-002-002-----0
  6
CONTINUOUS
  5
B5
 10
22.422408
 20
-946.482567
 30
0.0
 11
20.672408
 21
-946.482567
 31
0.0
  0
ARC
  8
LC-002-002-----0
  6
CONTINUOUS
  5
B6
 10
22.422423
 20
-863.982552
 30
0.0
 40
0.5
 50
0.0
 51
90.0
  0
LINE
  8
LC-002-002-----0
  6
CONTINUOUS
  5
B7
 10
105.422408
 20
-912.325657
 30
0.0
 11
105.422408
 21
-943.482567
 31
0.0
  0
LINE
  8
LC-002-002-----0
  6
CONTINUOUS
  5
B8
 10
109.022408
 20
-855.982567
 30
0.0
 11
109.022408
 21
-857.982567
 31
0.0
  0
LINE
  8
LC-002-002-----0
  6
CONTINUOUS
  5
B9
 10
116.922408
 20
-866.482567
 30
0.0
 11
116.922408
 21
-863.982567
 31
0.0
  0
ARC
  8
LC-002-002-----0
  6
CONTINUOUS
  5
BA
 10
108.522423
 20
-861.982552
 30
0.0
 40
0.5
 50
0.0
 51
90.0
  0
LINE
  8
LC-002-002-----0
  6
CONTINUOUS
  5
BB
 10
30.822408
 20
-855.982567
 30
0.0
 11
30.822408
 21
-857.982567
 31
0.0
  0
LINE
  8
LC-002-002-----0
  6
CONTINUOUS
  5
BC
 10
22.922408
 20
-863.982567
 30
0.0
 11
30.822408
 21
-863.982567
 31
0.0
  0
LINE
  8
LC-002-002-----0
  6
CONTINUOUS
  5
BD
 10
119.172408
 20
-863.482567
 30
0.0
 11
117.422408
 21
-863.482567
 31
0.0
  0
LINE
  8
LC-002-002-----0
  6
CONTINUOUS
  5
BE
 10
108.522408
 20
-946.482567
 30
0.0
 11
117.422408
 21
-946.482567
 31
0.0
  0
ARC
  8
LC-002-002-----0
  6
CONTINUOUS
  5
BF
 10
94.58909
 20
-918.770712
 30
0.0
 40
12.605556
 50
30.749662
 51
147.610653
  0
LINE
  8
LC-002-002-----0
  6
CONTINUOUS
  5
C0
 10
22.922408
 20
-943.482567
 30
0.0
 11
22.922408
 21
-866.482567
 31
0.0
  0
LINE
  8
LC-002-002-----0
  6
CONTINUOUS
  5
C1
 10
119.672408
 20
-863.982567
 30
0.0
 11
119.672408
 21
-866.482567
 31
0.0
  0
LINE
  8
LC-002-002-----0
  6
CONTINUOUS
  5
C2
 10
105.422408
 20
-861.982567
 30
0.0
 11
105.422408
 21
-906.022568
 31
0.0
  0
LINE
  8
LC-002-002-----0
  6
CONTINUOUS
  5
C3
 10
30.822408
 20
-864.482567
 30
0.0
 11
30.822408
 21
-943.482567
 31
0.0
  0
LINE
  8
LC-002-002-----0
  6
CONTINUOUS
  5
C4
 10
22.922408
 20
-943.482567
 30
0.0
 11
22.922408
 21
-945.982567
 31
0.0
  0
ARC
  8
LC-002-002-----0
  6
CONTINUOUS
  5
C5
 10
69.922423
 20
-918.770712
 30
0.0
 40
12.605556
 50
32.389347
 51
147.610653
  0
LINE
  8
LC-002-002-----0
  6
CONTINUOUS
  5
C6
 10
116.922408
 20
-945.982567
 30
0.0
 11
109.022408
 21
-945.982567
 31
0.0
  0
ARC
  8
LC-002-002-----0
  6
CONTINUOUS
  5
C7
 10
105.922423
 20
-945.982552
 30
0.0
 40
0.5
 50
180.0
 51
270.0
  0
LINE
  8
LC-002-002-----0
  6
CONTINUOUS
  5
C8
 10
31.322408
 20
-861.482567
 30
0.0
 11
33.922408
 21
-861.482567
 31
0.0
  0
ARC
  8
LC-002-002-----0
  6
CONTINUOUS
  5
C9
 10
104.422423
 20
-906.022553
 30
0.0
 40
1.0
 50
232.355086
 51
0.0
  0
LINE
  8
LC-002-002-----0
  6
CONTINUOUS
  5
CA
 10
108.522408
 20
-946.482567
 30
0.0
 11
105.922408
 21
-946.482567
 31
0.0
  0
ARC
  8
LC-002-002-----0
  6
CONTINUOUS
  5
CB
 10
119.172423
 20
-945.982552
 30
0.0
 40
0.5
 50
270.0
 51
0.0
  0
ARC
  8
LC-002-002-----0
  6
CONTINUOUS
  5
CC
 10
31.322423
 20
-861.982552
 30
0.0
 40
0.5
 50
90.0
 51
180.0
  0
LINE
  8
LC-002-002-----0
  6
CONTINUOUS
  5
CD
 10
20.172408
 20
-866.482567
 30
0.0
 11
20.172408
 21
-863.982567
 31
0.0
  0
LINE
  8
LC-002-002-----0
  6
CONTINUOUS
  5
CE
 10
117.172408
 20
-857.982567
 30
0.0
 11
117.172408
 21
-855.482567
 31
0.0
  0
LINE
  8
LC-002-002-----0
  6
CONTINUOUS
  5
CF
 10
117.172408
 20
-860.482567
 30
0.0
 11
117.172408
 21
-857.982567
 31
0.0
  0
ARC
  8
LC-002-002-----0
  6
CONTINUOUS
  5
D0
 10
33.922423
 20
-945.982552
 30
0.0
 40
0.5
 50
270.0
 51
0.0
  0
ARC
  8
LC-002-002-----0
  6
CONTINUOUS
  5
D1
 10
45.255756
 20
-918.770712
 30
0.0
 40
12.605556
 50
32.389347
 51
149.250338
  0
LINE
  8
LC-002-002-----0
  6
CONTINUOUS
  5
D2
 10
20.172408
 20
-945.982567
 30
0.0
 11
20.172408
 21
-943.482567
 31
0.0
  0
ARC
  8
LC-002-002-----0
  6
CONTINUOUS
  5
D3
 10
57.58909
 20
-910.946957
 30
0.0
 40
2.0
 50
212.389347
 51
327.610653
  0
LINE
  8
LC-002-002-----0
  6
CONTINUOUS
  5
D4
 10
109.022408
 20
-861.982567
 30
0.0
 11
109.022408
 21
-864.482567
 31
0.0
  0
ARC
  8
LC-002-002-----0
  6
CONTINUOUS
  5
D5
 10
31.322423
 20
-945.982552
 30
0.0
 40
0.5
 50
180.0
 51
270.0
  0
LINE
  8
LC-002-002-----0
  6
CONTINUOUS
  5
D6
 10
30.822408
 20
-857.982567
 30
0.0
 11
30.822408
 21
-861.982567
 31
0.0
  0
LINE
  8
LC-002-002-----0
  6
CONTINUOUS
  5
D7
 10
109.022408
 20
-861.982567
 30
0.0
 11
109.022408
 21
-857.982567
 31
0.0
  0
ARC
  8
LC-002-002-----0
  6
CONTINUOUS
  5
D8
 10
33.922423
 20
-861.982552
 30
0.0
 40
0.5
 50
0.0
 51
90.0
  0
LINE
  8
LC-002-002-----0
  6
CONTINUOUS
  5
D9
 10
105.922408
 20
-857.982567
 30
0.0
 11
105.922408
 21
-861.482567
 31
0.0
  0
LINE
  8
LC-002-002-----0
  6
CONTINUOUS
  5
DA
 10
30.322408
 20
-860.482567
 30
0.0
 11
30.322408
 21
-855.482567
 31
0.0
  0
LINE
  8
LC-002-002-----0
  6
CONTINUOUS
  5
DB
 10
30.822408
 20
-945.982567
 30
0.0
 11
22.922408
 21
-945.982567
 31
0.0
  0
ARC
  8
LC-002-002-----0
  6
CONTINUOUS
  5
DC
 10
94.58909
 20
-918.770712
 30
0.0
 40
15.1
 50
52.355086
 51
144.763453
  0
ARC
  8
LC-002-002-----0
  6
CONTINUOUS
  5
DD
 10
22.422423
 20
-945.982552
 30
0.0
 40
0.5
 50
270.0
 51
0.0
  0
ARC
  8
LC-002-002-----0
  6
CONTINUOUS
  5
DE
 10
20.672423
 20
-863.982552
 30
0.0
 40
0.5
 50
90.0
 51
180.0
  0
LINE
  8
LC-002-002-----0
  6
CONTINUOUS
  5
DF
 10
34.422408
 20
-906.022568
 30
0.0
 11
34.422408
 21
-861.986425
 31
0.0
  0
LINE
  8
LC-002-002-----0
  6
CONTINUOUS
  5
E0
 10
109.022408
 20
-863.982567
 30
0.0
 11
116.922408
 21
-863.982567
 31
0.0
  0
ARC
  8
LC-002-002-----0
  6
CONTINUOUS
  5
E1
 10
119.172423
 20
-863.982552
 30
0.0
 40
0.5
 50
0.0
 51
90.0
  0
LINE
  8
LC-002-002-----0
  6
CONTINUOUS
  5
E2
 10
30.822408
 20
-864.482567
 30
0.0
 11
30.822408
 21
-861.982567
 31
0.0
  0
LINE
  8
LC-002-002-----0
  6
CONTINUOUS
  5
E3
 10
105.922408
 20
-861.482567
 30
0.0
 11
108.522408
 21
-861.482567
 31
0.0
  0
ARC
  8
LC-002-002-----0
  6
CONTINUOUS
  5
E4
 10
35.422423
 20
-906.022553
 30
0.0
 40
1.0
 50
180.0
 51
307.644914
  0
LINE
  8
LC-002-002-----0
  6
CONTINUOUS
  5
E5
 10
34.422408
 20
-943.482567
 30
0.0
 11
34.422408
 21
-945.982567
 31
0.0
  0
LINE
  8
LC-002-002-----0
  6
CONTINUOUS
  5
E6
 10
30.822408
 20
-945.982567
 30
0.0
 11
30.822408
 21
-943.482567
 31
0.0
  0
ARC
  8
LC-002-002-----0
  6
CONTINUOUS
  5
E7
 10
117.422423
 20
-863.982552
 30
0.0
 40
0.5
 50
90.0
 51
180.0
  0
LINE
  8
LC-002-002-----0
  6
CONTINUOUS
  5
E8
 10
116.922408
 20
-866.482567
 30
0.0
 11
116.922408
 21
-943.482567
 31
0.0
  0
ARC
  8
LC-002-002-----0
  6
CONTINUOUS
  5
E9
 10
45.255756
 20
-918.770712
 30
0.0
 40
15.1
 50
35.236547
 51
127.644914
  0
LINE
  8
LC-002-002-----0
  6
CONTINUOUS
  5
EA
 10
116.922408
 20
-945.982567
 30
0.0
 11
116.922408
 21
-943.482567
 31
0.0
  0
LINE
  8
LC-002-002-----0
  6
CONTINUOUS
  5
EB
 10
33.922408
 20
-946.482567
 30
0.0
 11
31.322408
 21
-946.482567
 31
0.0
  0
LINE
  8
LC-002-002-----0
  6
CONTINUOUS
  5
EC
 10
22.672408
 20
-857.982567
 30
0.0
 11
22.672408
 21
-860.482567
 31
0.0
  0
LINE
  8
LC-002-002-----0
  6
CONTINUOUS
  5
ED
 10
22.672408
 20
-855.482567
 30
0.0
 11
22.672408
 21
-857.982567
 31
0.0
  0
LINE
  8
LC-002-002-----0
  6
CONTINUOUS
  5
EE
 10
22.422408
 20
-946.482567
 30
0.0
 11
31.322408
 21
-946.482567
 31
0.0
  0
ARC
  8
LC-002-002-----0
  6
CONTINUOUS
  5
EF
 10
69.922423
 20
-918.770712
 30
0.0
 40
15.1
 50
35.236547
 51
144.763453
  0
LINE
  8
LC-002-002-----0
  6
CONTINUOUS
  5
F0
 10
119.172408
 20
-946.482567
 30
0.0
 11
117.422408
 21
-946.482567
 31
0.0
  0
LINE
  8
LC-002-002-----0
  6
CONTINUOUS
  5
F1
 10
20.172408
 20
-866.482567
 30
0.0
 11
20.172408
 21
-943.482567
 31
0.0
  0
LINE
  8
LC-002-002-----0
  6
CONTINUOUS
  5
F2
 10
30.822408
 20
-863.482567
 30
0.0
 11
22.422408
 21
-863.482567
 31
0.0
  0
ARC
  8
LC-002-002-----0
  6
CONTINUOUS
  5
F3
 10
82.255756
 20
-910.946957
 30
0.0
 40
2.0
 50
212.389347
 51
327.610653
  0
LINE
  8
LC-002-002-----0
  6
CONTINUOUS
  5
F4
 10
109.522408
 20
-855.482567
 30
0.0
 11
109.522408
 21
-860.482567
 31
0.0
  0
LINE
  8
LC-002-002-----0
  6
CONTINUOUS
  5
F5
 10
109.022408
 20
-943.482567
 30
0.0
 11
109.022408
 21
-945.982567
 31
0.0
  0
LINE
  8
LC-002-002-----0
  6
CONTINUOUS
  5
F6
 10
22.422408
 20
-863.482567
 30
0.0
 11
20.672408
 21
-863.482567
 31
0.0
  0
LINE
  8
LC-002-002-----0
  6
CONTINUOUS
  5
F7
 10
119.672408
 20
-943.482567
 30
0.0
 11
119.672408
 21
-945.982567
 31
0.0
  0
LINE
  8
LC-002-002-----0
  6
CONTINUOUS
  5
F8
 10
34.422408
 20
-943.482567
 30
0.0
 11
34.422408
 21
-912.325657
 31
0.0
  0
LINE
  8
LC-002-002-----0
  6
CONTINUOUS
  5
F9
 10
109.022408
 20
-943.482567
 30
0.0
 11
109.022408
 21
-864.482567
 31
0.0
  0
LINE
  8
LC-002-002-----0
  6
CONTINUOUS
  5
FA
 10
105.922408
 20
-861.482567
 30
0.0
 11
33.922408
 21
-861.482567
 31
0.0
  0
LINE
  8
LC-001-006-MLN-0
  6
DASHDOT
  5
FB
 10
10.172423
 20
-857.982567
 30
0.0
 11
129.672423
 21
-857.982567
 31
0.0
  0
LINE
  8
LC-001-006-MLN-0
  6
DASHDOT
  5
FC
 10
69.922408
 20
-950.964296
 30
0.0
 11
69.922408
 21
-845.982567
 31
0.0
  0
ARC
  8
LC-003-002-RND-0
  6
CONTINUOUS
  5
FD
 10
105.922408
 20
-861.982567
 30
0.0
 40
0.5
 50
90.0
 51
180.0
  0
LINE
  8
LC-002-002-----0
  6
DASHDOT
 62
     2
  5
FE
 10
69.922408
 20
-1021.594676
 30
0.0
 11
69.922408
 21
-1059.094676
 31
0.0
  0
ENDSEC
  0
EOF
