  0
SECTION
  2
HEADER
  9
$ACADVER
  1
AC1009
  9
$INSBASE
 10
0.0
 20
0.0
 30
0.0
  9
$EXTMIN
 10
-210.0
 20
-148.5
 30
0.0
  9
$EXTMAX
 10
630.0
 20
445.5
 30
0.0
  9
$LIMMIN
 10
-210.0
 20
-148.5
  9
$LIMMAX
 10
630.0
 20
445.5
  9
$ORTHOMODE
 70
     0
  9
$REGENMODE
 70
     1
  9
$FILLMODE
 70
     1
  9
$QTEXTMODE
 70
     0
  9
$MIRRTEXT
 70
     1
  9
$DRAGMODE
 70
     2
  9
$LTSCALE
 40
2.0
  9
$OSMODE
 70
     0
  9
$ATTMODE
 70
     1
  9
$TEXTSIZE
 40
0.2
  9
$TRACEWID
 40
0.05
  9
$TEXTSTYLE
  7
STANDARD
  9
$CLAYER
  8
0
  9
$CELTYPE
  6
BYLAYER
  9
$CECOLOR
 62
     7
  9
$DIMSCALE
 40
2.0
  9
$DIMASZ
 40
3.5
  9
$DIMEXO
 40
0.0625
  9
$DIMDLI
 40
0.38
  9
$DIMRND
 40
0.0
  9
$DIMDLE
 40
0.0
  9
$DIMEXE
 40
0.18
  9
$DIMTP
 40
0.0
  9
$DIMTM
 40
0.0
  9
$DIMTXT
 40
3.5
  9
$DIMCEN
 40
0.09
  9
$DIMTSZ
 40
0.0
  9
$DIMTOL
 70
     0
  9
$DIMLIM
 70
     0
  9
$DIMTIH
 70
     1
  9
$DIMTOH
 70
     1
  9
$DIMSE1
 70
     0
  9
$DIMSE2
 70
     0
  9
$DIMTAD
 70
     1
  9
$DIMZIN
 70
     0
  9
$DIMBLK
  1

  9
$DIMASO
 70
     1
  9
$DIMSHO
 70
     1
  9
$DIMPOST
  1

  9
$DIMAPOST
  1

  9
$DIMALT
 70
     0
  9
$DIMALTD
 70
     2
  9
$DIMALTF
 40
25.4
  9
$DIMLFAC
 40
1.0
  9
$DIMTOFL
 70
     0
  9
$DIMTVP
 40
0.0
  9
$DIMTIX
 70
     0
  9
$DIMSOXD
 70
     0
  9
$DIMSAH
 70
     0
  9
$DIMBLK1
  1

  9
$DIMBLK2
  1

  9
$DIMSTYLE
  2
STANDARD
  9
$DIMCLRD
 70
     0
  9
$DIMCLRE
 70
     0
  9
$DIMCLRT
 70
     0
  9
$DIMTFAC
 40
1.0
  9
$DIMGAP
 40
0.09
  9
$LUNITS
 70
     2
  9
$LUPREC
 70
     2
  9
$AXISMODE
 70
     0
  9
$AXISUNIT
 10
0.0
 20
0.0
  9
$SKETCHINC
 40
0.1
  9
$FILLETRAD
 40
0.0
  9
$AUNITS
 70
     0
  9
$AUPREC
 70
     0
  9
$MENU
  1
acad
  9
$ELEVATION
 40
0.0
  9
$PELEVATION
 40
0.0
  9
$THICKNESS
 40
0.0
  9
$LIMCHECK
 70
     0
  9
$BLIPMODE
 70
     1
  9
$CHAMFERA
 40
0.0
  9
$CHAMFERB
 40
0.0
  9
$SKPOLY
 70
     0
  9
$TDCREATE
 40
0.000000000
  9
$TDUPDATE
 40
0.000000000
  9
$TDINDWG
 40
0.0000000000
  9
$TDUSRTIMER
 40
0.0000000000
  9
$USRTIMER
 70
     1
  9
$ANGBASE
 50
0.0
  9
$ANGDIR
 70
     0
  9
$PDMODE
 70
     0
  9
$PDSIZE
 40
0.0
  9
$PLINEWID
 40
0.0
  9
$COORDS
 70
     0
  9
$SPLFRAME
 70
     0
  9
$SPLINETYPE
 70
     6
  9
$SPLINESEGS
 70
     8
  9
$ATTDIA
 70
     0
  9
$ATTREQ
 70
     1
  9
$HANDLING
 70
     1
  9
$HANDSEED
  5
6AF
  9
$SURFTAB1
 70
     6
  9
$SURFTAB2
 70
     6
  9
$SURFTYPE
 70
     6
  9
$SURFU
 70
     6
  9
$SURFV
 70
     6
  9
$UCSNAME
  2

  9
$UCSORG
 10
0.0
 20
0.0
 30
0.0
  9
$UCSXDIR
 10
1.0
 20
0.0
 30
0.0
  9
$UCSYDIR
 10
0.0
 20
1.0
 30
0.0
  9
$PUCSNAME
  2

  9
$PUCSORG
 10
0.0
 20
0.0
 30
0.0
  9
$PUCSXDIR
 10
1.0
 20
0.0
 30
0.0
  9
$PUCSYDIR
 10
0.0
 20
1.0
 30
0.0
  9
$USERI1
 70
     0
  9
$USERI2
 70
     0
  9
$USERI3
 70
     0
  9
$USERI4
 70
     0
  9
$USERI5
 70
     0
  9
$USERR1
 40
0.0
  9
$USERR2
 40
0.0
  9
$USERR3
 40
0.0
  9
$USERR4
 40
0.0
  9
$USERR5
 40
0.0
  9
$WORLDVIEW
 70
     1
  9
$SHADEDGE
 70
     3
  9
$SHADEDIF
 70
    70
  9
$TILEMODE
 70
     1
  9
$MAXACTVP
 70
    16
  9
$PINSBASE
 10
0.0
 20
0.0
 30
0.0
  9
$PLIMCHECK
 70
     0
  9
$PEXTMIN
 10
1.000000E+20
 20
1.000000E+20
 30
1.000000E+20
  9
$PEXTMAX
 10
-1.000000E+20
 20
-1.000000E+20
 30
-1.000000E+20
  9
$PLIMMIN
 10
-210.0
 20
-148.5
  9
$PLIMMAX
 10
630.0
 20
445.5
  9
$UNITMODE
 70
     0
  9
$VISRETAIN
 70
     0
  9
$PLINEGEN
 70
     1
  9
$PSLTSCALE
 70
     0
  9
$TREEDEPTH
 70
  3020
  9
$DWGCODEPAGE
  3
dos850
  0
ENDSEC
  0
SECTION
  2
TABLES
  0
TABLE
  2
VPORT
 70
     1
  0
VPORT
  2
*ACTIVE
 70
     0
 10
0.0
 20
0.0
 11
1.0
 21
1.0
 12
420.0
 22
297.0
 13
0.0
 23
0.0
 14
1.0
 24
1.0
 15
0.0
 25
0.0
 16
0.0
 26
0.0
 36
1.0
 17
-210.0
 27
-148.5
 37
0.0
 40
594.0
 41
1.604229
 42
50.0
 43
0.0
 44
0.0
 50
0.0
 51
0.0
 71
     0
 72
   100
 73
     1
 74
     1
 75
     0
 76
     0
 77
     0
 78
     0
  0
ENDTAB
  0
TABLE
  2
LTYPE
 70
     2
  0
LTYPE
  2
CONTINUOUS
 70
    64
  3
Solid line
 72
    65
 73
     0
 40
0.0
  0
LTYPE
  2
DASHDOT
 70
    64
  3
__ . __ . __ . __ . __
 72
    65
 73
     4
 40
7.5
 49
5.0
 49
-1.25
 49
0.0
 49
-1.25
  0
ENDTAB
  0
TABLE
  2
LAYER
 70
    10
  0
LAYER
  2
0
 70
     0
 62
     7
  6
CONTINUOUS
  0
LAYER
  2
LC-INFO-1-2-MM-A3-0
 70
     1
 62
    -1
  6
CONTINUOUS
  0
LAYER
  2
LC-002-005-----0
 70
     0
 62
     2
  6
CONTINUOUS
  0
LAYER
  2
LC-001-002-----0
 70
     0
 62
     1
  6
CONTINUOUS
  0
LAYER
  2
LC-006-003-MTH-0
 70
     0
 62
     2
  6
CONTINUOUS
  0
LAYER
  2
LC-007-003-MTG-0
 70
     0
 62
     2
  6
CONTINUOUS
  0
LAYER
  2
LC-005-003-----0
 70
     0
 62
     2
  6
CONTINUOUS
  0
LAYER
  2
LC-003-000-----0
 70
     0
 62
     7
  6
CONTINUOUS
  0
LAYER
  2
LC-004-002-RND-0
 70
     0
 62
     1
  6
CONTINUOUS
  0
LAYER
  2
LC-000
 70
     0
 62
     7
  6
CONTINUOUS
  0
ENDTAB
  0
TABLE
  2
STYLE
 70
     3
  0
STYLE
  2
STANDARD
 70
     0
 40
0.0
 41
1.0
 50
0.0
 71
     0
 42
0.0
  3
txt
  4

  0
STYLE
  2
LC-TXTSTYLE-150-400-0-0-A1
 70
    64
 40
0.0
 41
1.0
 50
15.0
 71
     0
 42
3.5
  3
Arial
  4

  0
STYLE
  2
LC-STANDARD
 70
    64
 40
0.0
 41
1.0
 50
0.0
 71
     0
 42
3.5
  3
MONOTXT
  4

  0
ENDTAB
  0
TABLE
  2
VIEW
 70
     0
  0
ENDTAB
  0
TABLE
  2
UCS
 70
     0
  0
ENDTAB
  0
TABLE
  2
APPID
 70
     1
  0
APPID
  2
ACAD
 70
     0
  0
ENDTAB
  0
TABLE
  2
DIMSTYLE
 70
     3
  0
DIMSTYLE
  2
STANDARD
 70
     0
  3

  4

  5

  6

  7

 40
1.0
 41
0.18
 42
0.0625
 43
0.38
 44
0.18
 45
0.0
 46
0.0
 47
0.0
 48
0.0
 71
     0
 72
     0
 73
     1
 74
     1
 75
     0
 76
     0
 77
     0
 78
     0
140
0.18
141
0.09
142
0.0
143
25.4
144
1.0
145
0.0
146
1.0
147
0.09
170
     0
171
     2
172
     0
173
     0
174
     0
175
     0
176
     0
177
     0
178
     0
  0
DIMSTYLE
  2
LC-STANDARD
 70
     0
  3

  4

  5

  6

  7

 40
1.0
 41
3.5
 42
0.0
 43
7.5
 44
1.8
 45
0.0
 46
0.0
 47
0.0
 48
0.0
 71
     0
 72
     0
 73
     0
 74
     0
 75
     0
 76
     0
 77
     1
 78
     8
140
3.5
141
0.0
142
0.0
143
25.4
144
1.0
145
0.0
146
0.71
147
1.5
170
     0
171
     2
172
     1
173
     0
174
     0
175
     0
176
     0
177
     0
178
     3
  0
DIMSTYLE
  2
LC-DIM-L-0140-02-02
 70
     0
  3

  4

  5

  6

  7

 40
2.0
 41
3.5
 42
0.0
 43
7.5
 44
1.8
 45
0.0
 46
0.0
 47
0.0
 48
0.0
 71
     0
 72
     0
 73
     0
 74
     0
 75
     0
 76
     0
 77
     1
 78
     8
140
14.0
141
0.0
142
0.0
143
25.4
144
1.0
145
0.0
146
0.71
147
1.5
170
     0
171
     2
172
     0
173
     0
174
     0
175
     0
176
     2
177
     2
178
     8
  0
ENDTAB
  0
ENDSEC
  0
SECTION
  2
BLOCKS
  0
BLOCK
  8
0
  5
23
  2
*X0
 70
    65
 10
-62.68432
 20
219.808114
 30
0.0
  3
*X0
  0
LINE
  8
LC-002-005-----0
  6
CONTINUOUS
  5
25
 10
89.372039
 20
222.308114
 30
0.0
 11
91.81568
 21
224.751755
 31
0.0
  0
LINE
  8
LC-002-005-----0
  6
CONTINUOUS
  5
26
 10
87.81568
 20
223.580182
 30
0.0
 11
91.043612
 21
226.808114
 31
0.0
  0
LINE
  8
LC-002-005-----0
  6
CONTINUOUS
  5
27
 10
81.215185
 20
219.808114
 30
0.0
 11
83.31568
 21
221.908609
 31
0.0
  0
LINE
  8
LC-002-005-----0
  6
CONTINUOUS
  5
28
 10
85.715185
 20
224.308114
 30
0.0
 11
89.215185
 21
227.808114
 31
0.0
  0
LINE
  8
LC-002-005-----0
  6
CONTINUOUS
  5
29
 10
79.448383
 20
220.869739
 30
0.0
 11
86.386757
 21
227.808114
 31
0.0
  0
LINE
  8
LC-002-005-----0
  6
CONTINUOUS
  5
2A
 10
79.852444
 20
224.102227
 30
0.0
 11
83.55833
 21
227.808114
 31
0.0
  0
LINE
  8
LC-002-005-----0
  6
CONTINUOUS
  5
2B
 10
80.256505
 20
227.334715
 30
0.0
 11
80.729903
 21
227.808114
 31
0.0
  0
LINE
  8
LC-002-005-----0
  6
CONTINUOUS
  5
2C
 10
-51.72089
 20
219.808114
 30
0.0
 11
-50.35505
 21
221.173954
 31
0.0
  0
LINE
  8
LC-002-005-----0
  6
CONTINUOUS
  5
2D
 10
-54.18432
 20
220.173111
 30
0.0
 11
-50.66932
 21
223.688111
 31
0.0
  0
LINE
  8
LC-002-005-----0
  6
CONTINUOUS
  5
2E
 10
-54.18432
 20
223.001538
 30
0.0
 11
-50.98359
 21
226.202269
 31
0.0
  0
LINE
  8
LC-002-005-----0
  6
CONTINUOUS
  5
2F
 10
-55.706172
 20
224.308114
 30
0.0
 11
-52.206172
 21
227.808114
 31
0.0
  0
LINE
  8
LC-002-005-----0
  6
CONTINUOUS
  5
30
 10
-60.534599
 20
222.308114
 30
0.0
 11
-58.68432
 21
224.158392
 31
0.0
  0
LINE
  8
LC-002-005-----0
  6
CONTINUOUS
  5
31
 10
-58.534599
 20
224.308114
 30
0.0
 11
-55.034599
 21
227.808114
 31
0.0
  0
LINE
  8
LC-002-005-----0
  6
CONTINUOUS
  5
32
 10
-62.523673
 20
223.147466
 30
0.0
 11
-57.863026
 21
227.808114
 31
0.0
  0
LINE
  8
LC-002-005-----0
  6
CONTINUOUS
  5
33
 10
-62.68432
 20
225.815246
 30
0.0
 11
-61.691453
 21
226.808114
 31
0.0
  0
LINE
  8
LC-002-005-----0
  6
CONTINUOUS
  5
34
 10
-61.68432
 20
226.815246
 30
0.0
 11
-60.691453
 21
227.808114
 31
0.0
  0
ENDBLK
  8
0
  5
35
  0
BLOCK
  8
0
  5
37
  2
BLK1
 70
    64
 10
0.0
 20
0.0
 30
0.0
  3
BLK1
  0
ENDBLK
  8
0
  5
38
  0
BLOCK
  8
0
  5
3A
  2
*X2
 70
    65
 10
-110.434341
 20
231.52302
 30
0.0
  3
*X2
  0
LINE
  8
LC-002-005-----0
  6
CONTINUOUS
  5
3B
 10
-68.290251
 20
231.523025
 30
0.0
 11
-67.290248
 21
232.523027
 31
0.0
  0
LINE
  8
LC-002-005-----0
  6
CONTINUOUS
  5
3C
 10
-69.704467
 20
231.523022
 30
0.0
 11
-68.704465
 21
232.523024
 31
0.0
  0
LINE
  8
LC-002-005-----0
  6
CONTINUOUS
  5
3D
 10
-71.005609
 20
231.636093
 30
0.0
 11
-70.118682
 21
232.523021
 31
0.0
  0
LINE
  8
LC-002-005-----0
  6
CONTINUOUS
  5
3E
 10
-71.751132
 20
232.304784
 30
0.0
 11
-70.934265
 21
233.121651
 31
0.0
  0
LINE
  8
LC-002-005-----0
  6
CONTINUOUS
  5
3F
 10
-71.934265
 20
233.535864
 30
0.0
 11
-70.934626
 21
234.535503
 31
0.0
  0
LINE
  8
LC-002-005-----0
  6
CONTINUOUS
  5
40
 10
-72.055424
 20
234.828919
 30
0.0
 11
-71.347666
 21
235.536677
 31
0.0
  0
LINE
  8
LC-002-005-----0
  6
CONTINUOUS
  5
41
 10
-73.29595
 20
235.002606
 30
0.0
 11
-72.30181
 21
235.996747
 31
0.0
  0
LINE
  8
LC-002-005-----0
  6
CONTINUOUS
  5
42
 10
-74.710164
 20
235.002606
 30
0.0
 11
-73.710164
 21
236.002606
 31
0.0
  0
LINE
  8
LC-002-005-----0
  6
CONTINUOUS
  5
43
 10
-75.934274
 20
235.19271
 30
0.0
 11
-75.124377
 21
236.002606
 31
0.0
  0
LINE
  8
LC-002-005-----0
  6
CONTINUOUS
  5
44
 10
-83.195149
 20
235.002903
 30
0.0
 11
-82.934274
 21
235.263778
 31
0.0
  0
LINE
  8
LC-002-005-----0
  6
CONTINUOUS
  5
45
 10
-84.609659
 20
235.002606
 30
0.0
 11
-83.609659
 21
236.002606
 31
0.0
  0
LINE
  8
LC-002-005-----0
  6
CONTINUOUS
  5
46
 10
-85.93709
 20
235.089389
 30
0.0
 11
-85.023872
 21
236.002606
 31
0.0
  0
LINE
  8
LC-002-005-----0
  6
CONTINUOUS
  5
47
 10
-86.716497
 20
235.724195
 30
0.0
 11
-85.934281
 21
236.506411
 31
0.0
  0
LINE
  8
LC-002-005-----0
  6
CONTINUOUS
  5
48
 10
-86.934281
 20
236.920624
 30
0.0
 11
-85.934281
 21
237.920624
 31
0.0
  0
LINE
  8
LC-002-005-----0
  6
CONTINUOUS
  5
49
 10
-86.934281
 20
238.334838
 30
0.0
 11
-85.934281
 21
239.334838
 31
0.0
  0
LINE
  8
LC-002-005-----0
  6
CONTINUOUS
  5
4A
 10
-86.934281
 20
239.749052
 30
0.0
 11
-85.934281
 21
240.749052
 31
0.0
  0
LINE
  8
LC-002-005-----0
  6
CONTINUOUS
  5
4B
 10
-86.934281
 20
241.163265
 30
0.0
 11
-85.934281
 21
242.163265
 31
0.0
  0
LINE
  8
LC-002-005-----0
  6
CONTINUOUS
  5
4C
 10
-86.934281
 20
242.577479
 30
0.0
 11
-85.934281
 21
243.577479
 31
0.0
  0
LINE
  8
LC-002-005-----0
  6
CONTINUOUS
  5
4D
 10
-86.934281
 20
243.991692
 30
0.0
 11
-85.934281
 21
244.991692
 31
0.0
  0
LINE
  8
LC-002-005-----0
  6
CONTINUOUS
  5
4E
 10
-86.934281
 20
245.405906
 30
0.0
 11
-85.934281
 21
246.405906
 31
0.0
  0
LINE
  8
LC-002-005-----0
  6
CONTINUOUS
  5
4F
 10
-86.934281
 20
246.820119
 30
0.0
 11
-85.934281
 21
247.820119
 31
0.0
  0
LINE
  8
LC-002-005-----0
  6
CONTINUOUS
  5
50
 10
-86.949685
 20
248.21893
 30
0.0
 11
-86.208408
 21
248.960207
 31
0.0
  0
LINE
  8
LC-002-005-----0
  6
CONTINUOUS
  5
51
 10
-87.816018
 20
248.76681
 30
0.0
 11
-87.035812
 21
249.547016
 31
0.0
  0
LINE
  8
LC-002-005-----0
  6
CONTINUOUS
  5
52
 10
-88.852854
 20
249.144187
 30
0.0
 11
-88.072648
 21
249.924393
 31
0.0
  0
LINE
  8
LC-002-005-----0
  6
CONTINUOUS
  5
53
 10
-89.88969
 20
249.521565
 30
0.0
 11
-89.109484
 21
250.301771
 31
0.0
  0
LINE
  8
LC-002-005-----0
  6
CONTINUOUS
  5
54
 10
-90.926526
 20
249.898942
 30
0.0
 11
-90.14632
 21
250.679148
 31
0.0
  0
LINE
  8
LC-002-005-----0
  6
CONTINUOUS
  5
55
 10
-91.963363
 20
250.27632
 30
0.0
 11
-91.183157
 21
251.056526
 31
0.0
  0
LINE
  8
LC-002-005-----0
  6
CONTINUOUS
  5
56
 10
-93.000199
 20
250.653697
 30
0.0
 11
-92.219993
 21
251.433903
 31
0.0
  0
LINE
  8
LC-002-005-----0
  6
CONTINUOUS
  5
57
 10
-94.037035
 20
251.031075
 30
0.0
 11
-93.256829
 21
251.811281
 31
0.0
  0
LINE
  8
LC-002-005-----0
  6
CONTINUOUS
  5
58
 10
-95.073871
 20
251.408452
 30
0.0
 11
-94.293665
 21
252.188658
 31
0.0
  0
LINE
  8
LC-002-005-----0
  6
CONTINUOUS
  5
59
 10
-96.110707
 20
251.785829
 30
0.0
 11
-95.330501
 21
252.566035
 31
0.0
  0
LINE
  8
LC-002-005-----0
  6
CONTINUOUS
  5
5A
 10
-97.147543
 20
252.163207
 30
0.0
 11
-96.367337
 21
252.943413
 31
0.0
  0
LINE
  8
LC-002-005-----0
  6
CONTINUOUS
  5
5B
 10
-98.184379
 20
252.540584
 30
0.0
 11
-97.404173
 21
253.32079
 31
0.0
  0
LINE
  8
LC-002-005-----0
  6
CONTINUOUS
  5
5C
 10
-99.221215
 20
252.917962
 30
0.0
 11
-98.441009
 21
253.698168
 31
0.0
  0
LINE
  8
LC-002-005-----0
  6
CONTINUOUS
  5
5D
 10
-100.258051
 20
253.295339
 30
0.0
 11
-99.477845
 21
254.075545
 31
0.0
  0
LINE
  8
LC-002-005-----0
  6
CONTINUOUS
  5
5E
 10
-101.294887
 20
253.672717
 30
0.0
 11
-100.514681
 21
254.452923
 31
0.0
  0
LINE
  8
LC-002-005-----0
  6
CONTINUOUS
  5
5F
 10
-102.331723
 20
254.050094
 30
0.0
 11
-101.551517
 21
254.8303
 31
0.0
  0
LINE
  8
LC-002-005-----0
  6
CONTINUOUS
  5
60
 10
-103.368559
 20
254.427472
 30
0.0
 11
-102.588353
 21
255.207678
 31
0.0
  0
LINE
  8
LC-002-005-----0
  6
CONTINUOUS
  5
61
 10
-104.405396
 20
254.804849
 30
0.0
 11
-103.62519
 21
255.585055
 31
0.0
  0
LINE
  8
LC-002-005-----0
  6
CONTINUOUS
  5
62
 10
-105.442232
 20
255.182227
 30
0.0
 11
-104.662026
 21
255.962433
 31
0.0
  0
LINE
  8
LC-002-005-----0
  6
CONTINUOUS
  5
63
 10
-106.479068
 20
255.559604
 30
0.0
 11
-105.698862
 21
256.33981
 31
0.0
  0
LINE
  8
LC-002-005-----0
  6
CONTINUOUS
  5
64
 10
-107.515904
 20
255.936982
 30
0.0
 11
-106.735698
 21
256.717188
 31
0.0
  0
LINE
  8
LC-002-005-----0
  6
CONTINUOUS
  5
65
 10
-108.55274
 20
256.314359
 30
0.0
 11
-107.772534
 21
257.094565
 31
0.0
  0
LINE
  8
LC-002-005-----0
  6
CONTINUOUS
  5
66
 10
-109.589576
 20
256.691737
 30
0.0
 11
-108.80937
 21
257.471943
 31
0.0
  0
LINE
  8
LC-002-005-----0
  6
CONTINUOUS
  5
67
 10
-110.284423
 20
257.411104
 30
0.0
 11
-109.846206
 21
257.84932
 31
0.0
  0
ENDBLK
  8
0
  5
68
  0
BLOCK
  8
0
  5
6A
  2
*X3
 70
    65
 10
96.066349
 20
231.523536
 30
0.0
  3
*X3
  0
LINE
  8
LC-002-005-----0
  6
CONTINUOUS
  5
6B
 10
137.427987
 20
256.221926
 30
0.0
 11
139.101167
 21
257.895106
 31
0.0
  0
LINE
  8
LC-002-005-----0
  6
CONTINUOUS
  5
6C
 10
114.816127
 20
235.02428
 30
0.0
 11
116.044684
 21
236.252837
 31
0.0
  0
LINE
  8
LC-002-005-----0
  6
CONTINUOUS
  5
6D
 10
135.20446
 20
255.412613
 30
0.0
 11
136.87764
 21
257.085792
 31
0.0
  0
LINE
  8
LC-002-005-----0
  6
CONTINUOUS
  5
6E
 10
113.380859
 20
235.003226
 30
0.0
 11
114.380866
 21
236.003232
 31
0.0
  0
LINE
  8
LC-002-005-----0
  6
CONTINUOUS
  5
6F
 10
115.065717
 20
236.688084
 30
0.0
 11
116.065723
 21
237.688089
 31
0.0
  0
LINE
  8
LC-002-005-----0
  6
CONTINUOUS
  5
70
 10
132.980933
 20
254.603299
 30
0.0
 11
134.654113
 21
256.276479
 31
0.0
  0
LINE
  8
LC-002-005-----0
  6
CONTINUOUS
  5
71
 10
112.065732
 20
235.102312
 30
0.0
 11
112.966643
 21
236.003223
 31
0.0
  0
LINE
  8
LC-002-005-----0
  6
CONTINUOUS
  5
72
 10
115.065708
 20
238.102288
 30
0.0
 11
116.065713
 21
239.102293
 31
0.0
  0
LINE
  8
LC-002-005-----0
  6
CONTINUOUS
  5
73
 10
130.757406
 20
253.793986
 30
0.0
 11
132.430586
 21
255.467166
 31
0.0
  0
LINE
  8
LC-002-005-----0
  6
CONTINUOUS
  5
74
 10
115.065698
 20
239.516491
 30
0.0
 11
116.065704
 21
240.516497
 31
0.0
  0
LINE
  8
LC-002-005-----0
  6
CONTINUOUS
  5
75
 10
128.533879
 20
252.984673
 30
0.0
 11
130.207059
 21
254.657852
 31
0.0
  0
LINE
  8
LC-002-005-----0
  6
CONTINUOUS
  5
76
 10
115.065688
 20
240.930695
 30
0.0
 11
116.065694
 21
241.930701
 31
0.0
  0
LINE
  8
LC-002-005-----0
  6
CONTINUOUS
  5
77
 10
126.310352
 20
252.175359
 30
0.0
 11
127.983532
 21
253.848539
 31
0.0
  0
LINE
  8
LC-002-005-----0
  6
CONTINUOUS
  5
78
 10
115.065679
 20
242.344899
 30
0.0
 11
116.065684
 21
243.344905
 31
0.0
  0
LINE
  8
LC-002-005-----0
  6
CONTINUOUS
  5
79
 10
124.086825
 20
251.366046
 30
0.0
 11
125.760005
 21
253.039225
 31
0.0
  0
LINE
  8
LC-002-005-----0
  6
CONTINUOUS
  5
7A
 10
115.065669
 20
243.759103
 30
0.0
 11
116.065675
 21
244.759109
 31
0.0
  0
LINE
  8
LC-002-005-----0
  6
CONTINUOUS
  5
7B
 10
121.863298
 20
250.556732
 30
0.0
 11
123.536478
 21
252.229912
 31
0.0
  0
LINE
  8
LC-002-005-----0
  6
CONTINUOUS
  5
7C
 10
104.895525
 20
235.003172
 30
0.0
 11
105.065732
 21
235.173379
 31
0.0
  0
LINE
  8
LC-002-005-----0
  6
CONTINUOUS
  5
7D
 10
115.065659
 20
245.173307
 30
0.0
 11
116.065665
 21
246.173313
 31
0.0
  0
LINE
  8
LC-002-005-----0
  6
CONTINUOUS
  5
7E
 10
119.639771
 20
249.747419
 30
0.0
 11
121.312951
 21
251.420599
 31
0.0
  0
LINE
  8
LC-002-005-----0
  6
CONTINUOUS
  5
7F
 10
100.100105
 20
231.621967
 30
0.0
 11
100.967316
 21
232.489177
 31
0.0
  0
LINE
  8
LC-002-005-----0
  6
CONTINUOUS
  5
80
 10
103.481302
 20
235.003164
 30
0.0
 11
104.481308
 21
236.00317
 31
0.0
  0
LINE
  8
LC-002-005-----0
  6
CONTINUOUS
  5
81
 10
115.065649
 20
246.587511
 30
0.0
 11
116.065655
 21
247.587516
 31
0.0
  0
LINE
  8
LC-002-005-----0
  6
CONTINUOUS
  5
82
 10
117.416244
 20
248.938106
 30
0.0
 11
119.089424
 21
250.611285
 31
0.0
  0
LINE
  8
LC-002-005-----0
  6
CONTINUOUS
  5
83
 10
98.587473
 20
231.523548
 30
0.0
 11
99.587973
 21
232.524048
 31
0.0
  0
LINE
  8
LC-002-005-----0
  6
CONTINUOUS
  5
84
 10
100.065235
 20
233.00131
 30
0.0
 11
101.065728
 21
234.001803
 31
0.0
  0
LINE
  8
LC-002-005-----0
  6
CONTINUOUS
  5
85
 10
102.06708
 20
235.003155
 30
0.0
 11
103.067086
 21
236.003161
 31
0.0
  0
LINE
  8
LC-002-005-----0
  6
CONTINUOUS
  5
86
 10
115.06564
 20
248.001715
 30
0.0
 11
116.865897
 21
249.801972
 31
0.0
  0
LINE
  8
LC-002-005-----0
  6
CONTINUOUS
  5
87
 10
97.173253
 20
231.523541
 30
0.0
 11
98.173258
 21
232.523546
 31
0.0
  0
LINE
  8
LC-002-005-----0
  6
CONTINUOUS
  5
88
 10
100.065728
 20
234.416016
 30
0.0
 11
101.652864
 21
236.003152
 31
0.0
  0
LINE
  8
LC-002-005-----0
  6
CONTINUOUS
  5
89
 10
96.066354
 20
231.830856
 30
0.0
 11
96.759037
 21
232.523539
 31
0.0
  0
ENDBLK
  8
0
  5
8A
  0
BLOCK
  8
0
  5
8C
  2
BLK2
 70
    64
 10
0.0
 20
0.0
 30
0.0
  3
BLK2
  0
ENDBLK
  8
0
  5
8D
  0
BLOCK
  8
0
  5
8F
  2
*X5
 70
    65
 10
88.56543
 20
232.950018
 30
0.0
  3
*X5
  0
LINE
  8
LC-002-005-----0
  6
CONTINUOUS
  5
90
 10
105.002859
 20
258.450026
 30
0.0
 11
104.002859
 21
259.450026
 31
0.0
  0
LINE
  8
LC-002-005-----0
  6
CONTINUOUS
  5
91
 10
103.588646
 20
258.450026
 30
0.0
 11
102.880539
 21
259.158133
 31
0.0
  0
LINE
  8
LC-002-005-----0
  6
CONTINUOUS
  5
92
 10
102.880539
 20
257.74392
 30
0.0
 11
102.173432
 21
258.451027
 31
0.0
  0
LINE
  8
LC-002-005-----0
  6
CONTINUOUS
  5
93
 10
102.142727
 20
257.067517
 30
0.0
 11
101.260188
 21
257.950057
 31
0.0
  0
LINE
  8
LC-002-005-----0
  6
CONTINUOUS
  5
94
 10
100.846005
 20
256.950026
 30
0.0
 11
99.845981
 21
257.95005
 31
0.0
  0
LINE
  8
LC-002-005-----0
  6
CONTINUOUS
  5
95
 10
99.431792
 20
256.950025
 30
0.0
 11
98.431773
 21
257.950044
 31
0.0
  0
LINE
  8
LC-002-005-----0
  6
CONTINUOUS
  5
96
 10
98.017579
 20
256.950025
 30
0.0
 11
97.017566
 21
257.950038
 31
0.0
  0
LINE
  8
LC-002-005-----0
  6
CONTINUOUS
  5
97
 10
96.603366
 20
256.950024
 30
0.0
 11
95.723816
 21
257.829574
 31
0.0
  0
LINE
  8
LC-002-005-----0
  6
CONTINUOUS
  5
98
 10
95.49788
 20
256.641297
 30
0.0
 11
94.779
 21
257.360177
 31
0.0
  0
LINE
  8
LC-002-005-----0
  6
CONTINUOUS
  5
99
 10
94.812305
 20
255.912659
 30
0.0
 11
94.085987
 21
256.638977
 31
0.0
  0
LINE
  8
LC-002-005-----0
  6
CONTINUOUS
  5
9A
 10
94.565398
 20
254.745352
 30
0.0
 11
93.650643
 21
255.660107
 31
0.0
  0
LINE
  8
LC-002-005-----0
  6
CONTINUOUS
  5
9B
 10
94.565401
 20
253.331135
 30
0.0
 11
93.565399
 21
254.331137
 31
0.0
  0
LINE
  8
LC-002-005-----0
  6
CONTINUOUS
  5
9C
 10
94.565404
 20
251.916919
 30
0.0
 11
93.565402
 21
252.916921
 31
0.0
  0
LINE
  8
LC-002-005-----0
  6
CONTINUOUS
  5
9D
 10
94.565407
 20
250.502702
 30
0.0
 11
93.565405
 21
251.502704
 31
0.0
  0
LINE
  8
LC-002-005-----0
  6
CONTINUOUS
  5
9E
 10
94.56541
 20
249.088486
 30
0.0
 11
93.565408
 21
250.088488
 31
0.0
  0
LINE
  8
LC-002-005-----0
  6
CONTINUOUS
  5
9F
 10
94.565413
 20
247.67427
 30
0.0
 11
93.565411
 21
248.674272
 31
0.0
  0
LINE
  8
LC-002-005-----0
  6
CONTINUOUS
  5
A0
 10
94.565415
 20
246.260053
 30
0.0
 11
93.565413
 21
247.260055
 31
0.0
  0
LINE
  8
LC-002-005-----0
  6
CONTINUOUS
  5
A1
 10
94.565418
 20
244.845837
 30
0.0
 11
93.565416
 21
245.845839
 31
0.0
  0
LINE
  8
LC-002-005-----0
  6
CONTINUOUS
  5
A2
 10
94.565421
 20
243.43162
 30
0.0
 11
93.565419
 21
244.431622
 31
0.0
  0
LINE
  8
LC-002-005-----0
  6
CONTINUOUS
  5
A3
 10
94.565424
 20
242.017404
 30
0.0
 11
93.565422
 21
243.017406
 31
0.0
  0
LINE
  8
LC-002-005-----0
  6
CONTINUOUS
  5
A4
 10
94.565427
 20
240.603187
 30
0.0
 11
93.565425
 21
241.603189
 31
0.0
  0
LINE
  8
LC-002-005-----0
  6
CONTINUOUS
  5
A5
 10
94.56543
 20
239.188971
 30
0.0
 11
93.565428
 21
240.188973
 31
0.0
  0
LINE
  8
LC-002-005-----0
  6
CONTINUOUS
  5
A6
 10
94.392895
 20
237.947292
 30
0.0
 11
93.558346
 21
238.781841
 31
0.0
  0
LINE
  8
LC-002-005-----0
  6
CONTINUOUS
  5
A7
 10
93.882062
 20
237.043911
 30
0.0
 11
93.169929
 21
237.756045
 31
0.0
  0
LINE
  8
LC-002-005-----0
  6
CONTINUOUS
  5
A8
 10
93.124695
 20
236.387065
 30
0.0
 11
92.38576
 21
237.126
 31
0.0
  0
LINE
  8
LC-002-005-----0
  6
CONTINUOUS
  5
A9
 10
92.099597
 20
235.997949
 30
0.0
 11
91.147524
 21
236.950022
 31
0.0
  0
LINE
  8
LC-002-005-----0
  6
CONTINUOUS
  5
AA
 10
90.806071
 20
235.877262
 30
0.0
 11
90.092203
 21
236.59113
 31
0.0
  0
LINE
  8
LC-002-005-----0
  6
CONTINUOUS
  5
AB
 10
90.565794
 20
234.703325
 30
0.0
 11
89.584284
 21
235.684835
 31
0.0
  0
LINE
  8
LC-002-005-----0
  6
CONTINUOUS
  5
AC
 10
90.5658
 20
233.289105
 30
0.0
 11
89.565796
 21
234.28911
 31
0.0
  0
ENDBLK
  8
0
  5
AD
  0
BLOCK
  8
0
  5
AF
  2
*X6
 70
    65
 10
112.065325
 20
256.950018
 30
0.0
  3
*X6
  0
LINE
  8
LC-002-005-----0
  6
CONTINUOUS
  5
B0
 10
138.877278
 20
262.759374
 30
0.0
 11
138.479025
 21
263.157626
 31
0.0
  0
LINE
  8
LC-002-005-----0
  6
CONTINUOUS
  5
B1
 10
138.247437
 20
261.975001
 30
0.0
 11
137.53844
 21
262.683998
 31
0.0
  0
LINE
  8
LC-002-005-----0
  6
CONTINUOUS
  5
B2
 10
137.373493
 20
261.434732
 30
0.0
 11
136.567758
 21
262.240467
 31
0.0
  0
LINE
  8
LC-002-005-----0
  6
CONTINUOUS
  5
B3
 10
136.24458
 20
261.149431
 30
0.0
 11
135.401455
 21
261.992556
 31
0.0
  0
LINE
  8
LC-002-005-----0
  6
CONTINUOUS
  5
B4
 10
135.078277
 20
260.90152
 30
0.0
 11
134.235152
 21
261.744646
 31
0.0
  0
LINE
  8
LC-002-005-----0
  6
CONTINUOUS
  5
B5
 10
133.911975
 20
260.653609
 30
0.0
 11
133.068849
 21
261.496735
 31
0.0
  0
LINE
  8
LC-002-005-----0
  6
CONTINUOUS
  5
B6
 10
132.745672
 20
260.405699
 30
0.0
 11
131.902546
 21
261.248825
 31
0.0
  0
LINE
  8
LC-002-005-----0
  6
CONTINUOUS
  5
B7
 10
131.579369
 20
260.157788
 30
0.0
 11
130.736243
 21
261.000914
 31
0.0
  0
LINE
  8
LC-002-005-----0
  6
CONTINUOUS
  5
B8
 10
130.413066
 20
259.909878
 30
0.0
 11
129.56994
 21
260.753003
 31
0.0
  0
LINE
  8
LC-002-005-----0
  6
CONTINUOUS
  5
B9
 10
129.246763
 20
259.661967
 30
0.0
 11
128.403637
 21
260.505093
 31
0.0
  0
LINE
  8
LC-002-005-----0
  6
CONTINUOUS
  5
BA
 10
128.08046
 20
259.414056
 30
0.0
 11
127.237334
 21
260.257182
 31
0.0
  0
LINE
  8
LC-002-005-----0
  6
CONTINUOUS
  5
BB
 10
126.914157
 20
259.166146
 30
0.0
 11
126.071031
 21
260.009271
 31
0.0
  0
LINE
  8
LC-002-005-----0
  6
CONTINUOUS
  5
BC
 10
125.747854
 20
258.918235
 30
0.0
 11
124.904728
 21
259.761361
 31
0.0
  0
LINE
  8
LC-002-005-----0
  6
CONTINUOUS
  5
BD
 10
124.581551
 20
258.670324
 30
0.0
 11
123.738425
 21
259.51345
 31
0.0
  0
LINE
  8
LC-002-005-----0
  6
CONTINUOUS
  5
BE
 10
123.415248
 20
258.422414
 30
0.0
 11
122.572122
 21
259.26554
 31
0.0
  0
LINE
  8
LC-002-005-----0
  6
CONTINUOUS
  5
BF
 10
122.248945
 20
258.174503
 30
0.0
 11
121.405819
 21
259.017629
 31
0.0
  0
LINE
  8
LC-002-005-----0
  6
CONTINUOUS
  5
C0
 10
121.082642
 20
257.926593
 30
0.0
 11
120.239516
 21
258.769718
 31
0.0
  0
LINE
  8
LC-002-005-----0
  6
CONTINUOUS
  5
C1
 10
119.916339
 20
257.678682
 30
0.0
 11
119.073213
 21
258.521808
 31
0.0
  0
LINE
  8
LC-002-005-----0
  6
CONTINUOUS
  5
C2
 10
118.750036
 20
257.430771
 30
0.0
 11
117.90691
 21
258.273897
 31
0.0
  0
LINE
  8
LC-002-005-----0
  6
CONTINUOUS
  5
C3
 10
117.583733
 20
257.182861
 30
0.0
 11
116.740607
 21
258.025987
 31
0.0
  0
LINE
  8
LC-002-005-----0
  6
CONTINUOUS
  5
C4
 10
116.402362
 20
256.950019
 30
0.0
 11
114.026401
 21
259.32598
 31
0.0
  0
LINE
  8
LC-002-005-----0
  6
CONTINUOUS
  5
C5
 10
113.48814
 20
258.450027
 30
0.0
 11
112.48814
 21
259.450026
 31
0.0
  0
LINE
  8
LC-002-005-----0
  6
CONTINUOUS
  5
C6
 10
112.073927
 20
258.450027
 30
0.0
 11
112.065325
 21
258.458629
 31
0.0
  0
ENDBLK
  8
0
  5
C7
  0
BLOCK
  8
0
  5
C9
  2
*X7
 70
    65
 10
-110.124945
 20
256.949577
 30
0.0
  3
*X7
  0
LINE
  8
LC-002-005-----0
  6
CONTINUOUS
  5
CA
 10
-83.087123
 20
258.449604
 30
0.0
 11
-84.087118
 21
259.4496
 31
0.0
  0
LINE
  8
LC-002-005-----0
  6
CONTINUOUS
  5
CB
 10
-84.456991
 20
258.405259
 30
0.0
 11
-85.165856
 21
259.114124
 31
0.0
  0
LINE
  8
LC-002-005-----0
  6
CONTINUOUS
  5
CC
 10
-85.164094
 20
257.698149
 30
0.0
 11
-85.901008
 21
258.435062
 31
0.0
  0
LINE
  8
LC-002-005-----0
  6
CONTINUOUS
  5
CD
 10
-85.917416
 20
257.037257
 30
0.0
 11
-86.829743
 21
257.949584
 31
0.0
  0
LINE
  8
LC-002-005-----0
  6
CONTINUOUS
  5
CE
 10
-87.243951
 20
256.949579
 30
0.0
 11
-88.511748
 21
258.217376
 31
0.0
  0
LINE
  8
LC-002-005-----0
  6
CONTINUOUS
  5
CF
 10
-89.0094
 20
257.300814
 30
0.0
 11
-90.307704
 21
258.599118
 31
0.0
  0
LINE
  8
LC-002-005-----0
  6
CONTINUOUS
  5
D0
 10
-90.805356
 20
257.682557
 30
0.0
 11
-92.10366
 21
258.98086
 31
0.0
  0
LINE
  8
LC-002-005-----0
  6
CONTINUOUS
  5
D1
 10
-92.601312
 20
258.064299
 30
0.0
 11
-93.899616
 21
259.362602
 31
0.0
  0
LINE
  8
LC-002-005-----0
  6
CONTINUOUS
  5
D2
 10
-94.397268
 20
258.446041
 30
0.0
 11
-95.695571
 21
259.744344
 31
0.0
  0
LINE
  8
LC-002-005-----0
  6
CONTINUOUS
  5
D3
 10
-96.193223
 20
258.827783
 30
0.0
 11
-97.491527
 21
260.126087
 31
0.0
  0
LINE
  8
LC-002-005-----0
  6
CONTINUOUS
  5
D4
 10
-97.989179
 20
259.209525
 30
0.0
 11
-99.287483
 21
260.507829
 31
0.0
  0
LINE
  8
LC-002-005-----0
  6
CONTINUOUS
  5
D5
 10
-99.785135
 20
259.591267
 30
0.0
 11
-101.083438
 21
260.889571
 31
0.0
  0
LINE
  8
LC-002-005-----0
  6
CONTINUOUS
  5
D6
 10
-101.581091
 20
259.97301
 30
0.0
 11
-102.879394
 21
261.271313
 31
0.0
  0
LINE
  8
LC-002-005-----0
  6
CONTINUOUS
  5
D7
 10
-103.377046
 20
260.354752
 30
0.0
 11
-104.67535
 21
261.653055
 31
0.0
  0
LINE
  8
LC-002-005-----0
  6
CONTINUOUS
  5
D8
 10
-105.173002
 20
260.736494
 30
0.0
 11
-106.471306
 21
262.034798
 31
0.0
  0
LINE
  8
LC-002-005-----0
  6
CONTINUOUS
  5
D9
 10
-106.968958
 20
261.118236
 30
0.0
 11
-109.003173
 21
263.152451
 31
0.0
  0
ENDBLK
  8
0
  5
DA
  0
BLOCK
  8
0
  5
DC
  2
*X8
 70
    65
 10
-75.933976
 20
232.949694
 30
0.0
  3
*X8
  0
LINE
  8
LC-002-005-----0
  6
CONTINUOUS
  5
DD
 10
-64.465715
 20
255.384546
 30
0.0
 11
-66.999166
 21
257.917997
 31
0.0
  0
LINE
  8
LC-002-005-----0
  6
CONTINUOUS
  5
DE
 10
-64.434027
 20
253.938645
 30
0.0
 11
-65.43403
 21
254.938647
 31
0.0
  0
LINE
  8
LC-002-005-----0
  6
CONTINUOUS
  5
DF
 10
-67.445052
 20
256.94967
 30
0.0
 11
-68.445064
 21
257.949682
 31
0.0
  0
LINE
  8
LC-002-005-----0
  6
CONTINUOUS
  5
E0
 10
-64.434024
 20
252.524428
 30
0.0
 11
-65.434026
 21
253.52443
 31
0.0
  0
LINE
  8
LC-002-005-----0
  6
CONTINUOUS
  5
E1
 10
-68.85926
 20
256.949664
 30
0.0
 11
-69.859278
 21
257.949682
 31
0.0
  0
LINE
  8
LC-002-005-----0
  6
CONTINUOUS
  5
E2
 10
-64.434021
 20
251.110211
 30
0.0
 11
-65.434023
 21
252.110213
 31
0.0
  0
LINE
  8
LC-002-005-----0
  6
CONTINUOUS
  5
E3
 10
-70.273468
 20
256.949658
 30
0.0
 11
-71.273491
 21
257.949682
 31
0.0
  0
LINE
  8
LC-002-005-----0
  6
CONTINUOUS
  5
E4
 10
-64.434018
 20
249.695994
 30
0.0
 11
-65.43402
 21
250.695997
 31
0.0
  0
LINE
  8
LC-002-005-----0
  6
CONTINUOUS
  5
E5
 10
-71.687676
 20
256.949653
 30
0.0
 11
-74.134975
 21
259.396952
 31
0.0
  0
LINE
  8
LC-002-005-----0
  6
CONTINUOUS
  5
E6
 10
-64.434014
 20
248.281777
 30
0.0
 11
-65.434017
 21
249.28178
 31
0.0
  0
LINE
  8
LC-002-005-----0
  6
CONTINUOUS
  5
E7
 10
-74.601877
 20
258.44964
 30
0.0
 11
-75.601873
 21
259.449637
 31
0.0
  0
LINE
  8
LC-002-005-----0
  6
CONTINUOUS
  5
E8
 10
-64.434011
 20
246.867561
 30
0.0
 11
-65.434013
 21
247.867563
 31
0.0
  0
LINE
  8
LC-002-005-----0
  6
CONTINUOUS
  5
E9
 10
-64.434008
 20
245.453344
 30
0.0
 11
-65.43401
 21
246.453346
 31
0.0
  0
LINE
  8
LC-002-005-----0
  6
CONTINUOUS
  5
EA
 10
-64.434005
 20
244.039127
 30
0.0
 11
-65.434007
 21
245.039129
 31
0.0
  0
LINE
  8
LC-002-005-----0
  6
CONTINUOUS
  5
EB
 10
-64.434001
 20
242.62491
 30
0.0
 11
-65.434004
 21
243.624912
 31
0.0
  0
LINE
  8
LC-002-005-----0
  6
CONTINUOUS
  5
EC
 10
-64.433998
 20
241.210693
 30
0.0
 11
-65.434
 21
242.210696
 31
0.0
  0
LINE
  8
LC-002-005-----0
  6
CONTINUOUS
  5
ED
 10
-60.48921
 20
235.851692
 30
0.0
 11
-61.532338
 21
236.89482
 31
0.0
  0
LINE
  8
LC-002-005-----0
  6
CONTINUOUS
  5
EE
 10
-64.433995
 20
239.796477
 30
0.0
 11
-65.433997
 21
240.796479
 31
0.0
  0
LINE
  8
LC-002-005-----0
  6
CONTINUOUS
  5
EF
 10
-60.434339
 20
234.382607
 30
0.0
 11
-61.434339
 21
235.382607
 31
0.0
  0
LINE
  8
LC-002-005-----0
  6
CONTINUOUS
  5
F0
 10
-62.00141
 20
235.949678
 30
0.0
 11
-63.124346
 21
237.072614
 31
0.0
  0
LINE
  8
LC-002-005-----0
  6
CONTINUOUS
  5
F1
 10
-64.311068
 20
238.259337
 30
0.0
 11
-65.433994
 21
239.382262
 31
0.0
  0
LINE
  8
LC-002-005-----0
  6
CONTINUOUS
  5
F2
 10
-60.434339
 20
232.968393
 30
0.0
 11
-61.434339
 21
233.968393
 31
0.0
  0
LINE
  8
LC-002-005-----0
  6
CONTINUOUS
  5
F3
 10
-63.69224
 20
236.226295
 30
0.0
 11
-65.157375
 21
237.69143
 31
0.0
  0
ENDBLK
  8
0
  5
F4
  0
BLOCK
  8
0
  5
F6
  2
BLK3
 70
    64
 10
0.0
 20
0.0
 30
0.0
  3
BLK3
  0
ENDBLK
  8
0
  5
F7
  0
BLOCK
  8
0
  5
F9
  2
BLK4
 70
    64
 10
0.0
 20
0.0
 30
0.0
  3
BLK4
  0
ENDBLK
  8
0
  5
FA
  0
BLOCK
  8
0
  5
FC
  2
*X11
 70
    65
 10
-84.920392
 20
259.44962
 30
0.0
  3
*X11
  0
LINE
  8
LC-002-005-----0
  6
CONTINUOUS
  5
FD
 10
-73.959645
 20
261.342942
 30
0.0
 11
-74.095245
 21
261.478542
 31
0.0
  0
LINE
  8
LC-002-005-----0
  6
CONTINUOUS
  5
FE
 10
-74.099908
 20
260.776098
 30
0.0
 11
-74.559175
 21
261.235365
 31
0.0
  0
LINE
  8
LC-002-005-----0
  6
CONTINUOUS
  5
FF
 10
-74.563837
 20
260.532921
 30
0.0
 11
-75.023104
 21
260.992187
 31
0.0
  0
LINE
  8
LC-002-005-----0
  6
CONTINUOUS
  5
100
 10
-75.027767
 20
260.289743
 30
0.0
 11
-75.587643
 21
260.84962
 31
0.0
  0
LINE
  8
LC-002-005-----0
  6
CONTINUOUS
  5
101
 10
-75.59475
 20
260.14962
 30
0.0
 11
-76.240019
 21
260.794888
 31
0.0
  0
LINE
  8
LC-002-005-----0
  6
CONTINUOUS
  5
102
 10
-82.640019
 20
260.830927
 30
0.0
 11
-82.658711
 21
260.84962
 31
0.0
  0
LINE
  8
LC-002-005-----0
  6
CONTINUOUS
  5
103
 10
-82.665818
 20
260.14962
 30
0.0
 11
-83.365818
 21
260.84962
 31
0.0
  0
LINE
  8
LC-002-005-----0
  6
CONTINUOUS
  5
104
 10
-83.372925
 20
260.14962
 30
0.0
 11
-83.905106
 21
260.681802
 31
0.0
  0
LINE
  8
LC-002-005-----0
  6
CONTINUOUS
  5
105
 10
-83.909769
 20
259.979358
 30
0.0
 11
-84.369036
 21
260.438624
 31
0.0
  0
LINE
  8
LC-002-005-----0
  6
CONTINUOUS
  5
106
 10
-84.373698
 20
259.73618
 30
0.0
 11
-84.832965
 21
260.195447
 31
0.0
  0
LINE
  8
LC-002-005-----0
  6
CONTINUOUS
  5
107
 10
-84.837628
 20
259.493003
 30
0.0
 11
-84.920392
 21
259.575767
 31
0.0
  0
ENDBLK
  8
0
  5
108
  0
BLOCK
  8
0
  5
10A
  2
BLK5
 70
    64
 10
0.0
 20
0.0
 30
0.0
  3
BLK5
  0
ENDBLK
  8
0
  5
10B
  0
BLOCK
  8
0
  5
10D
  2
BLK6
 70
    64
 10
0.0
 20
0.0
 30
0.0
  3
BLK6
  0
ENDBLK
  8
0
  5
10E
  0
BLOCK
  8
0
  5
110
  2
BLK7
 70
    64
 10
0.0
 20
0.0
 30
0.0
  3
BLK7
  0
ENDBLK
  8
0
  5
111
  0
BLOCK
  8
0
  5
113
  2
*X15
 70
    65
 10
103.091091
 20
259.44962
 30
0.0
  3
*X15
  0
LINE
  8
LC-002-005-----0
  6
CONTINUOUS
  5
114
 10
114.051838
 20
260.007649
 30
0.0
 11
113.753474
 21
260.306014
 31
0.0
  0
LINE
  8
LC-002-005-----0
  6
CONTINUOUS
  5
115
 10
113.738538
 20
259.613842
 30
0.0
 11
112.50276
 21
260.84962
 31
0.0
  0
LINE
  8
LC-002-005-----0
  6
CONTINUOUS
  5
116
 10
112.495654
 20
260.14962
 30
0.0
 11
111.795654
 21
260.84962
 31
0.0
  0
LINE
  8
LC-002-005-----0
  6
CONTINUOUS
  5
117
 10
111.788547
 20
260.14962
 30
0.0
 11
111.771465
 21
260.166702
 31
0.0
  0
LINE
  8
LC-002-005-----0
  6
CONTINUOUS
  5
118
 10
105.371465
 20
260.202741
 30
0.0
 11
104.724586
 21
260.84962
 31
0.0
  0
LINE
  8
LC-002-005-----0
  6
CONTINUOUS
  5
119
 10
104.717479
 20
260.14962
 30
0.0
 11
103.566866
 21
261.300233
 31
0.0
  0
LINE
  8
LC-002-005-----0
  6
CONTINUOUS
  5
11A
 10
103.55193
 20
260.608062
 30
0.0
 11
103.091091
 21
261.068902
 31
0.0
  0
ENDBLK
  8
0
  5
11B
  0
BLOCK
  8
0
  5
11D
  2
BLK8
 70
    64
 10
0.0
 20
0.0
 30
0.0
  3
BLK8
  0
ENDBLK
  8
0
  5
11E
  0
BLOCK
  8
0
  5
120
  2
BLK9
 70
    64
 10
0.0
 20
0.0
 30
0.0
  3
BLK9
  0
ENDBLK
  8
0
  5
121
  0
BLOCK
  8
0
  5
123
  2
BLK10
 70
    64
 10
0.0
 20
0.0
 30
0.0
  3
BLK10
  0
ENDBLK
  8
0
  5
124
  0
BLOCK
  8
0
  5
126
  2
BLK11
 70
    64
 10
0.0
 20
0.0
 30
0.0
  3
BLK11
  0
ENDBLK
  8
0
  5
127
  0
BLOCK
  8
0
  5
129
  2
BLK12
 70
    64
 10
0.0
 20
0.0
 30
0.0
  3
BLK12
  0
ENDBLK
  8
0
  5
12A
  0
BLOCK
  8
0
  5
12C
  2
*X21
 70
    65
 10
-60.833632
 20
228.921376
 30
0.0
  3
*X21
  0
LINE
  8
LC-002-005-----0
  6
CONTINUOUS
  5
12D
 10
-56.749763
 20
228.921376
 30
0.0
 11
-56.433631
 21
229.237509
 31
0.0
  0
LINE
  8
LC-002-005-----0
  6
CONTINUOUS
  5
12E
 10
-59.57819
 20
228.921376
 30
0.0
 11
-56.433635
 21
232.065932
 31
0.0
  0
LINE
  8
LC-002-005-----0
  6
CONTINUOUS
  5
12F
 10
-59.333635
 20
231.994359
 30
0.0
 11
-56.433639
 21
234.894355
 31
0.0
  0
LINE
  8
LC-002-005-----0
  6
CONTINUOUS
  5
130
 10
-59.333639
 20
234.822782
 30
0.0
 11
-56.433643
 21
237.722778
 31
0.0
  0
LINE
  8
LC-002-005-----0
  6
CONTINUOUS
  5
131
 10
-59.333642
 20
237.651206
 30
0.0
 11
-56.433646
 21
240.551202
 31
0.0
  0
LINE
  8
LC-002-005-----0
  6
CONTINUOUS
  5
132
 10
-59.333646
 20
240.479629
 30
0.0
 11
-56.43365
 21
243.379625
 31
0.0
  0
LINE
  8
LC-002-005-----0
  6
CONTINUOUS
  5
133
 10
-59.33365
 20
243.308052
 30
0.0
 11
-56.433654
 21
246.208048
 31
0.0
  0
LINE
  8
LC-002-005-----0
  6
CONTINUOUS
  5
134
 10
-59.333654
 20
246.136475
 30
0.0
 11
-56.433658
 21
249.036471
 31
0.0
  0
LINE
  8
LC-002-005-----0
  6
CONTINUOUS
  5
135
 10
-59.333658
 20
248.964899
 30
0.0
 11
-55.933663
 21
252.364894
 31
0.0
  0
LINE
  8
LC-002-005-----0
  6
CONTINUOUS
  5
136
 10
-59.333662
 20
251.793322
 30
0.0
 11
-55.933667
 21
255.193317
 31
0.0
  0
LINE
  8
LC-002-005-----0
  6
CONTINUOUS
  5
137
 10
-59.333666
 20
254.621745
 30
0.0
 11
-56.034034
 21
257.921376
 31
0.0
  0
LINE
  8
LC-002-005-----0
  6
CONTINUOUS
  5
138
 10
-59.33367
 20
257.450168
 30
0.0
 11
-58.862462
 21
257.921376
 31
0.0
  0
ENDBLK
  8
0
  5
139
  0
BLOCK
  8
0
  5
13B
  2
*X22
 70
    65
 10
-43.326585
 20
292.559059
 30
0.0
  3
*X22
  0
LINE
  8
LC-002-005-----0
  6
CONTINUOUS
  5
13C
 10
-42.927619
 20
293.655209
 30
0.0
 11
-41.62964
 21
294.953188
 31
0.0
  0
LINE
  8
LC-002-005-----0
  6
CONTINUOUS
  5
13D
 10
-29.979001
 20
329.231244
 30
0.0
 11
-26.517114
 21
332.693131
 31
0.0
  0
ENDBLK
  8
0
  5
13E
  0
BLOCK
  8
0
  5
140
  2
BLK13
 70
    64
 10
0.0
 20
0.0
 30
0.0
  3
BLK13
  0
ENDBLK
  8
0
  5
141
  0
BLOCK
  8
0
  5
143
  2
*X24
 70
    65
 10
85.065804
 20
228.921571
 30
0.0
  3
*X24
  0
LINE
  8
LC-002-005-----0
  6
CONTINUOUS
  5
144
 10
87.50022
 20
228.921576
 30
0.0
 11
89.400716
 21
230.822072
 31
0.0
  0
LINE
  8
LC-002-005-----0
  6
CONTINUOUS
  5
145
 10
85.565842
 20
229.815625
 30
0.0
 11
88.465838
 21
232.715621
 31
0.0
  0
LINE
  8
LC-002-005-----0
  6
CONTINUOUS
  5
146
 10
85.565838
 20
232.644049
 30
0.0
 11
88.465834
 21
235.544045
 31
0.0
  0
LINE
  8
LC-002-005-----0
  6
CONTINUOUS
  5
147
 10
85.565834
 20
235.472472
 30
0.0
 11
88.46583
 21
238.372468
 31
0.0
  0
LINE
  8
LC-002-005-----0
  6
CONTINUOUS
  5
148
 10
85.56583
 20
238.300895
 30
0.0
 11
88.465826
 21
241.200891
 31
0.0
  0
LINE
  8
LC-002-005-----0
  6
CONTINUOUS
  5
149
 10
85.565827
 20
241.129318
 30
0.0
 11
88.465823
 21
244.029314
 31
0.0
  0
LINE
  8
LC-002-005-----0
  6
CONTINUOUS
  5
14A
 10
85.565823
 20
243.957742
 30
0.0
 11
88.465819
 21
246.857738
 31
0.0
  0
LINE
  8
LC-002-005-----0
  6
CONTINUOUS
  5
14B
 10
85.565819
 20
246.786165
 30
0.0
 11
88.465815
 21
249.686161
 31
0.0
  0
LINE
  8
LC-002-005-----0
  6
CONTINUOUS
  5
14C
 10
85.565815
 20
249.614588
 30
0.0
 11
88.465811
 21
252.514584
 31
0.0
  0
LINE
  8
LC-002-005-----0
  6
CONTINUOUS
  5
14D
 10
85.065812
 20
251.943012
 30
0.0
 11
88.465807
 21
255.343007
 31
0.0
  0
LINE
  8
LC-002-005-----0
  6
CONTINUOUS
  5
14E
 10
85.065808
 20
254.771435
 30
0.0
 11
88.215951
 21
257.921578
 31
0.0
  0
LINE
  8
LC-002-005-----0
  6
CONTINUOUS
  5
14F
 10
85.065804
 20
257.599859
 30
0.0
 11
85.387516
 21
257.921571
 31
0.0
  0
ENDBLK
  8
0
  5
150
  0
BLOCK
  8
0
  5
152
  2
*X25
 70
    65
 10
55.565964
 20
292.559218
 30
0.0
  3
*X25
  0
LINE
  8
LC-002-005-----0
  6
CONTINUOUS
  5
153
 10
72.019355
 20
292.636671
 30
0.0
 11
72.320737
 21
292.938053
 31
0.0
  0
LINE
  8
LC-002-005-----0
  6
CONTINUOUS
  5
154
 10
70.761674
 20
294.207417
 30
0.0
 11
71.565977
 21
295.01172
 31
0.0
  0
LINE
  8
LC-002-005-----0
  6
CONTINUOUS
  5
155
 10
70.761666
 20
297.035836
 30
0.0
 11
70.811218
 21
297.085388
 31
0.0
  0
LINE
  8
LC-002-005-----0
  6
CONTINUOUS
  5
156
 10
57.269211
 20
328.798215
 30
0.0
 11
58.735063
 21
330.264067
 31
0.0
  0
LINE
  8
LC-002-005-----0
  6
CONTINUOUS
  5
157
 10
56.366001
 20
330.723432
 30
0.0
 11
57.980303
 21
332.337734
 31
0.0
  0
LINE
  8
LC-002-005-----0
  6
CONTINUOUS
  5
158
 10
55.611241
 20
332.7971
 30
0.0
 11
55.73564
 21
332.921498
 31
0.0
  0
ENDBLK
  8
0
  5
159
  0
BLOCK
  8
0
  5
15B
  2
BLK14
 70
    64
 10
0.0
 20
0.0
 30
0.0
  3
BLK14
  0
ENDBLK
  8
0
  5
15C
  0
BLOCK
  8
0
  5
15E
  2
BLK15
 70
    64
 10
0.0
 20
0.0
 30
0.0
  3
BLK15
  0
ARC
  8
LC-001-002-----0
  6
CONTINUOUS
  5
160
 10
-82.697726
 20
234.323759
 30
0.0
 40
0.373547
 50
0.657559
 51
42.030202
  0
ARC
  8
LC-001-002-----0
  6
CONTINUOUS
  5
161
 10
-83.080003
 20
233.987867
 30
0.0
 40
0.88241
 50
41.611658
 51
64.786099
  0
ARC
  8
LC-001-002-----0
  6
CONTINUOUS
  5
162
 10
-83.531639
 20
233.091033
 30
0.0
 40
1.886381
 50
63.979499
 51
77.898183
  0
ARC
  8
LC-001-002-----0
  6
CONTINUOUS
  5
163
 10
-83.749784
 20
232.157213
 30
0.0
 40
2.845236
 50
77.545331
 51
88.115595
  0
ENDBLK
  8
0
  5
164
  0
BLOCK
  8
0
  5
166
  2
BLK16
 70
    64
 10
0.0
 20
0.0
 30
0.0
  3
BLK16
  0
ARC
  8
LC-001-002-----0
  6
CONTINUOUS
  5
167
 10
-74.048848
 20
234.320205
 30
0.0
 40
0.385191
 50
2.018909
 51
44.427197
  0
ARC
  8
LC-001-002-----0
  6
CONTINUOUS
  5
168
 10
-74.464942
 20
233.927654
 30
0.0
 40
0.95719
 50
43.772899
 51
66.721011
  0
ARC
  8
LC-001-002-----0
  6
CONTINUOUS
  5
169
 10
-74.919003
 20
232.948199
 30
0.0
 40
2.036578
 50
65.876784
 51
79.701704
  0
ARC
  8
LC-001-002-----0
  6
CONTINUOUS
  5
16A
 10
-75.100982
 20
232.050647
 30
0.0
 40
2.952262
 50
79.340928
 51
90.122105
  0
ENDBLK
  8
0
  5
16B
  0
BLOCK
  8
0
  5
16D
  2
BLK17
 70
    64
 10
0.0
 20
0.0
 30
0.0
  3
BLK17
  0
ARC
  8
LC-001-002-----0
  6
CONTINUOUS
  5
16E
 10
-76.164797
 20
230.486501
 30
0.0
 40
0.386326
 50
182.99596
 51
223.976142
  0
ARC
  8
LC-001-002-----0
  6
CONTINUOUS
  5
16F
 10
-75.762908
 20
230.860865
 30
0.0
 40
0.935529
 50
223.385026
 51
245.959244
  0
ARC
  8
LC-001-002-----0
  6
CONTINUOUS
  5
170
 10
-75.315464
 20
231.796854
 30
0.0
 40
1.972798
 50
245.165703
 51
258.849172
  0
ARC
  8
LC-001-002-----0
  6
CONTINUOUS
  5
171
 10
-75.118475
 20
232.705831
 30
0.0
 40
2.902764
 50
258.504134
 51
269.069552
  0
ENDBLK
  8
0
  5
172
  0
BLOCK
  8
0
  5
174
  2
BLK18
 70
    64
 10
0.0
 20
0.0
 30
0.0
  3
BLK18
  0
ARC
  8
LC-001-002-----0
  6
CONTINUOUS
  5
175
 10
-84.825951
 20
230.4856
 30
0.0
 40
0.385189
 50
182.018675
 51
224.427045
  0
ARC
  8
LC-001-002-----0
  6
CONTINUOUS
  5
176
 10
-84.409858
 20
230.878148
 30
0.0
 40
0.957186
 50
223.77276
 51
246.720935
  0
ARC
  8
LC-001-002-----0
  6
CONTINUOUS
  5
177
 10
-83.955796
 20
231.857601
 30
0.0
 40
2.036573
 50
245.876705
 51
259.701648
  0
ARC
  8
LC-001-002-----0
  6
CONTINUOUS
  5
178
 10
-83.773816
 20
232.755156
 30
0.0
 40
2.95226
 50
259.340871
 51
270.122053
  0
ENDBLK
  8
0
  5
179
  0
BLOCK
  8
0
  5
17B
  2
BLK19
 70
    64
 10
0.0
 20
0.0
 30
0.0
  3
BLK19
  0
ARC
  8
LC-001-002-----0
  6
CONTINUOUS
  5
17C
 10
-76.850872
 20
234.289157
 30
0.0
 40
0.302628
 50
7.383711
 51
67.142408
  0
ARC
  8
LC-001-002-----0
  6
CONTINUOUS
  5
17D
 10
-77.73569
 20
232.776783
 30
0.0
 40
2.052627
 50
60.768737
 51
77.015522
  0
ARC
  8
LC-001-002-----0
  6
CONTINUOUS
  5
17E
 10
-78.81253
 20
228.652902
 30
0.0
 40
6.31421
 50
75.901848
 51
83.543485
  0
ARC
  8
LC-001-002-----0
  6
CONTINUOUS
  5
17F
 10
-79.37521
 20
224.130032
 30
0.0
 40
10.871784
 50
83.277243
 51
88.589223
  0
ENDBLK
  8
0
  5
180
  0
BLOCK
  8
0
  5
182
  2
BLK20
 70
    64
 10
0.0
 20
0.0
 30
0.0
  3
BLK20
  0
ARC
  8
LC-001-002-----0
  6
CONTINUOUS
  5
183
 10
-81.996354
 20
230.533378
 30
0.0
 40
0.333487
 50
190.600065
 51
249.40857
  0
ARC
  8
LC-001-002-----0
  6
CONTINUOUS
  5
184
 10
-81.02638
 20
232.320612
 30
0.0
 40
2.364252
 50
242.620928
 51
258.126773
  0
ARC
  8
LC-001-002-----0
  6
CONTINUOUS
  5
185
 10
-79.936902
 20
236.870473
 30
0.0
 40
7.042127
 50
257.068609
 51
264.520876
  0
ARC
  8
LC-001-002-----0
  6
CONTINUOUS
  5
186
 10
-79.462466
 20
241.275598
 30
0.0
 40
11.472542
 50
264.26291
 51
269.638364
  0
ENDBLK
  8
0
  5
187
  0
BLOCK
  8
0
  5
189
  2
BLK21
 70
    64
 10
0.0
 20
0.0
 30
0.0
  3
BLK21
  0
ARC
  8
LC-001-002-----0
  6
CONTINUOUS
  5
18A
 10
-83.773816
 20
232.050649
 30
0.0
 40
2.952261
 50
89.877925
 51
100.659105
  0
ARC
  8
LC-001-002-----0
  6
CONTINUOUS
  5
18B
 10
-83.955796
 20
232.948202
 30
0.0
 40
2.036575
 50
100.298328
 51
114.123262
  0
ARC
  8
LC-001-002-----0
  6
CONTINUOUS
  5
18C
 10
-84.409857
 20
233.927656
 30
0.0
 40
0.957187
 50
113.279034
 51
136.227183
  0
ARC
  8
LC-001-002-----0
  6
CONTINUOUS
  5
18D
 10
-84.82595
 20
234.320205
 30
0.0
 40
0.38519
 50
135.572893
 51
177.981231
  0
ENDBLK
  8
0
  5
18E
  0
BLOCK
  8
0
  5
190
  2
BLK22
 70
    64
 10
0.0
 20
0.0
 30
0.0
  3
BLK22
  0
ARC
  8
LC-001-002-----0
  6
CONTINUOUS
  5
191
 10
-79.468522
 20
223.644321
 30
0.0
 40
11.358311
 50
90.565096
 51
95.951156
  0
ARC
  8
LC-001-002-----0
  6
CONTINUOUS
  5
192
 10
-79.966071
 20
228.111979
 30
0.0
 40
6.863217
 50
95.686863
 51
103.232882
  0
ARC
  8
LC-001-002-----0
  6
CONTINUOUS
  5
193
 10
-81.061798
 20
232.581589
 30
0.0
 40
2.261882
 50
102.13101
 51
118.029685
  0
ARC
  8
LC-001-002-----0
  6
CONTINUOUS
  5
194
 10
-82.010487
 20
234.282644
 30
0.0
 40
0.316829
 50
111.134524
 51
171.760103
  0
ENDBLK
  8
0
  5
195
  0
BLOCK
  8
0
  5
197
  2
BLK23
 70
    64
 10
0.0
 20
0.0
 30
0.0
  3
BLK23
  0
ENDBLK
  8
0
  5
198
  0
BLOCK
  8
0
  5
19A
  2
BLK24
 70
    64
 10
0.0
 20
0.0
 30
0.0
  3
BLK24
  0
ARC
  8
LC-001-002-----0
  6
CONTINUOUS
  5
19B
 10
-75.126648
 20
232.169009
 30
0.0
 40
2.833346
 50
92.161965
 51
102.568484
  0
ARC
  8
LC-001-002-----0
  6
CONTINUOUS
  5
19C
 10
-75.343451
 20
233.090633
 30
0.0
 40
1.886661
 50
102.232724
 51
115.895493
  0
ARC
  8
LC-001-002-----0
  6
CONTINUOUS
  5
19D
 10
-75.786326
 20
233.975712
 30
0.0
 40
0.897113
 50
115.137669
 51
137.634308
  0
ARC
  8
LC-001-002-----0
  6
CONTINUOUS
  5
19E
 10
-76.169142
 20
234.320523
 30
0.0
 40
0.381924
 50
137.154587
 51
177.151708
  0
ENDBLK
  8
0
  5
19F
  0
BLOCK
  8
0
  5
1A1
  2
BLK25
 70
    64
 10
0.0
 20
0.0
 30
0.0
  3
BLK25
  0
ARC
  8
LC-001-002-----0
  6
CONTINUOUS
  5
1A2
 10
-83.752913
 20
232.674938
 30
0.0
 40
2.871728
 50
271.463232
 51
282.021484
  0
ARC
  8
LC-001-002-----0
  6
CONTINUOUS
  5
1A3
 10
-83.544417
 20
231.752065
 30
0.0
 40
1.925705
 50
281.673088
 51
295.470569
  0
ARC
  8
LC-001-002-----0
  6
CONTINUOUS
  5
1A4
 10
-83.094852
 20
230.837681
 30
0.0
 40
0.906947
 50
294.671916
 51
317.539566
  0
ARC
  8
LC-001-002-----0
  6
CONTINUOUS
  5
1A5
 10
-82.703529
 20
230.484102
 30
0.0
 40
0.379571
 50
317.037941
 51
358.17767
  0
ENDBLK
  8
0
  5
1A6
  0
BLOCK
  8
0
  5
1A8
  2
BLK26
 70
    64
 10
0.0
 20
0.0
 30
0.0
  3
BLK26
  0
ENDBLK
  8
0
  5
1A9
  0
BLOCK
  8
0
  5
1AB
  2
BLK27
 70
    64
 10
0.0
 20
0.0
 30
0.0
  3
BLK27
  0
ARC
  8
LC-001-002-----0
  6
CONTINUOUS
  5
1AC
 10
-79.429584
 20
241.663294
 30
0.0
 40
11.860476
 50
269.492895
 51
274.950272
  0
ARC
  8
LC-001-002-----0
  6
CONTINUOUS
  5
1AD
 10
-79.033017
 20
237.476046
 30
0.0
 40
7.654702
 50
274.697532
 51
282.013901
  0
ARC
  8
LC-001-002-----0
  6
CONTINUOUS
  5
1AE
 10
-77.946041
 20
232.592702
 30
0.0
 40
2.652475
 50
281.00498
 51
295.90883
  0
ARC
  8
LC-001-002-----0
  6
CONTINUOUS
  5
1AF
 10
-76.905176
 20
230.551739
 30
0.0
 40
0.364574
 50
288.902859
 51
346.447647
  0
ENDBLK
  8
0
  5
1B0
  0
BLOCK
  8
0
  5
1B2
  2
BLK28
 70
    64
 10
0.0
 20
0.0
 30
0.0
  3
BLK28
  0
ARC
  8
LC-001-002-----0
  6
CONTINUOUS
  5
1B3
 10
-75.100982
 20
232.755157
 30
0.0
 40
2.952261
 50
269.877925
 51
280.65911
  0
ARC
  8
LC-001-002-----0
  6
CONTINUOUS
  5
1B4
 10
-74.919001
 20
231.857603
 30
0.0
 40
2.036574
 50
280.298333
 51
294.123276
  0
ARC
  8
LC-001-002-----0
  6
CONTINUOUS
  5
1B5
 10
-74.46494
 20
230.878149
 30
0.0
 40
0.957186
 50
293.279046
 51
316.227222
  0
ARC
  8
LC-001-002-----0
  6
CONTINUOUS
  5
1B6
 10
-74.048846
 20
230.4856
 30
0.0
 40
0.38519
 50
315.572935
 51
357.981322
  0
ENDBLK
  8
0
  5
1B7
  0
BLOCK
  8
0
  5
1B9
  2
BLK29
 70
    64
 10
0.0
 20
0.0
 30
0.0
  3
BLK29
  0
ENDBLK
  8
0
  5
1BA
  0
BLOCK
  8
0
  5
1BC
  2
BLK30
 70
    64
 10
0.0
 20
0.0
 30
0.0
  3
BLK30
  0
ARC
  8
LC-001-002-----0
  6
CONTINUOUS
  5
1BD
 10
112.881917
 20
232.157213
 30
0.0
 40
2.845236
 50
91.884405
 51
102.454669
  0
ARC
  8
LC-001-002-----0
  6
CONTINUOUS
  5
1BE
 10
112.663772
 20
233.091033
 30
0.0
 40
1.886381
 50
102.101817
 51
116.020501
  0
ARC
  8
LC-001-002-----0
  6
CONTINUOUS
  5
1BF
 10
112.212136
 20
233.987867
 30
0.0
 40
0.88241
 50
115.213901
 51
138.388342
  0
ARC
  8
LC-001-002-----0
  6
CONTINUOUS
  5
1C0
 10
111.829859
 20
234.323759
 30
0.0
 40
0.373547
 50
137.969798
 51
179.342441
  0
ENDBLK
  8
0
  5
1C1
  0
BLOCK
  8
0
  5
1C3
  2
BLK31
 70
    64
 10
0.0
 20
0.0
 30
0.0
  3
BLK31
  0
ARC
  8
LC-001-002-----0
  6
CONTINUOUS
  5
1C4
 10
104.233115
 20
232.050647
 30
0.0
 40
2.952262
 50
89.877895
 51
100.659072
  0
ARC
  8
LC-001-002-----0
  6
CONTINUOUS
  5
1C5
 10
104.051136
 20
232.948199
 30
0.0
 40
2.036578
 50
100.298296
 51
114.123216
  0
ARC
  8
LC-001-002-----0
  6
CONTINUOUS
  5
1C6
 10
103.597075
 20
233.927654
 30
0.0
 40
0.95719
 50
113.278989
 51
136.227101
  0
ARC
  8
LC-001-002-----0
  6
CONTINUOUS
  5
1C7
 10
103.180981
 20
234.320205
 30
0.0
 40
0.385191
 50
135.572803
 51
177.981091
  0
ENDBLK
  8
0
  5
1C8
  0
BLOCK
  8
0
  5
1CA
  2
BLK32
 70
    64
 10
0.0
 20
0.0
 30
0.0
  3
BLK32
  0
ARC
  8
LC-001-002-----0
  6
CONTINUOUS
  5
1CB
 10
104.250609
 20
232.705831
 30
0.0
 40
2.902764
 50
270.930448
 51
281.495866
  0
ARC
  8
LC-001-002-----0
  6
CONTINUOUS
  5
1CC
 10
104.447597
 20
231.796854
 30
0.0
 40
1.972798
 50
281.150828
 51
294.834297
  0
ARC
  8
LC-001-002-----0
  6
CONTINUOUS
  5
1CD
 10
104.895041
 20
230.860865
 30
0.0
 40
0.935529
 50
294.040756
 51
316.614974
  0
ARC
  8
LC-001-002-----0
  6
CONTINUOUS
  5
1CE
 10
105.29693
 20
230.486501
 30
0.0
 40
0.386326
 50
316.023858
 51
357.00404
  0
ENDBLK
  8
0
  5
1CF
  0
BLOCK
  8
0
  5
1D1
  2
BLK33
 70
    64
 10
0.0
 20
0.0
 30
0.0
  3
BLK33
  0
ARC
  8
LC-001-002-----0
  6
CONTINUOUS
  5
1D2
 10
112.905949
 20
232.755156
 30
0.0
 40
2.95226
 50
269.877947
 51
280.659129
  0
ARC
  8
LC-001-002-----0
  6
CONTINUOUS
  5
1D3
 10
113.08793
 20
231.857601
 30
0.0
 40
2.036573
 50
280.298352
 51
294.123295
  0
ARC
  8
LC-001-002-----0
  6
CONTINUOUS
  5
1D4
 10
113.541991
 20
230.878148
 30
0.0
 40
0.957186
 50
293.279065
 51
316.22724
  0
ARC
  8
LC-001-002-----0
  6
CONTINUOUS
  5
1D5
 10
113.958084
 20
230.4856
 30
0.0
 40
0.385189
 50
315.572955
 51
357.981325
  0
ENDBLK
  8
0
  5
1D6
  0
BLOCK
  8
0
  5
1D8
  2
BLK34
 70
    64
 10
0.0
 20
0.0
 30
0.0
  3
BLK34
  0
ARC
  8
LC-001-002-----0
  6
CONTINUOUS
  5
1D9
 10
108.507343
 20
224.130032
 30
0.0
 40
10.871784
 50
91.410777
 51
96.722757
  0
ARC
  8
LC-001-002-----0
  6
CONTINUOUS
  5
1DA
 10
107.944663
 20
228.652902
 30
0.0
 40
6.31421
 50
96.456515
 51
104.098152
  0
ARC
  8
LC-001-002-----0
  6
CONTINUOUS
  5
1DB
 10
106.867823
 20
232.776783
 30
0.0
 40
2.052627
 50
102.984478
 51
119.231263
  0
ARC
  8
LC-001-002-----0
  6
CONTINUOUS
  5
1DC
 10
105.983005
 20
234.289157
 30
0.0
 40
0.302628
 50
112.857592
 51
172.616289
  0
ENDBLK
  8
0
  5
1DD
  0
BLOCK
  8
0
  5
1DF
  2
BLK35
 70
    64
 10
0.0
 20
0.0
 30
0.0
  3
BLK35
  0
ARC
  8
LC-001-002-----0
  6
CONTINUOUS
  5
1E0
 10
108.594599
 20
241.275598
 30
0.0
 40
11.472542
 50
270.361636
 51
275.73709
  0
ARC
  8
LC-001-002-----0
  6
CONTINUOUS
  5
1E1
 10
109.069035
 20
236.870473
 30
0.0
 40
7.042127
 50
275.479124
 51
282.931391
  0
ARC
  8
LC-001-002-----0
  6
CONTINUOUS
  5
1E2
 10
110.158513
 20
232.320612
 30
0.0
 40
2.364252
 50
281.873227
 51
297.379072
  0
ARC
  8
LC-001-002-----0
  6
CONTINUOUS
  5
1E3
 10
111.128487
 20
230.533378
 30
0.0
 40
0.333487
 50
290.59143
 51
349.399935
  0
ENDBLK
  8
0
  5
1E4
  0
BLOCK
  8
0
  5
1E6
  2
BLK36
 70
    64
 10
0.0
 20
0.0
 30
0.0
  3
BLK36
  0
ARC
  8
LC-001-002-----0
  6
CONTINUOUS
  5
1E7
 10
113.958084
 20
234.320205
 30
0.0
 40
0.38519
 50
2.018769
 51
44.427107
  0
ARC
  8
LC-001-002-----0
  6
CONTINUOUS
  5
1E8
 10
113.54199
 20
233.927656
 30
0.0
 40
0.957187
 50
43.772817
 51
66.720966
  0
ARC
  8
LC-001-002-----0
  6
CONTINUOUS
  5
1E9
 10
113.087929
 20
232.948202
 30
0.0
 40
2.036575
 50
65.876738
 51
79.701672
  0
ARC
  8
LC-001-002-----0
  6
CONTINUOUS
  5
1EA
 10
112.905949
 20
232.050649
 30
0.0
 40
2.952261
 50
79.340895
 51
90.122075
  0
ENDBLK
  8
0
  5
1EB
  0
BLOCK
  8
0
  5
1ED
  2
BLK37
 70
    64
 10
0.0
 20
0.0
 30
0.0
  3
BLK37
  0
ARC
  8
LC-001-002-----0
  6
CONTINUOUS
  5
1EE
 10
111.14262
 20
234.282644
 30
0.0
 40
0.316829
 50
8.239897
 51
68.865476
  0
ARC
  8
LC-001-002-----0
  6
CONTINUOUS
  5
1EF
 10
110.193931
 20
232.581589
 30
0.0
 40
2.261882
 50
61.970315
 51
77.86899
  0
ARC
  8
LC-001-002-----0
  6
CONTINUOUS
  5
1F0
 10
109.098205
 20
228.111979
 30
0.0
 40
6.863217
 50
76.767118
 51
84.313137
  0
ARC
  8
LC-001-002-----0
  6
CONTINUOUS
  5
1F1
 10
108.600655
 20
223.644321
 30
0.0
 40
11.358311
 50
84.048844
 51
89.434904
  0
ENDBLK
  8
0
  5
1F2
  0
BLOCK
  8
0
  5
1F4
  2
BLK38
 70
    64
 10
0.0
 20
0.0
 30
0.0
  3
BLK38
  0
ENDBLK
  8
0
  5
1F5
  0
BLOCK
  8
0
  5
1F7
  2
BLK39
 70
    64
 10
0.0
 20
0.0
 30
0.0
  3
BLK39
  0
ARC
  8
LC-001-002-----0
  6
CONTINUOUS
  5
1F8
 10
105.301276
 20
234.320523
 30
0.0
 40
0.381924
 50
2.848292
 51
42.845413
  0
ARC
  8
LC-001-002-----0
  6
CONTINUOUS
  5
1F9
 10
104.918459
 20
233.975712
 30
0.0
 40
0.897113
 50
42.365692
 51
64.862331
  0
ARC
  8
LC-001-002-----0
  6
CONTINUOUS
  5
1FA
 10
104.475584
 20
233.090633
 30
0.0
 40
1.886661
 50
64.104507
 51
77.767276
  0
ARC
  8
LC-001-002-----0
  6
CONTINUOUS
  5
1FB
 10
104.258782
 20
232.169009
 30
0.0
 40
2.833346
 50
77.431516
 51
87.838035
  0
ENDBLK
  8
0
  5
1FC
  0
BLOCK
  8
0
  5
1FE
  2
BLK40
 70
    64
 10
0.0
 20
0.0
 30
0.0
  3
BLK40
  0
ARC
  8
LC-001-002-----0
  6
CONTINUOUS
  5
1FF
 10
111.835663
 20
230.484102
 30
0.0
 40
0.379571
 50
181.82233
 51
222.962059
  0
ARC
  8
LC-001-002-----0
  6
CONTINUOUS
  5
200
 10
112.226985
 20
230.837681
 30
0.0
 40
0.906947
 50
222.460434
 51
245.328084
  0
ARC
  8
LC-001-002-----0
  6
CONTINUOUS
  5
201
 10
112.67655
 20
231.752065
 30
0.0
 40
1.925705
 50
244.529431
 51
258.326912
  0
ARC
  8
LC-001-002-----0
  6
CONTINUOUS
  5
202
 10
112.885046
 20
232.674938
 30
0.0
 40
2.871728
 50
257.978516
 51
268.536768
  0
ENDBLK
  8
0
  5
203
  0
BLOCK
  8
0
  5
205
  2
BLK41
 70
    64
 10
0.0
 20
0.0
 30
0.0
  3
BLK41
  0
ENDBLK
  8
0
  5
206
  0
BLOCK
  8
0
  5
208
  2
BLK42
 70
    64
 10
0.0
 20
0.0
 30
0.0
  3
BLK42
  0
ARC
  8
LC-001-002-----0
  6
CONTINUOUS
  5
209
 10
106.037309
 20
230.551739
 30
0.0
 40
0.364574
 50
193.552353
 51
251.097141
  0
ARC
  8
LC-001-002-----0
  6
CONTINUOUS
  5
20A
 10
107.078174
 20
232.592702
 30
0.0
 40
2.652475
 50
244.09117
 51
258.99502
  0
ARC
  8
LC-001-002-----0
  6
CONTINUOUS
  5
20B
 10
108.16515
 20
237.476046
 30
0.0
 40
7.654702
 50
257.986099
 51
265.302468
  0
ARC
  8
LC-001-002-----0
  6
CONTINUOUS
  5
20C
 10
108.561717
 20
241.663294
 30
0.0
 40
11.860476
 50
265.049728
 51
270.507105
  0
ENDBLK
  8
0
  5
20D
  0
BLOCK
  8
0
  5
20F
  2
BLK43
 70
    64
 10
0.0
 20
0.0
 30
0.0
  3
BLK43
  0
ARC
  8
LC-001-002-----0
  6
CONTINUOUS
  5
210
 10
103.18098
 20
230.4856
 30
0.0
 40
0.38519
 50
182.018678
 51
224.427065
  0
ARC
  8
LC-001-002-----0
  6
CONTINUOUS
  5
211
 10
103.597073
 20
230.878149
 30
0.0
 40
0.957186
 50
223.772778
 51
246.720954
  0
ARC
  8
LC-001-002-----0
  6
CONTINUOUS
  5
212
 10
104.051135
 20
231.857603
 30
0.0
 40
2.036574
 50
245.876724
 51
259.701667
  0
ARC
  8
LC-001-002-----0
  6
CONTINUOUS
  5
213
 10
104.233115
 20
232.755157
 30
0.0
 40
2.952261
 50
259.34089
 51
270.122075
  0
ENDBLK
  8
0
  5
214
  0
BLOCK
  8
0
  5
216
  2
BLK44
 70
    64
 10
0.0
 20
0.0
 30
0.0
  3
BLK44
  0
ENDBLK
  8
0
  5
217
  0
BLOCK
  8
0
  5
219
  2
*D57
 70
    65
 10
0.0
 20
0.0
 30
0.0
  3
*D57
  0
LINE
  8
LC-006-003-MTH-0
  6
CONTINUOUS
  5
21B
 10
-162.433921
 20
260.250875
 30
0.0
 11
-162.436781
 21
366.795641
 31
0.0
  0
LINE
  8
LC-006-003-MTH-0
  6
CONTINUOUS
  5
21C
 10
191.566066
 20
260.260376
 30
0.0
 11
191.563206
 21
366.805141
 31
0.0
  0
LINE
  8
LC-007-003-MTG-0
  6
CONTINUOUS
  5
21E
 10
-162.43633
 20
349.995641
 30
0.0
 11
191.563657
 21
350.005141
 31
0.0
  0
LINE
  8
LC-005-003-----0
  6
CONTINUOUS
  5
220
 10
-134.675972
 20
353.651119
 30
0.0
 11
-162.43633
 21
349.995641
 31
0.0
  0
LINE
  8
LC-005-003-----0
  6
CONTINUOUS
  5
221
 10
-162.43633
 20
349.995641
 30
0.0
 11
-134.675776
 21
346.341652
 31
0.0
  0
LINE
  8
LC-005-003-----0
  6
CONTINUOUS
  5
222
 10
-134.675776
 20
346.341652
 30
0.0
 11
-134.675972
 21
353.651119
 31
0.0
  0
LINE
  8
LC-005-003-----0
  6
CONTINUOUS
  5
223
 10
-134.613665
 20
352.70089
 30
0.0
 11
-155.15633
 21
349.995836
 31
0.0
  0
LINE
  8
LC-005-003-----0
  6
CONTINUOUS
  5
224
 10
-155.15633
 20
349.995836
 30
0.0
 11
-134.61352
 21
347.291885
 31
0.0
  0
LINE
  8
LC-005-003-----0
  6
CONTINUOUS
  5
225
 10
-134.551358
 20
351.750661
 30
0.0
 11
-147.87633
 21
349.996031
 31
0.0
  0
LINE
  8
LC-005-003-----0
  6
CONTINUOUS
  5
226
 10
-147.87633
 20
349.996031
 30
0.0
 11
-134.551264
 21
348.242117
 31
0.0
  0
LINE
  8
LC-005-003-----0
  6
CONTINUOUS
  5
227
 10
-134.489051
 20
350.800432
 30
0.0
 11
-140.59633
 21
349.996227
 31
0.0
  0
LINE
  8
LC-005-003-----0
  6
CONTINUOUS
  5
228
 10
-140.59633
 20
349.996227
 30
0.0
 11
-134.489008
 21
349.192349
 31
0.0
  0
LINE
  8
LC-005-003-----0
  6
CONTINUOUS
  5
229
 10
163.803299
 20
346.349663
 30
0.0
 11
191.563657
 21
350.005141
 31
0.0
  0
LINE
  8
LC-005-003-----0
  6
CONTINUOUS
  5
22A
 10
191.563657
 20
350.005141
 30
0.0
 11
163.803103
 21
353.65913
 31
0.0
  0
LINE
  8
LC-005-003-----0
  6
CONTINUOUS
  5
22B
 10
163.803103
 20
353.65913
 30
0.0
 11
163.803299
 21
346.349663
 31
0.0
  0
LINE
  8
LC-005-003-----0
  6
CONTINUOUS
  5
22C
 10
163.740992
 20
347.299892
 30
0.0
 11
184.283657
 21
350.004946
 31
0.0
  0
LINE
  8
LC-005-003-----0
  6
CONTINUOUS
  5
22D
 10
184.283657
 20
350.004946
 30
0.0
 11
163.740847
 21
352.708897
 31
0.0
  0
LINE
  8
LC-005-003-----0
  6
CONTINUOUS
  5
22E
 10
163.678685
 20
348.250121
 30
0.0
 11
177.003657
 21
350.004751
 31
0.0
  0
LINE
  8
LC-005-003-----0
  6
CONTINUOUS
  5
22F
 10
177.003657
 20
350.004751
 30
0.0
 11
163.678591
 21
351.758665
 31
0.0
  0
LINE
  8
LC-005-003-----0
  6
CONTINUOUS
  5
230
 10
163.616378
 20
349.20035
 30
0.0
 11
169.723657
 21
350.004555
 31
0.0
  0
LINE
  8
LC-005-003-----0
  6
CONTINUOUS
  5
231
 10
169.723657
 20
350.004555
 30
0.0
 11
163.616335
 21
350.808433
 31
0.0
  0
TEXT
  8
LC-005-003-----0
  6
CONTINUOUS
 62
     8
  5
232
 10
-19.359401
 20
357.827945
 30
0.0
 40
28.0
  1
Ø354
 41
0.9
 51
15.0
  7
LC-TXTSTYLE-150-400-0-0-A0
 72
     1
 11
18.912049
 21
357.827945
 31
0.0
  0
ENDBLK
  8
0
  5
233
  0
BLOCK
  8
0
  5
235
  2
*X58
 70
    65
 10
-162.433927
 20
236.003207
 30
0.0
  3
*X58
  0
LINE
  8
LC-002-005-----0
  6
CONTINUOUS
  5
236
 10
-83.60905
 20
236.003215
 30
0.0
 11
-82.187548
 21
237.424717
 31
0.0
  0
LINE
  8
LC-002-005-----0
  6
CONTINUOUS
  5
237
 10
-85.387512
 20
237.05318
 30
0.0
 11
-82.187815
 21
240.252877
 31
0.0
  0
LINE
  8
LC-002-005-----0
  6
CONTINUOUS
  5
238
 10
-85.387528
 20
239.881591
 30
0.0
 11
-82.188082
 21
243.081038
 31
0.0
  0
LINE
  8
LC-002-005-----0
  6
CONTINUOUS
  5
239
 10
-85.387545
 20
242.710002
 30
0.0
 11
-82.188348
 21
245.909198
 31
0.0
  0
LINE
  8
LC-002-005-----0
  6
CONTINUOUS
  5
23A
 10
-85.387561
 20
245.538412
 30
0.0
 11
-82.188615
 21
248.737358
 31
0.0
  0
LINE
  8
LC-002-005-----0
  6
CONTINUOUS
  5
23B
 10
-85.387578
 20
248.366823
 30
0.0
 11
-82.188882
 21
251.565519
 31
0.0
  0
LINE
  8
LC-002-005-----0
  6
CONTINUOUS
  5
23C
 10
-85.387594
 20
251.195234
 30
0.0
 11
-82.189149
 21
254.393679
 31
0.0
  0
LINE
  8
LC-002-005-----0
  6
CONTINUOUS
  5
23D
 10
-87.408735
 20
252.00252
 30
0.0
 11
-84.908687
 21
254.502568
 31
0.0
  0
LINE
  8
LC-002-005-----0
  6
CONTINUOUS
  5
23E
 10
-90.236017
 20
252.003665
 30
0.0
 11
-87.736228
 21
254.503454
 31
0.0
  0
LINE
  8
LC-002-005-----0
  6
CONTINUOUS
  5
23F
 10
-92.451221
 20
252.616888
 30
0.0
 11
-90.178586
 21
254.889523
 31
0.0
  0
LINE
  8
LC-002-005-----0
  6
CONTINUOUS
  5
240
 10
-94.524901
 20
253.371635
 30
0.0
 11
-92.252265
 21
255.644271
 31
0.0
  0
LINE
  8
LC-002-005-----0
  6
CONTINUOUS
  5
241
 10
-96.598581
 20
254.126383
 30
0.0
 11
-94.325945
 21
256.399018
 31
0.0
  0
LINE
  8
LC-002-005-----0
  6
CONTINUOUS
  5
242
 10
-98.67226
 20
254.88113
 30
0.0
 11
-96.399625
 21
257.153766
 31
0.0
  0
LINE
  8
LC-002-005-----0
  6
CONTINUOUS
  5
243
 10
-100.74594
 20
255.635878
 30
0.0
 11
-98.473304
 21
257.908513
 31
0.0
  0
LINE
  8
LC-002-005-----0
  6
CONTINUOUS
  5
244
 10
-102.81962
 20
256.390625
 30
0.0
 11
-100.546984
 21
258.663261
 31
0.0
  0
LINE
  8
LC-002-005-----0
  6
CONTINUOUS
  5
245
 10
-104.893299
 20
257.145373
 30
0.0
 11
-102.620663
 21
259.418008
 31
0.0
  0
LINE
  8
LC-002-005-----0
  6
CONTINUOUS
  5
246
 10
-106.966979
 20
257.90012
 30
0.0
 11
-104.694343
 21
260.172756
 31
0.0
  0
LINE
  8
LC-002-005-----0
  6
CONTINUOUS
  5
247
 10
-109.040658
 20
258.654868
 30
0.0
 11
-106.768023
 21
260.927504
 31
0.0
  0
LINE
  8
LC-002-005-----0
  6
CONTINUOUS
  5
248
 10
-111.114338
 20
259.409615
 30
0.0
 11
-108.841702
 21
261.682251
 31
0.0
  0
LINE
  8
LC-002-005-----0
  6
CONTINUOUS
  5
249
 10
-113.188018
 20
260.164363
 30
0.0
 11
-110.915382
 21
262.436999
 31
0.0
  0
LINE
  8
LC-002-005-----0
  6
CONTINUOUS
  5
24A
 10
-116.001553
 20
260.179254
 30
0.0
 11
-113.001542
 21
263.179266
 31
0.0
  0
LINE
  8
LC-002-005-----0
  6
CONTINUOUS
  5
24B
 10
-118.829991
 20
260.179244
 30
0.0
 11
-115.829979
 21
263.179255
 31
0.0
  0
LINE
  8
LC-002-005-----0
  6
CONTINUOUS
  5
24C
 10
-121.658428
 20
260.179234
 30
0.0
 11
-118.658417
 21
263.179245
 31
0.0
  0
LINE
  8
LC-002-005-----0
  6
CONTINUOUS
  5
24D
 10
-124.486866
 20
260.179223
 30
0.0
 11
-121.486855
 21
263.179234
 31
0.0
  0
LINE
  8
LC-002-005-----0
  6
CONTINUOUS
  5
24E
 10
-127.315303
 20
260.179213
 30
0.0
 11
-124.315292
 21
263.179224
 31
0.0
  0
LINE
  8
LC-002-005-----0
  6
CONTINUOUS
  5
24F
 10
-130.143741
 20
260.179202
 30
0.0
 11
-127.14373
 21
263.179213
 31
0.0
  0
LINE
  8
LC-002-005-----0
  6
CONTINUOUS
  5
250
 10
-132.972178
 20
260.179192
 30
0.0
 11
-129.972167
 21
263.179203
 31
0.0
  0
LINE
  8
LC-002-005-----0
  6
CONTINUOUS
  5
251
 10
-135.800616
 20
260.179181
 30
0.0
 11
-132.800605
 21
263.179193
 31
0.0
  0
LINE
  8
LC-002-005-----0
  6
CONTINUOUS
  5
252
 10
-138.629054
 20
260.179171
 30
0.0
 11
-135.629042
 21
263.179182
 31
0.0
  0
LINE
  8
LC-002-005-----0
  6
CONTINUOUS
  5
253
 10
-141.457491
 20
260.179161
 30
0.0
 11
-138.45748
 21
263.179172
 31
0.0
  0
LINE
  8
LC-002-005-----0
  6
CONTINUOUS
  5
254
 10
-144.285929
 20
260.17915
 30
0.0
 11
-141.285918
 21
263.179161
 31
0.0
  0
LINE
  8
LC-002-005-----0
  6
CONTINUOUS
  5
255
 10
-147.114366
 20
260.17914
 30
0.0
 11
-144.114355
 21
263.179151
 31
0.0
  0
LINE
  8
LC-002-005-----0
  6
CONTINUOUS
  5
256
 10
-149.942804
 20
260.179129
 30
0.0
 11
-146.942793
 21
263.17914
 31
0.0
  0
LINE
  8
LC-002-005-----0
  6
CONTINUOUS
  5
257
 10
-152.771241
 20
260.179119
 30
0.0
 11
-149.77123
 21
263.17913
 31
0.0
  0
LINE
  8
LC-002-005-----0
  6
CONTINUOUS
  5
258
 10
-155.599679
 20
260.179108
 30
0.0
 11
-152.599668
 21
263.179119
 31
0.0
  0
LINE
  8
LC-002-005-----0
  6
CONTINUOUS
  5
259
 10
-158.428117
 20
260.179098
 30
0.0
 11
-155.428105
 21
263.179109
 31
0.0
  0
LINE
  8
LC-002-005-----0
  6
CONTINUOUS
  5
25A
 10
-161.256554
 20
260.179087
 30
0.0
 11
-158.256543
 21
263.179099
 31
0.0
  0
LINE
  8
LC-002-005-----0
  6
CONTINUOUS
  5
25B
 10
-162.252385
 20
262.011684
 30
0.0
 11
-161.26652
 21
262.997548
 31
0.0
  0
ENDBLK
  8
0
  5
25C
  0
BLOCK
  8
0
  5
25E
  2
*X59
 70
    65
 10
111.319716
 20
236.003233
 30
0.0
  3
*X59
  0
LINE
  8
LC-002-005-----0
  6
CONTINUOUS
  5
25F
 10
189.470012
 20
260.18069
 30
0.0
 11
191.357786
 21
262.068464
 31
0.0
  0
LINE
  8
LC-002-005-----0
  6
CONTINUOUS
  5
260
 10
186.641581
 20
260.180686
 30
0.0
 11
189.639346
 21
263.178452
 31
0.0
  0
LINE
  8
LC-002-005-----0
  6
CONTINUOUS
  5
261
 10
183.81315
 20
260.180682
 30
0.0
 11
186.812262
 21
263.179795
 31
0.0
  0
LINE
  8
LC-002-005-----0
  6
CONTINUOUS
  5
262
 10
180.984719
 20
260.180678
 30
0.0
 11
183.983835
 21
263.179795
 31
0.0
  0
LINE
  8
LC-002-005-----0
  6
CONTINUOUS
  5
263
 10
178.156288
 20
260.180674
 30
0.0
 11
181.155408
 21
263.179795
 31
0.0
  0
LINE
  8
LC-002-005-----0
  6
CONTINUOUS
  5
264
 10
175.327856
 20
260.18067
 30
0.0
 11
178.326981
 21
263.179795
 31
0.0
  0
LINE
  8
LC-002-005-----0
  6
CONTINUOUS
  5
265
 10
172.499425
 20
260.180666
 30
0.0
 11
175.498554
 21
263.179795
 31
0.0
  0
LINE
  8
LC-002-005-----0
  6
CONTINUOUS
  5
266
 10
169.670994
 20
260.180662
 30
0.0
 11
172.670127
 21
263.179795
 31
0.0
  0
LINE
  8
LC-002-005-----0
  6
CONTINUOUS
  5
267
 10
166.842563
 20
260.180658
 30
0.0
 11
169.8417
 21
263.179795
 31
0.0
  0
LINE
  8
LC-002-005-----0
  6
CONTINUOUS
  5
268
 10
164.014132
 20
260.180654
 30
0.0
 11
167.013272
 21
263.179795
 31
0.0
  0
LINE
  8
LC-002-005-----0
  6
CONTINUOUS
  5
269
 10
161.185701
 20
260.18065
 30
0.0
 11
164.184845
 21
263.179795
 31
0.0
  0
LINE
  8
LC-002-005-----0
  6
CONTINUOUS
  5
26A
 10
158.35727
 20
260.180646
 30
0.0
 11
161.356418
 21
263.179795
 31
0.0
  0
LINE
  8
LC-002-005-----0
  6
CONTINUOUS
  5
26B
 10
155.528838
 20
260.180642
 30
0.0
 11
158.527991
 21
263.179795
 31
0.0
  0
LINE
  8
LC-002-005-----0
  6
CONTINUOUS
  5
26C
 10
152.700407
 20
260.180638
 30
0.0
 11
155.699564
 21
263.179795
 31
0.0
  0
LINE
  8
LC-002-005-----0
  6
CONTINUOUS
  5
26D
 10
149.871976
 20
260.180634
 30
0.0
 11
152.871137
 21
263.179795
 31
0.0
  0
LINE
  8
LC-002-005-----0
  6
CONTINUOUS
  5
26E
 10
147.043545
 20
260.18063
 30
0.0
 11
150.04271
 21
263.179795
 31
0.0
  0
LINE
  8
LC-002-005-----0
  6
CONTINUOUS
  5
26F
 10
144.215114
 20
260.180626
 30
0.0
 11
147.214283
 21
263.179795
 31
0.0
  0
LINE
  8
LC-002-005-----0
  6
CONTINUOUS
  5
270
 10
140.830454
 20
259.624393
 30
0.0
 11
144.385855
 21
263.179795
 31
0.0
  0
LINE
  8
LC-002-005-----0
  6
CONTINUOUS
  5
271
 10
114.380867
 20
236.003233
 30
0.0
 11
114.519808
 21
236.142174
 31
0.0
  0
LINE
  8
LC-002-005-----0
  6
CONTINUOUS
  5
272
 10
136.38424
 20
258.006606
 30
0.0
 11
141.256903
 21
262.879269
 31
0.0
  0
LINE
  8
LC-002-005-----0
  6
CONTINUOUS
  5
273
 10
111.552439
 20
236.003233
 30
0.0
 11
114.519806
 21
238.970599
 31
0.0
  0
LINE
  8
LC-002-005-----0
  6
CONTINUOUS
  5
274
 10
131.938026
 20
256.38882
 30
0.0
 11
136.81066
 21
261.261454
 31
0.0
  0
LINE
  8
LC-002-005-----0
  6
CONTINUOUS
  5
275
 10
111.319945
 20
238.599165
 30
0.0
 11
114.519804
 21
241.799024
 31
0.0
  0
LINE
  8
LC-002-005-----0
  6
CONTINUOUS
  5
276
 10
127.491813
 20
254.771033
 30
0.0
 11
132.364418
 21
259.643639
 31
0.0
  0
LINE
  8
LC-002-005-----0
  6
CONTINUOUS
  5
277
 10
111.320194
 20
241.427842
 30
0.0
 11
114.519801
 21
244.627449
 31
0.0
  0
LINE
  8
LC-002-005-----0
  6
CONTINUOUS
  5
278
 10
123.045599
 20
253.153247
 30
0.0
 11
127.918175
 21
258.025823
 31
0.0
  0
LINE
  8
LC-002-005-----0
  6
CONTINUOUS
  5
279
 10
111.320443
 20
244.256518
 30
0.0
 11
114.519799
 21
247.455874
 31
0.0
  0
LINE
  8
LC-002-005-----0
  6
CONTINUOUS
  5
27A
 10
119.066059
 20
252.002134
 30
0.0
 11
123.471933
 21
256.408008
 31
0.0
  0
LINE
  8
LC-002-005-----0
  6
CONTINUOUS
  5
27B
 10
111.320692
 20
247.085194
 30
0.0
 11
114.519797
 21
250.284299
 31
0.0
  0
LINE
  8
LC-002-005-----0
  6
CONTINUOUS
  5
27C
 10
116.237632
 20
252.002134
 30
0.0
 11
119.02569
 21
254.790192
 31
0.0
  0
LINE
  8
LC-002-005-----0
  6
CONTINUOUS
  5
27D
 10
111.320941
 20
249.91387
 30
0.0
 11
115.909205
 21
254.502134
 31
0.0
  0
LINE
  8
LC-002-005-----0
  6
CONTINUOUS
  5
27E
 10
111.32119
 20
252.742546
 30
0.0
 11
113.080778
 21
254.502134
 31
0.0
  0
ENDBLK
  8
0
  5
27F
  0
BLOCK
  8
0
  5
281
  2
*X60
 70
    65
 10
-76.689159
 20
103.258317
 30
0.0
  3
*X60
  0
LINE
  8
LC-002-005-----0
  6
CONTINUOUS
  5
282
 10
-46.64832
 20
103.258317
 30
0.0
 11
-44.933935
 21
104.972703
 31
0.0
  0
LINE
  8
LC-002-005-----0
  6
CONTINUOUS
  5
283
 10
-47.309008
 20
105.426057
 30
0.0
 11
-44.933935
 21
107.80113
 31
0.0
  0
LINE
  8
LC-002-005-----0
  6
CONTINUOUS
  5
284
 10
-47.906725
 20
107.656767
 30
0.0
 11
-44.933935
 21
110.629557
 31
0.0
  0
LINE
  8
LC-002-005-----0
  6
CONTINUOUS
  5
285
 10
-47.933935
 20
110.457984
 30
0.0
 11
-44.933935
 21
113.457984
 31
0.0
  0
LINE
  8
LC-002-005-----0
  6
CONTINUOUS
  5
286
 10
-47.933935
 20
113.286411
 30
0.0
 11
-44.933935
 21
116.286411
 31
0.0
  0
LINE
  8
LC-002-005-----0
  6
CONTINUOUS
  5
287
 10
-47.933935
 20
116.114838
 30
0.0
 11
-44.933935
 21
119.114838
 31
0.0
  0
LINE
  8
LC-002-005-----0
  6
CONTINUOUS
  5
288
 10
-47.933935
 20
118.943265
 30
0.0
 11
-44.933935
 21
121.943265
 31
0.0
  0
LINE
  8
LC-002-005-----0
  6
CONTINUOUS
  5
289
 10
-47.933935
 20
121.771693
 30
0.0
 11
-44.933935
 21
124.771693
 31
0.0
  0
LINE
  8
LC-002-005-----0
  6
CONTINUOUS
  5
28A
 10
-47.933935
 20
124.60012
 30
0.0
 11
-44.933935
 21
127.60012
 31
0.0
  0
LINE
  8
LC-002-005-----0
  6
CONTINUOUS
  5
28B
 10
-47.933935
 20
127.428547
 30
0.0
 11
-44.933935
 21
130.428547
 31
0.0
  0
LINE
  8
LC-002-005-----0
  6
CONTINUOUS
  5
28C
 10
-47.933935
 20
130.256974
 30
0.0
 11
-44.933935
 21
133.256974
 31
0.0
  0
LINE
  8
LC-002-005-----0
  6
CONTINUOUS
  5
28D
 10
-47.933935
 20
133.085401
 30
0.0
 11
-44.933935
 21
136.085401
 31
0.0
  0
LINE
  8
LC-002-005-----0
  6
CONTINUOUS
  5
28E
 10
-47.933935
 20
135.913828
 30
0.0
 11
-44.933935
 21
138.913828
 31
0.0
  0
LINE
  8
LC-002-005-----0
  6
CONTINUOUS
  5
28F
 10
-47.933935
 20
138.742255
 30
0.0
 11
-44.933935
 21
141.742255
 31
0.0
  0
LINE
  8
LC-002-005-----0
  6
CONTINUOUS
  5
290
 10
-47.933935
 20
141.570682
 30
0.0
 11
-44.933935
 21
144.570682
 31
0.0
  0
LINE
  8
LC-002-005-----0
  6
CONTINUOUS
  5
291
 10
-47.933935
 20
144.39911
 30
0.0
 11
-44.933935
 21
147.39911
 31
0.0
  0
LINE
  8
LC-002-005-----0
  6
CONTINUOUS
  5
292
 10
-47.933935
 20
147.227537
 30
0.0
 11
-44.933935
 21
150.227537
 31
0.0
  0
LINE
  8
LC-002-005-----0
  6
CONTINUOUS
  5
293
 10
-47.933935
 20
150.055964
 30
0.0
 11
-44.933935
 21
153.055964
 31
0.0
  0
LINE
  8
LC-002-005-----0
  6
CONTINUOUS
  5
294
 10
-47.933935
 20
152.884391
 30
0.0
 11
-44.933935
 21
155.884391
 31
0.0
  0
LINE
  8
LC-002-005-----0
  6
CONTINUOUS
  5
295
 10
-47.933935
 20
155.712818
 30
0.0
 11
-44.933935
 21
158.712818
 31
0.0
  0
LINE
  8
LC-002-005-----0
  6
CONTINUOUS
  5
296
 10
-47.933935
 20
158.541245
 30
0.0
 11
-44.933935
 21
161.541245
 31
0.0
  0
LINE
  8
LC-002-005-----0
  6
CONTINUOUS
  5
297
 10
-47.933935
 20
161.369672
 30
0.0
 11
-44.933935
 21
164.369672
 31
0.0
  0
LINE
  8
LC-002-005-----0
  6
CONTINUOUS
  5
298
 10
-47.933935
 20
164.198099
 30
0.0
 11
-44.933935
 21
167.198099
 31
0.0
  0
LINE
  8
LC-002-005-----0
  6
CONTINUOUS
  5
299
 10
-47.933935
 20
167.026527
 30
0.0
 11
-44.933935
 21
170.026527
 31
0.0
  0
LINE
  8
LC-002-005-----0
  6
CONTINUOUS
  5
29A
 10
-48.530571
 20
169.258317
 30
0.0
 11
-44.933935
 21
172.854954
 31
0.0
  0
LINE
  8
LC-002-005-----0
  6
CONTINUOUS
  5
29B
 10
-51.358998
 20
169.258317
 30
0.0
 11
-46.209732
 21
174.407583
 31
0.0
  0
LINE
  8
LC-002-005-----0
  6
CONTINUOUS
  5
29C
 10
-53.183228
 20
170.262515
 30
0.0
 11
-48.730571
 21
174.715172
 31
0.0
  0
LINE
  8
LC-002-005-----0
  6
CONTINUOUS
  5
29D
 10
-53.183228
 20
173.090942
 30
0.0
 11
-49.933935
 21
176.340235
 31
0.0
  0
LINE
  8
LC-002-005-----0
  6
CONTINUOUS
  5
29E
 10
-53.183228
 20
175.919369
 30
0.0
 11
-49.933935
 21
179.168662
 31
0.0
  0
LINE
  8
LC-002-005-----0
  6
CONTINUOUS
  5
29F
 10
-53.183228
 20
178.747796
 30
0.0
 11
-49.933935
 21
181.997089
 31
0.0
  0
LINE
  8
LC-002-005-----0
  6
CONTINUOUS
  5
2A0
 10
-65.319488
 20
169.439964
 30
0.0
 11
-62.933228
 21
171.826223
 31
0.0
  0
LINE
  8
LC-002-005-----0
  6
CONTINUOUS
  5
2A1
 10
-53.183228
 20
181.576223
 30
0.0
 11
-49.933935
 21
184.825516
 31
0.0
  0
LINE
  8
LC-002-005-----0
  6
CONTINUOUS
  5
2A2
 10
-65.433935
 20
172.153944
 30
0.0
 11
-62.933228
 21
174.65465
 31
0.0
  0
LINE
  8
LC-002-005-----0
  6
CONTINUOUS
  5
2A3
 10
-53.183228
 20
184.40465
 30
0.0
 11
-49.933935
 21
187.653944
 31
0.0
  0
LINE
  8
LC-002-005-----0
  6
CONTINUOUS
  5
2A4
 10
-65.433935
 20
174.982371
 30
0.0
 11
-62.933228
 21
177.483078
 31
0.0
  0
LINE
  8
LC-002-005-----0
  6
CONTINUOUS
  5
2A5
 10
-53.183228
 20
187.233078
 30
0.0
 11
-49.933935
 21
190.482371
 31
0.0
  0
LINE
  8
LC-002-005-----0
  6
CONTINUOUS
  5
2A6
 10
-65.433935
 20
177.810798
 30
0.0
 11
-62.933228
 21
180.311505
 31
0.0
  0
LINE
  8
LC-002-005-----0
  6
CONTINUOUS
  5
2A7
 10
-53.183228
 20
190.061505
 30
0.0
 11
-49.933935
 21
193.310798
 31
0.0
  0
LINE
  8
LC-002-005-----0
  6
CONTINUOUS
  5
2A8
 10
-65.433935
 20
180.639225
 30
0.0
 11
-62.933228
 21
183.139932
 31
0.0
  0
LINE
  8
LC-002-005-----0
  6
CONTINUOUS
  5
2A9
 10
-53.183228
 20
192.889932
 30
0.0
 11
-49.933935
 21
196.139225
 31
0.0
  0
LINE
  8
LC-002-005-----0
  6
CONTINUOUS
  5
2AA
 10
-65.433935
 20
183.467652
 30
0.0
 11
-62.933228
 21
185.968359
 31
0.0
  0
LINE
  8
LC-002-005-----0
  6
CONTINUOUS
  5
2AB
 10
-53.183228
 20
195.718359
 30
0.0
 11
-49.933935
 21
198.967652
 31
0.0
  0
LINE
  8
LC-002-005-----0
  6
CONTINUOUS
  5
2AC
 10
-65.433935
 20
186.296079
 30
0.0
 11
-62.933228
 21
188.796786
 31
0.0
  0
LINE
  8
LC-002-005-----0
  6
CONTINUOUS
  5
2AD
 10
-53.183228
 20
198.546786
 30
0.0
 11
-49.933935
 21
201.796079
 31
0.0
  0
LINE
  8
LC-002-005-----0
  6
CONTINUOUS
  5
2AE
 10
-65.433935
 20
189.124506
 30
0.0
 11
-62.933228
 21
191.625213
 31
0.0
  0
LINE
  8
LC-002-005-----0
  6
CONTINUOUS
  5
2AF
 10
-53.183228
 20
201.375213
 30
0.0
 11
-49.933935
 21
204.624506
 31
0.0
  0
LINE
  8
LC-002-005-----0
  6
CONTINUOUS
  5
2B0
 10
-65.433935
 20
191.952933
 30
0.0
 11
-62.933228
 21
194.45364
 31
0.0
  0
LINE
  8
LC-002-005-----0
  6
CONTINUOUS
  5
2B1
 10
-53.701898
 20
203.68497
 30
0.0
 11
-50.30278
 21
207.084088
 31
0.0
  0
LINE
  8
LC-002-005-----0
  6
CONTINUOUS
  5
2B2
 10
-65.433935
 20
194.781361
 30
0.0
 11
-62.933228
 21
197.282067
 31
0.0
  0
LINE
  8
LC-002-005-----0
  6
CONTINUOUS
  5
2B3
 10
-56.375843
 20
203.839453
 30
0.0
 11
-52.906865
 21
207.308431
 31
0.0
  0
LINE
  8
LC-002-005-----0
  6
CONTINUOUS
  5
2B4
 10
-65.433935
 20
197.609788
 30
0.0
 11
-62.933228
 21
200.110495
 31
0.0
  0
LINE
  8
LC-002-005-----0
  6
CONTINUOUS
  5
2B5
 10
-58.08657
 20
204.957153
 30
0.0
 11
-55.673929
 21
207.369793
 31
0.0
  0
LINE
  8
LC-002-005-----0
  6
CONTINUOUS
  5
2B6
 10
-65.433935
 20
200.438215
 30
0.0
 11
-62.933228
 21
202.938922
 31
0.0
  0
LINE
  8
LC-002-005-----0
  6
CONTINUOUS
  5
2B7
 10
-58.483228
 20
207.388922
 30
0.0
 11
-55.933935
 21
209.938215
 31
0.0
  0
LINE
  8
LC-002-005-----0
  6
CONTINUOUS
  5
2B8
 10
-65.433935
 20
203.266642
 30
0.0
 11
-62.933228
 21
205.767349
 31
0.0
  0
LINE
  8
LC-002-005-----0
  6
CONTINUOUS
  5
2B9
 10
-58.483228
 20
210.217349
 30
0.0
 11
-55.933935
 21
212.766642
 31
0.0
  0
LINE
  8
LC-002-005-----0
  6
CONTINUOUS
  5
2BA
 10
-65.433935
 20
206.095069
 30
0.0
 11
-62.933228
 21
208.595776
 31
0.0
  0
LINE
  8
LC-002-005-----0
  6
CONTINUOUS
  5
2BB
 10
-58.483228
 20
213.045776
 30
0.0
 11
-55.933935
 21
215.595069
 31
0.0
  0
LINE
  8
LC-002-005-----0
  6
CONTINUOUS
  5
2BC
 10
-65.433935
 20
208.923496
 30
0.0
 11
-62.933228
 21
211.424203
 31
0.0
  0
LINE
  8
LC-002-005-----0
  6
CONTINUOUS
  5
2BD
 10
-58.483228
 20
215.874203
 30
0.0
 11
-55.933935
 21
218.423496
 31
0.0
  0
LINE
  8
LC-002-005-----0
  6
CONTINUOUS
  5
2BE
 10
-65.433935
 20
211.751923
 30
0.0
 11
-62.933228
 21
214.25263
 31
0.0
  0
LINE
  8
LC-002-005-----0
  6
CONTINUOUS
  5
2BF
 10
-59.477444
 20
217.708414
 30
0.0
 11
-55.933935
 21
221.251923
 31
0.0
  0
LINE
  8
LC-002-005-----0
  6
CONTINUOUS
  5
2C0
 10
-65.433935
 20
214.58035
 30
0.0
 11
-62.789759
 21
217.224526
 31
0.0
  0
LINE
  8
LC-002-005-----0
  6
CONTINUOUS
  5
2C1
 10
-62.449323
 20
217.564962
 30
0.0
 11
-57.705854
 21
222.308431
 31
0.0
  0
LINE
  8
LC-002-005-----0
  6
CONTINUOUS
  5
2C2
 10
-65.433935
 20
217.408778
 30
0.0
 11
-60.534282
 21
222.308431
 31
0.0
  0
LINE
  8
LC-002-005-----0
  6
CONTINUOUS
  5
2C3
 10
-65.433935
 20
220.237205
 30
0.0
 11
-63.115389
 21
222.555751
 31
0.0
  0
LINE
  8
LC-002-005-----0
  6
CONTINUOUS
  5
2C4
 10
-65.433935
 20
223.065632
 30
0.0
 11
-63.183935
 21
225.315632
 31
0.0
  0
LINE
  8
LC-002-005-----0
  6
CONTINUOUS
  5
2C5
 10
-65.433935
 20
225.894059
 30
0.0
 11
-63.183935
 21
228.144059
 31
0.0
  0
LINE
  8
LC-002-005-----0
  6
CONTINUOUS
  5
2C6
 10
-65.433935
 20
228.722486
 30
0.0
 11
-63.183935
 21
230.972486
 31
0.0
  0
LINE
  8
LC-002-005-----0
  6
CONTINUOUS
  5
2C7
 10
-65.433935
 20
231.550913
 30
0.0
 11
-63.579573
 21
233.405275
 31
0.0
  0
LINE
  8
LC-002-005-----0
  6
CONTINUOUS
  5
2C8
 10
-66.311664
 20
233.501611
 30
0.0
 11
-64.993786
 21
234.819489
 31
0.0
  0
LINE
  8
LC-002-005-----0
  6
CONTINUOUS
  5
2C9
 10
-69.018136
 20
233.623566
 30
0.0
 11
-66.408
 21
236.233703
 31
0.0
  0
LINE
  8
LC-002-005-----0
  6
CONTINUOUS
  5
2CA
 10
-70.396213
 20
235.073916
 30
0.0
 11
-67.822213
 21
237.647916
 31
0.0
  0
LINE
  8
LC-002-005-----0
  6
CONTINUOUS
  5
2CB
 10
-70.395947
 20
237.90261
 30
0.0
 11
-67.933936
 21
240.364621
 31
0.0
  0
LINE
  8
LC-002-005-----0
  6
CONTINUOUS
  5
2CC
 10
-75.123732
 20
236.003252
 30
0.0
 11
-73.433915
 21
237.693069
 31
0.0
  0
LINE
  8
LC-002-005-----0
  6
CONTINUOUS
  5
2CD
 10
-70.39568
 20
240.731303
 30
0.0
 11
-67.933936
 21
243.193048
 31
0.0
  0
LINE
  8
LC-002-005-----0
  6
CONTINUOUS
  5
2CE
 10
-76.687533
 20
237.267878
 30
0.0
 11
-73.433919
 21
240.521492
 31
0.0
  0
LINE
  8
LC-002-005-----0
  6
CONTINUOUS
  5
2CF
 10
-70.395414
 20
243.559997
 30
0.0
 11
-67.933936
 21
246.021475
 31
0.0
  0
LINE
  8
LC-002-005-----0
  6
CONTINUOUS
  5
2D0
 10
-76.6878
 20
240.096038
 30
0.0
 11
-73.433923
 21
243.349915
 31
0.0
  0
LINE
  8
LC-002-005-----0
  6
CONTINUOUS
  5
2D1
 10
-70.395148
 20
246.38869
 30
0.0
 11
-67.933936
 21
248.849902
 31
0.0
  0
LINE
  8
LC-002-005-----0
  6
CONTINUOUS
  5
2D2
 10
-76.688067
 20
242.924198
 30
0.0
 11
-73.433927
 21
246.178338
 31
0.0
  0
LINE
  8
LC-002-005-----0
  6
CONTINUOUS
  5
2D3
 10
-70.394881
 20
249.217384
 30
0.0
 11
-67.933936
 21
251.678329
 31
0.0
  0
LINE
  8
LC-002-005-----0
  6
CONTINUOUS
  5
2D4
 10
-76.688601
 20
248.580519
 30
0.0
 11
-73.433936
 21
251.835184
 31
0.0
  0
LINE
  8
LC-002-005-----0
  6
CONTINUOUS
  5
2D5
 10
-73.267418
 20
252.001702
 30
0.0
 11
-70.766295
 21
254.502824
 31
0.0
  0
LINE
  8
LC-002-005-----0
  6
CONTINUOUS
  5
2D6
 10
-76.688867
 20
251.408679
 30
0.0
 11
-73.594997
 21
254.50255
 31
0.0
  0
LINE
  8
LC-002-005-----0
  6
CONTINUOUS
  5
2D7
 10
-76.689134
 20
254.236839
 30
0.0
 11
-76.423698
 21
254.502275
 31
0.0
  0
ENDBLK
  8
0
  5
2D8
  0
BLOCK
  8
0
  5
2DA
  2
*X61
 70
    65
 10
74.066065
 20
103.258317
 30
0.0
  3
*X61
  0
LINE
  8
LC-002-005-----0
  6
CONTINUOUS
  5
2DB
 10
74.974046
 20
103.258317
 30
0.0
 11
76.184683
 21
104.468954
 31
0.0
  0
LINE
  8
LC-002-005-----0
  6
CONTINUOUS
  5
2DC
 10
74.066065
 20
105.178763
 30
0.0
 11
77.066065
 21
108.178763
 31
0.0
  0
LINE
  8
LC-002-005-----0
  6
CONTINUOUS
  5
2DD
 10
74.066065
 20
108.007191
 30
0.0
 11
77.066065
 21
111.007191
 31
0.0
  0
LINE
  8
LC-002-005-----0
  6
CONTINUOUS
  5
2DE
 10
74.066065
 20
110.835618
 30
0.0
 11
77.066065
 21
113.835618
 31
0.0
  0
LINE
  8
LC-002-005-----0
  6
CONTINUOUS
  5
2DF
 10
74.066065
 20
113.664045
 30
0.0
 11
77.066065
 21
116.664045
 31
0.0
  0
LINE
  8
LC-002-005-----0
  6
CONTINUOUS
  5
2E0
 10
74.066065
 20
116.492472
 30
0.0
 11
77.066065
 21
119.492472
 31
0.0
  0
LINE
  8
LC-002-005-----0
  6
CONTINUOUS
  5
2E1
 10
74.066065
 20
119.320899
 30
0.0
 11
77.066065
 21
122.320899
 31
0.0
  0
LINE
  8
LC-002-005-----0
  6
CONTINUOUS
  5
2E2
 10
74.066065
 20
122.149326
 30
0.0
 11
77.066065
 21
125.149326
 31
0.0
  0
LINE
  8
LC-002-005-----0
  6
CONTINUOUS
  5
2E3
 10
74.066065
 20
124.977753
 30
0.0
 11
77.066065
 21
127.977753
 31
0.0
  0
LINE
  8
LC-002-005-----0
  6
CONTINUOUS
  5
2E4
 10
74.066065
 20
127.80618
 30
0.0
 11
77.066065
 21
130.80618
 31
0.0
  0
LINE
  8
LC-002-005-----0
  6
CONTINUOUS
  5
2E5
 10
74.066065
 20
130.634608
 30
0.0
 11
77.066065
 21
133.634608
 31
0.0
  0
LINE
  8
LC-002-005-----0
  6
CONTINUOUS
  5
2E6
 10
74.066065
 20
133.463035
 30
0.0
 11
77.066065
 21
136.463035
 31
0.0
  0
LINE
  8
LC-002-005-----0
  6
CONTINUOUS
  5
2E7
 10
74.066065
 20
136.291462
 30
0.0
 11
77.066065
 21
139.291462
 31
0.0
  0
LINE
  8
LC-002-005-----0
  6
CONTINUOUS
  5
2E8
 10
74.066065
 20
139.119889
 30
0.0
 11
77.066065
 21
142.119889
 31
0.0
  0
LINE
  8
LC-002-005-----0
  6
CONTINUOUS
  5
2E9
 10
74.066065
 20
141.948316
 30
0.0
 11
77.066065
 21
144.948316
 31
0.0
  0
LINE
  8
LC-002-005-----0
  6
CONTINUOUS
  5
2EA
 10
74.066065
 20
144.776743
 30
0.0
 11
77.066065
 21
147.776743
 31
0.0
  0
LINE
  8
LC-002-005-----0
  6
CONTINUOUS
  5
2EB
 10
74.066065
 20
147.60517
 30
0.0
 11
77.066065
 21
150.60517
 31
0.0
  0
LINE
  8
LC-002-005-----0
  6
CONTINUOUS
  5
2EC
 10
74.066065
 20
150.433597
 30
0.0
 11
77.066065
 21
153.433597
 31
0.0
  0
LINE
  8
LC-002-005-----0
  6
CONTINUOUS
  5
2ED
 10
92.890785
 20
169.258317
 30
0.0
 11
94.566065
 21
170.933597
 31
0.0
  0
LINE
  8
LC-002-005-----0
  6
CONTINUOUS
  5
2EE
 10
74.066065
 20
153.262025
 30
0.0
 11
77.066065
 21
156.262025
 31
0.0
  0
LINE
  8
LC-002-005-----0
  6
CONTINUOUS
  5
2EF
 10
92.065358
 20
171.261318
 30
0.0
 11
94.566065
 21
173.762025
 31
0.0
  0
LINE
  8
LC-002-005-----0
  6
CONTINUOUS
  5
2F0
 10
74.066065
 20
156.090452
 30
0.0
 11
77.066065
 21
159.090452
 31
0.0
  0
LINE
  8
LC-002-005-----0
  6
CONTINUOUS
  5
2F1
 10
92.065358
 20
174.089745
 30
0.0
 11
94.566065
 21
176.590452
 31
0.0
  0
LINE
  8
LC-002-005-----0
  6
CONTINUOUS
  5
2F2
 10
74.066065
 20
158.918879
 30
0.0
 11
77.066065
 21
161.918879
 31
0.0
  0
LINE
  8
LC-002-005-----0
  6
CONTINUOUS
  5
2F3
 10
92.065358
 20
176.918172
 30
0.0
 11
94.566065
 21
179.418879
 31
0.0
  0
LINE
  8
LC-002-005-----0
  6
CONTINUOUS
  5
2F4
 10
74.066065
 20
161.747306
 30
0.0
 11
77.066065
 21
164.747306
 31
0.0
  0
LINE
  8
LC-002-005-----0
  6
CONTINUOUS
  5
2F5
 10
81.577076
 20
169.258317
 30
0.0
 11
82.315358
 21
169.996599
 31
0.0
  0
LINE
  8
LC-002-005-----0
  6
CONTINUOUS
  5
2F6
 10
92.065358
 20
179.746599
 30
0.0
 11
94.566065
 21
182.247306
 31
0.0
  0
LINE
  8
LC-002-005-----0
  6
CONTINUOUS
  5
2F7
 10
74.066065
 20
164.575733
 30
0.0
 11
77.066065
 21
167.575733
 31
0.0
  0
LINE
  8
LC-002-005-----0
  6
CONTINUOUS
  5
2F8
 10
78.748649
 20
169.258317
 30
0.0
 11
82.315358
 21
172.825026
 31
0.0
  0
LINE
  8
LC-002-005-----0
  6
CONTINUOUS
  5
2F9
 10
92.065358
 20
182.575026
 30
0.0
 11
94.566065
 21
185.075733
 31
0.0
  0
LINE
  8
LC-002-005-----0
  6
CONTINUOUS
  5
2FA
 10
74.066065
 20
167.40416
 30
0.0
 11
82.315358
 21
175.653453
 31
0.0
  0
LINE
  8
LC-002-005-----0
  6
CONTINUOUS
  5
2FB
 10
92.065358
 20
185.403453
 30
0.0
 11
94.566065
 21
187.90416
 31
0.0
  0
LINE
  8
LC-002-005-----0
  6
CONTINUOUS
  5
2FC
 10
74.066065
 20
170.232587
 30
0.0
 11
78.644348
 21
174.81087
 31
0.0
  0
LINE
  8
LC-002-005-----0
  6
CONTINUOUS
  5
2FD
 10
79.059899
 20
175.226421
 30
0.0
 11
82.315358
 21
178.48188
 31
0.0
  0
LINE
  8
LC-002-005-----0
  6
CONTINUOUS
  5
2FE
 10
92.065358
 20
188.23188
 30
0.0
 11
94.566065
 21
190.732587
 31
0.0
  0
LINE
  8
LC-002-005-----0
  6
CONTINUOUS
  5
2FF
 10
74.066065
 20
173.061014
 30
0.0
 11
75.42247
 21
174.417419
 31
0.0
  0
LINE
  8
LC-002-005-----0
  6
CONTINUOUS
  5
300
 10
79.066065
 20
178.061014
 30
0.0
 11
82.315358
 21
181.310307
 31
0.0
  0
LINE
  8
LC-002-005-----0
  6
CONTINUOUS
  5
301
 10
92.065358
 20
191.060307
 30
0.0
 11
94.566065
 21
193.561014
 31
0.0
  0
LINE
  8
LC-002-005-----0
  6
CONTINUOUS
  5
302
 10
79.066065
 20
180.889442
 30
0.0
 11
82.315358
 21
184.138735
 31
0.0
  0
LINE
  8
LC-002-005-----0
  6
CONTINUOUS
  5
303
 10
92.065358
 20
193.888735
 30
0.0
 11
94.566065
 21
196.389442
 31
0.0
  0
LINE
  8
LC-002-005-----0
  6
CONTINUOUS
  5
304
 10
79.066065
 20
183.717869
 30
0.0
 11
82.315358
 21
186.967162
 31
0.0
  0
LINE
  8
LC-002-005-----0
  6
CONTINUOUS
  5
305
 10
92.065358
 20
196.717162
 30
0.0
 11
94.566065
 21
199.217869
 31
0.0
  0
LINE
  8
LC-002-005-----0
  6
CONTINUOUS
  5
306
 10
79.066065
 20
186.546296
 30
0.0
 11
82.315358
 21
189.795589
 31
0.0
  0
LINE
  8
LC-002-005-----0
  6
CONTINUOUS
  5
307
 10
92.065358
 20
199.545589
 30
0.0
 11
94.566065
 21
202.046296
 31
0.0
  0
LINE
  8
LC-002-005-----0
  6
CONTINUOUS
  5
308
 10
79.066065
 20
189.374723
 30
0.0
 11
82.315358
 21
192.624016
 31
0.0
  0
LINE
  8
LC-002-005-----0
  6
CONTINUOUS
  5
309
 10
92.065358
 20
202.374016
 30
0.0
 11
94.566065
 21
204.874723
 31
0.0
  0
LINE
  8
LC-002-005-----0
  6
CONTINUOUS
  5
30A
 10
79.066065
 20
192.20315
 30
0.0
 11
82.315358
 21
195.452443
 31
0.0
  0
LINE
  8
LC-002-005-----0
  6
CONTINUOUS
  5
30B
 10
92.065358
 20
205.202443
 30
0.0
 11
94.566065
 21
207.70315
 31
0.0
  0
LINE
  8
LC-002-005-----0
  6
CONTINUOUS
  5
30C
 10
79.066065
 20
195.031577
 30
0.0
 11
82.315358
 21
198.28087
 31
0.0
  0
LINE
  8
LC-002-005-----0
  6
CONTINUOUS
  5
30D
 10
92.065358
 20
208.03087
 30
0.0
 11
94.566065
 21
210.531577
 31
0.0
  0
LINE
  8
LC-002-005-----0
  6
CONTINUOUS
  5
30E
 10
79.066065
 20
197.860004
 30
0.0
 11
82.315358
 21
201.109297
 31
0.0
  0
LINE
  8
LC-002-005-----0
  6
CONTINUOUS
  5
30F
 10
84.964492
 20
203.758431
 30
0.0
 11
87.615358
 21
206.409297
 31
0.0
  0
LINE
  8
LC-002-005-----0
  6
CONTINUOUS
  5
310
 10
92.065358
 20
210.859297
 30
0.0
 11
94.566065
 21
213.360004
 31
0.0
  0
LINE
  8
LC-002-005-----0
  6
CONTINUOUS
  5
311
 10
79.066065
 20
200.688431
 30
0.0
 11
87.615358
 21
209.237724
 31
0.0
  0
LINE
  8
LC-002-005-----0
  6
CONTINUOUS
  5
312
 10
92.065358
 20
213.687724
 30
0.0
 11
94.566065
 21
216.188431
 31
0.0
  0
LINE
  8
LC-002-005-----0
  6
CONTINUOUS
  5
313
 10
79.066065
 20
203.516859
 30
0.0
 11
82.857637
 21
207.308431
 31
0.0
  0
LINE
  8
LC-002-005-----0
  6
CONTINUOUS
  5
314
 10
85.066065
 20
209.516859
 30
0.0
 11
87.615358
 21
212.066152
 31
0.0
  0
LINE
  8
LC-002-005-----0
  6
CONTINUOUS
  5
315
 10
92.065358
 20
216.516152
 30
0.0
 11
94.566065
 21
219.016859
 31
0.0
  0
LINE
  8
LC-002-005-----0
  6
CONTINUOUS
  5
316
 10
79.066771
 20
206.345991
 30
0.0
 11
80.028505
 21
207.307725
 31
0.0
  0
LINE
  8
LC-002-005-----0
  6
CONTINUOUS
  5
317
 10
85.066065
 20
212.345286
 30
0.0
 11
87.615358
 21
214.894579
 31
0.0
  0
LINE
  8
LC-002-005-----0
  6
CONTINUOUS
  5
318
 10
90.42921
 20
217.708431
 30
0.0
 11
94.566065
 21
221.845286
 31
0.0
  0
LINE
  8
LC-002-005-----0
  6
CONTINUOUS
  5
319
 10
85.066065
 20
215.173713
 30
0.0
 11
94.566065
 21
224.673713
 31
0.0
  0
LINE
  8
LC-002-005-----0
  6
CONTINUOUS
  5
31A
 10
85.066065
 20
218.00214
 30
0.0
 11
89.372356
 21
222.308431
 31
0.0
  0
LINE
  8
LC-002-005-----0
  6
CONTINUOUS
  5
31B
 10
92.316065
 20
225.25214
 30
0.0
 11
94.566065
 21
227.50214
 31
0.0
  0
LINE
  8
LC-002-005-----0
  6
CONTINUOUS
  5
31C
 10
103.067158
 20
236.003233
 30
0.0
 11
105.819959
 21
238.756033
 31
0.0
  0
LINE
  8
LC-002-005-----0
  6
CONTINUOUS
  5
31D
 10
85.066065
 20
220.830567
 30
0.0
 11
86.543929
 21
222.308431
 31
0.0
  0
LINE
  8
LC-002-005-----0
  6
CONTINUOUS
  5
31E
 10
92.316065
 20
228.080567
 30
0.0
 11
94.566065
 21
230.330567
 31
0.0
  0
LINE
  8
LC-002-005-----0
  6
CONTINUOUS
  5
31F
 10
97.859064
 20
233.623566
 30
0.0
 11
99.566369
 21
235.330871
 31
0.0
  0
LINE
  8
LC-002-005-----0
  6
CONTINUOUS
  5
320
 10
102.566075
 20
238.330577
 30
0.0
 11
105.820208
 21
241.58471
 31
0.0
  0
LINE
  8
LC-002-005-----0
  6
CONTINUOUS
  5
321
 10
92.316065
 20
230.908994
 30
0.0
 11
99.566118
 21
238.159047
 31
0.0
  0
LINE
  8
LC-002-005-----0
  6
CONTINUOUS
  5
322
 10
102.566073
 20
241.159002
 30
0.0
 11
105.820457
 21
244.413386
 31
0.0
  0
LINE
  8
LC-002-005-----0
  6
CONTINUOUS
  5
323
 10
97.066064
 20
238.48742
 30
0.0
 11
99.565868
 21
240.987224
 31
0.0
  0
LINE
  8
LC-002-005-----0
  6
CONTINUOUS
  5
324
 10
102.56607
 20
243.987427
 30
0.0
 11
105.820706
 21
247.242062
 31
0.0
  0
LINE
  8
LC-002-005-----0
  6
CONTINUOUS
  5
325
 10
97.066064
 20
241.315847
 30
0.0
 11
99.565617
 21
243.8154
 31
0.0
  0
LINE
  8
LC-002-005-----0
  6
CONTINUOUS
  5
326
 10
102.566068
 20
246.815851
 30
0.0
 11
105.820955
 21
250.070738
 31
0.0
  0
LINE
  8
LC-002-005-----0
  6
CONTINUOUS
  5
327
 10
97.066064
 20
244.144274
 30
0.0
 11
99.565367
 21
246.643577
 31
0.0
  0
LINE
  8
LC-002-005-----0
  6
CONTINUOUS
  5
328
 10
102.566066
 20
249.644276
 30
0.0
 11
105.821204
 21
252.899414
 31
0.0
  0
LINE
  8
LC-002-005-----0
  6
CONTINUOUS
  5
329
 10
97.066064
 20
246.972702
 30
0.0
 11
99.565116
 21
249.471754
 31
0.0
  0
LINE
  8
LC-002-005-----0
  6
CONTINUOUS
  5
32A
 10
102.095064
 20
252.001702
 30
0.0
 11
104.59612
 21
254.502758
 31
0.0
  0
LINE
  8
LC-002-005-----0
  6
CONTINUOUS
  5
32B
 10
97.066064
 20
249.801129
 30
0.0
 11
101.767955
 21
254.50302
 31
0.0
  0
LINE
  8
LC-002-005-----0
  6
CONTINUOUS
  5
32C
 10
97.066064
 20
252.629556
 30
0.0
 11
98.93979
 21
254.503282
 31
0.0
  0
ENDBLK
  8
0
  5
32D
  0
BLOCK
  8
0
  5
32F
  2
*X62
 70
    65
 10
77.316067
 20
157.258317
 30
0.0
  3
*X62
  0
LINE
  8
LC-002-005-----0
  6
CONTINUOUS
  5
330
 10
88.720602
 20
159.43128
 30
0.0
 11
94.893104
 21
165.603782
 31
0.0
  0
LINE
  8
LC-002-005-----0
  6
CONTINUOUS
  5
331
 10
83.719212
 20
157.258317
 30
0.0
 11
85.308659
 21
158.847764
 31
0.0
  0
LINE
  8
LC-002-005-----0
  6
CONTINUOUS
  5
332
 10
85.719212
 20
159.258317
 30
0.0
 11
94.816067
 21
168.355172
 31
0.0
  0
LINE
  8
LC-002-005-----0
  6
CONTINUOUS
  5
333
 10
80.890785
 20
157.258317
 30
0.0
 11
85.390785
 21
161.758317
 31
0.0
  0
LINE
  8
LC-002-005-----0
  6
CONTINUOUS
  5
334
 10
89.566067
 20
165.933599
 30
0.0
 11
92.890785
 21
169.258317
 31
0.0
  0
LINE
  8
LC-002-005-----0
  6
CONTINUOUS
  5
335
 10
78.062358
 20
157.258317
 30
0.0
 11
82.562358
 21
161.758317
 31
0.0
  0
LINE
  8
LC-002-005-----0
  6
CONTINUOUS
  5
336
 10
89.566067
 20
168.762026
 30
0.0
 11
91.816067
 21
171.012026
 31
0.0
  0
LINE
  8
LC-002-005-----0
  6
CONTINUOUS
  5
337
 10
77.316067
 20
159.340453
 30
0.0
 11
79.733931
 21
161.758317
 31
0.0
  0
LINE
  8
LC-002-005-----0
  6
CONTINUOUS
  5
338
 10
89.566067
 20
171.590453
 30
0.0
 11
91.816067
 21
173.840453
 31
0.0
  0
LINE
  8
LC-002-005-----0
  6
CONTINUOUS
  5
339
 10
89.566067
 20
174.41888
 30
0.0
 11
91.816067
 21
176.66888
 31
0.0
  0
LINE
  8
LC-002-005-----0
  6
CONTINUOUS
  5
33A
 10
89.866067
 20
177.547307
 30
0.0
 11
90.577076
 21
178.258317
 31
0.0
  0
ENDBLK
  8
0
  5
33B
  0
BLOCK
  8
0
  5
33D
  2
BLK45
 70
    64
 10
0.0
 20
0.0
 30
0.0
  3
BLK45
  0
ENDBLK
  8
0
  5
33E
  0
BLOCK
  8
0
  5
340
  2
*X64
 70
    65
 10
77.066068
 20
161.758317
 30
0.0
  3
*X64
  0
LINE
  8
LC-002-005-----0
  6
CONTINUOUS
  5
341
 10
77.066068
 20
161.918882
 30
0.0
 11
89.566067
 21
174.41888
 31
0.0
  0
LINE
  8
LC-002-005-----0
  6
CONTINUOUS
  5
342
 10
82.315361
 20
181.310311
 30
0.0
 11
92.065361
 21
191.060311
 31
0.0
  0
LINE
  8
LC-002-005-----0
  6
CONTINUOUS
  5
343
 10
82.315361
 20
195.452446
 30
0.0
 11
92.065361
 21
205.202446
 31
0.0
  0
LINE
  8
LC-002-005-----0
  6
CONTINUOUS
  5
344
 10
87.615361
 20
214.894582
 30
0.0
 11
90.42921
 21
217.708431
 31
0.0
  0
ENDBLK
  8
0
  5
345
  0
BLOCK
  8
0
  5
347
  2
*X65
 70
    65
 10
77.066068
 20
161.758317
 30
0.0
  3
*X65
  0
LINE
  8
LC-002-005-----0
  6
CONTINUOUS
  5
348
 10
92.065361
 20
204.919487
 30
0.0
 11
87.615361
 21
209.369487
 31
0.0
  0
LINE
  8
LC-002-005-----0
  6
CONTINUOUS
  5
349
 10
92.065361
 20
190.777351
 30
0.0
 11
82.315361
 21
200.527351
 31
0.0
  0
LINE
  8
LC-002-005-----0
  6
CONTINUOUS
  5
34A
 10
90.44226
 20
178.258317
 30
0.0
 11
82.315361
 21
186.385216
 31
0.0
  0
LINE
  8
LC-002-005-----0
  6
CONTINUOUS
  5
34B
 10
89.566067
 20
164.992375
 30
0.0
 11
82.315361
 21
172.24308
 31
0.0
  0
LINE
  8
LC-002-005-----0
  6
CONTINUOUS
  5
34C
 10
78.657988
 20
161.758317
 30
0.0
 11
77.066068
 21
163.350237
 31
0.0
  0
ENDBLK
  8
0
  5
34D
  0
BLOCK
  8
0
  5
34F
  2
*D66
 70
    65
 10
0.0
 20
0.0
 30
0.0
  3
*D66
  0
LINE
  8
LC-006-003-MTH-0
  6
CONTINUOUS
  5
350
 10
-47.933935
 20
107.758317
 30
0.0
 11
-47.933935
 21
39.2
 31
0.0
  0
LINE
  8
LC-006-003-MTH-0
  6
CONTINUOUS
  5
351
 10
77.066065
 20
107.758317
 30
0.0
 11
77.066065
 21
39.2
 31
0.0
  0
LINE
  8
LC-007-003-MTG-0
  6
CONTINUOUS
  5
352
 10
-47.933935
 20
56.0
 30
0.0
 11
77.066065
 21
56.0
 31
0.0
  0
LINE
  8
LC-005-003-----0
  6
CONTINUOUS
  5
353
 10
-20.173479
 20
59.654733
 30
0.0
 11
-47.933935
 21
56.0
 31
0.0
  0
LINE
  8
LC-005-003-----0
  6
CONTINUOUS
  5
354
 10
-47.933935
 20
56.0
 30
0.0
 11
-20.173479
 21
52.345267
 31
0.0
  0
LINE
  8
LC-005-003-----0
  6
CONTINUOUS
  5
355
 10
-20.173479
 20
52.345267
 30
0.0
 11
-20.173479
 21
59.654733
 31
0.0
  0
LINE
  8
LC-005-003-----0
  6
CONTINUOUS
  5
356
 10
-20.111197
 20
58.704503
 30
0.0
 11
-40.653935
 21
56.0
 31
0.0
  0
LINE
  8
LC-005-003-----0
  6
CONTINUOUS
  5
357
 10
-40.653935
 20
56.0
 30
0.0
 11
-20.111197
 21
53.295497
 31
0.0
  0
LINE
  8
LC-005-003-----0
  6
CONTINUOUS
  5
358
 10
-20.048916
 20
57.754272
 30
0.0
 11
-33.373935
 21
56.0
 31
0.0
  0
LINE
  8
LC-005-003-----0
  6
CONTINUOUS
  5
359
 10
-33.373935
 20
56.0
 30
0.0
 11
-20.048916
 21
54.245728
 31
0.0
  0
LINE
  8
LC-005-003-----0
  6
CONTINUOUS
  5
35A
 10
-19.986635
 20
56.804041
 30
0.0
 11
-26.093935
 21
56.0
 31
0.0
  0
LINE
  8
LC-005-003-----0
  6
CONTINUOUS
  5
35B
 10
-26.093935
 20
56.0
 30
0.0
 11
-19.986635
 21
55.195959
 31
0.0
  0
LINE
  8
LC-005-003-----0
  6
CONTINUOUS
  5
35C
 10
49.305609
 20
52.345267
 30
0.0
 11
77.066065
 21
56.0
 31
0.0
  0
LINE
  8
LC-005-003-----0
  6
CONTINUOUS
  5
35D
 10
77.066065
 20
56.0
 30
0.0
 11
49.305609
 21
59.654733
 31
0.0
  0
LINE
  8
LC-005-003-----0
  6
CONTINUOUS
  5
35E
 10
49.305609
 20
59.654733
 30
0.0
 11
49.305609
 21
52.345267
 31
0.0
  0
LINE
  8
LC-005-003-----0
  6
CONTINUOUS
  5
35F
 10
49.243328
 20
53.295497
 30
0.0
 11
69.786065
 21
56.0
 31
0.0
  0
LINE
  8
LC-005-003-----0
  6
CONTINUOUS
  5
360
 10
69.786065
 20
56.0
 30
0.0
 11
49.243328
 21
58.704503
 31
0.0
  0
LINE
  8
LC-005-003-----0
  6
CONTINUOUS
  5
361
 10
49.181046
 20
54.245728
 30
0.0
 11
62.506065
 21
56.0
 31
0.0
  0
LINE
  8
LC-005-003-----0
  6
CONTINUOUS
  5
362
 10
62.506065
 20
56.0
 30
0.0
 11
49.181046
 21
57.754272
 31
0.0
  0
LINE
  8
LC-005-003-----0
  6
CONTINUOUS
  5
363
 10
49.118765
 20
55.195959
 30
0.0
 11
55.226065
 21
56.0
 31
0.0
  0
LINE
  8
LC-005-003-----0
  6
CONTINUOUS
  5
364
 10
55.226065
 20
56.0
 30
0.0
 11
49.118765
 21
56.804041
 31
0.0
  0
TEXT
  8
LC-005-003-----0
  6
CONTINUOUS
 62
     8
  5
365
 10
-30.291925
 20
63.827554
 30
0.0
 40
28.0
  1
DN125
 41
0.9
 51
15.0
  7
LC-TXTSTYLE-150-400-0-0-A0
 72
     1
 11
18.914225
 21
63.827554
 31
0.0
  0
ENDBLK
  8
0
  5
366
  0
BLOCK
  8
0
  5
368
  2
*D67
 70
    65
 10
0.0
 20
0.0
 30
0.0
  3
*D67
  0
LINE
  8
LC-006-003-MTH-0
  6
CONTINUOUS
  5
369
 10
-65.433935
 20
169.758317
 30
0.0
 11
-65.433935
 21
-2.8
 31
0.0
  0
LINE
  8
LC-006-003-MTH-0
  6
CONTINUOUS
  5
36A
 10
94.566065
 20
169.758317
 30
0.0
 11
94.566065
 21
-2.8
 31
0.0
  0
LINE
  8
LC-007-003-MTG-0
  6
CONTINUOUS
  5
36B
 10
-65.433935
 20
14.0
 30
0.0
 11
94.566065
 21
14.0
 31
0.0
  0
LINE
  8
LC-005-003-----0
  6
CONTINUOUS
  5
36C
 10
-37.673479
 20
17.654733
 30
0.0
 11
-65.433935
 21
14.0
 31
0.0
  0
LINE
  8
LC-005-003-----0
  6
CONTINUOUS
  5
36D
 10
-65.433935
 20
14.0
 30
0.0
 11
-37.673479
 21
10.345267
 31
0.0
  0
LINE
  8
LC-005-003-----0
  6
CONTINUOUS
  5
36E
 10
-37.673479
 20
10.345267
 30
0.0
 11
-37.673479
 21
17.654733
 31
0.0
  0
LINE
  8
LC-005-003-----0
  6
CONTINUOUS
  5
36F
 10
-37.611197
 20
16.704503
 30
0.0
 11
-58.153935
 21
14.0
 31
0.0
  0
LINE
  8
LC-005-003-----0
  6
CONTINUOUS
  5
370
 10
-58.153935
 20
14.0
 30
0.0
 11
-37.611197
 21
11.295497
 31
0.0
  0
LINE
  8
LC-005-003-----0
  6
CONTINUOUS
  5
371
 10
-37.548916
 20
15.754272
 30
0.0
 11
-50.873935
 21
14.0
 31
0.0
  0
LINE
  8
LC-005-003-----0
  6
CONTINUOUS
  5
372
 10
-50.873935
 20
14.0
 30
0.0
 11
-37.548916
 21
12.245728
 31
0.0
  0
LINE
  8
LC-005-003-----0
  6
CONTINUOUS
  5
373
 10
-37.486635
 20
14.804041
 30
0.0
 11
-43.593935
 21
14.0
 31
0.0
  0
LINE
  8
LC-005-003-----0
  6
CONTINUOUS
  5
374
 10
-43.593935
 20
14.0
 30
0.0
 11
-37.486635
 21
13.195959
 31
0.0
  0
LINE
  8
LC-005-003-----0
  6
CONTINUOUS
  5
375
 10
66.805609
 20
10.345267
 30
0.0
 11
94.566065
 21
14.0
 31
0.0
  0
LINE
  8
LC-005-003-----0
  6
CONTINUOUS
  5
376
 10
94.566065
 20
14.0
 30
0.0
 11
66.805609
 21
17.654733
 31
0.0
  0
LINE
  8
LC-005-003-----0
  6
CONTINUOUS
  5
377
 10
66.805609
 20
17.654733
 30
0.0
 11
66.805609
 21
10.345267
 31
0.0
  0
LINE
  8
LC-005-003-----0
  6
CONTINUOUS
  5
378
 10
66.743328
 20
11.295497
 30
0.0
 11
87.286065
 21
14.0
 31
0.0
  0
LINE
  8
LC-005-003-----0
  6
CONTINUOUS
  5
379
 10
87.286065
 20
14.0
 30
0.0
 11
66.743328
 21
16.704503
 31
0.0
  0
LINE
  8
LC-005-003-----0
  6
CONTINUOUS
  5
37A
 10
66.681046
 20
12.245728
 30
0.0
 11
80.006065
 21
14.0
 31
0.0
  0
LINE
  8
LC-005-003-----0
  6
CONTINUOUS
  5
37B
 10
80.006065
 20
14.0
 30
0.0
 11
66.681046
 21
15.754272
 31
0.0
  0
LINE
  8
LC-005-003-----0
  6
CONTINUOUS
  5
37C
 10
66.618765
 20
13.195959
 30
0.0
 11
72.726065
 21
14.0
 31
0.0
  0
LINE
  8
LC-005-003-----0
  6
CONTINUOUS
  5
37D
 10
72.726065
 20
14.0
 30
0.0
 11
66.618765
 21
14.804041
 31
0.0
  0
TEXT
  8
LC-005-003-----0
  6
CONTINUOUS
 62
     8
  5
37E
 10
-19.357225
 20
21.827554
 30
0.0
 40
28.0
  1
Ø160
 41
0.9
 51
15.0
  7
LC-TXTSTYLE-150-400-0-0-A0
 72
     1
 11
18.914225
 21
21.827554
 31
0.0
  0
ENDBLK
  8
0
  5
37F
  0
BLOCK
  8
0
  5
381
  2
*D68
 70
    65
 10
0.0
 20
0.0
 30
0.0
  3
*D68
  0
LINE
  8
LC-006-003-MTH-0
  6
CONTINUOUS
  5
382
 10
-63.340788
 20
161.601463
 30
0.0
 11
-184.8
 21
161.601463
 31
0.0
  0
LINE
  8
LC-006-003-MTH-0
  6
CONTINUOUS
  5
383
 10
-162.433923
 20
260.179083
 30
0.0
 11
-184.8
 21
260.179083
 31
0.0
  0
LINE
  8
LC-007-003-MTG-0
  6
CONTINUOUS
  5
384
 10
-168.0
 20
161.601463
 30
0.0
 11
-168.0
 21
260.179083
 31
0.0
  0
LINE
  8
LC-005-003-----0
  6
CONTINUOUS
  5
385
 10
-171.654733
 20
189.361919
 30
0.0
 11
-168.0
 21
161.601463
 31
0.0
  0
LINE
  8
LC-005-003-----0
  6
CONTINUOUS
  5
386
 10
-168.0
 20
161.601463
 30
0.0
 11
-164.345267
 21
189.361919
 31
0.0
  0
LINE
  8
LC-005-003-----0
  6
CONTINUOUS
  5
387
 10
-164.345267
 20
189.361919
 30
0.0
 11
-171.654733
 21
189.361919
 31
0.0
  0
LINE
  8
LC-005-003-----0
  6
CONTINUOUS
  5
388
 10
-170.704503
 20
189.424201
 30
0.0
 11
-168.0
 21
168.881463
 31
0.0
  0
LINE
  8
LC-005-003-----0
  6
CONTINUOUS
  5
389
 10
-168.0
 20
168.881463
 30
0.0
 11
-165.295497
 21
189.424201
 31
0.0
  0
LINE
  8
LC-005-003-----0
  6
CONTINUOUS
  5
38A
 10
-169.754272
 20
189.486482
 30
0.0
 11
-168.0
 21
176.161463
 31
0.0
  0
LINE
  8
LC-005-003-----0
  6
CONTINUOUS
  5
38B
 10
-168.0
 20
176.161463
 30
0.0
 11
-166.245728
 21
189.486482
 31
0.0
  0
LINE
  8
LC-005-003-----0
  6
CONTINUOUS
  5
38C
 10
-168.804041
 20
189.548763
 30
0.0
 11
-168.0
 21
183.441463
 31
0.0
  0
LINE
  8
LC-005-003-----0
  6
CONTINUOUS
  5
38D
 10
-168.0
 20
183.441463
 30
0.0
 11
-167.195959
 21
189.548763
 31
0.0
  0
LINE
  8
LC-005-003-----0
  6
CONTINUOUS
  5
38E
 10
-164.345267
 20
232.418627
 30
0.0
 11
-168.0
 21
260.179083
 31
0.0
  0
LINE
  8
LC-005-003-----0
  6
CONTINUOUS
  5
38F
 10
-168.0
 20
260.179083
 30
0.0
 11
-171.654733
 21
232.418627
 31
0.0
  0
LINE
  8
LC-005-003-----0
  6
CONTINUOUS
  5
390
 10
-171.654733
 20
232.418627
 30
0.0
 11
-164.345267
 21
232.418627
 31
0.0
  0
LINE
  8
LC-005-003-----0
  6
CONTINUOUS
  5
391
 10
-165.295497
 20
232.356346
 30
0.0
 11
-168.0
 21
252.899083
 31
0.0
  0
LINE
  8
LC-005-003-----0
  6
CONTINUOUS
  5
392
 10
-168.0
 20
252.899083
 30
0.0
 11
-170.704503
 21
232.356346
 31
0.0
  0
LINE
  8
LC-005-003-----0
  6
CONTINUOUS
  5
393
 10
-166.245728
 20
232.294064
 30
0.0
 11
-168.0
 21
245.619083
 31
0.0
  0
LINE
  8
LC-005-003-----0
  6
CONTINUOUS
  5
394
 10
-168.0
 20
245.619083
 30
0.0
 11
-169.754272
 21
232.294064
 31
0.0
  0
LINE
  8
LC-005-003-----0
  6
CONTINUOUS
  5
395
 10
-167.195959
 20
232.231783
 30
0.0
 11
-168.0
 21
238.339083
 31
0.0
  0
LINE
  8
LC-005-003-----0
  6
CONTINUOUS
  5
396
 10
-168.0
 20
238.339083
 30
0.0
 11
-168.804041
 21
232.231783
 31
0.0
  0
TEXT
  8
LC-005-003-----0
  6
CONTINUOUS
 62
     8
  5
397
 10
-175.827554
 20
188.835133
 30
0.0
 40
28.0
  1
100
 50
90.0
 41
0.9
 51
15.0
  7
LC-TXTSTYLE-150-400-0-0-A0
 72
     1
 11
-175.827554
 21
215.238433
 31
0.0
  0
ENDBLK
  8
0
  5
398
  0
BLOCK
  8
0
  5
39A
  2
BLK46
 70
    64
 10
0.0
 20
0.0
 30
0.0
  3
BLK46
  0
ENDBLK
  8
0
  5
39B
  0
BLOCK
  8
0
  5
39D
  2
BLK47
 70
    64
 10
0.0
 20
0.0
 30
0.0
  3
BLK47
  0
ENDBLK
  8
0
  5
39E
  0
BLOCK
  8
0
  5
3A0
  2
*X71
 70
    65
 10
-59.683226
 20
197.348947
 30
0.0
  3
*X71
  0
LINE
  8
LC-002-005-----0
  6
CONTINUOUS
  5
3A1
 10
-55.714904
 20
197.429324
 30
0.0
 11
-53.263603
 21
199.880625
 31
0.0
  0
LINE
  8
LC-002-005-----0
  6
CONTINUOUS
  5
3A2
 10
-57.133217
 20
197.425225
 30
0.0
 11
-53.259504
 21
201.298937
 31
0.0
  0
LINE
  8
LC-002-005-----0
  6
CONTINUOUS
  5
3A3
 10
-58.13967
 20
197.832984
 30
0.0
 11
-53.667264
 21
202.305391
 31
0.0
  0
LINE
  8
LC-002-005-----0
  6
CONTINUOUS
  5
3A4
 10
-58.901818
 20
198.485051
 30
0.0
 11
-54.31933
 21
203.067538
 31
0.0
  0
LINE
  8
LC-002-005-----0
  6
CONTINUOUS
  5
3A5
 10
-59.438763
 20
199.362319
 30
0.0
 11
-55.196598
 21
203.604484
 31
0.0
  0
LINE
  8
LC-002-005-----0
  6
CONTINUOUS
  5
3A6
 10
-59.682552
 20
200.532743
 30
0.0
 11
-56.367023
 21
203.848273
 31
0.0
  0
ENDBLK
  8
0
  5
3A7
  0
BLOCK
  8
0
  5
3A9
  2
BLK48
 70
    64
 10
0.0
 20
0.0
 30
0.0
  3
BLK48
  0
ENDBLK
  8
0
  5
3AA
  0
BLOCK
  8
0
  5
3AC
  2
BLK49
 70
    64
 10
0.0
 20
0.0
 30
0.0
  3
BLK49
  0
ENDBLK
  8
0
  5
3AD
  0
BLOCK
  8
0
  5
3AF
  2
BLK50
 70
    64
 10
0.0
 20
0.0
 30
0.0
  3
BLK50
  0
ENDBLK
  8
0
  5
3B0
  0
BLOCK
  8
0
  5
3B2
  2
*D75
 70
    65
 10
0.0
 20
0.0
 30
0.0
  3
*D75
  0
LINE
  8
LC-006-003-MTH-0
  6
CONTINUOUS
  5
3B3
 10
-86.934281
 20
236.502606
 30
0.0
 11
-86.9334
 21
-44.800272
 31
0.0
  0
LINE
  8
LC-006-003-MTH-0
  6
CONTINUOUS
  5
3B4
 10
116.065731
 20
236.503242
 30
0.0
 11
116.066612
 21
-44.799636
 31
0.0
  0
LINE
  8
LC-007-003-MTG-0
  6
CONTINUOUS
  5
3B5
 10
-86.933453
 20
-28.000272
 30
0.0
 11
116.06656
 21
-27.999636
 31
0.0
  0
LINE
  8
LC-005-003-----0
  6
CONTINUOUS
  5
3B6
 10
-59.173008
 20
-24.345452
 30
0.0
 11
-86.933453
 21
-28.000272
 31
0.0
  0
LINE
  8
LC-005-003-----0
  6
CONTINUOUS
  5
3B7
 10
-86.933453
 20
-28.000272
 30
0.0
 11
-59.172985
 21
-31.654919
 31
0.0
  0
LINE
  8
LC-005-003-----0
  6
CONTINUOUS
  5
3B8
 10
-59.172985
 20
-31.654919
 30
0.0
 11
-59.173008
 21
-24.345452
 31
0.0
  0
LINE
  8
LC-005-003-----0
  6
CONTINUOUS
  5
3B9
 10
-59.110724
 20
-25.295682
 30
0.0
 11
-79.653453
 21
-28.00025
 31
0.0
  0
LINE
  8
LC-005-003-----0
  6
CONTINUOUS
  5
3BA
 10
-79.653453
 20
-28.00025
 30
0.0
 11
-59.110707
 21
-30.704688
 31
0.0
  0
LINE
  8
LC-005-003-----0
  6
CONTINUOUS
  5
3BB
 10
-59.048439
 20
-26.245913
 30
0.0
 11
-72.373453
 21
-28.000227
 31
0.0
  0
LINE
  8
LC-005-003-----0
  6
CONTINUOUS
  5
3BC
 10
-72.373453
 20
-28.000227
 30
0.0
 11
-59.048428
 21
-29.754457
 31
0.0
  0
LINE
  8
LC-005-003-----0
  6
CONTINUOUS
  5
3BD
 10
-58.986155
 20
-27.196143
 30
0.0
 11
-65.093453
 21
-28.000204
 31
0.0
  0
LINE
  8
LC-005-003-----0
  6
CONTINUOUS
  5
3BE
 10
-65.093453
 20
-28.000204
 30
0.0
 11
-58.98615
 21
-28.804226
 31
0.0
  0
LINE
  8
LC-005-003-----0
  6
CONTINUOUS
  5
3BF
 10
88.306115
 20
-31.654457
 30
0.0
 11
116.06656
 21
-27.999636
 31
0.0
  0
LINE
  8
LC-005-003-----0
  6
CONTINUOUS
  5
3C0
 10
116.06656
 20
-27.999636
 30
0.0
 11
88.306092
 21
-24.34499
 31
0.0
  0
LINE
  8
LC-005-003-----0
  6
CONTINUOUS
  5
3C1
 10
88.306092
 20
-24.34499
 30
0.0
 11
88.306115
 21
-31.654457
 31
0.0
  0
LINE
  8
LC-005-003-----0
  6
CONTINUOUS
  5
3C2
 10
88.243831
 20
-30.704226
 30
0.0
 11
108.78656
 21
-27.999659
 31
0.0
  0
LINE
  8
LC-005-003-----0
  6
CONTINUOUS
  5
3C3
 10
108.78656
 20
-27.999659
 30
0.0
 11
88.243814
 21
-25.295221
 31
0.0
  0
LINE
  8
LC-005-003-----0
  6
CONTINUOUS
  5
3C4
 10
88.181546
 20
-29.753996
 30
0.0
 11
101.50656
 21
-27.999682
 31
0.0
  0
LINE
  8
LC-005-003-----0
  6
CONTINUOUS
  5
3C5
 10
101.50656
 20
-27.999682
 30
0.0
 11
88.181535
 21
-26.245452
 31
0.0
  0
LINE
  8
LC-005-003-----0
  6
CONTINUOUS
  5
3C6
 10
88.119262
 20
-28.803765
 30
0.0
 11
94.22656
 21
-27.999705
 31
0.0
  0
LINE
  8
LC-005-003-----0
  6
CONTINUOUS
  5
3C7
 10
94.22656
 20
-27.999705
 30
0.0
 11
88.119257
 21
-27.195683
 31
0.0
  0
TEXT
  8
LC-005-003-----0
  6
CONTINUOUS
 62
     8
  5
3C8
 10
-19.35671
 20
-20.1724
 30
0.0
 40
28.0
  1
Ø203
 41
0.9
 51
15.0
  7
LC-TXTSTYLE-150-400-0-0-A0
 72
     1
 11
18.91474
 21
-20.1724
 31
0.0
  0
ENDBLK
  8
0
  5
3C9
  0
ENDSEC
  0
SECTION
  2
ENTITIES
  0
VIEWPORT
  8
LC-000
  5
695
 67
     1
 68
     1
 10
420.0
 20
297.0
 30
0.0
 40
840.0
 41
594.0
 69
     1
1001
ACAD
1000
MVIEW
1002
{
1070
    16
1010
0.0
1020
0.0
1030
0.0
1010
0.0
1020
0.0
1030
1.0
1040
0.0
1040
594.0
1040
420.0
1040
297.0
1040
50.0
1040
0.0
1040
0.0
1070
     0
1070
   100
1070
     1
1070
     1
1070
     0
1070
     0
1070
     0
1070
     0
1040
0.0
1040
0.0
1040
0.0
1040
1.0
1040
1.0
1040
0.0
1040
0.0
1070
     0
1002
{
1002
}
1002
}
  0
VIEWPORT
  8
0
  5
696
 67
     1
 68
     1
 10
0.0
 20
0.0
 30
0.0
 40
0.0
 41
0.0
 69
     1
1001
ACAD
1000
MVIEW
1002
{
1070
    16
1010
0.0
1020
0.0
1030
0.0
1010
0.0
1020
0.0
1030
1.0
1040
0.0
1040
594.0
1040
0.0
1040
0.0
1040
50.0
1040
0.0
1040
0.0
1070
     0
1070
   100
1070
     0
1070
     1
1070
     0
1070
     0
1070
     0
1070
     0
1040
0.0
1040
0.0
1040
0.0
1040
0.5
1040
0.5
1040
0.5
1040
0.5
1070
     0
1002
{
1002
}
1002
}
  0
INSERT
  8
LC-002-005-----0
  6
CONTINUOUS
  5
3CA
  2
*X0
 10
-62.68432
 20
219.808114
 30
0.0
  0
INSERT
  8
LC-003-000-----0
  5
3CC
  2
BLK1
 10
0.0
 20
0.0
 30
0.0
  0
INSERT
  8
LC-002-005-----0
  6
CONTINUOUS
  5
3CD
  2
*X2
 10
-110.434341
 20
231.52302
 30
0.0
  0
INSERT
  8
LC-002-005-----0
  6
CONTINUOUS
  5
3CE
  2
*X3
 10
96.066349
 20
231.523536
 30
0.0
  0
INSERT
  8
LC-003-000-----0
  5
3CF
  2
BLK2
 10
0.0
 20
0.0
 30
0.0
  0
INSERT
  8
LC-002-005-----0
  6
CONTINUOUS
  5
3D0
  2
*X5
 10
88.56543
 20
232.950018
 30
0.0
  0
INSERT
  8
LC-002-005-----0
  6
CONTINUOUS
  5
3D1
  2
*X6
 10
112.065325
 20
256.950018
 30
0.0
  0
INSERT
  8
LC-002-005-----0
  6
CONTINUOUS
  5
3D2
  2
*X7
 10
-110.124945
 20
256.949577
 30
0.0
  0
INSERT
  8
LC-002-005-----0
  6
CONTINUOUS
  5
3D3
  2
*X8
 10
-75.933976
 20
232.949694
 30
0.0
  0
INSERT
  8
LC-003-000-----0
  5
3D4
  2
BLK3
 10
0.0
 20
0.0
 30
0.0
  0
INSERT
  8
LC-003-000-----0
  5
3D5
  2
BLK4
 10
0.0
 20
0.0
 30
0.0
  0
INSERT
  8
LC-002-005-----0
  6
CONTINUOUS
  5
3D6
  2
*X11
 10
-84.920392
 20
259.44962
 30
0.0
  0
INSERT
  8
LC-003-000-----0
  5
3D7
  2
BLK5
 10
0.0
 20
0.0
 30
0.0
  0
INSERT
  8
LC-003-000-----0
  5
3D8
  2
BLK6
 10
0.0
 20
0.0
 30
0.0
  0
INSERT
  8
LC-003-000-----0
  5
3D9
  2
BLK7
 10
0.0
 20
0.0
 30
0.0
  0
INSERT
  8
LC-002-005-----0
  6
CONTINUOUS
  5
3DA
  2
*X15
 10
103.091091
 20
259.44962
 30
0.0
  0
INSERT
  8
LC-003-000-----0
  5
3DB
  2
BLK8
 10
0.0
 20
0.0
 30
0.0
  0
INSERT
  8
LC-003-000-----0
  5
3DC
  2
BLK9
 10
0.0
 20
0.0
 30
0.0
  0
INSERT
  8
LC-003-000-----0
  5
3DD
  2
BLK10
 10
0.0
 20
0.0
 30
0.0
  0
INSERT
  8
LC-003-000-----0
  5
3DE
  2
BLK11
 10
0.0
 20
0.0
 30
0.0
  0
INSERT
  8
LC-003-000-----0
  5
3DF
  2
BLK12
 10
0.0
 20
0.0
 30
0.0
  0
INSERT
  8
LC-002-005-----0
  6
CONTINUOUS
  5
3E0
  2
*X21
 10
-60.833632
 20
228.921376
 30
0.0
  0
INSERT
  8
LC-002-005-----0
  6
CONTINUOUS
  5
3E1
  2
*X22
 10
-43.326585
 20
292.559059
 30
0.0
  0
INSERT
  8
LC-003-000-----0
  5
3E2
  2
BLK13
 10
0.0
 20
0.0
 30
0.0
  0
INSERT
  8
LC-002-005-----0
  6
CONTINUOUS
  5
3E3
  2
*X24
 10
85.065804
 20
228.921571
 30
0.0
  0
INSERT
  8
LC-002-005-----0
  6
CONTINUOUS
  5
3E4
  2
*X25
 10
55.565964
 20
292.559218
 30
0.0
  0
INSERT
  8
LC-003-000-----0
  5
3E5
  2
BLK14
 10
0.0
 20
0.0
 30
0.0
  0
INSERT
  8
LC-001-002-----0
  6
CONTINUOUS
  5
3E6
  2
BLK15
 10
0.0
 20
0.0
 30
0.0
  0
INSERT
  8
LC-001-002-----0
  6
CONTINUOUS
  5
3E7
  2
BLK16
 10
0.0
 20
0.0
 30
0.0
  0
INSERT
  8
LC-001-002-----0
  6
CONTINUOUS
  5
3E8
  2
BLK17
 10
0.0
 20
0.0
 30
0.0
  0
INSERT
  8
LC-001-002-----0
  6
CONTINUOUS
  5
3E9
  2
BLK18
 10
0.0
 20
0.0
 30
0.0
  0
INSERT
  8
LC-001-002-----0
  6
CONTINUOUS
  5
3EA
  2
BLK19
 10
0.0
 20
0.0
 30
0.0
  0
INSERT
  8
LC-001-002-----0
  6
CONTINUOUS
  5
3EB
  2
BLK20
 10
0.0
 20
0.0
 30
0.0
  0
INSERT
  8
LC-001-002-----0
  6
CONTINUOUS
  5
3EC
  2
BLK21
 10
0.0
 20
0.0
 30
0.0
  0
INSERT
  8
LC-001-002-----0
  6
CONTINUOUS
  5
3ED
  2
BLK22
 10
0.0
 20
0.0
 30
0.0
  0
INSERT
  8
LC-001-002-----0
  6
CONTINUOUS
  5
3EE
  2
BLK23
 10
0.0
 20
0.0
 30
0.0
  0
INSERT
  8
LC-001-002-----0
  6
CONTINUOUS
  5
3EF
  2
BLK24
 10
0.0
 20
0.0
 30
0.0
  0
INSERT
  8
LC-001-002-----0
  6
CONTINUOUS
  5
3F0
  2
BLK25
 10
0.0
 20
0.0
 30
0.0
  0
INSERT
  8
LC-001-002-----0
  6
CONTINUOUS
  5
3F1
  2
BLK26
 10
0.0
 20
0.0
 30
0.0
  0
INSERT
  8
LC-001-002-----0
  6
CONTINUOUS
  5
3F2
  2
BLK27
 10
0.0
 20
0.0
 30
0.0
  0
INSERT
  8
LC-001-002-----0
  6
CONTINUOUS
  5
3F3
  2
BLK28
 10
0.0
 20
0.0
 30
0.0
  0
INSERT
  8
LC-003-000-----0
  5
3F4
  2
BLK29
 10
0.0
 20
0.0
 30
0.0
  0
INSERT
  8
LC-001-002-----0
  6
CONTINUOUS
  5
3F5
  2
BLK30
 10
0.0
 20
0.0
 30
0.0
  0
INSERT
  8
LC-001-002-----0
  6
CONTINUOUS
  5
3F6
  2
BLK31
 10
0.0
 20
0.0
 30
0.0
  0
INSERT
  8
LC-001-002-----0
  6
CONTINUOUS
  5
3F7
  2
BLK32
 10
0.0
 20
0.0
 30
0.0
  0
INSERT
  8
LC-001-002-----0
  6
CONTINUOUS
  5
3F8
  2
BLK33
 10
0.0
 20
0.0
 30
0.0
  0
INSERT
  8
LC-001-002-----0
  6
CONTINUOUS
  5
3F9
  2
BLK34
 10
0.0
 20
0.0
 30
0.0
  0
INSERT
  8
LC-001-002-----0
  6
CONTINUOUS
  5
3FA
  2
BLK35
 10
0.0
 20
0.0
 30
0.0
  0
INSERT
  8
LC-001-002-----0
  6
CONTINUOUS
  5
3FB
  2
BLK36
 10
0.0
 20
0.0
 30
0.0
  0
INSERT
  8
LC-001-002-----0
  6
CONTINUOUS
  5
3FC
  2
BLK37
 10
0.0
 20
0.0
 30
0.0
  0
INSERT
  8
LC-001-002-----0
  6
CONTINUOUS
  5
3FD
  2
BLK38
 10
0.0
 20
0.0
 30
0.0
  0
INSERT
  8
LC-001-002-----0
  6
CONTINUOUS
  5
3FE
  2
BLK39
 10
0.0
 20
0.0
 30
0.0
  0
INSERT
  8
LC-001-002-----0
  6
CONTINUOUS
  5
3FF
  2
BLK40
 10
0.0
 20
0.0
 30
0.0
  0
INSERT
  8
LC-001-002-----0
  6
CONTINUOUS
  5
400
  2
BLK41
 10
0.0
 20
0.0
 30
0.0
  0
INSERT
  8
LC-001-002-----0
  6
CONTINUOUS
  5
401
  2
BLK42
 10
0.0
 20
0.0
 30
0.0
  0
INSERT
  8
LC-001-002-----0
  6
CONTINUOUS
  5
402
  2
BLK43
 10
0.0
 20
0.0
 30
0.0
  0
INSERT
  8
LC-003-000-----0
  5
403
  2
BLK44
 10
0.0
 20
0.0
 30
0.0
  0
DIMENSION
  8
LC-005-003-----0
  6
CONTINUOUS
  5
404
  2
*D57
 10
14.563663
 20
350.000391
 30
0.0
 11
14.563663
 21
350.000391
 31
0.0
 70
     1
  1
%%c<>
 13
-162.433921
 23
260.250875
 33
0.0
 14
191.566066
 24
260.260376
 34
0.0
  3
LC-DIM-L-0140-02-02
  0
INSERT
  8
LC-002-005-----0
  6
CONTINUOUS
  5
405
  2
*X58
 10
-162.433927
 20
236.003207
 30
0.0
  0
INSERT
  8
LC-002-005-----0
  6
CONTINUOUS
  5
406
  2
*X59
 10
111.319716
 20
236.003233
 30
0.0
  0
INSERT
  8
LC-002-005-----0
  6
CONTINUOUS
  5
407
  2
*X60
 10
-76.689159
 20
103.258317
 30
0.0
  0
INSERT
  8
LC-002-005-----0
  6
CONTINUOUS
  5
408
  2
*X61
 10
74.066065
 20
103.258317
 30
0.0
  0
INSERT
  8
LC-002-005-----0
  6
CONTINUOUS
  5
409
  2
*X62
 10
77.316067
 20
157.258317
 30
0.0
  0
INSERT
  8
LC-003-000-----0
  5
40A
  2
BLK45
 10
0.0
 20
0.0
 30
0.0
  0
INSERT
  8
LC-002-005-----0
  6
CONTINUOUS
  5
40B
  2
*X64
 10
77.066068
 20
161.758317
 30
0.0
  0
INSERT
  8
LC-002-005-----0
  6
CONTINUOUS
  5
40C
  2
*X65
 10
77.066068
 20
161.758317
 30
0.0
  0
DIMENSION
  8
LC-005-003-----0
  6
CONTINUOUS
  5
40D
  2
*D66
 10
14.566065
 20
56.0
 30
0.0
 11
14.566065
 21
56.0
 31
0.0
  1
DN125
 13
-47.933935
 23
107.758317
 33
0.0
 14
77.066065
 24
107.758317
 34
0.0
  3
LC-DIM-L-0140-02-02
  0
DIMENSION
  8
LC-005-003-----0
  6
CONTINUOUS
  5
40E
  2
*D67
 10
14.566065
 20
14.0
 30
0.0
 11
14.566065
 21
14.0
 31
0.0
  1
%%c<>
 13
-65.433935
 23
169.758317
 33
0.0
 14
94.566065
 24
169.758317
 34
0.0
  3
LC-DIM-L-0140-02-02
  0
DIMENSION
  8
LC-005-003-----0
  6
CONTINUOUS
  5
40F
  2
*D68
 10
-168.0
 20
210.890273
 30
0.0
 11
-168.0
 21
210.890273
 31
0.0
  1
100
 13
-162.433923
 23
260.179083
 33
0.0
 14
-63.340788
 24
161.601463
 34
0.0
 50
90.0
  3
LC-DIM-L-0140-02-02
  0
INSERT
  8
LC-003-000-----0
  5
410
  2
BLK46
 10
0.0
 20
0.0
 30
0.0
  0
INSERT
  8
LC-003-000-----0
  5
411
  2
BLK47
 10
0.0
 20
0.0
 30
0.0
  0
INSERT
  8
LC-002-005-----0
  6
CONTINUOUS
  5
412
  2
*X71
 10
-59.683226
 20
197.348947
 30
0.0
  0
INSERT
  8
LC-002-005-----0
  6
CONTINUOUS
  5
413
  2
BLK48
 10
0.0
 20
0.0
 30
0.0
  0
INSERT
  8
LC-002-005-----0
  6
CONTINUOUS
  5
414
  2
BLK49
 10
0.0
 20
0.0
 30
0.0
  0
INSERT
  8
LC-002-005-----0
  6
CONTINUOUS
  5
415
  2
BLK50
 10
0.0
 20
0.0
 30
0.0
  0
DIMENSION
  8
LC-005-003-----0
  6
CONTINUOUS
  5
416
  2
*D75
 10
14.566553
 20
-27.999954
 30
0.0
 11
14.566553
 21
-27.999954
 31
0.0
 70
     1
  1
%%c<>
 13
-86.934281
 23
236.502606
 33
0.0
 14
116.065731
 24
236.503242
 34
0.0
  3
LC-DIM-L-0140-02-02
  0
LINE
  8
LC-001-002-----0
  6
CONTINUOUS
  5
417
 10
-54.18432
 20
219.808114
 30
0.0
 11
-54.18432
 21
224.308114
 31
0.0
  0
LINE
  8
LC-001-002-----0
  6
CONTINUOUS
  5
418
 10
90.81568
 20
227.808114
 30
0.0
 11
14.566067
 21
227.808114
 31
0.0
  0
LINE
  8
LC-001-002-----0
  6
CONTINUOUS
  5
419
 10
-62.68432
 20
223.308114
 30
0.0
 11
-61.68432
 21
222.308114
 31
0.0
  0
LINE
  8
LC-001-002-----0
  6
CONTINUOUS
  5
41A
 10
90.81568
 20
222.308114
 30
0.0
 11
91.81568
 21
223.308114
 31
0.0
  0
LINE
  8
LC-001-002-----0
  6
CONTINUOUS
  5
41B
 10
90.81568
 20
227.808114
 30
0.0
 11
90.81568
 21
226.808114
 31
0.0
  0
LINE
  8
LC-001-002-----0
  6
CONTINUOUS
  5
41C
 10
90.81568
 20
226.808114
 30
0.0
 11
91.81568
 21
226.808114
 31
0.0
  0
LINE
  8
LC-001-002-----0
  6
CONTINUOUS
  5
41D
 10
91.81568
 20
223.308114
 30
0.0
 11
91.81568
 21
226.808114
 31
0.0
  0
LINE
  8
LC-001-002-----0
  6
CONTINUOUS
  5
41E
 10
87.81568
 20
222.308114
 30
0.0
 11
90.81568
 21
222.308114
 31
0.0
  0
LINE
  8
LC-001-002-----0
  6
CONTINUOUS
  5
41F
 10
87.81568
 20
222.308114
 30
0.0
 11
87.81568
 21
224.308114
 31
0.0
  0
LINE
  8
LC-001-002-----0
  6
CONTINUOUS
  5
420
 10
87.81568
 20
224.308114
 30
0.0
 11
83.31568
 21
224.308114
 31
0.0
  0
LINE
  8
LC-001-002-----0
  6
CONTINUOUS
  5
421
 10
80.31568
 20
227.808114
 30
0.0
 11
79.31568
 21
219.808114
 31
0.0
  0
LINE
  8
LC-001-002-----0
  6
CONTINUOUS
  5
422
 10
80.31568
 20
219.808114
 30
0.0
 11
83.31568
 21
219.808114
 31
0.0
  0
LINE
  8
LC-001-002-----0
  6
CONTINUOUS
  5
423
 10
83.31568
 20
219.808114
 30
0.0
 11
83.31568
 21
224.308114
 31
0.0
  0
LINE
  8
LC-001-002-----0
  6
CONTINUOUS
  5
424
 10
-58.68432
 20
222.308114
 30
0.0
 11
-56.93432
 21
222.308114
 31
0.0
  0
LINE
  8
LC-001-002-----0
  6
CONTINUOUS
  5
425
 10
-61.68432
 20
227.808114
 30
0.0
 11
-61.68432
 21
226.808114
 31
0.0
  0
LINE
  8
LC-001-002-----0
  6
CONTINUOUS
  5
426
 10
-61.68432
 20
226.808114
 30
0.0
 11
-62.68432
 21
226.808114
 31
0.0
  0
LINE
  8
LC-001-002-----0
  6
CONTINUOUS
  5
427
 10
-62.68432
 20
226.808114
 30
0.0
 11
-62.68432
 21
223.308114
 31
0.0
  0
LINE
  8
LC-001-002-----0
  6
CONTINUOUS
  5
428
 10
-61.68432
 20
222.308114
 30
0.0
 11
-58.68432
 21
222.308114
 31
0.0
  0
LINE
  8
LC-001-002-----0
  6
CONTINUOUS
  5
429
 10
-58.68432
 20
222.308114
 30
0.0
 11
-58.68432
 21
224.308114
 31
0.0
  0
LINE
  8
LC-001-002-----0
  6
CONTINUOUS
  5
42A
 10
-58.68432
 20
224.308114
 30
0.0
 11
-54.18432
 21
224.308114
 31
0.0
  0
LINE
  8
LC-001-002-----0
  6
CONTINUOUS
  5
42B
 10
-51.18432
 20
227.808114
 30
0.0
 11
-50.18432
 21
219.808114
 31
0.0
  0
LINE
  8
LC-001-002-----0
  6
CONTINUOUS
  5
42C
 10
87.81568
 20
222.308114
 30
0.0
 11
86.06568
 21
222.308114
 31
0.0
  0
LINE
  8
LC-001-002-----0
  6
CONTINUOUS
  5
42D
 10
80.31568
 20
219.808114
 30
0.0
 11
14.566067
 21
219.808114
 31
0.0
  0
LINE
  8
LC-001-002-----0
  6
CONTINUOUS
  5
42E
 10
-110.092321
 20
257.938899
 30
0.0
 11
-86.921251
 21
249.505319
 31
0.0
  0
LINE
  8
LC-001-002-----0
  6
CONTINUOUS
  5
42F
 10
-75.934274
 20
236.002606
 30
0.0
 11
-75.934274
 21
235.002903
 31
0.0
  0
LINE
  8
LC-001-002-----0
  6
CONTINUOUS
  5
430
 10
-85.434281
 20
235.002606
 30
0.0
 11
-83.773357
 21
235.002606
 31
0.0
  0
ARC
  8
LC-004-002-RND-0
  6
CONTINUOUS
  5
432
 10
-87.434281
 20
248.09578
 30
0.0
 40
1.5
 50
0.0
 51
70.0
  0
ARC
  8
LC-004-002-RND-0
  6
CONTINUOUS
  5
433
 10
-72.434265
 20
234.502606
 30
0.0
 40
1.5
 50
360.0
 51
90.0
  0
ARC
  8
LC-004-002-RND-0
  6
CONTINUOUS
  5
434
 10
-87.434281
 20
248.09578
 30
0.0
 40
0.5
 50
0.0
 51
70.0
  0
ARC
  8
LC-004-002-RND-0
  6
CONTINUOUS
  5
435
 10
-70.434265
 20
233.02302
 30
0.0
 40
0.5
 50
180.0
 51
270.000111
  0
LINE
  8
LC-001-002-----0
  6
CONTINUOUS
  5
436
 10
-85.934281
 20
236.502606
 30
0.0
 11
-85.934281
 21
248.09578
 31
0.0
  0
LINE
  8
LC-001-002-----0
  6
CONTINUOUS
  5
437
 10
-70.934265
 20
233.02302
 30
0.0
 11
-70.934265
 21
234.502606
 31
0.0
  0
LINE
  8
LC-001-002-----0
  6
CONTINUOUS
  5
438
 10
116.065652
 20
248.096416
 30
0.0
 11
116.065731
 21
236.503242
 31
0.0
  0
LINE
  8
LC-001-002-----0
  6
CONTINUOUS
  5
439
 10
-66.934261
 20
232.523028
 30
0.0
 11
-66.934261
 21
231.523028
 31
0.0
  0
LINE
  8
LC-001-002-----0
  6
CONTINUOUS
  5
43A
 10
-75.101442
 20
235.002606
 30
0.0
 11
-72.434265
 21
235.002606
 31
0.0
  0
ARC
  8
LC-004-002-RND-0
  6
CONTINUOUS
  5
43B
 10
116.565639
 20
248.096414
 30
0.0
 40
1.5
 50
110.000359
 51
180.000359
  0
LINE
  8
LC-001-002-----0
  6
CONTINUOUS
  5
43C
 10
99.565736
 20
231.523553
 30
0.0
 11
96.066356
 21
231.523536
 31
0.0
  0
LINE
  8
LC-001-002-----0
  6
CONTINUOUS
  5
43D
 10
115.065719
 20
236.503236
 30
0.0
 11
115.065639
 21
248.096405
 31
0.0
  0
LINE
  8
LC-001-002-----0
  6
CONTINUOUS
  5
43E
 10
-110.434341
 20
256.999206
 30
0.0
 11
-87.263271
 21
248.565626
 31
0.0
  0
LINE
  8
LC-001-002-----0
  6
DASHDOT
 62
     2
  5
440
 10
-79.441525
 20
275.34866
 30
0.0
 11
-79.437609
 21
235.002903
 31
0.0
  0
LINE
  8
LC-001-002-----0
  6
DASHDOT
 62
     2
  5
441
 10
-79.437104
 20
229.802903
 30
0.0
 11
-79.436783
 21
226.502916
 31
0.0
  0
ARC
  8
LC-001-002-----0
  6
CONTINUOUS
  5
442
 10
-72.434265
 20
234.502606
 30
0.0
 40
0.5
 50
0.0
 51
90.0
  0
LINE
  8
LC-001-002-----0
  6
CONTINUOUS
  5
443
 10
-70.434264
 20
232.52302
 30
0.0
 11
-66.934261
 21
232.523028
 31
0.0
  0
LINE
  8
LC-001-002-----0
  6
CONTINUOUS
  5
444
 10
-82.934274
 20
236.002606
 30
0.0
 11
-82.934274
 21
235.002903
 31
0.0
  0
ARC
  8
LC-001-002-----0
  6
CONTINUOUS
  5
445
 10
99.56573
 20
233.023553
 30
0.0
 40
1.5
 50
270.000234
 51
0.000359
  0
ARC
  8
LC-004-002-RND-0
  6
CONTINUOUS
  5
446
 10
-85.434281
 20
236.502606
 30
0.0
 40
0.5
 50
180.0
 51
270.0
  0
LINE
  8
LC-001-002-----0
  6
CONTINUOUS
  5
447
 10
-86.934281
 20
248.09578
 30
0.0
 11
-86.934281
 21
236.502606
 31
0.0
  0
LINE
  8
LC-001-002-----0
  6
CONTINUOUS
  5
448
 10
-110.434341
 20
256.999206
 30
0.0
 11
-110.092321
 21
257.938899
 31
0.0
  0
LINE
  8
LC-001-002-----0
  6
CONTINUOUS
  5
449
 10
139.565656
 20
256.999989
 30
0.0
 11
116.394639
 21
248.566264
 31
0.0
  0
LINE
  8
LC-001-002-----0
  6
CONTINUOUS
  5
44A
 10
105.065726
 20
236.003173
 30
0.0
 11
105.065733
 21
235.003173
 31
0.0
  0
LINE
  8
LC-001-002-----0
  6
CONTINUOUS
  5
44B
 10
105.819331
 20
236.003178
 30
0.0
 11
101.565718
 21
236.003152
 31
0.0
  0
ARC
  8
LC-004-002-RND-0
  6
CONTINUOUS
  5
44C
 10
101.565728
 20
234.503152
 30
0.0
 40
1.5
 50
90.000359
 51
180.000359
  0
ARC
  8
LC-004-002-RND-0
  6
CONTINUOUS
  5
44D
 10
116.565652
 20
248.096419
 30
0.0
 40
0.5
 50
110.000359
 51
180.000359
  0
ARC
  8
LC-004-002-RND-0
  6
CONTINUOUS
  5
44E
 10
99.56573
 20
233.023553
 30
0.0
 40
0.5
 50
270.000247
 51
0.000359
  0
LINE
  8
LC-001-002-----0
  6
CONTINUOUS
  5
44F
 10
105.065733
 20
235.003173
 30
0.0
 11
101.565724
 21
235.003152
 31
0.0
  0
LINE
  8
LC-001-002-----0
  6
CONTINUOUS
  5
450
 10
100.06573
 20
233.023556
 30
0.0
 11
100.065728
 21
234.503142
 31
0.0
  0
LINE
  8
LC-001-002-----0
  6
CONTINUOUS
  5
451
 10
99.565732
 20
232.523553
 30
0.0
 11
96.066349
 21
232.523533
 31
0.0
  0
LINE
  8
LC-001-002-----0
  6
CONTINUOUS
  5
452
 10
96.066349
 20
232.523533
 30
0.0
 11
96.066356
 21
231.523536
 31
0.0
  0
LINE
  8
LC-001-002-----0
  6
CONTINUOUS
  5
453
 10
-70.434262
 20
231.52302
 30
0.0
 11
-66.934261
 21
231.523028
 31
0.0
  0
LINE
  8
LC-001-002-----0
  6
CONTINUOUS
  5
454
 10
139.22363
 20
257.93968
 30
0.0
 11
116.0526
 21
249.50595
 31
0.0
  0
ARC
  8
LC-001-002-----0
  6
CONTINUOUS
  5
455
 10
-70.434265
 20
233.02302
 30
0.0
 40
1.5
 50
180.0
 51
270.000125
  0
LINE
  8
LC-001-002-----0
  6
CONTINUOUS
  5
456
 10
114.565722
 20
236.003233
 30
0.0
 11
111.319331
 21
236.003213
 31
0.0
  0
LINE
  8
LC-001-002-----0
  6
CONTINUOUS
  5
457
 10
112.065726
 20
236.003217
 30
0.0
 11
112.065733
 21
235.003217
 31
0.0
  0
ARC
  8
LC-004-002-RND-0
  6
CONTINUOUS
  5
458
 10
114.565719
 20
236.503233
 30
0.0
 40
0.5
 50
270.000359
 51
0.000359
  0
ARC
  8
LC-001-002-----0
  6
CONTINUOUS
  5
459
 10
-85.434281
 20
236.502606
 30
0.0
 40
1.5
 50
180.0
 51
270.0
  0
ARC
  8
LC-001-002-----0
  6
CONTINUOUS
  5
45A
 10
101.565728
 20
234.503152
 30
0.0
 40
0.5
 50
90.000359
 51
180.000359
  0
LINE
  8
LC-001-002-----0
  6
CONTINUOUS
  5
45B
 10
101.065728
 20
234.503148
 30
0.0
 11
101.06573
 21
233.023562
 31
0.0
  0
LINE
  8
LC-001-002-----0
  6
CONTINUOUS
  5
45C
 10
-76.687799
 20
236.002606
 30
0.0
 11
-72.434265
 21
236.002606
 31
0.0
  0
LINE
  8
LC-001-002-----0
  6
CONTINUOUS
  5
45D
 10
-71.934265
 20
234.502606
 30
0.0
 11
-71.934265
 21
233.02302
 31
0.0
  0
ARC
  8
LC-001-002-----0
  6
CONTINUOUS
  5
45E
 10
114.565731
 20
236.503233
 30
0.0
 40
1.5
 50
270.000359
 51
0.000359
  0
LINE
  8
LC-001-002-----0
  6
CONTINUOUS
  5
45F
 10
114.565741
 20
235.003233
 30
0.0
 11
112.065733
 21
235.003217
 31
0.0
  0
LINE
  8
LC-001-002-----0
  6
CONTINUOUS
  5
460
 10
139.565656
 20
256.999989
 30
0.0
 11
139.22363
 21
257.93968
 31
0.0
  0
LINE
  8
LC-001-002-----0
  6
CONTINUOUS
  5
461
 10
-85.434281
 20
236.002606
 30
0.0
 11
-82.187758
 21
236.002606
 31
0.0
  0
LINE
  8
LC-001-002-----0
  6
CONTINUOUS
  5
462
 10
112.065733
 20
235.003217
 30
0.0
 11
111.319243
 21
235.003213
 31
0.0
  0
LINE
  8
LC-001-002-----0
  6
CONTINUOUS
  5
463
 10
111.319243
 20
235.003213
 30
0.0
 11
105.065733
 21
235.003173
 31
0.0
  0
ARC
  8
LC-004-002-RND-0
  6
CONTINUOUS
  5
464
 10
-61.934339
 20
235.449678
 30
0.0
 40
0.5
 50
0.0
 51
90.0
  0
ARC
  8
LC-004-002-RND-0
  6
CONTINUOUS
  5
465
 10
-61.934339
 20
235.449692
 30
0.0
 40
1.5
 50
0.0
 51
90.000228
  0
ARC
  8
LC-001-002-----0
  6
CONTINUOUS
  5
466
 10
-107.124945
 20
264.218414
 30
0.0
 40
3.0
 50
200.557271
 51
258.0
  0
LINE
  8
LC-001-002-----0
  6
CONTINUOUS
  5
467
 10
-60.434339
 20
235.449692
 30
0.0
 11
-60.434339
 21
232.949694
 31
0.0
  0
ARC
  8
LC-004-002-RND-0
  6
CONTINUOUS
  5
468
 10
-84.412652
 20
258.449598
 30
0.0
 40
1.0
 50
90.000248
 51
135.000248
  0
ARC
  8
LC-001-002-----0
  6
CONTINUOUS
  5
469
 10
-107.124945
 20
264.218414
 30
0.0
 40
2.0
 50
212.292677
 51
258.0
  0
LINE
  8
LC-001-002-----0
  6
CONTINUOUS
  5
46A
 10
-76.433971
 20
258.449633
 30
0.0
 11
-76.437785
 21
258.449633
 31
0.0
  0
ARC
  8
LC-004-002-RND-0
  6
CONTINUOUS
  5
46B
 10
-67.43403
 20
254.949682
 30
0.0
 40
3.0
 50
0.000136
 51
90.0
  0
ARC
  8
LC-004-002-RND-0
  6
CONTINUOUS
  5
46C
 10
-62.433993
 20
238.94969
 30
0.0
 40
2.0
 50
180.000136
 51
270.000228
  0
ARC
  8
LC-004-002-RND-0
  6
CONTINUOUS
  5
46D
 10
-74.455292
 20
258.449642
 30
0.0
 40
1.0
 50
45.000248
 51
90.000248
  0
ARC
  8
LC-004-002-RND-0
  6
CONTINUOUS
  5
46E
 10
91.56543
 20
238.950011
 30
0.0
 40
3.0
 50
270.000248
 51
0.000111
  0
LINE
  8
LC-001-002-----0
  6
CONTINUOUS
  5
46F
 10
94.565398
 20
254.950024
 30
0.0
 11
94.56543
 21
238.950016
 31
0.0
  0
ARC
  8
LC-004-002-RND-0
  6
CONTINUOUS
  5
470
 10
96.565398
 20
254.950024
 30
0.0
 40
2.0
 50
90.0
 51
180.0
  0
LINE
  8
LC-001-002-----0
  6
CONTINUOUS
  5
471
 10
101.672432
 20
256.950026
 30
0.0
 11
96.565398
 21
256.950024
 31
0.0
  0
LINE
  8
LC-001-002-----0
  6
CONTINUOUS
  5
472
 10
105.565325
 20
258.450026
 30
0.0
 11
103.586645
 21
258.450026
 31
0.0
  0
LINE
  8
LC-001-002-----0
  6
CONTINUOUS
  5
473
 10
116.488317
 20
256.950018
 30
0.0
 11
115.458206
 21
256.950029
 31
0.0
  0
LINE
  8
LC-001-002-----0
  6
CONTINUOUS
  5
474
 10
116.488317
 20
256.950018
 30
0.0
 11
136.880021
 21
261.284501
 31
0.0
  0
LINE
  8
LC-001-002-----0
  6
CONTINUOUS
  5
475
 10
-76.437399
 20
258.449633
 30
0.0
 11
-74.455292
 21
258.449641
 31
0.0
  0
LINE
  8
LC-001-002-----0
  6
CONTINUOUS
  5
476
 10
112.065325
 20
259.450026
 30
0.0
 11
112.065325
 21
258.450026
 31
0.0
  0
LINE
  8
LC-001-002-----0
  6
CONTINUOUS
  5
477
 10
105.065325
 20
259.450026
 30
0.0
 11
105.065325
 21
258.450026
 31
0.0
  0
ARC
  8
LC-004-002-RND-0
  6
CONTINUOUS
  5
478
 10
101.672431
 20
257.950026
 30
0.0
 40
1.0
 50
270.00002
 51
315.0
  0
ARC
  8
LC-004-002-RND-0
  6
CONTINUOUS
  5
479
 10
115.458216
 20
257.950029
 30
0.0
 40
1.0
 50
225.0
 51
269.999425
  0
ARC
  8
LC-004-002-RND-0
  6
CONTINUOUS
  5
47A
 10
118.57525
 20
256.364054
 30
0.0
 40
1.0
 50
101.228794
 51
108.020284
  0
LINE
  8
LC-001-002-----0
  6
CONTINUOUS
  5
47B
 10
113.544004
 20
258.450027
 30
0.0
 11
111.565325
 21
258.450026
 31
0.0
  0
LINE
  8
LC-001-002-----0
  6
CONTINUOUS
  5
47C
 10
102.379538
 20
257.242919
 30
0.0
 11
103.586645
 21
258.450026
 31
0.0
  0
LINE
  8
LC-001-002-----0
  6
CONTINUOUS
  5
47D
 10
113.544004
 20
258.450027
 30
0.0
 11
114.751109
 21
257.242922
 31
0.0
  0
LINE
  8
LC-001-002-----0
  6
CONTINUOUS
  5
47E
 10
-85.119761
 20
259.156702
 30
0.0
 11
-86.32686
 21
257.949593
 31
0.0
  0
LINE
  8
LC-001-002-----0
  6
CONTINUOUS
  5
47F
 10
-87.25186
 20
257.949578
 30
0.0
 11
-107.540768
 21
262.262119
 31
0.0
  0
LINE
  8
LC-001-002-----0
  6
CONTINUOUS
  5
480
 10
139.065243
 20
263.165522
 30
0.0
 11
137.946938
 21
263.150459
 31
0.0
  0
LINE
  8
LC-001-002-----0
  6
CONTINUOUS
  5
481
 10
91.565443
 20
235.950011
 30
0.0
 11
91.065789
 21
235.950008
 31
0.0
  0
LINE
  8
LC-001-002-----0
  6
CONTINUOUS
  5
482
 10
96.565385
 20
257.950036
 30
0.0
 11
101.672464
 21
257.950058
 31
0.0
  0
LINE
  8
LC-001-002-----0
  6
CONTINUOUS
  5
483
 10
89.565791
 20
235.450016
 30
0.0
 11
89.565802
 21
232.950018
 31
0.0
  0
ARC
  8
LC-004-002-RND-0
  6
CONTINUOUS
  5
484
 10
91.56543
 20
238.950023
 30
0.0
 40
2.0
 50
270.00002
 51
0.000111
  0
ARC
  8
LC-004-002-RND-0
  6
CONTINUOUS
  5
485
 10
96.565398
 20
254.950036
 30
0.0
 40
3.0
 50
90.000248
 51
180.000111
  0
ARC
  8
LC-001-002-----0
  6
CONTINUOUS
  5
486
 10
136.256273
 20
264.218941
 30
0.0
 40
3.0
 50
282.000248
 51
339.442977
  0
ARC
  8
LC-001-002-----0
  6
CONTINUOUS
  5
487
 10
136.256273
 20
264.218941
 30
0.0
 40
2.0
 50
282.000248
 51
327.70757
  0
ARC
  8
LC-004-002-RND-0
  6
CONTINUOUS
  5
488
 10
91.065791
 20
235.450008
 30
0.0
 40
0.5
 50
90.000248
 51
180.000248
  0
ARC
  8
LC-004-002-RND-0
  6
CONTINUOUS
  5
489
 10
91.065791
 20
235.450022
 30
0.0
 40
1.5
 50
90.00002
 51
180.000248
  0
LINE
  8
LC-001-002-----0
  6
CONTINUOUS
  5
48A
 10
90.565791
 20
235.450006
 30
0.0
 11
90.565802
 21
232.950022
 31
0.0
  0
LINE
  8
LC-001-002-----0
  6
CONTINUOUS
  5
48B
 10
93.565398
 20
254.95003
 30
0.0
 11
93.56543
 21
238.950026
 31
0.0
  0
LINE
  8
LC-001-002-----0
  6
CONTINUOUS
  5
48C
 10
105.565325
 20
258.450026
 30
0.0
 11
105.569532
 21
258.450026
 31
0.0
  0
LINE
  8
LC-001-002-----0
  6
CONTINUOUS
  5
48D
 10
101.672431
 20
257.950026
 30
0.0
 11
102.879539
 21
259.157133
 31
0.0
  0
LINE
  8
LC-001-002-----0
  6
CONTINUOUS
  5
48E
 10
116.383216
 20
257.950019
 30
0.0
 11
115.458216
 21
257.950029
 31
0.0
  0
LINE
  8
LC-001-002-----0
  6
CONTINUOUS
  5
48F
 10
114.251111
 20
259.157133
 30
0.0
 11
115.458216
 21
257.950029
 31
0.0
  0
LINE
  8
LC-001-002-----0
  6
CONTINUOUS
  5
490
 10
116.383216
 20
257.950019
 30
0.0
 11
136.672105
 21
262.262647
 31
0.0
  0
ARC
  8
LC-004-002-RND-0
  6
CONTINUOUS
  5
491
 10
103.586645
 20
258.450026
 30
0.0
 40
1.0
 50
90.0
 51
135.0
  0
ARC
  8
LC-004-002-RND-0
  6
CONTINUOUS
  5
492
 10
113.544005
 20
258.450026
 30
0.0
 40
1.0
 50
45.0
 51
90.0
  0
ARC
  8
LC-001-002-----0
  6
CONTINUOUS
  5
493
 10
-89.754921
 20
273.01486
 30
0.0
 40
5.576109
 50
89.919739
 51
139.922872
  0
LINE
  8
LC-001-002-----0
  6
CONTINUOUS
  5
494
 10
-64.43403
 20
254.949689
 30
0.0
 11
-64.433993
 21
238.949685
 31
0.0
  0
LINE
  8
LC-001-002-----0
  6
CONTINUOUS
  5
495
 10
-87.25186
 20
257.949578
 30
0.0
 11
-86.32686
 21
257.949593
 31
0.0
  0
LINE
  8
LC-001-002-----0
  6
CONTINUOUS
  5
496
 10
-72.541076
 20
257.949649
 30
0.0
 11
-73.748189
 21
259.156751
 31
0.0
  0
LINE
  8
LC-001-002-----0
  6
CONTINUOUS
  5
497
 10
114.571412
 20
261.54962
 30
0.0
 11
102.571412
 21
261.54962
 31
0.0
  0
LINE
  8
LC-001-002-----0
  6
CONTINUOUS
  5
498
 10
105.571412
 20
259.44962
 30
0.0
 11
105.571412
 21
259.44962
 31
0.0
  0
ARC
  8
LC-001-002-----0
  6
CONTINUOUS
  5
499
 10
118.886367
 20
273.01486
 30
0.0
 40
5.576109
 50
40.077128
 51
90.080261
  0
LINE
  8
LC-001-002-----0
  6
CONTINUOUS
  5
49A
 10
-76.437399
 20
259.44962
 30
0.0
 11
-73.959645
 21
259.44962
 31
0.0
  0
ARC
  8
LC-004-002-RND-0
  6
CONTINUOUS
  5
49B
 10
-62.433993
 20
238.949678
 30
0.0
 40
3.0
 50
180.000136
 51
270.0
  0
LINE
  8
LC-001-002-----0
  6
CONTINUOUS
  5
49C
 10
113.571412
 20
270.54962
 30
0.0
 11
103.571412
 21
270.54962
 31
0.0
  0
LINE
  8
LC-001-002-----0
  6
CONTINUOUS
  5
49D
 10
101.883512
 20
276.237446
 30
0.0
 11
103.571412
 21
270.54962
 31
0.0
  0
LINE
  8
LC-001-002-----0
  6
CONTINUOUS
  5
49E
 10
-82.933799
 20
259.449605
 30
0.0
 11
-84.412479
 21
259.449598
 31
0.0
  0
LINE
  8
LC-001-002-----0
  6
CONTINUOUS
  5
49F
 10
105.569532
 20
259.44962
 30
0.0
 11
103.091091
 21
259.44962
 31
0.0
  0
LINE
  8
LC-001-002-----0
  6
CONTINUOUS
  5
4A0
 10
-65.43403
 20
254.949678
 30
0.0
 11
-65.433993
 21
238.949671
 31
0.0
  0
ARC
  8
LC-004-002-RND-0
  6
CONTINUOUS
  5
4A1
 10
-67.43403
 20
254.94967
 30
0.0
 40
2.0
 50
0.000248
 51
90.000248
  0
LINE
  8
LC-001-002-----0
  6
CONTINUOUS
  5
4A2
 10
-72.541072
 20
256.949649
 30
0.0
 11
-67.434038
 21
256.94967
 31
0.0
  0
LINE
  8
LC-001-002-----0
  6
CONTINUOUS
  5
4A3
 10
-74.455297
 20
259.449642
 30
0.0
 11
-76.437399
 21
259.449633
 31
0.0
  0
LINE
  8
LC-001-002-----0
  6
CONTINUOUS
  5
4A4
 10
-87.356958
 20
256.949577
 30
0.0
 11
-86.326846
 21
256.949593
 31
0.0
  0
LINE
  8
LC-001-002-----0
  6
CONTINUOUS
  5
4A5
 10
-87.356958
 20
256.949577
 30
0.0
 11
-107.74868
 21
261.283971
 31
0.0
  0
LINE
  8
LC-001-002-----0
  6
CONTINUOUS
  5
4A6
 10
-61.434339
 20
232.949694
 30
0.0
 11
-60.434339
 21
232.949694
 31
0.0
  0
LINE
  8
LC-001-002-----0
  6
CONTINUOUS
  5
4A7
 10
-61.434339
 20
235.449678
 30
0.0
 11
-61.434339
 21
232.949694
 31
0.0
  0
LINE
  8
LC-001-002-----0
  6
CONTINUOUS
  5
4A8
 10
-67.43403
 20
257.949682
 30
0.0
 11
-72.541108
 21
257.949682
 31
0.0
  0
LINE
  8
LC-001-002-----0
  6
CONTINUOUS
  5
4A9
 10
-82.933976
 20
259.449605
 30
0.0
 11
-82.933971
 21
258.449605
 31
0.0
  0
LINE
  8
LC-001-002-----0
  6
CONTINUOUS
  5
4AA
 10
-75.933976
 20
259.449635
 30
0.0
 11
-75.933971
 21
258.449635
 31
0.0
  0
ARC
  8
LC-004-002-RND-0
  6
CONTINUOUS
  5
4AB
 10
-72.541076
 20
257.949649
 30
0.0
 40
1.0
 50
225.000248
 51
270.000228
  0
ARC
  8
LC-004-002-RND-0
  6
CONTINUOUS
  5
4AC
 10
-86.32686
 20
257.949593
 30
0.0
 40
1.0
 50
270.000823
 51
315.000248
  0
ARC
  8
LC-004-002-RND-0
  6
CONTINUOUS
  5
4AD
 10
-89.443887
 20
256.363604
 30
0.0
 40
1.0
 50
71.979964
 51
78.771454
  0
LINE
  8
LC-001-002-----0
  6
CONTINUOUS
  5
4AE
 10
-82.437399
 20
259.449607
 30
0.0
 11
-84.412656
 21
259.449598
 31
0.0
  0
LINE
  8
LC-001-002-----0
  6
CONTINUOUS
  5
4AF
 10
-73.24818
 20
257.24254
 30
0.0
 11
-74.455292
 21
258.449641
 31
0.0
  0
LINE
  8
LC-001-002-----0
  6
CONTINUOUS
  5
4B0
 10
-84.412651
 20
258.449599
 30
0.0
 11
-85.619751
 21
257.242489
 31
0.0
  0
LINE
  8
LC-001-002-----0
  6
CONTINUOUS
  5
4B1
 10
-109.93391
 20
263.164984
 30
0.0
 11
-108.815605
 21
263.149925
 31
0.0
  0
LINE
  8
LC-001-002-----0
  6
CONTINUOUS
  5
4B2
 10
-62.433993
 20
235.949678
 30
0.0
 11
-61.934339
 21
235.949678
 31
0.0
  0
LINE
  8
LC-001-002-----0
  6
CONTINUOUS
  5
4B3
 10
-82.437785
 20
258.449607
 30
0.0
 11
-82.433971
 21
258.449607
 31
0.0
  0
LINE
  8
LC-001-002-----0
  6
CONTINUOUS
  5
4B4
 10
-84.412651
 20
258.449599
 30
0.0
 11
-82.437399
 21
258.449607
 31
0.0
  0
LINE
  8
LC-001-002-----0
  6
CONTINUOUS
  5
4B5
 10
103.586645
 20
259.450026
 30
0.0
 11
105.569532
 21
259.450026
 31
0.0
  0
LINE
  8
LC-001-002-----0
  6
CONTINUOUS
  5
4B6
 10
111.321395
 20
259.450026
 30
0.0
 11
113.544005
 21
259.450026
 31
0.0
  0
LINE
  8
LC-001-002-----0
  6
CONTINUOUS
  5
4B7
 10
-85.439966
 20
261.54962
 30
0.0
 11
-73.439966
 21
261.54962
 31
0.0
  0
LINE
  8
LC-001-002-----0
  6
CONTINUOUS
  5
4B8
 10
-76.439966
 20
259.44962
 30
0.0
 11
-76.439966
 21
259.44962
 31
0.0
  0
LINE
  8
LC-001-002-----0
  6
CONTINUOUS
  5
4B9
 10
-84.439966
 20
270.54962
 30
0.0
 11
-74.439966
 21
270.54962
 31
0.0
  0
LINE
  8
LC-001-002-----0
  6
CONTINUOUS
  5
4BA
 10
-72.752066
 20
276.237446
 30
0.0
 11
-74.439966
 21
270.54962
 31
0.0
  0
LINE
  8
LC-001-002-----0
  6
CONTINUOUS
  5
4BB
 10
-85.439966
 20
261.54962
 30
0.0
 11
-84.439966
 21
270.54962
 31
0.0
  0
LINE
  8
LC-001-002-----0
  6
CONTINUOUS
  5
4BC
 10
-74.439966
 20
270.54962
 30
0.0
 11
-73.439966
 21
261.54962
 31
0.0
  0
ARC
  8
LC-004-002-RND-0
  6
CONTINUOUS
  5
4BD
 10
-69.1365
 20
274.62463
 30
0.0
 40
3.925
 50
89.87259
 51
155.894105
  0
ARC
  8
LC-001-002-----0
  6
CONTINUOUS
  5
4BE
 10
-69.127675
 20
273.016862
 30
0.0
 40
5.576109
 50
40.088251
 51
90.091384
  0
ARC
  8
LC-004-002-RND-0
  6
CONTINUOUS
  5
4BF
 10
-67.864489
 20
274.080121
 30
0.0
 40
3.925
 50
315.504186
 51
40.088251
  0
LINE
  8
LC-001-002-----0
  6
CONTINUOUS
  5
4C0
 10
-86.127866
 20
276.237446
 30
0.0
 11
-84.439966
 21
270.54962
 31
0.0
  0
ARC
  8
LC-004-002-RND-0
  6
CONTINUOUS
  5
4C1
 10
-91.015444
 20
274.080121
 30
0.0
 40
3.925
 50
139.911749
 51
224.495814
  0
LINE
  8
LC-001-002-----0
  6
CONTINUOUS
  5
4C2
 10
-93.99485
 20
271.524977
 30
0.0
 11
-85.439966
 21
261.54962
 31
0.0
  0
LINE
  8
LC-001-002-----0
  6
CONTINUOUS
  5
4C3
 10
-64.885082
 20
271.524977
 30
0.0
 11
-73.439966
 21
261.54962
 31
0.0
  0
ARC
  8
LC-004-002-RND-0
  6
CONTINUOUS
  5
4C4
 10
-89.743432
 20
274.62463
 30
0.0
 40
3.925
 50
24.105895
 51
90.12741
  0
LINE
  8
LC-001-002-----0
  6
CONTINUOUS
  5
4C5
 10
114.571412
 20
261.54962
 30
0.0
 11
113.571412
 21
270.54962
 31
0.0
  0
LINE
  8
LC-001-002-----0
  6
CONTINUOUS
  5
4C6
 10
103.571412
 20
270.54962
 30
0.0
 11
102.571412
 21
261.54962
 31
0.0
  0
ARC
  8
LC-004-002-RND-0
  6
CONTINUOUS
  5
4C7
 10
98.267946
 20
274.62463
 30
0.0
 40
3.925
 50
24.105895
 51
90.12741
  0
ARC
  8
LC-001-002-----0
  6
CONTINUOUS
  5
4C8
 10
98.259121
 20
273.016862
 30
0.0
 40
5.576109
 50
89.908616
 51
139.911749
  0
ARC
  8
LC-004-002-RND-0
  6
CONTINUOUS
  5
4C9
 10
96.995935
 20
274.080121
 30
0.0
 40
3.925
 50
139.911749
 51
224.495814
  0
LINE
  8
LC-001-002-----0
  6
CONTINUOUS
  5
4CA
 10
115.259312
 20
276.237446
 30
0.0
 11
113.571412
 21
270.54962
 31
0.0
  0
ARC
  8
LC-004-002-RND-0
  6
CONTINUOUS
  5
4CB
 10
120.14689
 20
274.080121
 30
0.0
 40
3.925
 50
315.504186
 51
40.088251
  0
LINE
  8
LC-001-002-----0
  6
CONTINUOUS
  5
4CC
 10
123.126296
 20
271.524977
 30
0.0
 11
114.571412
 21
261.54962
 31
0.0
  0
LINE
  8
LC-001-002-----0
  6
CONTINUOUS
  5
4CD
 10
94.016528
 20
271.524977
 30
0.0
 11
102.571412
 21
261.54962
 31
0.0
  0
ARC
  8
LC-004-002-RND-0
  6
CONTINUOUS
  5
4CE
 10
118.874878
 20
274.62463
 30
0.0
 40
3.925
 50
89.87259
 51
155.894105
  0
LINE
  8
LC-001-002-----0
  6
DASHDOT
 62
     2
  5
4CF
 10
108.572971
 20
275.34866
 30
0.0
 11
108.569055
 21
235.002903
 31
0.0
  0
LINE
  8
LC-001-002-----0
  6
DASHDOT
 62
     2
  5
4D0
 10
108.56855
 20
229.802903
 30
0.0
 11
108.568181
 21
226.002916
 31
0.0
  0
LINE
  8
LC-001-002-----0
  6
CONTINUOUS
  5
4D1
 10
-73.437609
 20
261.54962
 30
0.0
 11
-85.437609
 21
261.54962
 31
0.0
  0
LINE
  8
LC-001-002-----0
  6
CONTINUOUS
  5
4D2
 10
-82.437609
 20
261.54962
 30
0.0
 11
-82.437609
 21
261.54962
 31
0.0
  0
LINE
  8
LC-001-002-----0
  6
CONTINUOUS
  5
4D3
 10
-85.439789
 20
261.54962
 30
0.0
 11
-73.439789
 21
261.54962
 31
0.0
  0
LINE
  8
LC-001-002-----0
  6
CONTINUOUS
  5
4D4
 10
-74.45512
 20
259.449642
 30
0.0
 11
-75.933799
 21
259.449635
 31
0.0
  0
ARC
  8
LC-004-002-RND-0
  6
CONTINUOUS
  5
4D5
 10
-74.455115
 20
258.449642
 30
0.0
 40
1.0
 50
45.000248
 51
90.000248
  0
ARC
  8
LC-004-002-RND-0
  6
CONTINUOUS
  5
4D6
 10
-84.412475
 20
258.449598
 30
0.0
 40
1.0
 50
90.000248
 51
135.000248
  0
LINE
  8
LC-001-002-----0
  6
CONTINUOUS
  5
4D7
 10
-76.439789
 20
259.44962
 30
0.0
 11
-76.439789
 21
259.44962
 31
0.0
  0
LINE
  8
LC-001-002-----0
  6
CONTINUOUS
  5
4D8
 10
-76.437399
 20
260.84962
 30
0.0
 11
-75.295091
 21
260.84962
 31
0.0
  0
LINE
  8
LC-001-002-----0
  6
CONTINUOUS
  5
4D9
 10
-76.437399
 20
260.14962
 30
0.0
 11
-75.295091
 21
260.14962
 31
0.0
  0
LINE
  8
LC-001-002-----0
  6
CONTINUOUS
  5
4DA
 10
-84.920392
 20
259.44962
 30
0.0
 11
-82.437399
 21
259.44962
 31
0.0
  0
LINE
  8
LC-001-002-----0
  6
CONTINUOUS
  5
4DB
 10
-84.920392
 20
261.54962
 30
0.0
 11
-73.959645
 21
261.54962
 31
0.0
  0
LINE
  8
LC-001-002-----0
  6
CONTINUOUS
  5
4DC
 10
-82.640019
 20
260.84962
 30
0.0
 11
-82.640019
 21
260.14962
 31
0.0
  0
LINE
  8
LC-001-002-----0
  6
CONTINUOUS
  5
4DD
 10
-76.240019
 20
260.14962
 30
0.0
 11
-76.240019
 21
260.84962
 31
0.0
  0
LINE
  8
LC-001-002-----0
  6
CONTINUOUS
  5
4DE
 10
-84.920392
 20
259.44962
 30
0.0
 11
-83.584946
 21
260.14962
 31
0.0
  0
LINE
  8
LC-001-002-----0
  6
CONTINUOUS
  5
4DF
 10
-84.920392
 20
260.84962
 30
0.0
 11
-84.252669
 21
260.49962
 31
0.0
  0
LINE
  8
LC-001-002-----0
  6
CONTINUOUS
  5
4E0
 10
-84.920392
 20
260.84962
 30
0.0
 11
-84.920392
 21
261.54962
 31
0.0
  0
LINE
  8
LC-001-002-----0
  6
CONTINUOUS
  5
4E1
 10
-84.920392
 20
261.54962
 30
0.0
 11
-83.584946
 21
260.84962
 31
0.0
  0
LINE
  8
LC-001-002-----0
  6
CONTINUOUS
  5
4E2
 10
-73.959645
 20
261.54962
 30
0.0
 11
-75.295091
 21
260.84962
 31
0.0
  0
LINE
  8
LC-001-002-----0
  6
CONTINUOUS
  5
4E3
 10
-73.959645
 20
260.84962
 30
0.0
 11
-75.295091
 21
260.14962
 31
0.0
  0
LINE
  8
LC-001-002-----0
  6
CONTINUOUS
  5
4E4
 10
-73.959645
 20
260.14962
 30
0.0
 11
-74.627368
 21
260.49962
 31
0.0
  0
LINE
  8
LC-001-002-----0
  6
CONTINUOUS
  5
4E5
 10
-73.959645
 20
259.44962
 30
0.0
 11
-75.295091
 21
260.14962
 31
0.0
  0
LINE
  8
LC-001-002-----0
  6
CONTINUOUS
  5
4E6
 10
-83.584946
 20
260.84962
 30
0.0
 11
-82.437399
 21
260.84962
 31
0.0
  0
LINE
  8
LC-001-002-----0
  6
CONTINUOUS
  5
4E7
 10
-83.584946
 20
260.14962
 30
0.0
 11
-82.437399
 21
260.14962
 31
0.0
  0
LINE
  8
LC-001-002-----0
  6
CONTINUOUS
  5
4E8
 10
-84.920392
 20
260.14962
 30
0.0
 11
-83.584946
 21
260.84962
 31
0.0
  0
LINE
  8
LC-001-002-----0
  6
CONTINUOUS
  5
4E9
 10
-84.920392
 20
260.14962
 30
0.0
 11
-84.920392
 21
259.44962
 31
0.0
  0
LINE
  8
LC-001-002-----0
  6
CONTINUOUS
  5
4EA
 10
-73.959645
 20
260.14962
 30
0.0
 11
-73.959645
 21
259.44962
 31
0.0
  0
LINE
  8
LC-001-002-----0
  6
CONTINUOUS
  5
4EB
 10
-73.959645
 20
260.84962
 30
0.0
 11
-73.959645
 21
261.54962
 31
0.0
  0
LINE
  8
LC-001-002-----0
  6
CONTINUOUS
  5
4EC
 10
112.065245
 20
259.449605
 30
0.0
 11
113.543925
 21
259.449598
 31
0.0
  0
LINE
  8
LC-001-002-----0
  6
CONTINUOUS
  5
4ED
 10
103.586743
 20
259.449642
 30
0.0
 11
105.569532
 21
259.449633
 31
0.0
  0
LINE
  8
LC-001-002-----0
  6
CONTINUOUS
  5
4EE
 10
111.569532
 20
259.449607
 30
0.0
 11
113.544102
 21
259.449598
 31
0.0
  0
LINE
  8
LC-001-002-----0
  6
CONTINUOUS
  5
4EF
 10
105.571412
 20
259.44962
 30
0.0
 11
105.571412
 21
259.44962
 31
0.0
  0
LINE
  8
LC-001-002-----0
  6
CONTINUOUS
  5
4F0
 10
111.569055
 20
261.54962
 30
0.0
 11
111.569055
 21
261.54962
 31
0.0
  0
LINE
  8
LC-001-002-----0
  6
CONTINUOUS
  5
4F1
 10
103.586566
 20
259.449642
 30
0.0
 11
105.065245
 21
259.449635
 31
0.0
  0
LINE
  8
LC-001-002-----0
  6
CONTINUOUS
  5
4F2
 10
105.571235
 20
259.44962
 30
0.0
 11
105.571235
 21
259.44962
 31
0.0
  0
LINE
  8
LC-001-002-----0
  6
CONTINUOUS
  5
4F3
 10
105.569532
 20
260.84962
 30
0.0
 11
104.426537
 21
260.84962
 31
0.0
  0
LINE
  8
LC-001-002-----0
  6
CONTINUOUS
  5
4F4
 10
105.569532
 20
260.14962
 30
0.0
 11
104.426537
 21
260.14962
 31
0.0
  0
LINE
  8
LC-001-002-----0
  6
CONTINUOUS
  5
4F5
 10
114.051838
 20
259.44962
 30
0.0
 11
111.569532
 21
259.44962
 31
0.0
  0
LINE
  8
LC-001-002-----0
  6
CONTINUOUS
  5
4F6
 10
111.771465
 20
260.84962
 30
0.0
 11
111.771465
 21
260.14962
 31
0.0
  0
LINE
  8
LC-001-002-----0
  6
CONTINUOUS
  5
4F7
 10
105.371465
 20
260.14962
 30
0.0
 11
105.371465
 21
260.84962
 31
0.0
  0
LINE
  8
LC-001-002-----0
  6
CONTINUOUS
  5
4F8
 10
114.051838
 20
259.44962
 30
0.0
 11
112.716392
 21
260.14962
 31
0.0
  0
LINE
  8
LC-001-002-----0
  6
CONTINUOUS
  5
4F9
 10
114.051838
 20
260.84962
 30
0.0
 11
113.384115
 21
260.49962
 31
0.0
  0
LINE
  8
LC-001-002-----0
  6
CONTINUOUS
  5
4FA
 10
114.051838
 20
260.84962
 30
0.0
 11
114.051838
 21
261.54962
 31
0.0
  0
LINE
  8
LC-001-002-----0
  6
CONTINUOUS
  5
4FB
 10
114.051838
 20
261.54962
 30
0.0
 11
112.716392
 21
260.84962
 31
0.0
  0
LINE
  8
LC-001-002-----0
  6
CONTINUOUS
  5
4FC
 10
103.091091
 20
261.54962
 30
0.0
 11
104.426537
 21
260.84962
 31
0.0
  0
LINE
  8
LC-001-002-----0
  6
CONTINUOUS
  5
4FD
 10
103.091091
 20
260.84962
 30
0.0
 11
104.426537
 21
260.14962
 31
0.0
  0
LINE
  8
LC-001-002-----0
  6
CONTINUOUS
  5
4FE
 10
103.091091
 20
260.14962
 30
0.0
 11
103.758814
 21
260.49962
 31
0.0
  0
LINE
  8
LC-001-002-----0
  6
CONTINUOUS
  5
4FF
 10
103.091091
 20
259.44962
 30
0.0
 11
104.426537
 21
260.14962
 31
0.0
  0
LINE
  8
LC-001-002-----0
  6
CONTINUOUS
  5
500
 10
112.716392
 20
260.84962
 30
0.0
 11
111.569532
 21
260.84962
 31
0.0
  0
LINE
  8
LC-001-002-----0
  6
CONTINUOUS
  5
501
 10
112.716392
 20
260.14962
 30
0.0
 11
111.569532
 21
260.14962
 31
0.0
  0
LINE
  8
LC-001-002-----0
  6
CONTINUOUS
  5
502
 10
114.051838
 20
260.14962
 30
0.0
 11
112.716392
 21
260.84962
 31
0.0
  0
LINE
  8
LC-001-002-----0
  6
CONTINUOUS
  5
503
 10
114.051838
 20
260.14962
 30
0.0
 11
114.051838
 21
259.44962
 31
0.0
  0
LINE
  8
LC-001-002-----0
  6
CONTINUOUS
  5
504
 10
103.091091
 20
260.14962
 30
0.0
 11
103.091091
 21
259.44962
 31
0.0
  0
LINE
  8
LC-001-002-----0
  6
CONTINUOUS
  5
505
 10
103.091091
 20
260.84962
 30
0.0
 11
103.091091
 21
261.54962
 31
0.0
  0
LINE
  8
LC-001-002-----0
  6
CONTINUOUS
  5
506
 10
14.566067
 20
227.808114
 30
0.0
 11
-61.68432
 21
227.808114
 31
0.0
  0
LINE
  8
LC-001-002-----0
  6
CONTINUOUS
  5
507
 10
14.566067
 20
219.808114
 30
0.0
 11
-54.18432
 21
219.808114
 31
0.0
  0
LINE
  8
LC-001-002-----0
  6
CONTINUOUS
  5
508
 10
-62.433993
 20
236.94969
 30
0.0
 11
-61.934345
 21
236.94969
 31
0.0
  0
LINE
  8
LC-001-002-----0
  6
CONTINUOUS
  5
509
 10
89.565802
 20
232.950018
 30
0.0
 11
90.565802
 21
232.950018
 31
0.0
  0
LINE
  8
LC-001-002-----0
  6
CONTINUOUS
  5
50A
 10
91.565431
 20
236.950023
 30
0.0
 11
91.065791
 21
236.950023
 31
0.0
  0
LINE
  8
LC-001-002-----0
  6
CONTINUOUS
  5
50B
 10
11.26065
 20
318.121437
 30
0.0
 11
11.26065
 21
332.921437
 31
0.0
  0
LINE
  8
LC-001-002-----0
  6
CONTINUOUS
  5
50C
 10
-53.820025
 20
257.921376
 30
0.0
 11
-39.555951
 21
292.559059
 31
0.0
  0
ARC
  8
LC-004-002-RND-0
  6
CONTINUOUS
  5
50D
 10
-33.882621
 20
317.921375
 30
0.0
 40
15.0
 50
90.000079
 51
160.0
  0
LINE
  8
LC-001-002-----0
  6
CONTINUOUS
  5
50E
 10
2.766106
 20
228.921376
 30
0.0
 11
14.530363
 21
228.921376
 31
0.0
  0
LINE
  8
LC-001-002-----0
  6
CONTINUOUS
  5
50F
 10
-11.305575
 20
297.221376
 30
0.0
 11
-6.850369
 21
318.121412
 31
0.0
  0
LINE
  8
LC-001-002-----0
  6
CONTINUOUS
  5
510
 10
-33.882642
 20
332.921375
 30
0.0
 11
14.565964
 21
332.921442
 31
0.0
  0
LINE
  8
LC-001-002-----0
  6
CONTINUOUS
  5
511
 10
-55.93367
 20
257.921376
 30
0.0
 11
-28.635901
 21
332.921382
 31
0.0
  0
LINE
  8
LC-001-002-----0
  6
CONTINUOUS
  5
512
 10
-27.920904
 20
328.83625
 30
0.0
 11
-26.434036
 21
332.921385
 31
0.0
  0
LINE
  8
LC-001-002-----0
  6
CONTINUOUS
  5
513
 10
-30.273769
 20
328.421376
 30
0.0
 11
-27.920904
 21
328.83625
 31
0.0
  0
LINE
  8
LC-001-002-----0
  6
CONTINUOUS
  5
514
 10
-67.826935
 20
257.921376
 30
0.0
 11
-71.019502
 21
259.7457
 31
0.0
  0
LINE
  8
LC-001-002-----0
  6
CONTINUOUS
  5
515
 10
13.416327
 20
318.12144
 30
0.0
 11
13.416327
 21
297.221376
 31
0.0
  0
ARC
  8
LC-004-002-RND-0
  6
CONTINUOUS
  5
516
 10
-59.833632
 20
229.921376
 30
0.0
 40
1.0
 50
90.0
 51
180.000079
  0
LINE
  8
LC-001-002-----0
  6
CONTINUOUS
  5
517
 10
-41.62964
 20
297.221376
 30
0.0
 11
-41.62964
 21
292.858276
 31
0.0
  0
ARC
  8
LC-004-002-RND-0
  6
CONTINUOUS
  5
518
 10
-59.833632
 20
229.921376
 30
0.0
 40
1.0
 50
180.000079
 51
270.0
  0
LINE
  8
LC-001-002-----0
  6
CONTINUOUS
  5
519
 10
-59.933632
 20
228.921376
 30
0.0
 11
-58.43363
 21
228.921376
 31
0.0
  0
LINE
  8
LC-001-002-----0
  6
CONTINUOUS
  5
51A
 10
-63.333647
 20
241.221376
 30
0.0
 11
-59.333647
 21
241.221376
 31
0.0
  0
ARC
  8
LC-004-002-RND-0
  6
CONTINUOUS
  5
51B
 10
-59.833634
 20
231.421376
 30
0.0
 40
0.5
 50
270.0
 51
0.000079
  0
LINE
  8
LC-001-002-----0
  6
CONTINUOUS
  5
51C
 10
-59.833632
 20
228.921376
 30
0.0
 11
-56.433631
 21
228.921376
 31
0.0
  0
LINE
  8
LC-001-002-----0
  6
CONTINUOUS
  5
51D
 10
-22.596669
 20
297.221376
 30
0.0
 11
-16.285061
 21
318.121399
 31
0.0
  0
LINE
  8
LC-001-002-----0
  6
CONTINUOUS
  5
51E
 10
-43.326585
 20
292.559059
 30
0.0
 11
-41.62964
 21
292.858276
 31
0.0
  0
ARC
  8
LC-004-002-RND-0
  6
CONTINUOUS
  5
51F
 10
-63.333647
 20
241.721376
 30
0.0
 40
0.5
 50
180.000079
 51
270.0
  0
LINE
  8
LC-001-002-----0
  6
CONTINUOUS
  5
520
 10
-24.243694
 20
297.221376
 30
0.0
 11
-17.943084
 21
318.121397
 31
0.0
  0
LINE
  8
LC-001-002-----0
  6
CONTINUOUS
  5
521
 10
-56.43366
 20
250.221376
 30
0.0
 11
-56.433631
 21
228.921376
 31
0.0
  0
LINE
  8
LC-001-002-----0
  6
CONTINUOUS
  5
522
 10
-56.433647
 20
241.221376
 30
0.0
 11
0.76609
 21
241.221376
 31
0.0
  0
LINE
  8
LC-001-002-----0
  6
CONTINUOUS
  5
523
 10
-63.83367
 20
257.921376
 30
0.0
 11
-63.833647
 21
241.721376
 31
0.0
  0
LINE
  8
LC-001-002-----0
  6
CONTINUOUS
  5
524
 10
-34.022663
 20
318.121375
 30
0.0
 11
14.565984
 21
318.121442
 31
0.0
  0
LINE
  8
LC-001-002-----0
  6
CONTINUOUS
  5
525
 10
-13.297433
 20
297.221376
 30
0.0
 11
-8.842227
 21
318.121409
 31
0.0
  0
LINE
  8
LC-001-002-----0
  6
CONTINUOUS
  5
526
 10
-41.62964
 20
297.221376
 30
0.0
 11
14.566013
 21
297.221376
 31
0.0
  0
LINE
  8
LC-001-002-----0
  6
CONTINUOUS
  5
527
 10
-43.326585
 20
292.559059
 30
0.0
 11
14.566019
 21
292.559059
 31
0.0
  0
LINE
  8
LC-001-002-----0
  6
CONTINUOUS
  5
528
 10
-0.452301
 20
297.221376
 30
0.0
 11
1.853884
 21
318.121424
 31
0.0
  0
LINE
  8
LC-001-002-----0
  6
CONTINUOUS
  5
529
 10
2.766079
 20
249.221378
 30
0.0
 11
2.766106
 21
228.921376
 31
0.0
  0
LINE
  8
LC-001-002-----0
  6
CONTINUOUS
  5
52A
 10
-55.93366
 20
250.221376
 30
0.0
 11
1.916995
 21
250.221376
 31
0.0
  0
LINE
  8
LC-001-002-----0
  6
CONTINUOUS
  5
52B
 10
0.766079
 20
249.221375
 30
0.0
 11
0.76609
 21
241.221376
 31
0.0
  0
ARC
  8
LC-004-002-RND-0
  6
CONTINUOUS
  5
52C
 10
1.766079
 20
249.221376
 30
0.0
 40
1.0
 50
90.0
 51
180.000079
  0
ARC
  8
LC-004-002-RND-0
  6
CONTINUOUS
  5
52D
 10
1.766079
 20
249.221376
 30
0.0
 40
1.0
 50
0.000079
 51
90.0
  0
LINE
  8
LC-001-002-----0
  6
CONTINUOUS
  5
52E
 10
1.769328
 20
297.221376
 30
0.0
 11
4.075513
 21
318.121427
 31
0.0
  0
LINE
  8
LC-001-002-----0
  6
CONTINUOUS
  5
52F
 10
13.416327
 20
292.559059
 30
0.0
 11
13.416327
 21
257.921376
 31
0.0
  0
LINE
  8
LC-001-002-----0
  6
CONTINUOUS
  5
530
 10
-56.43366
 20
250.221376
 30
0.0
 11
-55.93366
 21
250.221376
 31
0.0
  0
LINE
  8
LC-001-002-----0
  6
CONTINUOUS
  5
531
 10
1.028176
 20
250.221376
 30
0.0
 11
14.566094
 21
250.221376
 31
0.0
  0
LINE
  8
LC-001-002-----0
  6
CONTINUOUS
  5
532
 10
-55.93367
 20
257.921376
 30
0.0
 11
-55.93366
 21
250.221376
 31
0.0
  0
LINE
  8
LC-001-002-----0
  6
CONTINUOUS
  5
533
 10
-59.33367
 20
257.921376
 30
0.0
 11
-59.333634
 21
231.421377
 31
0.0
  0
LINE
  8
LC-001-002-----0
  6
CONTINUOUS
  5
534
 10
-37.040688
 20
297.221376
 30
0.0
 11
-28.433898
 21
318.121383
 31
0.0
  0
LINE
  8
LC-001-002-----0
  6
CONTINUOUS
  5
535
 10
-45.90534
 20
257.921376
 30
0.0
 11
-33.116523
 21
292.559059
 31
0.0
  0
LINE
  8
LC-001-002-----0
  6
CONTINUOUS
  5
536
 10
-19.683054
 20
257.921376
 30
0.0
 11
-12.299429
 21
292.559059
 31
0.0
  0
LINE
  8
LC-001-002-----0
  6
CONTINUOUS
  5
537
 10
-21.674912
 20
257.921376
 30
0.0
 11
-14.291287
 21
292.559059
 31
0.0
  0
LINE
  8
LC-001-002-----0
  6
CONTINUOUS
  5
538
 10
-4.788802
 20
257.921376
 30
0.0
 11
-0.966758
 21
292.559059
 31
0.0
  0
LINE
  8
LC-001-002-----0
  6
CONTINUOUS
  5
539
 10
-2.567173
 20
257.921376
 30
0.0
 11
1.254871
 21
292.559059
 31
0.0
  0
LINE
  8
LC-001-002-----0
  6
CONTINUOUS
  5
53A
 10
-47.05534
 20
257.921376
 30
0.0
 11
-34.266523
 21
292.559059
 31
0.0
  0
LINE
  8
LC-001-002-----0
  6
CONTINUOUS
  5
53B
 10
-37.635971
 20
297.221376
 30
0.0
 11
-29.029182
 21
318.121382
 31
0.0
  0
LINE
  8
LC-001-002-----0
  6
CONTINUOUS
  5
53C
 10
-34.464895
 20
257.921376
 30
0.0
 11
-24.004645
 21
292.559059
 31
0.0
  0
LINE
  8
LC-001-002-----0
  6
CONTINUOUS
  5
53D
 10
-36.091241
 20
257.921376
 30
0.0
 11
-25.649217
 21
292.559059
 31
0.0
  0
LINE
  8
LC-001-002-----0
  6
CONTINUOUS
  5
53E
 10
-32.545116
 20
297.221376
 30
0.0
 11
-24.828479
 21
318.121388
 31
0.0
  0
LINE
  8
LC-001-002-----0
  6
CONTINUOUS
  5
53F
 10
-31.395116
 20
297.221376
 30
0.0
 11
-23.678479
 21
318.121389
 31
0.0
  0
LINE
  8
LC-001-002-----0
  6
CONTINUOUS
  5
540
 10
-53.224741
 20
257.921376
 30
0.0
 11
-38.960667
 21
292.559059
 31
0.0
  0
LINE
  8
LC-001-002-----0
  6
CONTINUOUS
  5
541
 10
-64.879791
 20
276.614417
 30
0.0
 11
-47.97801
 21
323.051677
 31
0.0
  0
LINE
  8
LC-001-002-----0
  6
CONTINUOUS
  5
542
 10
-71.019502
 20
259.7457
 30
0.0
 11
-68.094384
 21
267.782394
 31
0.0
  0
LINE
  8
LC-001-002-----0
  6
CONTINUOUS
  5
543
 10
17.871318
 20
318.121446
 30
0.0
 11
17.871277
 21
332.921446
 31
0.0
  0
LINE
  8
LC-001-002-----0
  6
CONTINUOUS
  5
544
 10
72.458623
 20
292.559218
 30
0.0
 11
14.566019
 21
292.559059
 31
0.0
  0
LINE
  8
LC-001-002-----0
  6
CONTINUOUS
  5
545
 10
26.366079
 20
249.22141
 30
0.0
 11
26.366106
 21
228.921409
 31
0.0
  0
LINE
  8
LC-001-002-----0
  6
CONTINUOUS
  5
546
 10
82.952158
 20
257.921564
 30
0.0
 11
68.687989
 21
292.559207
 31
0.0
  0
ARC
  8
LC-004-002-RND-0
  6
CONTINUOUS
  5
547
 10
63.01459
 20
317.921508
 30
0.0
 40
15.0
 50
20.000157
 51
90.000079
  0
LINE
  8
LC-001-002-----0
  6
CONTINUOUS
  5
548
 10
26.366106
 20
228.921409
 30
0.0
 11
14.601849
 21
228.921376
 31
0.0
  0
LINE
  8
LC-001-002-----0
  6
CONTINUOUS
  5
549
 10
40.4376
 20
297.221447
 30
0.0
 11
35.982337
 21
318.121471
 31
0.0
  0
LINE
  8
LC-001-002-----0
  6
CONTINUOUS
  5
54A
 10
100.15163
 20
259.745935
 30
0.0
 11
97.226614
 21
267.782282
 31
0.0
  0
LINE
  8
LC-001-002-----0
  6
CONTINUOUS
  5
54B
 10
85.065814
 20
250.22157
 30
0.0
 11
27.215159
 21
250.221411
 31
0.0
  0
LINE
  8
LC-001-002-----0
  6
CONTINUOUS
  5
54C
 10
28.366079
 20
249.221413
 30
0.0
 11
28.36609
 21
241.221414
 31
0.0
  0
ARC
  8
LC-004-002-RND-0
  6
CONTINUOUS
  5
54D
 10
27.366079
 20
249.221411
 30
0.0
 40
1.0
 50
90.000157
 51
180.000079
  0
LINE
  8
LC-001-002-----0
  6
CONTINUOUS
  5
54E
 10
85.065804
 20
257.92157
 30
0.0
 11
57.767828
 21
332.921501
 31
0.0
  0
LINE
  8
LC-001-002-----0
  6
CONTINUOUS
  5
54F
 10
57.052843
 20
328.836366
 30
0.0
 11
55.565964
 21
332.921498
 31
0.0
  0
LINE
  8
LC-001-002-----0
  6
CONTINUOUS
  5
550
 10
59.405709
 20
328.421499
 30
0.0
 11
57.052843
 21
328.836366
 31
0.0
  0
LINE
  8
LC-001-002-----0
  6
CONTINUOUS
  5
551
 10
94.011949
 20
276.614427
 30
0.0
 11
77.109965
 21
323.051849
 31
0.0
  0
LINE
  8
LC-001-002-----0
  6
CONTINUOUS
  5
552
 10
82.356874
 20
257.921562
 30
0.0
 11
68.092705
 21
292.559206
 31
0.0
  0
LINE
  8
LC-001-002-----0
  6
CONTINUOUS
  5
553
 10
60.527142
 20
297.221502
 30
0.0
 11
52.810447
 21
318.121494
 31
0.0
  0
LINE
  8
LC-001-002-----0
  6
CONTINUOUS
  5
554
 10
61.677141
 20
297.221506
 30
0.0
 11
53.960447
 21
318.121496
 31
0.0
  0
LINE
  8
LC-001-002-----0
  6
CONTINUOUS
  5
555
 10
65.223374
 20
257.921515
 30
0.0
 11
54.781255
 21
292.559169
 31
0.0
  0
LINE
  8
LC-001-002-----0
  6
CONTINUOUS
  5
556
 10
63.597029
 20
257.921511
 30
0.0
 11
53.136683
 21
292.559165
 31
0.0
  0
LINE
  8
LC-001-002-----0
  6
CONTINUOUS
  5
557
 10
66.767997
 20
297.22152
 30
0.0
 11
58.16115
 21
318.121501
 31
0.0
  0
LINE
  8
LC-001-002-----0
  6
CONTINUOUS
  5
558
 10
97.008887
 20
257.95007
 30
0.0
 11
100.15163
 21
259.745935
 31
0.0
  0
LINE
  8
LC-001-002-----0
  6
CONTINUOUS
  5
559
 10
76.187474
 20
257.921545
 30
0.0
 11
63.398561
 21
292.559193
 31
0.0
  0
LINE
  8
LC-001-002-----0
  6
CONTINUOUS
  5
55A
 10
31.699306
 20
257.921423
 30
0.0
 11
27.877167
 21
292.559095
 31
0.0
  0
LINE
  8
LC-001-002-----0
  6
CONTINUOUS
  5
55B
 10
33.920936
 20
257.921429
 30
0.0
 11
30.098796
 21
292.559101
 31
0.0
  0
LINE
  8
LC-001-002-----0
  6
CONTINUOUS
  5
55C
 10
50.807045
 20
257.921476
 30
0.0
 11
43.423325
 21
292.559138
 31
0.0
  0
LINE
  8
LC-001-002-----0
  6
CONTINUOUS
  5
55D
 10
48.815187
 20
257.92147
 30
0.0
 11
41.431467
 21
292.559132
 31
0.0
  0
LINE
  8
LC-001-002-----0
  6
CONTINUOUS
  5
55E
 10
75.037474
 20
257.921542
 30
0.0
 11
62.248561
 21
292.55919
 31
0.0
  0
LINE
  8
LC-001-002-----0
  6
CONTINUOUS
  5
55F
 10
66.172713
 20
297.221518
 30
0.0
 11
57.565866
 21
318.121501
 31
0.0
  0
LINE
  8
LC-001-002-----0
  6
CONTINUOUS
  5
560
 10
88.465804
 20
257.921579
 30
0.0
 11
88.46584
 21
231.42158
 31
0.0
  0
LINE
  8
LC-001-002-----0
  6
CONTINUOUS
  5
561
 10
85.065804
 20
257.92157
 30
0.0
 11
85.065814
 21
250.22157
 31
0.0
  0
LINE
  8
LC-001-002-----0
  6
CONTINUOUS
  5
562
 10
28.103978
 20
250.221413
 30
0.0
 11
14.56606
 21
250.221376
 31
0.0
  0
LINE
  8
LC-001-002-----0
  6
CONTINUOUS
  5
563
 10
85.565814
 20
250.221571
 30
0.0
 11
85.065814
 21
250.22157
 31
0.0
  0
ARC
  8
LC-004-002-RND-0
  6
CONTINUOUS
  5
564
 10
27.366079
 20
249.221411
 30
0.0
 40
1.0
 50
0.000079
 51
90.000157
  0
LINE
  8
LC-001-002-----0
  6
CONTINUOUS
  5
565
 10
15.715641
 20
318.121443
 30
0.0
 11
15.715698
 21
297.22138
 31
0.0
  0
ARC
  8
LC-004-002-RND-0
  6
CONTINUOUS
  5
566
 10
88.965842
 20
229.92158
 30
0.0
 40
1.0
 50
0.000079
 51
90.000157
  0
LINE
  8
LC-001-002-----0
  6
CONTINUOUS
  5
567
 10
70.761665
 20
297.221531
 30
0.0
 11
70.761677
 21
292.85843
 31
0.0
  0
ARC
  8
LC-004-002-RND-0
  6
CONTINUOUS
  5
568
 10
88.965842
 20
229.92158
 30
0.0
 40
1.0
 50
270.000157
 51
0.000079
  0
LINE
  8
LC-001-002-----0
  6
CONTINUOUS
  5
569
 10
89.065845
 20
228.921581
 30
0.0
 11
87.565843
 21
228.921577
 31
0.0
  0
LINE
  8
LC-001-002-----0
  6
CONTINUOUS
  5
56A
 10
92.465826
 20
241.22159
 30
0.0
 11
88.465826
 21
241.221579
 31
0.0
  0
ARC
  8
LC-004-002-RND-0
  6
CONTINUOUS
  5
56B
 10
88.96584
 20
231.42158
 30
0.0
 40
0.5
 50
180.000079
 51
270.000157
  0
LINE
  8
LC-001-002-----0
  6
CONTINUOUS
  5
56C
 10
88.965845
 20
228.92158
 30
0.0
 11
85.565843
 21
228.921571
 31
0.0
  0
LINE
  8
LC-001-002-----0
  6
CONTINUOUS
  5
56D
 10
51.728695
 20
297.221478
 30
0.0
 11
45.417029
 21
318.121484
 31
0.0
  0
LINE
  8
LC-001-002-----0
  6
CONTINUOUS
  5
56E
 10
72.458623
 20
292.559218
 30
0.0
 11
70.761677
 21
292.85843
 31
0.0
  0
ARC
  8
LC-004-002-RND-0
  6
CONTINUOUS
  5
56F
 10
92.465825
 20
241.72159
 30
0.0
 40
0.5
 50
270.000157
 51
0.000079
  0
LINE
  8
LC-001-002-----0
  6
CONTINUOUS
  5
570
 10
53.37572
 20
297.221483
 30
0.0
 11
47.075052
 21
318.121486
 31
0.0
  0
LINE
  8
LC-001-002-----0
  6
CONTINUOUS
  5
571
 10
85.565814
 20
250.221571
 30
0.0
 11
85.565843
 21
228.921571
 31
0.0
  0
LINE
  8
LC-001-002-----0
  6
CONTINUOUS
  5
572
 10
92.965803
 20
257.921591
 30
0.0
 11
92.965825
 21
241.721591
 31
0.0
  0
LINE
  8
LC-001-002-----0
  6
CONTINUOUS
  5
573
 10
63.014569
 20
332.921508
 30
0.0
 11
14.565964
 21
332.921442
 31
0.0
  0
LINE
  8
LC-001-002-----0
  6
CONTINUOUS
  5
574
 10
42.429458
 20
297.221453
 30
0.0
 11
37.974195
 21
318.121474
 31
0.0
  0
LINE
  8
LC-001-002-----0
  6
CONTINUOUS
  5
575
 10
63.154631
 20
318.121508
 30
0.0
 11
14.565984
 21
318.121442
 31
0.0
  0
LINE
  8
LC-001-002-----0
  6
CONTINUOUS
  5
576
 10
70.761665
 20
297.221531
 30
0.0
 11
14.566013
 21
297.221376
 31
0.0
  0
LINE
  8
LC-001-002-----0
  6
CONTINUOUS
  5
577
 10
15.715711
 20
292.559062
 30
0.0
 11
15.715806
 21
257.92138
 31
0.0
  0
LINE
  8
LC-001-002-----0
  6
CONTINUOUS
  5
578
 10
27.362698
 20
297.221411
 30
0.0
 11
25.056455
 21
318.121456
 31
0.0
  0
LINE
  8
LC-001-002-----0
  6
CONTINUOUS
  5
579
 10
29.584327
 20
297.221418
 30
0.0
 11
27.278084
 21
318.121459
 31
0.0
  0
LINE
  8
LC-001-002-----0
  6
CONTINUOUS
  5
57A
 10
-82.437399
 20
226.502916
 30
0.0
 11
-82.437399
 21
229.802903
 31
0.0
  0
LINE
  8
LC-001-002-----0
  6
CONTINUOUS
  5
57B
 10
-82.437399
 20
235.002903
 30
0.0
 11
-82.437399
 21
238.002916
 31
0.0
  0
LINE
  8
LC-001-002-----0
  6
CONTINUOUS
  5
57C
 10
-76.937399
 20
226.002916
 30
0.0
 11
-81.937399
 21
226.002916
 31
0.0
  0
LINE
  8
LC-001-002-----0
  6
CONTINUOUS
  5
57D
 10
-76.437399
 20
226.502916
 30
0.0
 11
-76.437399
 21
229.802903
 31
0.0
  0
LINE
  8
LC-001-002-----0
  6
CONTINUOUS
  5
57E
 10
-76.437399
 20
235.002903
 30
0.0
 11
-76.437399
 21
238.002916
 31
0.0
  0
LINE
  8
LC-001-002-----0
  6
CONTINUOUS
  5
57F
 10
-81.937399
 20
276.002916
 30
0.0
 11
-76.937399
 21
276.002916
 31
0.0
  0
LINE
  8
LC-001-002-----0
  6
CONTINUOUS
  5
580
 10
-81.937399
 20
276.002916
 30
0.0
 11
-82.437399
 21
275.502916
 31
0.0
  0
LINE
  8
LC-001-002-----0
  6
CONTINUOUS
  5
581
 10
-76.937399
 20
276.002916
 30
0.0
 11
-76.437399
 21
275.502916
 31
0.0
  0
LINE
  8
LC-001-002-----0
  6
CONTINUOUS
  5
582
 10
-82.437399
 20
275.502916
 30
0.0
 11
-76.437399
 21
275.502916
 31
0.0
  0
LINE
  8
LC-001-002-----0
  6
CONTINUOUS
  5
583
 10
-76.937399
 20
226.002916
 30
0.0
 11
-76.437399
 21
226.502916
 31
0.0
  0
LINE
  8
LC-001-002-----0
  6
CONTINUOUS
  5
584
 10
-81.937399
 20
226.002916
 30
0.0
 11
-82.437399
 21
226.502916
 31
0.0
  0
LINE
  8
LC-001-002-----0
  6
CONTINUOUS
  5
585
 10
-76.437399
 20
226.502916
 30
0.0
 11
-82.437399
 21
226.502916
 31
0.0
  0
LINE
  8
LC-005-003-----0
  6
CONTINUOUS
  5
586
 10
-81.937399
 20
226.002916
 30
0.0
 11
-81.937399
 21
229.802903
 31
0.0
  0
LINE
  8
LC-005-003-----0
  6
CONTINUOUS
  5
587
 10
-81.937399
 20
235.002903
 30
0.0
 11
-81.937399
 21
238.002916
 31
0.0
  0
LINE
  8
LC-005-003-----0
  6
CONTINUOUS
  5
588
 10
-76.937399
 20
226.002916
 30
0.0
 11
-76.937399
 21
229.802903
 31
0.0
  0
LINE
  8
LC-005-003-----0
  6
CONTINUOUS
  5
589
 10
-76.937399
 20
235.002903
 30
0.0
 11
-76.937399
 21
238.002916
 31
0.0
  0
LINE
  8
LC-001-002-----0
  6
CONTINUOUS
  5
58A
 10
-76.437399
 20
238.002916
 30
0.0
 11
-78.437399
 21
238.002916
 31
0.0
  0
LINE
  8
LC-001-002-----0
  6
CONTINUOUS
  5
58B
 10
-74.437399
 20
244.002916
 30
0.0
 11
-74.437399
 21
240.002916
 31
0.0
  0
LINE
  8
LC-001-002-----0
  6
CONTINUOUS
  5
58C
 10
-84.437399
 20
244.002916
 30
0.0
 11
-84.437399
 21
240.002916
 31
0.0
  0
LINE
  8
LC-001-002-----0
  6
CONTINUOUS
  5
58D
 10
-76.437399
 20
246.002916
 30
0.0
 11
-78.437399
 21
246.002916
 31
0.0
  0
LINE
  8
LC-001-002-----0
  6
CONTINUOUS
  5
58E
 10
-80.437399
 20
246.002916
 30
0.0
 11
-82.437399
 21
246.002916
 31
0.0
  0
LINE
  8
LC-001-002-----0
  6
CONTINUOUS
  5
58F
 10
-80.437399
 20
238.002916
 30
0.0
 11
-82.437399
 21
238.002916
 31
0.0
  0
LINE
  8
LC-001-002-----0
  6
CONTINUOUS
  5
590
 10
-82.437399
 20
246.002916
 30
0.0
 11
-82.437399
 21
261.54962
 31
0.0
  0
LINE
  8
LC-001-002-----0
  6
CONTINUOUS
  5
591
 10
-76.437399
 20
246.002916
 30
0.0
 11
-76.437399
 21
261.54962
 31
0.0
  0
LINE
  8
LC-005-003-----0
  6
CONTINUOUS
  5
592
 10
-76.937399
 20
246.002916
 30
0.0
 11
-76.937399
 21
261.54962
 31
0.0
  0
LINE
  8
LC-005-003-----0
  6
CONTINUOUS
  5
593
 10
-81.937399
 20
246.002916
 30
0.0
 11
-81.937399
 21
261.54962
 31
0.0
  0
LINE
  8
LC-001-002-----0
  6
CONTINUOUS
  5
594
 10
-80.437399
 20
246.002916
 30
0.0
 11
-80.437399
 21
238.002916
 31
0.0
  0
LINE
  8
LC-001-002-----0
  6
CONTINUOUS
  5
595
 10
-78.437399
 20
246.002916
 30
0.0
 11
-78.437399
 21
238.002916
 31
0.0
  0
ARC
  8
LC-004-002-RND-0
  6
CONTINUOUS
  5
596
 10
-82.437399
 20
244.002916
 30
0.0
 40
2.0
 50
90.0
 51
180.0
  0
ARC
  8
LC-004-002-RND-0
  6
CONTINUOUS
  5
597
 10
-82.437399
 20
240.002916
 30
0.0
 40
2.0
 50
180.0
 51
270.0
  0
ARC
  8
LC-004-002-RND-0
  6
CONTINUOUS
  5
598
 10
-76.437399
 20
240.002916
 30
0.0
 40
2.0
 50
270.0
 51
0.0
  0
ARC
  8
LC-004-002-RND-0
  6
CONTINUOUS
  5
599
 10
-76.437399
 20
244.002916
 30
0.0
 40
2.0
 50
0.0
 51
90.0
  0
LINE
  8
LC-001-002-----0
  6
CONTINUOUS
  5
59A
 10
-83.767527
 20
229.802903
 30
0.0
 11
-75.107272
 21
229.802903
 31
0.0
  0
LINE
  8
LC-001-002-----0
  6
CONTINUOUS
  5
59B
 10
-83.767527
 20
235.002903
 30
0.0
 11
-75.107273
 21
235.002903
 31
0.0
  0
LINE
  8
LC-001-002-----0
  6
CONTINUOUS
  5
59C
 10
-85.210901
 20
234.333774
 30
0.0
 11
-85.210901
 21
230.472032
 31
0.0
  0
LINE
  8
LC-001-002-----0
  6
CONTINUOUS
  5
59D
 10
-73.663896
 20
234.333774
 30
0.0
 11
-73.663896
 21
230.472032
 31
0.0
  0
LINE
  8
LC-001-002-----0
  6
CONTINUOUS
  5
59E
 10
-82.32415
 20
230.471979
 30
0.0
 11
-82.32415
 21
234.339503
 31
0.0
  0
LINE
  8
LC-001-002-----0
  6
CONTINUOUS
  5
59F
 10
-76.550647
 20
230.47203
 30
0.0
 11
-76.550647
 21
234.333747
 31
0.0
  0
LINE
  8
LC-001-002-----0
  6
CONTINUOUS
  5
5A0
 10
112.89966
 20
229.802903
 30
0.0
 11
104.239405
 21
229.802903
 31
0.0
  0
LINE
  8
LC-001-002-----0
  6
CONTINUOUS
  5
5A1
 10
112.89966
 20
235.002903
 30
0.0
 11
104.239407
 21
235.002903
 31
0.0
  0
LINE
  8
LC-001-002-----0
  6
CONTINUOUS
  5
5A2
 10
114.343035
 20
234.333774
 30
0.0
 11
114.343035
 21
230.472032
 31
0.0
  0
LINE
  8
LC-001-002-----0
  6
CONTINUOUS
  5
5A3
 10
102.796029
 20
234.333774
 30
0.0
 11
102.796029
 21
230.472032
 31
0.0
  0
LINE
  8
LC-001-002-----0
  6
CONTINUOUS
  5
5A4
 10
111.456283
 20
230.471979
 30
0.0
 11
111.456283
 21
234.339503
 31
0.0
  0
LINE
  8
LC-001-002-----0
  6
CONTINUOUS
  5
5A5
 10
105.682781
 20
230.47203
 30
0.0
 11
105.682781
 21
234.333747
 31
0.0
  0
LINE
  8
LC-001-002-----0
  6
CONTINUOUS
  5
5A6
 10
111.569532
 20
226.502916
 30
0.0
 11
111.569532
 21
229.802903
 31
0.0
  0
LINE
  8
LC-001-002-----0
  6
CONTINUOUS
  5
5A7
 10
111.569532
 20
235.002903
 30
0.0
 11
111.569532
 21
238.002916
 31
0.0
  0
LINE
  8
LC-001-002-----0
  6
CONTINUOUS
  5
5A8
 10
106.069532
 20
226.002916
 30
0.0
 11
111.069532
 21
226.002916
 31
0.0
  0
LINE
  8
LC-001-002-----0
  6
CONTINUOUS
  5
5A9
 10
105.569532
 20
226.502916
 30
0.0
 11
105.569532
 21
229.802903
 31
0.0
  0
LINE
  8
LC-001-002-----0
  6
CONTINUOUS
  5
5AA
 10
105.569532
 20
235.002903
 30
0.0
 11
105.569532
 21
238.002916
 31
0.0
  0
LINE
  8
LC-001-002-----0
  6
CONTINUOUS
  5
5AB
 10
111.069532
 20
276.002916
 30
0.0
 11
106.069532
 21
276.002916
 31
0.0
  0
LINE
  8
LC-001-002-----0
  6
CONTINUOUS
  5
5AC
 10
111.069532
 20
276.002916
 30
0.0
 11
111.569532
 21
275.502916
 31
0.0
  0
LINE
  8
LC-001-002-----0
  6
CONTINUOUS
  5
5AD
 10
106.069532
 20
276.002916
 30
0.0
 11
105.569532
 21
275.502916
 31
0.0
  0
LINE
  8
LC-001-002-----0
  6
CONTINUOUS
  5
5AE
 10
111.569532
 20
275.502916
 30
0.0
 11
105.569532
 21
275.502916
 31
0.0
  0
LINE
  8
LC-001-002-----0
  6
CONTINUOUS
  5
5AF
 10
106.069532
 20
226.002916
 30
0.0
 11
105.569532
 21
226.502916
 31
0.0
  0
LINE
  8
LC-001-002-----0
  6
CONTINUOUS
  5
5B0
 10
111.069532
 20
226.002916
 30
0.0
 11
111.569532
 21
226.502916
 31
0.0
  0
LINE
  8
LC-001-002-----0
  6
CONTINUOUS
  5
5B1
 10
105.569532
 20
226.502916
 30
0.0
 11
111.569532
 21
226.502916
 31
0.0
  0
LINE
  8
LC-005-003-----0
  6
CONTINUOUS
  5
5B2
 10
111.069532
 20
226.002916
 30
0.0
 11
111.069532
 21
229.802903
 31
0.0
  0
LINE
  8
LC-005-003-----0
  6
CONTINUOUS
  5
5B3
 10
111.069532
 20
235.002903
 30
0.0
 11
111.069532
 21
238.002916
 31
0.0
  0
LINE
  8
LC-005-003-----0
  6
CONTINUOUS
  5
5B4
 10
106.069532
 20
226.002916
 30
0.0
 11
106.069532
 21
229.802903
 31
0.0
  0
LINE
  8
LC-005-003-----0
  6
CONTINUOUS
  5
5B5
 10
106.069532
 20
235.002903
 30
0.0
 11
106.069532
 21
238.002916
 31
0.0
  0
LINE
  8
LC-001-002-----0
  6
CONTINUOUS
  5
5B6
 10
105.569532
 20
238.002916
 30
0.0
 11
107.569532
 21
238.002916
 31
0.0
  0
LINE
  8
LC-001-002-----0
  6
CONTINUOUS
  5
5B7
 10
103.569532
 20
244.002916
 30
0.0
 11
103.569532
 21
240.002916
 31
0.0
  0
LINE
  8
LC-001-002-----0
  6
CONTINUOUS
  5
5B8
 10
113.569532
 20
244.002916
 30
0.0
 11
113.569532
 21
240.002916
 31
0.0
  0
LINE
  8
LC-001-002-----0
  6
CONTINUOUS
  5
5B9
 10
105.569532
 20
246.002916
 30
0.0
 11
107.569532
 21
246.002916
 31
0.0
  0
LINE
  8
LC-001-002-----0
  6
CONTINUOUS
  5
5BA
 10
109.569532
 20
246.002916
 30
0.0
 11
111.569532
 21
246.002916
 31
0.0
  0
LINE
  8
LC-001-002-----0
  6
CONTINUOUS
  5
5BB
 10
109.569532
 20
238.002916
 30
0.0
 11
111.569532
 21
238.002916
 31
0.0
  0
LINE
  8
LC-001-002-----0
  6
CONTINUOUS
  5
5BC
 10
111.569532
 20
246.002916
 30
0.0
 11
111.569532
 21
261.54962
 31
0.0
  0
LINE
  8
LC-001-002-----0
  6
CONTINUOUS
  5
5BD
 10
105.569532
 20
246.002916
 30
0.0
 11
105.569532
 21
261.54962
 31
0.0
  0
LINE
  8
LC-005-003-----0
  6
CONTINUOUS
  5
5BE
 10
106.069532
 20
246.002916
 30
0.0
 11
106.069532
 21
261.54962
 31
0.0
  0
LINE
  8
LC-005-003-----0
  6
CONTINUOUS
  5
5BF
 10
111.069532
 20
246.002916
 30
0.0
 11
111.069532
 21
261.54962
 31
0.0
  0
LINE
  8
LC-001-002-----0
  6
CONTINUOUS
  5
5C0
 10
109.569532
 20
246.002916
 30
0.0
 11
109.569532
 21
238.002916
 31
0.0
  0
LINE
  8
LC-001-002-----0
  6
CONTINUOUS
  5
5C1
 10
107.569532
 20
246.002916
 30
0.0
 11
107.569532
 21
238.002916
 31
0.0
  0
ARC
  8
LC-004-002-RND-0
  6
CONTINUOUS
  5
5C2
 10
111.569532
 20
244.002916
 30
0.0
 40
2.0
 50
360.0
 51
90.0
  0
ARC
  8
LC-004-002-RND-0
  6
CONTINUOUS
  5
5C3
 10
111.569532
 20
240.002916
 30
0.0
 40
2.0
 50
270.0
 51
360.0
  0
ARC
  8
LC-004-002-RND-0
  6
CONTINUOUS
  5
5C4
 10
105.569532
 20
240.002916
 30
0.0
 40
2.0
 50
180.0
 51
270.0
  0
ARC
  8
LC-004-002-RND-0
  6
CONTINUOUS
  5
5C5
 10
105.569532
 20
244.002916
 30
0.0
 40
2.0
 50
90.0
 51
180.0
  0
LINE
  8
LC-001-002-----0
  6
CONTINUOUS
  5
5C6
 10
28.36609
 20
241.221414
 30
0.0
 11
85.565826
 21
241.221493
 31
0.0
  0
LINE
  8
LC-001-002-----0
  6
CONTINUOUS
  5
5C7
 10
-67.433629
 20
257.949714
 30
0.0
 11
14.566054
 21
257.949891
 31
0.0
  0
LINE
  8
LC-001-002-----0
  6
CONTINUOUS
  5
5C8
 10
96.565763
 20
257.949939
 30
0.0
 11
14.56608
 21
257.949891
 31
0.0
  0
LINE
  8
LC-001-002-----0
  6
DASHDOT
 62
     2
  5
5C9
 10
14.566067
 20
332.921437
 30
0.0
 11
14.566067
 21
103.258317
 31
0.0
  0
LINE
  8
LC-001-002-----0
  6
CONTINUOUS
  5
5CA
 10
-82.437399
 20
270.54962
 30
0.0
 11
-82.437399
 21
275.502916
 31
0.0
  0
LINE
  8
LC-005-003-----0
  6
CONTINUOUS
  5
5CB
 10
-81.937399
 20
270.54962
 30
0.0
 11
-81.937399
 21
276.002916
 31
0.0
  0
LINE
  8
LC-005-003-----0
  6
CONTINUOUS
  5
5CC
 10
-76.937399
 20
270.54962
 30
0.0
 11
-76.937399
 21
276.002916
 31
0.0
  0
LINE
  8
LC-001-002-----0
  6
CONTINUOUS
  5
5CD
 10
-76.437399
 20
270.54962
 30
0.0
 11
-76.437399
 21
275.502916
 31
0.0
  0
LINE
  8
LC-001-002-----0
  6
CONTINUOUS
  5
5CE
 10
111.569532
 20
270.54962
 30
0.0
 11
111.569532
 21
275.502916
 31
0.0
  0
LINE
  8
LC-005-003-----0
  6
CONTINUOUS
  5
5CF
 10
111.069532
 20
270.54962
 30
0.0
 11
111.069532
 21
276.002916
 31
0.0
  0
LINE
  8
LC-005-003-----0
  6
CONTINUOUS
  5
5D0
 10
106.069532
 20
270.54962
 30
0.0
 11
106.069532
 21
276.002916
 31
0.0
  0
LINE
  8
LC-001-002-----0
  6
CONTINUOUS
  5
5D1
 10
105.569532
 20
270.54962
 30
0.0
 11
105.569532
 21
275.502916
 31
0.0
  0
LINE
  8
LC-001-002-----0
  6
CONTINUOUS
  5
5D2
 10
281.606147
 20
488.851555
 30
0.0
 11
282.106147
 21
488.351555
 31
0.0
  0
LINE
  8
LC-001-002-----0
  6
CONTINUOUS
  5
5D3
 10
97.066066
 20
237.759321
 30
0.0
 11
94.31902
 21
237.759321
 31
0.0
  0
LINE
  8
LC-001-002-----0
  6
CONTINUOUS
  5
5D4
 10
77.066065
 20
169.258317
 30
0.0
 11
77.066065
 21
107.758317
 31
0.0
  0
LINE
  8
LC-001-002-----0
  6
CONTINUOUS
  5
5D5
 10
74.066065
 20
174.251913
 30
0.0
 11
74.066065
 21
103.258317
 31
0.0
  0
LINE
  8
LC-001-002-----0
  6
CONTINUOUS
  5
5D6
 10
77.066065
 20
107.758317
 30
0.0
 11
75.860294
 21
103.258317
 31
0.0
  0
LINE
  8
LC-001-002-----0
  6
CONTINUOUS
  5
5D7
 10
75.860294
 20
103.258317
 30
0.0
 11
14.566065
 21
103.258317
 31
0.0
  0
LINE
  8
LC-001-002-----0
  6
CONTINUOUS
  5
5D8
 10
-62.683935
 20
222.308431
 30
0.0
 11
-56.933935
 21
222.308431
 31
0.0
  0
LINE
  8
LC-001-002-----0
  6
CONTINUOUS
  5
5D9
 10
-49.494495
 20
174.808385
 30
0.0
 11
-44.933935
 21
174.251913
 31
0.0
  0
LINE
  8
LC-001-002-----0
  6
CONTINUOUS
  5
5DA
 10
77.066065
 20
169.258317
 30
0.0
 11
82.315358
 21
169.258317
 31
0.0
  0
LINE
  8
LC-001-002-----0
  6
CONTINUOUS
  5
5DB
 10
-50.933935
 20
207.308431
 30
0.0
 11
80.066065
 21
207.308431
 31
0.0
  0
LINE
  8
LC-001-002-----0
  6
CONTINUOUS
  5
5DC
 10
-49.933935
 20
175.304704
 30
0.0
 11
-49.933935
 21
206.308431
 31
0.0
  0
ARC
  8
LC-001-002-----0
  6
CONTINUOUS
  5
5DD
 10
-49.433935
 20
175.304704
 30
0.0
 40
0.5
 50
180.0
 51
263.0
  0
LINE
  8
LC-001-002-----0
  6
CONTINUOUS
  5
5DE
 10
-67.933936
 20
237.759639
 30
0.0
 11
-67.933936
 21
254.503455
 31
0.0
  0
LINE
  8
LC-001-002-----0
  6
CONTINUOUS
  5
5DF
 10
-62.683935
 20
222.308431
 30
0.0
 11
-56.933935
 21
222.308431
 31
0.0
  0
LINE
  8
LC-001-002-----0
  6
CONTINUOUS
  5
5E0
 10
97.066064
 20
254.503456
 30
0.0
 11
97.066064
 21
237.759639
 31
0.0
  0
LINE
  8
LC-001-002-----0
  6
CONTINUOUS
  5
5E1
 10
91.816065
 20
222.308431
 30
0.0
 11
86.066065
 21
222.308431
 31
0.0
  0
LINE
  8
LC-001-002-----0
  6
CONTINUOUS
  5
5E2
 10
-55.933935
 20
207.808431
 30
0.0
 11
-55.933935
 21
221.308431
 31
0.0
  0
ARC
  8
LC-001-002-----0
  6
CONTINUOUS
  5
5E3
 10
-56.933935
 20
221.308431
 30
0.0
 40
1.0
 50
0.0
 51
90.0
  0
ARC
  8
LC-001-002-----0
  6
CONTINUOUS
  5
5E4
 10
-55.433935
 20
207.808431
 30
0.0
 40
0.5
 50
180.0
 51
270.0
  0
ARC
  8
LC-001-002-----0
  6
CONTINUOUS
  5
5E5
 10
-50.933935
 20
206.308431
 30
0.0
 40
1.0
 50
0.0
 51
90.0
  0
LINE
  8
LC-001-002-----0
  6
CONTINUOUS
  5
5E6
 10
79.066065
 20
175.304704
 30
0.0
 11
79.066065
 21
206.308431
 31
0.0
  0
LINE
  8
LC-001-002-----0
  6
CONTINUOUS
  5
5E7
 10
-67.933936
 20
237.759639
 30
0.0
 11
-63.183936
 21
233.009639
 31
0.0
  0
LINE
  8
LC-001-002-----0
  6
CONTINUOUS
  5
5E8
 10
-70.39635
 20
233.623566
 30
0.0
 11
-66.433619
 21
233.623566
 31
0.0
  0
LINE
  8
LC-001-002-----0
  6
CONTINUOUS
  5
5E9
 10
97.066064
 20
237.759639
 30
0.0
 11
92.316064
 21
233.009639
 31
0.0
  0
LINE
  8
LC-001-002-----0
  6
CONTINUOUS
  5
5EA
 10
94.566065
 20
232.623859
 30
0.0
 11
95.565768
 21
233.623566
 31
0.0
  0
LINE
  8
LC-001-002-----0
  6
CONTINUOUS
  5
5EB
 10
95.565768
 20
233.623566
 30
0.0
 11
99.56652
 21
233.623566
 31
0.0
  0
LINE
  8
LC-001-002-----0
  6
CONTINUOUS
  5
5EC
 10
-162.433927
 20
261.259082
 30
0.0
 11
-162.433923
 21
260.251192
 31
0.0
  0
LINE
  8
LC-001-002-----0
  6
CONTINUOUS
  5
5ED
 10
-113.174571
 20
263.259265
 30
0.0
 11
-89.119045
 21
254.503888
 31
0.0
  0
LINE
  8
LC-001-002-----0
  6
CONTINUOUS
  5
5EE
 10
-113.44876
 20
260.259264
 30
0.0
 11
-90.766975
 21
252.00388
 31
0.0
  0
LINE
  8
LC-001-002-----0
  6
CONTINUOUS
  5
5EF
 10
-85.387599
 20
252.001702
 30
0.0
 11
-90.766975
 21
252.00388
 31
0.0
  0
LINE
  8
LC-001-002-----0
  6
CONTINUOUS
  5
5F0
 10
-85.387599
 20
252.001702
 30
0.0
 11
-85.387506
 21
236.003207
 31
0.0
  0
LINE
  8
LC-001-002-----0
  6
CONTINUOUS
  5
5F1
 10
-76.689159
 20
254.502249
 30
0.0
 11
-76.687414
 21
236.003245
 31
0.0
  0
LINE
  8
LC-001-002-----0
  6
CONTINUOUS
  5
5F2
 10
-67.940855
 20
254.503099
 30
0.0
 11
-76.689159
 21
254.502249
 31
0.0
  0
LINE
  8
LC-001-002-----0
  6
CONTINUOUS
  5
5F3
 10
-70.394619
 20
252.001702
 30
0.0
 11
-70.39635
 21
233.623566
 31
0.0
  0
LINE
  8
LC-001-002-----0
  6
CONTINUOUS
  5
5F4
 10
-53.183228
 20
169.258317
 30
0.0
 11
-53.183228
 21
202.808431
 31
0.0
  0
LINE
  8
LC-001-002-----0
  6
CONTINUOUS
  5
5F5
 10
-82.189159
 20
254.501715
 30
0.0
 11
-82.187414
 21
236.003221
 31
0.0
  0
LINE
  8
LC-001-002-----0
  6
CONTINUOUS
  5
5F6
 10
-85.387506
 20
236.003207
 30
0.0
 11
-76.687414
 21
236.003245
 31
0.0
  0
LINE
  8
LC-001-002-----0
  6
CONTINUOUS
  5
5F7
 10
-61.933228
 20
217.708431
 30
0.0
 11
-59.483228
 21
217.708431
 31
0.0
  0
LINE
  8
LC-001-002-----0
  6
CONTINUOUS
  5
5F8
 10
191.566064
 20
261.259737
 30
0.0
 11
191.566064
 21
260.260636
 31
0.0
  0
LINE
  8
LC-001-002-----0
  6
CONTINUOUS
  5
5F9
 10
142.302543
 20
263.259737
 30
0.0
 11
118.234019
 21
254.502134
 31
0.0
  0
LINE
  8
LC-001-002-----0
  6
CONTINUOUS
  5
5FA
 10
142.578868
 20
260.260566
 30
0.0
 11
119.881959
 21
252.002134
 31
0.0
  0
LINE
  8
LC-001-002-----0
  6
CONTINUOUS
  5
5FB
 10
111.321345
 20
254.502134
 30
0.0
 11
118.234019
 21
254.502134
 31
0.0
  0
LINE
  8
LC-001-002-----0
  6
CONTINUOUS
  5
5FC
 10
114.519796
 20
252.002134
 30
0.0
 11
119.881959
 21
252.002134
 31
0.0
  0
LINE
  8
LC-001-002-----0
  6
CONTINUOUS
  5
5FD
 10
114.519796
 20
252.002134
 30
0.0
 11
114.519808
 21
236.003233
 31
0.0
  0
LINE
  8
LC-001-002-----0
  6
CONTINUOUS
  5
5FE
 10
105.821345
 20
254.502644
 30
0.0
 11
105.819716
 21
236.003233
 31
0.0
  0
LINE
  8
LC-001-002-----0
  6
CONTINUOUS
  5
5FF
 10
-58.483228
 20
206.308431
 30
0.0
 11
-58.483228
 21
216.708431
 31
0.0
  0
ARC
  8
LC-001-002-----0
  6
CONTINUOUS
  5
600
 10
-59.483228
 20
216.708431
 30
0.0
 40
1.0
 50
0.0
 51
90.0
  0
ARC
  8
LC-001-002-----0
  6
CONTINUOUS
  5
601
 10
-61.933228
 20
216.708431
 30
0.0
 40
1.0
 50
90.0
 51
180.0
  0
LINE
  8
LC-001-002-----0
  6
CONTINUOUS
  5
602
 10
91.816065
 20
222.308431
 30
0.0
 11
86.066065
 21
222.308431
 31
0.0
  0
ARC
  8
LC-001-002-----0
  6
CONTINUOUS
  5
603
 10
-62.683935
 20
222.808431
 30
0.0
 40
0.5
 50
180.0
 51
270.0
  0
LINE
  8
LC-001-002-----0
  6
CONTINUOUS
  5
604
 10
85.066065
 20
207.808431
 30
0.0
 11
85.066065
 21
221.308431
 31
0.0
  0
ARC
  8
LC-001-002-----0
  6
CONTINUOUS
  5
605
 10
86.066065
 20
221.308431
 30
0.0
 40
1.0
 50
90.0
 51
180.0
  0
ARC
  8
LC-001-002-----0
  6
CONTINUOUS
  5
606
 10
84.566065
 20
207.808431
 30
0.0
 40
0.5
 50
270.0
 51
0.0
  0
ARC
  8
LC-001-002-----0
  6
CONTINUOUS
  5
607
 10
80.066065
 20
206.308431
 30
0.0
 40
1.0
 50
90.0
 51
180.0
  0
LINE
  8
LC-001-002-----0
  6
CONTINUOUS
  5
608
 10
82.315358
 20
169.258317
 30
0.0
 11
82.315358
 21
202.758431
 31
0.0
  0
LINE
  8
LC-001-002-----0
  6
CONTINUOUS
  5
609
 10
91.065358
 20
217.708431
 30
0.0
 11
88.615358
 21
217.708431
 31
0.0
  0
LINE
  8
LC-001-002-----0
  6
CONTINUOUS
  5
60A
 10
87.615358
 20
206.258431
 30
0.0
 11
87.615358
 21
216.708431
 31
0.0
  0
ARC
  8
LC-001-002-----0
  6
CONTINUOUS
  5
60B
 10
88.615358
 20
216.708431
 30
0.0
 40
1.0
 50
90.0
 51
180.0
  0
ARC
  8
LC-001-002-----0
  6
CONTINUOUS
  5
60C
 10
91.065358
 20
216.708431
 30
0.0
 40
1.0
 50
0.0
 51
90.0
  0
ARC
  8
LC-001-002-----0
  6
CONTINUOUS
  5
60D
 10
91.816065
 20
222.808431
 30
0.0
 40
0.5
 50
270.0
 51
0.0
  0
LINE
  8
LC-001-002-----0
  6
CONTINUOUS
  5
60E
 10
-63.183935
 20
222.808431
 30
0.0
 11
-63.183935
 21
233.009638
 31
0.0
  0
LINE
  8
LC-001-002-----0
  6
CONTINUOUS
  5
60F
 10
92.316065
 20
222.808431
 30
0.0
 11
92.316065
 21
233.00964
 31
0.0
  0
LINE
  8
LC-001-002-----0
  6
CONTINUOUS
  5
610
 10
84.566065
 20
207.308431
 30
0.0
 11
80.066065
 21
207.308431
 31
0.0
  0
ARC
  8
LC-001-002-----0
  6
CONTINUOUS
  5
611
 10
85.115358
 20
206.258431
 30
0.0
 40
2.5
 50
270.0
 51
0.0
  0
ARC
  8
LC-001-002-----0
  6
CONTINUOUS
  5
612
 10
83.315358
 20
202.758431
 30
0.0
 40
1.0
 50
90.0
 51
180.0
  0
LINE
  8
LC-001-002-----0
  6
CONTINUOUS
  5
613
 10
85.115358
 20
203.758431
 30
0.0
 11
83.315358
 21
203.758431
 31
0.0
  0
LINE
  8
LC-001-002-----0
  6
CONTINUOUS
  5
614
 10
-55.433935
 20
207.308431
 30
0.0
 11
-50.933935
 21
207.308431
 31
0.0
  0
ARC
  8
LC-001-002-----0
  6
CONTINUOUS
  5
615
 10
-55.983228
 20
206.308431
 30
0.0
 40
2.5
 50
180.0
 51
270.0
  0
ARC
  8
LC-001-002-----0
  6
CONTINUOUS
  5
616
 10
-54.183228
 20
202.808431
 30
0.0
 40
1.0
 50
0.0
 51
90.0
  0
LINE
  8
LC-001-002-----0
  6
CONTINUOUS
  5
617
 10
-55.983228
 20
203.808431
 30
0.0
 11
-54.183228
 21
203.808431
 31
0.0
  0
LINE
  8
LC-001-002-----0
  6
CONTINUOUS
  5
618
 10
97.073041
 20
254.503455
 30
0.0
 11
105.821345
 21
254.502644
 31
0.0
  0
LINE
  8
LC-001-002-----0
  6
CONTINUOUS
  5
619
 10
92.065358
 20
169.258317
 30
0.0
 11
92.065358
 21
216.708431
 31
0.0
  0
LINE
  8
LC-001-002-----0
  6
CONTINUOUS
  5
61A
 10
94.566065
 20
232.623859
 30
0.0
 11
94.566065
 21
169.758317
 31
0.0
  0
LINE
  8
LC-001-002-----0
  6
CONTINUOUS
  5
61B
 10
99.564892
 20
252.001702
 30
0.0
 11
99.56652
 21
233.623566
 31
0.0
  0
LINE
  8
LC-001-002-----0
  6
CONTINUOUS
  5
61C
 10
-62.933228
 20
169.258317
 30
0.0
 11
-62.933228
 21
216.708431
 31
0.0
  0
LINE
  8
LC-001-002-----0
  6
CONTINUOUS
  5
61D
 10
111.321345
 20
254.502134
 30
0.0
 11
111.319716
 21
236.003233
 31
0.0
  0
LINE
  8
LC-001-002-----0
  6
CONTINUOUS
  5
61E
 10
-65.433935
 20
232.623882
 30
0.0
 11
-65.433935
 21
169.758317
 31
0.0
  0
LINE
  8
LC-001-002-----0
  6
CONTINUOUS
  5
61F
 10
114.519808
 20
236.003233
 30
0.0
 11
111.319716
 21
236.003233
 31
0.0
  0
LINE
  8
LC-001-002-----0
  6
CONTINUOUS
  5
620
 10
-66.433619
 20
233.623566
 30
0.0
 11
-65.433935
 21
232.623882
 31
0.0
  0
LINE
  8
LC-001-002-----0
  6
CONTINUOUS
  5
621
 10
-73.433912
 20
236.003259
 30
0.0
 11
-73.433936
 21
252.001702
 31
0.0
  0
LINE
  8
LC-001-002-----0
  6
CONTINUOUS
  5
622
 10
-73.433936
 20
252.001702
 30
0.0
 11
-70.394619
 21
252.001702
 31
0.0
  0
LINE
  8
LC-001-002-----0
  6
CONTINUOUS
  5
623
 10
102.566077
 20
236.003233
 30
0.0
 11
102.566064
 21
252.001702
 31
0.0
  0
LINE
  8
LC-001-002-----0
  6
CONTINUOUS
  5
624
 10
102.566064
 20
252.001702
 30
0.0
 11
99.564892
 21
252.001702
 31
0.0
  0
LINE
  8
LC-001-002-----0
  6
CONTINUOUS
  5
625
 10
-162.433923
 20
260.259083
 30
0.0
 11
-113.44876
 21
260.259264
 31
0.0
  0
LINE
  8
LC-001-002-----0
  6
CONTINUOUS
  5
626
 10
191.56588
 20
260.260636
 30
0.0
 11
142.578868
 21
260.260566
 31
0.0
  0
LINE
  8
LC-001-002-----0
  6
CONTINUOUS
  5
627
 10
98.8727
 20
263.259737
 30
0.0
 11
101.104813
 21
263.259737
 31
0.0
  0
LINE
  8
LC-001-002-----0
  6
CONTINUOUS
  5
628
 10
78.626625
 20
174.808385
 30
0.0
 11
74.066065
 21
174.251913
 31
0.0
  0
LINE
  8
LC-001-002-----0
  6
CONTINUOUS
  5
629
 10
-49.433935
 20
175.304704
 30
0.0
 11
78.566065
 21
175.304704
 31
0.0
  0
LINE
  8
LC-001-002-----0
  6
CONTINUOUS
  5
62A
 10
-160.433935
 20
263.25909
 30
0.0
 11
-86.906244
 21
263.259362
 31
0.0
  0
ARC
  8
LC-004-002-RND-0
  6
CONTINUOUS
  5
62B
 10
78.566065
 20
175.304704
 30
0.0
 40
0.5
 50
276.956753
 51
0.0
  0
ARC
  8
LC-004-002-RND-0
  6
CONTINUOUS
  5
62C
 10
-160.433927
 20
261.25909
 30
0.0
 40
2.0
 50
90.000212
 51
180.000248
  0
ARC
  8
LC-004-002-RND-0
  6
CONTINUOUS
  5
62D
 10
189.566064
 20
261.259737
 30
0.0
 40
2.0
 50
0.0
 51
90.0
  0
ARC
  8
LC-004-002-RND-0
  6
CONTINUOUS
  5
62E
 10
-64.933935
 20
169.758317
 30
0.0
 40
0.5
 50
180.0
 51
270.0
  0
ARC
  8
LC-004-002-RND-0
  6
CONTINUOUS
  5
62F
 10
94.066065
 20
169.758317
 30
0.0
 40
0.5
 50
270.0
 51
360.0
  0
LINE
  8
LC-001-002-----0
  6
CONTINUOUS
  5
630
 10
-44.933935
 20
174.251913
 30
0.0
 11
74.066065
 21
174.251913
 31
0.0
  0
LINE
  8
LC-001-002-----0
  6
CONTINUOUS
  5
631
 10
14.566065
 20
103.258317
 30
0.0
 11
-46.728164
 21
103.258317
 31
0.0
  0
LINE
  8
LC-001-002-----0
  6
CONTINUOUS
  5
632
 10
-76.687414
 20
236.003245
 30
0.0
 11
-73.433912
 21
236.003259
 31
0.0
  0
LINE
  8
LC-001-002-----0
  6
CONTINUOUS
  5
633
 10
-53.183228
 20
169.258317
 30
0.0
 11
-47.933935
 21
169.258317
 31
0.0
  0
LINE
  8
LC-001-002-----0
  6
CONTINUOUS
  5
634
 10
111.319716
 20
236.003233
 30
0.0
 11
102.566077
 21
236.003233
 31
0.0
  0
LINE
  8
LC-001-002-----0
  6
CONTINUOUS
  5
635
 10
-47.933935
 20
169.258317
 30
0.0
 11
-47.933935
 21
107.758317
 31
0.0
  0
LINE
  8
LC-001-002-----0
  6
CONTINUOUS
  5
636
 10
-44.933935
 20
174.251913
 30
0.0
 11
-44.933935
 21
103.258317
 31
0.0
  0
LINE
  8
LC-001-002-----0
  6
CONTINUOUS
  5
637
 10
-47.933935
 20
107.758317
 30
0.0
 11
-46.728164
 21
103.258317
 31
0.0
  0
LINE
  8
LC-001-002-----0
  6
CONTINUOUS
  5
638
 10
-71.973641
 20
263.259417
 30
0.0
 11
-69.74061
 21
263.259426
 31
0.0
  0
LINE
  8
LC-001-002-----0
  6
CONTINUOUS
  5
639
 10
116.038012
 20
263.259737
 30
0.0
 11
189.566064
 21
263.259737
 31
0.0
  0
LINE
  8
LC-001-002-----0
  6
CONTINUOUS
  5
63A
 10
91.816067
 20
169.258317
 30
0.0
 11
91.816067
 21
178.258317
 31
0.0
  0
LINE
  8
LC-001-002-----0
  6
CONTINUOUS
  5
63B
 10
94.816067
 20
169.258317
 30
0.0
 11
91.816067
 21
169.258317
 31
0.0
  0
ARC
  8
LC-004-002-RND-0
  6
CONTINUOUS
  5
63C
 10
87.066067
 20
164.258317
 30
0.0
 40
2.5
 50
270.0
 51
0.0
  0
LINE
  8
LC-001-002-----0
  6
CONTINUOUS
  5
63D
 10
94.816067
 20
167.258317
 30
0.0
 11
94.816067
 21
169.258317
 31
0.0
  0
ARC
  8
LC-004-002-RND-0
  6
CONTINUOUS
  5
63E
 10
86.816067
 20
167.258317
 30
0.0
 40
8.0
 50
270.0
 51
0.0
  0
LINE
  8
LC-001-002-----0
  6
CONTINUOUS
  5
63F
 10
77.316067
 20
159.258317
 30
0.0
 11
77.316067
 21
161.758317
 31
0.0
  0
LINE
  8
LC-001-002-----0
  6
CONTINUOUS
  5
640
 10
-48.183933
 20
159.258317
 30
0.0
 11
-48.183933
 21
161.758317
 31
0.0
  0
LINE
  8
LC-001-002-----0
  6
CONTINUOUS
  5
641
 10
89.866067
 20
176.758317
 30
0.0
 11
89.866067
 21
178.258317
 31
0.0
  0
LINE
  8
LC-001-002-----0
  6
CONTINUOUS
  5
642
 10
89.566067
 20
164.258317
 30
0.0
 11
89.566067
 21
176.758317
 31
0.0
  0
LINE
  8
LC-001-002-----0
  6
CONTINUOUS
  5
643
 10
91.816067
 20
178.258317
 30
0.0
 11
89.866067
 21
178.258317
 31
0.0
  0
LINE
  8
LC-001-002-----0
  6
CONTINUOUS
  5
644
 10
-62.683933
 20
178.258317
 30
0.0
 11
-60.733933
 21
178.258317
 31
0.0
  0
LINE
  8
LC-001-002-----0
  6
CONTINUOUS
  5
645
 10
-65.683933
 20
167.258317
 30
0.0
 11
-65.683933
 21
169.258317
 31
0.0
  0
ARC
  8
LC-004-002-RND-0
  6
CONTINUOUS
  5
646
 10
-57.683933
 20
167.258317
 30
0.0
 40
8.0
 50
180.0
 51
255.527717
  0
LINE
  8
LC-001-002-----0
  6
CONTINUOUS
  5
647
 10
-65.683933
 20
169.258317
 30
0.0
 11
-62.683933
 21
169.258317
 31
0.0
  0
LINE
  8
LC-001-002-----0
  6
CONTINUOUS
  5
648
 10
-62.683933
 20
169.258317
 30
0.0
 11
-62.683933
 21
178.258317
 31
0.0
  0
ARC
  8
LC-004-002-RND-0
  6
CONTINUOUS
  5
649
 10
-57.933933
 20
164.258317
 30
0.0
 40
2.5
 50
180.0
 51
225.595678
  0
LINE
  8
LC-001-002-----0
  6
CONTINUOUS
  5
64A
 10
-60.433933
 20
164.258317
 30
0.0
 11
-60.433933
 21
176.758317
 31
0.0
  0
LINE
  8
LC-001-002-----0
  6
CONTINUOUS
  5
64B
 10
-60.733933
 20
176.758317
 30
0.0
 11
-60.733933
 21
178.258317
 31
0.0
  0
LINE
  8
LC-001-002-----0
  6
CONTINUOUS
  5
64C
 10
-60.733933
 20
176.758317
 30
0.0
 11
-60.433933
 21
176.758317
 31
0.0
  0
LINE
  8
LC-001-002-----0
  6
CONTINUOUS
  5
64D
 10
86.816067
 20
159.258317
 30
0.0
 11
85.308659
 21
159.258317
 31
0.0
  0
LINE
  8
LC-001-002-----0
  6
CONTINUOUS
  5
64E
 10
85.308659
 20
159.258317
 30
0.0
 11
85.308659
 21
157.258317
 31
0.0
  0
LINE
  8
LC-001-002-----0
  6
CONTINUOUS
  5
64F
 10
85.308659
 20
157.258317
 30
0.0
 11
77.316067
 21
157.258317
 31
0.0
  0
LINE
  8
LC-001-002-----0
  6
CONTINUOUS
  5
650
 10
77.316067
 20
157.258317
 30
0.0
 11
77.316067
 21
159.258317
 31
0.0
  0
LINE
  8
LC-001-002-----0
  6
CONTINUOUS
  5
651
 10
77.316067
 20
159.258317
 30
0.0
 11
77.316067
 21
159.258317
 31
0.0
  0
LINE
  8
LC-001-002-----0
  6
CONTINUOUS
  5
652
 10
87.066067
 20
161.758317
 30
0.0
 11
77.316067
 21
161.758317
 31
0.0
  0
LINE
  8
LC-001-002-----0
  6
CONTINUOUS
  5
653
 10
-48.183933
 20
159.258317
 30
0.0
 11
-48.183933
 21
157.258317
 31
0.0
  0
LINE
  8
LC-001-002-----0
  6
CONTINUOUS
  5
654
 10
-48.183933
 20
157.258317
 30
0.0
 11
-53.183226
 21
157.258317
 31
0.0
  0
LINE
  8
LC-001-002-----0
  6
CONTINUOUS
  5
655
 10
-48.183933
 20
159.258317
 30
0.0
 11
-48.183933
 21
159.258317
 31
0.0
  0
LINE
  8
LC-001-002-----0
  6
CONTINUOUS
  5
656
 10
-53.183226
 20
161.758317
 30
0.0
 11
-48.183933
 21
161.758317
 31
0.0
  0
LINE
  8
LC-001-002-----0
  6
CONTINUOUS
  5
657
 10
-64.933935
 20
169.258317
 30
0.0
 11
-62.933228
 21
169.258317
 31
0.0
  0
LINE
  8
LC-001-002-----0
  6
CONTINUOUS
  5
658
 10
89.866067
 20
176.758317
 30
0.0
 11
89.566067
 21
176.758317
 31
0.0
  0
LINE
  8
LC-001-002-----0
  6
CONTINUOUS
  5
659
 10
94.066065
 20
169.258317
 30
0.0
 11
92.065358
 21
169.258317
 31
0.0
  0
LINE
  8
LC-001-002-----0
  6
CONTINUOUS
  5
65A
 10
-82.189159
 20
254.501715
 30
0.0
 11
-89.119045
 21
254.503888
 31
0.0
  0
LINE
  8
LC-001-002-----0
  6
CONTINUOUS
  5
65B
 10
-101.683226
 20
35.255558
 30
0.0
 11
-154.052036
 21
35.255558
 31
0.0
  0
LINE
  8
LC-001-002-----0
  6
CONTINUOUS
  5
65C
 10
-101.683226
 20
41.755558
 30
0.0
 11
-154.052036
 21
41.755558
 31
0.0
  0
LINE
  8
LC-001-002-----0
  6
CONTINUOUS
  5
65D
 10
-154.052036
 20
41.755558
 30
0.0
 11
-154.052036
 21
35.255558
 31
0.0
  0
LINE
  8
LC-001-002-----0
  6
CONTINUOUS
  5
65E
 10
-154.052036
 20
40.757616
 30
0.0
 11
-178.798848
 21
42.054542
 31
0.0
  0
LINE
  8
LC-001-002-----0
  6
CONTINUOUS
  5
65F
 10
-154.052036
 20
39.255558
 30
0.0
 11
-178.96737
 21
40.561315
 31
0.0
  0
LINE
  8
LC-001-002-----0
  6
CONTINUOUS
  5
660
 10
-154.052036
 20
39.255558
 30
0.0
 11
-179.052036
 21
39.255558
 31
0.0
  0
LINE
  8
LC-001-002-----0
  6
CONTINUOUS
  5
661
 10
-154.052036
 20
37.755558
 30
0.0
 11
-179.052036
 21
37.755558
 31
0.0
  0
LINE
  8
LC-001-002-----0
  6
CONTINUOUS
  5
662
 10
-154.052036
 20
37.755558
 30
0.0
 11
-178.96737
 21
36.4498
 31
0.0
  0
LINE
  8
LC-001-002-----0
  6
CONTINUOUS
  5
663
 10
-154.052036
 20
36.253499
 30
0.0
 11
-178.798848
 21
34.956574
 31
0.0
  0
LINE
  8
LC-001-002-----0
  6
CONTINUOUS
  5
664
 10
-178.826935
 20
35.205445
 30
0.0
 11
-185.841152
 21
34.837845
 31
0.0
  0
LINE
  8
LC-001-002-----0
  6
CONTINUOUS
  5
665
 10
-178.939283
 20
36.200929
 30
0.0
 11
-185.940323
 21
35.83402
 31
0.0
  0
LINE
  8
LC-001-002-----0
  6
CONTINUOUS
  5
666
 10
-179.052036
 20
38.005558
 30
0.0
 11
-186.052036
 21
38.005558
 31
0.0
  0
LINE
  8
LC-001-002-----0
  6
CONTINUOUS
  5
667
 10
-179.052036
 20
39.005558
 30
0.0
 11
-186.052036
 21
39.005558
 31
0.0
  0
LINE
  8
LC-001-002-----0
  6
CONTINUOUS
  5
668
 10
-178.939283
 20
40.810186
 30
0.0
 11
-185.940323
 21
41.177095
 31
0.0
  0
LINE
  8
LC-001-002-----0
  6
CONTINUOUS
  5
669
 10
-178.826935
 20
41.805671
 30
0.0
 11
-185.841152
 21
42.17327
 31
0.0
  0
LINE
  8
LC-001-002-----0
  6
CONTINUOUS
  5
66A
 10
-178.798848
 20
42.054542
 30
0.0
 11
-178.96737
 21
40.561315
 31
0.0
  0
LINE
  8
LC-001-002-----0
  6
CONTINUOUS
  5
66B
 10
-179.052036
 20
39.255558
 30
0.0
 11
-179.052036
 21
37.755558
 31
0.0
  0
LINE
  8
LC-001-002-----0
  6
CONTINUOUS
  5
66C
 10
-178.798848
 20
34.956574
 30
0.0
 11
-178.96737
 21
36.4498
 31
0.0
  0
LINE
  8
LC-001-002-----0
  6
CONTINUOUS
  5
66D
 10
-185.841152
 20
34.837845
 30
0.0
 11
-185.940323
 21
35.83402
 31
0.0
  0
LINE
  8
LC-001-002-----0
  6
CONTINUOUS
  5
66E
 10
-186.052036
 20
39.005558
 30
0.0
 11
-186.052036
 21
38.005558
 31
0.0
  0
LINE
  8
LC-001-002-----0
  6
CONTINUOUS
  5
66F
 10
-185.841152
 20
42.17327
 30
0.0
 11
-185.940323
 21
41.177095
 31
0.0
  0
LINE
  8
LC-001-002-----0
  6
DASHDOT
 62
     2
  5
670
 10
-101.683226
 20
51.295152
 30
0.0
 11
-101.683226
 21
23.635763
 31
0.0
  0
LINE
  8
LC-001-002-----0
  6
DASHDOT
 62
     2
  5
671
 10
-99.683226
 20
51.295152
 30
0.0
 11
-99.683226
 21
23.635763
 31
0.0
  0
ARC
  8
LC-004-002-RND-0
  6
CONTINUOUS
  5
672
 10
-99.683226
 20
81.755558
 30
0.0
 40
46.5
 50
270.0
 51
360.0
  0
ARC
  8
LC-004-002-RND-0
  6
CONTINUOUS
  5
673
 10
-99.683226
 20
81.755558
 30
0.0
 40
40.0
 50
270.0
 51
360.0
  0
LINE
  8
LC-001-002-----0
  6
DASHDOT
 62
     2
  5
674
 10
-62.355013
 20
124.828578
 30
0.0
 11
-50.57058
 21
124.828578
 31
0.0
  0
LINE
  8
LC-001-002-----0
  6
DASHDOT
 62
     2
  5
675
 10
-62.355013
 20
123.328578
 30
0.0
 11
-50.57058
 21
123.328578
 31
0.0
  0
LINE
  8
LC-001-002-----0
  6
CONTINUOUS
  5
676
 10
-53.183226
 20
123.328578
 30
0.0
 11
-53.183226
 21
81.755558
 31
0.0
  0
LINE
  8
LC-001-002-----0
  6
CONTINUOUS
  5
677
 10
-59.683226
 20
123.328578
 30
0.0
 11
-59.683226
 21
81.755558
 31
0.0
  0
LINE
  8
LC-001-002-----0
  6
CONTINUOUS
  5
678
 10
-53.183226
 20
161.768088
 30
0.0
 11
-53.183226
 21
124.828578
 31
0.0
  0
LINE
  8
LC-001-002-----0
  6
CONTINUOUS
  5
679
 10
-59.683226
 20
161.768088
 30
0.0
 11
-59.683226
 21
124.828578
 31
0.0
  0
CIRCLE
  8
LC-001-002-----0
  6
CONTINUOUS
  5
67A
 10
-56.433226
 20
200.598947
 30
0.0
 40
3.25
  0
LINE
  8
LC-001-002-----0
  6
CONTINUOUS
  5
67B
 10
-59.683226
 20
200.856923
 30
0.0
 11
-59.683226
 21
161.768088
 31
0.0
  0
LINE
  8
LC-001-002-----0
  6
CONTINUOUS
  5
67C
 10
-53.183226
 20
161.77699
 30
0.0
 11
-53.183226
 21
202.827103
 31
0.0
  0
LINE
  8
LC-002-005-----0
  6
CONTINUOUS
  5
67D
 10
-58.483228
 20
214.04672
 30
0.0
 11
-62.126153
 21
217.689645
 31
0.0
  0
LINE
  8
LC-002-005-----0
  6
CONTINUOUS
  5
67E
 10
-59.683226
 20
186.962447
 30
0.0
 11
-62.933228
 21
190.212449
 31
0.0
  0
LINE
  8
LC-002-005-----0
  6
CONTINUOUS
  5
67F
 10
-48.621232
 20
161.758317
 30
0.0
 11
-53.183226
 21
166.320311
 31
0.0
  0
LINE
  8
LC-002-005-----0
  6
CONTINUOUS
  5
680
 10
-49.216863
 20
157.258317
 30
0.0
 11
-48.183933
 21
158.291247
 31
0.0
  0
LINE
  8
LC-002-005-----0
  6
CONTINUOUS
  5
681
 10
-52.04529
 20
157.258317
 30
0.0
 11
-48.183933
 21
161.119674
 31
0.0
  0
LINE
  8
LC-002-005-----0
  6
CONTINUOUS
  5
682
 10
-53.183226
 20
158.948808
 30
0.0
 11
-50.373717
 21
161.758317
 31
0.0
  0
LINE
  8
LC-002-005-----0
  6
CONTINUOUS
  5
683
 10
-60.748677
 20
159.868639
 30
0.0
 11
-59.683226
 21
160.934089
 31
0.0
  0
LINE
  8
LC-002-005-----0
  6
CONTINUOUS
  5
684
 10
-62.542828
 20
160.902915
 30
0.0
 11
-60.213613
 21
163.23213
 31
0.0
  0
LINE
  8
LC-002-005-----0
  6
CONTINUOUS
  5
685
 10
-63.96741
 20
162.30676
 30
0.0
 11
-60.433933
 21
165.840237
 31
0.0
  0
LINE
  8
LC-002-005-----0
  6
CONTINUOUS
  5
686
 10
-65.024608
 20
164.077989
 30
0.0
 11
-60.433933
 21
168.668664
 31
0.0
  0
LINE
  8
LC-002-005-----0
  6
CONTINUOUS
  5
687
 10
-65.626832
 20
166.304192
 30
0.0
 11
-60.433933
 21
171.497091
 31
0.0
  0
LINE
  8
LC-002-005-----0
  6
CONTINUOUS
  5
688
 10
-65.683933
 20
169.075518
 30
0.0
 11
-65.501134
 21
169.258317
 31
0.0
  0
LINE
  8
LC-002-005-----0
  6
CONTINUOUS
  5
689
 10
-62.683933
 20
172.075518
 30
0.0
 11
-60.433933
 21
174.325518
 31
0.0
  0
LINE
  8
LC-002-005-----0
  6
CONTINUOUS
  5
68A
 10
-62.683933
 20
174.903945
 30
0.0
 11
-60.733933
 21
176.853945
 31
0.0
  0
LINE
  8
LC-002-005-----0
  6
CONTINUOUS
  5
68B
 10
-62.683933
 20
177.732372
 30
0.0
 11
-62.157988
 21
178.258317
 31
0.0
  0
LINE
  8
LC-002-005-----0
  6
CONTINUOUS
  5
68C
 10
-59.648874
 20
201.070231
 30
0.0
 11
-62.933228
 21
204.354584
 31
0.0
  0
LINE
  8
LC-002-005-----0
  6
CONTINUOUS
  5
68D
 10
-59.683226
 20
172.820311
 30
0.0
 11
-60.433933
 21
173.571018
 31
0.0
  0
LINE
  8
LC-002-005-----0
  6
CONTINUOUS
  5
68E
 10
-50.373717
 20
161.758317
 30
0.0
 11
-47.933935
 21
164.198099
 31
0.0
  0
LINE
  8
LC-002-005-----0
  6
CONTINUOUS
  5
68F
 10
-60.433933
 20
165.840237
 30
0.0
 11
-59.683226
 21
166.590943
 31
0.0
  0
LINE
  8
LC-002-005-----0
  6
CONTINUOUS
  5
690
 10
-62.157988
 20
178.258317
 30
0.0
 11
-59.683226
 21
180.733079
 31
0.0
  0
LINE
  8
LC-002-005-----0
  6
CONTINUOUS
  5
691
 10
-62.933228
 20
191.625213
 30
0.0
 11
-59.683226
 21
194.875215
 31
0.0
  0
LINE
  8
LC-002-005-----0
  6
CONTINUOUS
  5
692
 10
-62.933228
 20
205.767349
 30
0.0
 11
-58.483228
 21
210.217349
 31
0.0
  0
LINE
  8
LC-002-005-----0
  6
CONTINUOUS
  5
693
 10
-53.259504
 20
201.298937
 30
0.0
 11
-53.183228
 21
201.375213
 31
0.0
  0
ENDSEC
  0
EOF
