  0
SECTION
  2
HEADER
  9
$ACADVER
  1
AC1009
  9
$INSBASE
 10
0.0
 20
0.0
 30
0.0
  9
$EXTMIN
 10
-222.52295
 20
-236.22
 30
0.0
  9
$EXTMAX
 10
617.47705
 20
357.78
 30
0.0
  9
$LIMMIN
 10
-222.52295
 20
-236.22
  9
$LIMMAX
 10
617.47705
 20
357.78
  9
$ORTHOMODE
 70
     0
  9
$REGENMODE
 70
     1
  9
$FILLMODE
 70
     1
  9
$QTEXTMODE
 70
     0
  9
$MIRRTEXT
 70
     1
  9
$DRAGMODE
 70
     2
  9
$LTSCALE
 40
2.0
  9
$OSMODE
 70
     0
  9
$ATTMODE
 70
     1
  9
$TEXTSIZE
 40
0.2
  9
$TRACEWID
 40
0.05
  9
$TEXTSTYLE
  7
STANDARD
  9
$CLAYER
  8
0
  9
$CELTYPE
  6
BYLAYER
  9
$CECOLOR
 62
     7
  9
$DIMSCALE
 40
2.0
  9
$DIMASZ
 40
3.5
  9
$DIMEXO
 40
0.0625
  9
$DIMDLI
 40
0.38
  9
$DIMRND
 40
0.0
  9
$DIMDLE
 40
0.0
  9
$DIMEXE
 40
0.18
  9
$DIMTP
 40
0.0
  9
$DIMTM
 40
0.0
  9
$DIMTXT
 40
3.5
  9
$DIMCEN
 40
0.09
  9
$DIMTSZ
 40
0.0
  9
$DIMTOL
 70
     0
  9
$DIMLIM
 70
     0
  9
$DIMTIH
 70
     1
  9
$DIMTOH
 70
     1
  9
$DIMSE1
 70
     0
  9
$DIMSE2
 70
     0
  9
$DIMTAD
 70
     1
  9
$DIMZIN
 70
     0
  9
$DIMBLK
  1

  9
$DIMASO
 70
     1
  9
$DIMSHO
 70
     1
  9
$DIMPOST
  1

  9
$DIMAPOST
  1

  9
$DIMALT
 70
     0
  9
$DIMALTD
 70
     2
  9
$DIMALTF
 40
25.4
  9
$DIMLFAC
 40
1.0
  9
$DIMTOFL
 70
     0
  9
$DIMTVP
 40
0.0
  9
$DIMTIX
 70
     0
  9
$DIMSOXD
 70
     0
  9
$DIMSAH
 70
     0
  9
$DIMBLK1
  1

  9
$DIMBLK2
  1

  9
$DIMSTYLE
  2
STANDARD
  9
$DIMCLRD
 70
     0
  9
$DIMCLRE
 70
     0
  9
$DIMCLRT
 70
     0
  9
$DIMTFAC
 40
1.0
  9
$DIMGAP
 40
0.09
  9
$LUNITS
 70
     2
  9
$LUPREC
 70
     2
  9
$AXISMODE
 70
     0
  9
$AXISUNIT
 10
0.0
 20
0.0
  9
$SKETCHINC
 40
0.1
  9
$FILLETRAD
 40
0.0
  9
$AUNITS
 70
     0
  9
$AUPREC
 70
     0
  9
$MENU
  1
acad
  9
$ELEVATION
 40
0.0
  9
$PELEVATION
 40
0.0
  9
$THICKNESS
 40
0.0
  9
$LIMCHECK
 70
     0
  9
$BLIPMODE
 70
     1
  9
$CHAMFERA
 40
0.0
  9
$CHAMFERB
 40
0.0
  9
$SKPOLY
 70
     0
  9
$TDCREATE
 40
0.000000000
  9
$TDUPDATE
 40
0.000000000
  9
$TDINDWG
 40
0.0000000000
  9
$TDUSRTIMER
 40
0.0000000000
  9
$USRTIMER
 70
     1
  9
$ANGBASE
 50
0.0
  9
$ANGDIR
 70
     0
  9
$PDMODE
 70
     0
  9
$PDSIZE
 40
0.0
  9
$PLINEWID
 40
0.0
  9
$COORDS
 70
     0
  9
$SPLFRAME
 70
     0
  9
$SPLINETYPE
 70
     6
  9
$SPLINESEGS
 70
     8
  9
$ATTDIA
 70
     0
  9
$ATTREQ
 70
     1
  9
$HANDLING
 70
     1
  9
$HANDSEED
  5
460
  9
$SURFTAB1
 70
     6
  9
$SURFTAB2
 70
     6
  9
$SURFTYPE
 70
     6
  9
$SURFU
 70
     6
  9
$SURFV
 70
     6
  9
$UCSNAME
  2

  9
$UCSORG
 10
0.0
 20
0.0
 30
0.0
  9
$UCSXDIR
 10
1.0
 20
0.0
 30
0.0
  9
$UCSYDIR
 10
0.0
 20
1.0
 30
0.0
  9
$PUCSNAME
  2

  9
$PUCSORG
 10
0.0
 20
0.0
 30
0.0
  9
$PUCSXDIR
 10
1.0
 20
0.0
 30
0.0
  9
$PUCSYDIR
 10
0.0
 20
1.0
 30
0.0
  9
$USERI1
 70
     0
  9
$USERI2
 70
     0
  9
$USERI3
 70
     0
  9
$USERI4
 70
     0
  9
$USERI5
 70
     0
  9
$USERR1
 40
0.0
  9
$USERR2
 40
0.0
  9
$USERR3
 40
0.0
  9
$USERR4
 40
0.0
  9
$USERR5
 40
0.0
  9
$WORLDVIEW
 70
     1
  9
$SHADEDGE
 70
     3
  9
$SHADEDIF
 70
    70
  9
$TILEMODE
 70
     1
  9
$MAXACTVP
 70
    16
  9
$PINSBASE
 10
0.0
 20
0.0
 30
0.0
  9
$PLIMCHECK
 70
     0
  9
$PEXTMIN
 10
1.000000E+20
 20
1.000000E+20
 30
1.000000E+20
  9
$PEXTMAX
 10
-1.000000E+20
 20
-1.000000E+20
 30
-1.000000E+20
  9
$PLIMMIN
 10
-222.52295
 20
-236.22
  9
$PLIMMAX
 10
617.47705
 20
357.78
  9
$UNITMODE
 70
     0
  9
$VISRETAIN
 70
     0
  9
$PLINEGEN
 70
     1
  9
$PSLTSCALE
 70
     0
  9
$TREEDEPTH
 70
  3020
  9
$DWGCODEPAGE
  3
dos850
  0
ENDSEC
  0
SECTION
  2
TABLES
  0
TABLE
  2
VPORT
 70
     1
  0
VPORT
  2
*ACTIVE
 70
     0
 10
0.0
 20
0.0
 11
1.0
 21
1.0
 12
420.0
 22
297.0
 13
0.0
 23
0.0
 14
1.0
 24
1.0
 15
0.0
 25
0.0
 16
0.0
 26
0.0
 36
1.0
 17
-222.52295
 27
-236.22
 37
0.0
 40
594.0
 41
1.604229
 42
50.0
 43
0.0
 44
0.0
 50
0.0
 51
0.0
 71
     0
 72
   100
 73
     1
 74
     1
 75
     0
 76
     0
 77
     0
 78
     0
  0
ENDTAB
  0
TABLE
  2
LTYPE
 70
     3
  0
LTYPE
  2
CONTINUOUS
 70
    64
  3
Solid line
 72
    65
 73
     0
 40
0.0
  0
LTYPE
  2
DASHED
 70
    64
  3
__ __ __ __ __
 72
    65
 73
     2
 40
6.25
 49
5.0
 49
-1.25
  0
LTYPE
  2
DASHDOT
 70
    64
  3
__ . __ . __ . __ . __
 72
    65
 73
     4
 40
7.5
 49
5.0
 49
-1.25
 49
0.0
 49
-1.25
  0
ENDTAB
  0
TABLE
  2
LAYER
 70
    13
  0
LAYER
  2
0
 70
     0
 62
     7
  6
CONTINUOUS
  0
LAYER
  2
LC-INFO-1-2-MM-A3-0
 70
     1
 62
    -1
  6
CONTINUOUS
  0
LAYER
  2
LC-003-005-----0
 70
     0
 62
     2
  6
CONTINUOUS
  0
LAYER
  2
LC-009-003-MTH-0
 70
     0
 62
     2
  6
CONTINUOUS
  0
LAYER
  2
LC-010-003-MTG-0
 70
     0
 62
     2
  6
CONTINUOUS
  0
LAYER
  2
LC-008-003-----0
 70
     0
 62
     2
  6
CONTINUOUS
  0
LAYER
  2
LC-006-000-----0
 70
     0
 62
     7
  6
CONTINUOUS
  0
LAYER
  2
LC-007-000-----0
 70
     0
 62
     7
  6
CONTINUOUS
  0
LAYER
  2
LC-001-002-----0
 70
     0
 62
     1
  6
CONTINUOUS
  0
LAYER
  2
LC-002-002-RND-0
 70
     0
 62
     1
  6
CONTINUOUS
  0
LAYER
  2
LC-004-001-RND-0
 70
     0
 62
     1
  6
CONTINUOUS
  0
LAYER
  2
LC-005-001-----0
 70
     0
 62
     1
  6
CONTINUOUS
  0
LAYER
  2
LC-000
 70
     0
 62
     7
  6
CONTINUOUS
  0
ENDTAB
  0
TABLE
  2
STYLE
 70
     4
  0
STYLE
  2
STANDARD
 70
     0
 40
0.0
 41
1.0
 50
0.0
 71
     0
 42
0.0
  3
txt
  4

  0
STYLE
  2
LC-STANDARD
 70
    64
 40
0.0
 41
1.0
 50
0.0
 71
     0
 42
3.5
  3
MONOTXT
  4

  0
STYLE
  2
LC-TXTSTYLE-150-400-0-0-A2
 70
    64
 40
0.0
 41
1.0
 50
15.0
 71
     0
 42
3.5
  3
MONOTXT
  4

  0
STYLE
  2
LC-TXTSTYLE-150-400-0-0-D3
 70
    64
 40
0.0
 41
1.0
 50
15.0
 71
     0
 42
3.5
  3
LC-STANDARD
  4

  0
ENDTAB
  0
TABLE
  2
VIEW
 70
     0
  0
ENDTAB
  0
TABLE
  2
UCS
 70
     0
  0
ENDTAB
  0
TABLE
  2
APPID
 70
     1
  0
APPID
  2
ACAD
 70
     0
  0
ENDTAB
  0
TABLE
  2
DIMSTYLE
 70
     3
  0
DIMSTYLE
  2
STANDARD
 70
     0
  3

  4

  5

  6

  7

 40
1.0
 41
0.18
 42
0.0625
 43
0.38
 44
0.18
 45
0.0
 46
0.0
 47
0.0
 48
0.0
 71
     0
 72
     0
 73
     1
 74
     1
 75
     0
 76
     0
 77
     0
 78
     0
140
0.18
141
0.09
142
0.0
143
25.4
144
1.0
145
0.0
146
1.0
147
0.09
170
     0
171
     2
172
     0
173
     0
174
     0
175
     0
176
     0
177
     0
178
     0
  0
DIMSTYLE
  2
LC-STANDARD
 70
     0
  3

  4

  5

  6

  7

 40
1.0
 41
3.5
 42
0.0
 43
7.5
 44
1.8
 45
0.0
 46
0.0
 47
0.0
 48
0.0
 71
     0
 72
     0
 73
     0
 74
     0
 75
     0
 76
     0
 77
     1
 78
     8
140
3.5
141
0.0
142
0.0
143
25.4
144
1.0
145
0.0
146
0.71
147
1.5
170
     0
171
     2
172
     1
173
     0
174
     0
175
     0
176
     0
177
     0
178
     3
  0
DIMSTYLE
  2
LC-DIM-L-0140-02-02
 70
     0
  3

  4

  5

  6

  7

 40
2.0
 41
3.5
 42
0.0
 43
7.5
 44
1.8
 45
0.0
 46
0.0
 47
0.0
 48
0.0
 71
     0
 72
     0
 73
     0
 74
     0
 75
     0
 76
     0
 77
     1
 78
     8
140
14.0
141
0.0
142
0.0
143
25.4
144
1.0
145
0.0
146
0.71
147
1.5
170
     0
171
     2
172
     0
173
     0
174
     0
175
     0
176
     2
177
     2
178
     8
  0
ENDTAB
  0
ENDSEC
  0
SECTION
  2
BLOCKS
  0
BLOCK
  8
0
  5
23
  2
*X0
 70
    65
 10
-82.729541
 20
22.524096
 30
0.0
  3
*X0
  0
LINE
  8
LC-003-005-----0
  6
CONTINUOUS
  5
25
 10
-45.358155
 20
22.524096
 30
0.0
 11
-43.152881
 21
24.72937
 31
0.0
  0
LINE
  8
LC-003-005-----0
  6
CONTINUOUS
  5
26
 10
-48.186582
 20
22.524096
 30
0.0
 11
-43.152881
 21
27.557797
 31
0.0
  0
LINE
  8
LC-003-005-----0
  6
CONTINUOUS
  5
27
 10
-45.152881
 20
28.386224
 30
0.0
 11
-43.152881
 21
30.386224
 31
0.0
  0
LINE
  8
LC-003-005-----0
  6
CONTINUOUS
  5
28
 10
-45.152881
 20
31.214651
 30
0.0
 11
-43.152881
 21
33.214651
 31
0.0
  0
LINE
  8
LC-003-005-----0
  6
CONTINUOUS
  5
29
 10
-46.674369
 20
32.521591
 30
0.0
 11
-43.152881
 21
36.043078
 31
0.0
  0
LINE
  8
LC-003-005-----0
  6
CONTINUOUS
  5
2A
 10
-47.152881
 20
34.871505
 30
0.0
 11
-47.002796
 21
35.021591
 31
0.0
  0
LINE
  8
LC-003-005-----0
  6
CONTINUOUS
  5
2B
 10
-45.152881
 20
36.871505
 30
0.0
 11
-43.152881
 21
38.871505
 31
0.0
  0
LINE
  8
LC-003-005-----0
  6
CONTINUOUS
  5
2C
 10
-45.152881
 20
39.699933
 30
0.0
 11
-43.152881
 21
41.699933
 31
0.0
  0
LINE
  8
LC-003-005-----0
  6
CONTINUOUS
  5
2D
 10
-46.15965
 20
41.521591
 30
0.0
 11
-43.181343
 21
44.499898
 31
0.0
  0
LINE
  8
LC-003-005-----0
  6
CONTINUOUS
  5
2E
 10
-47.152881
 20
43.356787
 30
0.0
 11
-45.855756
 21
44.653912
 31
0.0
  0
LINE
  8
LC-003-005-----0
  6
CONTINUOUS
  5
2F
 10
-45.485202
 20
45.024466
 30
0.0
 11
-43.481171
 21
47.028497
 31
0.0
  0
LINE
  8
LC-003-005-----0
  6
CONTINUOUS
  5
30
 10
-45.62782
 20
47.710275
 30
0.0
 11
-44.040148
 21
49.297947
 31
0.0
  0
LINE
  8
LC-003-005-----0
  6
CONTINUOUS
  5
31
 10
-47.307371
 20
48.859152
 30
0.0
 11
-44.807135
 21
51.359388
 31
0.0
  0
LINE
  8
LC-003-005-----0
  6
CONTINUOUS
  5
32
 10
-48.039907
 20
50.955042
 30
0.0
 11
-45.752172
 21
53.242777
 31
0.0
  0
LINE
  8
LC-003-005-----0
  6
CONTINUOUS
  5
33
 10
-49.115654
 20
52.707722
 30
0.0
 11
-46.857096
 21
54.96628
 31
0.0
  0
LINE
  8
LC-003-005-----0
  6
CONTINUOUS
  5
34
 10
-50.485038
 20
54.166765
 30
0.0
 11
-48.11128
 21
56.540524
 31
0.0
  0
LINE
  8
LC-003-005-----0
  6
CONTINUOUS
  5
35
 10
-52.142258
 20
55.337973
 30
0.0
 11
-49.509597
 21
57.970634
 31
0.0
  0
LINE
  8
LC-003-005-----0
  6
CONTINUOUS
  5
36
 10
-53.530945
 20
56.777713
 30
0.0
 11
-50.759799
 21
59.548859
 31
0.0
  0
LINE
  8
LC-003-005-----0
  6
CONTINUOUS
  5
37
 10
-53.802881
 20
59.334204
 30
0.0
 11
-50.846613
 21
62.290472
 31
0.0
  0
LINE
  8
LC-003-005-----0
  6
CONTINUOUS
  5
38
 10
-53.802881
 20
62.162631
 30
0.0
 11
-50.880926
 21
65.084586
 31
0.0
  0
LINE
  8
LC-003-005-----0
  6
CONTINUOUS
  5
39
 10
-53.802881
 20
64.991058
 30
0.0
 11
-50.91524
 21
67.878699
 31
0.0
  0
LINE
  8
LC-003-005-----0
  6
CONTINUOUS
  5
3A
 10
-53.802881
 20
67.819485
 30
0.0
 11
-50.949553
 21
70.672813
 31
0.0
  0
LINE
  8
LC-003-005-----0
  6
CONTINUOUS
  5
3B
 10
-53.802881
 20
70.647912
 30
0.0
 11
-50.983867
 21
73.466927
 31
0.0
  0
LINE
  8
LC-003-005-----0
  6
CONTINUOUS
  5
3C
 10
-53.802881
 20
73.476339
 30
0.0
 11
-51.01818
 21
76.26104
 31
0.0
  0
LINE
  8
LC-003-005-----0
  6
CONTINUOUS
  5
3D
 10
-53.802881
 20
76.304767
 30
0.0
 11
-51.052494
 21
79.055154
 31
0.0
  0
LINE
  8
LC-003-005-----0
  6
CONTINUOUS
  5
3E
 10
-53.802881
 20
79.133194
 30
0.0
 11
-51.086807
 21
81.849268
 31
0.0
  0
LINE
  8
LC-003-005-----0
  6
CONTINUOUS
  5
3F
 10
-53.802881
 20
81.961621
 30
0.0
 11
-51.121121
 21
84.643381
 31
0.0
  0
LINE
  8
LC-003-005-----0
  6
CONTINUOUS
  5
40
 10
-53.802881
 20
84.790048
 30
0.0
 11
-51.155434
 21
87.437495
 31
0.0
  0
LINE
  8
LC-003-005-----0
  6
CONTINUOUS
  5
41
 10
-53.802881
 20
87.618475
 30
0.0
 11
-51.189747
 21
90.231609
 31
0.0
  0
LINE
  8
LC-003-005-----0
  6
CONTINUOUS
  5
42
 10
-53.802881
 20
90.446902
 30
0.0
 11
-51.224061
 21
93.025723
 31
0.0
  0
LINE
  8
LC-003-005-----0
  6
CONTINUOUS
  5
43
 10
-53.802881
 20
93.275329
 30
0.0
 11
-51.258374
 21
95.819836
 31
0.0
  0
LINE
  8
LC-003-005-----0
  6
CONTINUOUS
  5
44
 10
-53.802881
 20
96.103756
 30
0.0
 11
-51.292688
 21
98.61395
 31
0.0
  0
LINE
  8
LC-003-005-----0
  6
CONTINUOUS
  5
45
 10
-53.802881
 20
98.932184
 30
0.0
 11
-51.327001
 21
101.408064
 31
0.0
  0
LINE
  8
LC-003-005-----0
  6
CONTINUOUS
  5
46
 10
-53.802881
 20
101.760611
 30
0.0
 11
-51.361315
 21
104.202177
 31
0.0
  0
LINE
  8
LC-003-005-----0
  6
CONTINUOUS
  5
47
 10
-53.802881
 20
104.589038
 30
0.0
 11
-51.395628
 21
106.996291
 31
0.0
  0
LINE
  8
LC-003-005-----0
  6
CONTINUOUS
  5
48
 10
-53.802881
 20
107.417465
 30
0.0
 11
-51.429941
 21
109.790405
 31
0.0
  0
LINE
  8
LC-003-005-----0
  6
CONTINUOUS
  5
49
 10
-53.802881
 20
110.245892
 30
0.0
 11
-51.464255
 21
112.584518
 31
0.0
  0
LINE
  8
LC-003-005-----0
  6
CONTINUOUS
  5
4A
 10
-53.802881
 20
113.074319
 30
0.0
 11
-51.498568
 21
115.378632
 31
0.0
  0
LINE
  8
LC-003-005-----0
  6
CONTINUOUS
  5
4B
 10
-53.802881
 20
115.902746
 30
0.0
 11
-51.532882
 21
118.172746
 31
0.0
  0
LINE
  8
LC-003-005-----0
  6
CONTINUOUS
  5
4C
 10
-53.802881
 20
118.731173
 30
0.0
 11
-50.465636
 21
122.068419
 31
0.0
  0
LINE
  8
LC-003-005-----0
  6
CONTINUOUS
  5
4D
 10
-53.802881
 20
121.559601
 30
0.0
 11
-52.840891
 21
122.521591
 31
0.0
  0
ENDBLK
  8
0
  5
4E
  0
BLOCK
  8
0
  5
50
  2
*X1
 70
    65
 10
-3.452881
 20
22.524096
 30
0.0
  3
*X1
  0
LINE
  8
LC-003-005-----0
  6
CONTINUOUS
  5
51
 10
-0.103321
 20
22.524096
 30
0.0
 11
1.762652
 21
24.390069
 31
0.0
  0
LINE
  8
LC-003-005-----0
  6
CONTINUOUS
  5
52
 10
-2.931748
 20
22.524096
 30
0.0
 11
-0.468058
 21
24.987786
 31
0.0
  0
LINE
  8
LC-003-005-----0
  6
CONTINUOUS
  5
53
 10
-3.452881
 20
24.83139
 30
0.0
 11
-1.452881
 21
26.83139
 31
0.0
  0
LINE
  8
LC-003-005-----0
  6
CONTINUOUS
  5
54
 10
-3.452881
 20
27.659817
 30
0.0
 11
-1.452881
 21
29.659817
 31
0.0
  0
LINE
  8
LC-003-005-----0
  6
CONTINUOUS
  5
55
 10
-3.452881
 20
30.488244
 30
0.0
 11
-1.452881
 21
32.488244
 31
0.0
  0
LINE
  8
LC-003-005-----0
  6
CONTINUOUS
  5
56
 10
-1.419535
 20
32.521591
 30
0.0
 11
0.547119
 21
34.488244
 31
0.0
  0
LINE
  8
LC-003-005-----0
  6
CONTINUOUS
  5
57
 10
-3.452881
 20
33.316671
 30
0.0
 11
-1.291965
 21
35.477588
 31
0.0
  0
LINE
  8
LC-003-005-----0
  6
CONTINUOUS
  5
58
 10
-3.452881
 20
36.145099
 30
0.0
 11
-1.452881
 21
38.145099
 31
0.0
  0
LINE
  8
LC-003-005-----0
  6
CONTINUOUS
  5
59
 10
-3.452881
 20
38.973526
 30
0.0
 11
0.547119
 21
42.973526
 31
0.0
  0
LINE
  8
LC-003-005-----0
  6
CONTINUOUS
  5
5A
 10
-3.452881
 20
41.801953
 30
0.0
 11
-0.650705
 21
44.604129
 31
0.0
  0
LINE
  8
LC-003-005-----0
  6
CONTINUOUS
  5
5B
 10
-3.414638
 20
44.668623
 30
0.0
 11
-1.252881
 21
46.83038
 31
0.0
  0
LINE
  8
LC-003-005-----0
  6
CONTINUOUS
  5
5C
 10
-0.06167
 20
48.021591
 30
0.0
 11
0.6802
 21
48.763461
 31
0.0
  0
LINE
  8
LC-003-005-----0
  6
CONTINUOUS
  5
5D
 10
-2.922662
 20
47.989026
 30
0.0
 11
7.197119
 21
58.108807
 31
0.0
  0
LINE
  8
LC-003-005-----0
  6
CONTINUOUS
  5
5E
 10
-1.273748
 20
52.466368
 30
0.0
 11
7.197119
 21
60.937234
 31
0.0
  0
LINE
  8
LC-003-005-----0
  6
CONTINUOUS
  5
5F
 10
4.222436
 20
60.790979
 30
0.0
 11
7.197119
 21
63.765661
 31
0.0
  0
LINE
  8
LC-003-005-----0
  6
CONTINUOUS
  5
60
 10
4.257603
 20
63.654572
 30
0.0
 11
7.197119
 21
66.594088
 31
0.0
  0
LINE
  8
LC-003-005-----0
  6
CONTINUOUS
  5
61
 10
4.292769
 20
66.518166
 30
0.0
 11
7.197119
 21
69.422516
 31
0.0
  0
LINE
  8
LC-003-005-----0
  6
CONTINUOUS
  5
62
 10
4.327936
 20
69.38176
 30
0.0
 11
7.197119
 21
72.250943
 31
0.0
  0
LINE
  8
LC-003-005-----0
  6
CONTINUOUS
  5
63
 10
4.363103
 20
72.245354
 30
0.0
 11
7.197119
 21
75.07937
 31
0.0
  0
LINE
  8
LC-003-005-----0
  6
CONTINUOUS
  5
64
 10
4.398269
 20
75.108948
 30
0.0
 11
7.197119
 21
77.907797
 31
0.0
  0
LINE
  8
LC-003-005-----0
  6
CONTINUOUS
  5
65
 10
4.433436
 20
77.972541
 30
0.0
 11
7.197119
 21
80.736224
 31
0.0
  0
LINE
  8
LC-003-005-----0
  6
CONTINUOUS
  5
66
 10
4.468603
 20
80.836135
 30
0.0
 11
7.197119
 21
83.564651
 31
0.0
  0
LINE
  8
LC-003-005-----0
  6
CONTINUOUS
  5
67
 10
4.50377
 20
83.699729
 30
0.0
 11
7.197119
 21
86.393078
 31
0.0
  0
LINE
  8
LC-003-005-----0
  6
CONTINUOUS
  5
68
 10
4.538936
 20
86.563323
 30
0.0
 11
7.197119
 21
89.221505
 31
0.0
  0
LINE
  8
LC-003-005-----0
  6
CONTINUOUS
  5
69
 10
4.574103
 20
89.426917
 30
0.0
 11
7.197119
 21
92.049933
 31
0.0
  0
LINE
  8
LC-003-005-----0
  6
CONTINUOUS
  5
6A
 10
4.60927
 20
92.290511
 30
0.0
 11
7.197119
 21
94.87836
 31
0.0
  0
LINE
  8
LC-003-005-----0
  6
CONTINUOUS
  5
6B
 10
4.644436
 20
95.154104
 30
0.0
 11
7.197119
 21
97.706787
 31
0.0
  0
LINE
  8
LC-003-005-----0
  6
CONTINUOUS
  5
6C
 10
4.679603
 20
98.017698
 30
0.0
 11
7.197119
 21
100.535214
 31
0.0
  0
LINE
  8
LC-003-005-----0
  6
CONTINUOUS
  5
6D
 10
4.71477
 20
100.881292
 30
0.0
 11
7.197119
 21
103.363641
 31
0.0
  0
LINE
  8
LC-003-005-----0
  6
CONTINUOUS
  5
6E
 10
4.749936
 20
103.744886
 30
0.0
 11
7.197119
 21
106.192068
 31
0.0
  0
LINE
  8
LC-003-005-----0
  6
CONTINUOUS
  5
6F
 10
4.785103
 20
106.60848
 30
0.0
 11
7.197119
 21
109.020495
 31
0.0
  0
LINE
  8
LC-003-005-----0
  6
CONTINUOUS
  5
70
 10
4.82027
 20
109.472073
 30
0.0
 11
7.197119
 21
111.848922
 31
0.0
  0
LINE
  8
LC-003-005-----0
  6
CONTINUOUS
  5
71
 10
4.855437
 20
112.335667
 30
0.0
 11
7.197119
 21
114.67735
 31
0.0
  0
LINE
  8
LC-003-005-----0
  6
CONTINUOUS
  5
72
 10
4.890603
 20
115.199261
 30
0.0
 11
7.197119
 21
117.505777
 31
0.0
  0
LINE
  8
LC-003-005-----0
  6
CONTINUOUS
  5
73
 10
4.92577
 20
118.062855
 30
0.0
 11
7.197119
 21
120.334204
 31
0.0
  0
LINE
  8
LC-003-005-----0
  6
CONTINUOUS
  5
74
 10
4.419492
 20
120.385004
 30
0.0
 11
6.556079
 21
122.521591
 31
0.0
  0
ENDBLK
  8
0
  5
75
  0
BLOCK
  8
0
  5
77
  2
*X2
 70
    65
 10
-173.457147
 20
-6.198672
 30
0.0
  3
*X2
  0
LINE
  8
LC-003-005-----0
  6
CONTINUOUS
  5
78
 10
-59.883422
 20
-6.143307
 30
0.0
 11
-57.71897
 21
-3.978854
 31
0.0
  0
LINE
  8
LC-003-005-----0
  6
CONTINUOUS
  5
79
 10
-60.481163
 20
-3.912621
 30
0.0
 11
-57.71897
 21
-1.150427
 31
0.0
  0
LINE
  8
LC-003-005-----0
  6
CONTINUOUS
  5
7A
 10
-60.802762
 20
-1.405793
 30
0.0
 11
-57.71897
 21
1.678
 31
0.0
  0
LINE
  8
LC-003-005-----0
  6
CONTINUOUS
  5
7B
 10
-60.802762
 20
1.422634
 30
0.0
 11
-57.71897
 21
4.506427
 31
0.0
  0
LINE
  8
LC-003-005-----0
  6
CONTINUOUS
  5
7C
 10
-60.802762
 20
4.251062
 30
0.0
 11
-57.71897
 21
7.334854
 31
0.0
  0
LINE
  8
LC-003-005-----0
  6
CONTINUOUS
  5
7D
 10
-60.802762
 20
7.079489
 30
0.0
 11
-57.71897
 21
10.163281
 31
0.0
  0
LINE
  8
LC-003-005-----0
  6
CONTINUOUS
  5
7E
 10
-60.802762
 20
9.907916
 30
0.0
 11
-57.71897
 21
12.991708
 31
0.0
  0
LINE
  8
LC-003-005-----0
  6
CONTINUOUS
  5
7F
 10
-60.802762
 20
12.736343
 30
0.0
 11
-57.71897
 21
15.820135
 31
0.0
  0
LINE
  8
LC-003-005-----0
  6
CONTINUOUS
  5
80
 10
-60.802762
 20
15.56477
 30
0.0
 11
-57.71897
 21
18.648563
 31
0.0
  0
LINE
  8
LC-003-005-----0
  6
CONTINUOUS
  5
81
 10
-60.802762
 20
18.393197
 30
0.0
 11
-57.71897
 21
21.47699
 31
0.0
  0
LINE
  8
LC-003-005-----0
  6
CONTINUOUS
  5
82
 10
-60.802762
 20
21.221624
 30
0.0
 11
-57.71897
 21
24.305417
 31
0.0
  0
LINE
  8
LC-003-005-----0
  6
CONTINUOUS
  5
83
 10
-60.802762
 20
24.050051
 30
0.0
 11
-57.71897
 21
27.133844
 31
0.0
  0
LINE
  8
LC-003-005-----0
  6
CONTINUOUS
  5
84
 10
-60.802762
 20
26.878479
 30
0.0
 11
-57.71897
 21
29.962271
 31
0.0
  0
LINE
  8
LC-003-005-----0
  6
CONTINUOUS
  5
85
 10
-60.802762
 20
29.706906
 30
0.0
 11
-57.71897
 21
32.790698
 31
0.0
  0
LINE
  8
LC-003-005-----0
  6
CONTINUOUS
  5
86
 10
-60.802762
 20
32.535333
 30
0.0
 11
-57.71897
 21
35.619125
 31
0.0
  0
LINE
  8
LC-003-005-----0
  6
CONTINUOUS
  5
87
 10
-60.802762
 20
35.36376
 30
0.0
 11
-57.71897
 21
38.447552
 31
0.0
  0
LINE
  8
LC-003-005-----0
  6
CONTINUOUS
  5
88
 10
-60.802762
 20
38.192187
 30
0.0
 11
-57.71897
 21
41.27598
 31
0.0
  0
LINE
  8
LC-003-005-----0
  6
CONTINUOUS
  5
89
 10
-60.802762
 20
41.020614
 30
0.0
 11
-57.71897
 21
44.104407
 31
0.0
  0
LINE
  8
LC-003-005-----0
  6
CONTINUOUS
  5
8A
 10
-60.802762
 20
43.849041
 30
0.0
 11
-57.71897
 21
46.932834
 31
0.0
  0
LINE
  8
LC-003-005-----0
  6
CONTINUOUS
  5
8B
 10
-60.802762
 20
46.677468
 30
0.0
 11
-57.71897
 21
49.761261
 31
0.0
  0
LINE
  8
LC-003-005-----0
  6
CONTINUOUS
  5
8C
 10
-60.802762
 20
49.505896
 30
0.0
 11
-57.71897
 21
52.589688
 31
0.0
  0
LINE
  8
LC-003-005-----0
  6
CONTINUOUS
  5
8D
 10
-60.802762
 20
52.334323
 30
0.0
 11
-57.71897
 21
55.418115
 31
0.0
  0
LINE
  8
LC-003-005-----0
  6
CONTINUOUS
  5
8E
 10
-63.164374
 20
52.801139
 30
0.0
 11
-60.17634
 21
55.789172
 31
0.0
  0
LINE
  8
LC-003-005-----0
  6
CONTINUOUS
  5
8F
 10
-65.992801
 20
52.801139
 30
0.0
 11
-63.004767
 21
55.789172
 31
0.0
  0
LINE
  8
LC-003-005-----0
  6
CONTINUOUS
  5
90
 10
-68.821228
 20
52.801139
 30
0.0
 11
-65.833194
 21
55.789172
 31
0.0
  0
LINE
  8
LC-003-005-----0
  6
CONTINUOUS
  5
91
 10
-71.649655
 20
52.801139
 30
0.0
 11
-68.661621
 21
55.789172
 31
0.0
  0
LINE
  8
LC-003-005-----0
  6
CONTINUOUS
  5
92
 10
-74.478082
 20
52.801139
 30
0.0
 11
-71.490048
 21
55.789172
 31
0.0
  0
LINE
  8
LC-003-005-----0
  6
CONTINUOUS
  5
93
 10
-77.306509
 20
52.801139
 30
0.0
 11
-74.318476
 21
55.789172
 31
0.0
  0
LINE
  8
LC-003-005-----0
  6
CONTINUOUS
  5
94
 10
-80.134936
 20
52.801139
 30
0.0
 11
-77.146903
 21
55.789172
 31
0.0
  0
LINE
  8
LC-003-005-----0
  6
CONTINUOUS
  5
95
 10
-82.963363
 20
52.801139
 30
0.0
 11
-79.97533
 21
55.789172
 31
0.0
  0
LINE
  8
LC-003-005-----0
  6
CONTINUOUS
  5
96
 10
-85.791791
 20
52.801139
 30
0.0
 11
-82.803757
 21
55.789172
 31
0.0
  0
LINE
  8
LC-003-005-----0
  6
CONTINUOUS
  5
97
 10
-88.620218
 20
52.801139
 30
0.0
 11
-85.632184
 21
55.789172
 31
0.0
  0
LINE
  8
LC-003-005-----0
  6
CONTINUOUS
  5
98
 10
-91.447523
 20
52.80226
 30
0.0
 11
-88.460611
 21
55.789172
 31
0.0
  0
LINE
  8
LC-003-005-----0
  6
CONTINUOUS
  5
99
 10
-93.971056
 20
53.107154
 30
0.0
 11
-91.289038
 21
55.789172
 31
0.0
  0
LINE
  8
LC-003-005-----0
  6
CONTINUOUS
  5
9A
 10
-96.094566
 20
53.812072
 30
0.0
 11
-93.820602
 21
56.086036
 31
0.0
  0
LINE
  8
LC-003-005-----0
  6
CONTINUOUS
  5
9B
 10
-97.921392
 20
54.813672
 30
0.0
 11
-95.842119
 21
56.892945
 31
0.0
  0
LINE
  8
LC-003-005-----0
  6
CONTINUOUS
  5
9C
 10
-99.495119
 20
56.068373
 30
0.0
 11
-97.499774
 21
58.063717
 31
0.0
  0
LINE
  8
LC-003-005-----0
  6
CONTINUOUS
  5
9D
 10
-100.83023
 20
57.561689
 30
0.0
 11
-98.836227
 21
59.555692
 31
0.0
  0
LINE
  8
LC-003-005-----0
  6
CONTINUOUS
  5
9E
 10
-101.919689
 20
59.300657
 30
0.0
 11
-99.838658
 21
61.381688
 31
0.0
  0
LINE
  8
LC-003-005-----0
  6
CONTINUOUS
  5
9F
 10
-102.731406
 20
61.317367
 30
0.0
 11
-100.425392
 21
63.623381
 31
0.0
  0
LINE
  8
LC-003-005-----0
  6
CONTINUOUS
  5
A0
 10
-103.18842
 20
63.68878
 30
0.0
 11
-100.496887
 21
66.380313
 31
0.0
  0
LINE
  8
LC-003-005-----0
  6
CONTINUOUS
  5
A1
 10
-103.235918
 20
66.46971
 30
0.0
 11
-100.496887
 21
69.208741
 31
0.0
  0
LINE
  8
LC-003-005-----0
  6
CONTINUOUS
  5
A2
 10
-103.235918
 20
69.298137
 30
0.0
 11
-100.496887
 21
72.037168
 31
0.0
  0
LINE
  8
LC-003-005-----0
  6
CONTINUOUS
  5
A3
 10
-103.235918
 20
72.126564
 30
0.0
 11
-100.496887
 21
74.865595
 31
0.0
  0
LINE
  8
LC-003-005-----0
  6
CONTINUOUS
  5
A4
 10
-103.235918
 20
74.954991
 30
0.0
 11
-100.496887
 21
77.694022
 31
0.0
  0
LINE
  8
LC-003-005-----0
  6
CONTINUOUS
  5
A5
 10
-103.235918
 20
77.783418
 30
0.0
 11
-100.496887
 21
80.522449
 31
0.0
  0
LINE
  8
LC-003-005-----0
  6
CONTINUOUS
  5
A6
 10
-103.235918
 20
80.611845
 30
0.0
 11
-100.496887
 21
83.350876
 31
0.0
  0
LINE
  8
LC-003-005-----0
  6
CONTINUOUS
  5
A7
 10
-103.235918
 20
83.440273
 30
0.0
 11
-100.496887
 21
86.179303
 31
0.0
  0
LINE
  8
LC-003-005-----0
  6
CONTINUOUS
  5
A8
 10
-103.235918
 20
86.2687
 30
0.0
 11
-100.496887
 21
89.00773
 31
0.0
  0
LINE
  8
LC-003-005-----0
  6
CONTINUOUS
  5
A9
 10
-103.235918
 20
89.097127
 30
0.0
 11
-100.496887
 21
91.836158
 31
0.0
  0
LINE
  8
LC-003-005-----0
  6
CONTINUOUS
  5
AA
 10
-103.235918
 20
91.925554
 30
0.0
 11
-100.496887
 21
94.664585
 31
0.0
  0
LINE
  8
LC-003-005-----0
  6
CONTINUOUS
  5
AB
 10
-103.235918
 20
94.753981
 30
0.0
 11
-100.496887
 21
97.493012
 31
0.0
  0
LINE
  8
LC-003-005-----0
  6
CONTINUOUS
  5
AC
 10
-103.235918
 20
97.582408
 30
0.0
 11
-100.496887
 21
100.321439
 31
0.0
  0
LINE
  8
LC-003-005-----0
  6
CONTINUOUS
  5
AD
 10
-103.235918
 20
100.410835
 30
0.0
 11
-100.496887
 21
103.149866
 31
0.0
  0
LINE
  8
LC-003-005-----0
  6
CONTINUOUS
  5
AE
 10
-103.235918
 20
103.239262
 30
0.0
 11
-100.496887
 21
105.978293
 31
0.0
  0
LINE
  8
LC-003-005-----0
  6
CONTINUOUS
  5
AF
 10
-103.235918
 20
106.06769
 30
0.0
 11
-100.496887
 21
108.80672
 31
0.0
  0
LINE
  8
LC-003-005-----0
  6
CONTINUOUS
  5
B0
 10
-103.235918
 20
108.896117
 30
0.0
 11
-100.496887
 21
111.635147
 31
0.0
  0
LINE
  8
LC-003-005-----0
  6
CONTINUOUS
  5
B1
 10
-103.235918
 20
111.724544
 30
0.0
 11
-100.496887
 21
114.463575
 31
0.0
  0
LINE
  8
LC-003-005-----0
  6
CONTINUOUS
  5
B2
 10
-103.235918
 20
114.552971
 30
0.0
 11
-100.496887
 21
117.292002
 31
0.0
  0
LINE
  8
LC-003-005-----0
  6
CONTINUOUS
  5
B3
 10
-103.235918
 20
117.381398
 30
0.0
 11
-100.496887
 21
120.120429
 31
0.0
  0
LINE
  8
LC-003-005-----0
  6
CONTINUOUS
  5
B4
 10
-103.235918
 20
120.209825
 30
0.0
 11
-100.496887
 21
122.948856
 31
0.0
  0
LINE
  8
LC-003-005-----0
  6
CONTINUOUS
  5
B5
 10
-103.235918
 20
123.038252
 30
0.0
 11
-100.496887
 21
125.777283
 31
0.0
  0
LINE
  8
LC-003-005-----0
  6
CONTINUOUS
  5
B6
 10
-103.612689
 20
125.489908
 30
0.0
 11
-101.044693
 21
128.057904
 31
0.0
  0
LINE
  8
LC-003-005-----0
  6
CONTINUOUS
  5
B7
 10
-104.777539
 20
127.153486
 30
0.0
 11
-100.048682
 21
131.882342
 31
0.0
  0
LINE
  8
LC-003-005-----0
  6
CONTINUOUS
  5
B8
 10
-105.942388
 20
128.817063
 30
0.0
 11
-101.044693
 21
133.714758
 31
0.0
  0
LINE
  8
LC-003-005-----0
  6
CONTINUOUS
  5
B9
 10
-107.107238
 20
130.480641
 30
0.0
 11
-101.070408
 21
136.517471
 31
0.0
  0
LINE
  8
LC-003-005-----0
  6
CONTINUOUS
  5
BA
 10
-108.272087
 20
132.144218
 30
0.0
 11
-103.302819
 21
137.113487
 31
0.0
  0
LINE
  8
LC-003-005-----0
  6
CONTINUOUS
  5
BB
 10
-109.436937
 20
133.807796
 30
0.0
 11
-106.131246
 21
137.113487
 31
0.0
  0
LINE
  8
LC-003-005-----0
  6
CONTINUOUS
  5
BC
 10
-110.601787
 20
135.471373
 30
0.0
 11
-108.959673
 21
137.113487
 31
0.0
  0
LINE
  8
LC-003-005-----0
  6
CONTINUOUS
  5
BD
 10
-111.766636
 20
137.134951
 30
0.0
 11
-109.70999
 21
139.191596
 31
0.0
  0
LINE
  8
LC-003-005-----0
  6
CONTINUOUS
  5
BE
 10
-112.449021
 20
139.280993
 30
0.0
 11
-109.70999
 21
142.020024
 31
0.0
  0
LINE
  8
LC-003-005-----0
  6
CONTINUOUS
  5
BF
 10
-112.449021
 20
142.10942
 30
0.0
 11
-109.70999
 21
144.848451
 31
0.0
  0
LINE
  8
LC-003-005-----0
  6
CONTINUOUS
  5
C0
 10
-112.583026
 20
144.803843
 30
0.0
 11
-109.70999
 21
147.676878
 31
0.0
  0
LINE
  8
LC-003-005-----0
  6
CONTINUOUS
  5
C1
 10
-114.157929
 20
146.057366
 30
0.0
 11
-109.70999
 21
150.505305
 31
0.0
  0
LINE
  8
LC-003-005-----0
  6
CONTINUOUS
  5
C2
 10
-116.427507
 20
146.616215
 30
0.0
 11
-114.304214
 21
148.739509
 31
0.0
  0
LINE
  8
LC-003-005-----0
  6
CONTINUOUS
  5
C3
 10
-111.700637
 20
151.343085
 30
0.0
 11
-109.70999
 21
153.333732
 31
0.0
  0
LINE
  8
LC-003-005-----0
  6
CONTINUOUS
  5
C4
 10
-117.597569
 20
148.27458
 30
0.0
 11
-114.820243
 21
151.051907
 31
0.0
  0
LINE
  8
LC-003-005-----0
  6
CONTINUOUS
  5
C5
 10
-111.700637
 20
154.171512
 30
0.0
 11
-111.328467
 21
154.543683
 31
0.0
  0
LINE
  8
LC-003-005-----0
  6
CONTINUOUS
  5
C6
 10
-117.804225
 20
150.896352
 30
0.0
 11
-114.961093
 21
153.739484
 31
0.0
  0
LINE
  8
LC-003-005-----0
  6
CONTINUOUS
  5
C7
 10
-118.024173
 20
153.504831
 30
0.0
 11
-115.101942
 21
156.427062
 31
0.0
  0
LINE
  8
LC-003-005-----0
  6
CONTINUOUS
  5
C8
 10
-119.88604
 20
154.471391
 30
0.0
 11
-117.086474
 21
157.270957
 31
0.0
  0
LINE
  8
LC-003-005-----0
  6
CONTINUOUS
  5
C9
 10
-122.529611
 20
154.656248
 30
0.0
 11
-119.730045
 21
157.455813
 31
0.0
  0
LINE
  8
LC-003-005-----0
  6
CONTINUOUS
  5
CA
 10
-125.173181
 20
154.841104
 30
0.0
 11
-122.373616
 21
157.640669
 31
0.0
  0
LINE
  8
LC-003-005-----0
  6
CONTINUOUS
  5
CB
 10
-127.816752
 20
155.02596
 30
0.0
 11
-125.017187
 21
157.825526
 31
0.0
  0
LINE
  8
LC-003-005-----0
  6
CONTINUOUS
  5
CC
 10
-130.460323
 20
155.210817
 30
0.0
 11
-127.660758
 21
158.010382
 31
0.0
  0
LINE
  8
LC-003-005-----0
  6
CONTINUOUS
  5
CD
 10
-132.575515
 20
155.924052
 30
0.0
 11
-130.293914
 21
158.205653
 31
0.0
  0
LINE
  8
LC-003-005-----0
  6
CONTINUOUS
  5
CE
 10
-133.989728
 20
157.338266
 30
0.0
 11
-131.957099
 21
159.370894
 31
0.0
  0
LINE
  8
LC-003-005-----0
  6
CONTINUOUS
  5
CF
 10
-136.524658
 20
157.631763
 30
0.0
 11
-133.725092
 21
160.431329
 31
0.0
  0
LINE
  8
LC-003-005-----0
  6
CONTINUOUS
  5
D0
 10
-139.168229
 20
157.816619
 30
0.0
 11
-136.368663
 21
160.616185
 31
0.0
  0
LINE
  8
LC-003-005-----0
  6
CONTINUOUS
  5
D1
 10
-141.8118
 20
158.001476
 30
0.0
 11
-139.012234
 21
160.801041
 31
0.0
  0
LINE
  8
LC-003-005-----0
  6
CONTINUOUS
  5
D2
 10
-144.45537
 20
158.186332
 30
0.0
 11
-141.655805
 21
160.985898
 31
0.0
  0
LINE
  8
LC-003-005-----0
  6
CONTINUOUS
  5
D3
 10
-147.098941
 20
158.371188
 30
0.0
 11
-144.299376
 21
161.170754
 31
0.0
  0
LINE
  8
LC-003-005-----0
  6
CONTINUOUS
  5
D4
 10
-149.742512
 20
158.556044
 30
0.0
 11
-146.942946
 21
161.35561
 31
0.0
  0
LINE
  8
LC-003-005-----0
  6
CONTINUOUS
  5
D5
 10
-152.386083
 20
158.740901
 30
0.0
 11
-149.586517
 21
161.540466
 31
0.0
  0
LINE
  8
LC-003-005-----0
  6
CONTINUOUS
  5
D6
 10
-155.029654
 20
158.925757
 30
0.0
 11
-152.230088
 21
161.725323
 31
0.0
  0
LINE
  8
LC-003-005-----0
  6
CONTINUOUS
  5
D7
 10
-157.673225
 20
159.110613
 30
0.0
 11
-154.873659
 21
161.910179
 31
0.0
  0
LINE
  8
LC-003-005-----0
  6
CONTINUOUS
  5
D8
 10
-160.316796
 20
159.29547
 30
0.0
 11
-157.51723
 21
162.095035
 31
0.0
  0
LINE
  8
LC-003-005-----0
  6
CONTINUOUS
  5
D9
 10
-162.960366
 20
159.480326
 30
0.0
 11
-160.160801
 21
162.279892
 31
0.0
  0
LINE
  8
LC-003-005-----0
  6
CONTINUOUS
  5
DA
 10
-165.603937
 20
159.665182
 30
0.0
 11
-162.804371
 21
162.464748
 31
0.0
  0
LINE
  8
LC-003-005-----0
  6
CONTINUOUS
  5
DB
 10
-168.247508
 20
159.850038
 30
0.0
 11
-165.447942
 21
162.649604
 31
0.0
  0
LINE
  8
LC-003-005-----0
  6
CONTINUOUS
  5
DC
 10
-170.891079
 20
160.034895
 30
0.0
 11
-168.091513
 21
162.834461
 31
0.0
  0
LINE
  8
LC-003-005-----0
  6
CONTINUOUS
  5
DD
 10
-173.457147
 20
160.297253
 30
0.0
 11
-170.735084
 21
163.019317
 31
0.0
  0
LINE
  8
LC-003-005-----0
  6
CONTINUOUS
  5
DE
 10
-173.457147
 20
163.12568
 30
0.0
 11
-173.378655
 21
163.204173
 31
0.0
  0
ENDBLK
  8
0
  5
DF
  0
BLOCK
  8
0
  5
E1
  2
*X3
 70
    65
 10
11.105775
 20
-6.200906
 30
0.0
  3
*X3
  0
LINE
  8
LC-003-005-----0
  6
CONTINUOUS
  5
E2
 10
11.105789
 20
-5.864774
 30
0.0
 11
14.165526
 21
-2.805037
 31
0.0
  0
LINE
  8
LC-003-005-----0
  6
CONTINUOUS
  5
E3
 10
11.105904
 20
-3.036231
 30
0.0
 11
14.189838
 21
0.047703
 31
0.0
  0
LINE
  8
LC-003-005-----0
  6
CONTINUOUS
  5
E4
 10
11.10602
 20
-0.207689
 30
0.0
 11
14.189953
 21
2.876244
 31
0.0
  0
LINE
  8
LC-003-005-----0
  6
CONTINUOUS
  5
E5
 10
11.106135
 20
2.620853
 30
0.0
 11
14.190067
 21
5.704786
 31
0.0
  0
LINE
  8
LC-003-005-----0
  6
CONTINUOUS
  5
E6
 10
11.10625
 20
5.449396
 30
0.0
 11
14.190182
 21
8.533327
 31
0.0
  0
LINE
  8
LC-003-005-----0
  6
CONTINUOUS
  5
E7
 10
11.106365
 20
8.277938
 30
0.0
 11
14.190296
 21
11.361869
 31
0.0
  0
LINE
  8
LC-003-005-----0
  6
CONTINUOUS
  5
E8
 10
11.106481
 20
11.106481
 30
0.0
 11
14.19041
 21
14.19041
 31
0.0
  0
LINE
  8
LC-003-005-----0
  6
CONTINUOUS
  5
E9
 10
11.106596
 20
13.935023
 30
0.0
 11
14.190525
 21
17.018952
 31
0.0
  0
LINE
  8
LC-003-005-----0
  6
CONTINUOUS
  5
EA
 10
11.106711
 20
16.763565
 30
0.0
 11
14.190639
 21
19.847493
 31
0.0
  0
LINE
  8
LC-003-005-----0
  6
CONTINUOUS
  5
EB
 10
47.473872
 20
53.130726
 30
0.0
 11
56.292988
 21
61.949842
 31
0.0
  0
LINE
  8
LC-003-005-----0
  6
CONTINUOUS
  5
EC
 10
11.106826
 20
19.592108
 30
0.0
 11
14.190754
 21
22.676035
 31
0.0
  0
LINE
  8
LC-003-005-----0
  6
CONTINUOUS
  5
ED
 10
44.312771
 20
52.798053
 30
0.0
 11
47.762572
 21
56.247853
 31
0.0
  0
LINE
  8
LC-003-005-----0
  6
CONTINUOUS
  5
EE
 10
53.424853
 20
61.910134
 30
0.0
 11
56.625688
 21
65.110969
 31
0.0
  0
LINE
  8
LC-003-005-----0
  6
CONTINUOUS
  5
EF
 10
11.106942
 20
22.42065
 30
0.0
 11
14.190868
 21
25.504577
 31
0.0
  0
LINE
  8
LC-003-005-----0
  6
CONTINUOUS
  5
F0
 10
41.48442
 20
52.798128
 30
0.0
 11
44.472377
 21
55.786086
 31
0.0
  0
LINE
  8
LC-003-005-----0
  6
CONTINUOUS
  5
F1
 10
53.886661
 20
65.20037
 30
0.0
 11
56.625817
 21
67.939525
 31
0.0
  0
LINE
  8
LC-003-005-----0
  6
CONTINUOUS
  5
F2
 10
11.107057
 20
25.249192
 30
0.0
 11
14.190982
 21
28.333118
 31
0.0
  0
LINE
  8
LC-003-005-----0
  6
CONTINUOUS
  5
F3
 10
38.656069
 20
52.798204
 30
0.0
 11
41.644079
 21
55.786214
 31
0.0
  0
LINE
  8
LC-003-005-----0
  6
CONTINUOUS
  5
F4
 10
53.88679
 20
68.028926
 30
0.0
 11
56.625946
 21
70.768081
 31
0.0
  0
LINE
  8
LC-003-005-----0
  6
CONTINUOUS
  5
F5
 10
11.107172
 20
28.077735
 30
0.0
 11
14.191097
 21
31.16166
 31
0.0
  0
LINE
  8
LC-003-005-----0
  6
CONTINUOUS
  5
F6
 10
35.827718
 20
52.79828
 30
0.0
 11
38.81578
 21
55.786343
 31
0.0
  0
LINE
  8
LC-003-005-----0
  6
CONTINUOUS
  5
F7
 10
53.886919
 20
70.857482
 30
0.0
 11
56.626075
 21
73.596637
 31
0.0
  0
LINE
  8
LC-003-005-----0
  6
CONTINUOUS
  5
F8
 10
11.107287
 20
30.906277
 30
0.0
 11
14.191211
 21
33.990201
 31
0.0
  0
LINE
  8
LC-003-005-----0
  6
CONTINUOUS
  5
F9
 10
32.999367
 20
52.798356
 30
0.0
 11
35.987482
 21
55.786472
 31
0.0
  0
LINE
  8
LC-003-005-----0
  6
CONTINUOUS
  5
FA
 10
53.887048
 20
73.686038
 30
0.0
 11
56.626203
 21
76.425193
 31
0.0
  0
LINE
  8
LC-003-005-----0
  6
CONTINUOUS
  5
FB
 10
11.107403
 20
33.73482
 30
0.0
 11
14.191326
 21
36.818743
 31
0.0
  0
LINE
  8
LC-003-005-----0
  6
CONTINUOUS
  5
FC
 10
30.171015
 20
52.798432
 30
0.0
 11
33.159184
 21
55.786601
 31
0.0
  0
LINE
  8
LC-003-005-----0
  6
CONTINUOUS
  5
FD
 10
53.887177
 20
76.514594
 30
0.0
 11
56.626332
 21
79.253749
 31
0.0
  0
LINE
  8
LC-003-005-----0
  6
CONTINUOUS
  5
FE
 10
11.107518
 20
36.563362
 30
0.0
 11
14.19144
 21
39.647284
 31
0.0
  0
LINE
  8
LC-003-005-----0
  6
CONTINUOUS
  5
FF
 10
27.342664
 20
52.798508
 30
0.0
 11
30.330885
 21
55.78673
 31
0.0
  0
LINE
  8
LC-003-005-----0
  6
CONTINUOUS
  5
100
 10
53.887305
 20
79.34315
 30
0.0
 11
56.626461
 21
82.082305
 31
0.0
  0
LINE
  8
LC-003-005-----0
  6
CONTINUOUS
  5
101
 10
11.107633
 20
39.391904
 30
0.0
 11
14.191554
 21
42.475826
 31
0.0
  0
LINE
  8
LC-003-005-----0
  6
CONTINUOUS
  5
102
 10
24.514313
 20
52.798584
 30
0.0
 11
27.502587
 21
55.786858
 31
0.0
  0
LINE
  8
LC-003-005-----0
  6
CONTINUOUS
  5
103
 10
53.887434
 20
82.171705
 30
0.0
 11
56.62659
 21
84.910861
 31
0.0
  0
LINE
  8
LC-003-005-----0
  6
CONTINUOUS
  5
104
 10
11.107748
 20
42.220447
 30
0.0
 11
14.191669
 21
45.304367
 31
0.0
  0
LINE
  8
LC-003-005-----0
  6
CONTINUOUS
  5
105
 10
21.685962
 20
52.79866
 30
0.0
 11
24.674289
 21
55.786987
 31
0.0
  0
LINE
  8
LC-003-005-----0
  6
CONTINUOUS
  5
106
 10
53.887563
 20
85.000261
 30
0.0
 11
56.626719
 21
87.739417
 31
0.0
  0
LINE
  8
LC-003-005-----0
  6
CONTINUOUS
  5
107
 10
11.107864
 20
45.048989
 30
0.0
 11
14.191783
 21
48.132909
 31
0.0
  0
LINE
  8
LC-003-005-----0
  6
CONTINUOUS
  5
108
 10
18.857611
 20
52.798736
 30
0.0
 11
21.84599
 21
55.787116
 31
0.0
  0
LINE
  8
LC-003-005-----0
  6
CONTINUOUS
  5
109
 10
53.887692
 20
87.828817
 30
0.0
 11
56.626847
 21
90.567973
 31
0.0
  0
LINE
  8
LC-003-005-----0
  6
CONTINUOUS
  5
10A
 10
126.222425
 20
160.163551
 30
0.0
 11
126.851275
 21
160.792401
 31
0.0
  0
LINE
  8
LC-003-005-----0
  6
CONTINUOUS
  5
10B
 10
11.107979
 20
47.877531
 30
0.0
 11
14.191898
 21
50.96145
 31
0.0
  0
LINE
  8
LC-003-005-----0
  6
CONTINUOUS
  5
10C
 10
16.02926
 20
52.798812
 30
0.0
 11
19.017692
 21
55.787245
 31
0.0
  0
LINE
  8
LC-003-005-----0
  6
CONTINUOUS
  5
10D
 10
53.887821
 20
90.657373
 30
0.0
 11
56.626976
 21
93.396529
 31
0.0
  0
LINE
  8
LC-003-005-----0
  6
CONTINUOUS
  5
10E
 10
123.181495
 20
159.951048
 30
0.0
 11
126.401858
 21
163.171411
 31
0.0
  0
LINE
  8
LC-003-005-----0
  6
CONTINUOUS
  5
10F
 10
11.108094
 20
50.706074
 30
0.0
 11
16.189394
 21
55.787374
 31
0.0
  0
LINE
  8
LC-003-005-----0
  6
CONTINUOUS
  5
110
 10
53.887949
 20
93.485929
 30
0.0
 11
56.627105
 21
96.225085
 31
0.0
  0
LINE
  8
LC-003-005-----0
  6
CONTINUOUS
  5
111
 10
120.140565
 20
159.738544
 30
0.0
 11
123.360928
 21
162.958907
 31
0.0
  0
LINE
  8
LC-003-005-----0
  6
CONTINUOUS
  5
112
 10
11.108213
 20
53.53462
 30
0.0
 11
13.361096
 21
55.787502
 31
0.0
  0
LINE
  8
LC-003-005-----0
  6
CONTINUOUS
  5
113
 10
53.888078
 20
96.314485
 30
0.0
 11
56.627234
 21
99.053641
 31
0.0
  0
LINE
  8
LC-003-005-----0
  6
CONTINUOUS
  5
114
 10
117.099634
 20
159.526041
 30
0.0
 11
120.319997
 21
162.746404
 31
0.0
  0
LINE
  8
LC-003-005-----0
  6
CONTINUOUS
  5
115
 10
53.888207
 20
99.143041
 30
0.0
 11
56.627363
 21
101.882197
 31
0.0
  0
LINE
  8
LC-003-005-----0
  6
CONTINUOUS
  5
116
 10
114.058704
 20
159.313538
 30
0.0
 11
117.279067
 21
162.533901
 31
0.0
  0
LINE
  8
LC-003-005-----0
  6
CONTINUOUS
  5
117
 10
53.888336
 20
101.971597
 30
0.0
 11
56.627491
 21
104.710753
 31
0.0
  0
LINE
  8
LC-003-005-----0
  6
CONTINUOUS
  5
118
 10
111.017774
 20
159.101035
 30
0.0
 11
114.238137
 21
162.321398
 31
0.0
  0
LINE
  8
LC-003-005-----0
  6
CONTINUOUS
  5
119
 10
53.888465
 20
104.800153
 30
0.0
 11
56.62762
 21
107.539308
 31
0.0
  0
LINE
  8
LC-003-005-----0
  6
CONTINUOUS
  5
11A
 10
107.976843
 20
158.888532
 30
0.0
 11
111.197206
 21
162.108895
 31
0.0
  0
LINE
  8
LC-003-005-----0
  6
CONTINUOUS
  5
11B
 10
53.888594
 20
107.628709
 30
0.0
 11
56.627749
 21
110.367864
 31
0.0
  0
LINE
  8
LC-003-005-----0
  6
CONTINUOUS
  5
11C
 10
104.935913
 20
158.676029
 30
0.0
 11
108.156276
 21
161.896391
 31
0.0
  0
LINE
  8
LC-003-005-----0
  6
CONTINUOUS
  5
11D
 10
53.888722
 20
110.457265
 30
0.0
 11
56.627878
 21
113.19642
 31
0.0
  0
LINE
  8
LC-003-005-----0
  6
CONTINUOUS
  5
11E
 10
101.894983
 20
158.463525
 30
0.0
 11
105.115346
 21
161.683888
 31
0.0
  0
LINE
  8
LC-003-005-----0
  6
CONTINUOUS
  5
11F
 10
53.888851
 20
113.285821
 30
0.0
 11
56.628007
 21
116.024976
 31
0.0
  0
LINE
  8
LC-003-005-----0
  6
CONTINUOUS
  5
120
 10
98.854053
 20
158.251022
 30
0.0
 11
102.074415
 21
161.471385
 31
0.0
  0
LINE
  8
LC-003-005-----0
  6
CONTINUOUS
  5
121
 10
53.88898
 20
116.114377
 30
0.0
 11
56.628135
 21
118.853532
 31
0.0
  0
LINE
  8
LC-003-005-----0
  6
CONTINUOUS
  5
122
 10
95.813122
 20
158.038519
 30
0.0
 11
99.033485
 21
161.258882
 31
0.0
  0
LINE
  8
LC-003-005-----0
  6
CONTINUOUS
  5
123
 10
53.889109
 20
118.942933
 30
0.0
 11
56.628264
 21
121.682088
 31
0.0
  0
LINE
  8
LC-003-005-----0
  6
CONTINUOUS
  5
124
 10
92.772192
 20
157.826016
 30
0.0
 11
95.992555
 21
161.046379
 31
0.0
  0
LINE
  8
LC-003-005-----0
  6
CONTINUOUS
  5
125
 10
53.889238
 20
121.771489
 30
0.0
 11
56.628393
 21
124.510644
 31
0.0
  0
LINE
  8
LC-003-005-----0
  6
CONTINUOUS
  5
126
 10
89.731262
 20
157.613513
 30
0.0
 11
92.951624
 21
160.833875
 31
0.0
  0
LINE
  8
LC-003-005-----0
  6
CONTINUOUS
  5
127
 10
53.889366
 20
124.600044
 30
0.0
 11
62.214523
 21
132.925201
 31
0.0
  0
LINE
  8
LC-003-005-----0
  6
CONTINUOUS
  5
128
 10
84.543422
 20
155.2541
 30
0.0
 11
89.910694
 21
160.621372
 31
0.0
  0
LINE
  8
LC-003-005-----0
  6
CONTINUOUS
  5
129
 10
53.889495
 20
127.4286
 30
0.0
 11
54.357741
 21
127.896846
 31
0.0
  0
LINE
  8
LC-003-005-----0
  6
CONTINUOUS
  5
12A
 10
54.437326
 20
127.976432
 30
0.0
 11
65.842174
 21
139.381279
 31
0.0
  0
LINE
  8
LC-003-005-----0
  6
CONTINUOUS
  5
12B
 10
81.502492
 20
155.041597
 30
0.0
 11
86.869764
 21
160.408869
 31
0.0
  0
LINE
  8
LC-003-005-----0
  6
CONTINUOUS
  5
12C
 10
54.437455
 20
130.804987
 30
0.0
 11
60.742127
 21
137.109659
 31
0.0
  0
LINE
  8
LC-003-005-----0
  6
CONTINUOUS
  5
12D
 10
63.103147
 20
139.47068
 30
0.0
 11
65.842303
 21
142.209835
 31
0.0
  0
LINE
  8
LC-003-005-----0
  6
CONTINUOUS
  5
12E
 10
78.461562
 20
154.829094
 30
0.0
 11
81.681924
 21
158.049456
 31
0.0
  0
LINE
  8
LC-003-005-----0
  6
CONTINUOUS
  5
12F
 10
54.437584
 20
133.633543
 30
0.0
 11
57.913829
 21
137.109788
 31
0.0
  0
LINE
  8
LC-003-005-----0
  6
CONTINUOUS
  5
130
 10
63.103276
 20
142.299235
 30
0.0
 11
71.170324
 21
150.366283
 31
0.0
  0
LINE
  8
LC-003-005-----0
  6
CONTINUOUS
  5
131
 10
75.420631
 20
154.616591
 30
0.0
 11
78.640994
 21
157.836953
 31
0.0
  0
LINE
  8
LC-003-005-----0
  6
CONTINUOUS
  5
132
 10
53.441656
 20
135.466043
 30
0.0
 11
54.288758
 21
136.313144
 31
0.0
  0
LINE
  8
LC-003-005-----0
  6
CONTINUOUS
  5
133
 10
54.455318
 20
136.479705
 30
0.0
 11
55.067911
 21
137.092298
 31
0.0
  0
LINE
  8
LC-003-005-----0
  6
CONTINUOUS
  5
134
 10
63.103405
 20
145.127791
 30
0.0
 11
66.539137
 21
148.563524
 31
0.0
  0
LINE
  8
LC-003-005-----0
  6
CONTINUOUS
  5
135
 10
68.169119
 20
150.193506
 30
0.0
 11
71.383773
 21
153.40816
 31
0.0
  0
LINE
  8
LC-003-005-----0
  6
CONTINUOUS
  5
136
 10
72.3289
 20
154.353286
 30
0.0
 11
75.600063
 21
157.62445
 31
0.0
  0
LINE
  8
LC-003-005-----0
  6
CONTINUOUS
  5
137
 10
63.103534
 20
147.956347
 30
0.0
 11
65.094271
 21
149.947085
 31
0.0
  0
LINE
  8
LC-003-005-----0
  6
CONTINUOUS
  5
138
 10
68.325693
 20
153.178506
 30
0.0
 11
72.559133
 21
157.411947
 31
0.0
  0
LINE
  8
LC-003-005-----0
  6
CONTINUOUS
  5
139
 10
63.103662
 20
150.784903
 30
0.0
 11
65.0944
 21
152.775641
 31
0.0
  0
LINE
  8
LC-003-005-----0
  6
CONTINUOUS
  5
13A
 10
68.482266
 20
156.163507
 30
0.0
 11
69.518203
 21
157.199444
 31
0.0
  0
LINE
  8
LC-003-005-----0
  6
CONTINUOUS
  5
13B
 10
63.103791
 20
153.613459
 30
0.0
 11
64.030038
 21
154.539706
 31
0.0
  0
ENDBLK
  8
0
  5
13C
  0
BLOCK
  8
0
  5
13E
  2
*X4
 70
    65
 10
-102.552881
 20
25.789172
 30
0.0
  3
*X4
  0
LINE
  8
LC-003-005-----0
  6
CONTINUOUS
  5
13F
 10
44.497103
 20
55.810811
 30
0.0
 11
45.753996
 21
57.067704
 31
0.0
  0
LINE
  8
LC-003-005-----0
  6
CONTINUOUS
  5
140
 10
49.668587
 20
60.982295
 30
0.0
 11
50.925479
 21
62.239188
 31
0.0
  0
LINE
  8
LC-003-005-----0
  6
CONTINUOUS
  5
141
 10
41.647037
 20
55.789172
 30
0.0
 11
42.647037
 21
56.789172
 31
0.0
  0
LINE
  8
LC-003-005-----0
  6
CONTINUOUS
  5
142
 10
49.947119
 20
64.089254
 30
0.0
 11
50.947119
 21
65.089254
 31
0.0
  0
LINE
  8
LC-003-005-----0
  6
CONTINUOUS
  5
143
 10
38.818609
 20
55.789172
 30
0.0
 11
39.818609
 21
56.789172
 31
0.0
  0
LINE
  8
LC-003-005-----0
  6
CONTINUOUS
  5
144
 10
49.947119
 20
66.917682
 30
0.0
 11
50.947119
 21
67.917682
 31
0.0
  0
LINE
  8
LC-003-005-----0
  6
CONTINUOUS
  5
145
 10
35.990182
 20
55.789172
 30
0.0
 11
36.990182
 21
56.789172
 31
0.0
  0
LINE
  8
LC-003-005-----0
  6
CONTINUOUS
  5
146
 10
49.947119
 20
69.746109
 30
0.0
 11
50.947119
 21
70.746109
 31
0.0
  0
LINE
  8
LC-003-005-----0
  6
CONTINUOUS
  5
147
 10
33.161755
 20
55.789172
 30
0.0
 11
34.161755
 21
56.789172
 31
0.0
  0
LINE
  8
LC-003-005-----0
  6
CONTINUOUS
  5
148
 10
49.947119
 20
72.574536
 30
0.0
 11
50.947119
 21
73.574536
 31
0.0
  0
LINE
  8
LC-003-005-----0
  6
CONTINUOUS
  5
149
 10
0.697119
 20
26.152963
 30
0.0
 11
1.697119
 21
27.152963
 31
0.0
  0
LINE
  8
LC-003-005-----0
  6
CONTINUOUS
  5
14A
 10
30.333328
 20
55.789172
 30
0.0
 11
31.333328
 21
56.789172
 31
0.0
  0
LINE
  8
LC-003-005-----0
  6
CONTINUOUS
  5
14B
 10
49.947119
 20
75.402963
 30
0.0
 11
50.947119
 21
76.402963
 31
0.0
  0
LINE
  8
LC-003-005-----0
  6
CONTINUOUS
  5
14C
 10
0.697119
 20
28.98139
 30
0.0
 11
1.697119
 21
29.98139
 31
0.0
  0
LINE
  8
LC-003-005-----0
  6
CONTINUOUS
  5
14D
 10
27.504901
 20
55.789172
 30
0.0
 11
28.504901
 21
56.789172
 31
0.0
  0
LINE
  8
LC-003-005-----0
  6
CONTINUOUS
  5
14E
 10
49.947119
 20
78.23139
 30
0.0
 11
50.947119
 21
79.23139
 31
0.0
  0
LINE
  8
LC-003-005-----0
  6
CONTINUOUS
  5
14F
 10
0.697119
 20
31.809817
 30
0.0
 11
1.697119
 21
32.809817
 31
0.0
  0
LINE
  8
LC-003-005-----0
  6
CONTINUOUS
  5
150
 10
24.676474
 20
55.789172
 30
0.0
 11
25.676474
 21
56.789172
 31
0.0
  0
LINE
  8
LC-003-005-----0
  6
CONTINUOUS
  5
151
 10
49.947119
 20
81.059817
 30
0.0
 11
50.947119
 21
82.059817
 31
0.0
  0
LINE
  8
LC-003-005-----0
  6
CONTINUOUS
  5
152
 10
0.697119
 20
34.638244
 30
0.0
 11
1.697119
 21
35.638244
 31
0.0
  0
LINE
  8
LC-003-005-----0
  6
CONTINUOUS
  5
153
 10
21.848047
 20
55.789172
 30
0.0
 11
22.848047
 21
56.789172
 31
0.0
  0
LINE
  8
LC-003-005-----0
  6
CONTINUOUS
  5
154
 10
49.947119
 20
83.888244
 30
0.0
 11
50.947119
 21
84.888244
 31
0.0
  0
LINE
  8
LC-003-005-----0
  6
CONTINUOUS
  5
155
 10
0.697119
 20
37.466671
 30
0.0
 11
1.697119
 21
38.466671
 31
0.0
  0
LINE
  8
LC-003-005-----0
  6
CONTINUOUS
  5
156
 10
19.01962
 20
55.789172
 30
0.0
 11
20.01962
 21
56.789172
 31
0.0
  0
LINE
  8
LC-003-005-----0
  6
CONTINUOUS
  5
157
 10
49.947119
 20
86.716671
 30
0.0
 11
50.947119
 21
87.716671
 31
0.0
  0
LINE
  8
LC-003-005-----0
  6
CONTINUOUS
  5
158
 10
0.697119
 20
40.295099
 30
0.0
 11
1.697119
 21
41.295099
 31
0.0
  0
LINE
  8
LC-003-005-----0
  6
CONTINUOUS
  5
159
 10
16.191192
 20
55.789172
 30
0.0
 11
17.191192
 21
56.789172
 31
0.0
  0
LINE
  8
LC-003-005-----0
  6
CONTINUOUS
  5
15A
 10
49.947119
 20
89.545099
 30
0.0
 11
50.947119
 21
90.545099
 31
0.0
  0
LINE
  8
LC-003-005-----0
  6
CONTINUOUS
  5
15B
 10
0.697119
 20
43.123526
 30
0.0
 11
1.697119
 21
44.123526
 31
0.0
  0
LINE
  8
LC-003-005-----0
  6
CONTINUOUS
  5
15C
 10
13.362765
 20
55.789172
 30
0.0
 11
14.362765
 21
56.789172
 31
0.0
  0
LINE
  8
LC-003-005-----0
  6
CONTINUOUS
  5
15D
 10
49.947119
 20
92.373526
 30
0.0
 11
50.947119
 21
93.373526
 31
0.0
  0
LINE
  8
LC-003-005-----0
  6
CONTINUOUS
  5
15E
 10
0.697119
 20
45.951953
 30
0.0
 11
1.698618
 21
46.953452
 31
0.0
  0
LINE
  8
LC-003-005-----0
  6
CONTINUOUS
  5
15F
 10
10.532839
 20
55.787673
 30
0.0
 11
11.534338
 21
56.789172
 31
0.0
  0
LINE
  8
LC-003-005-----0
  6
CONTINUOUS
  5
160
 10
49.947119
 20
95.201953
 30
0.0
 11
50.947119
 21
96.201953
 31
0.0
  0
LINE
  8
LC-003-005-----0
  6
CONTINUOUS
  5
161
 10
0.952817
 20
49.036078
 30
0.0
 11
2.567801
 21
50.651062
 31
0.0
  0
LINE
  8
LC-003-005-----0
  6
CONTINUOUS
  5
162
 10
6.835229
 20
54.91849
 30
0.0
 11
8.450213
 21
56.533474
 31
0.0
  0
LINE
  8
LC-003-005-----0
  6
CONTINUOUS
  5
163
 10
49.947119
 20
98.03038
 30
0.0
 11
50.947119
 21
99.03038
 31
0.0
  0
LINE
  8
LC-003-005-----0
  6
CONTINUOUS
  5
164
 10
49.947119
 20
100.858807
 30
0.0
 11
50.947119
 21
101.858807
 31
0.0
  0
LINE
  8
LC-003-005-----0
  6
CONTINUOUS
  5
165
 10
49.947119
 20
103.687234
 30
0.0
 11
50.947119
 21
104.687234
 31
0.0
  0
LINE
  8
LC-003-005-----0
  6
CONTINUOUS
  5
166
 10
49.947119
 20
106.515661
 30
0.0
 11
50.947119
 21
107.515661
 31
0.0
  0
LINE
  8
LC-003-005-----0
  6
CONTINUOUS
  5
167
 10
49.947119
 20
109.344088
 30
0.0
 11
50.947119
 21
110.344088
 31
0.0
  0
LINE
  8
LC-003-005-----0
  6
CONTINUOUS
  5
168
 10
49.947119
 20
112.172516
 30
0.0
 11
50.947119
 21
113.172516
 31
0.0
  0
LINE
  8
LC-003-005-----0
  6
CONTINUOUS
  5
169
 10
49.947119
 20
115.000943
 30
0.0
 11
50.947119
 21
116.000943
 31
0.0
  0
LINE
  8
LC-003-005-----0
  6
CONTINUOUS
  5
16A
 10
49.947119
 20
117.82937
 30
0.0
 11
50.947531
 21
118.829782
 31
0.0
  0
LINE
  8
LC-003-005-----0
  6
CONTINUOUS
  5
16B
 10
52.36296
 20
123.073638
 30
0.0
 11
53.441279
 21
124.151957
 31
0.0
  0
LINE
  8
LC-003-005-----0
  6
CONTINUOUS
  5
16C
 10
-47.749933
 20
25.789172
 30
0.0
 11
-47.302881
 21
26.236224
 31
0.0
  0
LINE
  8
LC-003-005-----0
  6
CONTINUOUS
  5
16D
 10
52.576963
 20
126.116068
 30
0.0
 11
53.655282
 21
127.194387
 31
0.0
  0
LINE
  8
LC-003-005-----0
  6
CONTINUOUS
  5
16E
 10
-48.302881
 20
28.064651
 30
0.0
 11
-47.302881
 21
29.064651
 31
0.0
  0
LINE
  8
LC-003-005-----0
  6
CONTINUOUS
  5
16F
 10
-48.302881
 20
30.893078
 30
0.0
 11
-47.302881
 21
31.893078
 31
0.0
  0
LINE
  8
LC-003-005-----0
  6
CONTINUOUS
  5
170
 10
-48.302881
 20
33.721505
 30
0.0
 11
-47.302881
 21
34.721505
 31
0.0
  0
LINE
  8
LC-003-005-----0
  6
CONTINUOUS
  5
171
 10
-48.302881
 20
36.549933
 30
0.0
 11
-47.302881
 21
37.549933
 31
0.0
  0
LINE
  8
LC-003-005-----0
  6
CONTINUOUS
  5
172
 10
-48.302881
 20
39.37836
 30
0.0
 11
-47.302881
 21
40.37836
 31
0.0
  0
LINE
  8
LC-003-005-----0
  6
CONTINUOUS
  5
173
 10
-48.302881
 20
42.206787
 30
0.0
 11
-47.302881
 21
43.206787
 31
0.0
  0
LINE
  8
LC-003-005-----0
  6
CONTINUOUS
  5
174
 10
-48.302881
 20
45.035214
 30
0.0
 11
-47.302881
 21
46.035214
 31
0.0
  0
LINE
  8
LC-003-005-----0
  6
CONTINUOUS
  5
175
 10
-48.360508
 20
47.806014
 30
0.0
 11
-47.483795
 21
48.682727
 31
0.0
  0
LINE
  8
LC-003-005-----0
  6
CONTINUOUS
  5
176
 10
-48.922959
 20
50.071991
 30
0.0
 11
-48.158506
 21
50.836443
 31
0.0
  0
LINE
  8
LC-003-005-----0
  6
CONTINUOUS
  5
177
 10
-49.906492
 20
51.916884
 30
0.0
 11
-49.189053
 21
52.634323
 31
0.0
  0
LINE
  8
LC-003-005-----0
  6
CONTINUOUS
  5
178
 10
-51.224952
 20
53.426851
 30
0.0
 11
-50.517229
 21
54.134574
 31
0.0
  0
LINE
  8
LC-003-005-----0
  6
CONTINUOUS
  5
179
 10
-52.862635
 20
54.617596
 30
0.0
 11
-52.131836
 21
55.348395
 31
0.0
  0
LINE
  8
LC-003-005-----0
  6
CONTINUOUS
  5
17A
 10
-54.857945
 20
55.450713
 30
0.0
 11
-54.059927
 21
56.248731
 31
0.0
  0
LINE
  8
LC-003-005-----0
  6
CONTINUOUS
  5
17B
 10
-57.347913
 20
55.789172
 30
0.0
 11
-56.389696
 21
56.747389
 31
0.0
  0
LINE
  8
LC-003-005-----0
  6
CONTINUOUS
  5
17C
 10
-60.17634
 20
55.789172
 30
0.0
 11
-59.17634
 21
56.789172
 31
0.0
  0
LINE
  8
LC-003-005-----0
  6
CONTINUOUS
  5
17D
 10
-63.004767
 20
55.789172
 30
0.0
 11
-62.004767
 21
56.789172
 31
0.0
  0
LINE
  8
LC-003-005-----0
  6
CONTINUOUS
  5
17E
 10
-65.833194
 20
55.789172
 30
0.0
 11
-64.833194
 21
56.789172
 31
0.0
  0
LINE
  8
LC-003-005-----0
  6
CONTINUOUS
  5
17F
 10
-68.661621
 20
55.789172
 30
0.0
 11
-67.661621
 21
56.789172
 31
0.0
  0
LINE
  8
LC-003-005-----0
  6
CONTINUOUS
  5
180
 10
-71.490048
 20
55.789172
 30
0.0
 11
-70.490048
 21
56.789172
 31
0.0
  0
LINE
  8
LC-003-005-----0
  6
CONTINUOUS
  5
181
 10
-74.318476
 20
55.789172
 30
0.0
 11
-73.318476
 21
56.789172
 31
0.0
  0
LINE
  8
LC-003-005-----0
  6
CONTINUOUS
  5
182
 10
-77.146903
 20
55.789172
 30
0.0
 11
-76.146903
 21
56.789172
 31
0.0
  0
LINE
  8
LC-003-005-----0
  6
CONTINUOUS
  5
183
 10
-79.97533
 20
55.789172
 30
0.0
 11
-78.97533
 21
56.789172
 31
0.0
  0
LINE
  8
LC-003-005-----0
  6
CONTINUOUS
  5
184
 10
-82.803757
 20
55.789172
 30
0.0
 11
-81.803757
 21
56.789172
 31
0.0
  0
LINE
  8
LC-003-005-----0
  6
CONTINUOUS
  5
185
 10
-85.632184
 20
55.789172
 30
0.0
 11
-84.632184
 21
56.789172
 31
0.0
  0
LINE
  8
LC-003-005-----0
  6
CONTINUOUS
  5
186
 10
-88.460611
 20
55.789172
 30
0.0
 11
-87.460611
 21
56.789172
 31
0.0
  0
LINE
  8
LC-003-005-----0
  6
CONTINUOUS
  5
187
 10
-91.253853
 20
55.824358
 30
0.0
 11
-90.289038
 21
56.789172
 31
0.0
  0
LINE
  8
LC-003-005-----0
  6
CONTINUOUS
  5
188
 10
-93.477315
 20
56.429323
 30
0.0
 11
-92.714539
 21
57.192098
 31
0.0
  0
LINE
  8
LC-003-005-----0
  6
CONTINUOUS
  5
189
 10
-95.189821
 20
57.545244
 30
0.0
 11
-94.481159
 21
58.253906
 31
0.0
  0
LINE
  8
LC-003-005-----0
  6
CONTINUOUS
  5
18A
 10
-96.487116
 20
59.076376
 30
0.0
 11
-95.758268
 21
59.805224
 31
0.0
  0
LINE
  8
LC-003-005-----0
  6
CONTINUOUS
  5
18B
 10
-97.335127
 20
61.056792
 30
0.0
 11
-96.487318
 21
61.904601
 31
0.0
  0
LINE
  8
LC-003-005-----0
  6
CONTINUOUS
  5
18C
 10
-97.552881
 20
63.667465
 30
0.0
 11
-96.552881
 21
64.667465
 31
0.0
  0
LINE
  8
LC-003-005-----0
  6
CONTINUOUS
  5
18D
 10
-97.552881
 20
66.495892
 30
0.0
 11
-96.552881
 21
67.495892
 31
0.0
  0
LINE
  8
LC-003-005-----0
  6
CONTINUOUS
  5
18E
 10
-97.552881
 20
69.324319
 30
0.0
 11
-96.552881
 21
70.324319
 31
0.0
  0
LINE
  8
LC-003-005-----0
  6
CONTINUOUS
  5
18F
 10
-97.552881
 20
72.152746
 30
0.0
 11
-96.552881
 21
73.152746
 31
0.0
  0
LINE
  8
LC-003-005-----0
  6
CONTINUOUS
  5
190
 10
-97.552881
 20
74.981173
 30
0.0
 11
-96.552881
 21
75.981173
 31
0.0
  0
LINE
  8
LC-003-005-----0
  6
CONTINUOUS
  5
191
 10
-97.552881
 20
77.809601
 30
0.0
 11
-96.552881
 21
78.809601
 31
0.0
  0
LINE
  8
LC-003-005-----0
  6
CONTINUOUS
  5
192
 10
-97.552881
 20
80.638028
 30
0.0
 11
-96.552881
 21
81.638028
 31
0.0
  0
LINE
  8
LC-003-005-----0
  6
CONTINUOUS
  5
193
 10
-97.552881
 20
83.466455
 30
0.0
 11
-96.552881
 21
84.466455
 31
0.0
  0
LINE
  8
LC-003-005-----0
  6
CONTINUOUS
  5
194
 10
-97.552881
 20
86.294882
 30
0.0
 11
-96.552881
 21
87.294882
 31
0.0
  0
LINE
  8
LC-003-005-----0
  6
CONTINUOUS
  5
195
 10
-97.552881
 20
89.123309
 30
0.0
 11
-96.552881
 21
90.123309
 31
0.0
  0
LINE
  8
LC-003-005-----0
  6
CONTINUOUS
  5
196
 10
-97.552881
 20
91.951736
 30
0.0
 11
-96.552881
 21
92.951736
 31
0.0
  0
LINE
  8
LC-003-005-----0
  6
CONTINUOUS
  5
197
 10
-97.552881
 20
94.780163
 30
0.0
 11
-96.552881
 21
95.780163
 31
0.0
  0
LINE
  8
LC-003-005-----0
  6
CONTINUOUS
  5
198
 10
-97.552881
 20
97.60859
 30
0.0
 11
-96.552881
 21
98.60859
 31
0.0
  0
LINE
  8
LC-003-005-----0
  6
CONTINUOUS
  5
199
 10
-97.552881
 20
100.437018
 30
0.0
 11
-96.552881
 21
101.437018
 31
0.0
  0
LINE
  8
LC-003-005-----0
  6
CONTINUOUS
  5
19A
 10
-97.552881
 20
103.265445
 30
0.0
 11
-96.552881
 21
104.265445
 31
0.0
  0
LINE
  8
LC-003-005-----0
  6
CONTINUOUS
  5
19B
 10
-97.552881
 20
106.093872
 30
0.0
 11
-96.552881
 21
107.093872
 31
0.0
  0
LINE
  8
LC-003-005-----0
  6
CONTINUOUS
  5
19C
 10
-97.552881
 20
108.922299
 30
0.0
 11
-96.552881
 21
109.922299
 31
0.0
  0
LINE
  8
LC-003-005-----0
  6
CONTINUOUS
  5
19D
 10
-97.552881
 20
111.750726
 30
0.0
 11
-96.552881
 21
112.750726
 31
0.0
  0
LINE
  8
LC-003-005-----0
  6
CONTINUOUS
  5
19E
 10
-97.552881
 20
114.579153
 30
0.0
 11
-96.552881
 21
115.579153
 31
0.0
  0
LINE
  8
LC-003-005-----0
  6
CONTINUOUS
  5
19F
 10
-97.552881
 20
117.40758
 30
0.0
 11
-96.552881
 21
118.40758
 31
0.0
  0
LINE
  8
LC-003-005-----0
  6
CONTINUOUS
  5
1A0
 10
-97.889395
 20
119.899494
 30
0.0
 11
-97.173086
 21
120.615802
 31
0.0
  0
LINE
  8
LC-003-005-----0
  6
CONTINUOUS
  5
1A1
 10
-99.596464
 20
121.020852
 30
0.0
 11
-98.875072
 21
121.742243
 31
0.0
  0
LINE
  8
LC-003-005-----0
  6
CONTINUOUS
  5
1A2
 10
-99.99754
 20
123.448203
 30
0.0
 11
-99.060948
 21
124.384795
 31
0.0
  0
LINE
  8
LC-003-005-----0
  6
CONTINUOUS
  5
1A3
 10
-100.183415
 20
126.090755
 30
0.0
 11
-99.246824
 21
127.027346
 31
0.0
  0
LINE
  8
LC-003-005-----0
  6
CONTINUOUS
  5
1A4
 10
-100.473039
 20
128.629558
 30
0.0
 11
-99.765774
 21
129.336823
 31
0.0
  0
ENDBLK
  8
0
  5
1A5
  0
BLOCK
  8
0
  5
1A7
  2
BLK1
 70
    64
 10
0.0
 20
0.0
 30
0.0
  3
BLK1
  0
ENDBLK
  8
0
  5
1A8
  0
BLOCK
  8
0
  5
1AA
  2
BLK2
 70
    64
 10
0.0
 20
0.0
 30
0.0
  3
BLK2
  0
ENDBLK
  8
0
  5
1AB
  0
BLOCK
  8
0
  5
1AD
  2
*X7
 70
    65
 10
-47.147869
 20
44.526603
 30
0.0
  3
*X7
  0
LINE
  8
LC-003-005-----0
  6
DASHED
  5
1AF
 10
-45.360015
 20
45.360015
 30
0.0
 11
-47.147494
 21
47.147494
 31
0.0
  0
LINE
  8
LC-003-005-----0
  6
DASHED
  5
1B0
 10
-45.982603
 20
44.56839
 30
0.0
 11
-47.147869
 21
45.733655
 31
0.0
  0
ENDBLK
  8
0
  5
1B1
  0
BLOCK
  8
0
  5
1B3
  2
*X8
 70
    65
 10
-1.252881
 20
44.526603
 30
0.0
  3
*X8
  0
LINE
  8
LC-003-005-----0
  6
DASHED
  5
1B4
 10
0.366153
 20
44.888681
 30
0.0
 11
-1.252881
 21
46.507715
 31
0.0
  0
LINE
  8
LC-003-005-----0
  6
DASHED
  5
1B5
 10
-0.81379
 20
44.654411
 30
0.0
 11
-1.120061
 21
44.960682
 31
0.0
  0
ENDBLK
  8
0
  5
1B6
  0
BLOCK
  8
0
  5
1B8
  2
BLK3
 70
    64
 10
0.0
 20
0.0
 30
0.0
  3
BLK3
  0
ENDBLK
  8
0
  5
1B9
  0
BLOCK
  8
0
  5
1BB
  2
BLK4
 70
    64
 10
0.0
 20
0.0
 30
0.0
  3
BLK4
  0
ENDBLK
  8
0
  5
1BC
  0
BLOCK
  8
0
  5
1BE
  2
*X11
 70
    65
 10
46.193277
 20
137.424069
 30
0.0
  3
*X11
  0
LINE
  8
LC-003-005-----0
  6
CONTINUOUS
  5
1BF
 10
52.571256
 20
137.424069
 30
0.0
 11
55.693277
 21
140.54609
 31
0.0
  0
LINE
  8
LC-003-005-----0
  6
CONTINUOUS
  5
1C0
 10
66.014503
 20
150.867317
 30
0.0
 11
67.755301
 21
152.608115
 31
0.0
  0
LINE
  8
LC-003-005-----0
  6
CONTINUOUS
  5
1C1
 10
49.742829
 20
137.424069
 30
0.0
 11
55.693277
 21
143.374518
 31
0.0
  0
LINE
  8
LC-003-005-----0
  6
CONTINUOUS
  5
1C2
 10
65.693062
 20
153.374303
 30
0.0
 11
68.226737
 21
155.907978
 31
0.0
  0
LINE
  8
LC-003-005-----0
  6
CONTINUOUS
  5
1C3
 10
46.914401
 20
137.424069
 30
0.0
 11
55.693277
 21
146.202945
 31
0.0
  0
LINE
  8
LC-003-005-----0
  6
CONTINUOUS
  5
1C4
 10
64.104498
 20
154.614166
 30
0.0
 11
66.799022
 21
157.30869
 31
0.0
  0
LINE
  8
LC-003-005-----0
  6
CONTINUOUS
  5
1C5
 10
46.193277
 20
139.531372
 30
0.0
 11
47.085974
 21
140.424069
 31
0.0
  0
LINE
  8
LC-003-005-----0
  6
CONTINUOUS
  5
1C6
 10
48.943277
 20
142.281372
 30
0.0
 11
55.693277
 21
149.031372
 31
0.0
  0
LINE
  8
LC-003-005-----0
  6
CONTINUOUS
  5
1C7
 10
61.063417
 20
154.401513
 30
0.0
 11
63.757942
 21
157.096037
 31
0.0
  0
LINE
  8
LC-003-005-----0
  6
CONTINUOUS
  5
1C8
 10
48.943277
 20
145.109799
 30
0.0
 11
55.693277
 21
151.859799
 31
0.0
  0
LINE
  8
LC-003-005-----0
  6
CONTINUOUS
  5
1C9
 10
58.022337
 20
154.18886
 30
0.0
 11
60.716862
 21
156.883384
 31
0.0
  0
LINE
  8
LC-003-005-----0
  6
CONTINUOUS
  5
1CA
 10
48.943277
 20
147.938226
 30
0.0
 11
57.675781
 21
156.670731
 31
0.0
  0
LINE
  8
LC-003-005-----0
  6
CONTINUOUS
  5
1CB
 10
48.943277
 20
150.766653
 30
0.0
 11
54.634701
 21
156.458078
 31
0.0
  0
LINE
  8
LC-003-005-----0
  6
CONTINUOUS
  5
1CC
 10
48.943277
 20
153.59508
 30
0.0
 11
51.593621
 21
156.245425
 31
0.0
  0
ENDBLK
  8
0
  5
1CD
  0
BLOCK
  8
0
  5
1CF
  2
*X12
 70
    65
 10
-115.056723
 20
137.424069
 30
0.0
  3
*X12
  0
LINE
  8
LC-003-005-----0
  6
CONTINUOUS
  5
1D0
 10
-94.506955
 20
137.424069
 30
0.0
 11
-92.806723
 21
139.124301
 31
0.0
  0
LINE
  8
LC-003-005-----0
  6
CONTINUOUS
  5
1D1
 10
-97.335382
 20
137.424069
 30
0.0
 11
-94.335382
 21
140.424069
 31
0.0
  0
LINE
  8
LC-003-005-----0
  6
CONTINUOUS
  5
1D2
 10
-100.163809
 20
137.424069
 30
0.0
 11
-95.556723
 21
142.031155
 31
0.0
  0
LINE
  8
LC-003-005-----0
  6
CONTINUOUS
  5
1D3
 10
-102.26796
 20
138.148345
 30
0.0
 11
-95.556723
 21
144.859582
 31
0.0
  0
LINE
  8
LC-003-005-----0
  6
CONTINUOUS
  5
1D4
 10
-102.306723
 20
140.938009
 30
0.0
 11
-95.556723
 21
147.688009
 31
0.0
  0
LINE
  8
LC-003-005-----0
  6
CONTINUOUS
  5
1D5
 10
-102.306723
 20
143.766437
 30
0.0
 11
-95.556723
 21
150.516437
 31
0.0
  0
LINE
  8
LC-003-005-----0
  6
CONTINUOUS
  5
1D6
 10
-102.306723
 20
146.594864
 30
0.0
 11
-95.556723
 21
153.344864
 31
0.0
  0
LINE
  8
LC-003-005-----0
  6
CONTINUOUS
  5
1D7
 10
-102.306723
 20
149.423291
 30
0.0
 11
-95.962099
 21
155.767915
 31
0.0
  0
LINE
  8
LC-003-005-----0
  6
CONTINUOUS
  5
1D8
 10
-102.306723
 20
152.251718
 30
0.0
 11
-98.306092
 21
156.252349
 31
0.0
  0
LINE
  8
LC-003-005-----0
  6
CONTINUOUS
  5
1D9
 10
-103.291977
 20
154.094891
 30
0.0
 11
-100.949663
 21
156.437206
 31
0.0
  0
LINE
  8
LC-003-005-----0
  6
CONTINUOUS
  5
1DA
 10
-105.935548
 20
154.279748
 30
0.0
 11
-103.593233
 21
156.622062
 31
0.0
  0
LINE
  8
LC-003-005-----0
  6
CONTINUOUS
  5
1DB
 10
-108.579118
 20
154.464604
 30
0.0
 11
-106.236804
 21
156.806919
 31
0.0
  0
LINE
  8
LC-003-005-----0
  6
CONTINUOUS
  5
1DC
 10
-114.230652
 20
151.641498
 30
0.0
 11
-112.306509
 21
153.565641
 31
0.0
  0
LINE
  8
LC-003-005-----0
  6
CONTINUOUS
  5
1DD
 10
-111.222689
 20
154.649461
 30
0.0
 11
-108.880375
 21
156.991775
 31
0.0
  0
LINE
  8
LC-003-005-----0
  6
CONTINUOUS
  5
1DE
 10
-114.584223
 20
154.116354
 30
0.0
 11
-111.523945
 21
157.176631
 31
0.0
  0
LINE
  8
LC-003-005-----0
  6
CONTINUOUS
  5
1DF
 10
-114.937794
 20
156.59121
 30
0.0
 11
-114.167516
 21
157.361488
 31
0.0
  0
ENDBLK
  8
0
  5
1E0
  0
BLOCK
  8
0
  5
1E2
  2
*D13
 70
    65
 10
0.0
 20
0.0
 30
0.0
  3
*D13
  0
LINE
  8
LC-009-003-MTH-0
  6
CONTINUOUS
  5
1E4
 10
-173.457147
 20
163.209662
 30
0.0
 11
-173.457147
 21
252.0
 31
0.0
  0
LINE
  8
LC-009-003-MTH-0
  6
CONTINUOUS
  5
1E5
 10
126.843701
 20
163.209662
 30
0.0
 11
126.843701
 21
252.0
 31
0.0
  0
LINE
  8
LC-010-003-MTG-0
  6
CONTINUOUS
  5
1E7
 10
-173.457147
 20
235.2
 30
0.0
 11
126.843701
 21
235.2
 31
0.0
  0
LINE
  8
LC-008-003-----0
  6
CONTINUOUS
  5
1E9
 10
-145.696691
 20
238.854733
 30
0.0
 11
-173.457147
 21
235.2
 31
0.0
  0
LINE
  8
LC-008-003-----0
  6
CONTINUOUS
  5
1EA
 10
-173.457147
 20
235.2
 30
0.0
 11
-145.696691
 21
231.545267
 31
0.0
  0
LINE
  8
LC-008-003-----0
  6
CONTINUOUS
  5
1EB
 10
-145.696691
 20
231.545267
 30
0.0
 11
-145.696691
 21
238.854733
 31
0.0
  0
LINE
  8
LC-008-003-----0
  6
CONTINUOUS
  5
1EC
 10
-145.63441
 20
237.904503
 30
0.0
 11
-166.177147
 21
235.2
 31
0.0
  0
LINE
  8
LC-008-003-----0
  6
CONTINUOUS
  5
1ED
 10
-166.177147
 20
235.2
 30
0.0
 11
-145.63441
 21
232.495497
 31
0.0
  0
LINE
  8
LC-008-003-----0
  6
CONTINUOUS
  5
1EE
 10
-145.572128
 20
236.954272
 30
0.0
 11
-158.897147
 21
235.2
 31
0.0
  0
LINE
  8
LC-008-003-----0
  6
CONTINUOUS
  5
1EF
 10
-158.897147
 20
235.2
 30
0.0
 11
-145.572128
 21
233.445728
 31
0.0
  0
LINE
  8
LC-008-003-----0
  6
CONTINUOUS
  5
1F0
 10
-145.509847
 20
236.004041
 30
0.0
 11
-151.617147
 21
235.2
 31
0.0
  0
LINE
  8
LC-008-003-----0
  6
CONTINUOUS
  5
1F1
 10
-151.617147
 20
235.2
 30
0.0
 11
-145.509847
 21
234.395959
 31
0.0
  0
LINE
  8
LC-008-003-----0
  6
CONTINUOUS
  5
1F2
 10
99.083245
 20
231.545267
 30
0.0
 11
126.843701
 21
235.2
 31
0.0
  0
LINE
  8
LC-008-003-----0
  6
CONTINUOUS
  5
1F3
 10
126.843701
 20
235.2
 30
0.0
 11
99.083245
 21
238.854733
 31
0.0
  0
LINE
  8
LC-008-003-----0
  6
CONTINUOUS
  5
1F4
 10
99.083245
 20
238.854733
 30
0.0
 11
99.083245
 21
231.545267
 31
0.0
  0
LINE
  8
LC-008-003-----0
  6
CONTINUOUS
  5
1F5
 10
99.020963
 20
232.495497
 30
0.0
 11
119.563701
 21
235.2
 31
0.0
  0
LINE
  8
LC-008-003-----0
  6
CONTINUOUS
  5
1F6
 10
119.563701
 20
235.2
 30
0.0
 11
99.020963
 21
237.904503
 31
0.0
  0
LINE
  8
LC-008-003-----0
  6
CONTINUOUS
  5
1F7
 10
98.958682
 20
233.445728
 30
0.0
 11
112.283701
 21
235.2
 31
0.0
  0
LINE
  8
LC-008-003-----0
  6
CONTINUOUS
  5
1F8
 10
112.283701
 20
235.2
 30
0.0
 11
98.958682
 21
236.954272
 31
0.0
  0
LINE
  8
LC-008-003-----0
  6
CONTINUOUS
  5
1F9
 10
98.8964
 20
234.395959
 30
0.0
 11
105.003701
 21
235.2
 31
0.0
  0
LINE
  8
LC-008-003-----0
  6
CONTINUOUS
  5
1FA
 10
105.003701
 20
235.2
 30
0.0
 11
98.8964
 21
236.004041
 31
0.0
  0
TEXT
  8
LC-008-003-----0
  6
CONTINUOUS
 62
     8
  5
1FC
 10
-57.056201
 20
243.027554
 30
0.0
 40
28.0
  1
Ø300
 41
0.9
 51
15.0
  7
LC-TXTSTYLE-150-400-0-0-D0
 72
     1
 11
-18.958563
 21
243.027554
 31
0.0
  0
ENDBLK
  8
0
  5
1FD
  0
BLOCK
  8
0
  5
1FF
  2
*D14
 70
    65
 10
0.0
 20
0.0
 30
0.0
  3
*D14
  0
LINE
  8
LC-009-003-MTH-0
  6
CONTINUOUS
  5
200
 10
-117.700085
 20
148.909239
 30
0.0
 11
-117.700085
 21
212.8
 31
0.0
  0
LINE
  8
LC-009-003-MTH-0
  6
CONTINUOUS
  5
201
 10
71.086639
 20
148.909239
 30
0.0
 11
71.086639
 21
212.8
 31
0.0
  0
LINE
  8
LC-010-003-MTG-0
  6
CONTINUOUS
  5
202
 10
-117.700085
 20
196.0
 30
0.0
 11
71.086639
 21
196.0
 31
0.0
  0
LINE
  8
LC-008-003-----0
  6
CONTINUOUS
  5
203
 10
-89.939629
 20
199.654733
 30
0.0
 11
-117.700085
 21
196.0
 31
0.0
  0
LINE
  8
LC-008-003-----0
  6
CONTINUOUS
  5
204
 10
-117.700085
 20
196.0
 30
0.0
 11
-89.939629
 21
192.345267
 31
0.0
  0
LINE
  8
LC-008-003-----0
  6
CONTINUOUS
  5
205
 10
-89.939629
 20
192.345267
 30
0.0
 11
-89.939629
 21
199.654733
 31
0.0
  0
LINE
  8
LC-008-003-----0
  6
CONTINUOUS
  5
206
 10
-89.877347
 20
198.704503
 30
0.0
 11
-110.420085
 21
196.0
 31
0.0
  0
LINE
  8
LC-008-003-----0
  6
CONTINUOUS
  5
207
 10
-110.420085
 20
196.0
 30
0.0
 11
-89.877347
 21
193.295497
 31
0.0
  0
LINE
  8
LC-008-003-----0
  6
CONTINUOUS
  5
208
 10
-89.815066
 20
197.754272
 30
0.0
 11
-103.140085
 21
196.0
 31
0.0
  0
LINE
  8
LC-008-003-----0
  6
CONTINUOUS
  5
209
 10
-103.140085
 20
196.0
 30
0.0
 11
-89.815066
 21
194.245728
 31
0.0
  0
LINE
  8
LC-008-003-----0
  6
CONTINUOUS
  5
20A
 10
-89.752785
 20
196.804041
 30
0.0
 11
-95.860085
 21
196.0
 31
0.0
  0
LINE
  8
LC-008-003-----0
  6
CONTINUOUS
  5
20B
 10
-95.860085
 20
196.0
 30
0.0
 11
-89.752785
 21
195.195959
 31
0.0
  0
LINE
  8
LC-008-003-----0
  6
CONTINUOUS
  5
20C
 10
43.326182
 20
192.345267
 30
0.0
 11
71.086639
 21
196.0
 31
0.0
  0
LINE
  8
LC-008-003-----0
  6
CONTINUOUS
  5
20D
 10
71.086639
 20
196.0
 30
0.0
 11
43.326182
 21
199.654733
 31
0.0
  0
LINE
  8
LC-008-003-----0
  6
CONTINUOUS
  5
20E
 10
43.326182
 20
199.654733
 30
0.0
 11
43.326182
 21
192.345267
 31
0.0
  0
LINE
  8
LC-008-003-----0
  6
CONTINUOUS
  5
20F
 10
43.263901
 20
193.295497
 30
0.0
 11
63.806639
 21
196.0
 31
0.0
  0
LINE
  8
LC-008-003-----0
  6
CONTINUOUS
  5
210
 10
63.806639
 20
196.0
 30
0.0
 11
43.263901
 21
198.704503
 31
0.0
  0
LINE
  8
LC-008-003-----0
  6
CONTINUOUS
  5
211
 10
43.20162
 20
194.245728
 30
0.0
 11
56.526639
 21
196.0
 31
0.0
  0
LINE
  8
LC-008-003-----0
  6
CONTINUOUS
  5
212
 10
56.526639
 20
196.0
 30
0.0
 11
43.20162
 21
197.754272
 31
0.0
  0
LINE
  8
LC-008-003-----0
  6
CONTINUOUS
  5
213
 10
43.139338
 20
195.195959
 30
0.0
 11
49.246639
 21
196.0
 31
0.0
  0
LINE
  8
LC-008-003-----0
  6
CONTINUOUS
  5
214
 10
49.246639
 20
196.0
 30
0.0
 11
43.139338
 21
196.804041
 31
0.0
  0
TEXT
  8
LC-008-003-----0
  6
CONTINUOUS
 62
     8
  5
215
 10
-57.056201
 20
203.827554
 30
0.0
 40
28.0
  1
Ø190
 51
15.0
  7
LC-TXTSTYLE-150-400-0-0-D0
 72
     1
 11
-18.958563
 21
203.827554
 31
0.0
  0
ENDBLK
  8
0
  5
216
  0
BLOCK
  8
0
  5
218
  2
*D15
 70
    65
 10
0.0
 20
0.0
 30
0.0
  3
*D15
  0
LINE
  8
LC-009-003-MTH-0
  6
CONTINUOUS
  5
219
 10
-103.235918
 20
64.753273
 30
0.0
 11
-103.235771
 21
-95.200095
 31
0.0
  0
LINE
  8
LC-009-003-MTH-0
  6
CONTINUOUS
  5
21A
 10
56.630155
 20
64.75342
 30
0.0
 11
56.630302
 21
-95.199948
 31
0.0
  0
LINE
  8
LC-010-003-MTG-0
  6
CONTINUOUS
  5
21B
 10
-103.235786
 20
-78.400095
 30
0.0
 11
56.630287
 21
-78.399948
 31
0.0
  0
LINE
  8
LC-008-003-----0
  6
CONTINUOUS
  5
21C
 10
-75.475334
 20
-74.745336
 30
0.0
 11
-103.235786
 21
-78.400095
 31
0.0
  0
LINE
  8
LC-008-003-----0
  6
CONTINUOUS
  5
21D
 10
-103.235786
 20
-78.400095
 30
0.0
 11
-75.475327
 21
-82.054803
 31
0.0
  0
LINE
  8
LC-008-003-----0
  6
CONTINUOUS
  5
21E
 10
-75.475327
 20
-82.054803
 30
0.0
 11
-75.475334
 21
-74.745336
 31
0.0
  0
LINE
  8
LC-008-003-----0
  6
CONTINUOUS
  5
21F
 10
-75.413051
 20
-75.695567
 30
0.0
 11
-95.955786
 21
-78.400088
 31
0.0
  0
LINE
  8
LC-008-003-----0
  6
CONTINUOUS
  5
220
 10
-95.955786
 20
-78.400088
 30
0.0
 11
-75.413046
 21
-81.104572
 31
0.0
  0
LINE
  8
LC-008-003-----0
  6
CONTINUOUS
  5
221
 10
-75.350769
 20
-76.645797
 30
0.0
 11
-88.675786
 21
-78.400081
 31
0.0
  0
LINE
  8
LC-008-003-----0
  6
CONTINUOUS
  5
222
 10
-88.675786
 20
-78.400081
 30
0.0
 11
-75.350766
 21
-80.154341
 31
0.0
  0
LINE
  8
LC-008-003-----0
  6
CONTINUOUS
  5
223
 10
-75.288487
 20
-77.596028
 30
0.0
 11
-81.395786
 21
-78.400075
 31
0.0
  0
LINE
  8
LC-008-003-----0
  6
CONTINUOUS
  5
224
 10
-81.395786
 20
-78.400075
 30
0.0
 11
-75.288485
 21
-79.20411
 31
0.0
  0
LINE
  8
LC-008-003-----0
  6
CONTINUOUS
  5
225
 10
28.869834
 20
-82.054707
 30
0.0
 11
56.630287
 21
-78.399948
 31
0.0
  0
LINE
  8
LC-008-003-----0
  6
CONTINUOUS
  5
226
 10
56.630287
 20
-78.399948
 30
0.0
 11
28.869827
 21
-74.74524
 31
0.0
  0
LINE
  8
LC-008-003-----0
  6
CONTINUOUS
  5
227
 10
28.869827
 20
-74.74524
 30
0.0
 11
28.869834
 21
-82.054707
 31
0.0
  0
LINE
  8
LC-008-003-----0
  6
CONTINUOUS
  5
228
 10
28.807552
 20
-81.104476
 30
0.0
 11
49.350287
 21
-78.399955
 31
0.0
  0
LINE
  8
LC-008-003-----0
  6
CONTINUOUS
  5
229
 10
49.350287
 20
-78.399955
 30
0.0
 11
28.807547
 21
-75.695471
 31
0.0
  0
LINE
  8
LC-008-003-----0
  6
CONTINUOUS
  5
22A
 10
28.745269
 20
-80.154246
 30
0.0
 11
42.070287
 21
-78.399961
 31
0.0
  0
LINE
  8
LC-008-003-----0
  6
CONTINUOUS
  5
22B
 10
42.070287
 20
-78.399961
 30
0.0
 11
28.745266
 21
-76.645702
 31
0.0
  0
LINE
  8
LC-008-003-----0
  6
CONTINUOUS
  5
22C
 10
28.682987
 20
-79.204015
 30
0.0
 11
34.790287
 21
-78.399968
 31
0.0
  0
LINE
  8
LC-008-003-----0
  6
CONTINUOUS
  5
22D
 10
34.790287
 20
-78.399968
 30
0.0
 11
28.682986
 21
-77.595932
 31
0.0
  0
TEXT
  8
LC-008-003-----0
  6
CONTINUOUS
 62
     8
  5
22E
 10
-57.05222
 20
-70.572468
 30
0.0
 40
28.0
  1
Ø160
 51
15.0
  7
LC-TXTSTYLE-150-400-0-0-D0
 72
     1
 11
-18.954582
 21
-70.572468
 31
0.0
  0
ENDBLK
  8
0
  5
22F
  0
BLOCK
  8
0
  5
231
  2
*D16
 70
    65
 10
0.0
 20
0.0
 30
0.0
  3
*D16
  0
LINE
  8
LC-009-003-MTH-0
  6
CONTINUOUS
  5
232
 10
-60.802762
 20
-2.712458
 30
0.0
 11
-60.802762
 21
-56.8
 31
0.0
  0
LINE
  8
LC-009-003-MTH-0
  6
CONTINUOUS
  5
233
 10
14.197
 20
-2.712458
 30
0.0
 11
14.197
 21
-56.8
 31
0.0
  0
LINE
  8
LC-008-003-----0
  6
CONTINUOUS
  5
234
 10
-88.563218
 20
-43.654733
 30
0.0
 11
-60.802762
 21
-40.0
 31
0.0
  0
LINE
  8
LC-008-003-----0
  6
CONTINUOUS
  5
235
 10
-60.802762
 20
-40.0
 30
0.0
 11
-88.563218
 21
-36.345267
 31
0.0
  0
LINE
  8
LC-008-003-----0
  6
CONTINUOUS
  5
236
 10
-88.563218
 20
-36.345267
 30
0.0
 11
-88.563218
 21
-43.654733
 31
0.0
  0
LINE
  8
LC-008-003-----0
  6
CONTINUOUS
  5
237
 10
-88.6255
 20
-42.704503
 30
0.0
 11
-68.082762
 21
-40.0
 31
0.0
  0
LINE
  8
LC-008-003-----0
  6
CONTINUOUS
  5
238
 10
-68.082762
 20
-40.0
 30
0.0
 11
-88.6255
 21
-37.295497
 31
0.0
  0
LINE
  8
LC-008-003-----0
  6
CONTINUOUS
  5
239
 10
-88.687781
 20
-41.754272
 30
0.0
 11
-75.362762
 21
-40.0
 31
0.0
  0
LINE
  8
LC-008-003-----0
  6
CONTINUOUS
  5
23A
 10
-75.362762
 20
-40.0
 30
0.0
 11
-88.687781
 21
-38.245728
 31
0.0
  0
LINE
  8
LC-008-003-----0
  6
CONTINUOUS
  5
23B
 10
-88.750063
 20
-40.804041
 30
0.0
 11
-82.642762
 21
-40.0
 31
0.0
  0
LINE
  8
LC-008-003-----0
  6
CONTINUOUS
  5
23C
 10
-82.642762
 20
-40.0
 30
0.0
 11
-88.750063
 21
-39.195959
 31
0.0
  0
LINE
  8
LC-008-003-----0
  6
CONTINUOUS
  5
23D
 10
41.957456
 20
-36.345267
 30
0.0
 11
14.197
 21
-40.0
 31
0.0
  0
LINE
  8
LC-008-003-----0
  6
CONTINUOUS
  5
23E
 10
14.197
 20
-40.0
 30
0.0
 11
41.957456
 21
-43.654733
 31
0.0
  0
LINE
  8
LC-008-003-----0
  6
CONTINUOUS
  5
23F
 10
41.957456
 20
-43.654733
 30
0.0
 11
41.957456
 21
-36.345267
 31
0.0
  0
LINE
  8
LC-008-003-----0
  6
CONTINUOUS
  5
240
 10
42.019737
 20
-37.295497
 30
0.0
 11
21.477
 21
-40.0
 31
0.0
  0
LINE
  8
LC-008-003-----0
  6
CONTINUOUS
  5
241
 10
21.477
 20
-40.0
 30
0.0
 11
42.019737
 21
-42.704503
 31
0.0
  0
LINE
  8
LC-008-003-----0
  6
CONTINUOUS
  5
242
 10
42.082019
 20
-38.245728
 30
0.0
 11
28.757
 21
-40.0
 31
0.0
  0
LINE
  8
LC-008-003-----0
  6
CONTINUOUS
  5
243
 10
28.757
 20
-40.0
 30
0.0
 11
42.082019
 21
-41.754272
 31
0.0
  0
LINE
  8
LC-008-003-----0
  6
CONTINUOUS
  5
244
 10
42.1443
 20
-39.195959
 30
0.0
 11
36.037
 21
-40.0
 31
0.0
  0
LINE
  8
LC-008-003-----0
  6
CONTINUOUS
  5
245
 10
36.037
 20
-40.0
 30
0.0
 11
42.1443
 21
-40.804041
 31
0.0
  0
LINE
  8
LC-010-003-MTG-0
  6
CONTINUOUS
  5
246
 10
-100.002762
 20
-40.0
 30
0.0
 11
143.1671
 21
-40.0
 31
0.0
  0
TEXT
  8
LC-008-003-----0
  6
CONTINUOUS
 62
     8
  5
247
 10
56.62516
 20
-32.172446
 30
0.0
 40
28.0
  1
DN70
 51
15.0
  7
LC-TXTSTYLE-150-400-0-0-D0
  0
ENDBLK
  8
0
  5
248
  0
BLOCK
  8
0
  5
24A
  2
*D17
 70
    65
 10
0.0
 20
0.0
 30
0.0
  3
*D17
  0
LINE
  8
LC-009-003-MTH-0
  6
CONTINUOUS
  5
24B
 10
-91.283783
 20
52.801139
 30
0.0
 11
-212.8
 21
52.801139
 31
0.0
  0
LINE
  8
LC-009-003-MTH-0
  6
CONTINUOUS
  5
24C
 10
-173.457147
 20
160.214332
 30
0.0
 11
-212.8
 21
160.214332
 31
0.0
  0
LINE
  8
LC-010-003-MTG-0
  6
CONTINUOUS
  5
24D
 10
-196.0
 20
52.801139
 30
0.0
 11
-196.0
 21
160.214332
 31
0.0
  0
LINE
  8
LC-008-003-----0
  6
CONTINUOUS
  5
24E
 10
-199.654733
 20
80.561595
 30
0.0
 11
-196.0
 21
52.801139
 31
0.0
  0
LINE
  8
LC-008-003-----0
  6
CONTINUOUS
  5
24F
 10
-196.0
 20
52.801139
 30
0.0
 11
-192.345267
 21
80.561595
 31
0.0
  0
LINE
  8
LC-008-003-----0
  6
CONTINUOUS
  5
250
 10
-192.345267
 20
80.561595
 30
0.0
 11
-199.654733
 21
80.561595
 31
0.0
  0
LINE
  8
LC-008-003-----0
  6
CONTINUOUS
  5
251
 10
-198.704503
 20
80.623876
 30
0.0
 11
-196.0
 21
60.081139
 31
0.0
  0
LINE
  8
LC-008-003-----0
  6
CONTINUOUS
  5
252
 10
-196.0
 20
60.081139
 30
0.0
 11
-193.295497
 21
80.623876
 31
0.0
  0
LINE
  8
LC-008-003-----0
  6
CONTINUOUS
  5
253
 10
-197.754272
 20
80.686157
 30
0.0
 11
-196.0
 21
67.361139
 31
0.0
  0
LINE
  8
LC-008-003-----0
  6
CONTINUOUS
  5
254
 10
-196.0
 20
67.361139
 30
0.0
 11
-194.245728
 21
80.686157
 31
0.0
  0
LINE
  8
LC-008-003-----0
  6
CONTINUOUS
  5
255
 10
-196.804041
 20
80.748439
 30
0.0
 11
-196.0
 21
74.641139
 31
0.0
  0
LINE
  8
LC-008-003-----0
  6
CONTINUOUS
  5
256
 10
-196.0
 20
74.641139
 30
0.0
 11
-195.195959
 21
80.748439
 31
0.0
  0
LINE
  8
LC-008-003-----0
  6
CONTINUOUS
  5
257
 10
-192.345267
 20
132.453875
 30
0.0
 11
-196.0
 21
160.214332
 31
0.0
  0
LINE
  8
LC-008-003-----0
  6
CONTINUOUS
  5
258
 10
-196.0
 20
160.214332
 30
0.0
 11
-199.654733
 21
132.453875
 31
0.0
  0
LINE
  8
LC-008-003-----0
  6
CONTINUOUS
  5
259
 10
-199.654733
 20
132.453875
 30
0.0
 11
-192.345267
 21
132.453875
 31
0.0
  0
LINE
  8
LC-008-003-----0
  6
CONTINUOUS
  5
25A
 10
-193.295497
 20
132.391594
 30
0.0
 11
-196.0
 21
152.934332
 31
0.0
  0
LINE
  8
LC-008-003-----0
  6
CONTINUOUS
  5
25B
 10
-196.0
 20
152.934332
 30
0.0
 11
-198.704503
 21
132.391594
 31
0.0
  0
LINE
  8
LC-008-003-----0
  6
CONTINUOUS
  5
25C
 10
-194.245728
 20
132.329313
 30
0.0
 11
-196.0
 21
145.654332
 31
0.0
  0
LINE
  8
LC-008-003-----0
  6
CONTINUOUS
  5
25D
 10
-196.0
 20
145.654332
 30
0.0
 11
-197.754272
 21
132.329313
 31
0.0
  0
LINE
  8
LC-008-003-----0
  6
CONTINUOUS
  5
25E
 10
-195.195959
 20
132.267031
 30
0.0
 11
-196.0
 21
138.374332
 31
0.0
  0
LINE
  8
LC-008-003-----0
  6
CONTINUOUS
  5
25F
 10
-196.0
 20
138.374332
 30
0.0
 11
-196.804041
 21
132.267031
 31
0.0
  0
TEXT
  8
LC-008-003-----0
  6
CONTINUOUS
 62
     8
  5
260
 10
-203.827554
 20
81.092115
 30
0.0
 40
28.0
  1
110
 50
90.0
 51
15.0
  7
LC-TXTSTYLE-150-400-0-0-D0
 72
     1
 11
-203.827554
 21
110.855895
 31
0.0
  0
ENDBLK
  8
0
  5
261
  0
BLOCK
  8
0
  5
263
  2
*D18
 70
    65
 10
0.0
 20
0.0
 30
0.0
  3
*D18
  0
LINE
  8
LC-009-003-MTH-0
  6
CONTINUOUS
  5
264
 10
-65.053084
 20
72.521418
 30
0.0
 11
-173.6
 21
72.521418
 31
0.0
  0
LINE
  8
LC-009-003-MTH-0
  6
CONTINUOUS
  5
265
 10
-53.802881
 20
122.521591
 30
0.0
 11
-173.6
 21
122.521591
 31
0.0
  0
LINE
  8
LC-008-003-----0
  6
CONTINUOUS
  5
266
 10
-153.145267
 20
44.760961
 30
0.0
 11
-156.8
 21
72.521418
 31
0.0
  0
LINE
  8
LC-008-003-----0
  6
CONTINUOUS
  5
267
 10
-156.8
 20
72.521418
 30
0.0
 11
-160.454733
 21
44.760961
 31
0.0
  0
LINE
  8
LC-008-003-----0
  6
CONTINUOUS
  5
268
 10
-160.454733
 20
44.760961
 30
0.0
 11
-153.145267
 21
44.760961
 31
0.0
  0
LINE
  8
LC-008-003-----0
  6
CONTINUOUS
  5
269
 10
-154.095497
 20
44.69868
 30
0.0
 11
-156.8
 21
65.241418
 31
0.0
  0
LINE
  8
LC-008-003-----0
  6
CONTINUOUS
  5
26A
 10
-156.8
 20
65.241418
 30
0.0
 11
-159.504503
 21
44.69868
 31
0.0
  0
LINE
  8
LC-008-003-----0
  6
CONTINUOUS
  5
26B
 10
-155.045728
 20
44.636399
 30
0.0
 11
-156.8
 21
57.961418
 31
0.0
  0
LINE
  8
LC-008-003-----0
  6
CONTINUOUS
  5
26C
 10
-156.8
 20
57.961418
 30
0.0
 11
-158.554272
 21
44.636399
 31
0.0
  0
LINE
  8
LC-008-003-----0
  6
CONTINUOUS
  5
26D
 10
-155.995959
 20
44.574117
 30
0.0
 11
-156.8
 21
50.681418
 31
0.0
  0
LINE
  8
LC-008-003-----0
  6
CONTINUOUS
  5
26E
 10
-156.8
 20
50.681418
 30
0.0
 11
-157.604041
 21
44.574117
 31
0.0
  0
LINE
  8
LC-008-003-----0
  6
CONTINUOUS
  5
26F
 10
-160.454733
 20
150.282047
 30
0.0
 11
-156.8
 21
122.521591
 31
0.0
  0
LINE
  8
LC-008-003-----0
  6
CONTINUOUS
  5
270
 10
-156.8
 20
122.521591
 30
0.0
 11
-153.145267
 21
150.282047
 31
0.0
  0
LINE
  8
LC-008-003-----0
  6
CONTINUOUS
  5
271
 10
-153.145267
 20
150.282047
 30
0.0
 11
-160.454733
 21
150.282047
 31
0.0
  0
LINE
  8
LC-008-003-----0
  6
CONTINUOUS
  5
272
 10
-159.504503
 20
150.344328
 30
0.0
 11
-156.8
 21
129.801591
 31
0.0
  0
LINE
  8
LC-008-003-----0
  6
CONTINUOUS
  5
273
 10
-156.8
 20
129.801591
 30
0.0
 11
-154.095497
 21
150.344328
 31
0.0
  0
LINE
  8
LC-008-003-----0
  6
CONTINUOUS
  5
274
 10
-158.554272
 20
150.40661
 30
0.0
 11
-156.8
 21
137.081591
 31
0.0
  0
LINE
  8
LC-008-003-----0
  6
CONTINUOUS
  5
275
 10
-156.8
 20
137.081591
 30
0.0
 11
-155.045728
 21
150.40661
 31
0.0
  0
LINE
  8
LC-008-003-----0
  6
CONTINUOUS
  5
276
 10
-157.604041
 20
150.468891
 30
0.0
 11
-156.8
 21
144.361591
 31
0.0
  0
LINE
  8
LC-008-003-----0
  6
CONTINUOUS
  5
277
 10
-156.8
 20
144.361591
 30
0.0
 11
-155.995959
 21
150.468891
 31
0.0
  0
LINE
  8
LC-010-003-MTG-0
  6
CONTINUOUS
  5
278
 10
-156.8
 20
33.321418
 30
0.0
 11
-156.8
 21
161.721591
 31
0.0
  0
TEXT
  8
LC-008-003-----0
  6
CONTINUOUS
 62
     8
  5
279
 10
-164.627554
 20
85.829578
 30
0.0
 40
28.0
  1
50
 50
90.0
 51
15.0
  7
LC-TXTSTYLE-150-400-0-0-D0
  0
ENDBLK
  8
0
  5
27A
  0
BLOCK
  8
0
  5
27C
  2
*X19
 70
    65
 10
-67.056973
 20
74.021418
 30
0.0
  3
*X19
  0
LINE
  8
LC-003-005-----0
  6
CONTINUOUS
  5
27D
 10
19.336274
 20
139.055645
 30
0.0
 11
13.477292
 21
144.914627
 31
0.0
  0
LINE
  8
LC-003-005-----0
  6
CONTINUOUS
  5
27E
 10
20.387588
 20
135.175904
 30
0.0
 11
17.65832
 21
137.905171
 31
0.0
  0
LINE
  8
LC-003-005-----0
  6
CONTINUOUS
  5
27F
 10
12.326818
 20
143.236674
 30
0.0
 11
9.59755
 21
145.965941
 31
0.0
  0
LINE
  8
LC-003-005-----0
  6
CONTINUOUS
  5
280
 10
20.443235
 20
132.29183
 30
0.0
 11
18.439481
 21
134.295583
 31
0.0
  0
LINE
  8
LC-003-005-----0
  6
CONTINUOUS
  5
281
 10
8.71723
 20
144.017835
 30
0.0
 11
6.713475
 21
146.02159
 31
0.0
  0
LINE
  8
LC-003-005-----0
  6
CONTINUOUS
  5
282
 10
20.443233
 20
129.463405
 30
0.0
 11
18.443234
 21
131.463404
 31
0.0
  0
LINE
  8
LC-003-005-----0
  6
CONTINUOUS
  5
283
 10
5.885049
 20
144.021589
 30
0.0
 11
3.885046
 21
146.021592
 31
0.0
  0
LINE
  8
LC-003-005-----0
  6
CONTINUOUS
  5
284
 10
20.443231
 20
126.63498
 30
0.0
 11
18.443232
 21
128.634978
 31
0.0
  0
LINE
  8
LC-003-005-----0
  6
CONTINUOUS
  5
285
 10
3.056622
 20
144.021589
 30
0.0
 11
1.056617
 21
146.021594
 31
0.0
  0
LINE
  8
LC-003-005-----0
  6
CONTINUOUS
  5
286
 10
20.443229
 20
123.806554
 30
0.0
 11
18.44323
 21
125.806553
 31
0.0
  0
LINE
  8
LC-003-005-----0
  6
CONTINUOUS
  5
287
 10
0.228194
 20
144.021589
 30
0.0
 11
-1.771812
 21
146.021596
 31
0.0
  0
LINE
  8
LC-003-005-----0
  6
CONTINUOUS
  5
288
 10
20.443227
 20
120.978129
 30
0.0
 11
18.443228
 21
122.978128
 31
0.0
  0
LINE
  8
LC-003-005-----0
  6
CONTINUOUS
  5
289
 10
-2.600233
 20
144.021589
 30
0.0
 11
-4.600241
 21
146.021597
 31
0.0
  0
LINE
  8
LC-003-005-----0
  6
CONTINUOUS
  5
28A
 10
20.443225
 20
118.149704
 30
0.0
 11
18.443227
 21
120.149702
 31
0.0
  0
LINE
  8
LC-003-005-----0
  6
CONTINUOUS
  5
28B
 10
-5.42866
 20
144.021589
 30
0.0
 11
-7.42867
 21
146.021599
 31
0.0
  0
LINE
  8
LC-003-005-----0
  6
CONTINUOUS
  5
28C
 10
-9.638427
 20
148.231356
 30
0.0
 11
-17.347005
 21
155.939934
 31
0.0
  0
LINE
  8
LC-003-005-----0
  6
CONTINUOUS
  5
28D
 10
20.443223
 20
115.321279
 30
0.0
 11
18.443225
 21
117.321277
 31
0.0
  0
LINE
  8
LC-003-005-----0
  6
CONTINUOUS
  5
28E
 10
-8.257087
 20
144.021589
 30
0.0
 11
-20.257107
 21
156.021609
 31
0.0
  0
LINE
  8
LC-003-005-----0
  6
CONTINUOUS
  5
28F
 10
20.443222
 20
112.492853
 30
0.0
 11
18.443223
 21
114.492852
 31
0.0
  0
LINE
  8
LC-003-005-----0
  6
CONTINUOUS
  5
290
 10
-11.085514
 20
144.021589
 30
0.0
 11
-13.556752
 21
146.492826
 31
0.0
  0
LINE
  8
LC-003-005-----0
  6
CONTINUOUS
  5
291
 10
-19.085535
 20
152.02161
 30
0.0
 11
-23.085534
 21
156.021609
 31
0.0
  0
LINE
  8
LC-003-005-----0
  6
CONTINUOUS
  5
292
 10
20.44322
 20
109.664428
 30
0.0
 11
18.443221
 21
111.664427
 31
0.0
  0
LINE
  8
LC-003-005-----0
  6
CONTINUOUS
  5
293
 10
-13.913941
 20
144.021589
 30
0.0
 11
-15.913957
 21
146.021605
 31
0.0
  0
LINE
  8
LC-003-005-----0
  6
CONTINUOUS
  5
294
 10
-21.913962
 20
152.021609
 30
0.0
 11
-25.913961
 21
156.021609
 31
0.0
  0
LINE
  8
LC-003-005-----0
  6
CONTINUOUS
  5
295
 10
20.443218
 20
106.836003
 30
0.0
 11
18.443219
 21
108.836001
 31
0.0
  0
LINE
  8
LC-003-005-----0
  6
CONTINUOUS
  5
296
 10
-16.742368
 20
144.021589
 30
0.0
 11
-18.742386
 21
146.021607
 31
0.0
  0
LINE
  8
LC-003-005-----0
  6
CONTINUOUS
  5
297
 10
-24.742388
 20
152.021609
 30
0.0
 11
-28.718059
 21
155.99728
 31
0.0
  0
LINE
  8
LC-003-005-----0
  6
CONTINUOUS
  5
298
 10
20.443216
 20
104.007577
 30
0.0
 11
18.443217
 21
106.007576
 31
0.0
  0
LINE
  8
LC-003-005-----0
  6
CONTINUOUS
  5
299
 10
-19.570795
 20
144.021589
 30
0.0
 11
-21.570815
 21
146.021608
 31
0.0
  0
LINE
  8
LC-003-005-----0
  6
CONTINUOUS
  5
29A
 10
-27.570816
 20
152.021609
 30
0.0
 11
-31.056267
 21
155.507061
 31
0.0
  0
LINE
  8
LC-003-005-----0
  6
CONTINUOUS
  5
29B
 10
20.443214
 20
101.179152
 30
0.0
 11
18.443216
 21
103.179151
 31
0.0
  0
LINE
  8
LC-003-005-----0
  6
CONTINUOUS
  5
29C
 10
-21.864534
 20
143.4869
 30
0.0
 11
-24.399051
 21
146.021418
 31
0.0
  0
LINE
  8
LC-003-005-----0
  6
CONTINUOUS
  5
29D
 10
-30.004337
 20
151.626704
 30
0.0
 11
-32.951693
 21
154.57406
 31
0.0
  0
LINE
  8
LC-003-005-----0
  6
CONTINUOUS
  5
29E
 10
20.443212
 20
98.350727
 30
0.0
 11
18.443214
 21
100.350726
 31
0.0
  0
LINE
  8
LC-003-005-----0
  6
CONTINUOUS
  5
29F
 10
-21.865299
 20
140.659239
 30
0.0
 11
-27.227478
 21
146.021418
 31
0.0
  0
LINE
  8
LC-003-005-----0
  6
CONTINUOUS
  5
2A0
 10
-31.67671
 20
150.470649
 30
0.0
 11
-34.505596
 21
153.299536
 31
0.0
  0
LINE
  8
LC-003-005-----0
  6
CONTINUOUS
  5
2A1
 10
20.443211
 20
95.522302
 30
0.0
 11
18.443212
 21
97.5223
 31
0.0
  0
LINE
  8
LC-003-005-----0
  6
CONTINUOUS
  5
2A2
 10
-21.866065
 20
137.831577
 30
0.0
 11
-30.055905
 21
146.021418
 31
0.0
  0
LINE
  8
LC-003-005-----0
  6
CONTINUOUS
  5
2A3
 10
-32.758137
 20
148.723649
 30
0.0
 11
-35.74116
 21
151.706672
 31
0.0
  0
LINE
  8
LC-003-005-----0
  6
CONTINUOUS
  5
2A4
 10
20.443209
 20
92.693876
 30
0.0
 11
18.44321
 21
94.693875
 31
0.0
  0
LINE
  8
LC-003-005-----0
  6
CONTINUOUS
  5
2A5
 10
-21.86683
 20
135.003915
 30
0.0
 11
-32.884333
 21
146.021418
 31
0.0
  0
LINE
  8
LC-003-005-----0
  6
CONTINUOUS
  5
2A6
 10
-33.056748
 20
146.193833
 30
0.0
 11
-36.628309
 21
149.765394
 31
0.0
  0
LINE
  8
LC-003-005-----0
  6
CONTINUOUS
  5
2A7
 10
20.443207
 20
89.865451
 30
0.0
 11
18.443208
 21
91.86545
 31
0.0
  0
LINE
  8
LC-003-005-----0
  6
CONTINUOUS
  5
2A8
 10
-21.867596
 20
132.176253
 30
0.0
 11
-37.050419
 21
147.359077
 31
0.0
  0
LINE
  8
LC-003-005-----0
  6
CONTINUOUS
  5
2A9
 10
20.443205
 20
87.037026
 30
0.0
 11
18.443206
 21
89.037024
 31
0.0
  0
LINE
  8
LC-003-005-----0
  6
CONTINUOUS
  5
2AA
 10
-21.868361
 20
129.348592
 30
0.0
 11
-38.541187
 21
146.021418
 31
0.0
  0
LINE
  8
LC-003-005-----0
  6
CONTINUOUS
  5
2AB
 10
20.443203
 20
84.2086
 30
0.0
 11
18.443204
 21
86.208599
 31
0.0
  0
LINE
  8
LC-003-005-----0
  6
CONTINUOUS
  5
2AC
 10
-21.869126
 20
126.52093
 30
0.0
 11
-41.369614
 21
146.021418
 31
0.0
  0
LINE
  8
LC-003-005-----0
  6
CONTINUOUS
  5
2AD
 10
20.443201
 20
81.380175
 30
0.0
 11
18.443203
 21
83.380174
 31
0.0
  0
LINE
  8
LC-003-005-----0
  6
CONTINUOUS
  5
2AE
 10
-21.869892
 20
123.693268
 30
0.0
 11
-44.198041
 21
146.021418
 31
0.0
  0
LINE
  8
LC-003-005-----0
  6
CONTINUOUS
  5
2AF
 10
20.443199
 20
78.55175
 30
0.0
 11
18.443201
 21
80.551749
 31
0.0
  0
LINE
  8
LC-003-005-----0
  6
CONTINUOUS
  5
2B0
 10
-21.870657
 20
120.865607
 30
0.0
 11
-47.026468
 21
146.021418
 31
0.0
  0
LINE
  8
LC-003-005-----0
  6
CONTINUOUS
  5
2B1
 10
20.294068
 20
75.872454
 30
0.0
 11
18.443199
 21
77.723323
 31
0.0
  0
LINE
  8
LC-003-005-----0
  6
CONTINUOUS
  5
2B2
 10
-21.871423
 20
118.037945
 30
0.0
 11
-49.854895
 21
146.021418
 31
0.0
  0
LINE
  8
LC-003-005-----0
  6
CONTINUOUS
  5
2B3
 10
18.879855
 20
74.45824
 30
0.0
 11
18.443197
 21
74.894898
 31
0.0
  0
LINE
  8
LC-003-005-----0
  6
CONTINUOUS
  5
2B4
 10
-21.872188
 20
115.210283
 30
0.0
 11
-52.683322
 21
146.021418
 31
0.0
  0
LINE
  8
LC-003-005-----0
  6
CONTINUOUS
  5
2B5
 10
-24.51175
 20
115.021418
 30
0.0
 11
-55.503441
 21
146.013109
 31
0.0
  0
LINE
  8
LC-003-005-----0
  6
CONTINUOUS
  5
2B6
 10
-27.340177
 20
115.021418
 30
0.0
 11
-55.056973
 21
142.738214
 31
0.0
  0
LINE
  8
LC-003-005-----0
  6
CONTINUOUS
  5
2B7
 10
-56.266731
 20
143.947972
 30
0.0
 11
-57.978985
 21
145.660225
 31
0.0
  0
LINE
  8
LC-003-005-----0
  6
CONTINUOUS
  5
2B8
 10
-30.168604
 20
115.021418
 30
0.0
 11
-55.056973
 21
139.909787
 31
0.0
  0
LINE
  8
LC-003-005-----0
  6
CONTINUOUS
  5
2B9
 10
-58.541768
 20
143.394582
 30
0.0
 11
-60.070915
 21
144.923729
 31
0.0
  0
LINE
  8
LC-003-005-----0
  6
CONTINUOUS
  5
2BA
 10
-32.997031
 20
115.021418
 30
0.0
 11
-55.056973
 21
137.08136
 31
0.0
  0
LINE
  8
LC-003-005-----0
  6
CONTINUOUS
  5
2BB
 10
-60.430566
 20
142.454952
 30
0.0
 11
-61.87321
 21
143.897597
 31
0.0
  0
LINE
  8
LC-003-005-----0
  6
CONTINUOUS
  5
2BC
 10
-35.825458
 20
115.021418
 30
0.0
 11
-55.056973
 21
134.252933
 31
0.0
  0
LINE
  8
LC-003-005-----0
  6
CONTINUOUS
  5
2BD
 10
-62.011336
 20
141.207295
 30
0.0
 11
-63.425707
 21
142.621667
 31
0.0
  0
LINE
  8
LC-003-005-----0
  6
CONTINUOUS
  5
2BE
 10
-38.653885
 20
115.021418
 30
0.0
 11
-55.056973
 21
131.424505
 31
0.0
  0
LINE
  8
LC-003-005-----0
  6
CONTINUOUS
  5
2BF
 10
-63.306257
 20
139.67379
 30
0.0
 11
-64.740774
 21
141.108307
 31
0.0
  0
LINE
  8
LC-003-005-----0
  6
CONTINUOUS
  5
2C0
 10
-41.482312
 20
115.021418
 30
0.0
 11
-55.056973
 21
128.596078
 31
0.0
  0
LINE
  8
LC-003-005-----0
  6
CONTINUOUS
  5
2C1
 10
-64.299683
 20
137.838788
 30
0.0
 11
-65.809632
 21
139.348737
 31
0.0
  0
LINE
  8
LC-003-005-----0
  6
CONTINUOUS
  5
2C2
 10
-44.310739
 20
115.021418
 30
0.0
 11
-51.011883
 21
121.722561
 31
0.0
  0
LINE
  8
LC-003-005-----0
  6
CONTINUOUS
  5
2C3
 10
-53.310739
 20
124.021418
 30
0.0
 11
-55.056973
 21
125.767651
 31
0.0
  0
LINE
  8
LC-003-005-----0
  6
CONTINUOUS
  5
2C4
 10
-64.925706
 20
135.636384
 30
0.0
 11
-66.597953
 21
137.308631
 31
0.0
  0
LINE
  8
LC-003-005-----0
  6
CONTINUOUS
  5
2C5
 10
-47.139167
 20
115.021418
 30
0.0
 11
-51.428748
 21
119.310999
 31
0.0
  0
LINE
  8
LC-003-005-----0
  6
CONTINUOUS
  5
2C6
 10
-65.056973
 20
132.939224
 30
0.0
 11
-67.024285
 21
134.906536
 31
0.0
  0
LINE
  8
LC-003-005-----0
  6
CONTINUOUS
  5
2C7
 10
-65.056973
 20
130.110797
 30
0.0
 11
-67.056973
 21
132.110797
 31
0.0
  0
LINE
  8
LC-003-005-----0
  6
CONTINUOUS
  5
2C8
 10
-65.056973
 20
127.28237
 30
0.0
 11
-67.056973
 21
129.28237
 31
0.0
  0
LINE
  8
LC-003-005-----0
  6
CONTINUOUS
  5
2C9
 10
-65.056973
 20
124.453943
 30
0.0
 11
-67.056973
 21
126.453943
 31
0.0
  0
LINE
  8
LC-003-005-----0
  6
CONTINUOUS
  5
2CA
 10
-65.056973
 20
121.625516
 30
0.0
 11
-67.056973
 21
123.625516
 31
0.0
  0
LINE
  8
LC-003-005-----0
  6
CONTINUOUS
  5
2CB
 10
-65.056973
 20
118.797088
 30
0.0
 11
-67.056973
 21
120.797088
 31
0.0
  0
LINE
  8
LC-003-005-----0
  6
CONTINUOUS
  5
2CC
 10
-65.056973
 20
115.968661
 30
0.0
 11
-67.056973
 21
117.968661
 31
0.0
  0
LINE
  8
LC-003-005-----0
  6
CONTINUOUS
  5
2CD
 10
-65.056973
 20
113.140234
 30
0.0
 11
-67.056973
 21
115.140234
 31
0.0
  0
LINE
  8
LC-003-005-----0
  6
CONTINUOUS
  5
2CE
 10
-65.056973
 20
110.311807
 30
0.0
 11
-67.056973
 21
112.311807
 31
0.0
  0
LINE
  8
LC-003-005-----0
  6
CONTINUOUS
  5
2CF
 10
-65.056973
 20
107.48338
 30
0.0
 11
-67.056973
 21
109.48338
 31
0.0
  0
LINE
  8
LC-003-005-----0
  6
CONTINUOUS
  5
2D0
 10
-65.056973
 20
104.654953
 30
0.0
 11
-67.056973
 21
106.654953
 31
0.0
  0
LINE
  8
LC-003-005-----0
  6
CONTINUOUS
  5
2D1
 10
-65.056973
 20
101.826526
 30
0.0
 11
-67.056973
 21
103.826526
 31
0.0
  0
LINE
  8
LC-003-005-----0
  6
CONTINUOUS
  5
2D2
 10
-65.056973
 20
98.998099
 30
0.0
 11
-67.056973
 21
100.998099
 31
0.0
  0
LINE
  8
LC-003-005-----0
  6
CONTINUOUS
  5
2D3
 10
-65.056973
 20
96.169671
 30
0.0
 11
-67.056973
 21
98.169671
 31
0.0
  0
LINE
  8
LC-003-005-----0
  6
CONTINUOUS
  5
2D4
 10
-65.056973
 20
93.341244
 30
0.0
 11
-67.056973
 21
95.341244
 31
0.0
  0
LINE
  8
LC-003-005-----0
  6
CONTINUOUS
  5
2D5
 10
-65.056973
 20
90.512817
 30
0.0
 11
-67.056973
 21
92.512817
 31
0.0
  0
LINE
  8
LC-003-005-----0
  6
CONTINUOUS
  5
2D6
 10
-65.056973
 20
87.68439
 30
0.0
 11
-67.056973
 21
89.68439
 31
0.0
  0
LINE
  8
LC-003-005-----0
  6
CONTINUOUS
  5
2D7
 10
-65.056973
 20
84.855963
 30
0.0
 11
-67.056973
 21
86.855963
 31
0.0
  0
LINE
  8
LC-003-005-----0
  6
CONTINUOUS
  5
2D8
 10
-65.056973
 20
82.027536
 30
0.0
 11
-67.056973
 21
84.027536
 31
0.0
  0
LINE
  8
LC-003-005-----0
  6
CONTINUOUS
  5
2D9
 10
-65.056973
 20
79.199109
 30
0.0
 11
-67.056973
 21
81.199109
 31
0.0
  0
LINE
  8
LC-003-005-----0
  6
CONTINUOUS
  5
2DA
 10
-65.056973
 20
76.370682
 30
0.0
 11
-67.056973
 21
78.370682
 31
0.0
  0
ENDBLK
  8
0
  5
2DB
  0
BLOCK
  8
0
  5
2DD
  2
BLK5
 70
    64
 10
0.0
 20
0.0
 30
0.0
  3
BLK5
  0
ENDBLK
  8
0
  5
2DE
  0
ENDSEC
  0
SECTION
  2
ENTITIES
  0
VIEWPORT
  8
LC-000
  5
457
 67
     1
 68
     1
 10
420.0
 20
297.0
 30
0.0
 40
840.0
 41
594.0
 69
     1
1001
ACAD
1000
MVIEW
1002
{
1070
    16
1010
0.0
1020
0.0
1030
0.0
1010
0.0
1020
0.0
1030
1.0
1040
0.0
1040
594.0
1040
420.0
1040
297.0
1040
50.0
1040
0.0
1040
0.0
1070
     0
1070
   100
1070
     1
1070
     1
1070
     0
1070
     0
1070
     0
1070
     0
1040
0.0
1040
0.0
1040
0.0
1040
1.0
1040
1.0
1040
0.0
1040
0.0
1070
     0
1002
{
1002
}
1002
}
  0
VIEWPORT
  8
0
  5
458
 67
     1
 68
     1
 10
0.0
 20
0.0
 30
0.0
 40
0.0
 41
0.0
 69
     1
1001
ACAD
1000
MVIEW
1002
{
1070
    16
1010
0.0
1020
0.0
1030
0.0
1010
0.0
1020
0.0
1030
1.0
1040
0.0
1040
594.0
1040
0.0
1040
0.0
1040
50.0
1040
0.0
1040
0.0
1070
     0
1070
   100
1070
     0
1070
     1
1070
     0
1070
     0
1070
     0
1070
     0
1040
0.0
1040
0.0
1040
0.0
1040
0.5
1040
0.5
1040
0.5
1040
0.5
1070
     0
1002
{
1002
}
1002
}
  0
INSERT
  8
0
  5
2DF
  2
*X0
 10
-82.729541
 20
22.524096
 30
0.0
  0
INSERT
  8
0
  5
2E0
  2
*X1
 10
-3.452881
 20
22.524096
 30
0.0
  0
INSERT
  8
0
  5
2E1
  2
*X2
 10
-173.457147
 20
-6.198672
 30
0.0
  0
INSERT
  8
0
  5
2E2
  2
*X3
 10
11.105775
 20
-6.200906
 30
0.0
  0
INSERT
  8
0
  5
2E3
  2
*X4
 10
-102.552881
 20
25.789172
 30
0.0
  0
INSERT
  8
0
  5
2E5
  2
BLK1
 10
0.0
 20
0.0
 30
0.0
  0
INSERT
  8
0
  5
2E6
  2
BLK2
 10
0.0
 20
0.0
 30
0.0
  0
INSERT
  8
0
  5
2E7
  2
*X7
 10
-47.147869
 20
44.526603
 30
0.0
  0
INSERT
  8
0
  5
2E8
  2
*X8
 10
-1.252881
 20
44.526603
 30
0.0
  0
INSERT
  8
0
  5
2E9
  2
BLK3
 10
0.0
 20
0.0
 30
0.0
  0
INSERT
  8
0
  5
2EB
  2
BLK4
 10
0.0
 20
0.0
 30
0.0
  0
INSERT
  8
0
  5
2EC
  2
*X11
 10
46.193277
 20
137.424069
 30
0.0
  0
INSERT
  8
0
  5
2ED
  2
*X12
 10
-115.056723
 20
137.424069
 30
0.0
  0
DIMENSION
  8
0
  5
2EE
  2
*D13
 10
-23.306723
 20
235.2
 30
0.0
 11
-23.306723
 21
235.2
 31
0.0
  1
%%c300
 13
-173.457147
 23
163.209662
 33
0.0
 14
126.843701
 24
163.209662
 34
0.0
  3
LC-DIM-L-0140-02-02
  0
DIMENSION
  8
0
  5
2EF
  2
*D14
 10
-23.306723
 20
196.0
 30
0.0
 11
-23.306723
 21
196.0
 31
0.0
  1
%%c190
 13
-117.700085
 23
148.909239
 33
0.0
 14
71.086639
 24
148.909239
 34
0.0
  3
LC-DIM-L-0140-02-02
  0
DIMENSION
  8
0
  5
2F0
  2
*D15
 10
-23.30275
 20
-78.400021
 30
0.0
 11
-23.30275
 21
-78.400021
 31
0.0
 70
     1
  1
%%c160
 13
-103.235918
 23
64.753273
 33
0.0
 14
56.630155
 24
64.75342
 34
0.0
  3
LC-DIM-L-0140-02-02
  0
DIMENSION
  8
0
  5
2F1
  2
*D16
 10
-23.302881
 20
-40.0
 30
0.0
 11
-23.302881
 21
-40.0
 31
0.0
  1
DN70
 13
-60.802762
 23
-2.712458
 33
0.0
 14
14.197
 24
-2.712458
 34
0.0
  3
LC-DIM-L-0140-02-02
  0
DIMENSION
  8
0
  5
2F2
  2
*D17
 10
-196.0
 20
106.507735
 30
0.0
 11
-196.0
 21
106.507735
 31
0.0
  1
110
 13
-173.457147
 23
160.214332
 33
0.0
 14
-91.283783
 24
52.801139
 34
0.0
 50
90.0
  3
LC-DIM-L-0140-02-02
  0
DIMENSION
  8
0
  5
2F3
  2
*D18
 10
-156.8
 20
83.946
 30
0.0
 11
-156.8
 21
83.946
 31
0.0
  1
50
 13
-65.053084
 23
72.521418
 33
0.0
 14
-53.802881
 24
122.521591
 34
0.0
 50
90.0
  3
LC-DIM-L-0140-02-02
  0
INSERT
  8
0
  5
2F4
  2
*X19
 10
-67.056973
 20
74.021418
 30
0.0
  0
INSERT
  8
0
  5
2F5
  2
BLK5
 10
0.0
 20
0.0
 30
0.0
  0
LINE
  8
LC-001-002-----0
  6
CONTINUOUS
  5
2F7
 10
-33.052916
 20
146.021602
 30
0.0
 11
-33.052916
 21
147.021602
 31
0.0
  0
LINE
  8
LC-001-002-----0
  6
CONTINUOUS
  5
2F8
 10
-37.052916
 20
146.021602
 30
0.0
 11
-37.052916
 21
147.021602
 31
0.0
  0
ARC
  8
LC-002-002-RND-0
  6
CONTINUOUS
  5
2FA
 10
-28.052916
 20
147.021602
 30
0.0
 40
9.0
 50
90.0
 51
180.000001
  0
ARC
  8
LC-001-002-----0
  6
CONTINUOUS
  5
2FB
 10
-28.052916
 20
147.021602
 30
0.0
 40
5.0
 50
90.0
 51
180.000001
  0
LINE
  8
LC-001-002-----0
  6
CONTINUOUS
  5
2FC
 10
-18.552919
 20
152.021603
 30
0.0
 11
-28.21002
 21
152.021602
 31
0.0
  0
LINE
  8
LC-001-002-----0
  6
CONTINUOUS
  5
2FD
 10
-18.55292
 20
156.021603
 30
0.0
 11
-28.283243
 21
156.021602
 31
0.0
  0
ARC
  8
LC-002-002-RND-0
  6
CONTINUOUS
  5
2FE
 10
-18.552919
 20
147.021603
 30
0.0
 40
9.0
 50
0.000006
 51
90.000006
  0
ARC
  8
LC-001-002-----0
  6
CONTINUOUS
  5
2FF
 10
-18.552919
 20
147.021603
 30
0.0
 40
5.0
 50
0.000005
 51
90.000006
  0
LINE
  8
LC-001-002-----0
  6
CONTINUOUS
  5
300
 10
-13.552919
 20
146.021603
 30
0.0
 11
-13.552919
 21
147.021603
 31
0.0
  0
LINE
  8
LC-001-002-----0
  6
CONTINUOUS
  5
301
 10
-9.552919
 20
146.021604
 30
0.0
 11
-9.552919
 21
147.021604
 31
0.0
  0
LINE
  8
LC-001-002-----0
  6
CONTINUOUS
  5
302
 10
-65.053084
 20
72.521418
 30
0.0
 11
-53.802881
 21
72.521418
 31
0.0
  0
LINE
  8
LC-001-002-----0
  6
CONTINUOUS
  5
303
 10
-55.053084
 20
146.021418
 30
0.0
 11
-37.052916
 21
146.021418
 31
0.0
  0
ARC
  8
LC-001-002-----0
  6
CONTINUOUS
  5
304
 10
-55.053084
 20
134.021418
 30
0.0
 40
12.0
 50
90.0
 51
179.999848
  0
LINE
  8
LC-001-002-----0
  6
CONTINUOUS
  5
305
 10
-67.053084
 20
134.021418
 30
0.0
 11
-67.053084
 21
74.521418
 31
0.0
  0
ARC
  8
LC-001-002-----0
  6
CONTINUOUS
  5
306
 10
-55.053084
 20
134.021418
 30
0.0
 40
10.0
 50
90.0
 51
179.999848
  0
LINE
  8
LC-001-002-----0
  6
CONTINUOUS
  5
307
 10
-65.053084
 20
134.021418
 30
0.0
 11
-65.053084
 21
72.521418
 31
0.0
  0
LINE
  8
LC-001-002-----0
  6
CONTINUOUS
  5
308
 10
-55.053084
 20
124.021418
 30
0.0
 11
-52.053084
 21
124.021418
 31
0.0
  0
LINE
  8
LC-001-002-----0
  6
CONTINUOUS
  5
309
 10
-55.053084
 20
124.021418
 30
0.0
 11
-55.053084
 21
144.021418
 31
0.0
  0
LINE
  8
LC-001-002-----0
  6
CONTINUOUS
  5
30A
 10
-52.053084
 20
124.021418
 30
0.0
 11
-51.553084
 21
124.021418
 31
0.0
  0
LINE
  8
LC-001-002-----0
  6
CONTINUOUS
  5
30B
 10
-8.815424
 20
115.021418
 30
0.0
 11
-48.05308
 21
115.021418
 31
0.0
  0
LINE
  8
LC-001-002-----0
  6
CONTINUOUS
  5
30C
 10
-51.553084
 20
122.728524
 30
0.0
 11
-51.553084
 21
124.021418
 31
0.0
  0
LINE
  8
LC-001-002-----0
  6
CONTINUOUS
  5
30D
 10
-51.55308
 20
121.314312
 30
0.0
 11
-51.55308
 21
118.521418
 31
0.0
  0
LINE
  8
LC-001-002-----0
  6
CONTINUOUS
  5
30E
 10
-51.55308
 20
118.521418
 30
0.0
 11
-48.05308
 21
115.021418
 31
0.0
  0
ARC
  8
LC-001-002-----0
  6
CONTINUOUS
  5
30F
 10
-51.803084
 20
122.021418
 30
0.0
 40
0.75
 50
289.471622
 51
70.528779
  0
LINE
  8
LC-001-002-----0
  6
CONTINUOUS
  5
310
 10
8.447139
 20
146.021589
 30
0.0
 11
-9.552919
 21
146.021601
 31
0.0
  0
ARC
  8
LC-001-002-----0
  6
CONTINUOUS
  5
311
 10
8.447132
 20
134.021589
 30
0.0
 40
12.0
 50
0.000096
 51
89.999963
  0
ARC
  8
LC-001-002-----0
  6
CONTINUOUS
  5
312
 10
8.447132
 20
134.021589
 30
0.0
 40
10.0
 50
0.000096
 51
89.999963
  0
LINE
  8
LC-001-002-----0
  6
CONTINUOUS
  5
313
 10
20.447132
 20
134.021581
 30
0.0
 11
20.447093
 21
74.521589
 31
0.0
  0
LINE
  8
LC-001-002-----0
  6
CONTINUOUS
  5
314
 10
18.447132
 20
134.021582
 30
0.0
 11
18.447091
 21
72.521582
 31
0.0
  0
LINE
  8
LC-001-002-----0
  6
CONTINUOUS
  5
315
 10
18.447086
 20
72.521582
 30
0.0
 11
7.197119
 21
72.52159
 31
0.0
  0
LINE
  8
LC-001-002-----0
  6
CONTINUOUS
  5
316
 10
8.447138
 20
144.021589
 30
0.0
 11
-21.864389
 21
144.021589
 31
0.0
  0
LINE
  8
LC-001-002-----0
  6
CONTINUOUS
  5
317
 10
-65.053084
 20
72.521418
 30
0.0
 11
-67.053084
 21
74.521418
 31
0.0
  0
LINE
  8
LC-001-002-----0
  6
CONTINUOUS
  5
318
 10
18.447086
 20
72.521582
 30
0.0
 11
20.447087
 21
74.521584
 31
0.0
  0
ARC
  8
LC-002-002-RND-0
  6
CONTINUOUS
  5
319
 10
-48.202881
 20
23.524096
 30
0.0
 40
1.0
 50
180.0
 51
270.0
  0
LINE
  8
LC-001-002-----0
  6
CONTINUOUS
  5
31A
 10
-45.894062
 20
25.05307
 30
0.0
 11
-49.202881
 21
24.166475
 31
0.0
  0
ARC
  8
LC-002-002-RND-0
  6
CONTINUOUS
  5
31B
 10
-46.152881
 20
26.018996
 30
0.0
 40
1.0
 50
285.0
 51
0.0
  0
LINE
  8
LC-001-002-----0
  6
CONTINUOUS
  5
31C
 10
3.990012
 20
120.814484
 30
0.0
 11
4.947799
 21
119.856697
 31
0.0
  0
LINE
  8
LC-001-002-----0
  6
CONTINUOUS
  5
31D
 10
-0.7117
 20
25.05307
 30
0.0
 11
2.597119
 21
24.166475
 31
0.0
  0
ARC
  8
LC-002-002-RND-0
  6
CONTINUOUS
  5
31E
 10
1.597119
 20
23.524096
 30
0.0
 40
1.0
 50
270.0
 51
0.0
  0
ARC
  8
LC-002-002-RND-0
  6
CONTINUOUS
  5
31F
 10
-0.452881
 20
26.018996
 30
0.0
 40
1.0
 50
180.0
 51
255.0
  0
LINE
  8
LC-001-002-----0
  6
CONTINUOUS
  5
320
 10
2.597119
 20
24.166475
 30
0.0
 11
2.597119
 21
23.524096
 31
0.0
  0
ARC
  8
LC-001-002-----0
  6
CONTINUOUS
  5
321
 10
4.697119
 20
121.521591
 30
0.0
 40
1.0
 50
90.0
 51
225.0
  0
ARC
  8
LC-001-002-----0
  6
CONTINUOUS
  5
322
 10
-51.302881
 20
121.521591
 30
0.0
 40
1.0
 50
315.0
 51
90.0
  0
LINE
  8
LC-001-002-----0
  6
CONTINUOUS
  5
323
 10
-45.152881
 20
40.521591
 30
0.0
 11
-45.152881
 21
36.021591
 31
0.0
  0
LINE
  8
LC-001-002-----0
  6
CONTINUOUS
  5
324
 10
-50.595774
 20
120.814484
 30
0.0
 11
-51.553562
 21
119.856697
 31
0.0
  0
LINE
  8
LC-001-002-----0
  6
CONTINUOUS
  5
325
 10
-51.302881
 20
122.521591
 30
0.0
 11
-53.802881
 21
122.521591
 31
0.0
  0
LINE
  8
LC-001-002-----0
  6
CONTINUOUS
  5
326
 10
-43.152881
 20
22.524096
 30
0.0
 11
-48.202881
 21
22.524096
 31
0.0
  0
LINE
  8
LC-001-002-----0
  6
CONTINUOUS
  5
327
 10
-50.818599
 20
60.009582
 30
0.0
 11
-51.553562
 21
119.856697
 31
0.0
  0
ARC
  8
LC-002-002-RND-0
  6
CONTINUOUS
  5
328
 10
-50.802881
 20
58.025779
 30
0.0
 40
3.0
 50
180.0
 51
241.252115
  0
LINE
  8
LC-001-002-----0
  6
CONTINUOUS
  5
329
 10
-1.452881
 20
40.521591
 30
0.0
 11
-1.452881
 21
36.021591
 31
0.0
  0
LINE
  8
LC-001-002-----0
  6
CONTINUOUS
  5
32A
 10
-47.152881
 20
44.521591
 30
0.0
 11
-46.352881
 21
44.521591
 31
0.0
  0
LINE
  8
LC-001-002-----0
  6
CONTINUOUS
  5
32B
 10
-53.802881
 20
58.025779
 30
0.0
 11
-53.802881
 21
122.521591
 31
0.0
  0
LINE
  8
LC-001-002-----0
  6
CONTINUOUS
  5
32C
 10
-4.092923
 20
22.524096
 30
0.0
 11
-3.452881
 21
22.524096
 31
0.0
  0
LINE
  8
LC-001-002-----0
  6
CONTINUOUS
  5
32D
 10
4.697119
 20
122.521591
 30
0.0
 11
7.197119
 21
122.521591
 31
0.0
  0
LINE
  8
LC-001-002-----0
  6
CONTINUOUS
  5
32E
 10
4.212837
 20
60.009582
 30
0.0
 11
4.947799
 21
119.856697
 31
0.0
  0
ARC
  8
LC-002-002-RND-0
  6
CONTINUOUS
  5
32F
 10
4.197119
 20
58.025779
 30
0.0
 40
3.0
 50
298.747885
 51
0.0
  0
LINE
  8
LC-001-002-----0
  6
CONTINUOUS
  5
330
 10
-1.252881
 20
45.521591
 30
0.0
 11
-1.252881
 21
47.005904
 31
0.0
  0
ARC
  8
LC-002-002-RND-0
  6
CONTINUOUS
  5
331
 10
-46.352881
 20
45.521591
 30
0.0
 40
1.0
 50
270.0
 51
0.0
  0
LINE
  8
LC-001-002-----0
  6
CONTINUOUS
  5
332
 10
0.547119
 20
48.021591
 30
0.0
 11
-0.252881
 21
48.021591
 31
0.0
  0
LINE
  8
LC-001-002-----0
  6
CONTINUOUS
  5
333
 10
0.547119
 20
44.521591
 30
0.0
 11
-0.252881
 21
44.521591
 31
0.0
  0
LINE
  8
LC-001-002-----0
  6
CONTINUOUS
  5
334
 10
7.197119
 20
58.025779
 30
0.0
 11
7.197119
 21
122.521591
 31
0.0
  0
LINE
  8
LC-001-002-----0
  6
CONTINUOUS
  5
335
 10
-45.152881
 20
32.521591
 30
0.0
 11
-47.152881
 21
32.521591
 31
0.0
  0
ARC
  8
LC-002-002-RND-0
  6
CONTINUOUS
  5
336
 10
-48.818711
 20
60.030708
 30
0.0
 40
2.0
 50
180.605215
 51
229.596374
  0
LINE
  8
LC-001-002-----0
  6
CONTINUOUS
  5
337
 10
-47.152881
 20
32.521591
 30
0.0
 11
-47.152881
 21
35.021591
 31
0.0
  0
LINE
  8
LC-001-002-----0
  6
CONTINUOUS
  5
338
 10
0.547119
 20
41.521591
 30
0.0
 11
0.547119
 21
44.521591
 31
0.0
  0
ARC
  8
LC-001-002-----0
  6
CONTINUOUS
  5
339
 10
16.335449
 20
43.438954
 30
0.0
 40
19.78833
 50
130.403626
 51
180.0
  0
ARC
  8
LC-001-002-----0
  6
CONTINUOUS
  5
33A
 10
10.449552
 20
46.628101
 30
0.0
 40
10.0
 50
118.747885
 51
171.989821
  0
LINE
  8
LC-001-002-----0
  6
CONTINUOUS
  5
33B
 10
-4.092923
 20
32.521591
 30
0.0
 11
-42.51284
 21
32.521591
 31
0.0
  0
ARC
  8
LC-002-002-RND-0
  6
CONTINUOUS
  5
33C
 10
-0.252881
 20
45.521591
 30
0.0
 40
1.0
 50
180.0
 51
270.0
  0
ARC
  8
LC-002-002-RND-0
  6
CONTINUOUS
  5
33D
 10
-46.152881
 20
40.521591
 30
0.0
 40
1.0
 50
0.0
 51
90.0
  0
LINE
  8
LC-001-002-----0
  6
CONTINUOUS
  5
33E
 10
7.197119
 20
122.521591
 30
0.0
 11
4.697119
 21
122.521591
 31
0.0
  0
LINE
  8
LC-001-002-----0
  6
CONTINUOUS
  5
33F
 10
-42.51284
 20
22.524096
 30
0.0
 11
-43.064939
 21
22.524096
 31
0.0
  0
LINE
  8
LC-001-002-----0
  6
CONTINUOUS
  5
340
 10
-0.452881
 20
41.521591
 30
0.0
 11
0.547119
 21
41.521591
 31
0.0
  0
LINE
  8
LC-001-002-----0
  6
CONTINUOUS
  5
341
 10
-3.452881
 20
43.438954
 30
0.0
 11
-3.452881
 21
22.524096
 31
0.0
  0
LINE
  8
LC-001-002-----0
  6
CONTINUOUS
  5
342
 10
-1.452881
 20
32.521591
 30
0.0
 11
0.547119
 21
32.521591
 31
0.0
  0
LINE
  8
LC-001-002-----0
  6
CONTINUOUS
  5
343
 10
-8.586545
 20
122.521591
 30
0.0
 11
4.697119
 21
122.521591
 31
0.0
  0
LINE
  8
LC-001-002-----0
  6
CONTINUOUS
  5
344
 10
-49.202881
 20
24.166475
 30
0.0
 11
-49.202881
 21
23.524096
 31
0.0
  0
ARC
  8
LC-002-002-RND-0
  6
CONTINUOUS
  5
345
 10
-0.452881
 20
36.021591
 30
0.0
 40
1.0
 50
180.0
 51
270.0
  0
LINE
  8
LC-001-002-----0
  6
CONTINUOUS
  5
346
 10
-0.452881
 20
35.021591
 30
0.0
 11
0.547119
 21
35.021591
 31
0.0
  0
ARC
  8
LC-002-002-RND-0
  6
CONTINUOUS
  5
347
 10
-0.252881
 20
47.021591
 30
0.0
 40
1.0
 50
90.0
 51
180.0
  0
LINE
  8
LC-001-002-----0
  6
CONTINUOUS
  5
348
 10
-43.152881
 20
43.438954
 30
0.0
 11
-43.152881
 21
22.524096
 31
0.0
  0
LINE
  8
LC-001-002-----0
  6
CONTINUOUS
  5
349
 10
-46.152881
 20
41.521591
 30
0.0
 11
-47.152881
 21
41.521591
 31
0.0
  0
LINE
  8
LC-001-002-----0
  6
CONTINUOUS
  5
34A
 10
-46.152881
 20
35.021591
 30
0.0
 11
-47.152881
 21
35.021591
 31
0.0
  0
LINE
  8
LC-001-002-----0
  6
CONTINUOUS
  5
34B
 10
-45.152881
 20
32.521591
 30
0.0
 11
-45.152881
 21
26.018996
 31
0.0
  0
LINE
  8
LC-001-002-----0
  6
CONTINUOUS
  5
34C
 10
-47.152881
 20
41.521591
 30
0.0
 11
-47.152881
 21
44.521591
 31
0.0
  0
ARC
  8
LC-002-002-RND-0
  6
CONTINUOUS
  5
34D
 10
-46.152881
 20
36.021591
 30
0.0
 40
1.0
 50
270.0
 51
0.0
  0
LINE
  8
LC-001-002-----0
  6
CONTINUOUS
  5
34E
 10
-45.352881
 20
45.521591
 30
0.0
 11
-45.352881
 21
47.005904
 31
0.0
  0
LINE
  8
LC-001-002-----0
  6
CONTINUOUS
  5
34F
 10
-47.152881
 20
48.021591
 30
0.0
 11
-46.352881
 21
48.021591
 31
0.0
  0
ARC
  8
LC-002-002-RND-0
  6
CONTINUOUS
  5
350
 10
-46.352881
 20
47.021591
 30
0.0
 40
1.0
 50
0.0
 51
90.0
  0
ARC
  8
LC-001-002-----0
  6
CONTINUOUS
  5
351
 10
-57.055314
 20
46.628101
 30
0.0
 40
10.0
 50
8.010179
 51
61.252115
  0
LINE
  8
LC-001-002-----0
  6
CONTINUOUS
  5
352
 10
0.547119
 20
32.521591
 30
0.0
 11
0.547119
 21
35.021591
 31
0.0
  0
LINE
  8
LC-001-002-----0
  6
CONTINUOUS
  5
353
 10
-1.452881
 20
32.521591
 30
0.0
 11
-1.452881
 21
26.018996
 31
0.0
  0
ARC
  8
LC-002-002-RND-0
  6
CONTINUOUS
  5
354
 10
2.212949
 20
60.030708
 30
0.0
 40
2.0
 50
310.403626
 51
359.394785
  0
ARC
  8
LC-002-002-RND-0
  6
CONTINUOUS
  5
355
 10
-0.452881
 20
40.521591
 30
0.0
 40
1.0
 50
90.0
 51
180.0
  0
LINE
  8
LC-001-002-----0
  6
CONTINUOUS
  5
356
 10
-53.802881
 20
122.521591
 30
0.0
 11
-51.302881
 21
122.521591
 31
0.0
  0
LINE
  8
LC-001-002-----0
  6
CONTINUOUS
  5
357
 10
-3.452881
 20
22.524096
 30
0.0
 11
1.597119
 21
22.524096
 31
0.0
  0
ARC
  8
LC-001-002-----0
  6
CONTINUOUS
  5
358
 10
-62.941211
 20
43.438954
 30
0.0
 40
19.78833
 50
0.0
 51
49.596374
  0
LINE
  8
LC-001-002-----0
  6
CONTINUOUS
  5
359
 10
-50.818599
 20
60.009582
 30
0.0
 11
4.212837
 21
60.009582
 31
0.0
  0
LINE
  8
LC-001-002-----0
  6
CONTINUOUS
  5
35A
 10
-42.51284
 20
32.521591
 30
0.0
 11
-42.51284
 21
22.524096
 31
0.0
  0
LINE
  8
LC-001-002-----0
  6
CONTINUOUS
  5
35B
 10
-4.092923
 20
32.521591
 30
0.0
 11
-4.092923
 21
22.524096
 31
0.0
  0
LINE
  8
LC-001-002-----0
  6
CONTINUOUS
  5
35C
 10
4.947799
 20
119.856697
 30
0.0
 11
-8.346513
 21
119.856697
 31
0.0
  0
ARC
  8
LC-002-002-RND-0
  6
CONTINUOUS
  5
35D
 10
-57.302881
 20
46.789172
 30
0.0
 40
9.0
 50
0.0
 51
90.0
  0
LINE
  8
LC-001-002-----0
  6
CONTINUOUS
  5
35E
 10
56.630155
 20
64.75342
 30
0.0
 11
56.630155
 21
124.962796
 31
0.0
  0
ARC
  8
LC-001-002-----0
  6
CONTINUOUS
  5
35F
 10
44.678021
 20
64.75342
 30
0.0
 40
11.952134
 50
269.999963
 51
0.0
  0
LINE
  8
LC-001-002-----0
  6
CONTINUOUS
  5
360
 10
-47.302881
 20
25.789172
 30
0.0
 11
-45.179649
 21
25.789172
 31
0.0
  0
LINE
  8
LC-001-002-----0
  6
CONTINUOUS
  5
361
 10
14.197
 20
52.801315
 30
0.0
 11
14.197
 21
-2.712458
 31
0.0
  0
LINE
  8
LC-001-002-----0
  6
CONTINUOUS
  5
362
 10
-57.71897
 20
55.789172
 30
0.0
 11
-57.302881
 21
55.789172
 31
0.0
  0
LINE
  8
LC-001-002-----0
  6
CONTINUOUS
  5
363
 10
14.197
 20
-2.712458
 30
0.0
 11
13.262919
 21
-6.198495
 31
0.0
  0
LINE
  8
LC-001-002-----0
  6
CONTINUOUS
  5
364
 10
-60.802762
 20
52.801139
 30
0.0
 11
-60.802762
 21
-2.712458
 31
0.0
  0
LINE
  8
LC-001-002-----0
  6
CONTINUOUS
  5
365
 10
-60.802762
 20
-2.712458
 30
0.0
 11
-59.868634
 21
-6.198496
 31
0.0
  0
LINE
  8
LC-001-002-----0
  6
CONTINUOUS
  5
366
 10
-109.708615
 20
148.073163
 30
0.0
 11
-109.708615
 21
154.547236
 31
0.0
  0
LINE
  8
LC-001-002-----0
  6
CONTINUOUS
  5
367
 10
-111.700637
 20
154.547236
 30
0.0
 11
-109.708615
 21
154.547236
 31
0.0
  0
LINE
  8
LC-001-002-----0
  6
CONTINUOUS
  5
368
 10
63.095168
 20
148.073163
 30
0.0
 11
63.095168
 21
154.547236
 31
0.0
  0
LINE
  8
LC-001-002-----0
  6
CONTINUOUS
  5
369
 10
65.087191
 20
154.547236
 30
0.0
 11
63.095168
 21
154.547236
 31
0.0
  0
LINE
  8
LC-001-002-----0
  6
CONTINUOUS
  5
36A
 10
65.087191
 20
148.571169
 30
0.0
 11
65.087191
 21
154.547236
 31
0.0
  0
LINE
  8
LC-001-002-----0
  6
CONTINUOUS
  5
36B
 10
-111.700637
 20
148.571169
 30
0.0
 11
-111.700637
 21
154.547236
 31
0.0
  0
LINE
  8
LC-001-002-----0
  6
CONTINUOUS
  5
36C
 10
-113.69266
 20
148.571169
 30
0.0
 11
-111.700637
 21
148.571169
 31
0.0
  0
LINE
  8
LC-001-002-----0
  6
CONTINUOUS
  5
36D
 10
-100.496887
 20
64.753273
 30
0.0
 11
-100.496887
 21
127.900383
 31
0.0
  0
ARC
  8
LC-001-002-----0
  6
CONTINUOUS
  5
36E
 10
-91.283783
 20
64.753273
 30
0.0
 40
11.952134
 50
180.0
 51
270.0
  0
LINE
  8
LC-001-002-----0
  6
CONTINUOUS
  5
36F
 10
-101.841502
 20
137.113487
 30
0.0
 11
-66.647872
 21
137.113487
 31
0.0
  0
LINE
  8
LC-001-002-----0
  6
CONTINUOUS
  5
370
 10
11.105647
 20
-6.198495
 30
0.0
 11
11.105672
 21
52.801315
 31
0.0
  0
LINE
  8
LC-001-002-----0
  6
CONTINUOUS
  5
371
 10
13.262919
 20
-6.198495
 30
0.0
 11
-23.306597
 21
-6.19848
 31
0.0
  0
LINE
  8
LC-001-002-----0
  6
CONTINUOUS
  5
372
 10
-101.044693
 20
136.316678
 30
0.0
 11
-100.845491
 21
136.316678
 31
0.0
  0
LINE
  8
LC-001-002-----0
  6
CONTINUOUS
  5
373
 10
-109.70999
 20
137.611492
 30
0.0
 11
-109.70999
 21
154.543683
 31
0.0
  0
LINE
  8
LC-001-002-----0
  6
CONTINUOUS
  5
374
 10
67.079213
 20
148.571169
 30
0.0
 11
65.087191
 21
148.571169
 31
0.0
  0
LINE
  8
LC-001-002-----0
  6
CONTINUOUS
  5
375
 10
-101.044693
 20
132.830638
 30
0.0
 11
-101.044693
 21
134.324655
 31
0.0
  0
LINE
  8
LC-001-002-----0
  6
CONTINUOUS
  5
376
 10
-101.044693
 20
129.3944
 30
0.0
 11
-101.044693
 21
129.892405
 31
0.0
  0
LINE
  8
LC-001-002-----0
  6
CONTINUOUS
  5
377
 10
-101.044693
 20
127.900383
 30
0.0
 11
-101.044693
 21
130.838616
 31
0.0
  0
LINE
  8
LC-001-002-----0
  6
CONTINUOUS
  5
378
 10
-101.044693
 20
127.900383
 30
0.0
 11
-100.496887
 21
127.900383
 31
0.0
  0
LINE
  8
LC-001-002-----0
  6
CONTINUOUS
  5
379
 10
-101.044693
 20
130.838616
 30
0.0
 11
-100.845491
 21
130.838616
 31
0.0
  0
LINE
  8
LC-001-002-----0
  6
CONTINUOUS
  5
37A
 10
-100.048682
 20
131.635425
 30
0.0
 11
-100.048682
 21
132.03383
 31
0.0
  0
LINE
  8
LC-001-002-----0
  6
CONTINUOUS
  5
37B
 10
-100.048682
 20
135.121464
 30
0.0
 11
-100.048682
 21
135.519869
 31
0.0
  0
LINE
  8
LC-001-002-----0
  6
CONTINUOUS
  5
37C
 10
-101.044693
 20
134.324655
 30
0.0
 11
-100.845491
 21
134.324655
 31
0.0
  0
ARC
  8
LC-001-002-----0
  6
CONTINUOUS
  5
37D
 10
-100.845491
 20
135.519869
 30
0.0
 40
0.796809
 50
0.0
 51
90.0
  0
ARC
  8
LC-001-002-----0
  6
CONTINUOUS
  5
37E
 10
-100.845491
 20
132.03383
 30
0.0
 40
0.796809
 50
0.0
 51
90.0
  0
LINE
  8
LC-001-002-----0
  6
CONTINUOUS
  5
37F
 10
-130.085051
 20
158.179905
 30
0.0
 11
-115.139032
 21
157.134778
 31
0.0
  0
LINE
  8
LC-001-002-----0
  6
CONTINUOUS
  5
380
 10
-113.744867
 20
148.567615
 30
0.0
 11
-111.702013
 21
148.567615
 31
0.0
  0
ARC
  8
LC-001-002-----0
  6
CONTINUOUS
  5
381
 10
-100.845491
 20
131.635425
 30
0.0
 40
0.796809
 50
270.0
 51
0.0
  0
ARC
  8
LC-001-002-----0
  6
CONTINUOUS
  5
382
 10
-100.845491
 20
135.121464
 30
0.0
 40
0.796809
 50
270.0
 51
0.0
  0
LINE
  8
LC-001-002-----0
  6
CONTINUOUS
  5
383
 10
53.88344
 20
64.753273
 30
0.0
 11
53.88344
 21
127.900383
 31
0.0
  0
ARC
  8
LC-001-002-----0
  6
CONTINUOUS
  5
384
 10
-109.211985
 20
137.611492
 30
0.0
 40
0.498006
 50
180.0
 51
270.0
  0
LINE
  8
LC-001-002-----0
  6
CONTINUOUS
  5
385
 10
-111.702013
 20
148.567615
 30
0.0
 11
-111.702013
 21
154.543683
 31
0.0
  0
LINE
  8
LC-001-002-----0
  6
CONTINUOUS
  5
386
 10
-173.457147
 20
163.209662
 30
0.0
 11
-132.964336
 21
160.378131
 31
0.0
  0
ARC
  8
LC-001-002-----0
  6
CONTINUOUS
  5
387
 10
-113.744867
 20
149.563627
 30
0.0
 40
0.996011
 50
183.0
 51
270.0
  0
LINE
  8
LC-001-002-----0
  6
CONTINUOUS
  5
388
 10
-173.457147
 20
160.214332
 30
0.0
 11
-134.114705
 21
157.463243
 31
0.0
  0
LINE
  8
LC-001-002-----0
  6
CONTINUOUS
  5
389
 10
-115.139032
 20
157.134778
 30
0.0
 11
-114.739513
 21
149.511499
 31
0.0
  0
LINE
  8
LC-001-002-----0
  6
CONTINUOUS
  5
38A
 10
-173.457147
 20
163.209662
 30
0.0
 11
-173.457147
 21
160.214332
 31
0.0
  0
LINE
  8
LC-001-002-----0
  6
CONTINUOUS
  5
38B
 10
54.431246
 20
136.316678
 30
0.0
 11
54.232044
 21
136.316678
 31
0.0
  0
LINE
  8
LC-001-002-----0
  6
CONTINUOUS
  5
38C
 10
-117.915439
 20
153.018448
 30
0.0
 11
-117.700084
 21
148.909239
 31
0.0
  0
LINE
  8
LC-001-002-----0
  6
CONTINUOUS
  5
38D
 10
-134.114705
 20
157.463243
 30
0.0
 11
-131.967684
 21
155.316221
 31
0.0
  0
ARC
  8
LC-001-002-----0
  6
CONTINUOUS
  5
38E
 10
-129.946095
 20
160.167075
 30
0.0
 40
1.992022
 50
225.0
 51
266.000003
  0
LINE
  8
LC-001-002-----0
  6
CONTINUOUS
  5
38F
 10
-57.71897
 20
-6.198672
 30
0.0
 11
-57.71897
 21
52.801139
 31
0.0
  0
LINE
  8
LC-001-002-----0
  6
CONTINUOUS
  5
390
 10
-101.044693
 20
132.830638
 30
0.0
 11
-100.845491
 21
132.830638
 31
0.0
  0
LINE
  8
LC-001-002-----0
  6
CONTINUOUS
  5
391
 10
-59.868587
 20
-6.198672
 30
0.0
 11
-23.306723
 21
-6.198672
 31
0.0
  0
LINE
  8
LC-001-002-----0
  6
CONTINUOUS
  5
392
 10
-103.235918
 20
64.753273
 30
0.0
 11
-103.235918
 21
124.951823
 31
0.0
  0
LINE
  8
LC-001-002-----0
  6
CONTINUOUS
  5
393
 10
63.096544
 20
137.611492
 30
0.0
 11
63.096544
 21
154.543683
 31
0.0
  0
LINE
  8
LC-001-002-----0
  6
CONTINUOUS
  5
394
 10
54.431246
 20
132.830638
 30
0.0
 11
54.431246
 21
134.324655
 31
0.0
  0
LINE
  8
LC-001-002-----0
  6
CONTINUOUS
  5
395
 10
54.431246
 20
129.3944
 30
0.0
 11
54.431246
 21
129.892405
 31
0.0
  0
LINE
  8
LC-001-002-----0
  6
CONTINUOUS
  5
396
 10
54.431246
 20
127.900383
 30
0.0
 11
54.431246
 21
130.838616
 31
0.0
  0
ARC
  8
LC-001-002-----0
  6
CONTINUOUS
  5
397
 10
-91.532786
 20
64.753273
 30
0.0
 40
8.964101
 50
180.0
 51
270.0
  0
ARC
  8
LC-004-001-RND-0
  6
CONTINUOUS
  5
399
 10
-119.407409
 20
152.940257
 30
0.0
 40
1.494017
 50
3.0
 51
86.000003
  0
LINE
  8
LC-001-002-----0
  6
CONTINUOUS
  5
39A
 10
54.431246
 20
127.900383
 30
0.0
 11
53.88344
 21
127.900383
 31
0.0
  0
LINE
  8
LC-001-002-----0
  6
CONTINUOUS
  5
39B
 10
54.431246
 20
130.838616
 30
0.0
 11
54.232044
 21
130.838616
 31
0.0
  0
LINE
  8
LC-001-002-----0
  6
CONTINUOUS
  5
39C
 10
53.435235
 20
131.635425
 30
0.0
 11
53.435235
 21
132.03383
 31
0.0
  0
LINE
  8
LC-001-002-----0
  6
CONTINUOUS
  5
39D
 10
53.435235
 20
135.121464
 30
0.0
 11
53.435235
 21
135.519869
 31
0.0
  0
LINE
  8
LC-001-002-----0
  6
CONTINUOUS
  5
39E
 10
54.431246
 20
134.324655
 30
0.0
 11
54.232044
 21
134.324655
 31
0.0
  0
LINE
  8
LC-001-002-----0
  6
CONTINUOUS
  5
39F
 10
83.471605
 20
158.179905
 30
0.0
 11
68.525587
 21
157.134778
 31
0.0
  0
ARC
  8
LC-001-002-----0
  6
CONTINUOUS
  5
3A0
 10
54.232044
 20
135.519869
 30
0.0
 40
0.796809
 50
90.0
 51
180.0
  0
ARC
  8
LC-001-002-----0
  6
CONTINUOUS
  5
3A1
 10
54.232044
 20
132.03383
 30
0.0
 40
0.796809
 50
90.0
 51
180.0
  0
LINE
  8
LC-001-002-----0
  6
CONTINUOUS
  5
3A2
 10
67.131421
 20
148.567615
 30
0.0
 11
65.088566
 21
148.567615
 31
0.0
  0
LINE
  8
LC-001-002-----0
  6
CONTINUOUS
  5
3A3
 10
65.088566
 20
148.567615
 30
0.0
 11
65.088566
 21
154.543683
 31
0.0
  0
ARC
  8
LC-001-002-----0
  6
CONTINUOUS
  5
3A4
 10
54.232044
 20
131.635425
 30
0.0
 40
0.796809
 50
180.0
 51
270.0
  0
ARC
  8
LC-001-002-----0
  6
CONTINUOUS
  5
3A5
 10
54.232044
 20
135.121464
 30
0.0
 40
0.796809
 50
180.0
 51
270.0
  0
LINE
  8
LC-001-002-----0
  6
CONTINUOUS
  5
3A6
 10
126.843701
 20
163.209662
 30
0.0
 11
86.350889
 21
160.378131
 31
0.0
  0
ARC
  8
LC-001-002-----0
  6
CONTINUOUS
  5
3A7
 10
62.598538
 20
137.611492
 30
0.0
 40
0.498006
 50
270.0
 51
0.0
  0
LINE
  8
LC-001-002-----0
  6
CONTINUOUS
  5
3A8
 10
126.843701
 20
160.214332
 30
0.0
 11
87.501258
 21
157.463243
 31
0.0
  0
LINE
  8
LC-001-002-----0
  6
CONTINUOUS
  5
3A9
 10
68.525587
 20
157.134778
 30
0.0
 11
68.126067
 21
149.511499
 31
0.0
  0
ARC
  8
LC-001-002-----0
  6
CONTINUOUS
  5
3AA
 10
67.131421
 20
149.563627
 30
0.0
 40
0.996011
 50
270.0
 51
357.0
  0
LINE
  8
LC-001-002-----0
  6
CONTINUOUS
  5
3AB
 10
126.843701
 20
163.209662
 30
0.0
 11
126.843701
 21
160.214332
 31
0.0
  0
LINE
  8
LC-001-002-----0
  6
CONTINUOUS
  5
3AC
 10
71.301992
 20
153.018448
 30
0.0
 11
71.086639
 21
148.909239
 31
0.0
  0
LINE
  8
LC-001-002-----0
  6
CONTINUOUS
  5
3AD
 10
87.501258
 20
157.463243
 30
0.0
 11
85.354238
 21
155.316221
 31
0.0
  0
LINE
  8
LC-001-002-----0
  6
CONTINUOUS
  5
3AE
 10
54.431246
 20
132.830638
 30
0.0
 11
54.232044
 21
132.830638
 31
0.0
  0
LINE
  8
LC-001-002-----0
  6
CONTINUOUS
  5
3AF
 10
65.835575
 20
138.109498
 30
0.0
 11
56.630155
 21
124.962796
 31
0.0
  0
ARC
  8
LC-001-002-----0
  6
CONTINUOUS
  5
3B0
 10
83.332648
 20
160.167075
 30
0.0
 40
1.992022
 50
273.999997
 51
315.0
  0
LINE
  8
LC-001-002-----0
  6
CONTINUOUS
  5
3B1
 10
68.1027
 20
146.077587
 30
0.0
 11
67.827597
 21
146.077587
 31
0.0
  0
LINE
  8
LC-001-002-----0
  6
CONTINUOUS
  5
3B2
 10
-112.449021
 20
138.109498
 30
0.0
 11
-103.235918
 21
124.951823
 31
0.0
  0
LINE
  8
LC-005-001-----0
  6
CONTINUOUS
  5
3B4
 10
85.354238
 20
155.316221
 30
0.0
 11
72.689745
 21
154.430634
 31
0.0
  0
ARC
  8
LC-001-002-----0
  6
CONTINUOUS
  5
3B5
 10
44.919339
 20
64.753273
 30
0.0
 40
8.964101
 50
270.0
 51
0.0
  0
ARC
  8
LC-004-001-RND-0
  6
CONTINUOUS
  5
3B6
 10
72.793962
 20
152.940257
 30
0.0
 40
1.494017
 50
93.999997
 51
177.0
  0
LINE
  8
LC-001-002-----0
  6
CONTINUOUS
  5
3B7
 10
-114.716146
 20
146.077587
 30
0.0
 11
-114.441044
 21
146.077587
 31
0.0
  0
LINE
  8
LC-005-001-----0
  6
CONTINUOUS
  5
3B8
 10
-131.967684
 20
155.316221
 30
0.0
 11
-119.303191
 21
154.430634
 31
0.0
  0
LINE
  8
LC-001-002-----0
  6
CONTINUOUS
  5
3B9
 10
-112.449021
 20
138.109498
 30
0.0
 11
-112.449021
 21
144.085565
 31
0.0
  0
LINE
  8
LC-001-002-----0
  6
CONTINUOUS
  5
3BA
 10
-109.211985
 20
137.113487
 30
0.0
 11
-101.841502
 21
137.113487
 31
0.0
  0
LINE
  8
LC-001-002-----0
  6
CONTINUOUS
  5
3BB
 10
-109.70999
 20
138.607503
 30
0.0
 11
-109.70999
 21
139.901703
 31
0.0
  0
LINE
  8
LC-001-002-----0
  6
CONTINUOUS
  5
3BC
 10
65.835575
 20
138.109498
 30
0.0
 11
65.835575
 21
144.085565
 31
0.0
  0
ARC
  8
LC-001-002-----0
  6
CONTINUOUS
  5
3BD
 10
-114.716146
 20
149.065621
 30
0.0
 40
2.988034
 50
183.0
 51
270.0
  0
ARC
  8
LC-001-002-----0
  6
CONTINUOUS
  5
3BE
 10
-114.441044
 20
144.085565
 30
0.0
 40
1.992022
 50
0.0
 51
90.0
  0
LINE
  8
LC-001-002-----0
  6
CONTINUOUS
  5
3BF
 10
-111.702013
 20
154.543683
 30
0.0
 11
-109.70999
 21
154.543683
 31
0.0
  0
LINE
  8
LC-001-002-----0
  6
CONTINUOUS
  5
3C0
 10
-101.044693
 20
129.145397
 30
0.0
 11
-101.044693
 21
129.643403
 31
0.0
  0
LINE
  8
LC-001-002-----0
  6
CONTINUOUS
  5
3C1
 10
-109.70999
 20
138.607503
 30
0.0
 11
-109.70999
 21
139.901703
 31
0.0
  0
ARC
  8
LC-001-002-----0
  6
CONTINUOUS
  5
3C2
 10
68.1027
 20
149.065621
 30
0.0
 40
2.988034
 50
270.0
 51
357.0
  0
LINE
  8
LC-001-002-----0
  6
CONTINUOUS
  5
3C3
 10
62.598538
 20
137.113487
 30
0.0
 11
55.228055
 21
137.113487
 31
0.0
  0
ARC
  8
LC-001-002-----0
  6
CONTINUOUS
  5
3C4
 10
67.827597
 20
144.085565
 30
0.0
 40
1.992022
 50
90.0
 51
180.0
  0
LINE
  8
LC-001-002-----0
  6
CONTINUOUS
  5
3C5
 10
-101.044693
 20
129.344599
 30
0.0
 11
-101.044693
 21
129.842605
 31
0.0
  0
LINE
  8
LC-001-002-----0
  6
CONTINUOUS
  5
3C6
 10
63.096544
 20
138.607503
 30
0.0
 11
63.096544
 21
139.901703
 31
0.0
  0
LINE
  8
LC-001-002-----0
  6
CONTINUOUS
  5
3C7
 10
65.088566
 20
154.543683
 30
0.0
 11
63.096544
 21
154.543683
 31
0.0
  0
LINE
  8
LC-001-002-----0
  6
CONTINUOUS
  5
3C8
 10
54.431246
 20
129.145397
 30
0.0
 11
54.431246
 21
129.643403
 31
0.0
  0
LINE
  8
LC-001-002-----0
  6
CONTINUOUS
  5
3C9
 10
-132.964336
 20
160.378131
 30
0.0
 11
-131.354668
 21
158.768463
 31
0.0
  0
LINE
  8
LC-001-002-----0
  6
CONTINUOUS
  5
3CA
 10
63.096544
 20
138.607503
 30
0.0
 11
63.096544
 21
139.901703
 31
0.0
  0
LINE
  8
LC-001-002-----0
  6
CONTINUOUS
  5
3CB
 10
54.431246
 20
129.344599
 30
0.0
 11
54.431246
 21
129.842605
 31
0.0
  0
LINE
  8
LC-001-002-----0
  6
CONTINUOUS
  5
3CC
 10
86.350889
 20
160.378131
 30
0.0
 11
84.741221
 21
158.768463
 31
0.0
  0
LINE
  8
LC-001-002-----0
  6
CONTINUOUS
  5
3CD
 10
-173.457147
 20
163.209662
 30
0.0
 11
126.843701
 21
163.209662
 31
0.0
  0
LINE
  8
LC-001-002-----0
  6
CONTINUOUS
  5
3CE
 10
44.678013
 20
52.801285
 30
0.0
 11
14.197
 21
52.801315
 31
0.0
  0
LINE
  8
LC-001-002-----0
  6
CONTINUOUS
  5
3CF
 10
-60.802762
 20
52.801139
 30
0.0
 11
-91.283783
 21
52.801139
 31
0.0
  0
ARC
  8
LC-001-002-----0
  6
CONTINUOUS
  5
3D0
 10
-101.841502
 20
136.316678
 30
0.0
 40
0.796809
 50
0.0
 51
90.0
  0
LINE
  8
LC-001-002-----0
  6
CONTINUOUS
  5
3D1
 10
-91.532786
 20
55.789172
 30
0.0
 11
-57.71897
 21
55.789172
 31
0.0
  0
ARC
  8
LC-001-002-----0
  6
CONTINUOUS
  5
3D2
 10
55.228055
 20
136.316678
 30
0.0
 40
0.796809
 50
90.0
 51
180.0
  0
LINE
  8
LC-001-002-----0
  6
CONTINUOUS
  5
3D3
 10
44.919339
 20
55.789172
 30
0.0
 11
11.105683
 21
55.789172
 31
0.0
  0
LINE
  8
LC-001-002-----0
  6
CONTINUOUS
  5
3D4
 10
19.970052
 20
137.113487
 30
0.0
 11
55.228055
 21
137.113487
 31
0.0
  0
ARC
  8
LC-002-002-RND-0
  6
CONTINUOUS
  5
3D5
 10
10.697119
 20
46.789172
 30
0.0
 40
9.0
 50
90.0
 51
180.0
  0
ARC
  8
LC-002-002-RND-0
  6
CONTINUOUS
  5
3D6
 10
10.697119
 20
46.789172
 30
0.0
 40
10.0
 50
90.0
 51
180.0
  0
LINE
  8
LC-001-002-----0
  6
CONTINUOUS
  5
3D7
 10
1.697119
 20
25.789172
 30
0.0
 11
1.697119
 21
46.789172
 31
0.0
  0
ARC
  8
LC-002-002-RND-0
  6
CONTINUOUS
  5
3D8
 10
-57.302881
 20
46.789172
 30
0.0
 40
10.0
 50
0.0
 51
90.0
  0
LINE
  8
LC-001-002-----0
  6
CONTINUOUS
  5
3D9
 10
0.697119
 20
25.789172
 30
0.0
 11
0.697119
 21
46.789172
 31
0.0
  0
LINE
  8
LC-001-002-----0
  6
CONTINUOUS
  5
3DA
 10
-48.302881
 20
25.789172
 30
0.0
 11
-48.302881
 21
46.789172
 31
0.0
  0
LINE
  8
LC-001-002-----0
  6
CONTINUOUS
  5
3DB
 10
-47.302881
 20
25.789172
 30
0.0
 11
-47.302881
 21
46.789172
 31
0.0
  0
LINE
  8
LC-001-002-----0
  6
CONTINUOUS
  5
3DC
 10
-90.552881
 20
55.789172
 30
0.0
 11
-57.302881
 21
55.789172
 31
0.0
  0
LINE
  8
LC-001-002-----0
  6
CONTINUOUS
  5
3DD
 10
43.947119
 20
55.789172
 30
0.0
 11
10.697119
 21
55.789172
 31
0.0
  0
ARC
  8
LC-002-002-RND-0
  6
CONTINUOUS
  5
3DE
 10
43.947119
 20
62.789172
 30
0.0
 40
7.0
 50
270.0
 51
0.0
  0
ARC
  8
LC-002-002-RND-0
  6
CONTINUOUS
  5
3DF
 10
-90.552881
 20
62.789172
 30
0.0
 40
7.0
 50
180.0
 51
270.0
  0
LINE
  8
LC-001-002-----0
  6
CONTINUOUS
  5
3E0
 10
-90.552881
 20
56.789172
 30
0.0
 11
-57.302881
 21
56.789172
 31
0.0
  0
ARC
  8
LC-002-002-RND-0
  6
CONTINUOUS
  5
3E1
 10
-90.552881
 20
62.789172
 30
0.0
 40
6.0
 50
180.0
 51
270.0
  0
ARC
  8
LC-002-002-RND-0
  6
CONTINUOUS
  5
3E2
 10
-99.552881
 20
118.789172
 30
0.0
 40
2.0
 50
0.0
 51
76.899095
  0
ARC
  8
LC-001-002-----0
  6
CONTINUOUS
  5
3E3
 10
-98.872881
 20
121.711089
 30
0.0
 40
1.0
 50
184.023529
 51
256.899095
  0
LINE
  8
LC-001-002-----0
  6
CONTINUOUS
  5
3E4
 10
43.947119
 20
56.789172
 30
0.0
 11
10.697119
 21
56.789172
 31
0.0
  0
ARC
  8
LC-002-002-RND-0
  6
CONTINUOUS
  5
3E5
 10
43.947119
 20
62.789172
 30
0.0
 40
6.0
 50
270.0
 51
0.0
  0
ARC
  8
LC-002-002-RND-0
  6
CONTINUOUS
  5
3E6
 10
52.947119
 20
118.789172
 30
0.0
 40
2.0
 50
103.100905
 51
180.0
  0
ARC
  8
LC-001-002-----0
  6
CONTINUOUS
  5
3E7
 10
52.267119
 20
121.711089
 30
0.0
 40
1.0
 50
283.100905
 51
355.976471
  0
LINE
  8
LC-001-002-----0
  6
CONTINUOUS
  5
3E8
 10
49.947119
 20
118.789172
 30
0.0
 11
49.947119
 21
62.789172
 31
0.0
  0
LINE
  8
LC-001-002-----0
  6
CONTINUOUS
  5
3E9
 10
54.197119
 20
129.789172
 30
0.0
 11
54.197119
 21
128.787845
 31
0.0
  0
LINE
  8
LC-001-002-----0
  6
CONTINUOUS
  5
3EA
 10
-96.552881
 20
118.789172
 30
0.0
 11
-96.552881
 21
62.789172
 31
0.0
  0
LINE
  8
LC-001-002-----0
  6
CONTINUOUS
  5
3EB
 10
-100.802881
 20
129.789172
 30
0.0
 11
-100.802881
 21
128.787845
 31
0.0
  0
LINE
  8
LC-001-002-----0
  6
CONTINUOUS
  5
3EC
 10
-98.872881
 20
121.711089
 30
0.0
 11
-99.342983
 21
128.394421
 31
0.0
  0
LINE
  8
LC-001-002-----0
  6
CONTINUOUS
  5
3ED
 10
-97.552881
 20
118.789172
 30
0.0
 11
-97.552881
 21
62.789172
 31
0.0
  0
LINE
  8
LC-001-002-----0
  6
CONTINUOUS
  5
3EE
 10
-99.870416
 20
121.640923
 30
0.0
 11
-100.340519
 21
128.324255
 31
0.0
  0
ARC
  8
LC-002-002-RND-0
  6
CONTINUOUS
  5
3EF
 10
-100.839286
 20
128.289172
 30
0.0
 40
0.5
 50
4.023529
 51
85.824584
  0
ARC
  8
LC-002-002-RND-0
  6
CONTINUOUS
  5
3F0
 10
-99.552881
 20
118.789172
 30
0.0
 40
3.0
 50
0.0
 51
76.899095
  0
LINE
  8
LC-001-002-----0
  6
CONTINUOUS
  5
3F1
 10
-47.302881
 20
25.789172
 30
0.0
 11
-48.302881
 21
25.789172
 31
0.0
  0
LINE
  8
LC-001-002-----0
  6
CONTINUOUS
  5
3F2
 10
52.267119
 20
121.711089
 30
0.0
 11
52.737221
 21
128.394421
 31
0.0
  0
LINE
  8
LC-001-002-----0
  6
CONTINUOUS
  5
3F3
 10
50.947119
 20
118.789172
 30
0.0
 11
50.947119
 21
62.789172
 31
0.0
  0
LINE
  8
LC-001-002-----0
  6
CONTINUOUS
  5
3F4
 10
53.264654
 20
121.640923
 30
0.0
 11
53.734756
 21
128.324255
 31
0.0
  0
ARC
  8
LC-002-002-RND-0
  6
CONTINUOUS
  5
3F5
 10
54.233524
 20
128.289172
 30
0.0
 40
0.5
 50
94.175416
 51
175.976471
  0
ARC
  8
LC-002-002-RND-0
  6
CONTINUOUS
  5
3F6
 10
52.947119
 20
118.789172
 30
0.0
 40
3.0
 50
103.100905
 51
180.0
  0
ARC
  8
LC-001-002-----0
  6
CONTINUOUS
  5
3F7
 10
-100.839286
 20
128.289172
 30
0.0
 40
1.5
 50
4.023529
 51
88.609699
  0
LINE
  8
LC-001-002-----0
  6
CONTINUOUS
  5
3F8
 10
0.697119
 20
25.789172
 30
0.0
 11
1.697119
 21
25.789172
 31
0.0
  0
LINE
  8
LC-001-002-----0
  6
CONTINUOUS
  5
3F9
 10
-98.872881
 20
121.711089
 30
0.0
 11
-67.053084
 21
121.711089
 31
0.0
  0
LINE
  8
LC-001-002-----0
  6
CONTINUOUS
  5
3FA
 10
-100.802881
 20
129.789172
 30
0.0
 11
-67.053084
 21
129.789172
 31
0.0
  0
ARC
  8
LC-001-002-----0
  6
CONTINUOUS
  5
3FB
 10
54.233524
 20
128.289172
 30
0.0
 40
1.5
 50
91.390301
 51
175.976471
  0
LINE
  8
LC-001-002-----0
  6
CONTINUOUS
  5
3FC
 10
-57.71897
 20
52.801139
 30
0.0
 11
-57.71897
 21
55.789172
 31
0.0
  0
LINE
  8
LC-001-002-----0
  6
CONTINUOUS
  5
3FD
 10
-57.71897
 20
52.801139
 30
0.0
 11
-57.71897
 21
52.801139
 31
0.0
  0
LINE
  8
LC-001-002-----0
  6
CONTINUOUS
  5
3FE
 10
11.105681
 20
52.801325
 30
0.0
 11
11.105683
 21
55.789172
 31
0.0
  0
LINE
  8
LC-001-002-----0
  6
CONTINUOUS
  5
3FF
 10
11.105672
 20
52.801315
 30
0.0
 11
11.105681
 21
52.801325
 31
0.0
  0
LINE
  8
LC-001-002-----0
  6
CONTINUOUS
  5
400
 10
10.697119
 20
55.789172
 30
0.0
 11
11.105683
 21
55.789172
 31
0.0
  0
LINE
  8
LC-001-002-----0
  6
CONTINUOUS
  5
401
 10
20.447129
 20
129.789172
 30
0.0
 11
54.197119
 21
129.789172
 31
0.0
  0
LINE
  8
LC-001-002-----0
  6
CONTINUOUS
  5
402
 10
20.447124
 20
121.711089
 30
0.0
 11
52.267119
 21
121.711089
 31
0.0
  0
ARC
  8
LC-001-002-----0
  6
CONTINUOUS
  5
403
 10
-46.252881
 20
45.421591
 30
0.0
 40
0.894987
 50
180.0
 51
0.0
  0
ARC
  8
LC-001-002-----0
  6
CONTINUOUS
  5
404
 10
-46.252881
 20
47.121591
 30
0.0
 40
0.894987
 50
0.0
 51
180.0
  0
LINE
  8
LC-001-002-----0
  6
CONTINUOUS
  5
405
 10
-47.147869
 20
45.421591
 30
0.0
 11
-47.147869
 21
47.121591
 31
0.0
  0
LINE
  8
LC-001-002-----0
  6
CONTINUOUS
  5
406
 10
-45.352881
 20
45.521591
 30
0.0
 11
-45.352881
 21
47.021591
 31
0.0
  0
ARC
  8
LC-001-002-----0
  6
CONTINUOUS
  5
407
 10
-0.352881
 20
47.121591
 30
0.0
 40
0.894987
 50
360.0
 51
180.0
  0
LINE
  8
LC-001-002-----0
  6
CONTINUOUS
  5
408
 10
0.542106
 20
45.421591
 30
0.0
 11
0.542106
 21
47.121591
 31
0.0
  0
ARC
  8
LC-001-002-----0
  6
CONTINUOUS
  5
409
 10
-0.352881
 20
45.421591
 30
0.0
 40
0.894987
 50
180.0
 51
360.0
  0
LINE
  8
LC-001-002-----0
  6
CONTINUOUS
  5
40A
 10
-1.252881
 20
45.521591
 30
0.0
 11
-1.252881
 21
47.005904
 31
0.0
  0
LINE
  8
LC-001-002-----0
  6
DASHDOT
 62
     2
  5
40C
 10
-23.307097
 20
163.209662
 30
0.0
 11
-23.306661
 21
-6.19848
 31
0.0
  0
LINE
  8
LC-001-002-----0
  6
CONTINUOUS
  5
40D
 10
-1.426113
 20
25.789172
 30
0.0
 11
0.697119
 21
25.789172
 31
0.0
  0
LINE
  8
LC-001-002-----0
  6
CONTINUOUS
  5
40E
 10
68.443277
 20
157.423667
 30
0.0
 11
49.693277
 21
156.11254
 31
0.0
  0
LINE
  8
LC-001-002-----0
  6
CONTINUOUS
  5
40F
 10
-112.306509
 20
154.725249
 30
0.0
 11
-102.306723
 21
154.025996
 31
0.0
  0
LINE
  8
LC-001-002-----0
  6
CONTINUOUS
  5
410
 10
68.443277
 20
157.423667
 30
0.0
 11
-23.306723
 21
157.423667
 31
0.0
  0
LINE
  8
LC-001-002-----0
  6
CONTINUOUS
  5
411
 10
45.939937
 20
137.424069
 30
0.0
 11
45.939937
 21
140.424069
 31
0.0
  0
LINE
  8
LC-001-002-----0
  6
CONTINUOUS
  5
412
 10
40.280556
 20
137.424069
 30
0.0
 11
40.280556
 21
140.424069
 31
0.0
  0
LINE
  8
LC-001-002-----0
  6
CONTINUOUS
  5
413
 10
33.461131
 20
137.424069
 30
0.0
 11
33.461131
 21
140.424069
 31
0.0
  0
LINE
  8
LC-001-002-----0
  6
CONTINUOUS
  5
414
 10
39.511207
 20
156.11254
 30
0.0
 11
38.761207
 21
155.36254
 31
0.0
  0
LINE
  8
LC-001-002-----0
  6
CONTINUOUS
  5
415
 10
38.761207
 20
155.36254
 30
0.0
 11
38.761207
 21
140.424069
 31
0.0
  0
LINE
  8
LC-001-002-----0
  6
CONTINUOUS
  5
416
 10
-115.056723
 20
157.423667
 30
0.0
 11
-23.306723
 21
157.423667
 31
0.0
  0
LINE
  8
LC-001-002-----0
  6
CONTINUOUS
  5
417
 10
38.761207
 20
155.36254
 30
0.0
 11
44.305515
 21
155.36254
 31
0.0
  0
LINE
  8
LC-001-002-----0
  6
CONTINUOUS
  5
418
 10
44.305515
 20
155.36254
 30
0.0
 11
44.305515
 21
140.424069
 31
0.0
  0
LINE
  8
LC-001-002-----0
  6
CONTINUOUS
  5
419
 10
49.693277
 20
156.11254
 30
0.0
 11
48.943277
 21
155.36254
 31
0.0
  0
LINE
  8
LC-001-002-----0
  6
CONTINUOUS
  5
41A
 10
43.959637
 20
156.11254
 30
0.0
 11
44.305515
 21
155.36254
 31
0.0
  0
LINE
  8
LC-001-002-----0
  6
CONTINUOUS
  5
41B
 10
21.002982
 20
137.424069
 30
0.0
 11
21.002982
 21
140.424069
 31
0.0
  0
LINE
  8
LC-001-002-----0
  6
CONTINUOUS
  5
41C
 10
46.193277
 20
137.424069
 30
0.0
 11
46.193277
 21
140.424069
 31
0.0
  0
LINE
  8
LC-001-002-----0
  6
CONTINUOUS
  5
41D
 10
48.943277
 20
140.424069
 30
0.0
 11
48.943277
 21
155.36254
 31
0.0
  0
LINE
  8
LC-001-002-----0
  6
CONTINUOUS
  5
41E
 10
11.693277
 20
156.11254
 30
0.0
 11
10.943277
 21
155.36254
 31
0.0
  0
LINE
  8
LC-001-002-----0
  6
CONTINUOUS
  5
41F
 10
10.943277
 20
155.36254
 30
0.0
 11
10.943277
 21
145.759104
 31
0.0
  0
LINE
  8
LC-001-002-----0
  6
CONTINUOUS
  5
420
 10
-92.553384
 20
137.424069
 30
0.0
 11
-92.553384
 21
140.424069
 31
0.0
  0
LINE
  8
LC-001-002-----0
  6
CONTINUOUS
  5
421
 10
-86.894003
 20
137.424069
 30
0.0
 11
-86.894003
 21
140.424069
 31
0.0
  0
LINE
  8
LC-001-002-----0
  6
CONTINUOUS
  5
422
 10
17.261242
 20
156.11254
 30
0.0
 11
17.893625
 21
155.36254
 31
0.0
  0
LINE
  8
LC-001-002-----0
  6
CONTINUOUS
  5
423
 10
17.893625
 20
155.36254
 30
0.0
 11
17.893625
 21
141.421843
 31
0.0
  0
LINE
  8
LC-001-002-----0
  6
CONTINUOUS
  5
424
 10
17.893625
 20
155.36254
 30
0.0
 11
10.943277
 21
155.36254
 31
0.0
  0
LINE
  8
LC-001-002-----0
  6
CONTINUOUS
  5
425
 10
-80.074578
 20
137.424069
 30
0.0
 11
-80.074578
 21
140.424069
 31
0.0
  0
LINE
  8
LC-001-002-----0
  6
CONTINUOUS
  5
426
 10
-86.124654
 20
156.11254
 30
0.0
 11
-85.374654
 21
155.36254
 31
0.0
  0
LINE
  8
LC-001-002-----0
  6
CONTINUOUS
  5
427
 10
-85.374654
 20
155.36254
 30
0.0
 11
-85.374654
 21
140.424069
 31
0.0
  0
LINE
  8
LC-001-002-----0
  6
CONTINUOUS
  5
428
 10
-85.374654
 20
155.36254
 30
0.0
 11
-90.918962
 21
155.36254
 31
0.0
  0
LINE
  8
LC-001-002-----0
  6
CONTINUOUS
  5
429
 10
-90.918962
 20
155.36254
 30
0.0
 11
-90.918962
 21
140.424069
 31
0.0
  0
LINE
  8
LC-001-002-----0
  6
CONTINUOUS
  5
42A
 10
-96.306723
 20
156.11254
 30
0.0
 11
-95.556723
 21
155.36254
 31
0.0
  0
LINE
  8
LC-001-002-----0
  6
CONTINUOUS
  5
42B
 10
-90.573084
 20
156.11254
 30
0.0
 11
-90.918962
 21
155.36254
 31
0.0
  0
LINE
  8
LC-001-002-----0
  6
CONTINUOUS
  5
42C
 10
-67.616428
 20
137.424069
 30
0.0
 11
-67.616428
 21
140.424069
 31
0.0
  0
LINE
  8
LC-001-002-----0
  6
CONTINUOUS
  5
42D
 10
-92.806723
 20
137.424069
 30
0.0
 11
-92.806723
 21
140.424069
 31
0.0
  0
LINE
  8
LC-001-002-----0
  6
CONTINUOUS
  5
42E
 10
-95.556723
 20
140.424069
 30
0.0
 11
-95.556723
 21
155.36254
 31
0.0
  0
LINE
  8
LC-001-002-----0
  6
CONTINUOUS
  5
42F
 10
-58.306723
 20
156.11254
 30
0.0
 11
-57.556723
 21
155.36254
 31
0.0
  0
LINE
  8
LC-001-002-----0
  6
CONTINUOUS
  5
430
 10
-57.556723
 20
155.36254
 30
0.0
 11
-57.556723
 21
145.757336
 31
0.0
  0
LINE
  8
LC-001-002-----0
  6
CONTINUOUS
  5
431
 10
-63.874688
 20
156.11254
 30
0.0
 11
-64.507072
 21
155.36254
 31
0.0
  0
LINE
  8
LC-001-002-----0
  6
CONTINUOUS
  5
432
 10
-64.507072
 20
155.36254
 30
0.0
 11
-64.507072
 21
141.412095
 31
0.0
  0
LINE
  8
LC-001-002-----0
  6
CONTINUOUS
  5
433
 10
-64.507072
 20
155.36254
 30
0.0
 11
-57.556723
 21
155.36254
 31
0.0
  0
ARC
  8
LC-002-002-RND-0
  6
CONTINUOUS
  5
434
 10
54.693277
 20
138.424069
 30
0.0
 40
1.0
 50
270.0
 51
0.0
  0
LINE
  8
LC-001-002-----0
  6
CONTINUOUS
  5
435
 10
-115.056723
 20
157.423667
 30
0.0
 11
-114.056723
 21
150.424069
 31
0.0
  0
LINE
  8
LC-001-002-----0
  6
CONTINUOUS
  5
436
 10
-112.883859
 20
150.424069
 30
0.0
 11
-114.056723
 21
150.424069
 31
0.0
  0
LINE
  8
LC-001-002-----0
  6
CONTINUOUS
  5
437
 10
-112.306509
 20
151.424069
 30
0.0
 11
-112.883859
 21
150.424069
 31
0.0
  0
LINE
  8
LC-001-002-----0
  6
CONTINUOUS
  5
438
 10
-112.306509
 20
151.424069
 30
0.0
 11
-112.306509
 21
154.725249
 31
0.0
  0
ARC
  8
LC-002-002-RND-0
  6
CONTINUOUS
  5
439
 10
-101.306723
 20
138.424069
 30
0.0
 40
1.0
 50
180.0
 51
270.0
  0
LINE
  8
LC-001-002-----0
  6
CONTINUOUS
  5
43A
 10
-101.306723
 20
137.424069
 30
0.0
 11
-66.560558
 21
137.424069
 31
0.0
  0
LINE
  8
LC-001-002-----0
  6
CONTINUOUS
  5
43B
 10
65.693062
 20
151.424069
 30
0.0
 11
66.270412
 21
150.424069
 31
0.0
  0
LINE
  8
LC-001-002-----0
  6
CONTINUOUS
  5
43C
 10
-102.306723
 20
138.424069
 30
0.0
 11
-102.306723
 21
154.025996
 31
0.0
  0
LINE
  8
LC-001-002-----0
  6
CONTINUOUS
  5
43D
 10
65.693062
 20
151.424069
 30
0.0
 11
65.693062
 21
154.725249
 31
0.0
  0
LINE
  8
LC-001-002-----0
  6
CONTINUOUS
  5
43E
 10
54.693277
 20
137.424069
 30
0.0
 11
46.193277
 21
137.424069
 31
0.0
  0
LINE
  8
LC-001-002-----0
  6
CONTINUOUS
  5
43F
 10
55.693277
 20
138.424069
 30
0.0
 11
55.693277
 21
154.025996
 31
0.0
  0
LINE
  8
LC-001-002-----0
  6
CONTINUOUS
  5
440
 10
65.867412
 20
150.424069
 30
0.0
 11
67.443277
 21
150.424069
 31
0.0
  0
LINE
  8
LC-001-002-----0
  6
CONTINUOUS
  5
441
 10
46.193277
 20
137.424069
 30
0.0
 11
19.970052
 21
137.424069
 31
0.0
  0
LINE
  8
LC-001-002-----0
  6
CONTINUOUS
  5
442
 10
46.193277
 20
140.424069
 30
0.0
 11
48.943277
 21
140.424069
 31
0.0
  0
LINE
  8
LC-001-002-----0
  6
CONTINUOUS
  5
443
 10
33.461131
 20
140.424069
 30
0.0
 11
46.193277
 21
140.424069
 31
0.0
  0
LINE
  8
LC-001-002-----0
  6
CONTINUOUS
  5
444
 10
18.666871
 20
140.424069
 30
0.0
 11
21.002982
 21
140.424069
 31
0.0
  0
LINE
  8
LC-001-002-----0
  6
CONTINUOUS
  5
445
 10
-65.202273
 20
140.424069
 30
0.0
 11
-67.616428
 21
140.424069
 31
0.0
  0
LINE
  8
LC-001-002-----0
  6
CONTINUOUS
  5
446
 10
65.693062
 20
154.725249
 30
0.0
 11
55.693277
 21
154.025996
 31
0.0
  0
LINE
  8
LC-001-002-----0
  6
CONTINUOUS
  5
447
 10
-80.074578
 20
140.424069
 30
0.0
 11
-95.556723
 21
140.424069
 31
0.0
  0
LINE
  8
LC-001-002-----0
  6
CONTINUOUS
  5
448
 10
68.443277
 20
157.423667
 30
0.0
 11
67.443277
 21
150.424069
 31
0.0
  0
LINE
  8
LC-001-002-----0
  6
CONTINUOUS
  5
449
 10
-115.056723
 20
157.423667
 30
0.0
 11
-96.306723
 21
156.11254
 31
0.0
  0
LINE
  8
LC-001-002-----0
  6
CONTINUOUS
  5
44A
 10
-90.573084
 20
156.11254
 30
0.0
 11
-86.124654
 21
156.11254
 31
0.0
  0
LINE
  8
LC-001-002-----0
  6
CONTINUOUS
  5
44B
 10
-63.874688
 20
156.11254
 30
0.0
 11
-58.306723
 21
156.11254
 31
0.0
  0
LINE
  8
LC-001-002-----0
  6
CONTINUOUS
  5
44C
 10
11.693277
 20
156.11254
 30
0.0
 11
17.261242
 21
156.11254
 31
0.0
  0
LINE
  8
LC-001-002-----0
  6
CONTINUOUS
  5
44D
 10
39.511207
 20
156.11254
 30
0.0
 11
43.959637
 21
156.11254
 31
0.0
  0
LINE
  8
LC-001-002-----0
  6
CONTINUOUS
  5
44E
 10
-33.052916
 20
146.021418
 30
0.0
 11
-23.303084
 21
146.021418
 31
0.0
  0
LINE
  8
LC-001-002-----0
  6
CONTINUOUS
  5
44F
 10
-13.552919
 20
146.021603
 30
0.0
 11
-23.302861
 21
146.02161
 31
0.0
  0
LINE
  8
LC-001-002-----0
  6
CONTINUOUS
  5
450
 10
-21.872239
 20
115.021418
 30
0.0
 11
-21.864389
 21
144.021589
 31
0.0
  0
LINE
  8
LC-001-002-----0
  6
CONTINUOUS
  5
451
 10
-8.815424
 20
115.021418
 30
0.0
 11
-8.346513
 21
118.521418
 31
0.0
  0
LINE
  8
LC-001-002-----0
  6
CONTINUOUS
  5
452
 10
-8.346513
 20
118.521418
 30
0.0
 11
-8.346513
 21
121.607205
 31
0.0
  0
LINE
  8
LC-001-002-----0
  6
CONTINUOUS
  5
453
 10
-8.346513
 20
123.021418
 30
0.0
 11
-6.596511
 21
123.021418
 31
0.0
  0
ARC
  8
LC-001-002-----0
  6
CONTINUOUS
  5
454
 10
-8.04782
 20
122.314311
 30
0.0
 40
0.767605
 50
112.900021
 51
247.099979
  0
LINE
  8
LC-001-002-----0
  6
CONTINUOUS
  5
455
 10
-6.596511
 20
123.021418
 30
0.0
 11
-6.596511
 21
144.021589
 31
0.0
  0
ENDSEC
  0
EOF
