  0
SECTION
  2
HEADER
  9
$ACADVER
  1
AC1009
  9
$INSBASE
 10
0.0
 20
0.0
 30
0.0
  9
$EXTMIN
 10
-358.378658
 20
-48.398353
 30
0.0
  9
$EXTMAX
 10
481.621342
 20
545.601647
 30
0.0
  9
$LIMMIN
 10
-358.378658
 20
-48.398353
  9
$LIMMAX
 10
481.621342
 20
545.601647
  9
$ORTHOMODE
 70
     0
  9
$REGENMODE
 70
     1
  9
$FILLMODE
 70
     1
  9
$QTEXTMODE
 70
     0
  9
$MIRRTEXT
 70
     1
  9
$DRAGMODE
 70
     2
  9
$LTSCALE
 40
2.0
  9
$OSMODE
 70
     0
  9
$ATTMODE
 70
     1
  9
$TEXTSIZE
 40
0.2
  9
$TRACEWID
 40
0.05
  9
$TEXTSTYLE
  7
STANDARD
  9
$CLAYER
  8
0
  9
$CELTYPE
  6
BYLAYER
  9
$CECOLOR
 62
     7
  9
$DIMSCALE
 40
2.0
  9
$DIMASZ
 40
3.5
  9
$DIMEXO
 40
0.0625
  9
$DIMDLI
 40
0.38
  9
$DIMRND
 40
0.0
  9
$DIMDLE
 40
0.0
  9
$DIMEXE
 40
0.18
  9
$DIMTP
 40
0.0
  9
$DIMTM
 40
0.0
  9
$DIMTXT
 40
3.5
  9
$DIMCEN
 40
0.09
  9
$DIMTSZ
 40
0.0
  9
$DIMTOL
 70
     0
  9
$DIMLIM
 70
     0
  9
$DIMTIH
 70
     1
  9
$DIMTOH
 70
     1
  9
$DIMSE1
 70
     0
  9
$DIMSE2
 70
     0
  9
$DIMTAD
 70
     1
  9
$DIMZIN
 70
     0
  9
$DIMBLK
  1

  9
$DIMASO
 70
     1
  9
$DIMSHO
 70
     1
  9
$DIMPOST
  1

  9
$DIMAPOST
  1

  9
$DIMALT
 70
     0
  9
$DIMALTD
 70
     2
  9
$DIMALTF
 40
25.4
  9
$DIMLFAC
 40
1.0
  9
$DIMTOFL
 70
     0
  9
$DIMTVP
 40
0.0
  9
$DIMTIX
 70
     0
  9
$DIMSOXD
 70
     0
  9
$DIMSAH
 70
     0
  9
$DIMBLK1
  1

  9
$DIMBLK2
  1

  9
$DIMSTYLE
  2
STANDARD
  9
$DIMCLRD
 70
     0
  9
$DIMCLRE
 70
     0
  9
$DIMCLRT
 70
     0
  9
$DIMTFAC
 40
1.0
  9
$DIMGAP
 40
0.09
  9
$LUNITS
 70
     2
  9
$LUPREC
 70
     2
  9
$AXISMODE
 70
     0
  9
$AXISUNIT
 10
0.0
 20
0.0
  9
$SKETCHINC
 40
0.1
  9
$FILLETRAD
 40
0.0
  9
$AUNITS
 70
     0
  9
$AUPREC
 70
     0
  9
$MENU
  1
acad
  9
$ELEVATION
 40
0.0
  9
$PELEVATION
 40
0.0
  9
$THICKNESS
 40
0.0
  9
$LIMCHECK
 70
     0
  9
$BLIPMODE
 70
     1
  9
$CHAMFERA
 40
0.0
  9
$CHAMFERB
 40
0.0
  9
$SKPOLY
 70
     0
  9
$TDCREATE
 40
0.000000000
  9
$TDUPDATE
 40
0.000000000
  9
$TDINDWG
 40
0.0000000000
  9
$TDUSRTIMER
 40
0.0000000000
  9
$USRTIMER
 70
     1
  9
$ANGBASE
 50
0.0
  9
$ANGDIR
 70
     0
  9
$PDMODE
 70
     0
  9
$PDSIZE
 40
0.0
  9
$PLINEWID
 40
0.0
  9
$COORDS
 70
     0
  9
$SPLFRAME
 70
     0
  9
$SPLINETYPE
 70
     6
  9
$SPLINESEGS
 70
     8
  9
$ATTDIA
 70
     0
  9
$ATTREQ
 70
     1
  9
$HANDLING
 70
     1
  9
$HANDSEED
  5
31D
  9
$SURFTAB1
 70
     6
  9
$SURFTAB2
 70
     6
  9
$SURFTYPE
 70
     6
  9
$SURFU
 70
     6
  9
$SURFV
 70
     6
  9
$UCSNAME
  2

  9
$UCSORG
 10
0.0
 20
0.0
 30
0.0
  9
$UCSXDIR
 10
1.0
 20
0.0
 30
0.0
  9
$UCSYDIR
 10
0.0
 20
1.0
 30
0.0
  9
$PUCSNAME
  2

  9
$PUCSORG
 10
0.0
 20
0.0
 30
0.0
  9
$PUCSXDIR
 10
1.0
 20
0.0
 30
0.0
  9
$PUCSYDIR
 10
0.0
 20
1.0
 30
0.0
  9
$USERI1
 70
     0
  9
$USERI2
 70
     0
  9
$USERI3
 70
     0
  9
$USERI4
 70
     0
  9
$USERI5
 70
     0
  9
$USERR1
 40
0.0
  9
$USERR2
 40
0.0
  9
$USERR3
 40
0.0
  9
$USERR4
 40
0.0
  9
$USERR5
 40
0.0
  9
$WORLDVIEW
 70
     1
  9
$SHADEDGE
 70
     3
  9
$SHADEDIF
 70
    70
  9
$TILEMODE
 70
     1
  9
$MAXACTVP
 70
    16
  9
$PINSBASE
 10
0.0
 20
0.0
 30
0.0
  9
$PLIMCHECK
 70
     0
  9
$PEXTMIN
 10
1.000000E+20
 20
1.000000E+20
 30
1.000000E+20
  9
$PEXTMAX
 10
-1.000000E+20
 20
-1.000000E+20
 30
-1.000000E+20
  9
$PLIMMIN
 10
-358.378658
 20
-48.398353
  9
$PLIMMAX
 10
481.621342
 20
545.601647
  9
$UNITMODE
 70
     0
  9
$VISRETAIN
 70
     0
  9
$PLINEGEN
 70
     1
  9
$PSLTSCALE
 70
     0
  9
$TREEDEPTH
 70
  3020
  9
$DWGCODEPAGE
  3
dos850
  0
ENDSEC
  0
SECTION
  2
TABLES
  0
TABLE
  2
VPORT
 70
     1
  0
VPORT
  2
*ACTIVE
 70
     0
 10
0.0
 20
0.0
 11
1.0
 21
1.0
 12
420.0
 22
297.0
 13
0.0
 23
0.0
 14
1.0
 24
1.0
 15
0.0
 25
0.0
 16
0.0
 26
0.0
 36
1.0
 17
-358.378658
 27
-48.398353
 37
0.0
 40
594.0
 41
1.604229
 42
50.0
 43
0.0
 44
0.0
 50
0.0
 51
0.0
 71
     0
 72
   100
 73
     1
 74
     1
 75
     0
 76
     0
 77
     0
 78
     0
  0
ENDTAB
  0
TABLE
  2
LTYPE
 70
     2
  0
LTYPE
  2
CONTINUOUS
 70
    64
  3
Solid line
 72
    65
 73
     0
 40
0.0
  0
LTYPE
  2
DASHDOT
 70
    64
  3
__ . __ . __ . __ . __
 72
    65
 73
     4
 40
7.5
 49
5.0
 49
-1.25
 49
0.0
 49
-1.25
  0
ENDTAB
  0
TABLE
  2
LAYER
 70
    11
  0
LAYER
  2
0
 70
     0
 62
     7
  6
CONTINUOUS
  0
LAYER
  2
LC-INFO-1-2-MM-A3-0
 70
     1
 62
    -1
  6
CONTINUOUS
  0
LAYER
  2
LC-004-005-----0
 70
     0
 62
     2
  6
CONTINUOUS
  0
LAYER
  2
LC-006-003-MTH-0
 70
     0
 62
     2
  6
CONTINUOUS
  0
LAYER
  2
LC-007-003-MTG-0
 70
     0
 62
     2
  6
CONTINUOUS
  0
LAYER
  2
LC-005-003-----0
 70
     0
 62
     2
  6
CONTINUOUS
  0
LAYER
  2
LC-001-000-----0
 70
     0
 62
     7
  6
CONTINUOUS
  0
LAYER
  2
LC-002-002-----0
 70
     0
 62
     1
  6
CONTINUOUS
  0
LAYER
  2
LC-003-002-RND-0
 70
     0
 62
     1
  6
CONTINUOUS
  0
LAYER
  2
LC-008-007-KH--0
 70
     0
 62
     7
  6
DASHDOT
  0
LAYER
  2
LC-000
 70
     0
 62
     7
  6
CONTINUOUS
  0
ENDTAB
  0
TABLE
  2
STYLE
 70
     4
  0
STYLE
  2
STANDARD
 70
     0
 40
0.0
 41
1.0
 50
0.0
 71
     0
 42
0.0
  3
txt
  4

  0
STYLE
  2
LC-STANDARD
 70
    64
 40
0.0
 41
1.0
 50
0.0
 71
     0
 42
3.5
  3
MONOTXT
  4

  0
STYLE
  2
LC-TXTSTYLE-150-400-0-0-A2
 70
    64
 40
0.0
 41
1.0
 50
15.0
 71
     0
 42
3.5
  3
MONOTXT
  4

  0
STYLE
  2
LC-TXTSTYLE-150-400-0-0-D3
 70
    64
 40
0.0
 41
1.0
 50
15.0
 71
     0
 42
3.5
  3
LC-STANDARD
  4

  0
ENDTAB
  0
TABLE
  2
VIEW
 70
     0
  0
ENDTAB
  0
TABLE
  2
UCS
 70
     0
  0
ENDTAB
  0
TABLE
  2
APPID
 70
     1
  0
APPID
  2
ACAD
 70
     0
  0
ENDTAB
  0
TABLE
  2
DIMSTYLE
 70
     3
  0
DIMSTYLE
  2
STANDARD
 70
     0
  3

  4

  5

  6

  7

 40
1.0
 41
0.18
 42
0.0625
 43
0.38
 44
0.18
 45
0.0
 46
0.0
 47
0.0
 48
0.0
 71
     0
 72
     0
 73
     1
 74
     1
 75
     0
 76
     0
 77
     0
 78
     0
140
0.18
141
0.09
142
0.0
143
25.4
144
1.0
145
0.0
146
1.0
147
0.09
170
     0
171
     2
172
     0
173
     0
174
     0
175
     0
176
     0
177
     0
178
     0
  0
DIMSTYLE
  2
LC-STANDARD
 70
     0
  3

  4

  5

  6

  7

 40
1.0
 41
3.5
 42
0.0
 43
7.5
 44
1.8
 45
0.0
 46
0.0
 47
0.0
 48
0.0
 71
     0
 72
     0
 73
     0
 74
     0
 75
     0
 76
     0
 77
     1
 78
     8
140
3.5
141
0.0
142
0.0
143
25.4
144
1.0
145
0.0
146
0.71
147
1.5
170
     0
171
     2
172
     1
173
     0
174
     0
175
     0
176
     0
177
     0
178
     3
  0
DIMSTYLE
  2
LC-DIM-L-0140-02-02
 70
     0
  3

  4

  5

  6

  7

 40
2.0
 41
3.5
 42
0.0
 43
7.5
 44
1.8
 45
0.0
 46
0.0
 47
0.0
 48
0.0
 71
     0
 72
     0
 73
     0
 74
     0
 75
     0
 76
     0
 77
     1
 78
     8
140
14.0
141
0.0
142
0.0
143
25.4
144
1.0
145
0.0
146
0.71
147
1.5
170
     0
171
     2
172
     0
173
     0
174
     0
175
     0
176
     2
177
     2
178
     8
  0
ENDTAB
  0
ENDSEC
  0
SECTION
  2
BLOCKS
  0
BLOCK
  8
0
  5
23
  2
*X0
 70
    65
 10
-116.577412
 20
264.399418
 30
0.0
  3
*X0
  0
LINE
  8
LC-004-005-----0
  6
CONTINUOUS
  5
25
 10
-108.392658
 20
264.959723
 30
0.0
 11
-107.843018
 21
265.509363
 31
0.0
  0
LINE
  8
LC-004-005-----0
  6
CONTINUOUS
  5
26
 10
-109.147412
 20
267.033395
 30
0.0
 11
-107.877412
 21
268.303395
 31
0.0
  0
LINE
  8
LC-004-005-----0
  6
CONTINUOUS
  5
27
 10
-108.577412
 20
270.431823
 30
0.0
 11
-107.877412
 21
271.131823
 31
0.0
  0
LINE
  8
LC-004-005-----0
  6
CONTINUOUS
  5
28
 10
-108.703081
 20
273.13458
 30
0.0
 11
-108.207727
 21
273.629934
 31
0.0
  0
LINE
  8
LC-004-005-----0
  6
CONTINUOUS
  5
29
 10
-111.314629
 20
273.35146
 30
0.0
 11
-110.662985
 21
274.003104
 31
0.0
  0
LINE
  8
LC-004-005-----0
  6
CONTINUOUS
  5
2A
 10
-112.177412
 20
275.317104
 30
0.0
 11
-111.545846
 21
275.94867
 31
0.0
  0
LINE
  8
LC-004-005-----0
  6
CONTINUOUS
  5
2B
 10
-113.786395
 20
276.536548
 30
0.0
 11
-113.248674
 21
277.074269
 31
0.0
  0
LINE
  8
LC-004-005-----0
  6
CONTINUOUS
  5
2C
 10
-115.807498
 20
277.343873
 30
0.0
 11
-115.177412
 21
277.973958
 31
0.0
  0
LINE
  8
LC-004-005-----0
  6
CONTINUOUS
  5
2D
 10
-115.877412
 20
280.102385
 30
0.0
 11
-115.177412
 21
280.802385
 31
0.0
  0
LINE
  8
LC-004-005-----0
  6
CONTINUOUS
  5
2E
 10
-116.542536
 20
282.265689
 30
0.0
 11
-116.095611
 21
282.712614
 31
0.0
  0
ENDBLK
  8
0
  5
2F
  0
BLOCK
  8
0
  5
31
  2
*X1
 70
    65
 10
-57.177412
 20
277.74749
 30
0.0
  3
*X1
  0
LINE
  8
LC-004-005-----0
  6
CONTINUOUS
  5
32
 10
-38.736348
 20
278.04749
 30
0.0
 11
-38.677412
 21
278.106426
 31
0.0
  0
LINE
  8
LC-004-005-----0
  6
CONTINUOUS
  5
33
 10
-40.177412
 20
279.434853
 30
0.0
 11
-38.821785
 21
280.79048
 31
0.0
  0
LINE
  8
LC-004-005-----0
  6
CONTINUOUS
  5
34
 10
-41.693202
 20
280.74749
 30
0.0
 11
-40.286434
 21
282.154258
 31
0.0
  0
LINE
  8
LC-004-005-----0
  6
CONTINUOUS
  5
35
 10
-44.521629
 20
280.74749
 30
0.0
 11
-43.021629
 21
282.24749
 31
0.0
  0
LINE
  8
LC-004-005-----0
  6
CONTINUOUS
  5
36
 10
-47.350056
 20
280.74749
 30
0.0
 11
-45.850056
 21
282.24749
 31
0.0
  0
LINE
  8
LC-004-005-----0
  6
CONTINUOUS
  5
37
 10
-50.178483
 20
280.74749
 30
0.0
 11
-48.678483
 21
282.24749
 31
0.0
  0
LINE
  8
LC-004-005-----0
  6
CONTINUOUS
  5
38
 10
-53.006911
 20
280.74749
 30
0.0
 11
-51.506911
 21
282.24749
 31
0.0
  0
LINE
  8
LC-004-005-----0
  6
CONTINUOUS
  5
39
 10
-55.835338
 20
280.74749
 30
0.0
 11
-54.335338
 21
282.24749
 31
0.0
  0
LINE
  8
LC-004-005-----0
  6
CONTINUOUS
  5
3A
 10
-57.177412
 20
282.233843
 30
0.0
 11
-57.163765
 21
282.24749
 31
0.0
  0
ENDBLK
  8
0
  5
3B
  0
BLOCK
  8
0
  5
3D
  2
*X2
 70
    65
 10
-75.677412
 20
277.74749
 30
0.0
  3
*X2
  0
LINE
  8
LC-004-005-----0
  6
CONTINUOUS
  5
3E
 10
-58.663765
 20
280.74749
 30
0.0
 11
-57.177412
 21
282.233843
 31
0.0
  0
LINE
  8
LC-004-005-----0
  6
CONTINUOUS
  5
3F
 10
-61.492192
 20
280.74749
 30
0.0
 11
-59.992192
 21
282.24749
 31
0.0
  0
LINE
  8
LC-004-005-----0
  6
CONTINUOUS
  5
40
 10
-64.320619
 20
280.74749
 30
0.0
 11
-62.820619
 21
282.24749
 31
0.0
  0
LINE
  8
LC-004-005-----0
  6
CONTINUOUS
  5
41
 10
-67.149046
 20
280.74749
 30
0.0
 11
-65.649046
 21
282.24749
 31
0.0
  0
LINE
  8
LC-004-005-----0
  6
CONTINUOUS
  5
42
 10
-69.977473
 20
280.74749
 30
0.0
 11
-68.477473
 21
282.24749
 31
0.0
  0
LINE
  8
LC-004-005-----0
  6
CONTINUOUS
  5
43
 10
-75.5059
 20
278.04749
 30
0.0
 11
-74.177412
 21
279.375978
 31
0.0
  0
LINE
  8
LC-004-005-----0
  6
CONTINUOUS
  5
44
 10
-72.8059
 20
280.74749
 30
0.0
 11
-71.3059
 21
282.24749
 31
0.0
  0
LINE
  8
LC-004-005-----0
  6
CONTINUOUS
  5
45
 10
-75.493588
 20
280.888229
 30
0.0
 11
-74.318152
 21
282.063666
 31
0.0
  0
ENDBLK
  8
0
  5
46
  0
BLOCK
  8
0
  5
48
  2
*X3
 70
    65
 10
-88.677412
 20
277.74749
 30
0.0
  3
*X3
  0
LINE
  8
LC-004-005-----0
  6
CONTINUOUS
  5
49
 10
-83.177412
 20
278.86126
 30
0.0
 11
-81.702976
 21
280.335696
 31
0.0
  0
LINE
  8
LC-004-005-----0
  6
CONTINUOUS
  5
4A
 10
-84.119609
 20
280.74749
 30
0.0
 11
-82.878867
 21
281.988232
 31
0.0
  0
LINE
  8
LC-004-005-----0
  6
CONTINUOUS
  5
4B
 10
-88.677412
 20
279.018114
 30
0.0
 11
-85.448036
 21
282.24749
 31
0.0
  0
ENDBLK
  8
0
  5
4C
  0
BLOCK
  8
0
  5
4E
  2
*X4
 70
    65
 10
-101.677412
 20
277.74749
 30
0.0
  3
*X4
  0
LINE
  8
LC-004-005-----0
  6
CONTINUOUS
  5
4F
 10
-95.30489
 20
278.04749
 30
0.0
 11
-94.677412
 21
278.674968
 31
0.0
  0
LINE
  8
LC-004-005-----0
  6
CONTINUOUS
  5
50
 10
-96.177435
 20
280.003372
 30
0.0
 11
-95.008487
 21
281.172321
 31
0.0
  0
LINE
  8
LC-004-005-----0
  6
CONTINUOUS
  5
51
 10
-100.961745
 20
278.04749
 30
0.0
 11
-100.177412
 21
278.831823
 31
0.0
  0
LINE
  8
LC-004-005-----0
  6
CONTINUOUS
  5
52
 10
-98.261745
 20
280.74749
 30
0.0
 11
-96.767439
 21
282.241796
 31
0.0
  0
LINE
  8
LC-004-005-----0
  6
CONTINUOUS
  5
53
 10
-101.671047
 20
280.166615
 30
0.0
 11
-99.596537
 21
282.241125
 31
0.0
  0
ENDBLK
  8
0
  5
54
  0
BLOCK
  8
0
  5
56
  2
*X5
 70
    65
 10
-114.677412
 20
277.24749
 30
0.0
  3
*X5
  0
LINE
  8
LC-004-005-----0
  6
CONTINUOUS
  5
57
 10
-109.177412
 20
278.317104
 30
0.0
 11
-107.677412
 21
279.817104
 31
0.0
  0
LINE
  8
LC-004-005-----0
  6
CONTINUOUS
  5
58
 10
-109.634863
 20
280.68808
 30
0.0
 11
-108.547939
 21
281.775004
 31
0.0
  0
LINE
  8
LC-004-005-----0
  6
CONTINUOUS
  5
59
 10
-114.677412
 20
278.473958
 30
0.0
 11
-113.177412
 21
279.973958
 31
0.0
  0
LINE
  8
LC-004-005-----0
  6
CONTINUOUS
  5
5A
 10
-112.40388
 20
280.74749
 30
0.0
 11
-110.90388
 21
282.24749
 31
0.0
  0
ENDBLK
  8
0
  5
5B
  0
BLOCK
  8
0
  5
5D
  2
*D6
 70
    65
 10
0.0
 20
0.0
 30
0.0
  3
*D6
  0
LINE
  8
LC-006-003-MTH-0
  6
CONTINUOUS
  5
5F
 10
-116.577412
 20
282.04749
 30
0.0
 11
-116.577412
 21
324.8
 31
0.0
  0
LINE
  8
LC-006-003-MTH-0
  6
CONTINUOUS
  5
60
 10
2.222588
 20
282.04749
 30
0.0
 11
2.222588
 21
324.8
 31
0.0
  0
LINE
  8
LC-007-003-MTG-0
  6
CONTINUOUS
  5
62
 10
-116.577412
 20
308.0
 30
0.0
 11
2.222588
 21
308.0
 31
0.0
  0
LINE
  8
LC-005-003-----0
  6
CONTINUOUS
  5
64
 10
-88.816956
 20
311.654733
 30
0.0
 11
-116.577412
 21
308.0
 31
0.0
  0
LINE
  8
LC-005-003-----0
  6
CONTINUOUS
  5
65
 10
-116.577412
 20
308.0
 30
0.0
 11
-88.816956
 21
304.345267
 31
0.0
  0
LINE
  8
LC-005-003-----0
  6
CONTINUOUS
  5
66
 10
-88.816956
 20
304.345267
 30
0.0
 11
-88.816956
 21
311.654733
 31
0.0
  0
LINE
  8
LC-005-003-----0
  6
CONTINUOUS
  5
67
 10
-88.754675
 20
310.704503
 30
0.0
 11
-109.297412
 21
308.0
 31
0.0
  0
LINE
  8
LC-005-003-----0
  6
CONTINUOUS
  5
68
 10
-109.297412
 20
308.0
 30
0.0
 11
-88.754675
 21
305.295497
 31
0.0
  0
LINE
  8
LC-005-003-----0
  6
CONTINUOUS
  5
69
 10
-88.692393
 20
309.754272
 30
0.0
 11
-102.017412
 21
308.0
 31
0.0
  0
LINE
  8
LC-005-003-----0
  6
CONTINUOUS
  5
6A
 10
-102.017412
 20
308.0
 30
0.0
 11
-88.692393
 21
306.245728
 31
0.0
  0
LINE
  8
LC-005-003-----0
  6
CONTINUOUS
  5
6B
 10
-88.630112
 20
308.804041
 30
0.0
 11
-94.737412
 21
308.0
 31
0.0
  0
LINE
  8
LC-005-003-----0
  6
CONTINUOUS
  5
6C
 10
-94.737412
 20
308.0
 30
0.0
 11
-88.630112
 21
307.195959
 31
0.0
  0
LINE
  8
LC-005-003-----0
  6
CONTINUOUS
  5
6D
 10
-25.537868
 20
304.345267
 30
0.0
 11
2.222588
 21
308.0
 31
0.0
  0
LINE
  8
LC-005-003-----0
  6
CONTINUOUS
  5
6E
 10
2.222588
 20
308.0
 30
0.0
 11
-25.537868
 21
311.654733
 31
0.0
  0
LINE
  8
LC-005-003-----0
  6
CONTINUOUS
  5
6F
 10
-25.537868
 20
311.654733
 30
0.0
 11
-25.537868
 21
304.345267
 31
0.0
  0
LINE
  8
LC-005-003-----0
  6
CONTINUOUS
  5
70
 10
-25.60015
 20
305.295497
 30
0.0
 11
-5.057412
 21
308.0
 31
0.0
  0
LINE
  8
LC-005-003-----0
  6
CONTINUOUS
  5
71
 10
-5.057412
 20
308.0
 30
0.0
 11
-25.60015
 21
310.704503
 31
0.0
  0
LINE
  8
LC-005-003-----0
  6
CONTINUOUS
  5
72
 10
-25.662431
 20
306.245728
 30
0.0
 11
-12.337412
 21
308.0
 31
0.0
  0
LINE
  8
LC-005-003-----0
  6
CONTINUOUS
  5
73
 10
-12.337412
 20
308.0
 30
0.0
 11
-25.662431
 21
309.754272
 31
0.0
  0
LINE
  8
LC-005-003-----0
  6
CONTINUOUS
  5
74
 10
-25.724713
 20
307.195959
 30
0.0
 11
-19.617412
 21
308.0
 31
0.0
  0
LINE
  8
LC-005-003-----0
  6
CONTINUOUS
  5
75
 10
-19.617412
 20
308.0
 30
0.0
 11
-25.724713
 21
308.804041
 31
0.0
  0
TEXT
  8
LC-005-003-----0
  6
CONTINUOUS
 62
     8
  5
77
 10
-90.92689
 20
315.827554
 30
0.0
 40
28.0
  1
Ø120
 41
0.9
 51
15.0
  7
LC-TXTSTYLE-150-400-0-0-D0
 72
     1
 11
-52.829252
 21
315.827554
 31
0.0
  0
ENDBLK
  8
0
  5
78
  0
BLOCK
  8
0
  5
7A
  2
*X7
 70
    65
 10
-32.677412
 20
277.74749
 30
0.0
  3
*X7
  0
LINE
  8
LC-004-005-----0
  6
CONTINUOUS
  5
7B
 10
-27.177412
 20
278.292717
 30
0.0
 11
-25.677412
 21
279.792717
 31
0.0
  0
LINE
  8
LC-004-005-----0
  6
CONTINUOUS
  5
7C
 10
-27.617907
 20
280.680649
 30
0.0
 11
-26.534257
 21
281.7643
 31
0.0
  0
LINE
  8
LC-004-005-----0
  6
CONTINUOUS
  5
7D
 10
-32.677412
 20
278.449572
 30
0.0
 11
-31.177412
 21
279.949572
 31
0.0
  0
LINE
  8
LC-004-005-----0
  6
CONTINUOUS
  5
7E
 10
-30.379494
 20
280.74749
 30
0.0
 11
-28.879494
 21
282.24749
 31
0.0
  0
ENDBLK
  8
0
  5
7F
  0
BLOCK
  8
0
  5
81
  2
*X8
 70
    65
 10
-19.677412
 20
277.74749
 30
0.0
  3
*X8
  0
LINE
  8
LC-004-005-----0
  6
CONTINUOUS
  5
82
 10
-13.280504
 20
278.04749
 30
0.0
 11
-12.677412
 21
278.650582
 31
0.0
  0
LINE
  8
LC-004-005-----0
  6
CONTINUOUS
  5
83
 10
-14.177412
 20
279.979009
 30
0.0
 11
-12.999277
 21
281.157144
 31
0.0
  0
LINE
  8
LC-004-005-----0
  6
CONTINUOUS
  5
84
 10
-18.937358
 20
278.04749
 30
0.0
 11
-18.177412
 21
278.807436
 31
0.0
  0
LINE
  8
LC-004-005-----0
  6
CONTINUOUS
  5
85
 10
-16.237358
 20
280.74749
 30
0.0
 11
-14.744782
 21
282.240066
 31
0.0
  0
LINE
  8
LC-004-005-----0
  6
CONTINUOUS
  5
86
 10
-19.672869
 20
280.140407
 30
0.0
 11
-17.570329
 21
282.242947
 31
0.0
  0
ENDBLK
  8
0
  5
87
  0
BLOCK
  8
0
  5
89
  2
*X9
 70
    65
 10
-6.677412
 20
277.24749
 30
0.0
  3
*X9
  0
LINE
  8
LC-004-005-----0
  6
CONTINUOUS
  5
8A
 10
0.061632
 20
277.24749
 30
0.0
 11
0.322588
 21
277.508446
 31
0.0
  0
LINE
  8
LC-004-005-----0
  6
CONTINUOUS
  5
8B
 10
-1.177412
 20
278.836873
 30
0.0
 11
0.300152
 21
280.314438
 31
0.0
  0
LINE
  8
LC-004-005-----0
  6
CONTINUOUS
  5
8C
 10
-2.095222
 20
280.74749
 30
0.0
 11
-0.862947
 21
281.979765
 31
0.0
  0
LINE
  8
LC-004-005-----0
  6
CONTINUOUS
  5
8D
 10
-6.677412
 20
278.993727
 30
0.0
 11
-3.423649
 21
282.24749
 31
0.0
  0
ENDBLK
  8
0
  5
8E
  0
BLOCK
  8
0
  5
90
  2
BLK1
 70
    64
 10
0.0
 20
0.0
 30
0.0
  3
BLK1
  0
ENDBLK
  8
0
  5
91
  0
BLOCK
  8
0
  5
93
  2
BLK2
 70
    64
 10
0.0
 20
0.0
 30
0.0
  3
BLK2
  0
ENDBLK
  8
0
  5
94
  0
BLOCK
  8
0
  5
96
  2
BLK3
 70
    64
 10
0.0
 20
0.0
 30
0.0
  3
BLK3
  0
ENDBLK
  8
0
  5
97
  0
BLOCK
  8
0
  5
99
  2
*X13
 70
    65
 10
-117.177019
 20
160.303129
 30
0.0
  3
*X13
  0
LINE
  8
LC-004-005-----0
  6
CONTINUOUS
  5
9A
 10
-111.225875
 20
160.303129
 30
0.0
 11
-109.176974
 21
162.35203
 31
0.0
  0
LINE
  8
LC-004-005-----0
  6
CONTINUOUS
  5
9B
 10
-114.054302
 20
160.303129
 30
0.0
 11
-111.054327
 21
163.303104
 31
0.0
  0
LINE
  8
LC-004-005-----0
  6
CONTINUOUS
  5
9C
 10
-116.882729
 20
160.303129
 30
0.0
 11
-112.176944
 21
165.008914
 31
0.0
  0
LINE
  8
LC-004-005-----0
  6
CONTINUOUS
  5
9D
 10
-117.177019
 20
162.837266
 30
0.0
 11
-112.176935
 21
167.83735
 31
0.0
  0
LINE
  8
LC-004-005-----0
  6
CONTINUOUS
  5
9E
 10
-117.177019
 20
165.665693
 30
0.0
 11
-112.176927
 21
170.665786
 31
0.0
  0
LINE
  8
LC-004-005-----0
  6
CONTINUOUS
  5
9F
 10
-117.177019
 20
168.49412
 30
0.0
 11
-115.368094
 21
170.303045
 31
0.0
  0
LINE
  8
LC-004-005-----0
  6
CONTINUOUS
  5
A0
 10
-114.176925
 20
171.494214
 30
0.0
 11
-112.176918
 21
173.494222
 31
0.0
  0
LINE
  8
LC-004-005-----0
  6
CONTINUOUS
  5
A1
 10
-114.176925
 20
174.322641
 30
0.0
 11
-112.176909
 21
176.322657
 31
0.0
  0
LINE
  8
LC-004-005-----0
  6
CONTINUOUS
  5
A2
 10
-114.176925
 20
177.151068
 30
0.0
 11
-112.600979
 21
178.727015
 31
0.0
  0
LINE
  8
LC-004-005-----0
  6
CONTINUOUS
  5
A3
 10
-114.176925
 20
179.979496
 30
0.0
 11
-114.015193
 21
180.141228
 31
0.0
  0
ENDBLK
  8
0
  5
A4
  0
BLOCK
  8
0
  5
A6
  2
*X14
 70
    65
 10
-5.17785
 20
160.303129
 30
0.0
  3
*X14
  0
LINE
  8
LC-004-005-----0
  6
CONTINUOUS
  5
A7
 10
1.91121
 20
160.303129
 30
0.0
 11
2.822195
 21
161.214114
 31
0.0
  0
LINE
  8
LC-004-005-----0
  6
CONTINUOUS
  5
A8
 10
-0.917217
 20
160.303129
 30
0.0
 11
2.822195
 21
164.042541
 31
0.0
  0
LINE
  8
LC-004-005-----0
  6
CONTINUOUS
  5
A9
 10
-3.745644
 20
160.303129
 30
0.0
 11
2.822195
 21
166.870968
 31
0.0
  0
LINE
  8
LC-004-005-----0
  6
CONTINUOUS
  5
AA
 10
-5.17785
 20
161.69935
 30
0.0
 11
-3.574096
 21
163.303104
 31
0.0
  0
LINE
  8
LC-004-005-----0
  6
CONTINUOUS
  5
AB
 10
-2.17788
 20
164.699321
 30
0.0
 11
2.822195
 21
169.699395
 31
0.0
  0
LINE
  8
LC-004-005-----0
  6
CONTINUOUS
  5
AC
 10
-2.177888
 20
167.527739
 30
0.0
 11
0.597418
 21
170.303045
 31
0.0
  0
LINE
  8
LC-004-005-----0
  6
CONTINUOUS
  5
AD
 10
-2.177897
 20
170.356158
 30
0.0
 11
-0.177899
 21
172.356156
 31
0.0
  0
LINE
  8
LC-004-005-----0
  6
CONTINUOUS
  5
AE
 10
-2.177906
 20
173.184576
 30
0.0
 11
-0.177899
 21
175.184583
 31
0.0
  0
LINE
  8
LC-004-005-----0
  6
CONTINUOUS
  5
AF
 10
-2.177914
 20
176.012995
 30
0.0
 11
-0.177899
 21
178.01301
 31
0.0
  0
ENDBLK
  8
0
  5
B0
  0
BLOCK
  8
0
  5
B2
  2
BLK4
 70
    64
 10
0.0
 20
0.0
 30
0.0
  3
BLK4
  0
ENDBLK
  8
0
  5
B3
  0
BLOCK
  8
0
  5
B5
  2
*X16
 70
    65
 10
-7.318079
 20
264.399418
 30
0.0
  3
*X16
  0
LINE
  8
LC-004-005-----0
  6
CONTINUOUS
  5
B6
 10
-6.79345
 20
264.735554
 30
0.0
 11
-5.614744
 21
265.91426
 31
0.0
  0
LINE
  8
LC-004-005-----0
  6
CONTINUOUS
  5
B7
 10
-6.477412
 20
267.880019
 30
0.0
 11
-5.777412
 21
268.580019
 31
0.0
  0
LINE
  8
LC-004-005-----0
  6
CONTINUOUS
  5
B8
 10
-6.477412
 20
270.708446
 30
0.0
 11
-5.777412
 21
271.408446
 31
0.0
  0
LINE
  8
LC-004-005-----0
  6
CONTINUOUS
  5
B9
 10
-3.882754
 20
273.303104
 30
0.0
 11
-3.096133
 21
274.089726
 31
0.0
  0
LINE
  8
LC-004-005-----0
  6
CONTINUOUS
  5
BA
 10
-2.964034
 20
274.221825
 30
0.0
 11
-2.177412
 21
275.008446
 31
0.0
  0
LINE
  8
LC-004-005-----0
  6
CONTINUOUS
  5
BB
 10
-0.638368
 20
276.54749
 30
0.0
 11
0.061632
 21
277.24749
 31
0.0
  0
LINE
  8
LC-004-005-----0
  6
CONTINUOUS
  5
BC
 10
0.822588
 20
278.008446
 30
0.0
 11
1.522588
 21
278.708446
 31
0.0
  0
LINE
  8
LC-004-005-----0
  6
CONTINUOUS
  5
BD
 10
0.822588
 20
280.836873
 30
0.0
 11
2.201945
 21
282.216231
 31
0.0
  0
ENDBLK
  8
0
  5
BE
  0
BLOCK
  8
0
  5
C0
  2
BLK5
 70
    64
 10
0.0
 20
0.0
 30
0.0
  3
BLK5
  0
ENDBLK
  8
0
  5
C1
  0
BLOCK
  8
0
  5
C3
  2
*X18
 70
    65
 10
-5.527412
 20
163.303104
 30
0.0
  3
*X18
  0
LINE
  8
LC-004-005-----0
  6
CONTINUOUS
  5
C4
 10
-2.177412
 20
270.877989
 30
0.0
 11
-3.427412
 21
272.127989
 31
0.0
  0
LINE
  8
LC-004-005-----0
  6
CONTINUOUS
  5
C5
 10
-2.177412
 20
268.049562
 30
0.0
 11
-5.229183
 21
271.101333
 31
0.0
  0
LINE
  8
LC-004-005-----0
  6
CONTINUOUS
  5
C6
 10
-2.177412
 20
265.221135
 30
0.0
 11
-4.677412
 21
267.721135
 31
0.0
  0
LINE
  8
LC-004-005-----0
  6
CONTINUOUS
  5
C7
 10
-2.177412
 20
262.392708
 30
0.0
 11
-4.677412
 21
264.892708
 31
0.0
  0
LINE
  8
LC-004-005-----0
  6
CONTINUOUS
  5
C8
 10
-2.177412
 20
259.564281
 30
0.0
 11
-4.677412
 21
262.064281
 31
0.0
  0
LINE
  8
LC-004-005-----0
  6
CONTINUOUS
  5
C9
 10
-2.177412
 20
256.735853
 30
0.0
 11
-4.677412
 21
259.235853
 31
0.0
  0
LINE
  8
LC-004-005-----0
  6
CONTINUOUS
  5
CA
 10
-2.177412
 20
253.907426
 30
0.0
 11
-4.677412
 21
256.407426
 31
0.0
  0
LINE
  8
LC-004-005-----0
  6
CONTINUOUS
  5
CB
 10
-2.177412
 20
251.078999
 30
0.0
 11
-4.677412
 21
253.578999
 31
0.0
  0
LINE
  8
LC-004-005-----0
  6
CONTINUOUS
  5
CC
 10
-2.177412
 20
248.250572
 30
0.0
 11
-4.677412
 21
250.750572
 31
0.0
  0
LINE
  8
LC-004-005-----0
  6
CONTINUOUS
  5
CD
 10
-2.177412
 20
245.422145
 30
0.0
 11
-4.677412
 21
247.922145
 31
0.0
  0
LINE
  8
LC-004-005-----0
  6
CONTINUOUS
  5
CE
 10
-2.177412
 20
242.593718
 30
0.0
 11
-4.677412
 21
245.093718
 31
0.0
  0
LINE
  8
LC-004-005-----0
  6
CONTINUOUS
  5
CF
 10
-2.177412
 20
239.765291
 30
0.0
 11
-4.677412
 21
242.265291
 31
0.0
  0
LINE
  8
LC-004-005-----0
  6
CONTINUOUS
  5
D0
 10
-2.177412
 20
236.936864
 30
0.0
 11
-4.677412
 21
239.436864
 31
0.0
  0
LINE
  8
LC-004-005-----0
  6
CONTINUOUS
  5
D1
 10
-2.177412
 20
234.108436
 30
0.0
 11
-4.677412
 21
236.608436
 31
0.0
  0
LINE
  8
LC-004-005-----0
  6
CONTINUOUS
  5
D2
 10
-2.177412
 20
231.280009
 30
0.0
 11
-4.677412
 21
233.780009
 31
0.0
  0
LINE
  8
LC-004-005-----0
  6
CONTINUOUS
  5
D3
 10
-2.177412
 20
228.451582
 30
0.0
 11
-4.677412
 21
230.951582
 31
0.0
  0
LINE
  8
LC-004-005-----0
  6
CONTINUOUS
  5
D4
 10
-2.177412
 20
225.623155
 30
0.0
 11
-4.677412
 21
228.123155
 31
0.0
  0
LINE
  8
LC-004-005-----0
  6
CONTINUOUS
  5
D5
 10
-2.177412
 20
222.794728
 30
0.0
 11
-4.677412
 21
225.294728
 31
0.0
  0
LINE
  8
LC-004-005-----0
  6
CONTINUOUS
  5
D6
 10
-2.177412
 20
219.966301
 30
0.0
 11
-4.677412
 21
222.466301
 31
0.0
  0
LINE
  8
LC-004-005-----0
  6
CONTINUOUS
  5
D7
 10
-2.177412
 20
217.137874
 30
0.0
 11
-4.677412
 21
219.637874
 31
0.0
  0
LINE
  8
LC-004-005-----0
  6
CONTINUOUS
  5
D8
 10
-2.177412
 20
214.309447
 30
0.0
 11
-4.677412
 21
216.809447
 31
0.0
  0
LINE
  8
LC-004-005-----0
  6
CONTINUOUS
  5
D9
 10
-2.177412
 20
211.481019
 30
0.0
 11
-4.677412
 21
213.981019
 31
0.0
  0
LINE
  8
LC-004-005-----0
  6
CONTINUOUS
  5
DA
 10
-2.177412
 20
208.652592
 30
0.0
 11
-4.677412
 21
211.152592
 31
0.0
  0
LINE
  8
LC-004-005-----0
  6
CONTINUOUS
  5
DB
 10
-2.177412
 20
205.824165
 30
0.0
 11
-4.677412
 21
208.324165
 31
0.0
  0
LINE
  8
LC-004-005-----0
  6
CONTINUOUS
  5
DC
 10
-2.177412
 20
202.995738
 30
0.0
 11
-4.677412
 21
205.495738
 31
0.0
  0
LINE
  8
LC-004-005-----0
  6
CONTINUOUS
  5
DD
 10
-2.177412
 20
200.167311
 30
0.0
 11
-4.677412
 21
202.667311
 31
0.0
  0
LINE
  8
LC-004-005-----0
  6
CONTINUOUS
  5
DE
 10
-2.177412
 20
197.338884
 30
0.0
 11
-4.677412
 21
199.838884
 31
0.0
  0
LINE
  8
LC-004-005-----0
  6
CONTINUOUS
  5
DF
 10
-2.177412
 20
194.510457
 30
0.0
 11
-4.677412
 21
197.010457
 31
0.0
  0
LINE
  8
LC-004-005-----0
  6
CONTINUOUS
  5
E0
 10
-2.177412
 20
191.68203
 30
0.0
 11
-4.677412
 21
194.18203
 31
0.0
  0
LINE
  8
LC-004-005-----0
  6
CONTINUOUS
  5
E1
 10
-2.177412
 20
188.853602
 30
0.0
 11
-4.677412
 21
191.353602
 31
0.0
  0
LINE
  8
LC-004-005-----0
  6
CONTINUOUS
  5
E2
 10
-2.177412
 20
186.025175
 30
0.0
 11
-4.677412
 21
188.525175
 31
0.0
  0
LINE
  8
LC-004-005-----0
  6
CONTINUOUS
  5
E3
 10
-2.177412
 20
183.196748
 30
0.0
 11
-4.677412
 21
185.696748
 31
0.0
  0
LINE
  8
LC-004-005-----0
  6
CONTINUOUS
  5
E4
 10
-2.177412
 20
180.368321
 30
0.0
 11
-4.677412
 21
182.868321
 31
0.0
  0
LINE
  8
LC-004-005-----0
  6
CONTINUOUS
  5
E5
 10
-2.177412
 20
177.539894
 30
0.0
 11
-4.677412
 21
180.039894
 31
0.0
  0
LINE
  8
LC-004-005-----0
  6
CONTINUOUS
  5
E6
 10
-2.177412
 20
174.711467
 30
0.0
 11
-4.677412
 21
177.211467
 31
0.0
  0
LINE
  8
LC-004-005-----0
  6
CONTINUOUS
  5
E7
 10
-2.177412
 20
171.88304
 30
0.0
 11
-4.677412
 21
174.38304
 31
0.0
  0
LINE
  8
LC-004-005-----0
  6
CONTINUOUS
  5
E8
 10
-2.177412
 20
169.054613
 30
0.0
 11
-4.677412
 21
171.554613
 31
0.0
  0
LINE
  8
LC-004-005-----0
  6
CONTINUOUS
  5
E9
 10
-2.177412
 20
166.226185
 30
0.0
 11
-4.677412
 21
168.726185
 31
0.0
  0
LINE
  8
LC-004-005-----0
  6
CONTINUOUS
  5
EA
 10
-2.630085
 20
163.850431
 30
0.0
 11
-4.677412
 21
165.897758
 31
0.0
  0
ENDBLK
  8
0
  5
EB
  0
BLOCK
  8
0
  5
ED
  2
*X19
 70
    65
 10
-112.177412
 20
163.303104
 30
0.0
  3
*X19
  0
LINE
  8
LC-004-005-----0
  6
CONTINUOUS
  5
EE
 10
-108.827412
 20
270.047758
 30
0.0
 11
-110.082758
 21
271.303104
 31
0.0
  0
LINE
  8
LC-004-005-----0
  6
CONTINUOUS
  5
EF
 10
-110.927412
 20
272.147758
 30
0.0
 11
-112.082758
 21
273.303104
 31
0.0
  0
LINE
  8
LC-004-005-----0
  6
CONTINUOUS
  5
F0
 10
-109.619299
 20
268.011218
 30
0.0
 11
-112.177412
 21
270.569331
 31
0.0
  0
LINE
  8
LC-004-005-----0
  6
CONTINUOUS
  5
F1
 10
-109.677412
 20
265.240904
 30
0.0
 11
-112.177412
 21
267.740904
 31
0.0
  0
LINE
  8
LC-004-005-----0
  6
CONTINUOUS
  5
F2
 10
-109.677412
 20
262.412477
 30
0.0
 11
-112.177412
 21
264.912477
 31
0.0
  0
LINE
  8
LC-004-005-----0
  6
CONTINUOUS
  5
F3
 10
-109.677412
 20
259.58405
 30
0.0
 11
-112.177412
 21
262.08405
 31
0.0
  0
LINE
  8
LC-004-005-----0
  6
CONTINUOUS
  5
F4
 10
-109.677412
 20
256.755623
 30
0.0
 11
-112.177412
 21
259.255623
 31
0.0
  0
LINE
  8
LC-004-005-----0
  6
CONTINUOUS
  5
F5
 10
-109.677412
 20
253.927196
 30
0.0
 11
-112.177412
 21
256.427196
 31
0.0
  0
LINE
  8
LC-004-005-----0
  6
CONTINUOUS
  5
F6
 10
-109.677412
 20
251.098768
 30
0.0
 11
-112.177412
 21
253.598768
 31
0.0
  0
LINE
  8
LC-004-005-----0
  6
CONTINUOUS
  5
F7
 10
-109.677412
 20
248.270341
 30
0.0
 11
-112.177412
 21
250.770341
 31
0.0
  0
LINE
  8
LC-004-005-----0
  6
CONTINUOUS
  5
F8
 10
-109.677412
 20
245.441914
 30
0.0
 11
-112.177412
 21
247.941914
 31
0.0
  0
LINE
  8
LC-004-005-----0
  6
CONTINUOUS
  5
F9
 10
-109.677412
 20
242.613487
 30
0.0
 11
-112.177412
 21
245.113487
 31
0.0
  0
LINE
  8
LC-004-005-----0
  6
CONTINUOUS
  5
FA
 10
-109.677412
 20
239.78506
 30
0.0
 11
-112.177412
 21
242.28506
 31
0.0
  0
LINE
  8
LC-004-005-----0
  6
CONTINUOUS
  5
FB
 10
-109.677412
 20
236.956633
 30
0.0
 11
-112.177412
 21
239.456633
 31
0.0
  0
LINE
  8
LC-004-005-----0
  6
CONTINUOUS
  5
FC
 10
-109.677412
 20
234.128206
 30
0.0
 11
-112.177412
 21
236.628206
 31
0.0
  0
LINE
  8
LC-004-005-----0
  6
CONTINUOUS
  5
FD
 10
-109.677412
 20
231.299779
 30
0.0
 11
-112.177412
 21
233.799779
 31
0.0
  0
LINE
  8
LC-004-005-----0
  6
CONTINUOUS
  5
FE
 10
-109.677412
 20
228.471351
 30
0.0
 11
-112.177412
 21
230.971351
 31
0.0
  0
LINE
  8
LC-004-005-----0
  6
CONTINUOUS
  5
FF
 10
-109.677412
 20
225.642924
 30
0.0
 11
-112.177412
 21
228.142924
 31
0.0
  0
LINE
  8
LC-004-005-----0
  6
CONTINUOUS
  5
100
 10
-109.677412
 20
222.814497
 30
0.0
 11
-112.177412
 21
225.314497
 31
0.0
  0
LINE
  8
LC-004-005-----0
  6
CONTINUOUS
  5
101
 10
-109.677412
 20
219.98607
 30
0.0
 11
-112.177412
 21
222.48607
 31
0.0
  0
LINE
  8
LC-004-005-----0
  6
CONTINUOUS
  5
102
 10
-109.677412
 20
217.157643
 30
0.0
 11
-112.177412
 21
219.657643
 31
0.0
  0
LINE
  8
LC-004-005-----0
  6
CONTINUOUS
  5
103
 10
-109.677412
 20
214.329216
 30
0.0
 11
-112.177412
 21
216.829216
 31
0.0
  0
LINE
  8
LC-004-005-----0
  6
CONTINUOUS
  5
104
 10
-109.677412
 20
211.500789
 30
0.0
 11
-112.177412
 21
214.000789
 31
0.0
  0
LINE
  8
LC-004-005-----0
  6
CONTINUOUS
  5
105
 10
-109.677412
 20
208.672362
 30
0.0
 11
-112.177412
 21
211.172362
 31
0.0
  0
LINE
  8
LC-004-005-----0
  6
CONTINUOUS
  5
106
 10
-109.677412
 20
205.843934
 30
0.0
 11
-112.177412
 21
208.343934
 31
0.0
  0
LINE
  8
LC-004-005-----0
  6
CONTINUOUS
  5
107
 10
-109.677412
 20
203.015507
 30
0.0
 11
-112.177412
 21
205.515507
 31
0.0
  0
LINE
  8
LC-004-005-----0
  6
CONTINUOUS
  5
108
 10
-109.677412
 20
200.18708
 30
0.0
 11
-112.177412
 21
202.68708
 31
0.0
  0
LINE
  8
LC-004-005-----0
  6
CONTINUOUS
  5
109
 10
-109.677412
 20
197.358653
 30
0.0
 11
-112.177412
 21
199.858653
 31
0.0
  0
LINE
  8
LC-004-005-----0
  6
CONTINUOUS
  5
10A
 10
-109.677412
 20
194.530226
 30
0.0
 11
-112.177412
 21
197.030226
 31
0.0
  0
LINE
  8
LC-004-005-----0
  6
CONTINUOUS
  5
10B
 10
-109.677412
 20
191.701799
 30
0.0
 11
-112.177412
 21
194.201799
 31
0.0
  0
LINE
  8
LC-004-005-----0
  6
CONTINUOUS
  5
10C
 10
-109.677412
 20
188.873372
 30
0.0
 11
-112.177412
 21
191.373372
 31
0.0
  0
LINE
  8
LC-004-005-----0
  6
CONTINUOUS
  5
10D
 10
-109.677412
 20
186.044945
 30
0.0
 11
-112.177412
 21
188.544945
 31
0.0
  0
LINE
  8
LC-004-005-----0
  6
CONTINUOUS
  5
10E
 10
-109.677412
 20
183.216517
 30
0.0
 11
-112.177412
 21
185.716517
 31
0.0
  0
LINE
  8
LC-004-005-----0
  6
CONTINUOUS
  5
10F
 10
-109.677412
 20
180.38809
 30
0.0
 11
-112.177412
 21
182.88809
 31
0.0
  0
LINE
  8
LC-004-005-----0
  6
CONTINUOUS
  5
110
 10
-109.677412
 20
177.559663
 30
0.0
 11
-112.177412
 21
180.059663
 31
0.0
  0
LINE
  8
LC-004-005-----0
  6
CONTINUOUS
  5
111
 10
-109.677412
 20
174.731236
 30
0.0
 11
-112.177412
 21
177.231236
 31
0.0
  0
LINE
  8
LC-004-005-----0
  6
CONTINUOUS
  5
112
 10
-109.677412
 20
171.902809
 30
0.0
 11
-112.177412
 21
174.402809
 31
0.0
  0
LINE
  8
LC-004-005-----0
  6
CONTINUOUS
  5
113
 10
-109.677412
 20
169.074382
 30
0.0
 11
-112.177412
 21
171.574382
 31
0.0
  0
LINE
  8
LC-004-005-----0
  6
CONTINUOUS
  5
114
 10
-109.677412
 20
166.245955
 30
0.0
 11
-112.177412
 21
168.745955
 31
0.0
  0
LINE
  8
LC-004-005-----0
  6
CONTINUOUS
  5
115
 10
-109.677412
 20
163.417528
 30
0.0
 11
-112.177412
 21
165.917528
 31
0.0
  0
ENDBLK
  8
0
  5
116
  0
BLOCK
  8
0
  5
118
  2
BLK6
 70
    64
 10
0.0
 20
0.0
 30
0.0
  3
BLK6
  0
ENDBLK
  8
0
  5
119
  0
BLOCK
  8
0
  5
11B
  2
*D21
 70
    65
 10
0.0
 20
0.0
 30
0.0
  3
*D21
  0
LINE
  8
LC-006-003-MTH-0
  6
CONTINUOUS
  5
11C
 10
-112.177412
 20
164.303104
 30
0.0
 11
-112.177412
 21
100.8
 31
0.0
  0
LINE
  8
LC-006-003-MTH-0
  6
CONTINUOUS
  5
11D
 10
-2.177412
 20
164.303104
 30
0.0
 11
-2.177412
 21
100.8
 31
0.0
  0
LINE
  8
LC-007-003-MTG-0
  6
CONTINUOUS
  5
11E
 10
-112.177412
 20
117.6
 30
0.0
 11
-2.177412
 21
117.6
 31
0.0
  0
LINE
  8
LC-005-003-----0
  6
CONTINUOUS
  5
11F
 10
-84.416956
 20
121.254733
 30
0.0
 11
-112.177412
 21
117.6
 31
0.0
  0
LINE
  8
LC-005-003-----0
  6
CONTINUOUS
  5
120
 10
-112.177412
 20
117.6
 30
0.0
 11
-84.416956
 21
113.945267
 31
0.0
  0
LINE
  8
LC-005-003-----0
  6
CONTINUOUS
  5
121
 10
-84.416956
 20
113.945267
 30
0.0
 11
-84.416956
 21
121.254733
 31
0.0
  0
LINE
  8
LC-005-003-----0
  6
CONTINUOUS
  5
122
 10
-84.354675
 20
120.304503
 30
0.0
 11
-104.897412
 21
117.6
 31
0.0
  0
LINE
  8
LC-005-003-----0
  6
CONTINUOUS
  5
123
 10
-104.897412
 20
117.6
 30
0.0
 11
-84.354675
 21
114.895497
 31
0.0
  0
LINE
  8
LC-005-003-----0
  6
CONTINUOUS
  5
124
 10
-84.292393
 20
119.354272
 30
0.0
 11
-97.617412
 21
117.6
 31
0.0
  0
LINE
  8
LC-005-003-----0
  6
CONTINUOUS
  5
125
 10
-97.617412
 20
117.6
 30
0.0
 11
-84.292393
 21
115.845728
 31
0.0
  0
LINE
  8
LC-005-003-----0
  6
CONTINUOUS
  5
126
 10
-84.230112
 20
118.404041
 30
0.0
 11
-90.337412
 21
117.6
 31
0.0
  0
LINE
  8
LC-005-003-----0
  6
CONTINUOUS
  5
127
 10
-90.337412
 20
117.6
 30
0.0
 11
-84.230112
 21
116.795959
 31
0.0
  0
LINE
  8
LC-005-003-----0
  6
CONTINUOUS
  5
128
 10
-29.937868
 20
113.945267
 30
0.0
 11
-2.177412
 21
117.6
 31
0.0
  0
LINE
  8
LC-005-003-----0
  6
CONTINUOUS
  5
129
 10
-2.177412
 20
117.6
 30
0.0
 11
-29.937868
 21
121.254733
 31
0.0
  0
LINE
  8
LC-005-003-----0
  6
CONTINUOUS
  5
12A
 10
-29.937868
 20
121.254733
 30
0.0
 11
-29.937868
 21
113.945267
 31
0.0
  0
LINE
  8
LC-005-003-----0
  6
CONTINUOUS
  5
12B
 10
-30.00015
 20
114.895497
 30
0.0
 11
-9.457412
 21
117.6
 31
0.0
  0
LINE
  8
LC-005-003-----0
  6
CONTINUOUS
  5
12C
 10
-9.457412
 20
117.6
 30
0.0
 11
-30.00015
 21
120.304503
 31
0.0
  0
LINE
  8
LC-005-003-----0
  6
CONTINUOUS
  5
12D
 10
-30.062431
 20
115.845728
 30
0.0
 11
-16.737412
 21
117.6
 31
0.0
  0
LINE
  8
LC-005-003-----0
  6
CONTINUOUS
  5
12E
 10
-16.737412
 20
117.6
 30
0.0
 11
-30.062431
 21
119.354272
 31
0.0
  0
LINE
  8
LC-005-003-----0
  6
CONTINUOUS
  5
12F
 10
-30.124713
 20
116.795959
 30
0.0
 11
-24.017412
 21
117.6
 31
0.0
  0
LINE
  8
LC-005-003-----0
  6
CONTINUOUS
  5
130
 10
-24.017412
 20
117.6
 30
0.0
 11
-30.124713
 21
118.404041
 31
0.0
  0
TEXT
  8
LC-005-003-----0
  6
CONTINUOUS
 62
     8
  5
131
 10
-90.92689
 20
125.427554
 30
0.0
 40
28.0
  1
Ø110
 51
15.0
  7
LC-TXTSTYLE-150-400-0-0-D0
 72
     1
 11
-52.829252
 21
125.427554
 31
0.0
  0
ENDBLK
  8
0
  5
132
  0
BLOCK
  8
0
  5
134
  2
*X22
 70
    65
 10
-109.677412
 20
163.303104
 30
0.0
  3
*X22
  0
LINE
  8
LC-004-005-----0
  6
CONTINUOUS
  5
135
 10
-57.314212
 20
163.303104
 30
0.0
 11
-57.177412
 21
163.439904
 31
0.0
  0
LINE
  8
LC-004-005-----0
  6
CONTINUOUS
  5
136
 10
-62.971066
 20
163.303104
 30
0.0
 11
-57.177412
 21
169.096758
 31
0.0
  0
LINE
  8
LC-004-005-----0
  6
CONTINUOUS
  5
137
 10
-68.62792
 20
163.303104
 30
0.0
 11
-57.177412
 21
174.753612
 31
0.0
  0
LINE
  8
LC-004-005-----0
  6
CONTINUOUS
  5
138
 10
-74.284774
 20
163.303104
 30
0.0
 11
-60.284774
 21
177.303104
 31
0.0
  0
LINE
  8
LC-004-005-----0
  6
CONTINUOUS
  5
139
 10
-79.941629
 20
163.303104
 30
0.0
 11
-65.941629
 21
177.303104
 31
0.0
  0
LINE
  8
LC-004-005-----0
  6
CONTINUOUS
  5
13A
 10
-85.598483
 20
163.303104
 30
0.0
 11
-71.598483
 21
177.303104
 31
0.0
  0
LINE
  8
LC-004-005-----0
  6
CONTINUOUS
  5
13B
 10
-91.255337
 20
163.303104
 30
0.0
 11
-77.255337
 21
177.303104
 31
0.0
  0
LINE
  8
LC-004-005-----0
  6
CONTINUOUS
  5
13C
 10
-96.912191
 20
163.303104
 30
0.0
 11
-82.912191
 21
177.303104
 31
0.0
  0
LINE
  8
LC-004-005-----0
  6
CONTINUOUS
  5
13D
 10
-102.569046
 20
163.303104
 30
0.0
 11
-88.569046
 21
177.303104
 31
0.0
  0
LINE
  8
LC-004-005-----0
  6
CONTINUOUS
  5
13E
 10
-108.2259
 20
163.303104
 30
0.0
 11
-94.2259
 21
177.303104
 31
0.0
  0
LINE
  8
LC-004-005-----0
  6
CONTINUOUS
  5
13F
 10
-109.677412
 20
167.508446
 30
0.0
 11
-99.882754
 21
177.303104
 31
0.0
  0
LINE
  8
LC-004-005-----0
  6
CONTINUOUS
  5
140
 10
-109.677412
 20
173.1653
 30
0.0
 11
-105.539608
 21
177.303104
 31
0.0
  0
LINE
  8
LC-004-005-----0
  6
CONTINUOUS
  5
141
 10
-57.177412
 20
175.971351
 30
0.0
 11
-58.509165
 21
177.303104
 31
0.0
  0
LINE
  8
LC-004-005-----0
  6
CONTINUOUS
  5
142
 10
-57.177412
 20
170.314497
 30
0.0
 11
-64.166019
 21
177.303104
 31
0.0
  0
LINE
  8
LC-004-005-----0
  6
CONTINUOUS
  5
143
 10
-57.177412
 20
164.657643
 30
0.0
 11
-69.822873
 21
177.303104
 31
0.0
  0
LINE
  8
LC-004-005-----0
  6
CONTINUOUS
  5
144
 10
-61.479728
 20
163.303104
 30
0.0
 11
-75.479728
 21
177.303104
 31
0.0
  0
LINE
  8
LC-004-005-----0
  6
CONTINUOUS
  5
145
 10
-67.136582
 20
163.303104
 30
0.0
 11
-81.136582
 21
177.303104
 31
0.0
  0
LINE
  8
LC-004-005-----0
  6
CONTINUOUS
  5
146
 10
-72.793436
 20
163.303104
 30
0.0
 11
-86.793436
 21
177.303104
 31
0.0
  0
LINE
  8
LC-004-005-----0
  6
CONTINUOUS
  5
147
 10
-78.45029
 20
163.303104
 30
0.0
 11
-92.45029
 21
177.303104
 31
0.0
  0
LINE
  8
LC-004-005-----0
  6
CONTINUOUS
  5
148
 10
-84.107145
 20
163.303104
 30
0.0
 11
-98.107145
 21
177.303104
 31
0.0
  0
LINE
  8
LC-004-005-----0
  6
CONTINUOUS
  5
149
 10
-89.763999
 20
163.303104
 30
0.0
 11
-103.763999
 21
177.303104
 31
0.0
  0
LINE
  8
LC-004-005-----0
  6
CONTINUOUS
  5
14A
 10
-95.420853
 20
163.303104
 30
0.0
 11
-109.420853
 21
177.303104
 31
0.0
  0
LINE
  8
LC-004-005-----0
  6
CONTINUOUS
  5
14B
 10
-101.077707
 20
163.303104
 30
0.0
 11
-109.677412
 21
171.902809
 31
0.0
  0
LINE
  8
LC-004-005-----0
  6
CONTINUOUS
  5
14C
 10
-106.734562
 20
163.303104
 30
0.0
 11
-109.677412
 21
166.245955
 31
0.0
  0
ENDBLK
  8
0
  5
14D
  0
BLOCK
  8
0
  5
14F
  2
*X23
 70
    65
 10
-57.177412
 20
163.303104
 30
0.0
  3
*X23
  0
LINE
  8
LC-004-005-----0
  6
CONTINUOUS
  5
150
 10
-6.402523
 20
163.303104
 30
0.0
 11
-4.677412
 21
165.028215
 31
0.0
  0
LINE
  8
LC-004-005-----0
  6
CONTINUOUS
  5
151
 10
-12.059378
 20
163.303104
 30
0.0
 11
-4.677412
 21
170.68507
 31
0.0
  0
LINE
  8
LC-004-005-----0
  6
CONTINUOUS
  5
152
 10
-17.716232
 20
163.303104
 30
0.0
 11
-4.677412
 21
176.341924
 31
0.0
  0
LINE
  8
LC-004-005-----0
  6
CONTINUOUS
  5
153
 10
-23.373086
 20
163.303104
 30
0.0
 11
-9.373086
 21
177.303104
 31
0.0
  0
LINE
  8
LC-004-005-----0
  6
CONTINUOUS
  5
154
 10
-29.02994
 20
163.303104
 30
0.0
 11
-15.02994
 21
177.303104
 31
0.0
  0
LINE
  8
LC-004-005-----0
  6
CONTINUOUS
  5
155
 10
-34.686795
 20
163.303104
 30
0.0
 11
-20.686795
 21
177.303104
 31
0.0
  0
LINE
  8
LC-004-005-----0
  6
CONTINUOUS
  5
156
 10
-40.343649
 20
163.303104
 30
0.0
 11
-26.343649
 21
177.303104
 31
0.0
  0
LINE
  8
LC-004-005-----0
  6
CONTINUOUS
  5
157
 10
-46.000503
 20
163.303104
 30
0.0
 11
-32.000503
 21
177.303104
 31
0.0
  0
LINE
  8
LC-004-005-----0
  6
CONTINUOUS
  5
158
 10
-51.657357
 20
163.303104
 30
0.0
 11
-37.657357
 21
177.303104
 31
0.0
  0
LINE
  8
LC-004-005-----0
  6
CONTINUOUS
  5
159
 10
-57.177412
 20
163.439904
 30
0.0
 11
-43.314212
 21
177.303104
 31
0.0
  0
LINE
  8
LC-004-005-----0
  6
CONTINUOUS
  5
15A
 10
-57.177412
 20
169.096758
 30
0.0
 11
-48.971066
 21
177.303104
 31
0.0
  0
LINE
  8
LC-004-005-----0
  6
CONTINUOUS
  5
15B
 10
-57.177412
 20
174.753612
 30
0.0
 11
-54.62792
 21
177.303104
 31
0.0
  0
LINE
  8
LC-004-005-----0
  6
CONTINUOUS
  5
15C
 10
-4.677412
 20
174.38304
 30
0.0
 11
-7.597477
 21
177.303104
 31
0.0
  0
LINE
  8
LC-004-005-----0
  6
CONTINUOUS
  5
15D
 10
-4.677412
 20
168.726185
 30
0.0
 11
-13.254331
 21
177.303104
 31
0.0
  0
LINE
  8
LC-004-005-----0
  6
CONTINUOUS
  5
15E
 10
-4.911185
 20
163.303104
 30
0.0
 11
-18.911185
 21
177.303104
 31
0.0
  0
LINE
  8
LC-004-005-----0
  6
CONTINUOUS
  5
15F
 10
-10.568039
 20
163.303104
 30
0.0
 11
-24.568039
 21
177.303104
 31
0.0
  0
LINE
  8
LC-004-005-----0
  6
CONTINUOUS
  5
160
 10
-16.224894
 20
163.303104
 30
0.0
 11
-30.224894
 21
177.303104
 31
0.0
  0
LINE
  8
LC-004-005-----0
  6
CONTINUOUS
  5
161
 10
-21.881748
 20
163.303104
 30
0.0
 11
-35.881748
 21
177.303104
 31
0.0
  0
LINE
  8
LC-004-005-----0
  6
CONTINUOUS
  5
162
 10
-27.538602
 20
163.303104
 30
0.0
 11
-41.538602
 21
177.303104
 31
0.0
  0
LINE
  8
LC-004-005-----0
  6
CONTINUOUS
  5
163
 10
-33.195456
 20
163.303104
 30
0.0
 11
-47.195456
 21
177.303104
 31
0.0
  0
LINE
  8
LC-004-005-----0
  6
CONTINUOUS
  5
164
 10
-38.852311
 20
163.303104
 30
0.0
 11
-52.852311
 21
177.303104
 31
0.0
  0
LINE
  8
LC-004-005-----0
  6
CONTINUOUS
  5
165
 10
-44.509165
 20
163.303104
 30
0.0
 11
-57.177412
 21
175.971351
 31
0.0
  0
LINE
  8
LC-004-005-----0
  6
CONTINUOUS
  5
166
 10
-50.166019
 20
163.303104
 30
0.0
 11
-57.177412
 21
170.314497
 31
0.0
  0
LINE
  8
LC-004-005-----0
  6
CONTINUOUS
  5
167
 10
-55.822873
 20
163.303104
 30
0.0
 11
-57.177412
 21
164.657643
 31
0.0
  0
ENDBLK
  8
0
  5
168
  0
BLOCK
  8
0
  5
16A
  2
*D24
 70
    65
 10
0.0
 20
0.0
 30
0.0
  3
*D24
  0
LINE
  8
LC-006-003-MTH-0
  6
CONTINUOUS
  5
16B
 10
-5.17785
 20
163.303104
 30
0.0
 11
58.8
 21
163.303104
 31
0.0
  0
LINE
  8
LC-006-003-MTH-0
  6
CONTINUOUS
  5
16C
 10
-4.677412
 20
177.303104
 30
0.0
 11
58.8
 21
177.303104
 31
0.0
  0
LINE
  8
LC-005-003-----0
  6
CONTINUOUS
  5
16D
 10
45.654733
 20
135.542648
 30
0.0
 11
42.0
 21
163.303104
 31
0.0
  0
LINE
  8
LC-005-003-----0
  6
CONTINUOUS
  5
16E
 10
42.0
 20
163.303104
 30
0.0
 11
38.345267
 21
135.542648
 31
0.0
  0
LINE
  8
LC-005-003-----0
  6
CONTINUOUS
  5
16F
 10
38.345267
 20
135.542648
 30
0.0
 11
45.654733
 21
135.542648
 31
0.0
  0
LINE
  8
LC-005-003-----0
  6
CONTINUOUS
  5
170
 10
44.704503
 20
135.480367
 30
0.0
 11
42.0
 21
156.023104
 31
0.0
  0
LINE
  8
LC-005-003-----0
  6
CONTINUOUS
  5
171
 10
42.0
 20
156.023104
 30
0.0
 11
39.295497
 21
135.480367
 31
0.0
  0
LINE
  8
LC-005-003-----0
  6
CONTINUOUS
  5
172
 10
43.754272
 20
135.418085
 30
0.0
 11
42.0
 21
148.743104
 31
0.0
  0
LINE
  8
LC-005-003-----0
  6
CONTINUOUS
  5
173
 10
42.0
 20
148.743104
 30
0.0
 11
40.245728
 21
135.418085
 31
0.0
  0
LINE
  8
LC-005-003-----0
  6
CONTINUOUS
  5
174
 10
42.804041
 20
135.355804
 30
0.0
 11
42.0
 21
141.463104
 31
0.0
  0
LINE
  8
LC-005-003-----0
  6
CONTINUOUS
  5
175
 10
42.0
 20
141.463104
 30
0.0
 11
41.195959
 21
135.355804
 31
0.0
  0
LINE
  8
LC-005-003-----0
  6
CONTINUOUS
  5
176
 10
38.345267
 20
205.06356
 30
0.0
 11
42.0
 21
177.303104
 31
0.0
  0
LINE
  8
LC-005-003-----0
  6
CONTINUOUS
  5
177
 10
42.0
 20
177.303104
 30
0.0
 11
45.654733
 21
205.06356
 31
0.0
  0
LINE
  8
LC-005-003-----0
  6
CONTINUOUS
  5
178
 10
45.654733
 20
205.06356
 30
0.0
 11
38.345267
 21
205.06356
 31
0.0
  0
LINE
  8
LC-005-003-----0
  6
CONTINUOUS
  5
179
 10
39.295497
 20
205.125842
 30
0.0
 11
42.0
 21
184.583104
 31
0.0
  0
LINE
  8
LC-005-003-----0
  6
CONTINUOUS
  5
17A
 10
42.0
 20
184.583104
 30
0.0
 11
44.704503
 21
205.125842
 31
0.0
  0
LINE
  8
LC-005-003-----0
  6
CONTINUOUS
  5
17B
 10
40.245728
 20
205.188123
 30
0.0
 11
42.0
 21
191.863104
 31
0.0
  0
LINE
  8
LC-005-003-----0
  6
CONTINUOUS
  5
17C
 10
42.0
 20
191.863104
 30
0.0
 11
43.754272
 21
205.188123
 31
0.0
  0
LINE
  8
LC-005-003-----0
  6
CONTINUOUS
  5
17D
 10
41.195959
 20
205.250405
 30
0.0
 11
42.0
 21
199.143104
 31
0.0
  0
LINE
  8
LC-005-003-----0
  6
CONTINUOUS
  5
17E
 10
42.0
 20
199.143104
 30
0.0
 11
42.804041
 21
205.250405
 31
0.0
  0
LINE
  8
LC-007-003-MTG-0
  6
CONTINUOUS
  5
17F
 10
42.0
 20
124.103104
 30
0.0
 11
42.0
 21
260.667504
 31
0.0
  0
TEXT
  8
LC-005-003-----0
  6
CONTINUOUS
 62
     8
  5
180
 10
34.172446
 20
219.731264
 30
0.0
 40
28.0
  1
14
 50
90.0
 51
15.0
  7
LC-TXTSTYLE-150-400-0-0-D0
  0
ENDBLK
  8
0
  5
181
  0
BLOCK
  8
0
  5
183
  2
*D25
 70
    65
 10
0.0
 20
0.0
 30
0.0
  3
*D25
  0
LINE
  8
LC-006-003-MTH-0
  6
CONTINUOUS
  5
184
 10
-4.677412
 20
177.303104
 30
0.0
 11
100.8
 21
177.303104
 31
0.0
  0
LINE
  8
LC-006-003-MTH-0
  6
CONTINUOUS
  5
185
 10
1.522588
 20
282.74749
 30
0.0
 11
100.8
 21
282.74749
 31
0.0
  0
LINE
  8
LC-007-003-MTG-0
  6
CONTINUOUS
  5
186
 10
84.0
 20
177.303104
 30
0.0
 11
84.0
 21
282.74749
 31
0.0
  0
LINE
  8
LC-005-003-----0
  6
CONTINUOUS
  5
187
 10
80.345267
 20
205.06356
 30
0.0
 11
84.0
 21
177.303104
 31
0.0
  0
LINE
  8
LC-005-003-----0
  6
CONTINUOUS
  5
188
 10
84.0
 20
177.303104
 30
0.0
 11
87.654733
 21
205.06356
 31
0.0
  0
LINE
  8
LC-005-003-----0
  6
CONTINUOUS
  5
189
 10
87.654733
 20
205.06356
 30
0.0
 11
80.345267
 21
205.06356
 31
0.0
  0
LINE
  8
LC-005-003-----0
  6
CONTINUOUS
  5
18A
 10
81.295497
 20
205.125842
 30
0.0
 11
84.0
 21
184.583104
 31
0.0
  0
LINE
  8
LC-005-003-----0
  6
CONTINUOUS
  5
18B
 10
84.0
 20
184.583104
 30
0.0
 11
86.704503
 21
205.125842
 31
0.0
  0
LINE
  8
LC-005-003-----0
  6
CONTINUOUS
  5
18C
 10
82.245728
 20
205.188123
 30
0.0
 11
84.0
 21
191.863104
 31
0.0
  0
LINE
  8
LC-005-003-----0
  6
CONTINUOUS
  5
18D
 10
84.0
 20
191.863104
 30
0.0
 11
85.754272
 21
205.188123
 31
0.0
  0
LINE
  8
LC-005-003-----0
  6
CONTINUOUS
  5
18E
 10
83.195959
 20
205.250405
 30
0.0
 11
84.0
 21
199.143104
 31
0.0
  0
LINE
  8
LC-005-003-----0
  6
CONTINUOUS
  5
18F
 10
84.0
 20
199.143104
 30
0.0
 11
84.804041
 21
205.250405
 31
0.0
  0
LINE
  8
LC-005-003-----0
  6
CONTINUOUS
  5
190
 10
87.654733
 20
254.987034
 30
0.0
 11
84.0
 21
282.74749
 31
0.0
  0
LINE
  8
LC-005-003-----0
  6
CONTINUOUS
  5
191
 10
84.0
 20
282.74749
 30
0.0
 11
80.345267
 21
254.987034
 31
0.0
  0
LINE
  8
LC-005-003-----0
  6
CONTINUOUS
  5
192
 10
80.345267
 20
254.987034
 30
0.0
 11
87.654733
 21
254.987034
 31
0.0
  0
LINE
  8
LC-005-003-----0
  6
CONTINUOUS
  5
193
 10
86.704503
 20
254.924753
 30
0.0
 11
84.0
 21
275.46749
 31
0.0
  0
LINE
  8
LC-005-003-----0
  6
CONTINUOUS
  5
194
 10
84.0
 20
275.46749
 30
0.0
 11
81.295497
 21
254.924753
 31
0.0
  0
LINE
  8
LC-005-003-----0
  6
CONTINUOUS
  5
195
 10
85.754272
 20
254.862471
 30
0.0
 11
84.0
 21
268.18749
 31
0.0
  0
LINE
  8
LC-005-003-----0
  6
CONTINUOUS
  5
196
 10
84.0
 20
268.18749
 30
0.0
 11
82.245728
 21
254.862471
 31
0.0
  0
LINE
  8
LC-005-003-----0
  6
CONTINUOUS
  5
197
 10
84.804041
 20
254.80019
 30
0.0
 11
84.0
 21
260.90749
 31
0.0
  0
LINE
  8
LC-005-003-----0
  6
CONTINUOUS
  5
198
 10
84.0
 20
260.90749
 30
0.0
 11
83.195959
 21
254.80019
 31
0.0
  0
TEXT
  8
LC-005-003-----0
  6
CONTINUOUS
 62
     8
  5
199
 10
76.172446
 20
180.071095
 30
0.0
 40
28.0
  1
10-105,5
 50
90.0
 51
15.0
  7
LC-TXTSTYLE-150-400-0-0-D0
 72
     1
 11
76.172446
 21
234.373457
 31
0.0
  0
ENDBLK
  8
0
  5
19A
  0
BLOCK
  8
0
  5
19C
  2
*D26
 70
    65
 10
0.0
 20
0.0
 30
0.0
  3
*D26
  0
LINE
  8
LC-006-003-MTH-0
  6
CONTINUOUS
  5
19D
 10
-114.677412
 20
276.54749
 30
0.0
 11
-173.6
 21
276.54749
 31
0.0
  0
LINE
  8
LC-006-003-MTH-0
  6
CONTINUOUS
  5
19E
 10
-115.877412
 20
282.74749
 30
0.0
 11
-173.6
 21
282.74749
 31
0.0
  0
LINE
  8
LC-005-003-----0
  6
CONTINUOUS
  5
19F
 10
-153.145267
 20
248.787034
 30
0.0
 11
-156.8
 21
276.54749
 31
0.0
  0
LINE
  8
LC-005-003-----0
  6
CONTINUOUS
  5
1A0
 10
-156.8
 20
276.54749
 30
0.0
 11
-160.454733
 21
248.787034
 31
0.0
  0
LINE
  8
LC-005-003-----0
  6
CONTINUOUS
  5
1A1
 10
-160.454733
 20
248.787034
 30
0.0
 11
-153.145267
 21
248.787034
 31
0.0
  0
LINE
  8
LC-005-003-----0
  6
CONTINUOUS
  5
1A2
 10
-154.095497
 20
248.724753
 30
0.0
 11
-156.8
 21
269.26749
 31
0.0
  0
LINE
  8
LC-005-003-----0
  6
CONTINUOUS
  5
1A3
 10
-156.8
 20
269.26749
 30
0.0
 11
-159.504503
 21
248.724753
 31
0.0
  0
LINE
  8
LC-005-003-----0
  6
CONTINUOUS
  5
1A4
 10
-155.045728
 20
248.662471
 30
0.0
 11
-156.8
 21
261.98749
 31
0.0
  0
LINE
  8
LC-005-003-----0
  6
CONTINUOUS
  5
1A5
 10
-156.8
 20
261.98749
 30
0.0
 11
-158.554272
 21
248.662471
 31
0.0
  0
LINE
  8
LC-005-003-----0
  6
CONTINUOUS
  5
1A6
 10
-155.995959
 20
248.60019
 30
0.0
 11
-156.8
 21
254.70749
 31
0.0
  0
LINE
  8
LC-005-003-----0
  6
CONTINUOUS
  5
1A7
 10
-156.8
 20
254.70749
 30
0.0
 11
-157.604041
 21
248.60019
 31
0.0
  0
LINE
  8
LC-005-003-----0
  6
CONTINUOUS
  5
1A8
 10
-160.454733
 20
310.507946
 30
0.0
 11
-156.8
 21
282.74749
 31
0.0
  0
LINE
  8
LC-005-003-----0
  6
CONTINUOUS
  5
1A9
 10
-156.8
 20
282.74749
 30
0.0
 11
-153.145267
 21
310.507946
 31
0.0
  0
LINE
  8
LC-005-003-----0
  6
CONTINUOUS
  5
1AA
 10
-153.145267
 20
310.507946
 30
0.0
 11
-160.454733
 21
310.507946
 31
0.0
  0
LINE
  8
LC-005-003-----0
  6
CONTINUOUS
  5
1AB
 10
-159.504503
 20
310.570228
 30
0.0
 11
-156.8
 21
290.02749
 31
0.0
  0
LINE
  8
LC-005-003-----0
  6
CONTINUOUS
  5
1AC
 10
-156.8
 20
290.02749
 30
0.0
 11
-154.095497
 21
310.570228
 31
0.0
  0
LINE
  8
LC-005-003-----0
  6
CONTINUOUS
  5
1AD
 10
-158.554272
 20
310.632509
 30
0.0
 11
-156.8
 21
297.30749
 31
0.0
  0
LINE
  8
LC-005-003-----0
  6
CONTINUOUS
  5
1AE
 10
-156.8
 20
297.30749
 30
0.0
 11
-155.045728
 21
310.632509
 31
0.0
  0
LINE
  8
LC-005-003-----0
  6
CONTINUOUS
  5
1AF
 10
-157.604041
 20
310.69479
 30
0.0
 11
-156.8
 21
304.58749
 31
0.0
  0
LINE
  8
LC-005-003-----0
  6
CONTINUOUS
  5
1B0
 10
-156.8
 20
304.58749
 30
0.0
 11
-155.995959
 21
310.69479
 31
0.0
  0
LINE
  8
LC-007-003-MTG-0
  6
CONTINUOUS
  5
1B1
 10
-156.8
 20
184.38199
 30
0.0
 11
-156.8
 21
321.94749
 31
0.0
  0
TEXT
  8
LC-005-003-----0
  6
CONTINUOUS
 62
     8
  5
1B2
 10
-164.627554
 20
195.590453
 30
0.0
 40
28.0
  1
6,2
 50
90.0
 51
15.0
  7
LC-TXTSTYLE-150-400-0-0-D0
 72
     2
 11
-164.627554
 21
242.81565
 31
0.0
  0
ENDBLK
  8
0
  5
1B3
  0
ENDSEC
  0
SECTION
  2
ENTITIES
  0
VIEWPORT
  8
LC-000
  5
313
 67
     1
 68
     1
 10
420.0
 20
297.0
 30
0.0
 40
840.0
 41
594.0
 69
     1
1001
ACAD
1000
MVIEW
1002
{
1070
    16
1010
0.0
1020
0.0
1030
0.0
1010
0.0
1020
0.0
1030
1.0
1040
0.0
1040
594.0
1040
420.0
1040
297.0
1040
50.0
1040
0.0
1040
0.0
1070
     0
1070
   100
1070
     1
1070
     1
1070
     0
1070
     0
1070
     0
1070
     0
1040
0.0
1040
0.0
1040
0.0
1040
1.0
1040
1.0
1040
0.0
1040
0.0
1070
     0
1002
{
1002
}
1002
}
  0
VIEWPORT
  8
0
  5
314
 67
     1
 68
     1
 10
0.0
 20
0.0
 30
0.0
 40
0.0
 41
0.0
 69
     1
1001
ACAD
1000
MVIEW
1002
{
1070
    16
1010
0.0
1020
0.0
1030
0.0
1010
0.0
1020
0.0
1030
1.0
1040
0.0
1040
594.0
1040
0.0
1040
0.0
1040
50.0
1040
0.0
1040
0.0
1070
     0
1070
   100
1070
     0
1070
     1
1070
     0
1070
     0
1070
     0
1070
     0
1040
0.0
1040
0.0
1040
0.0
1040
0.5
1040
0.5
1040
0.5
1040
0.5
1070
     0
1002
{
1002
}
1002
}
  0
INSERT
  8
0
  5
1B4
  2
*X0
 10
-116.577412
 20
264.399418
 30
0.0
  0
INSERT
  8
0
  5
1B5
  2
*X1
 10
-57.177412
 20
277.74749
 30
0.0
  0
INSERT
  8
0
  5
1B6
  2
*X2
 10
-75.677412
 20
277.74749
 30
0.0
  0
INSERT
  8
0
  5
1B7
  2
*X3
 10
-88.677412
 20
277.74749
 30
0.0
  0
INSERT
  8
0
  5
1B8
  2
*X4
 10
-101.677412
 20
277.74749
 30
0.0
  0
INSERT
  8
0
  5
1B9
  2
*X5
 10
-114.677412
 20
277.24749
 30
0.0
  0
DIMENSION
  8
0
  5
1BA
  2
*D6
 10
-57.177412
 20
308.0
 30
0.0
 11
-57.177412
 21
308.0
 31
0.0
  1
%%c120
 13
-116.577412
 23
282.04749
 33
0.0
 14
2.222588
 24
282.04749
 34
0.0
  3
LC-DIM-L-0140-02-02
  0
INSERT
  8
0
  5
1BB
  2
*X7
 10
-32.677412
 20
277.74749
 30
0.0
  0
INSERT
  8
0
  5
1BC
  2
*X8
 10
-19.677412
 20
277.74749
 30
0.0
  0
INSERT
  8
0
  5
1BD
  2
*X9
 10
-6.677412
 20
277.24749
 30
0.0
  0
INSERT
  8
0
  5
1BF
  2
BLK1
 10
0.0
 20
0.0
 30
0.0
  0
INSERT
  8
0
  5
1C0
  2
BLK2
 10
0.0
 20
0.0
 30
0.0
  0
INSERT
  8
0
  5
1C1
  2
BLK3
 10
0.0
 20
0.0
 30
0.0
  0
INSERT
  8
0
  5
1C2
  2
*X13
 10
-117.177019
 20
160.303129
 30
0.0
  0
INSERT
  8
0
  5
1C3
  2
*X14
 10
-5.17785
 20
160.303129
 30
0.0
  0
INSERT
  8
0
  5
1C4
  2
BLK4
 10
0.0
 20
0.0
 30
0.0
  0
INSERT
  8
0
  5
1C5
  2
*X16
 10
-7.318079
 20
264.399418
 30
0.0
  0
INSERT
  8
0
  5
1C6
  2
BLK5
 10
0.0
 20
0.0
 30
0.0
  0
INSERT
  8
0
  5
1C7
  2
*X18
 10
-5.527412
 20
163.303104
 30
0.0
  0
INSERT
  8
0
  5
1C8
  2
*X19
 10
-112.177412
 20
163.303104
 30
0.0
  0
INSERT
  8
0
  5
1C9
  2
BLK6
 10
0.0
 20
0.0
 30
0.0
  0
DIMENSION
  8
0
  5
1CA
  2
*D21
 10
-57.177412
 20
117.6
 30
0.0
 11
-57.177412
 21
117.6
 31
0.0
  1
%%c<>
 13
-112.177412
 23
164.303104
 33
0.0
 14
-2.177412
 24
164.303104
 34
0.0
  3
LC-DIM-L-0140-02-02
  0
INSERT
  8
0
  5
1CB
  2
*X22
 10
-109.677412
 20
163.303104
 30
0.0
  0
INSERT
  8
0
  5
1CC
  2
*X23
 10
-57.177412
 20
163.303104
 30
0.0
  0
DIMENSION
  8
0
  5
1CD
  2
*D24
 10
42.0
 20
170.303104
 30
0.0
 11
42.0
 21
170.303104
 31
0.0
 13
-5.17785
 23
163.303104
 33
0.0
 14
-4.677412
 24
177.303104
 34
0.0
 50
90.0
  3
LC-DIM-L-0140-02-02
  0
DIMENSION
  8
0
  5
1CE
  2
*D25
 10
84.0
 20
230.025297
 30
0.0
 11
84.0
 21
230.025297
 31
0.0
  1
10-105,5
 13
-4.677412
 23
177.303104
 33
0.0
 14
1.522588
 24
282.74749
 34
0.0
 50
90.0
  3
LC-DIM-L-0140-02-02
  0
DIMENSION
  8
0
  5
1CF
  2
*D26
 10
-156.8
 20
277.947082
 30
0.0
 11
-156.8
 21
277.947082
 31
0.0
 13
-115.877412
 23
282.74749
 33
0.0
 14
-114.677412
 24
276.54749
 34
0.0
 50
90.0
  3
LC-DIM-L-0140-02-02
  0
LINE
  8
LC-002-002-----0
  6
CONTINUOUS
  5
1D1
 10
-2.177921
 20
178.302939
 30
0.0
 11
-2.177897
 21
170.303045
 31
0.0
  0
LINE
  8
LC-002-002-----0
  6
CONTINUOUS
  5
1D2
 10
-5.17785
 20
160.303129
 30
0.0
 11
2.822195
 21
160.303129
 31
0.0
  0
LINE
  8
LC-002-002-----0
  6
DASHDOT
 62
     2
  5
1D4
 10
-57.177412
 20
282.74749
 30
0.0
 11
-57.177412
 21
160.303129
 31
0.0
  0
LINE
  8
LC-002-002-----0
  6
CONTINUOUS
  5
1D5
 10
-114.677412
 20
277.24749
 30
0.0
 11
-113.177412
 21
277.24749
 31
0.0
  0
LINE
  8
LC-002-002-----0
  6
CONTINUOUS
  5
1D6
 10
-57.177412
 20
282.24749
 30
0.0
 11
-17.427412
 21
282.24749
 31
0.0
  0
LINE
  8
LC-002-002-----0
  6
CONTINUOUS
  5
1D7
 10
-114.677412
 20
279.99749
 30
0.0
 11
-114.677412
 21
277.24749
 31
0.0
  0
LINE
  8
LC-002-002-----0
  6
CONTINUOUS
  5
1D8
 10
0.322588
 20
279.99749
 30
0.0
 11
0.322588
 21
277.24749
 31
0.0
  0
LINE
  8
LC-002-002-----0
  6
CONTINUOUS
  5
1D9
 10
-113.177412
 20
279.99749
 30
0.0
 11
-113.177412
 21
277.24749
 31
0.0
  0
LINE
  8
LC-002-002-----0
  6
CONTINUOUS
  5
1DA
 10
-57.177412
 20
280.74749
 30
0.0
 11
-40.927412
 21
280.74749
 31
0.0
  0
ARC
  8
LC-003-002-RND-0
  6
CONTINUOUS
  5
1DC
 10
-112.427412
 20
279.99749
 30
0.0
 40
2.25
 50
90.0
 51
180.0
  0
ARC
  8
LC-003-002-RND-0
  6
CONTINUOUS
  5
1DD
 10
-1.677412
 20
275.549222
 30
0.0
 40
0.5
 50
112.0
 51
180.0
  0
ARC
  8
LC-003-002-RND-0
  6
CONTINUOUS
  5
1DE
 10
-1.677412
 20
275.549222
 30
0.0
 40
1.2
 50
112.0
 51
180.0
  0
ARC
  8
LC-002-002-----0
  6
CONTINUOUS
  5
1DF
 10
-112.427412
 20
279.99749
 30
0.0
 40
0.75
 50
90.0
 51
180.0
  0
LINE
  8
LC-002-002-----0
  6
CONTINUOUS
  5
1E0
 10
-57.177412
 20
277.24749
 30
0.0
 11
-0.377412
 21
277.24749
 31
0.0
  0
LINE
  8
LC-002-002-----0
  6
CONTINUOUS
  5
1E1
 10
0.322588
 20
279.99749
 30
0.0
 11
0.322588
 21
277.24749
 31
0.0
  0
LINE
  8
LC-002-002-----0
  6
CONTINUOUS
  5
1E2
 10
-112.490109
 20
276.012814
 30
0.0
 11
-113.813478
 21
276.54749
 31
0.0
  0
LINE
  8
LC-002-002-----0
  6
CONTINUOUS
  5
1E3
 10
-112.227884
 20
276.661843
 30
0.0
 11
-113.677412
 21
277.24749
 31
0.0
  0
ARC
  8
LC-003-002-RND-0
  6
CONTINUOUS
  5
1E4
 10
-112.677412
 20
275.549222
 30
0.0
 40
1.2
 50
0.0
 51
68.0
  0
ARC
  8
LC-003-002-RND-0
  6
CONTINUOUS
  5
1E5
 10
-112.677412
 20
275.549222
 30
0.0
 40
0.5
 50
360.0
 51
68.0
  0
ARC
  8
LC-003-002-RND-0
  6
CONTINUOUS
  5
1E6
 10
-1.927412
 20
279.99749
 30
0.0
 40
2.25
 50
0.0
 51
90.0
  0
ARC
  8
LC-003-002-RND-0
  6
CONTINUOUS
  5
1E7
 10
-30.427412
 20
279.99749
 30
0.0
 40
0.75
 50
90.0
 51
180.0
  0
ARC
  8
LC-003-002-RND-0
  6
CONTINUOUS
  5
1E8
 10
-27.927412
 20
279.99749
 30
0.0
 40
0.75
 50
0.0
 51
90.0
  0
ARC
  8
LC-003-002-RND-0
  6
CONTINUOUS
  5
1E9
 10
-17.427412
 20
279.99749
 30
0.0
 40
0.75
 50
90.0
 51
180.0
  0
ARC
  8
LC-003-002-RND-0
  6
CONTINUOUS
  5
1EA
 10
-14.927412
 20
279.99749
 30
0.0
 40
0.75
 50
0.0
 51
90.0
  0
ARC
  8
LC-003-002-RND-0
  6
CONTINUOUS
  5
1EB
 10
-4.427412
 20
279.99749
 30
0.0
 40
0.75
 50
90.0
 51
180.0
  0
ARC
  8
LC-003-002-RND-0
  6
CONTINUOUS
  5
1EC
 10
-1.927412
 20
279.99749
 30
0.0
 40
0.75
 50
0.0
 51
90.0
  0
LINE
  8
LC-002-002-----0
  6
CONTINUOUS
  5
1ED
 10
-38.677412
 20
278.04749
 30
0.0
 11
-38.677412
 21
279.99749
 31
0.0
  0
LINE
  8
LC-002-002-----0
  6
CONTINUOUS
  5
1EE
 10
-40.177412
 20
278.04749
 30
0.0
 11
-19.677412
 21
278.04749
 31
0.0
  0
LINE
  8
LC-002-002-----0
  6
CONTINUOUS
  5
1EF
 10
-57.177412
 20
282.24749
 30
0.0
 11
-96.927412
 21
282.24749
 31
0.0
  0
LINE
  8
LC-002-002-----0
  6
CONTINUOUS
  5
1F0
 10
-114.677412
 20
279.99749
 30
0.0
 11
-114.677412
 21
277.24749
 31
0.0
  0
LINE
  8
LC-002-002-----0
  6
CONTINUOUS
  5
1F1
 10
-57.177412
 20
280.74749
 30
0.0
 11
-73.427412
 21
280.74749
 31
0.0
  0
LINE
  8
LC-002-002-----0
  6
CONTINUOUS
  5
1F2
 10
-57.177412
 20
277.24749
 30
0.0
 11
-113.977412
 21
277.24749
 31
0.0
  0
LINE
  8
LC-002-002-----0
  6
CONTINUOUS
  5
1F3
 10
-114.677412
 20
279.99749
 30
0.0
 11
-114.677412
 21
277.24749
 31
0.0
  0
ARC
  8
LC-003-002-RND-0
  6
CONTINUOUS
  5
1F4
 10
-112.427412
 20
279.99749
 30
0.0
 40
2.25
 50
90.0
 51
180.0
  0
ARC
  8
LC-003-002-RND-0
  6
CONTINUOUS
  5
1F5
 10
-83.927412
 20
279.99749
 30
0.0
 40
0.75
 50
0.0
 51
90.0
  0
LINE
  8
LC-002-002-----0
  6
CONTINUOUS
  5
1F6
 10
-21.484121
 20
160.303129
 30
0.0
 11
-21.484121
 21
163.303104
 31
0.0
  0
ARC
  8
LC-003-002-RND-0
  6
CONTINUOUS
  5
1F7
 10
-86.427412
 20
279.99749
 30
0.0
 40
0.75
 50
90.0
 51
180.0
  0
ARC
  8
LC-003-002-RND-0
  6
CONTINUOUS
  5
1F8
 10
-96.927412
 20
279.99749
 30
0.0
 40
0.75
 50
0.0
 51
90.0
  0
ARC
  8
LC-003-002-RND-0
  6
CONTINUOUS
  5
1F9
 10
-99.427412
 20
279.99749
 30
0.0
 40
0.75
 50
90.0
 51
180.0
  0
ARC
  8
LC-003-002-RND-0
  6
CONTINUOUS
  5
1FA
 10
-109.927412
 20
279.99749
 30
0.0
 40
0.75
 50
0.0
 51
90.0
  0
ARC
  8
LC-003-002-RND-0
  6
CONTINUOUS
  5
1FB
 10
-112.427412
 20
279.99749
 30
0.0
 40
0.75
 50
90.0
 51
180.0
  0
LINE
  8
LC-002-002-----0
  6
CONTINUOUS
  5
1FC
 10
-75.677412
 20
278.04749
 30
0.0
 11
-75.677412
 21
279.99749
 31
0.0
  0
LINE
  8
LC-002-002-----0
  6
CONTINUOUS
  5
1FD
 10
-74.177412
 20
278.04749
 30
0.0
 11
-94.677412
 21
278.04749
 31
0.0
  0
LINE
  8
LC-002-002-----0
  6
CONTINUOUS
  5
1FE
 10
-105.827412
 20
282.24749
 30
0.0
 11
-109.927412
 21
282.24749
 31
0.0
  0
LINE
  8
LC-002-002-----0
  6
CONTINUOUS
  5
1FF
 10
-74.177412
 20
278.04749
 30
0.0
 11
-74.177412
 21
279.99749
 31
0.0
  0
ARC
  8
LC-003-002-RND-0
  6
CONTINUOUS
  5
200
 10
-83.927412
 20
279.99749
 30
0.0
 40
2.25
 50
0.0
 51
90.0
  0
ARC
  8
LC-003-002-RND-0
  6
CONTINUOUS
  5
201
 10
-86.427412
 20
279.99749
 30
0.0
 40
2.25
 50
90.0
 51
180.0
  0
ARC
  8
LC-003-002-RND-0
  6
CONTINUOUS
  5
202
 10
-96.927412
 20
279.99749
 30
0.0
 40
2.25
 50
0.0
 51
90.0
  0
ARC
  8
LC-003-002-RND-0
  6
CONTINUOUS
  5
203
 10
-99.427412
 20
279.99749
 30
0.0
 40
2.25
 50
90.0
 51
180.0
  0
ARC
  8
LC-003-002-RND-0
  6
CONTINUOUS
  5
204
 10
-109.927412
 20
279.99749
 30
0.0
 40
2.25
 50
0.0
 51
90.0
  0
ARC
  8
LC-003-002-RND-0
  6
CONTINUOUS
  5
205
 10
-73.427412
 20
279.99749
 30
0.0
 40
2.25
 50
90.0
 51
180.0
  0
ARC
  8
LC-003-002-RND-0
  6
CONTINUOUS
  5
206
 10
-73.427412
 20
279.99749
 30
0.0
 40
0.75
 50
90.0
 51
180.0
  0
LINE
  8
LC-002-002-----0
  6
CONTINUOUS
  5
207
 10
-83.927412
 20
280.74749
 30
0.0
 11
-86.427412
 21
280.74749
 31
0.0
  0
LINE
  8
LC-002-002-----0
  6
CONTINUOUS
  5
208
 10
-96.927412
 20
280.74749
 30
0.0
 11
-99.427412
 21
280.74749
 31
0.0
  0
LINE
  8
LC-002-002-----0
  6
CONTINUOUS
  5
209
 10
-81.677412
 20
278.04749
 30
0.0
 11
-81.677412
 21
279.99749
 31
0.0
  0
LINE
  8
LC-002-002-----0
  6
CONTINUOUS
  5
20A
 10
-83.177412
 20
278.04749
 30
0.0
 11
-83.177412
 21
279.99749
 31
0.0
  0
LINE
  8
LC-002-002-----0
  6
CONTINUOUS
  5
20B
 10
-113.177412
 20
278.04749
 30
0.0
 11
-113.977412
 21
277.24749
 31
0.0
  0
LINE
  8
LC-002-002-----0
  6
CONTINUOUS
  5
20C
 10
-8.527412
 20
282.24749
 30
0.0
 11
-4.427412
 21
282.24749
 31
0.0
  0
LINE
  8
LC-002-002-----0
  6
CONTINUOUS
  5
20D
 10
-109.927412
 20
280.74749
 30
0.0
 11
-112.427412
 21
280.74749
 31
0.0
  0
LINE
  8
LC-002-002-----0
  6
CONTINUOUS
  5
20E
 10
-87.177412
 20
278.04749
 30
0.0
 11
-87.177412
 21
279.99749
 31
0.0
  0
LINE
  8
LC-002-002-----0
  6
CONTINUOUS
  5
20F
 10
-88.677412
 20
278.04749
 30
0.0
 11
-88.677412
 21
279.99749
 31
0.0
  0
LINE
  8
LC-002-002-----0
  6
CONTINUOUS
  5
210
 10
-94.677412
 20
278.04749
 30
0.0
 11
-94.677412
 21
279.99749
 31
0.0
  0
LINE
  8
LC-002-002-----0
  6
CONTINUOUS
  5
211
 10
-96.177412
 20
278.04749
 30
0.0
 11
-96.177412
 21
279.99749
 31
0.0
  0
LINE
  8
LC-002-002-----0
  6
CONTINUOUS
  5
212
 10
-100.177412
 20
278.04749
 30
0.0
 11
-100.177412
 21
279.99749
 31
0.0
  0
LINE
  8
LC-002-002-----0
  6
CONTINUOUS
  5
213
 10
-101.677412
 20
278.04749
 30
0.0
 11
-101.677412
 21
279.99749
 31
0.0
  0
LINE
  8
LC-002-002-----0
  6
CONTINUOUS
  5
214
 10
-107.677412
 20
278.04749
 30
0.0
 11
-107.677412
 21
279.99749
 31
0.0
  0
LINE
  8
LC-002-002-----0
  6
CONTINUOUS
  5
215
 10
-109.177412
 20
278.04749
 30
0.0
 11
-109.177412
 21
279.99749
 31
0.0
  0
LINE
  8
LC-002-002-----0
  6
CONTINUOUS
  5
216
 10
-113.177412
 20
278.04749
 30
0.0
 11
-113.177412
 21
279.99749
 31
0.0
  0
CIRCLE
  8
LC-002-002-----0
  6
CONTINUOUS
  5
217
 10
161.722588
 20
221.52531
 30
0.0
 40
56.5
  0
LINE
  8
LC-002-002-----0
  6
CONTINUOUS
  5
218
 10
-94.677412
 20
278.04749
 30
0.0
 11
-100.177412
 21
278.04749
 31
0.0
  0
CIRCLE
  8
LC-002-002-----0
  6
CONTINUOUS
  5
219
 10
161.722588
 20
221.52531
 30
0.0
 40
59.4
  0
LINE
  8
LC-002-002-----0
  6
CONTINUOUS
  5
21A
 10
-100.177412
 20
278.04749
 30
0.0
 11
-101.677412
 21
278.04749
 31
0.0
  0
LINE
  8
LC-002-002-----0
  6
CONTINUOUS
  5
21B
 10
-101.677412
 20
278.04749
 30
0.0
 11
-109.177412
 21
278.04749
 31
0.0
  0
LINE
  8
LC-002-002-----0
  6
CONTINUOUS
  5
21C
 10
-96.927412
 20
282.24749
 30
0.0
 11
-99.427412
 21
282.24749
 31
0.0
  0
LINE
  8
LC-002-002-----0
  6
CONTINUOUS
  5
21D
 10
-99.427412
 20
282.24749
 30
0.0
 11
-105.827412
 21
282.24749
 31
0.0
  0
LINE
  8
LC-002-002-----0
  6
CONTINUOUS
  5
21E
 10
-109.927412
 20
282.24749
 30
0.0
 11
-112.427412
 21
282.24749
 31
0.0
  0
LINE
  8
LC-002-002-----0
  6
CONTINUOUS
  5
21F
 10
-113.977412
 20
277.24749
 30
0.0
 11
-114.677412
 21
277.24749
 31
0.0
  0
LINE
  8
LC-002-002-----0
  6
CONTINUOUS
  5
220
 10
-40.177412
 20
278.04749
 30
0.0
 11
-40.177412
 21
279.99749
 31
0.0
  0
ARC
  8
LC-003-002-RND-0
  6
CONTINUOUS
  5
221
 10
-30.427412
 20
279.99749
 30
0.0
 40
2.25
 50
90.0
 51
180.0
  0
ARC
  8
LC-003-002-RND-0
  6
CONTINUOUS
  5
222
 10
-27.927412
 20
279.99749
 30
0.0
 40
2.25
 50
0.0
 51
90.0
  0
ARC
  8
LC-003-002-RND-0
  6
CONTINUOUS
  5
223
 10
-17.427412
 20
279.99749
 30
0.0
 40
2.25
 50
90.0
 51
180.0
  0
ARC
  8
LC-003-002-RND-0
  6
CONTINUOUS
  5
224
 10
-14.927412
 20
279.99749
 30
0.0
 40
2.25
 50
0.0
 51
90.0
  0
ARC
  8
LC-003-002-RND-0
  6
CONTINUOUS
  5
225
 10
-4.427412
 20
279.99749
 30
0.0
 40
2.25
 50
90.0
 51
180.0
  0
ARC
  8
LC-003-002-RND-0
  6
CONTINUOUS
  5
226
 10
-40.927412
 20
279.99749
 30
0.0
 40
2.25
 50
0.0
 51
90.0
  0
ARC
  8
LC-003-002-RND-0
  6
CONTINUOUS
  5
227
 10
-40.927412
 20
279.99749
 30
0.0
 40
0.75
 50
0.0
 51
90.0
  0
LINE
  8
LC-002-002-----0
  6
CONTINUOUS
  5
228
 10
-30.427412
 20
280.74749
 30
0.0
 11
-27.927412
 21
280.74749
 31
0.0
  0
LINE
  8
LC-002-002-----0
  6
CONTINUOUS
  5
229
 10
-17.427412
 20
280.74749
 30
0.0
 11
-14.927412
 21
280.74749
 31
0.0
  0
LINE
  8
LC-002-002-----0
  6
CONTINUOUS
  5
22A
 10
-32.677412
 20
278.04749
 30
0.0
 11
-32.677412
 21
279.99749
 31
0.0
  0
LINE
  8
LC-002-002-----0
  6
CONTINUOUS
  5
22B
 10
-31.177412
 20
278.04749
 30
0.0
 11
-31.177412
 21
279.99749
 31
0.0
  0
LINE
  8
LC-002-002-----0
  6
CONTINUOUS
  5
22C
 10
-1.177412
 20
278.04749
 30
0.0
 11
-0.377412
 21
277.24749
 31
0.0
  0
LINE
  8
LC-002-002-----0
  6
CONTINUOUS
  5
22D
 10
-4.427412
 20
280.74749
 30
0.0
 11
-1.927412
 21
280.74749
 31
0.0
  0
LINE
  8
LC-002-002-----0
  6
CONTINUOUS
  5
22E
 10
-27.177412
 20
278.04749
 30
0.0
 11
-27.177412
 21
279.99749
 31
0.0
  0
LINE
  8
LC-002-002-----0
  6
CONTINUOUS
  5
22F
 10
-25.677412
 20
278.04749
 30
0.0
 11
-25.677412
 21
279.99749
 31
0.0
  0
LINE
  8
LC-002-002-----0
  6
CONTINUOUS
  5
230
 10
-19.677412
 20
278.04749
 30
0.0
 11
-19.677412
 21
279.99749
 31
0.0
  0
LINE
  8
LC-002-002-----0
  6
CONTINUOUS
  5
231
 10
-18.177412
 20
278.04749
 30
0.0
 11
-18.177412
 21
279.99749
 31
0.0
  0
LINE
  8
LC-002-002-----0
  6
CONTINUOUS
  5
232
 10
-14.177412
 20
278.04749
 30
0.0
 11
-14.177412
 21
279.99749
 31
0.0
  0
LINE
  8
LC-002-002-----0
  6
CONTINUOUS
  5
233
 10
-12.677412
 20
278.04749
 30
0.0
 11
-12.677412
 21
279.99749
 31
0.0
  0
LINE
  8
LC-002-002-----0
  6
CONTINUOUS
  5
234
 10
-6.677412
 20
278.04749
 30
0.0
 11
-6.677412
 21
279.99749
 31
0.0
  0
LINE
  8
LC-002-002-----0
  6
CONTINUOUS
  5
235
 10
-5.177412
 20
278.04749
 30
0.0
 11
-5.177412
 21
279.99749
 31
0.0
  0
LINE
  8
LC-002-002-----0
  6
CONTINUOUS
  5
236
 10
-1.177412
 20
278.04749
 30
0.0
 11
-1.177412
 21
279.99749
 31
0.0
  0
LINE
  8
LC-002-002-----0
  6
CONTINUOUS
  5
237
 10
-19.677412
 20
278.04749
 30
0.0
 11
-14.177412
 21
278.04749
 31
0.0
  0
LINE
  8
LC-002-002-----0
  6
CONTINUOUS
  5
238
 10
-14.177412
 20
278.04749
 30
0.0
 11
-12.677412
 21
278.04749
 31
0.0
  0
LINE
  8
LC-002-002-----0
  6
CONTINUOUS
  5
239
 10
-12.677412
 20
278.04749
 30
0.0
 11
-5.177412
 21
278.04749
 31
0.0
  0
LINE
  8
LC-002-002-----0
  6
CONTINUOUS
  5
23A
 10
-17.427412
 20
282.24749
 30
0.0
 11
-14.927412
 21
282.24749
 31
0.0
  0
LINE
  8
LC-002-002-----0
  6
CONTINUOUS
  5
23B
 10
-14.927412
 20
282.24749
 30
0.0
 11
-8.527412
 21
282.24749
 31
0.0
  0
LINE
  8
LC-002-002-----0
  6
CONTINUOUS
  5
23C
 10
-4.427412
 20
282.24749
 30
0.0
 11
-1.927412
 21
282.24749
 31
0.0
  0
LINE
  8
LC-002-002-----0
  6
CONTINUOUS
  5
23D
 10
-0.377412
 20
277.24749
 30
0.0
 11
0.322588
 21
277.24749
 31
0.0
  0
CIRCLE
  8
LC-002-002-----0
  6
CONTINUOUS
  5
23E
 10
161.722588
 20
221.52531
 30
0.0
 40
57.5
  0
ARC
  8
LC-002-002-----0
  6
CONTINUOUS
  5
23F
 10
161.722588
 20
221.52531
 30
0.0
 40
50.5
 50
189.696028
 51
260.303972
  0
ARC
  8
LC-002-002-----0
  6
CONTINUOUS
  5
240
 10
161.722588
 20
221.52531
 30
0.0
 40
44.5
 50
189.696028
 51
260.303972
  0
ARC
  8
LC-003-002-RND-0
  6
CONTINUOUS
  5
241
 10
153.722588
 20
201.569108
 30
0.0
 40
3.0
 50
0.0
 51
68.155243
  0
LINE
  8
LC-008-007-KH--0
  5
243
 10
156.722588
 20
268.346779
 30
0.0
 11
156.722588
 21
268.346779
 31
0.0
  0
LINE
  8
LC-008-007-KH--0
  5
244
 10
166.722588
 20
268.346779
 30
0.0
 11
166.722588
 21
268.346779
 31
0.0
  0
ARC
  8
LC-002-002-----0
  6
CONTINUOUS
  5
245
 10
161.722588
 20
221.52531
 30
0.0
 40
50.5
 50
279.696028
 51
350.303972
  0
ARC
  8
LC-002-002-----0
  6
CONTINUOUS
  5
246
 10
161.722588
 20
221.52531
 30
0.0
 40
37.5
 50
193.40802
 51
256.59198
  0
ARC
  8
LC-002-002-----0
  6
CONTINUOUS
  5
247
 10
161.722588
 20
221.52531
 30
0.0
 40
31.5
 50
193.40802
 51
256.59198
  0
ARC
  8
LC-002-002-----0
  6
CONTINUOUS
  5
248
 10
161.722588
 20
221.52531
 30
0.0
 40
24.5
 50
201.844757
 51
248.155243
  0
ARC
  8
LC-002-002-----0
  6
CONTINUOUS
  5
249
 10
161.722588
 20
221.52531
 30
0.0
 40
18.5
 50
291.844757
 51
338.155243
  0
ARC
  8
LC-002-002-----0
  6
CONTINUOUS
  5
24A
 10
161.722588
 20
221.52531
 30
0.0
 40
44.5
 50
279.696028
 51
350.303972
  0
ARC
  8
LC-002-002-----0
  6
CONTINUOUS
  5
24B
 10
161.722588
 20
221.52531
 30
0.0
 40
37.5
 50
283.40802
 51
346.59198
  0
ARC
  8
LC-002-002-----0
  6
CONTINUOUS
  5
24C
 10
161.722588
 20
221.52531
 30
0.0
 40
31.5
 50
283.40802
 51
346.59198
  0
ARC
  8
LC-002-002-----0
  6
CONTINUOUS
  5
24D
 10
161.722588
 20
221.52531
 30
0.0
 40
24.5
 50
291.844757
 51
338.155243
  0
ARC
  8
LC-002-002-----0
  6
CONTINUOUS
  5
24E
 10
161.722588
 20
221.52531
 30
0.0
 40
18.5
 50
111.844757
 51
158.155243
  0
ARC
  8
LC-002-002-----0
  6
CONTINUOUS
  5
24F
 10
161.722588
 20
221.52531
 30
0.0
 40
24.5
 50
111.844757
 51
158.155243
  0
ARC
  8
LC-002-002-----0
  6
CONTINUOUS
  5
250
 10
161.722588
 20
221.52531
 30
0.0
 40
31.5
 50
103.40802
 51
166.59198
  0
ARC
  8
LC-002-002-----0
  6
CONTINUOUS
  5
251
 10
161.722588
 20
221.52531
 30
0.0
 40
37.5
 50
103.40802
 51
166.59198
  0
ARC
  8
LC-002-002-----0
  6
CONTINUOUS
  5
252
 10
161.722588
 20
221.52531
 30
0.0
 40
44.5
 50
99.696028
 51
170.303972
  0
ARC
  8
LC-002-002-----0
  6
CONTINUOUS
  5
253
 10
161.722588
 20
221.52531
 30
0.0
 40
50.5
 50
99.696028
 51
170.303972
  0
ARC
  8
LC-002-002-----0
  6
CONTINUOUS
  5
254
 10
161.722588
 20
221.52531
 30
0.0
 40
18.5
 50
21.844757
 51
68.155243
  0
ARC
  8
LC-002-002-----0
  6
CONTINUOUS
  5
255
 10
161.722588
 20
221.52531
 30
0.0
 40
24.5
 50
21.844757
 51
68.155243
  0
ARC
  8
LC-002-002-----0
  6
CONTINUOUS
  5
256
 10
161.722588
 20
221.52531
 30
0.0
 40
31.5
 50
13.40802
 51
76.59198
  0
ARC
  8
LC-002-002-----0
  6
CONTINUOUS
  5
257
 10
161.722588
 20
221.52531
 30
0.0
 40
37.5
 50
13.40802
 51
76.59198
  0
ARC
  8
LC-002-002-----0
  6
CONTINUOUS
  5
258
 10
161.722588
 20
221.52531
 30
0.0
 40
44.5
 50
9.696028
 51
80.303972
  0
ARC
  8
LC-002-002-----0
  6
CONTINUOUS
  5
259
 10
161.722588
 20
221.52531
 30
0.0
 40
50.5
 50
9.696028
 51
80.303972
  0
ARC
  8
LC-002-002-----0
  6
CONTINUOUS
  5
25A
 10
161.722588
 20
221.52531
 30
0.0
 40
18.5
 50
201.844757
 51
248.155243
  0
LINE
  8
LC-008-007-KH--0
  5
25B
 10
195.282236
 20
226.52531
 30
0.0
 11
195.282236
 21
226.52531
 31
0.0
  0
LINE
  8
LC-008-007-KH--0
  5
25C
 10
156.722588
 20
201.569108
 30
0.0
 11
156.722588
 21
201.569108
 31
0.0
  0
LINE
  8
LC-008-007-KH--0
  5
25D
 10
156.722588
 20
187.965661
 30
0.0
 11
156.722588
 21
187.965661
 31
0.0
  0
LINE
  8
LC-008-007-KH--0
  5
25E
 10
114.901118
 20
226.52531
 30
0.0
 11
114.901118
 21
226.52531
 31
0.0
  0
LINE
  8
LC-008-007-KH--0
  5
25F
 10
166.722588
 20
174.70384
 30
0.0
 11
166.722588
 21
174.70384
 31
0.0
  0
LINE
  8
LC-008-007-KH--0
  5
260
 10
181.67879
 20
226.52531
 30
0.0
 11
181.67879
 21
226.52531
 31
0.0
  0
LINE
  8
LC-008-007-KH--0
  5
261
 10
208.544057
 20
226.52531
 30
0.0
 11
208.544057
 21
226.52531
 31
0.0
  0
LINE
  8
LC-008-007-KH--0
  5
262
 10
156.722588
 20
241.481512
 30
0.0
 11
156.722588
 21
241.481512
 31
0.0
  0
LINE
  8
LC-008-007-KH--0
  5
263
 10
156.722588
 20
255.084958
 30
0.0
 11
156.722588
 21
255.084958
 31
0.0
  0
ARC
  8
LC-002-002-----0
  6
CONTINUOUS
  5
264
 10
114.901118
 20
213.52531
 30
0.0
 40
3.0
 50
90.0
 51
189.696028
  0
ARC
  8
LC-002-002-----0
  6
CONTINUOUS
  5
265
 10
114.901118
 20
213.52531
 30
0.0
 40
3.0
 50
9.696028
 51
90.0
  0
ARC
  8
LC-003-002-RND-0
  6
CONTINUOUS
  5
266
 10
114.901118
 20
229.52531
 30
0.0
 40
3.0
 50
170.303972
 51
270.0
  0
ARC
  8
LC-002-002-----0
  6
CONTINUOUS
  5
267
 10
114.901118
 20
229.52531
 30
0.0
 40
3.0
 50
270.0
 51
350.303972
  0
ARC
  8
LC-002-002-----0
  6
CONTINUOUS
  5
268
 10
128.162939
 20
229.52531
 30
0.0
 40
3.0
 50
166.59198
 51
270.0
  0
ARC
  8
LC-003-002-RND-0
  6
CONTINUOUS
  5
269
 10
128.162939
 20
229.52531
 30
0.0
 40
3.0
 50
270.0
 51
346.59198
  0
ARC
  8
LC-002-002-----0
  6
CONTINUOUS
  5
26A
 10
128.162939
 20
213.52531
 30
0.0
 40
3.0
 50
90.0
 51
193.40802
  0
ARC
  8
LC-002-002-----0
  6
CONTINUOUS
  5
26B
 10
128.162939
 20
213.52531
 30
0.0
 40
3.0
 50
13.40802
 51
90.0
  0
ARC
  8
LC-002-002-----0
  6
CONTINUOUS
  5
26C
 10
141.766386
 20
213.52531
 30
0.0
 40
3.0
 50
90.0
 51
201.844757
  0
ARC
  8
LC-002-002-----0
  6
CONTINUOUS
  5
26D
 10
141.766386
 20
213.52531
 30
0.0
 40
3.0
 50
21.844757
 51
90.0
  0
ARC
  8
LC-003-002-RND-0
  6
CONTINUOUS
  5
26E
 10
141.766386
 20
229.52531
 30
0.0
 40
3.0
 50
158.155243
 51
270.0
  0
ARC
  8
LC-002-002-----0
  6
CONTINUOUS
  5
26F
 10
141.766386
 20
229.52531
 30
0.0
 40
3.0
 50
270.0
 51
338.155243
  0
ARC
  8
LC-002-002-----0
  6
CONTINUOUS
  5
270
 10
153.722588
 20
241.481512
 30
0.0
 40
3.0
 50
291.844757
 51
0.0
  0
ARC
  8
LC-003-002-RND-0
  6
CONTINUOUS
  5
271
 10
153.722588
 20
241.481512
 30
0.0
 40
3.0
 50
0.0
 51
111.844757
  0
ARC
  8
LC-002-002-----0
  6
CONTINUOUS
  5
272
 10
153.722588
 20
255.084958
 30
0.0
 40
3.0
 50
283.40802
 51
0.0
  0
ARC
  8
LC-002-002-----0
  6
CONTINUOUS
  5
273
 10
153.722588
 20
255.084958
 30
0.0
 40
3.0
 50
0.0
 51
103.40802
  0
ARC
  8
LC-002-002-----0
  6
CONTINUOUS
  5
274
 10
153.722588
 20
268.346779
 30
0.0
 40
3.0
 50
279.696028
 51
0.0
  0
ARC
  8
LC-003-002-RND-0
  6
CONTINUOUS
  5
275
 10
153.722588
 20
268.346779
 30
0.0
 40
3.0
 50
0.0
 51
99.696028
  0
ARC
  8
LC-002-002-----0
  6
CONTINUOUS
  5
276
 10
169.722588
 20
268.346779
 30
0.0
 40
3.0
 50
180.0
 51
260.303972
  0
ARC
  8
LC-002-002-----0
  6
CONTINUOUS
  5
277
 10
169.722588
 20
268.346779
 30
0.0
 40
3.0
 50
80.303972
 51
180.0
  0
ARC
  8
LC-002-002-----0
  6
CONTINUOUS
  5
278
 10
169.722588
 20
255.084958
 30
0.0
 40
3.0
 50
76.59198
 51
180.0
  0
ARC
  8
LC-002-002-----0
  6
CONTINUOUS
  5
279
 10
169.722588
 20
255.084958
 30
0.0
 40
3.0
 50
180.0
 51
256.59198
  0
ARC
  8
LC-003-002-RND-0
  6
CONTINUOUS
  5
27A
 10
169.722588
 20
241.481512
 30
0.0
 40
3.0
 50
68.155243
 51
180.0
  0
ARC
  8
LC-003-002-RND-0
  6
CONTINUOUS
  5
27B
 10
169.722588
 20
241.481512
 30
0.0
 40
3.0
 50
180.0
 51
248.155243
  0
ARC
  8
LC-003-002-RND-0
  6
CONTINUOUS
  5
27C
 10
181.67879
 20
213.52531
 30
0.0
 40
3.0
 50
90.0
 51
158.155243
  0
ARC
  8
LC-002-002-----0
  6
CONTINUOUS
  5
27D
 10
181.67879
 20
213.52531
 30
0.0
 40
3.0
 50
338.155243
 51
90.0
  0
ARC
  8
LC-003-002-RND-0
  6
CONTINUOUS
  5
27E
 10
195.282236
 20
213.52531
 30
0.0
 40
3.0
 50
90.0
 51
166.59198
  0
ARC
  8
LC-003-002-RND-0
  6
CONTINUOUS
  5
27F
 10
195.282236
 20
213.52531
 30
0.0
 40
3.0
 50
346.59198
 51
90.0
  0
ARC
  8
LC-003-002-RND-0
  6
CONTINUOUS
  5
280
 10
208.544057
 20
213.52531
 30
0.0
 40
3.0
 50
90.0
 51
170.303972
  0
ARC
  8
LC-002-002-----0
  6
CONTINUOUS
  5
281
 10
208.544057
 20
213.52531
 30
0.0
 40
3.0
 50
350.303972
 51
90.0
  0
ARC
  8
LC-003-002-RND-0
  6
CONTINUOUS
  5
282
 10
208.544057
 20
229.52531
 30
0.0
 40
3.0
 50
270.0
 51
9.696028
  0
ARC
  8
LC-003-002-RND-0
  6
CONTINUOUS
  5
283
 10
208.544057
 20
229.52531
 30
0.0
 40
3.0
 50
189.696028
 51
270.0
  0
ARC
  8
LC-003-002-RND-0
  6
CONTINUOUS
  5
284
 10
195.282236
 20
229.52531
 30
0.0
 40
3.0
 50
270.0
 51
13.40802
  0
ARC
  8
LC-002-002-----0
  6
CONTINUOUS
  5
285
 10
195.282236
 20
229.52531
 30
0.0
 40
3.0
 50
193.40802
 51
270.0
  0
ARC
  8
LC-003-002-RND-0
  6
CONTINUOUS
  5
286
 10
181.67879
 20
229.52531
 30
0.0
 40
3.0
 50
270.0
 51
21.844757
  0
ARC
  8
LC-003-002-RND-0
  6
CONTINUOUS
  5
287
 10
181.67879
 20
229.52531
 30
0.0
 40
3.0
 50
201.844757
 51
270.0
  0
ARC
  8
LC-002-002-----0
  6
CONTINUOUS
  5
288
 10
169.722588
 20
201.569108
 30
0.0
 40
3.0
 50
111.844757
 51
180.0
  0
ARC
  8
LC-002-002-----0
  6
CONTINUOUS
  5
289
 10
169.722588
 20
201.569108
 30
0.0
 40
3.0
 50
180.0
 51
291.844757
  0
ARC
  8
LC-003-002-RND-0
  6
CONTINUOUS
  5
28A
 10
169.722588
 20
187.965661
 30
0.0
 40
3.0
 50
103.40802
 51
180.0
  0
ARC
  8
LC-002-002-----0
  6
CONTINUOUS
  5
28B
 10
169.722588
 20
187.965661
 30
0.0
 40
3.0
 50
180.0
 51
283.40802
  0
ARC
  8
LC-003-002-RND-0
  6
CONTINUOUS
  5
28C
 10
169.722588
 20
174.70384
 30
0.0
 40
3.0
 50
99.696028
 51
180.0
  0
ARC
  8
LC-003-002-RND-0
  6
CONTINUOUS
  5
28D
 10
169.722588
 20
174.70384
 30
0.0
 40
3.0
 50
180.0
 51
279.696028
  0
ARC
  8
LC-002-002-----0
  6
CONTINUOUS
  5
28E
 10
153.722588
 20
174.70384
 30
0.0
 40
3.0
 50
260.303972
 51
0.0
  0
ARC
  8
LC-002-002-----0
  6
CONTINUOUS
  5
28F
 10
153.722588
 20
174.70384
 30
0.0
 40
3.0
 50
360.0
 51
80.303972
  0
ARC
  8
LC-002-002-----0
  6
CONTINUOUS
  5
290
 10
153.722588
 20
187.965661
 30
0.0
 40
3.0
 50
256.59198
 51
0.0
  0
ARC
  8
LC-002-002-----0
  6
CONTINUOUS
  5
291
 10
153.722588
 20
187.965661
 30
0.0
 40
3.0
 50
0.0
 51
76.59198
  0
ARC
  8
LC-002-002-----0
  6
CONTINUOUS
  5
292
 10
153.722588
 20
201.569108
 30
0.0
 40
3.0
 50
248.155243
 51
0.0
  0
LINE
  8
LC-002-002-----0
  6
CONTINUOUS
  5
293
 10
-92.870703
 20
160.303129
 30
0.0
 11
-92.870703
 21
163.303104
 31
0.0
  0
LINE
  8
LC-002-002-----0
  6
CONTINUOUS
  5
294
 10
-94.992005
 20
160.303129
 30
0.0
 11
-94.992005
 21
163.303104
 31
0.0
  0
LINE
  8
LC-002-002-----0
  6
CONTINUOUS
  5
295
 10
2.822195
 20
160.303129
 30
0.0
 11
2.822195
 21
170.302355
 31
0.0
  0
LINE
  8
LC-002-002-----0
  6
CONTINUOUS
  5
296
 10
-0.177899
 20
180.302961
 30
0.0
 11
-0.177899
 21
170.303045
 31
0.0
  0
LINE
  8
LC-002-002-----0
  6
CONTINUOUS
  5
297
 10
1.322207
 20
170.303045
 30
0.0
 11
2.822195
 21
170.303045
 31
0.0
  0
LINE
  8
LC-002-002-----0
  6
CONTINUOUS
  5
298
 10
-0.177899
 20
180.302961
 30
0.0
 11
-2.177921
 21
178.302939
 31
0.0
  0
LINE
  8
LC-002-002-----0
  6
CONTINUOUS
  5
299
 10
1.322207
 20
170.303045
 30
0.0
 11
-0.177899
 21
170.303045
 31
0.0
  0
LINE
  8
LC-002-002-----0
  6
CONTINUOUS
  5
29A
 10
-58.6774
 20
163.303104
 30
0.0
 11
-55.677425
 21
163.303104
 31
0.0
  0
LINE
  8
LC-002-002-----0
  6
CONTINUOUS
  5
29B
 10
-55.677425
 20
160.303129
 30
0.0
 11
-55.677425
 21
163.303104
 31
0.0
  0
LINE
  8
LC-002-002-----0
  6
CONTINUOUS
  5
29C
 10
-99.591875
 20
160.303129
 30
0.0
 11
-99.591875
 21
163.303104
 31
0.0
  0
LINE
  8
LC-002-002-----0
  6
CONTINUOUS
  5
29D
 10
-99.591875
 20
163.303104
 30
0.0
 11
-92.870703
 21
163.303104
 31
0.0
  0
LINE
  8
LC-002-002-----0
  6
CONTINUOUS
  5
29E
 10
-109.176974
 20
160.303129
 30
0.0
 11
-55.677425
 21
160.303129
 31
0.0
  0
LINE
  8
LC-002-002-----0
  6
CONTINUOUS
  5
29F
 10
-55.677425
 20
160.303129
 30
0.0
 11
-21.484121
 21
160.303129
 31
0.0
  0
LINE
  8
LC-002-002-----0
  6
CONTINUOUS
  5
2A0
 10
-21.484121
 20
160.303129
 30
0.0
 11
-5.199489
 21
160.303129
 31
0.0
  0
LINE
  8
LC-002-002-----0
  6
CONTINUOUS
  5
2A1
 10
-58.6774
 20
160.303129
 30
0.0
 11
-58.6774
 21
163.303104
 31
0.0
  0
LINE
  8
LC-002-002-----0
  6
CONTINUOUS
  5
2A2
 10
-112.176903
 20
178.302939
 30
0.0
 11
-112.176949
 21
163.303104
 31
0.0
  0
LINE
  8
LC-002-002-----0
  6
CONTINUOUS
  5
2A3
 10
-109.176974
 20
160.303129
 30
0.0
 11
-117.177019
 21
160.303129
 31
0.0
  0
LINE
  8
LC-002-002-----0
  6
CONTINUOUS
  5
2A4
 10
-117.177019
 20
160.303129
 30
0.0
 11
-117.177019
 21
170.302355
 31
0.0
  0
LINE
  8
LC-002-002-----0
  6
CONTINUOUS
  5
2A5
 10
-114.176925
 20
180.302961
 30
0.0
 11
-114.176925
 21
170.303045
 31
0.0
  0
LINE
  8
LC-002-002-----0
  6
CONTINUOUS
  5
2A6
 10
1.522588
 20
282.74749
 30
0.0
 11
-57.177412
 21
282.74749
 31
0.0
  0
LINE
  8
LC-002-002-----0
  6
CONTINUOUS
  5
2A7
 10
0.322588
 20
276.54749
 30
0.0
 11
-0.541346
 21
276.54749
 31
0.0
  0
LINE
  8
LC-002-002-----0
  6
CONTINUOUS
  5
2A8
 10
-6.113692
 20
267.780315
 30
0.0
 11
-6.477412
 21
267.780315
 31
0.0
  0
ARC
  8
LC-003-002-RND-0
  6
CONTINUOUS
  5
2A9
 10
0.322588
 20
277.74749
 30
0.0
 40
1.2
 50
270.0
 51
0.0
  0
LINE
  8
LC-002-002-----0
  6
CONTINUOUS
  5
2AA
 10
0.322588
 20
277.24749
 30
0.0
 11
-0.677412
 21
277.24749
 31
0.0
  0
LINE
  8
LC-002-002-----0
  6
CONTINUOUS
  5
2AB
 10
-115.677032
 20
170.303045
 30
0.0
 11
-117.177019
 21
170.303045
 31
0.0
  0
ARC
  8
LC-003-002-RND-0
  6
CONTINUOUS
  5
2AC
 10
0.322588
 20
277.74749
 30
0.0
 40
0.5
 50
270.0
 51
0.0
  0
LINE
  8
LC-002-002-----0
  6
CONTINUOUS
  5
2AD
 10
-114.677412
 20
276.54749
 30
0.0
 11
-113.813478
 21
276.54749
 31
0.0
  0
ARC
  8
LC-003-002-RND-0
  6
CONTINUOUS
  5
2AE
 10
-114.677412
 20
277.74749
 30
0.0
 40
1.2
 50
180.0
 51
270.0
  0
LINE
  8
LC-002-002-----0
  6
CONTINUOUS
  5
2AF
 10
-114.176925
 20
180.302961
 30
0.0
 11
-112.176903
 21
178.302939
 31
0.0
  0
LINE
  8
LC-002-002-----0
  6
CONTINUOUS
  5
2B0
 10
-112.176949
 20
163.303104
 30
0.0
 11
-109.176974
 21
163.303104
 31
0.0
  0
LINE
  8
LC-002-002-----0
  6
CONTINUOUS
  5
2B1
 10
-109.176974
 20
163.303104
 30
0.0
 11
-109.176974
 21
160.303129
 31
0.0
  0
ARC
  8
LC-003-002-RND-0
  6
CONTINUOUS
  5
2B2
 10
-114.677412
 20
277.74749
 30
0.0
 40
0.5
 50
180.0
 51
270.0
  0
ARC
  8
LC-002-002-----0
  6
CONTINUOUS
  5
2B3
 10
-115.877412
 20
282.04749
 30
0.0
 40
0.7
 50
360.0
 51
180.0
  0
ARC
  8
LC-003-002-RND-0
  6
CONTINUOUS
  5
2B4
 10
-110.977412
 20
274.503104
 30
0.0
 40
0.5
 50
180.0
 51
270.0
  0
LINE
  8
LC-002-002-----0
  6
CONTINUOUS
  5
2B5
 10
-115.677032
 20
170.303045
 30
0.0
 11
-114.176925
 21
170.303045
 31
0.0
  0
LINE
  8
LC-002-002-----0
  6
CONTINUOUS
  5
2B6
 10
-115.877412
 20
280.24749
 30
0.0
 11
-116.577412
 21
280.24749
 31
0.0
  0
LINE
  8
LC-002-002-----0
  6
CONTINUOUS
  5
2B7
 10
-115.877412
 20
277.74749
 30
0.0
 11
-115.877412
 21
281.552753
 31
0.0
  0
LINE
  8
LC-002-002-----0
  6
CONTINUOUS
  5
2B8
 10
-115.177412
 20
277.74749
 30
0.0
 11
-115.177412
 21
282.04749
 31
0.0
  0
LINE
  8
LC-002-002-----0
  6
CONTINUOUS
  5
2B9
 10
-2.177875
 20
163.303104
 30
0.0
 11
-5.17785
 21
163.303104
 31
0.0
  0
LINE
  8
LC-002-002-----0
  6
CONTINUOUS
  5
2BA
 10
-5.17785
 20
163.303104
 30
0.0
 11
-5.17785
 21
160.303129
 31
0.0
  0
LINE
  8
LC-002-002-----0
  6
CONTINUOUS
  5
2BB
 10
-2.177921
 20
178.302939
 30
0.0
 11
-2.177875
 21
163.303104
 31
0.0
  0
LINE
  8
LC-002-002-----0
  6
CONTINUOUS
  5
2BC
 10
-0.177899
 20
180.302961
 30
0.0
 11
-2.177921
 21
178.302939
 31
0.0
  0
LINE
  8
LC-002-002-----0
  6
CONTINUOUS
  5
2BD
 10
-0.177899
 20
180.302961
 30
0.0
 11
-0.177899
 21
170.303045
 31
0.0
  0
LINE
  8
LC-002-002-----0
  6
CONTINUOUS
  5
2BE
 10
-116.577412
 20
280.24749
 30
0.0
 11
-116.577412
 21
282.04749
 31
0.0
  0
ARC
  8
LC-003-002-RND-0
  6
CONTINUOUS
  5
2BF
 10
-110.977412
 20
274.503104
 30
0.0
 40
1.2
 50
180.0
 51
270.0
  0
ARC
  8
LC-003-002-RND-0
  6
CONTINUOUS
  5
2C0
 10
-109.077412
 20
272.803104
 30
0.0
 40
1.2
 50
360.0
 51
90.0
  0
LINE
  8
LC-002-002-----0
  6
CONTINUOUS
  5
2C1
 10
2.822195
 20
160.303129
 30
0.0
 11
2.822195
 21
170.302355
 31
0.0
  0
LINE
  8
LC-002-002-----0
  6
CONTINUOUS
  5
2C2
 10
-109.077412
 20
273.303104
 30
0.0
 11
-110.977412
 21
273.303104
 31
0.0
  0
LINE
  8
LC-002-002-----0
  6
CONTINUOUS
  5
2C3
 10
-111.477412
 20
275.549222
 30
0.0
 11
-111.477412
 21
274.503104
 31
0.0
  0
ARC
  8
LC-002-002-----0
  6
CONTINUOUS
  5
2C4
 10
1.522588
 20
282.04749
 30
0.0
 40
0.7
 50
0.0
 51
180.0
  0
LINE
  8
LC-002-002-----0
  6
CONTINUOUS
  5
2C5
 10
-112.177412
 20
275.549222
 30
0.0
 11
-112.177412
 21
274.503104
 31
0.0
  0
ARC
  8
LC-003-002-RND-0
  6
CONTINUOUS
  5
2C6
 10
-3.377412
 20
274.503104
 30
0.0
 40
0.5
 50
270.0
 51
0.0
  0
LINE
  8
LC-002-002-----0
  6
CONTINUOUS
  5
2C7
 10
-5.17785
 20
160.303129
 30
0.0
 11
2.822195
 21
160.303129
 31
0.0
  0
LINE
  8
LC-002-002-----0
  6
CONTINUOUS
  5
2C8
 10
1.522588
 20
280.24749
 30
0.0
 11
2.222588
 21
280.24749
 31
0.0
  0
ARC
  8
LC-003-002-RND-0
  6
CONTINUOUS
  5
2C9
 10
-109.077412
 20
272.803104
 30
0.0
 40
0.5
 50
0.0
 51
90.0
  0
LINE
  8
LC-002-002-----0
  6
CONTINUOUS
  5
2CA
 10
-107.877412
 20
267.780315
 30
0.0
 11
-107.877412
 21
272.803104
 31
0.0
  0
LINE
  8
LC-002-002-----0
  6
CONTINUOUS
  5
2CB
 10
-108.577412
 20
268.480669
 30
0.0
 11
-108.577412
 21
272.803104
 31
0.0
  0
LINE
  8
LC-002-002-----0
  6
CONTINUOUS
  5
2CC
 10
-108.241132
 20
267.780315
 30
0.0
 11
-107.877412
 21
267.780315
 31
0.0
  0
LINE
  8
LC-002-002-----0
  6
CONTINUOUS
  5
2CD
 10
-108.52304
 20
267.377709
 30
0.0
 11
-107.526728
 21
264.640365
 31
0.0
  0
LINE
  8
LC-002-002-----0
  6
CONTINUOUS
  5
2CE
 10
1.522588
 20
277.74749
 30
0.0
 11
1.522588
 21
281.641178
 31
0.0
  0
LINE
  8
LC-002-002-----0
  6
CONTINUOUS
  5
2CF
 10
-14.76295
 20
160.303129
 30
0.0
 11
-14.76295
 21
163.303104
 31
0.0
  0
ARC
  8
LC-003-002-RND-0
  6
CONTINUOUS
  5
2D0
 10
-108.241132
 20
267.480315
 30
0.0
 40
0.3
 50
90.0
 51
200.0
  0
LINE
  8
LC-002-002-----0
  6
CONTINUOUS
  5
2D1
 10
-107.526728
 20
264.640365
 30
0.0
 11
-108.188723
 21
264.399418
 31
0.0
  0
LINE
  8
LC-002-002-----0
  6
CONTINUOUS
  5
2D2
 10
-14.76295
 20
163.303104
 30
0.0
 11
-21.484121
 21
163.303104
 31
0.0
  0
LINE
  8
LC-002-002-----0
  6
CONTINUOUS
  5
2D3
 10
-19.362819
 20
160.303129
 30
0.0
 11
-19.362819
 21
163.303104
 31
0.0
  0
LINE
  8
LC-002-002-----0
  6
CONTINUOUS
  5
2D4
 10
-109.170407
 20
267.096572
 30
0.0
 11
-108.188723
 21
264.399418
 31
0.0
  0
ARC
  8
LC-002-002-----0
  6
CONTINUOUS
  5
2D5
 10
-108.136745
 20
267.472794
 30
0.0
 40
1.1
 50
113.616097
 51
200.0
  0
LINE
  8
LC-002-002-----0
  6
CONTINUOUS
  5
2D6
 10
-0.677412
 20
277.24749
 30
0.0
 11
-57.177412
 21
277.24749
 31
0.0
  0
LINE
  8
LC-002-002-----0
  6
CONTINUOUS
  5
2D7
 10
-115.877412
 20
282.74749
 30
0.0
 11
-57.177412
 21
282.74749
 31
0.0
  0
LINE
  8
LC-002-002-----0
  6
CONTINUOUS
  5
2D8
 10
-114.677412
 20
277.24749
 30
0.0
 11
-113.677412
 21
277.24749
 31
0.0
  0
LINE
  8
LC-002-002-----0
  6
CONTINUOUS
  5
2D9
 10
-57.177412
 20
274.003104
 30
0.0
 11
-109.077412
 21
274.003104
 31
0.0
  0
LINE
  8
LC-002-002-----0
  6
CONTINUOUS
  5
2DA
 10
-107.877412
 20
267.780315
 30
0.0
 11
-57.177412
 21
267.780315
 31
0.0
  0
LINE
  8
LC-002-002-----0
  6
CONTINUOUS
  5
2DB
 10
0.822588
 20
277.74749
 30
0.0
 11
0.822588
 21
282.04749
 31
0.0
  0
LINE
  8
LC-002-002-----0
  6
CONTINUOUS
  5
2DC
 10
-107.528423
 20
264.64502
 30
0.0
 11
-57.177412
 21
264.64502
 31
0.0
  0
LINE
  8
LC-002-002-----0
  6
CONTINUOUS
  5
2DD
 10
-108.188723
 20
264.399418
 30
0.0
 11
-57.177412
 21
264.399418
 31
0.0
  0
LINE
  8
LC-002-002-----0
  6
CONTINUOUS
  5
2DE
 10
-113.677412
 20
277.24749
 30
0.0
 11
-57.177412
 21
277.24749
 31
0.0
  0
LINE
  8
LC-002-002-----0
  6
CONTINUOUS
  5
2DF
 10
-109.077412
 20
274.003104
 30
0.0
 11
-110.977412
 21
274.003104
 31
0.0
  0
LINE
  8
LC-002-002-----0
  6
CONTINUOUS
  5
2E0
 10
-8.226624
 20
264.64502
 30
0.0
 11
-57.177412
 21
264.64502
 31
0.0
  0
LINE
  8
LC-002-002-----0
  6
CONTINUOUS
  5
2E1
 10
-5.831784
 20
267.377709
 30
0.0
 11
-6.828096
 21
264.640365
 31
0.0
  0
LINE
  8
LC-002-002-----0
  6
CONTINUOUS
  5
2E2
 10
-5.184417
 20
267.096572
 30
0.0
 11
-6.166101
 21
264.399418
 31
0.0
  0
ARC
  8
LC-002-002-----0
  6
CONTINUOUS
  5
2E3
 10
-6.218079
 20
267.472794
 30
0.0
 40
1.1
 50
340.0
 51
66.383903
  0
LINE
  8
LC-002-002-----0
  6
CONTINUOUS
  5
2E4
 10
-5.831784
 20
267.377709
 30
0.0
 11
-6.828096
 21
264.640365
 31
0.0
  0
ARC
  8
LC-003-002-RND-0
  6
CONTINUOUS
  5
2E5
 10
-6.113692
 20
267.480315
 30
0.0
 40
0.3
 50
340.0
 51
90.0
  0
LINE
  8
LC-002-002-----0
  6
CONTINUOUS
  5
2E6
 10
-6.840887
 20
264.64502
 30
0.0
 11
-57.177412
 21
264.64502
 31
0.0
  0
LINE
  8
LC-002-002-----0
  6
CONTINUOUS
  5
2E7
 10
-6.828096
 20
264.640365
 30
0.0
 11
-6.166101
 21
264.399418
 31
0.0
  0
LINE
  8
LC-002-002-----0
  6
CONTINUOUS
  5
2E8
 10
-5.277412
 20
274.003104
 30
0.0
 11
-3.377412
 21
274.003104
 31
0.0
  0
LINE
  8
LC-002-002-----0
  6
CONTINUOUS
  5
2E9
 10
-6.477412
 20
267.780315
 30
0.0
 11
-57.177412
 21
267.780315
 31
0.0
  0
LINE
  8
LC-002-002-----0
  6
CONTINUOUS
  5
2EA
 10
-6.166101
 20
264.399418
 30
0.0
 11
-57.177412
 21
264.399418
 31
0.0
  0
LINE
  8
LC-002-002-----0
  6
CONTINUOUS
  5
2EB
 10
-2.12694
 20
276.661843
 30
0.0
 11
-0.677412
 21
277.24749
 31
0.0
  0
LINE
  8
LC-002-002-----0
  6
CONTINUOUS
  5
2EC
 10
-1.864715
 20
276.012814
 30
0.0
 11
-0.541346
 21
276.54749
 31
0.0
  0
LINE
  8
LC-002-002-----0
  6
CONTINUOUS
  5
2ED
 10
-110.927412
 20
271.803104
 30
0.0
 11
-110.927412
 21
273.303104
 31
0.0
  0
LINE
  8
LC-002-002-----0
  6
CONTINUOUS
  5
2EE
 10
2.222588
 20
280.24749
 30
0.0
 11
2.222588
 21
282.04749
 31
0.0
  0
ARC
  8
LC-003-002-RND-0
  6
CONTINUOUS
  5
2EF
 10
-3.377412
 20
274.503104
 30
0.0
 40
1.2
 50
270.0
 51
0.0
  0
ARC
  8
LC-003-002-RND-0
  6
CONTINUOUS
  5
2F0
 10
-5.277412
 20
272.803104
 30
0.0
 40
1.2
 50
90.0
 51
180.0
  0
LINE
  8
LC-002-002-----0
  6
CONTINUOUS
  5
2F1
 10
-5.027412
 20
271.303104
 30
0.0
 11
-3.927412
 21
271.303104
 31
0.0
  0
LINE
  8
LC-002-002-----0
  6
CONTINUOUS
  5
2F2
 10
-110.427412
 20
271.303104
 30
0.0
 11
-110.927412
 21
271.803104
 31
0.0
  0
LINE
  8
LC-002-002-----0
  6
CONTINUOUS
  5
2F3
 10
-5.277412
 20
273.303104
 30
0.0
 11
-3.377412
 21
273.303104
 31
0.0
  0
LINE
  8
LC-002-002-----0
  6
CONTINUOUS
  5
2F4
 10
-57.177412
 20
274.003104
 30
0.0
 11
-5.277412
 21
274.003104
 31
0.0
  0
LINE
  8
LC-002-002-----0
  6
CONTINUOUS
  5
2F5
 10
-2.877412
 20
275.549222
 30
0.0
 11
-2.877412
 21
274.503104
 31
0.0
  0
LINE
  8
LC-002-002-----0
  6
CONTINUOUS
  5
2F6
 10
-2.177412
 20
275.549222
 30
0.0
 11
-2.177412
 21
274.503104
 31
0.0
  0
ARC
  8
LC-003-002-RND-0
  6
CONTINUOUS
  5
2F7
 10
-5.277412
 20
272.803104
 30
0.0
 40
0.5
 50
90.0
 51
180.0
  0
LINE
  8
LC-002-002-----0
  6
CONTINUOUS
  5
2F8
 10
-6.477412
 20
267.780315
 30
0.0
 11
-6.477412
 21
272.803104
 31
0.0
  0
LINE
  8
LC-002-002-----0
  6
CONTINUOUS
  5
2F9
 10
-5.777412
 20
268.480669
 30
0.0
 11
-5.777412
 21
272.803104
 31
0.0
  0
LINE
  8
LC-002-002-----0
  6
CONTINUOUS
  5
2FA
 10
-111.177412
 20
163.303104
 30
0.0
 11
-109.677412
 21
163.303104
 31
0.0
  0
LINE
  8
LC-002-002-----0
  6
CONTINUOUS
  5
2FB
 10
-5.184417
 20
267.096572
 30
0.0
 11
-6.166101
 21
264.399418
 31
0.0
  0
ARC
  8
LC-002-002-----0
  6
CONTINUOUS
  5
2FC
 10
-6.218079
 20
267.472794
 30
0.0
 40
1.1
 50
340.0
 51
66.383903
  0
LINE
  8
LC-002-002-----0
  6
CONTINUOUS
  5
2FD
 10
-112.177412
 20
273.303104
 30
0.0
 11
-112.177412
 21
164.303104
 31
0.0
  0
LINE
  8
LC-002-002-----0
  6
CONTINUOUS
  5
2FE
 10
-5.527412
 20
270.803104
 30
0.0
 11
-5.027412
 21
271.303104
 31
0.0
  0
LINE
  8
LC-002-002-----0
  6
CONTINUOUS
  5
2FF
 10
-5.527412
 20
270.803104
 30
0.0
 11
-5.527412
 21
268.803104
 31
0.0
  0
LINE
  8
LC-002-002-----0
  6
CONTINUOUS
  5
300
 10
-4.677412
 20
267.953104
 30
0.0
 11
-5.527412
 21
268.803104
 31
0.0
  0
LINE
  8
LC-002-002-----0
  6
CONTINUOUS
  5
301
 10
-109.327412
 20
271.303104
 30
0.0
 11
-110.427412
 21
271.303104
 31
0.0
  0
LINE
  8
LC-002-002-----0
  6
CONTINUOUS
  5
302
 10
-3.177412
 20
163.303104
 30
0.0
 11
-4.677412
 21
163.303104
 31
0.0
  0
LINE
  8
LC-002-002-----0
  6
CONTINUOUS
  5
303
 10
-2.177412
 20
273.303104
 30
0.0
 11
-2.177412
 21
164.303104
 31
0.0
  0
LINE
  8
LC-002-002-----0
  6
CONTINUOUS
  5
304
 10
-108.827412
 20
270.803104
 30
0.0
 11
-109.327412
 21
271.303104
 31
0.0
  0
LINE
  8
LC-002-002-----0
  6
CONTINUOUS
  5
305
 10
-108.827412
 20
270.803104
 30
0.0
 11
-108.827412
 21
268.803104
 31
0.0
  0
LINE
  8
LC-002-002-----0
  6
CONTINUOUS
  5
306
 10
-109.677412
 20
267.953104
 30
0.0
 11
-108.827412
 21
268.803104
 31
0.0
  0
LINE
  8
LC-002-002-----0
  6
CONTINUOUS
  5
307
 10
-112.177412
 20
273.303104
 30
0.0
 11
-110.977412
 21
273.303104
 31
0.0
  0
LINE
  8
LC-002-002-----0
  6
CONTINUOUS
  5
308
 10
-4.677412
 20
267.953104
 30
0.0
 11
-4.677412
 21
163.303104
 31
0.0
  0
LINE
  8
LC-002-002-----0
  6
CONTINUOUS
  5
309
 10
-57.177412
 20
163.303104
 30
0.0
 11
-109.677412
 21
163.303104
 31
0.0
  0
LINE
  8
LC-002-002-----0
  6
CONTINUOUS
  5
30A
 10
-111.177412
 20
163.303104
 30
0.0
 11
-112.177412
 21
164.303104
 31
0.0
  0
LINE
  8
LC-002-002-----0
  6
CONTINUOUS
  5
30B
 10
-57.177412
 20
163.303104
 30
0.0
 11
-4.677412
 21
163.303104
 31
0.0
  0
LINE
  8
LC-002-002-----0
  6
CONTINUOUS
  5
30C
 10
-3.927412
 20
271.303104
 30
0.0
 11
-3.427412
 21
271.803104
 31
0.0
  0
LINE
  8
LC-002-002-----0
  6
CONTINUOUS
  5
30D
 10
-3.427412
 20
271.803104
 30
0.0
 11
-3.427412
 21
273.303104
 31
0.0
  0
LINE
  8
LC-002-002-----0
  6
CONTINUOUS
  5
30E
 10
-3.177412
 20
163.303104
 30
0.0
 11
-2.177412
 21
164.303104
 31
0.0
  0
LINE
  8
LC-002-002-----0
  6
CONTINUOUS
  5
30F
 10
-109.677412
 20
267.953104
 30
0.0
 11
-109.677412
 21
163.303104
 31
0.0
  0
LINE
  8
LC-002-002-----0
  6
CONTINUOUS
  5
310
 10
-3.377412
 20
273.303104
 30
0.0
 11
-2.177412
 21
273.303104
 31
0.0
  0
LINE
  8
LC-002-002-----0
  6
CONTINUOUS
 62
     2
  5
311
 10
-4.677412
 20
177.303104
 30
0.0
 11
-109.677412
 21
177.303104
 31
0.0
  0
ENDSEC
  0
EOF
