  0
SECTION
  2
HEADER
  9
$ACADVER
  1
AC1009
  9
$INSBASE
 10
-286.325665
 20
5854.158748
 30
0.0
  9
$EXTMIN
 10
-286.325665
 20
5854.158748
 30
0.0
  9
$EXTMAX
 10
553.674335
 20
6448.158748
 30
0.0
  9
$LIMMIN
 10
-286.325665
 20
5854.158748
  9
$LIMMAX
 10
553.674335
 20
6448.158748
  9
$ORTHOMODE
 70
     0
  9
$REGENMODE
 70
     1
  9
$FILLMODE
 70
     1
  9
$QTEXTMODE
 70
     0
  9
$MIRRTEXT
 70
     1
  9
$DRAGMODE
 70
     2
  9
$LTSCALE
 40
2.0
  9
$OSMODE
 70
     0
  9
$ATTMODE
 70
     1
  9
$TEXTSIZE
 40
0.2
  9
$TRACEWID
 40
0.05
  9
$TEXTSTYLE
  7
STANDARD
  9
$CLAYER
  8
0
  9
$CELTYPE
  6
BYLAYER
  9
$CECOLOR
 62
     7
  9
$DIMSCALE
 40
2.0
  9
$DIMASZ
 40
3.5
  9
$DIMEXO
 40
0.0625
  9
$DIMDLI
 40
0.38
  9
$DIMRND
 40
0.0
  9
$DIMDLE
 40
0.0
  9
$DIMEXE
 40
0.18
  9
$DIMTP
 40
0.0
  9
$DIMTM
 40
0.0
  9
$DIMTXT
 40
3.5
  9
$DIMCEN
 40
0.09
  9
$DIMTSZ
 40
0.0
  9
$DIMTOL
 70
     0
  9
$DIMLIM
 70
     0
  9
$DIMTIH
 70
     1
  9
$DIMTOH
 70
     1
  9
$DIMSE1
 70
     0
  9
$DIMSE2
 70
     0
  9
$DIMTAD
 70
     1
  9
$DIMZIN
 70
     0
  9
$DIMBLK
  1

  9
$DIMASO
 70
     1
  9
$DIMSHO
 70
     1
  9
$DIMPOST
  1

  9
$DIMAPOST
  1

  9
$DIMALT
 70
     0
  9
$DIMALTD
 70
     2
  9
$DIMALTF
 40
25.4
  9
$DIMLFAC
 40
1.0
  9
$DIMTOFL
 70
     0
  9
$DIMTVP
 40
0.0
  9
$DIMTIX
 70
     0
  9
$DIMSOXD
 70
     0
  9
$DIMSAH
 70
     0
  9
$DIMBLK1
  1

  9
$DIMBLK2
  1

  9
$DIMSTYLE
  2
STANDARD
  9
$DIMCLRD
 70
     0
  9
$DIMCLRE
 70
     0
  9
$DIMCLRT
 70
     0
  9
$DIMTFAC
 40
1.0
  9
$DIMGAP
 40
0.09
  9
$LUNITS
 70
     2
  9
$LUPREC
 70
     2
  9
$AXISMODE
 70
     0
  9
$AXISUNIT
 10
0.0
 20
0.0
  9
$SKETCHINC
 40
0.1
  9
$FILLETRAD
 40
0.0
  9
$AUNITS
 70
     0
  9
$AUPREC
 70
     0
  9
$MENU
  1
acad
  9
$ELEVATION
 40
0.0
  9
$PELEVATION
 40
0.0
  9
$THICKNESS
 40
0.0
  9
$LIMCHECK
 70
     0
  9
$BLIPMODE
 70
     1
  9
$CHAMFERA
 40
0.0
  9
$CHAMFERB
 40
0.0
  9
$SKPOLY
 70
     0
  9
$TDCREATE
 40
0.000000000
  9
$TDUPDATE
 40
0.000000000
  9
$TDINDWG
 40
0.0000000000
  9
$TDUSRTIMER
 40
0.0000000000
  9
$USRTIMER
 70
     1
  9
$ANGBASE
 50
0.0
  9
$ANGDIR
 70
     0
  9
$PDMODE
 70
     0
  9
$PDSIZE
 40
0.0
  9
$PLINEWID
 40
0.0
  9
$COORDS
 70
     0
  9
$SPLFRAME
 70
     0
  9
$SPLINETYPE
 70
     6
  9
$SPLINESEGS
 70
     8
  9
$ATTDIA
 70
     0
  9
$ATTREQ
 70
     1
  9
$HANDLING
 70
     1
  9
$HANDSEED
  5
2EA
  9
$SURFTAB1
 70
     6
  9
$SURFTAB2
 70
     6
  9
$SURFTYPE
 70
     6
  9
$SURFU
 70
     6
  9
$SURFV
 70
     6
  9
$UCSNAME
  2

  9
$UCSORG
 10
0.0
 20
0.0
 30
0.0
  9
$UCSXDIR
 10
1.0
 20
0.0
 30
0.0
  9
$UCSYDIR
 10
0.0
 20
1.0
 30
0.0
  9
$PUCSNAME
  2

  9
$PUCSORG
 10
0.0
 20
0.0
 30
0.0
  9
$PUCSXDIR
 10
1.0
 20
0.0
 30
0.0
  9
$PUCSYDIR
 10
0.0
 20
1.0
 30
0.0
  9
$USERI1
 70
     0
  9
$USERI2
 70
     0
  9
$USERI3
 70
     0
  9
$USERI4
 70
     0
  9
$USERI5
 70
     0
  9
$USERR1
 40
0.0
  9
$USERR2
 40
0.0
  9
$USERR3
 40
0.0
  9
$USERR4
 40
0.0
  9
$USERR5
 40
0.0
  9
$WORLDVIEW
 70
     1
  9
$SHADEDGE
 70
     3
  9
$SHADEDIF
 70
    70
  9
$TILEMODE
 70
     1
  9
$MAXACTVP
 70
    16
  9
$PINSBASE
 10
0.0
 20
0.0
 30
0.0
  9
$PLIMCHECK
 70
     0
  9
$PEXTMIN
 10
1.000000E+20
 20
1.000000E+20
 30
1.000000E+20
  9
$PEXTMAX
 10
-1.000000E+20
 20
-1.000000E+20
 30
-1.000000E+20
  9
$PLIMMIN
 10
-286.325665
 20
5854.158748
  9
$PLIMMAX
 10
553.674335
 20
6448.158748
  9
$UNITMODE
 70
     0
  9
$VISRETAIN
 70
     0
  9
$PLINEGEN
 70
     1
  9
$PSLTSCALE
 70
     0
  9
$TREEDEPTH
 70
  3020
  9
$DWGCODEPAGE
  3
dos850
  0
ENDSEC
  0
SECTION
  2
TABLES
  0
TABLE
  2
VPORT
 70
     1
  0
VPORT
  2
*ACTIVE
 70
     0
 10
0.0
 20
0.0
 11
1.0
 21
1.0
 12
420.0
 22
297.0
 13
0.0
 23
0.0
 14
1.0
 24
1.0
 15
0.0
 25
0.0
 16
0.0
 26
0.0
 36
1.0
 17
-286.325665
 27
5854.158748
 37
0.0
 40
594.0
 41
1.604229
 42
50.0
 43
0.0
 44
0.0
 50
0.0
 51
0.0
 71
     0
 72
   100
 73
     1
 74
     1
 75
     0
 76
     0
 77
     0
 78
     0
  0
ENDTAB
  0
TABLE
  2
LTYPE
 70
     2
  0
LTYPE
  2
CONTINUOUS
 70
    64
  3
Solid line
 72
    65
 73
     0
 40
0.0
  0
LTYPE
  2
DASHDOT
 70
    64
  3
__ . __ . __ . __ . __
 72
    65
 73
     4
 40
7.5
 49
5.0
 49
-1.25
 49
0.0
 49
-1.25
  0
ENDTAB
  0
TABLE
  2
LAYER
 70
    10
  0
LAYER
  2
0
 70
     0
 62
     7
  6
CONTINUOUS
  0
LAYER
  2
LC-INFO-1-2-MM-A3-0
 70
     1
 62
    -1
  6
CONTINUOUS
  0
LAYER
  2
LC-003-005-----0
 70
     0
 62
     2
  6
CONTINUOUS
  0
LAYER
  2
LC-006-003-MTH-0
 70
     0
 62
     2
  6
CONTINUOUS
  0
LAYER
  2
LC-007-003-MTG-0
 70
     0
 62
     2
  6
CONTINUOUS
  0
LAYER
  2
LC-005-003-----0
 70
     0
 62
     2
  6
CONTINUOUS
  0
LAYER
  2
LC-002-000-----0
 70
     0
 62
     7
  6
CONTINUOUS
  0
LAYER
  2
LC-001-002-----0
 70
     0
 62
     2
  6
CONTINUOUS
  0
LAYER
  2
LC-004-002-RND-0
 70
     0
 62
     1
  6
CONTINUOUS
  0
LAYER
  2
LC-000
 70
     0
 62
     7
  6
CONTINUOUS
  0
ENDTAB
  0
TABLE
  2
STYLE
 70
     4
  0
STYLE
  2
STANDARD
 70
     0
 40
0.0
 41
1.0
 50
0.0
 71
     0
 42
0.0
  3
txt
  4

  0
STYLE
  2
LC-STANDARD
 70
    64
 40
0.0
 41
1.0
 50
0.0
 71
     0
 42
3.5
  3
MONOTXT
  4

  0
STYLE
  2
LC-TXTSTYLE-150-400-0-0-A2
 70
    64
 40
0.0
 41
1.0
 50
15.0
 71
     0
 42
3.5
  3
MONOTXT
  4

  0
STYLE
  2
LC-TXTSTYLE-150-400-0-0-D3
 70
    64
 40
0.0
 41
1.0
 50
15.0
 71
     0
 42
3.5
  3
LC-STANDARD
  4

  0
ENDTAB
  0
TABLE
  2
VIEW
 70
     0
  0
ENDTAB
  0
TABLE
  2
UCS
 70
     0
  0
ENDTAB
  0
TABLE
  2
APPID
 70
     1
  0
APPID
  2
ACAD
 70
     0
  0
ENDTAB
  0
TABLE
  2
DIMSTYLE
 70
     3
  0
DIMSTYLE
  2
STANDARD
 70
     0
  3

  4

  5

  6

  7

 40
1.0
 41
0.18
 42
0.0625
 43
0.38
 44
0.18
 45
0.0
 46
0.0
 47
0.0
 48
0.0
 71
     0
 72
     0
 73
     1
 74
     1
 75
     0
 76
     0
 77
     0
 78
     0
140
0.18
141
0.09
142
0.0
143
25.4
144
1.0
145
0.0
146
1.0
147
0.09
170
     0
171
     2
172
     0
173
     0
174
     0
175
     0
176
     0
177
     0
178
     0
  0
DIMSTYLE
  2
LC-STANDARD
 70
     0
  3

  4

  5

  6

  7

 40
1.0
 41
3.5
 42
0.0
 43
7.5
 44
1.8
 45
0.0
 46
0.0
 47
0.0
 48
0.0
 71
     0
 72
     0
 73
     0
 74
     0
 75
     0
 76
     0
 77
     1
 78
     8
140
3.5
141
0.0
142
0.0
143
25.4
144
1.0
145
0.0
146
0.71
147
1.5
170
     0
171
     2
172
     1
173
     0
174
     0
175
     0
176
     0
177
     0
178
     3
  0
DIMSTYLE
  2
LC-DIM-L-0140-02-02
 70
     0
  3

  4

  5

  6

  7

 40
2.0
 41
3.5
 42
0.0
 43
7.5
 44
1.8
 45
0.0
 46
0.0
 47
0.0
 48
0.0
 71
     0
 72
     0
 73
     0
 74
     0
 75
     0
 76
     0
 77
     1
 78
     8
140
14.0
141
0.0
142
0.0
143
25.4
144
1.0
145
0.0
146
0.71
147
1.5
170
     0
171
     2
172
     0
173
     0
174
     0
175
     0
176
     2
177
     2
178
     8
  0
ENDTAB
  0
ENDSEC
  0
SECTION
  2
BLOCKS
  0
BLOCK
  8
0
  5
23
  2
BLK1
 70
    64
 10
0.0
 20
0.0
 30
0.0
  3
BLK1
  0
ENDBLK
  8
0
  5
24
  0
BLOCK
  8
0
  5
26
  2
BLK2
 70
    64
 10
0.0
 20
0.0
 30
0.0
  3
BLK2
  0
ENDBLK
  8
0
  5
27
  0
BLOCK
  8
0
  5
29
  2
BLK3
 70
    64
 10
0.0
 20
0.0
 30
0.0
  3
BLK3
  0
ENDBLK
  8
0
  5
2A
  0
BLOCK
  8
0
  5
2C
  2
BLK4
 70
    64
 10
0.0
 20
0.0
 30
0.0
  3
BLK4
  0
ENDBLK
  8
0
  5
2D
  0
BLOCK
  8
0
  5
2F
  2
BLK5
 70
    64
 10
0.0
 20
0.0
 30
0.0
  3
BLK5
  0
ENDBLK
  8
0
  5
30
  0
BLOCK
  8
0
  5
32
  2
BLK6
 70
    64
 10
0.0
 20
0.0
 30
0.0
  3
BLK6
  0
ENDBLK
  8
0
  5
33
  0
BLOCK
  8
0
  5
35
  2
BLK7
 70
    64
 10
0.0
 20
0.0
 30
0.0
  3
BLK7
  0
ENDBLK
  8
0
  5
36
  0
BLOCK
  8
0
  5
38
  2
BLK8
 70
    64
 10
0.0
 20
0.0
 30
0.0
  3
BLK8
  0
ENDBLK
  8
0
  5
39
  0
BLOCK
  8
0
  5
3B
  2
*X8
 70
    65
 10
-113.549381
 20
6218.918
 30
0.0
  3
*X8
  0
LINE
  8
LC-003-005-----0
  6
CONTINUOUS
  5
3D
 10
22.906619
 20
6219.990449
 30
0.0
 11
24.405598
 21
6221.489429
 31
0.0
  0
LINE
  8
LC-003-005-----0
  6
CONTINUOUS
  5
3E
 10
22.384284
 20
6222.296542
 30
0.0
 11
23.462548
 21
6223.374805
 31
0.0
  0
LINE
  8
LC-003-005-----0
  6
CONTINUOUS
  5
3F
 10
19.677315
 20
6222.418
 30
0.0
 11
21.177315
 21
6223.918
 31
0.0
  0
LINE
  8
LC-003-005-----0
  6
CONTINUOUS
  5
40
 10
14.906619
 20
6220.475731
 30
0.0
 11
18.348888
 21
6223.918
 31
0.0
  0
LINE
  8
LC-003-005-----0
  6
CONTINUOUS
  5
41
 10
6.406619
 20
6220.461012
 30
0.0
 11
7.857373
 21
6221.911766
 31
0.0
  0
LINE
  8
LC-003-005-----0
  6
CONTINUOUS
  5
42
 10
5.527809
 20
6222.410629
 30
0.0
 11
6.684127
 21
6223.566947
 31
0.0
  0
LINE
  8
LC-003-005-----0
  6
CONTINUOUS
  5
43
 10
0.206753
 20
6219.918
 30
0.0
 11
0.406619
 21
6220.117866
 31
0.0
  0
LINE
  8
LC-003-005-----0
  6
CONTINUOUS
  5
44
 10
2.706753
 20
6222.418
 30
0.0
 11
4.206753
 21
6223.918
 31
0.0
  0
LINE
  8
LC-003-005-----0
  6
CONTINUOUS
  5
45
 10
-1.093219
 20
6221.446455
 30
0.0
 11
1.378164
 21
6223.917838
 31
0.0
  0
LINE
  8
LC-003-005-----0
  6
CONTINUOUS
  5
46
 10
-8.278529
 20
6219.918
 30
0.0
 11
-8.093381
 21
6220.103148
 31
0.0
  0
LINE
  8
LC-003-005-----0
  6
CONTINUOUS
  5
47
 10
-9.593472
 20
6221.431484
 30
0.0
 11
-8.402599
 21
6222.622357
 31
0.0
  0
LINE
  8
LC-003-005-----0
  6
CONTINUOUS
  5
48
 10
-11.435383
 20
6222.418
 30
0.0
 11
-10.005489
 21
6223.847894
 31
0.0
  0
LINE
  8
LC-003-005-----0
  6
CONTINUOUS
  5
49
 10
-16.76381
 20
6219.918
 30
0.0
 11
-15.593381
 21
6221.088429
 31
0.0
  0
LINE
  8
LC-003-005-----0
  6
CONTINUOUS
  5
4A
 10
-14.26381
 20
6222.418
 30
0.0
 11
-12.76381
 21
6223.918
 31
0.0
  0
LINE
  8
LC-003-005-----0
  6
CONTINUOUS
  5
4B
 10
-16.596781
 20
6222.913457
 30
0.0
 11
-16.088838
 21
6223.421399
 31
0.0
  0
LINE
  8
LC-003-005-----0
  6
CONTINUOUS
  5
4C
 10
-25.249091
 20
6219.918
 30
0.0
 11
-24.093381
 21
6221.07371
 31
0.0
  0
LINE
  8
LC-003-005-----0
  6
CONTINUOUS
  5
4D
 10
-25.878388
 20
6222.117131
 30
0.0
 11
-24.817701
 21
6223.177818
 31
0.0
  0
LINE
  8
LC-003-005-----0
  6
CONTINUOUS
  5
4E
 10
-28.405946
 20
6222.418
 30
0.0
 11
-26.905946
 21
6223.918
 31
0.0
  0
LINE
  8
LC-003-005-----0
  6
CONTINUOUS
  5
4F
 10
-31.234373
 20
6222.418
 30
0.0
 11
-29.734373
 21
6223.918
 31
0.0
  0
LINE
  8
LC-003-005-----0
  6
CONTINUOUS
  5
50
 10
-34.0628
 20
6222.418
 30
0.0
 11
-32.5628
 21
6223.918
 31
0.0
  0
LINE
  8
LC-003-005-----0
  6
CONTINUOUS
  5
51
 10
-36.891227
 20
6222.418
 30
0.0
 11
-35.391227
 21
6223.918
 31
0.0
  0
LINE
  8
LC-003-005-----0
  6
CONTINUOUS
  5
52
 10
-39.719654
 20
6222.418
 30
0.0
 11
-38.219654
 21
6223.918
 31
0.0
  0
LINE
  8
LC-003-005-----0
  6
CONTINUOUS
  5
53
 10
-42.548081
 20
6222.418
 30
0.0
 11
-41.048081
 21
6223.918
 31
0.0
  0
LINE
  8
LC-003-005-----0
  6
CONTINUOUS
  5
54
 10
-45.376508
 20
6222.418
 30
0.0
 11
-43.876508
 21
6223.918
 31
0.0
  0
LINE
  8
LC-003-005-----0
  6
CONTINUOUS
  5
55
 10
-48.204936
 20
6222.418
 30
0.0
 11
-46.704936
 21
6223.918
 31
0.0
  0
LINE
  8
LC-003-005-----0
  6
CONTINUOUS
  5
56
 10
-51.033363
 20
6222.418
 30
0.0
 11
-49.533363
 21
6223.918
 31
0.0
  0
LINE
  8
LC-003-005-----0
  6
CONTINUOUS
  5
57
 10
-53.86179
 20
6222.418
 30
0.0
 11
-52.36179
 21
6223.918
 31
0.0
  0
LINE
  8
LC-003-005-----0
  6
CONTINUOUS
  5
58
 10
-56.690217
 20
6222.418
 30
0.0
 11
-55.190217
 21
6223.918
 31
0.0
  0
LINE
  8
LC-003-005-----0
  6
CONTINUOUS
  5
59
 10
-59.518644
 20
6222.418
 30
0.0
 11
-58.018644
 21
6223.918
 31
0.0
  0
LINE
  8
LC-003-005-----0
  6
CONTINUOUS
  5
5A
 10
-64.847071
 20
6219.918
 30
0.0
 11
-63.549381
 21
6221.21569
 31
0.0
  0
LINE
  8
LC-003-005-----0
  6
CONTINUOUS
  5
5B
 10
-62.347071
 20
6222.418
 30
0.0
 11
-60.847071
 21
6223.918
 31
0.0
  0
LINE
  8
LC-003-005-----0
  6
CONTINUOUS
  5
5C
 10
-73.332353
 20
6219.918
 30
0.0
 11
-72.049381
 21
6221.200971
 31
0.0
  0
LINE
  8
LC-003-005-----0
  6
CONTINUOUS
  5
5D
 10
-73.900171
 20
6222.178609
 30
0.0
 11
-72.838191
 21
6223.240589
 31
0.0
  0
LINE
  8
LC-003-005-----0
  6
CONTINUOUS
  5
5E
 10
-76.489207
 20
6222.418
 30
0.0
 11
-74.989207
 21
6223.918
 31
0.0
  0
LINE
  8
LC-003-005-----0
  6
CONTINUOUS
  5
5F
 10
-81.049381
 20
6220.686253
 30
0.0
 11
-77.817634
 21
6223.918
 31
0.0
  0
LINE
  8
LC-003-005-----0
  6
CONTINUOUS
  5
60
 10
-89.549381
 20
6220.671534
 30
0.0
 11
-88.139117
 21
6222.081798
 31
0.0
  0
LINE
  8
LC-003-005-----0
  6
CONTINUOUS
  5
61
 10
-90.631342
 20
6222.418
 30
0.0
 11
-89.407406
 21
6223.641936
 31
0.0
  0
LINE
  8
LC-003-005-----0
  6
CONTINUOUS
  5
62
 10
-95.95977
 20
6219.918
 30
0.0
 11
-95.549381
 21
6220.328388
 31
0.0
  0
LINE
  8
LC-003-005-----0
  6
CONTINUOUS
  5
63
 10
-93.45977
 20
6222.418
 30
0.0
 11
-91.95977
 21
6223.918
 31
0.0
  0
LINE
  8
LC-003-005-----0
  6
CONTINUOUS
  5
64
 10
-97.036699
 20
6221.669498
 30
0.0
 11
-94.800879
 21
6223.905318
 31
0.0
  0
LINE
  8
LC-003-005-----0
  6
CONTINUOUS
  5
65
 10
-104.445051
 20
6219.918
 30
0.0
 11
-104.049381
 21
6220.31367
 31
0.0
  0
LINE
  8
LC-003-005-----0
  6
CONTINUOUS
  5
66
 10
-105.57025
 20
6221.621228
 30
0.0
 11
-104.436758
 21
6222.754721
 31
0.0
  0
LINE
  8
LC-003-005-----0
  6
CONTINUOUS
  5
67
 10
-107.601905
 20
6222.418
 30
0.0
 11
-106.136273
 21
6223.883632
 31
0.0
  0
LINE
  8
LC-003-005-----0
  6
CONTINUOUS
  5
68
 10
-113.549381
 20
6219.298951
 30
0.0
 11
-112.049381
 21
6220.798951
 31
0.0
  0
LINE
  8
LC-003-005-----0
  6
CONTINUOUS
  5
69
 10
-110.430332
 20
6222.418
 30
0.0
 11
-108.930332
 21
6223.918
 31
0.0
  0
LINE
  8
LC-003-005-----0
  6
CONTINUOUS
  5
6A
 10
-113.395672
 20
6222.281088
 30
0.0
 11
-111.912469
 21
6223.764291
 31
0.0
  0
ENDBLK
  8
0
  5
6B
  0
BLOCK
  8
0
  5
6D
  2
BLK9
 70
    64
 10
0.0
 20
0.0
 30
0.0
  3
BLK9
  0
ENDBLK
  8
0
  5
6E
  0
BLOCK
  8
0
  5
70
  2
*X10
 70
    65
 10
-114.071381
 20
6021.418
 30
0.0
  3
*X10
  0
LINE
  8
LC-003-005-----0
  6
CONTINUOUS
  5
71
 10
-48.38661
 20
6021.418
 30
0.0
 11
-44.571381
 21
6025.233229
 31
0.0
  0
LINE
  8
LC-003-005-----0
  6
CONTINUOUS
  5
72
 10
-54.043464
 20
6021.418
 30
0.0
 11
-44.571381
 21
6030.890083
 31
0.0
  0
LINE
  8
LC-003-005-----0
  6
CONTINUOUS
  5
73
 10
-59.700318
 20
6021.418
 30
0.0
 11
-44.571381
 21
6036.546937
 31
0.0
  0
LINE
  8
LC-003-005-----0
  6
CONTINUOUS
  5
74
 10
-65.357172
 20
6021.418
 30
0.0
 11
-44.571381
 21
6042.203791
 31
0.0
  0
LINE
  8
LC-003-005-----0
  6
CONTINUOUS
  5
75
 10
-71.014027
 20
6021.418
 30
0.0
 11
-48.014027
 21
6044.418
 31
0.0
  0
LINE
  8
LC-003-005-----0
  6
CONTINUOUS
  5
76
 10
-76.670881
 20
6021.418
 30
0.0
 11
-53.670881
 21
6044.418
 31
0.0
  0
LINE
  8
LC-003-005-----0
  6
CONTINUOUS
  5
77
 10
-82.327735
 20
6021.418
 30
0.0
 11
-59.327735
 21
6044.418
 31
0.0
  0
LINE
  8
LC-003-005-----0
  6
CONTINUOUS
  5
78
 10
-87.984589
 20
6021.418
 30
0.0
 11
-64.984589
 21
6044.418
 31
0.0
  0
LINE
  8
LC-003-005-----0
  6
CONTINUOUS
  5
79
 10
-93.641444
 20
6021.418
 30
0.0
 11
-70.641444
 21
6044.418
 31
0.0
  0
LINE
  8
LC-003-005-----0
  6
CONTINUOUS
  5
7A
 10
-99.298298
 20
6021.418
 30
0.0
 11
-76.298298
 21
6044.418
 31
0.0
  0
LINE
  8
LC-003-005-----0
  6
CONTINUOUS
  5
7B
 10
-104.955152
 20
6021.418
 30
0.0
 11
-81.955152
 21
6044.418
 31
0.0
  0
LINE
  8
LC-003-005-----0
  6
CONTINUOUS
  5
7C
 10
-110.612006
 20
6021.418
 30
0.0
 11
-87.612006
 21
6044.418
 31
0.0
  0
LINE
  8
LC-003-005-----0
  6
CONTINUOUS
  5
7D
 10
-114.071381
 20
6023.61548
 30
0.0
 11
-93.268861
 21
6044.418
 31
0.0
  0
LINE
  8
LC-003-005-----0
  6
CONTINUOUS
  5
7E
 10
-114.071381
 20
6029.272334
 30
0.0
 11
-98.925715
 21
6044.418
 31
0.0
  0
LINE
  8
LC-003-005-----0
  6
CONTINUOUS
  5
7F
 10
-114.071381
 20
6034.929188
 30
0.0
 11
-104.582569
 21
6044.418
 31
0.0
  0
LINE
  8
LC-003-005-----0
  6
CONTINUOUS
  5
80
 10
-114.071381
 20
6040.586042
 30
0.0
 11
-110.239423
 21
6044.418
 31
0.0
  0
LINE
  8
LC-003-005-----0
  6
CONTINUOUS
  5
81
 10
-44.571381
 20
6040.836886
 30
0.0
 11
-48.152496
 21
6044.418
 31
0.0
  0
LINE
  8
LC-003-005-----0
  6
CONTINUOUS
  5
82
 10
-44.571381
 20
6035.180031
 30
0.0
 11
-53.80935
 21
6044.418
 31
0.0
  0
LINE
  8
LC-003-005-----0
  6
CONTINUOUS
  5
83
 10
-44.571381
 20
6029.523177
 30
0.0
 11
-59.466204
 21
6044.418
 31
0.0
  0
LINE
  8
LC-003-005-----0
  6
CONTINUOUS
  5
84
 10
-44.571381
 20
6023.866323
 30
0.0
 11
-65.123058
 21
6044.418
 31
0.0
  0
LINE
  8
LC-003-005-----0
  6
CONTINUOUS
  5
85
 10
-47.779913
 20
6021.418
 30
0.0
 11
-70.779913
 21
6044.418
 31
0.0
  0
LINE
  8
LC-003-005-----0
  6
CONTINUOUS
  5
86
 10
-53.436767
 20
6021.418
 30
0.0
 11
-76.436767
 21
6044.418
 31
0.0
  0
LINE
  8
LC-003-005-----0
  6
CONTINUOUS
  5
87
 10
-59.093621
 20
6021.418
 30
0.0
 11
-82.093621
 21
6044.418
 31
0.0
  0
LINE
  8
LC-003-005-----0
  6
CONTINUOUS
  5
88
 10
-64.750475
 20
6021.418
 30
0.0
 11
-87.750475
 21
6044.418
 31
0.0
  0
LINE
  8
LC-003-005-----0
  6
CONTINUOUS
  5
89
 10
-70.40733
 20
6021.418
 30
0.0
 11
-93.40733
 21
6044.418
 31
0.0
  0
LINE
  8
LC-003-005-----0
  6
CONTINUOUS
  5
8A
 10
-76.064184
 20
6021.418
 30
0.0
 11
-99.064184
 21
6044.418
 31
0.0
  0
LINE
  8
LC-003-005-----0
  6
CONTINUOUS
  5
8B
 10
-81.721038
 20
6021.418
 30
0.0
 11
-104.721038
 21
6044.418
 31
0.0
  0
LINE
  8
LC-003-005-----0
  6
CONTINUOUS
  5
8C
 10
-87.377892
 20
6021.418
 30
0.0
 11
-110.377892
 21
6044.418
 31
0.0
  0
LINE
  8
LC-003-005-----0
  6
CONTINUOUS
  5
8D
 10
-93.034747
 20
6021.418
 30
0.0
 11
-114.071381
 21
6042.454635
 31
0.0
  0
LINE
  8
LC-003-005-----0
  6
CONTINUOUS
  5
8E
 10
-98.691601
 20
6021.418
 30
0.0
 11
-114.071381
 21
6036.79778
 31
0.0
  0
LINE
  8
LC-003-005-----0
  6
CONTINUOUS
  5
8F
 10
-104.348455
 20
6021.418
 30
0.0
 11
-114.071381
 21
6031.140926
 31
0.0
  0
LINE
  8
LC-003-005-----0
  6
CONTINUOUS
  5
90
 10
-110.005309
 20
6021.418
 30
0.0
 11
-114.071381
 21
6025.484072
 31
0.0
  0
ENDBLK
  8
0
  5
91
  0
BLOCK
  8
0
  5
93
  2
*X11
 70
    65
 10
-44.571381
 20
6021.418
 30
0.0
  3
*X11
  0
LINE
  8
LC-003-005-----0
  6
CONTINUOUS
  5
94
 10
19.495641
 20
6021.418
 30
0.0
 11
24.928619
 21
6026.850978
 31
0.0
  0
LINE
  8
LC-003-005-----0
  6
CONTINUOUS
  5
95
 10
13.838787
 20
6021.418
 30
0.0
 11
24.928619
 21
6032.507832
 31
0.0
  0
LINE
  8
LC-003-005-----0
  6
CONTINUOUS
  5
96
 10
8.181933
 20
6021.418
 30
0.0
 11
24.928619
 21
6038.164686
 31
0.0
  0
LINE
  8
LC-003-005-----0
  6
CONTINUOUS
  5
97
 10
2.525079
 20
6021.418
 30
0.0
 11
24.928619
 21
6043.82154
 31
0.0
  0
LINE
  8
LC-003-005-----0
  6
CONTINUOUS
  5
98
 10
-3.131776
 20
6021.418
 30
0.0
 11
19.868224
 21
6044.418
 31
0.0
  0
LINE
  8
LC-003-005-----0
  6
CONTINUOUS
  5
99
 10
-8.78863
 20
6021.418
 30
0.0
 11
14.21137
 21
6044.418
 31
0.0
  0
LINE
  8
LC-003-005-----0
  6
CONTINUOUS
  5
9A
 10
-14.445484
 20
6021.418
 30
0.0
 11
8.554516
 21
6044.418
 31
0.0
  0
LINE
  8
LC-003-005-----0
  6
CONTINUOUS
  5
9B
 10
-20.102338
 20
6021.418
 30
0.0
 11
2.897662
 21
6044.418
 31
0.0
  0
LINE
  8
LC-003-005-----0
  6
CONTINUOUS
  5
9C
 10
-25.759193
 20
6021.418
 30
0.0
 11
-2.759193
 21
6044.418
 31
0.0
  0
LINE
  8
LC-003-005-----0
  6
CONTINUOUS
  5
9D
 10
-31.416047
 20
6021.418
 30
0.0
 11
-8.416047
 21
6044.418
 31
0.0
  0
LINE
  8
LC-003-005-----0
  6
CONTINUOUS
  5
9E
 10
-37.072901
 20
6021.418
 30
0.0
 11
-14.072901
 21
6044.418
 31
0.0
  0
LINE
  8
LC-003-005-----0
  6
CONTINUOUS
  5
9F
 10
-42.729755
 20
6021.418
 30
0.0
 11
-19.729755
 21
6044.418
 31
0.0
  0
LINE
  8
LC-003-005-----0
  6
CONTINUOUS
  5
A0
 10
-44.571381
 20
6025.233229
 30
0.0
 11
-25.38661
 21
6044.418
 31
0.0
  0
LINE
  8
LC-003-005-----0
  6
CONTINUOUS
  5
A1
 10
-44.571381
 20
6030.890083
 30
0.0
 11
-31.043464
 21
6044.418
 31
0.0
  0
LINE
  8
LC-003-005-----0
  6
CONTINUOUS
  5
A2
 10
-44.571381
 20
6036.546937
 30
0.0
 11
-36.700318
 21
6044.418
 31
0.0
  0
LINE
  8
LC-003-005-----0
  6
CONTINUOUS
  5
A3
 10
-44.571381
 20
6042.203791
 30
0.0
 11
-42.357172
 21
6044.418
 31
0.0
  0
LINE
  8
LC-003-005-----0
  6
CONTINUOUS
  5
A4
 10
24.928619
 20
6039.219137
 30
0.0
 11
19.729755
 21
6044.418
 31
0.0
  0
LINE
  8
LC-003-005-----0
  6
CONTINUOUS
  5
A5
 10
24.928619
 20
6033.562282
 30
0.0
 11
14.072901
 21
6044.418
 31
0.0
  0
LINE
  8
LC-003-005-----0
  6
CONTINUOUS
  5
A6
 10
24.928619
 20
6027.905428
 30
0.0
 11
8.416047
 21
6044.418
 31
0.0
  0
LINE
  8
LC-003-005-----0
  6
CONTINUOUS
  5
A7
 10
24.928619
 20
6022.248574
 30
0.0
 11
2.759193
 21
6044.418
 31
0.0
  0
LINE
  8
LC-003-005-----0
  6
CONTINUOUS
  5
A8
 10
20.102338
 20
6021.418
 30
0.0
 11
-2.897662
 21
6044.418
 31
0.0
  0
LINE
  8
LC-003-005-----0
  6
CONTINUOUS
  5
A9
 10
14.445484
 20
6021.418
 30
0.0
 11
-8.554516
 21
6044.418
 31
0.0
  0
LINE
  8
LC-003-005-----0
  6
CONTINUOUS
  5
AA
 10
8.78863
 20
6021.418
 30
0.0
 11
-14.21137
 21
6044.418
 31
0.0
  0
LINE
  8
LC-003-005-----0
  6
CONTINUOUS
  5
AB
 10
3.131776
 20
6021.418
 30
0.0
 11
-19.868224
 21
6044.418
 31
0.0
  0
LINE
  8
LC-003-005-----0
  6
CONTINUOUS
  5
AC
 10
-2.525079
 20
6021.418
 30
0.0
 11
-25.525079
 21
6044.418
 31
0.0
  0
LINE
  8
LC-003-005-----0
  6
CONTINUOUS
  5
AD
 10
-8.181933
 20
6021.418
 30
0.0
 11
-31.181933
 21
6044.418
 31
0.0
  0
LINE
  8
LC-003-005-----0
  6
CONTINUOUS
  5
AE
 10
-13.838787
 20
6021.418
 30
0.0
 11
-36.838787
 21
6044.418
 31
0.0
  0
LINE
  8
LC-003-005-----0
  6
CONTINUOUS
  5
AF
 10
-19.495641
 20
6021.418
 30
0.0
 11
-42.495641
 21
6044.418
 31
0.0
  0
LINE
  8
LC-003-005-----0
  6
CONTINUOUS
  5
B0
 10
-25.152496
 20
6021.418
 30
0.0
 11
-44.571381
 21
6040.836886
 31
0.0
  0
LINE
  8
LC-003-005-----0
  6
CONTINUOUS
  5
B1
 10
-30.80935
 20
6021.418
 30
0.0
 11
-44.571381
 21
6035.180031
 31
0.0
  0
LINE
  8
LC-003-005-----0
  6
CONTINUOUS
  5
B2
 10
-36.466204
 20
6021.418
 30
0.0
 11
-44.571381
 21
6029.523177
 31
0.0
  0
LINE
  8
LC-003-005-----0
  6
CONTINUOUS
  5
B3
 10
-42.123058
 20
6021.418
 30
0.0
 11
-44.571381
 21
6023.866323
 31
0.0
  0
ENDBLK
  8
0
  5
B4
  0
BLOCK
  8
0
  5
B6
  2
*D12
 70
    65
 10
0.0
 20
0.0
 30
0.0
  3
*D12
  0
LINE
  8
LC-006-003-MTH-0
  6
CONTINUOUS
  5
B8
 10
-117.071381
 20
6027.418
 30
0.0
 11
-117.071381
 21
5941.6
 31
0.0
  0
LINE
  8
LC-006-003-MTH-0
  6
CONTINUOUS
  5
B9
 10
27.928619
 20
6027.418
 30
0.0
 11
27.928619
 21
5941.6
 31
0.0
  0
LINE
  8
LC-007-003-MTG-0
  6
CONTINUOUS
  5
BB
 10
-117.071381
 20
5958.4
 30
0.0
 11
27.928619
 21
5958.4
 31
0.0
  0
LINE
  8
LC-005-003-----0
  6
CONTINUOUS
  5
BD
 10
-89.310925
 20
5962.054733
 30
0.0
 11
-117.071381
 21
5958.4
 31
0.0
  0
LINE
  8
LC-005-003-----0
  6
CONTINUOUS
  5
BE
 10
-117.071381
 20
5958.4
 30
0.0
 11
-89.310925
 21
5954.745267
 31
0.0
  0
LINE
  8
LC-005-003-----0
  6
CONTINUOUS
  5
BF
 10
-89.310925
 20
5954.745267
 30
0.0
 11
-89.310925
 21
5962.054733
 31
0.0
  0
LINE
  8
LC-005-003-----0
  6
CONTINUOUS
  5
C0
 10
-89.248644
 20
5961.104503
 30
0.0
 11
-109.791381
 21
5958.4
 31
0.0
  0
LINE
  8
LC-005-003-----0
  6
CONTINUOUS
  5
C1
 10
-109.791381
 20
5958.4
 30
0.0
 11
-89.248644
 21
5955.695497
 31
0.0
  0
LINE
  8
LC-005-003-----0
  6
CONTINUOUS
  5
C2
 10
-89.186362
 20
5960.154272
 30
0.0
 11
-102.511381
 21
5958.4
 31
0.0
  0
LINE
  8
LC-005-003-----0
  6
CONTINUOUS
  5
C3
 10
-102.511381
 20
5958.4
 30
0.0
 11
-89.186362
 21
5956.645728
 31
0.0
  0
LINE
  8
LC-005-003-----0
  6
CONTINUOUS
  5
C4
 10
-89.124081
 20
5959.204041
 30
0.0
 11
-95.231381
 21
5958.4
 31
0.0
  0
LINE
  8
LC-005-003-----0
  6
CONTINUOUS
  5
C5
 10
-95.231381
 20
5958.4
 30
0.0
 11
-89.124081
 21
5957.595959
 31
0.0
  0
LINE
  8
LC-005-003-----0
  6
CONTINUOUS
  5
C6
 10
0.168163
 20
5954.745267
 30
0.0
 11
27.928619
 21
5958.4
 31
0.0
  0
LINE
  8
LC-005-003-----0
  6
CONTINUOUS
  5
C7
 10
27.928619
 20
5958.4
 30
0.0
 11
0.168163
 21
5962.054733
 31
0.0
  0
LINE
  8
LC-005-003-----0
  6
CONTINUOUS
  5
C8
 10
0.168163
 20
5962.054733
 30
0.0
 11
0.168163
 21
5954.745267
 31
0.0
  0
LINE
  8
LC-005-003-----0
  6
CONTINUOUS
  5
C9
 10
0.105881
 20
5955.695497
 30
0.0
 11
20.648619
 21
5958.4
 31
0.0
  0
LINE
  8
LC-005-003-----0
  6
CONTINUOUS
  5
CA
 10
20.648619
 20
5958.4
 30
0.0
 11
0.105881
 21
5961.104503
 31
0.0
  0
LINE
  8
LC-005-003-----0
  6
CONTINUOUS
  5
CB
 10
0.0436
 20
5956.645728
 30
0.0
 11
13.368619
 21
5958.4
 31
0.0
  0
LINE
  8
LC-005-003-----0
  6
CONTINUOUS
  5
CC
 10
13.368619
 20
5958.4
 30
0.0
 11
0.0436
 21
5960.154272
 31
0.0
  0
LINE
  8
LC-005-003-----0
  6
CONTINUOUS
  5
CD
 10
-0.018681
 20
5957.595959
 30
0.0
 11
6.088619
 21
5958.4
 31
0.0
  0
LINE
  8
LC-005-003-----0
  6
CONTINUOUS
  5
CE
 10
6.088619
 20
5958.4
 30
0.0
 11
-0.018681
 21
5959.204041
 31
0.0
  0
TEXT
  8
LC-005-003-----0
  6
CONTINUOUS
 62
     8
  5
D0
 10
-78.320859
 20
5966.227554
 30
0.0
 40
28.0
  1
Ø145
 41
0.9
 51
15.0
  7
LC-TXTSTYLE-150-400-0-0-D0
 72
     1
 11
-40.223221
 21
5966.227554
 31
0.0
  0
ENDBLK
  8
0
  5
D1
  0
BLOCK
  8
0
  5
D3
  2
*D13
 70
    65
 10
0.0
 20
0.0
 30
0.0
  3
*D13
  0
LINE
  8
LC-006-003-MTH-0
  6
CONTINUOUS
  5
D4
 10
-120.071381
 20
6221.418
 30
0.0
 11
-120.071381
 21
6249.6
 31
0.0
  0
LINE
  8
LC-006-003-MTH-0
  6
CONTINUOUS
  5
D5
 10
30.928619
 20
6219.893208
 30
0.0
 11
30.928619
 21
6249.6
 31
0.0
  0
LINE
  8
LC-007-003-MTG-0
  6
CONTINUOUS
  5
D6
 10
-120.071381
 20
6232.8
 30
0.0
 11
30.928619
 21
6232.8
 31
0.0
  0
LINE
  8
LC-005-003-----0
  6
CONTINUOUS
  5
D7
 10
-92.310925
 20
6236.454733
 30
0.0
 11
-120.071381
 21
6232.8
 31
0.0
  0
LINE
  8
LC-005-003-----0
  6
CONTINUOUS
  5
D8
 10
-120.071381
 20
6232.8
 30
0.0
 11
-92.310925
 21
6229.145267
 31
0.0
  0
LINE
  8
LC-005-003-----0
  6
CONTINUOUS
  5
D9
 10
-92.310925
 20
6229.145267
 30
0.0
 11
-92.310925
 21
6236.454733
 31
0.0
  0
LINE
  8
LC-005-003-----0
  6
CONTINUOUS
  5
DA
 10
-92.248644
 20
6235.504503
 30
0.0
 11
-112.791381
 21
6232.8
 31
0.0
  0
LINE
  8
LC-005-003-----0
  6
CONTINUOUS
  5
DB
 10
-112.791381
 20
6232.8
 30
0.0
 11
-92.248644
 21
6230.095497
 31
0.0
  0
LINE
  8
LC-005-003-----0
  6
CONTINUOUS
  5
DC
 10
-92.186362
 20
6234.554272
 30
0.0
 11
-105.511381
 21
6232.8
 31
0.0
  0
LINE
  8
LC-005-003-----0
  6
CONTINUOUS
  5
DD
 10
-105.511381
 20
6232.8
 30
0.0
 11
-92.186362
 21
6231.045728
 31
0.0
  0
LINE
  8
LC-005-003-----0
  6
CONTINUOUS
  5
DE
 10
-92.124081
 20
6233.604041
 30
0.0
 11
-98.231381
 21
6232.8
 31
0.0
  0
LINE
  8
LC-005-003-----0
  6
CONTINUOUS
  5
DF
 10
-98.231381
 20
6232.8
 30
0.0
 11
-92.124081
 21
6231.995959
 31
0.0
  0
LINE
  8
LC-005-003-----0
  6
CONTINUOUS
  5
E0
 10
3.168163
 20
6229.145267
 30
0.0
 11
30.928619
 21
6232.8
 31
0.0
  0
LINE
  8
LC-005-003-----0
  6
CONTINUOUS
  5
E1
 10
30.928619
 20
6232.8
 30
0.0
 11
3.168163
 21
6236.454733
 31
0.0
  0
LINE
  8
LC-005-003-----0
  6
CONTINUOUS
  5
E2
 10
3.168163
 20
6236.454733
 30
0.0
 11
3.168163
 21
6229.145267
 31
0.0
  0
LINE
  8
LC-005-003-----0
  6
CONTINUOUS
  5
E3
 10
3.105881
 20
6230.095497
 30
0.0
 11
23.648619
 21
6232.8
 31
0.0
  0
LINE
  8
LC-005-003-----0
  6
CONTINUOUS
  5
E4
 10
23.648619
 20
6232.8
 30
0.0
 11
3.105881
 21
6235.504503
 31
0.0
  0
LINE
  8
LC-005-003-----0
  6
CONTINUOUS
  5
E5
 10
3.0436
 20
6231.045728
 30
0.0
 11
16.368619
 21
6232.8
 31
0.0
  0
LINE
  8
LC-005-003-----0
  6
CONTINUOUS
  5
E6
 10
16.368619
 20
6232.8
 30
0.0
 11
3.0436
 21
6234.554272
 31
0.0
  0
LINE
  8
LC-005-003-----0
  6
CONTINUOUS
  5
E7
 10
2.981319
 20
6231.995959
 30
0.0
 11
9.088619
 21
6232.8
 31
0.0
  0
LINE
  8
LC-005-003-----0
  6
CONTINUOUS
  5
E8
 10
9.088619
 20
6232.8
 30
0.0
 11
2.981319
 21
6233.604041
 31
0.0
  0
TEXT
  8
LC-005-003-----0
  6
CONTINUOUS
 62
     8
  5
E9
 10
-69.987001
 20
6240.627554
 30
0.0
 40
28.0
  1
150
 51
15.0
  7
LC-TXTSTYLE-150-400-0-0-D0
 72
     1
 11
-40.223221
 21
6240.627554
 31
0.0
  0
ENDBLK
  8
0
  5
EA
  0
BLOCK
  8
0
  5
EC
  2
*D14
 70
    65
 10
0.0
 20
0.0
 30
0.0
  3
*D14
  0
LINE
  8
LC-006-003-MTH-0
  6
CONTINUOUS
  5
ED
 10
-121.071381
 20
6208.918
 30
0.0
 11
-173.6
 21
6208.918
 31
0.0
  0
LINE
  8
LC-006-003-MTH-0
  6
CONTINUOUS
  5
EE
 10
-116.046589
 20
6223.918
 30
0.0
 11
-173.6
 21
6223.918
 31
0.0
  0
LINE
  8
LC-005-003-----0
  6
CONTINUOUS
  5
EF
 10
-153.145267
 20
6181.157544
 30
0.0
 11
-156.8
 21
6208.918
 31
0.0
  0
LINE
  8
LC-005-003-----0
  6
CONTINUOUS
  5
F0
 10
-156.8
 20
6208.918
 30
0.0
 11
-160.454733
 21
6181.157544
 31
0.0
  0
LINE
  8
LC-005-003-----0
  6
CONTINUOUS
  5
F1
 10
-160.454733
 20
6181.157544
 30
0.0
 11
-153.145267
 21
6181.157544
 31
0.0
  0
LINE
  8
LC-005-003-----0
  6
CONTINUOUS
  5
F2
 10
-154.095497
 20
6181.095262
 30
0.0
 11
-156.8
 21
6201.638
 31
0.0
  0
LINE
  8
LC-005-003-----0
  6
CONTINUOUS
  5
F3
 10
-156.8
 20
6201.638
 30
0.0
 11
-159.504503
 21
6181.095262
 31
0.0
  0
LINE
  8
LC-005-003-----0
  6
CONTINUOUS
  5
F4
 10
-155.045728
 20
6181.032981
 30
0.0
 11
-156.8
 21
6194.358
 31
0.0
  0
LINE
  8
LC-005-003-----0
  6
CONTINUOUS
  5
F5
 10
-156.8
 20
6194.358
 30
0.0
 11
-158.554272
 21
6181.032981
 31
0.0
  0
LINE
  8
LC-005-003-----0
  6
CONTINUOUS
  5
F6
 10
-155.995959
 20
6180.9707
 30
0.0
 11
-156.8
 21
6187.078
 31
0.0
  0
LINE
  8
LC-005-003-----0
  6
CONTINUOUS
  5
F7
 10
-156.8
 20
6187.078
 30
0.0
 11
-157.604041
 21
6180.9707
 31
0.0
  0
LINE
  8
LC-005-003-----0
  6
CONTINUOUS
  5
F8
 10
-160.454733
 20
6251.678456
 30
0.0
 11
-156.8
 21
6223.918
 31
0.0
  0
LINE
  8
LC-005-003-----0
  6
CONTINUOUS
  5
F9
 10
-156.8
 20
6223.918
 30
0.0
 11
-153.145267
 21
6251.678456
 31
0.0
  0
LINE
  8
LC-005-003-----0
  6
CONTINUOUS
  5
FA
 10
-153.145267
 20
6251.678456
 30
0.0
 11
-160.454733
 21
6251.678456
 31
0.0
  0
LINE
  8
LC-005-003-----0
  6
CONTINUOUS
  5
FB
 10
-159.504503
 20
6251.740738
 30
0.0
 11
-156.8
 21
6231.198
 31
0.0
  0
LINE
  8
LC-005-003-----0
  6
CONTINUOUS
  5
FC
 10
-156.8
 20
6231.198
 30
0.0
 11
-154.095497
 21
6251.740738
 31
0.0
  0
LINE
  8
LC-005-003-----0
  6
CONTINUOUS
  5
FD
 10
-158.554272
 20
6251.803019
 30
0.0
 11
-156.8
 21
6238.478
 31
0.0
  0
LINE
  8
LC-005-003-----0
  6
CONTINUOUS
  5
FE
 10
-156.8
 20
6238.478
 30
0.0
 11
-155.045728
 21
6251.803019
 31
0.0
  0
LINE
  8
LC-005-003-----0
  6
CONTINUOUS
  5
FF
 10
-157.604041
 20
6251.8653
 30
0.0
 11
-156.8
 21
6245.758
 31
0.0
  0
LINE
  8
LC-005-003-----0
  6
CONTINUOUS
  5
100
 10
-156.8
 20
6245.758
 30
0.0
 11
-155.995959
 21
6251.8653
 31
0.0
  0
LINE
  8
LC-007-003-MTG-0
  6
CONTINUOUS
  5
101
 10
-156.8
 20
6169.718
 30
0.0
 11
-156.8
 21
6307.2824
 31
0.0
  0
TEXT
  8
LC-005-003-----0
  6
CONTINUOUS
 62
     8
  5
102
 10
-164.627554
 20
6266.34616
 30
0.0
 40
28.0
  1
15
 50
90.0
 51
15.0
  7
LC-TXTSTYLE-150-400-0-0-D0
  0
ENDBLK
  8
0
  5
103
  0
BLOCK
  8
0
  5
105
  2
*D15
 70
    65
 10
0.0
 20
0.0
 30
0.0
  3
*D15
  0
LINE
  8
LC-006-003-MTH-0
  6
CONTINUOUS
  5
106
 10
24.928619
 20
6021.418
 30
0.0
 11
95.2
 21
6021.418
 31
0.0
  0
LINE
  8
LC-006-003-MTH-0
  6
CONTINUOUS
  5
107
 10
24.928619
 20
6044.418
 30
0.0
 11
95.2
 21
6044.418
 31
0.0
  0
LINE
  8
LC-005-003-----0
  6
CONTINUOUS
  5
108
 10
82.054733
 20
5993.657544
 30
0.0
 11
78.4
 21
6021.418
 31
0.0
  0
LINE
  8
LC-005-003-----0
  6
CONTINUOUS
  5
109
 10
78.4
 20
6021.418
 30
0.0
 11
74.745267
 21
5993.657544
 31
0.0
  0
LINE
  8
LC-005-003-----0
  6
CONTINUOUS
  5
10A
 10
74.745267
 20
5993.657544
 30
0.0
 11
82.054733
 21
5993.657544
 31
0.0
  0
LINE
  8
LC-005-003-----0
  6
CONTINUOUS
  5
10B
 10
81.104503
 20
5993.595262
 30
0.0
 11
78.4
 21
6014.138
 31
0.0
  0
LINE
  8
LC-005-003-----0
  6
CONTINUOUS
  5
10C
 10
78.4
 20
6014.138
 30
0.0
 11
75.695497
 21
5993.595262
 31
0.0
  0
LINE
  8
LC-005-003-----0
  6
CONTINUOUS
  5
10D
 10
80.154272
 20
5993.532981
 30
0.0
 11
78.4
 21
6006.858
 31
0.0
  0
LINE
  8
LC-005-003-----0
  6
CONTINUOUS
  5
10E
 10
78.4
 20
6006.858
 30
0.0
 11
76.645728
 21
5993.532981
 31
0.0
  0
LINE
  8
LC-005-003-----0
  6
CONTINUOUS
  5
10F
 10
79.204041
 20
5993.4707
 30
0.0
 11
78.4
 21
5999.578
 31
0.0
  0
LINE
  8
LC-005-003-----0
  6
CONTINUOUS
  5
110
 10
78.4
 20
5999.578
 30
0.0
 11
77.595959
 21
5993.4707
 31
0.0
  0
LINE
  8
LC-005-003-----0
  6
CONTINUOUS
  5
111
 10
74.745267
 20
6072.178456
 30
0.0
 11
78.4
 21
6044.418
 31
0.0
  0
LINE
  8
LC-005-003-----0
  6
CONTINUOUS
  5
112
 10
78.4
 20
6044.418
 30
0.0
 11
82.054733
 21
6072.178456
 31
0.0
  0
LINE
  8
LC-005-003-----0
  6
CONTINUOUS
  5
113
 10
82.054733
 20
6072.178456
 30
0.0
 11
74.745267
 21
6072.178456
 31
0.0
  0
LINE
  8
LC-005-003-----0
  6
CONTINUOUS
  5
114
 10
75.695497
 20
6072.240738
 30
0.0
 11
78.4
 21
6051.698
 31
0.0
  0
LINE
  8
LC-005-003-----0
  6
CONTINUOUS
  5
115
 10
78.4
 20
6051.698
 30
0.0
 11
81.104503
 21
6072.240738
 31
0.0
  0
LINE
  8
LC-005-003-----0
  6
CONTINUOUS
  5
116
 10
76.645728
 20
6072.303019
 30
0.0
 11
78.4
 21
6058.978
 31
0.0
  0
LINE
  8
LC-005-003-----0
  6
CONTINUOUS
  5
117
 10
78.4
 20
6058.978
 30
0.0
 11
80.154272
 21
6072.303019
 31
0.0
  0
LINE
  8
LC-005-003-----0
  6
CONTINUOUS
  5
118
 10
77.595959
 20
6072.3653
 30
0.0
 11
78.4
 21
6066.258
 31
0.0
  0
LINE
  8
LC-005-003-----0
  6
CONTINUOUS
  5
119
 10
78.4
 20
6066.258
 30
0.0
 11
79.204041
 21
6072.3653
 31
0.0
  0
LINE
  8
LC-007-003-MTG-0
  6
CONTINUOUS
  5
11A
 10
78.4
 20
5982.218
 30
0.0
 11
78.4
 21
6127.7824
 31
0.0
  0
TEXT
  8
LC-005-003-----0
  6
CONTINUOUS
 62
     8
  5
11B
 10
70.572446
 20
6086.84616
 30
0.0
 40
28.0
  1
23
 50
90.0
 51
15.0
  7
LC-TXTSTYLE-150-400-0-0-D0
  0
ENDBLK
  8
0
  5
11C
  0
BLOCK
  8
0
  5
11E
  2
*D16
 70
    65
 10
0.0
 20
0.0
 30
0.0
  3
*D16
  0
LINE
  8
LC-006-003-MTH-0
  6
CONTINUOUS
  5
11F
 10
24.928619
 20
6044.418
 30
0.0
 11
134.4
 21
6044.418
 31
0.0
  0
LINE
  8
LC-006-003-MTH-0
  6
CONTINUOUS
  5
120
 10
26.903827
 20
6223.918
 30
0.0
 11
134.4
 21
6223.918
 31
0.0
  0
LINE
  8
LC-007-003-MTG-0
  6
CONTINUOUS
  5
121
 10
117.6
 20
6044.418
 30
0.0
 11
117.6
 21
6223.918
 31
0.0
  0
LINE
  8
LC-005-003-----0
  6
CONTINUOUS
  5
122
 10
113.945267
 20
6072.178456
 30
0.0
 11
117.6
 21
6044.418
 31
0.0
  0
LINE
  8
LC-005-003-----0
  6
CONTINUOUS
  5
123
 10
117.6
 20
6044.418
 30
0.0
 11
121.254733
 21
6072.178456
 31
0.0
  0
LINE
  8
LC-005-003-----0
  6
CONTINUOUS
  5
124
 10
121.254733
 20
6072.178456
 30
0.0
 11
113.945267
 21
6072.178456
 31
0.0
  0
LINE
  8
LC-005-003-----0
  6
CONTINUOUS
  5
125
 10
114.895497
 20
6072.240738
 30
0.0
 11
117.6
 21
6051.698
 31
0.0
  0
LINE
  8
LC-005-003-----0
  6
CONTINUOUS
  5
126
 10
117.6
 20
6051.698
 30
0.0
 11
120.304503
 21
6072.240738
 31
0.0
  0
LINE
  8
LC-005-003-----0
  6
CONTINUOUS
  5
127
 10
115.845728
 20
6072.303019
 30
0.0
 11
117.6
 21
6058.978
 31
0.0
  0
LINE
  8
LC-005-003-----0
  6
CONTINUOUS
  5
128
 10
117.6
 20
6058.978
 30
0.0
 11
119.354272
 21
6072.303019
 31
0.0
  0
LINE
  8
LC-005-003-----0
  6
CONTINUOUS
  5
129
 10
116.795959
 20
6072.3653
 30
0.0
 11
117.6
 21
6066.258
 31
0.0
  0
LINE
  8
LC-005-003-----0
  6
CONTINUOUS
  5
12A
 10
117.6
 20
6066.258
 30
0.0
 11
118.404041
 21
6072.3653
 31
0.0
  0
LINE
  8
LC-005-003-----0
  6
CONTINUOUS
  5
12B
 10
121.254733
 20
6196.157544
 30
0.0
 11
117.6
 21
6223.918
 31
0.0
  0
LINE
  8
LC-005-003-----0
  6
CONTINUOUS
  5
12C
 10
117.6
 20
6223.918
 30
0.0
 11
113.945267
 21
6196.157544
 31
0.0
  0
LINE
  8
LC-005-003-----0
  6
CONTINUOUS
  5
12D
 10
113.945267
 20
6196.157544
 30
0.0
 11
121.254733
 21
6196.157544
 31
0.0
  0
LINE
  8
LC-005-003-----0
  6
CONTINUOUS
  5
12E
 10
120.304503
 20
6196.095262
 30
0.0
 11
117.6
 21
6216.638
 31
0.0
  0
LINE
  8
LC-005-003-----0
  6
CONTINUOUS
  5
12F
 10
117.6
 20
6216.638
 30
0.0
 11
114.895497
 21
6196.095262
 31
0.0
  0
LINE
  8
LC-005-003-----0
  6
CONTINUOUS
  5
130
 10
119.354272
 20
6196.032981
 30
0.0
 11
117.6
 21
6209.358
 31
0.0
  0
LINE
  8
LC-005-003-----0
  6
CONTINUOUS
  5
131
 10
117.6
 20
6209.358
 30
0.0
 11
115.845728
 21
6196.032981
 31
0.0
  0
LINE
  8
LC-005-003-----0
  6
CONTINUOUS
  5
132
 10
118.404041
 20
6195.9707
 30
0.0
 11
117.6
 21
6202.078
 31
0.0
  0
LINE
  8
LC-005-003-----0
  6
CONTINUOUS
  5
133
 10
117.6
 20
6202.078
 30
0.0
 11
116.795959
 21
6195.9707
 31
0.0
  0
TEXT
  8
LC-005-003-----0
  6
CONTINUOUS
 62
     8
  5
134
 10
109.772446
 20
6073.531908
 30
0.0
 40
28.0
  1
10-180
 50
90.0
 51
15.0
  7
LC-TXTSTYLE-150-400-0-0-D0
 72
     1
 11
109.772446
 21
6138.51616
 31
0.0
  0
ENDBLK
  8
0
  5
135
  0
BLOCK
  8
0
  5
137
  2
BLK10
 70
    64
 10
0.0
 20
0.0
 30
0.0
  3
BLK10
  0
ENDBLK
  8
0
  5
138
  0
BLOCK
  8
0
  5
13A
  2
BLK11
 70
    64
 10
0.0
 20
0.0
 30
0.0
  3
BLK11
  0
ENDBLK
  8
0
  5
13B
  0
BLOCK
  8
0
  5
13D
  2
BLK12
 70
    64
 10
0.0
 20
0.0
 30
0.0
  3
BLK12
  0
ENDBLK
  8
0
  5
13E
  0
ENDSEC
  0
SECTION
  2
ENTITIES
  0
VIEWPORT
  8
LC-000
  5
2DA
 67
     1
 68
     1
 10
420.0
 20
297.0
 30
0.0
 40
840.0
 41
594.0
 69
     1
1001
ACAD
1000
MVIEW
1002
{
1070
    16
1010
0.0
1020
0.0
1030
0.0
1010
0.0
1020
0.0
1030
1.0
1040
0.0
1040
594.0
1040
420.0
1040
297.0
1040
50.0
1040
0.0
1040
0.0
1070
     0
1070
   100
1070
     1
1070
     1
1070
     0
1070
     0
1070
     0
1070
     0
1040
0.0
1040
0.0
1040
0.0
1040
1.0
1040
1.0
1040
0.0
1040
0.0
1070
     0
1002
{
1002
}
1002
}
  0
VIEWPORT
  8
0
  5
2DB
 67
     1
 68
     1
 10
0.0
 20
0.0
 30
0.0
 40
0.0
 41
0.0
 69
     1
1001
ACAD
1000
MVIEW
1002
{
1070
    16
1010
0.0
1020
0.0
1030
0.0
1010
0.0
1020
0.0
1030
1.0
1040
0.0
1040
594.0
1040
0.0
1040
0.0
1040
50.0
1040
0.0
1040
0.0
1070
     0
1070
   100
1070
     0
1070
     1
1070
     0
1070
     0
1070
     0
1070
     0
1040
0.0
1040
0.0
1040
0.0
1040
0.5
1040
0.5
1040
0.5
1040
0.5
1070
     0
1002
{
1002
}
1002
}
  0
INSERT
  8
0
  5
140
  2
BLK1
 10
0.0
 20
0.0
 30
0.0
  0
INSERT
  8
0
  5
141
  2
BLK2
 10
0.0
 20
0.0
 30
0.0
  0
INSERT
  8
0
  5
142
  2
BLK3
 10
0.0
 20
0.0
 30
0.0
  0
INSERT
  8
0
  5
143
  2
BLK4
 10
0.0
 20
0.0
 30
0.0
  0
INSERT
  8
0
  5
144
  2
BLK5
 10
0.0
 20
0.0
 30
0.0
  0
INSERT
  8
0
  5
145
  2
BLK6
 10
0.0
 20
0.0
 30
0.0
  0
INSERT
  8
0
  5
146
  2
BLK7
 10
0.0
 20
0.0
 30
0.0
  0
INSERT
  8
0
  5
147
  2
BLK8
 10
0.0
 20
0.0
 30
0.0
  0
INSERT
  8
0
  5
148
  2
*X8
 10
-113.549381
 20
6218.918
 30
0.0
  0
INSERT
  8
0
  5
149
  2
BLK9
 10
0.0
 20
0.0
 30
0.0
  0
INSERT
  8
0
  5
14A
  2
*X10
 10
-114.071381
 20
6021.418
 30
0.0
  0
INSERT
  8
0
  5
14B
  2
*X11
 10
-44.571381
 20
6021.418
 30
0.0
  0
DIMENSION
  8
0
  5
14C
  2
*D12
 10
-44.571381
 20
5958.4
 30
0.0
 11
-44.571381
 21
5958.4
 31
0.0
  1
%%c<>
 13
-117.071381
 23
6027.418
 33
0.0
 14
27.928619
 24
6027.418
 34
0.0
  3
LC-DIM-L-0140-02-02
  0
DIMENSION
  8
0
  5
14D
  2
*D13
 10
-44.571381
 20
6232.8
 30
0.0
 11
-44.571381
 21
6232.8
 31
0.0
  1
150
 13
-120.071381
 23
6221.418
 33
0.0
 14
30.928619
 24
6219.893208
 34
0.0
  3
LC-DIM-L-0140-02-02
  0
DIMENSION
  8
0
  5
14E
  2
*D14
 10
-156.8
 20
6216.418
 30
0.0
 11
-156.8
 21
6216.418
 31
0.0
 13
-116.046589
 23
6223.918
 33
0.0
 14
-121.071381
 24
6208.918
 34
0.0
 50
90.0
  3
LC-DIM-L-0140-02-02
  0
DIMENSION
  8
0
  5
14F
  2
*D15
 10
78.4
 20
6032.918
 30
0.0
 11
78.4
 21
6032.918
 31
0.0
 13
24.928619
 23
6044.418
 33
0.0
 14
24.928619
 24
6021.418
 34
0.0
 50
90.0
  3
LC-DIM-L-0140-02-02
  0
DIMENSION
  8
0
  5
150
  2
*D16
 10
117.6
 20
6134.168
 30
0.0
 11
117.6
 21
6134.168
 31
0.0
  1
10-180
 13
24.928619
 23
6044.418
 33
0.0
 14
26.903827
 24
6223.918
 34
0.0
 50
90.0
  3
LC-DIM-L-0140-02-02
  0
INSERT
  8
0
  5
151
  2
BLK10
 10
0.0
 20
0.0
 30
0.0
  0
INSERT
  8
0
  5
152
  2
BLK11
 10
0.0
 20
0.0
 30
0.0
  0
INSERT
  8
0
  5
153
  2
BLK12
 10
0.0
 20
0.0
 30
0.0
  0
LINE
  8
LC-001-002-----0
  6
CONTINUOUS
  5
155
 10
-86.478313
 20
6242.040748
 30
0.0
 11
-71.478313
 21
6242.040748
 31
0.0
  0
LINE
  8
LC-001-002-----0
  6
CONTINUOUS
  5
156
 10
-71.478313
 20
6242.040748
 30
0.0
 11
-71.478313
 21
6257.040748
 31
0.0
  0
LINE
  8
LC-003-005-----0
  6
CONTINUOUS
  5
157
 10
29.928619
 20
6220.870313
 30
0.0
 11
27.880931
 21
6222.918
 31
0.0
  0
LINE
  8
LC-001-002-----0
  6
CONTINUOUS
  5
158
 10
-86.478313
 20
6257.040748
 30
0.0
 11
-71.478313
 21
6257.040748
 31
0.0
  0
LINE
  8
LC-001-002-----0
  6
CONTINUOUS
  5
159
 10
-86.478313
 20
6242.040748
 30
0.0
 11
-86.478313
 21
6257.040748
 31
0.0
  0
LINE
  8
LC-003-005-----0
  6
CONTINUOUS
  5
15A
 10
29.928619
 20
6217.334779
 30
0.0
 11
25.928619
 21
6221.334779
 31
0.0
  0
LINE
  8
LC-003-005-----0
  6
CONTINUOUS
  5
15B
 10
31.928619
 20
6211.799245
 30
0.0
 11
30.928619
 21
6212.799245
 31
0.0
  0
LINE
  8
LC-003-005-----0
  6
CONTINUOUS
  5
15C
 10
29.928619
 20
6213.799245
 30
0.0
 11
25.928619
 21
6217.799245
 31
0.0
  0
LINE
  8
LC-003-005-----0
  6
CONTINUOUS
  5
15D
 10
31.27433
 20
6208.918
 30
0.0
 11
25.928619
 21
6214.263711
 31
0.0
  0
LINE
  8
LC-003-005-----0
  6
CONTINUOUS
  5
15E
 10
27.928619
 20
6208.728177
 30
0.0
 11
25.928619
 21
6210.728177
 31
0.0
  0
LINE
  8
LC-003-005-----0
  6
CONTINUOUS
  5
15F
 10
27.928619
 20
6205.192643
 30
0.0
 11
25.928619
 21
6207.192643
 31
0.0
  0
LINE
  8
LC-001-002-----0
  6
DASHDOT
  5
161
 10
-44.571381
 20
6223.918
 30
0.0
 11
-44.571381
 21
6021.418
 31
0.0
  0
LINE
  8
LC-003-005-----0
  6
CONTINUOUS
  5
162
 10
27.928619
 20
6201.657109
 30
0.0
 11
25.928619
 21
6203.657109
 31
0.0
  0
LINE
  8
LC-003-005-----0
  6
CONTINUOUS
  5
163
 10
27.928619
 20
6198.121575
 30
0.0
 11
24.928619
 21
6201.121575
 31
0.0
  0
LINE
  8
LC-003-005-----0
  6
CONTINUOUS
  5
164
 10
27.928619
 20
6194.586041
 30
0.0
 11
24.928619
 21
6197.586041
 31
0.0
  0
LINE
  8
LC-003-005-----0
  6
CONTINUOUS
  5
165
 10
27.928619
 20
6191.050507
 30
0.0
 11
24.928619
 21
6194.050507
 31
0.0
  0
LINE
  8
LC-003-005-----0
  6
CONTINUOUS
  5
166
 10
27.928619
 20
6187.514973
 30
0.0
 11
24.928619
 21
6190.514973
 31
0.0
  0
LINE
  8
LC-003-005-----0
  6
CONTINUOUS
  5
167
 10
27.928619
 20
6183.97944
 30
0.0
 11
24.928619
 21
6186.97944
 31
0.0
  0
LINE
  8
LC-003-005-----0
  6
CONTINUOUS
  5
168
 10
27.928619
 20
6180.443906
 30
0.0
 11
24.928619
 21
6183.443906
 31
0.0
  0
LINE
  8
LC-003-005-----0
  6
CONTINUOUS
  5
169
 10
27.928619
 20
6176.908372
 30
0.0
 11
24.928619
 21
6179.908372
 31
0.0
  0
LINE
  8
LC-003-005-----0
  6
CONTINUOUS
  5
16A
 10
27.928619
 20
6173.372838
 30
0.0
 11
24.928619
 21
6176.372838
 31
0.0
  0
LINE
  8
LC-003-005-----0
  6
CONTINUOUS
  5
16B
 10
27.928619
 20
6169.837304
 30
0.0
 11
24.928619
 21
6172.837304
 31
0.0
  0
LINE
  8
LC-003-005-----0
  6
CONTINUOUS
  5
16C
 10
27.928619
 20
6166.30177
 30
0.0
 11
24.928619
 21
6169.30177
 31
0.0
  0
LINE
  8
LC-003-005-----0
  6
CONTINUOUS
  5
16D
 10
27.928619
 20
6162.766236
 30
0.0
 11
24.928619
 21
6165.766236
 31
0.0
  0
LINE
  8
LC-003-005-----0
  6
CONTINUOUS
  5
16E
 10
27.928619
 20
6159.230702
 30
0.0
 11
24.928619
 21
6162.230702
 31
0.0
  0
LINE
  8
LC-003-005-----0
  6
CONTINUOUS
  5
16F
 10
27.928619
 20
6155.695168
 30
0.0
 11
24.928619
 21
6158.695168
 31
0.0
  0
LINE
  8
LC-003-005-----0
  6
CONTINUOUS
  5
170
 10
27.928619
 20
6152.159634
 30
0.0
 11
24.928619
 21
6155.159634
 31
0.0
  0
LINE
  8
LC-003-005-----0
  6
CONTINUOUS
  5
171
 10
27.928619
 20
6148.624101
 30
0.0
 11
24.928619
 21
6151.624101
 31
0.0
  0
LINE
  8
LC-003-005-----0
  6
CONTINUOUS
  5
172
 10
27.928619
 20
6145.088567
 30
0.0
 11
24.928619
 21
6148.088567
 31
0.0
  0
LINE
  8
LC-003-005-----0
  6
CONTINUOUS
  5
173
 10
27.928619
 20
6141.553033
 30
0.0
 11
24.928619
 21
6144.553033
 31
0.0
  0
LINE
  8
LC-003-005-----0
  6
CONTINUOUS
  5
174
 10
27.928619
 20
6138.017499
 30
0.0
 11
24.928619
 21
6141.017499
 31
0.0
  0
LINE
  8
LC-003-005-----0
  6
CONTINUOUS
  5
175
 10
27.928619
 20
6134.481965
 30
0.0
 11
24.928619
 21
6137.481965
 31
0.0
  0
LINE
  8
LC-003-005-----0
  6
CONTINUOUS
  5
176
 10
27.928619
 20
6130.946431
 30
0.0
 11
24.928619
 21
6133.946431
 31
0.0
  0
LINE
  8
LC-003-005-----0
  6
CONTINUOUS
  5
177
 10
27.928619
 20
6127.410897
 30
0.0
 11
24.928619
 21
6130.410897
 31
0.0
  0
LINE
  8
LC-003-005-----0
  6
CONTINUOUS
  5
178
 10
27.928619
 20
6123.875363
 30
0.0
 11
24.928619
 21
6126.875363
 31
0.0
  0
LINE
  8
LC-003-005-----0
  6
CONTINUOUS
  5
179
 10
27.928619
 20
6120.339829
 30
0.0
 11
24.928619
 21
6123.339829
 31
0.0
  0
LINE
  8
LC-003-005-----0
  6
CONTINUOUS
  5
17A
 10
27.928619
 20
6116.804295
 30
0.0
 11
24.928619
 21
6119.804295
 31
0.0
  0
LINE
  8
LC-003-005-----0
  6
CONTINUOUS
  5
17B
 10
27.928619
 20
6113.268761
 30
0.0
 11
24.928619
 21
6116.268761
 31
0.0
  0
LINE
  8
LC-003-005-----0
  6
CONTINUOUS
  5
17C
 10
27.928619
 20
6109.733228
 30
0.0
 11
24.928619
 21
6112.733228
 31
0.0
  0
LINE
  8
LC-003-005-----0
  6
CONTINUOUS
  5
17D
 10
27.928619
 20
6106.197694
 30
0.0
 11
24.928619
 21
6109.197694
 31
0.0
  0
LINE
  8
LC-003-005-----0
  6
CONTINUOUS
  5
17E
 10
27.928619
 20
6102.66216
 30
0.0
 11
24.928619
 21
6105.66216
 31
0.0
  0
LINE
  8
LC-003-005-----0
  6
CONTINUOUS
  5
17F
 10
27.928619
 20
6099.126626
 30
0.0
 11
24.928619
 21
6102.126626
 31
0.0
  0
LINE
  8
LC-003-005-----0
  6
CONTINUOUS
  5
180
 10
27.928619
 20
6095.591092
 30
0.0
 11
24.928619
 21
6098.591092
 31
0.0
  0
LINE
  8
LC-003-005-----0
  6
CONTINUOUS
  5
181
 10
27.928619
 20
6092.055558
 30
0.0
 11
24.928619
 21
6095.055558
 31
0.0
  0
LINE
  8
LC-003-005-----0
  6
CONTINUOUS
  5
182
 10
27.928619
 20
6088.520024
 30
0.0
 11
24.928619
 21
6091.520024
 31
0.0
  0
LINE
  8
LC-003-005-----0
  6
CONTINUOUS
  5
183
 10
27.928619
 20
6084.98449
 30
0.0
 11
24.928619
 21
6087.98449
 31
0.0
  0
LINE
  8
LC-003-005-----0
  6
CONTINUOUS
  5
184
 10
27.928619
 20
6081.448956
 30
0.0
 11
24.928619
 21
6084.448956
 31
0.0
  0
LINE
  8
LC-003-005-----0
  6
CONTINUOUS
  5
185
 10
27.928619
 20
6077.913422
 30
0.0
 11
24.928619
 21
6080.913422
 31
0.0
  0
LINE
  8
LC-003-005-----0
  6
CONTINUOUS
  5
186
 10
27.928619
 20
6074.377888
 30
0.0
 11
24.928619
 21
6077.377888
 31
0.0
  0
LINE
  8
LC-003-005-----0
  6
CONTINUOUS
  5
187
 10
27.928619
 20
6070.842355
 30
0.0
 11
24.928619
 21
6073.842355
 31
0.0
  0
LINE
  8
LC-003-005-----0
  6
CONTINUOUS
  5
188
 10
27.928619
 20
6067.306821
 30
0.0
 11
24.928619
 21
6070.306821
 31
0.0
  0
LINE
  8
LC-003-005-----0
  6
CONTINUOUS
  5
189
 10
27.928619
 20
6063.771287
 30
0.0
 11
24.928619
 21
6066.771287
 31
0.0
  0
LINE
  8
LC-003-005-----0
  6
CONTINUOUS
  5
18A
 10
27.928619
 20
6060.235753
 30
0.0
 11
24.928619
 21
6063.235753
 31
0.0
  0
LINE
  8
LC-003-005-----0
  6
CONTINUOUS
  5
18B
 10
27.928619
 20
6056.700219
 30
0.0
 11
24.928619
 21
6059.700219
 31
0.0
  0
LINE
  8
LC-003-005-----0
  6
CONTINUOUS
  5
18C
 10
27.928619
 20
6053.164685
 30
0.0
 11
24.928619
 21
6056.164685
 31
0.0
  0
LINE
  8
LC-003-005-----0
  6
CONTINUOUS
  5
18D
 10
27.928619
 20
6049.629151
 30
0.0
 11
24.928619
 21
6052.629151
 31
0.0
  0
LINE
  8
LC-003-005-----0
  6
CONTINUOUS
  5
18E
 10
27.928619
 20
6046.093617
 30
0.0
 11
24.928619
 21
6049.093617
 31
0.0
  0
LINE
  8
LC-003-005-----0
  6
CONTINUOUS
  5
18F
 10
27.928619
 20
6042.558083
 30
0.0
 11
24.928619
 21
6045.558083
 31
0.0
  0
LINE
  8
LC-003-005-----0
  6
CONTINUOUS
  5
190
 10
27.928619
 20
6039.022549
 30
0.0
 11
24.928619
 21
6042.022549
 31
0.0
  0
LINE
  8
LC-003-005-----0
  6
CONTINUOUS
  5
191
 10
27.928619
 20
6035.487016
 30
0.0
 11
24.928619
 21
6038.487016
 31
0.0
  0
LINE
  8
LC-003-005-----0
  6
CONTINUOUS
  5
192
 10
27.928619
 20
6031.951482
 30
0.0
 11
24.928619
 21
6034.951482
 31
0.0
  0
LINE
  8
LC-003-005-----0
  6
CONTINUOUS
  5
193
 10
27.928619
 20
6028.415948
 30
0.0
 11
24.928619
 21
6031.415948
 31
0.0
  0
LINE
  8
LC-003-005-----0
  6
CONTINUOUS
  5
194
 10
27.392364
 20
6025.416669
 30
0.0
 11
24.928619
 21
6027.880414
 31
0.0
  0
LINE
  8
LC-003-005-----0
  6
CONTINUOUS
  5
195
 10
26.645218
 20
6022.628281
 30
0.0
 11
24.928619
 21
6024.34488
 31
0.0
  0
LINE
  8
LC-003-005-----0
  6
CONTINUOUS
  5
196
 10
-117.218094
 20
6208.918
 30
0.0
 11
-121.071381
 21
6212.771287
 31
0.0
  0
LINE
  8
LC-003-005-----0
  6
CONTINUOUS
  5
197
 10
-115.071381
 20
6220.913422
 30
0.0
 11
-117.075959
 21
6222.918
 31
0.0
  0
LINE
  8
LC-003-005-----0
  6
CONTINUOUS
  5
198
 10
-115.071381
 20
6217.377888
 30
0.0
 11
-119.071381
 21
6221.377888
 31
0.0
  0
LINE
  8
LC-003-005-----0
  6
CONTINUOUS
  5
199
 10
-115.071381
 20
6213.842355
 30
0.0
 11
-119.071381
 21
6217.842355
 31
0.0
  0
LINE
  8
LC-003-005-----0
  6
CONTINUOUS
  5
19A
 10
-115.071381
 20
6210.306821
 30
0.0
 11
-119.071381
 21
6214.306821
 31
0.0
  0
LINE
  8
LC-003-005-----0
  6
CONTINUOUS
  5
19B
 10
-115.071381
 20
6206.771287
 30
0.0
 11
-117.071381
 21
6208.771287
 31
0.0
  0
LINE
  8
LC-003-005-----0
  6
CONTINUOUS
  5
19C
 10
-114.071381
 20
6202.235753
 30
0.0
 11
-114.753628
 21
6202.918
 31
0.0
  0
LINE
  8
LC-003-005-----0
  6
CONTINUOUS
  5
19D
 10
-115.071381
 20
6203.235753
 30
0.0
 11
-117.071381
 21
6205.235753
 31
0.0
  0
LINE
  8
LC-003-005-----0
  6
CONTINUOUS
  5
19E
 10
-120.753628
 20
6208.918
 30
0.0
 11
-121.071381
 21
6209.235753
 31
0.0
  0
LINE
  8
LC-003-005-----0
  6
CONTINUOUS
  5
19F
 10
-114.071381
 20
6198.700219
 30
0.0
 11
-117.071381
 21
6201.700219
 31
0.0
  0
LINE
  8
LC-003-005-----0
  6
CONTINUOUS
  5
1A0
 10
-114.071381
 20
6195.164685
 30
0.0
 11
-117.071381
 21
6198.164685
 31
0.0
  0
LINE
  8
LC-003-005-----0
  6
CONTINUOUS
  5
1A1
 10
-114.071381
 20
6191.629151
 30
0.0
 11
-117.071381
 21
6194.629151
 31
0.0
  0
LINE
  8
LC-003-005-----0
  6
CONTINUOUS
  5
1A2
 10
-114.071381
 20
6188.093617
 30
0.0
 11
-117.071381
 21
6191.093617
 31
0.0
  0
LINE
  8
LC-003-005-----0
  6
CONTINUOUS
  5
1A3
 10
-114.071381
 20
6184.558083
 30
0.0
 11
-117.071381
 21
6187.558083
 31
0.0
  0
LINE
  8
LC-003-005-----0
  6
CONTINUOUS
  5
1A4
 10
-114.071381
 20
6181.022549
 30
0.0
 11
-117.071381
 21
6184.022549
 31
0.0
  0
LINE
  8
LC-003-005-----0
  6
CONTINUOUS
  5
1A5
 10
-114.071381
 20
6177.487016
 30
0.0
 11
-117.071381
 21
6180.487016
 31
0.0
  0
LINE
  8
LC-003-005-----0
  6
CONTINUOUS
  5
1A6
 10
-114.071381
 20
6173.951482
 30
0.0
 11
-117.071381
 21
6176.951482
 31
0.0
  0
LINE
  8
LC-003-005-----0
  6
CONTINUOUS
  5
1A7
 10
-114.071381
 20
6170.415948
 30
0.0
 11
-117.071381
 21
6173.415948
 31
0.0
  0
LINE
  8
LC-003-005-----0
  6
CONTINUOUS
  5
1A8
 10
-114.071381
 20
6166.880414
 30
0.0
 11
-117.071381
 21
6169.880414
 31
0.0
  0
LINE
  8
LC-003-005-----0
  6
CONTINUOUS
  5
1A9
 10
-114.071381
 20
6163.34488
 30
0.0
 11
-117.071381
 21
6166.34488
 31
0.0
  0
LINE
  8
LC-003-005-----0
  6
CONTINUOUS
  5
1AA
 10
-114.071381
 20
6159.809346
 30
0.0
 11
-117.071381
 21
6162.809346
 31
0.0
  0
LINE
  8
LC-003-005-----0
  6
CONTINUOUS
  5
1AB
 10
-114.071381
 20
6156.273812
 30
0.0
 11
-117.071381
 21
6159.273812
 31
0.0
  0
LINE
  8
LC-003-005-----0
  6
CONTINUOUS
  5
1AC
 10
-114.071381
 20
6152.738278
 30
0.0
 11
-117.071381
 21
6155.738278
 31
0.0
  0
LINE
  8
LC-003-005-----0
  6
CONTINUOUS
  5
1AD
 10
-114.071381
 20
6149.202744
 30
0.0
 11
-117.071381
 21
6152.202744
 31
0.0
  0
LINE
  8
LC-003-005-----0
  6
CONTINUOUS
  5
1AE
 10
-114.071381
 20
6145.66721
 30
0.0
 11
-117.071381
 21
6148.66721
 31
0.0
  0
LINE
  8
LC-003-005-----0
  6
CONTINUOUS
  5
1AF
 10
-114.071381
 20
6142.131676
 30
0.0
 11
-117.071381
 21
6145.131676
 31
0.0
  0
LINE
  8
LC-003-005-----0
  6
CONTINUOUS
  5
1B0
 10
-114.071381
 20
6138.596143
 30
0.0
 11
-117.071381
 21
6141.596143
 31
0.0
  0
LINE
  8
LC-003-005-----0
  6
CONTINUOUS
  5
1B1
 10
-114.071381
 20
6135.060609
 30
0.0
 11
-117.071381
 21
6138.060609
 31
0.0
  0
LINE
  8
LC-003-005-----0
  6
CONTINUOUS
  5
1B2
 10
-114.071381
 20
6131.525075
 30
0.0
 11
-117.071381
 21
6134.525075
 31
0.0
  0
LINE
  8
LC-003-005-----0
  6
CONTINUOUS
  5
1B3
 10
-114.071381
 20
6127.989541
 30
0.0
 11
-117.071381
 21
6130.989541
 31
0.0
  0
LINE
  8
LC-003-005-----0
  6
CONTINUOUS
  5
1B4
 10
-114.071381
 20
6124.454007
 30
0.0
 11
-117.071381
 21
6127.454007
 31
0.0
  0
LINE
  8
LC-003-005-----0
  6
CONTINUOUS
  5
1B5
 10
-114.071381
 20
6120.918473
 30
0.0
 11
-117.071381
 21
6123.918473
 31
0.0
  0
LINE
  8
LC-003-005-----0
  6
CONTINUOUS
  5
1B6
 10
-114.071381
 20
6117.382939
 30
0.0
 11
-117.071381
 21
6120.382939
 31
0.0
  0
LINE
  8
LC-003-005-----0
  6
CONTINUOUS
  5
1B7
 10
-114.071381
 20
6113.847405
 30
0.0
 11
-117.071381
 21
6116.847405
 31
0.0
  0
LINE
  8
LC-003-005-----0
  6
CONTINUOUS
  5
1B8
 10
-114.071381
 20
6110.311871
 30
0.0
 11
-117.071381
 21
6113.311871
 31
0.0
  0
LINE
  8
LC-003-005-----0
  6
CONTINUOUS
  5
1B9
 10
-114.071381
 20
6106.776337
 30
0.0
 11
-117.071381
 21
6109.776337
 31
0.0
  0
LINE
  8
LC-003-005-----0
  6
CONTINUOUS
  5
1BA
 10
-114.071381
 20
6103.240803
 30
0.0
 11
-117.071381
 21
6106.240803
 31
0.0
  0
LINE
  8
LC-003-005-----0
  6
CONTINUOUS
  5
1BB
 10
-114.071381
 20
6099.70527
 30
0.0
 11
-117.071381
 21
6102.70527
 31
0.0
  0
LINE
  8
LC-003-005-----0
  6
CONTINUOUS
  5
1BC
 10
-114.071381
 20
6096.169736
 30
0.0
 11
-117.071381
 21
6099.169736
 31
0.0
  0
LINE
  8
LC-003-005-----0
  6
CONTINUOUS
  5
1BD
 10
-114.071381
 20
6092.634202
 30
0.0
 11
-117.071381
 21
6095.634202
 31
0.0
  0
LINE
  8
LC-003-005-----0
  6
CONTINUOUS
  5
1BE
 10
-114.071381
 20
6089.098668
 30
0.0
 11
-117.071381
 21
6092.098668
 31
0.0
  0
LINE
  8
LC-003-005-----0
  6
CONTINUOUS
  5
1BF
 10
-114.071381
 20
6085.563134
 30
0.0
 11
-117.071381
 21
6088.563134
 31
0.0
  0
LINE
  8
LC-003-005-----0
  6
CONTINUOUS
  5
1C0
 10
-114.071381
 20
6082.0276
 30
0.0
 11
-117.071381
 21
6085.0276
 31
0.0
  0
LINE
  8
LC-003-005-----0
  6
CONTINUOUS
  5
1C1
 10
-114.071381
 20
6078.492066
 30
0.0
 11
-117.071381
 21
6081.492066
 31
0.0
  0
LINE
  8
LC-003-005-----0
  6
CONTINUOUS
  5
1C2
 10
-114.071381
 20
6074.956532
 30
0.0
 11
-117.071381
 21
6077.956532
 31
0.0
  0
LINE
  8
LC-003-005-----0
  6
CONTINUOUS
  5
1C3
 10
-114.071381
 20
6071.420998
 30
0.0
 11
-117.071381
 21
6074.420998
 31
0.0
  0
LINE
  8
LC-003-005-----0
  6
CONTINUOUS
  5
1C4
 10
-114.071381
 20
6067.885464
 30
0.0
 11
-117.071381
 21
6070.885464
 31
0.0
  0
LINE
  8
LC-003-005-----0
  6
CONTINUOUS
  5
1C5
 10
-114.071381
 20
6064.349931
 30
0.0
 11
-117.071381
 21
6067.349931
 31
0.0
  0
LINE
  8
LC-003-005-----0
  6
CONTINUOUS
  5
1C6
 10
-114.071381
 20
6060.814397
 30
0.0
 11
-117.071381
 21
6063.814397
 31
0.0
  0
LINE
  8
LC-003-005-----0
  6
CONTINUOUS
  5
1C7
 10
-114.071381
 20
6057.278863
 30
0.0
 11
-117.071381
 21
6060.278863
 31
0.0
  0
LINE
  8
LC-003-005-----0
  6
CONTINUOUS
  5
1C8
 10
-114.071381
 20
6053.743329
 30
0.0
 11
-117.071381
 21
6056.743329
 31
0.0
  0
LINE
  8
LC-003-005-----0
  6
CONTINUOUS
  5
1C9
 10
-114.071381
 20
6050.207795
 30
0.0
 11
-117.071381
 21
6053.207795
 31
0.0
  0
LINE
  8
LC-003-005-----0
  6
CONTINUOUS
  5
1CA
 10
-114.071381
 20
6046.672261
 30
0.0
 11
-117.071381
 21
6049.672261
 31
0.0
  0
LINE
  8
LC-003-005-----0
  6
CONTINUOUS
  5
1CB
 10
-114.071381
 20
6043.136727
 30
0.0
 11
-117.071381
 21
6046.136727
 31
0.0
  0
LINE
  8
LC-003-005-----0
  6
CONTINUOUS
  5
1CC
 10
-114.071381
 20
6039.601193
 30
0.0
 11
-117.071381
 21
6042.601193
 31
0.0
  0
LINE
  8
LC-003-005-----0
  6
CONTINUOUS
  5
1CD
 10
-114.071381
 20
6036.065659
 30
0.0
 11
-117.071381
 21
6039.065659
 31
0.0
  0
LINE
  8
LC-003-005-----0
  6
CONTINUOUS
  5
1CE
 10
-114.071381
 20
6032.530125
 30
0.0
 11
-117.071381
 21
6035.530125
 31
0.0
  0
LINE
  8
LC-003-005-----0
  6
CONTINUOUS
  5
1CF
 10
-114.071381
 20
6028.994591
 30
0.0
 11
-117.071381
 21
6031.994591
 31
0.0
  0
LINE
  8
LC-003-005-----0
  6
CONTINUOUS
  5
1D0
 10
-114.071381
 20
6025.459058
 30
0.0
 11
-117.071381
 21
6028.459058
 31
0.0
  0
LINE
  8
LC-003-005-----0
  6
CONTINUOUS
  5
1D1
 10
-114.071381
 20
6021.923524
 30
0.0
 11
-116.158339
 21
6024.010482
 31
0.0
  0
ARC
  8
LC-004-002-RND-0
  6
CONTINUOUS
  5
1D3
 10
-80.812478
 20
6216.418
 30
0.0
 40
1.5
 50
90.0
 51
180.0
  0
ARC
  8
LC-004-002-RND-0
  6
CONTINUOUS
  5
1D4
 10
-8.330284
 20
6216.418
 30
0.0
 40
1.5
 50
0.0
 51
90.0
  0
LINE
  8
LC-003-005-----0
  6
CONTINUOUS
  5
1D5
 10
25.27641
 20
6202.918
 30
0.0
 11
24.928619
 21
6203.265791
 31
0.0
  0
LINE
  8
LC-003-005-----0
  6
CONTINUOUS
  5
1D6
 10
25.928619
 20
6205.094218
 30
0.0
 11
24.928619
 21
6206.094218
 31
0.0
  0
LINE
  8
LC-003-005-----0
  6
CONTINUOUS
  5
1D7
 10
25.928619
 20
6207.922645
 30
0.0
 11
24.928619
 21
6208.922645
 31
0.0
  0
LINE
  8
LC-003-005-----0
  6
CONTINUOUS
  5
1D8
 10
25.928619
 20
6210.751073
 30
0.0
 11
24.928619
 21
6211.751073
 31
0.0
  0
LINE
  8
LC-003-005-----0
  6
CONTINUOUS
  5
1D9
 10
25.928619
 20
6213.5795
 30
0.0
 11
24.928619
 21
6214.5795
 31
0.0
  0
LINE
  8
LC-003-005-----0
  6
CONTINUOUS
  5
1DA
 10
25.928619
 20
6216.407927
 30
0.0
 11
24.928619
 21
6217.407927
 31
0.0
  0
LINE
  8
LC-003-005-----0
  6
CONTINUOUS
  5
1DB
 10
30.928619
 20
6214.236354
 30
0.0
 11
29.928619
 21
6215.236354
 31
0.0
  0
LINE
  8
LC-003-005-----0
  6
CONTINUOUS
  5
1DC
 10
25.928619
 20
6219.236354
 30
0.0
 11
24.928619
 21
6220.236354
 31
0.0
  0
LINE
  8
LC-003-005-----0
  6
CONTINUOUS
  5
1DD
 10
30.928619
 20
6217.064781
 30
0.0
 11
29.928619
 21
6218.064781
 31
0.0
  0
LINE
  8
LC-001-002-----0
  6
CONTINUOUS
 62
     1
  5
1DE
 10
27.928619
 20
6197.418
 30
0.0
 11
27.928619
 21
6027.418
 31
0.0
  0
LINE
  8
LC-001-002-----0
  6
CONTINUOUS
 62
     1
  5
1DF
 10
24.928619
 20
6202.918
 30
0.0
 11
24.928619
 21
6021.418
 31
0.0
  0
LINE
  8
LC-001-002-----0
  6
CONTINUOUS
 62
     1
  5
1E0
 10
26.320924
 20
6021.418
 30
0.0
 11
-44.571381
 21
6021.418
 31
0.0
  0
LINE
  8
LC-003-005-----0
  6
CONTINUOUS
  5
1E1
 10
-114.419172
 20
6202.918
 30
0.0
 11
-114.071381
 21
6203.265791
 31
0.0
  0
LINE
  8
LC-003-005-----0
  6
CONTINUOUS
  5
1E2
 10
-115.071381
 20
6205.094218
 30
0.0
 11
-114.071381
 21
6206.094218
 31
0.0
  0
LINE
  8
LC-003-005-----0
  6
CONTINUOUS
  5
1E3
 10
-115.071381
 20
6207.922645
 30
0.0
 11
-114.071381
 21
6208.922645
 31
0.0
  0
LINE
  8
LC-003-005-----0
  6
CONTINUOUS
  5
1E4
 10
-115.071381
 20
6210.751073
 30
0.0
 11
-114.071381
 21
6211.751073
 31
0.0
  0
LINE
  8
LC-003-005-----0
  6
CONTINUOUS
  5
1E5
 10
-115.071381
 20
6213.5795
 30
0.0
 11
-114.071381
 21
6214.5795
 31
0.0
  0
LINE
  8
LC-003-005-----0
  6
CONTINUOUS
  5
1E6
 10
-115.071381
 20
6216.407927
 30
0.0
 11
-114.071381
 21
6217.407927
 31
0.0
  0
LINE
  8
LC-003-005-----0
  6
CONTINUOUS
  5
1E7
 10
-120.071381
 20
6214.236354
 30
0.0
 11
-119.071381
 21
6215.236354
 31
0.0
  0
LINE
  8
LC-003-005-----0
  6
CONTINUOUS
  5
1E8
 10
-115.071381
 20
6219.236354
 30
0.0
 11
-114.071381
 21
6220.236354
 31
0.0
  0
LINE
  8
LC-003-005-----0
  6
CONTINUOUS
  5
1E9
 10
-120.071381
 20
6217.064781
 30
0.0
 11
-119.071381
 21
6218.064781
 31
0.0
  0
LINE
  8
LC-001-002-----0
  6
CONTINUOUS
 62
     1
  5
1EA
 10
-117.071381
 20
6197.418
 30
0.0
 11
-117.071381
 21
6027.418
 31
0.0
  0
LINE
  8
LC-001-002-----0
  6
CONTINUOUS
 62
     1
  5
1EB
 10
-114.071381
 20
6202.918
 30
0.0
 11
-114.071381
 21
6021.418
 31
0.0
  0
LINE
  8
LC-001-002-----0
  6
CONTINUOUS
 62
     1
  5
1EC
 10
-115.463686
 20
6021.418
 30
0.0
 11
-44.571381
 21
6021.418
 31
0.0
  0
LINE
  8
LC-001-002-----0
  6
CONTINUOUS
 62
     1
  5
1ED
 10
-117.071381
 20
6027.418
 30
0.0
 11
-115.463686
 21
6021.418
 31
0.0
  0
LINE
  8
LC-003-005-----0
  6
CONTINUOUS
  5
1EE
 10
-115.173688
 20
6221.962475
 30
0.0
 11
-114.429253
 21
6222.706909
 31
0.0
  0
LINE
  8
LC-003-005-----0
  6
CONTINUOUS
  5
1EF
 10
-120.071381
 20
6219.893208
 30
0.0
 11
-119.071381
 21
6220.893208
 31
0.0
  0
LINE
  8
LC-003-005-----0
  6
CONTINUOUS
  5
1F0
 10
-117.046589
 20
6222.918
 30
0.0
 11
-116.092821
 21
6223.871769
 31
0.0
  0
LINE
  8
LC-001-002-----0
  6
CONTINUOUS
 62
     1
  5
1F1
 10
27.928619
 20
6027.418
 30
0.0
 11
26.320924
 21
6021.418
 31
0.0
  0
LINE
  8
LC-001-002-----0
  6
CONTINUOUS
 62
     1
  5
1F2
 10
-117.071381
 20
6222.918
 30
0.0
 11
-117.071381
 21
6222.918
 31
0.0
  0
LINE
  8
LC-001-002-----0
  6
CONTINUOUS
 62
     1
  5
1F3
 10
-120.071381
 20
6212.418
 30
0.0
 11
-119.071381
 21
6212.418
 31
0.0
  0
LINE
  8
LC-001-002-----0
  6
CONTINUOUS
 62
     1
  5
1F4
 10
-119.071381
 20
6221.418
 30
0.0
 11
-119.071381
 21
6212.418
 31
0.0
  0
LINE
  8
LC-001-002-----0
  6
CONTINUOUS
 62
     1
  5
1F5
 10
-120.071381
 20
6213.918
 30
0.0
 11
-120.071381
 21
6212.418
 31
0.0
  0
LINE
  8
LC-001-002-----0
  6
CONTINUOUS
 62
     1
  5
1F6
 10
-121.071381
 20
6213.918
 30
0.0
 11
-120.071381
 21
6213.918
 31
0.0
  0
LINE
  8
LC-001-002-----0
  6
CONTINUOUS
 62
     1
  5
1F7
 10
-121.071381
 20
6213.918
 30
0.0
 11
-121.071381
 21
6208.918
 31
0.0
  0
LINE
  8
LC-001-002-----0
  6
CONTINUOUS
 62
     1
  5
1F8
 10
-121.071381
 20
6208.918
 30
0.0
 11
-117.071381
 21
6208.918
 31
0.0
  0
LINE
  8
LC-003-005-----0
  6
CONTINUOUS
  5
1F9
 10
26.030925
 20
6221.962475
 30
0.0
 11
25.286491
 21
6222.706909
 31
0.0
  0
ARC
  8
LC-004-002-RND-0
  6
CONTINUOUS
  5
1FA
 10
-116.571381
 20
6221.418
 30
0.0
 40
1.5
 50
0.0
 51
90.0
  0
LINE
  8
LC-003-005-----0
  6
CONTINUOUS
  5
1FB
 10
30.928619
 20
6219.893208
 30
0.0
 11
29.928619
 21
6220.893208
 31
0.0
  0
ARC
  8
LC-004-002-RND-0
  6
CONTINUOUS
  5
1FC
 10
-117.571381
 20
6221.418
 30
0.0
 40
1.5
 50
90.0
 51
180.0
  0
LINE
  8
LC-003-005-----0
  6
CONTINUOUS
  5
1FD
 10
27.903827
 20
6222.918
 30
0.0
 11
26.950059
 21
6223.871769
 31
0.0
  0
LINE
  8
LC-001-002-----0
  6
CONTINUOUS
 62
     1
  5
1FE
 10
27.928619
 20
6222.918
 30
0.0
 11
27.928619
 21
6222.918
 31
0.0
  0
LINE
  8
LC-001-002-----0
  6
CONTINUOUS
 62
     1
  5
1FF
 10
30.928619
 20
6212.418
 30
0.0
 11
29.928619
 21
6212.418
 31
0.0
  0
LINE
  8
LC-001-002-----0
  6
CONTINUOUS
 62
     1
  5
200
 10
29.928619
 20
6221.418
 30
0.0
 11
29.928619
 21
6212.418
 31
0.0
  0
LINE
  8
LC-001-002-----0
  6
CONTINUOUS
 62
     1
  5
201
 10
30.928619
 20
6213.918
 30
0.0
 11
30.928619
 21
6212.418
 31
0.0
  0
LINE
  8
LC-001-002-----0
  6
CONTINUOUS
 62
     1
  5
202
 10
31.928619
 20
6213.918
 30
0.0
 11
30.928619
 21
6213.918
 31
0.0
  0
LINE
  8
LC-001-002-----0
  6
CONTINUOUS
 62
     1
  5
203
 10
31.928619
 20
6213.918
 30
0.0
 11
31.928619
 21
6208.918
 31
0.0
  0
LINE
  8
LC-001-002-----0
  6
CONTINUOUS
 62
     1
  5
204
 10
31.928619
 20
6208.918
 30
0.0
 11
27.928619
 21
6208.918
 31
0.0
  0
ARC
  8
LC-004-002-RND-0
  6
CONTINUOUS
  5
205
 10
27.428619
 20
6221.418
 30
0.0
 40
1.5
 50
90.0
 51
180.0
  0
LINE
  8
LC-001-002-----0
  6
CONTINUOUS
 62
     1
  5
206
 10
-114.071381
 20
6202.918
 30
0.0
 11
-114.071381
 21
6202.918
 31
0.0
  0
LINE
  8
LC-001-002-----0
  6
CONTINUOUS
 62
     1
  5
207
 10
-117.071381
 20
6208.918
 30
0.0
 11
-117.071381
 21
6197.418
 31
0.0
  0
ARC
  8
LC-004-002-RND-0
  6
CONTINUOUS
  5
208
 10
28.428619
 20
6221.418
 30
0.0
 40
1.5
 50
0.0
 51
90.0
  0
LINE
  8
LC-001-002-----0
  6
CONTINUOUS
 62
     1
  5
209
 10
24.928619
 20
6202.918
 30
0.0
 11
24.928619
 21
6202.918
 31
0.0
  0
LINE
  8
LC-001-002-----0
  6
CONTINUOUS
 62
     1
  5
20A
 10
-120.071381
 20
6212.418
 30
0.0
 11
-120.071381
 21
6221.418
 31
0.0
  0
LINE
  8
LC-001-002-----0
  6
CONTINUOUS
 62
     1
  5
20B
 10
-116.571381
 20
6223.918
 30
0.0
 11
-44.571381
 21
6223.918
 31
0.0
  0
LINE
  8
LC-001-002-----0
  6
CONTINUOUS
 62
     1
  5
20C
 10
27.928619
 20
6208.918
 30
0.0
 11
27.928619
 21
6197.418
 31
0.0
  0
LINE
  8
LC-001-002-----0
  6
CONTINUOUS
 62
     1
  5
20D
 10
-117.571381
 20
6222.918
 30
0.0
 11
-116.571381
 21
6222.918
 31
0.0
  0
LINE
  8
LC-001-002-----0
  6
CONTINUOUS
 62
     1
  5
20E
 10
30.928619
 20
6212.418
 30
0.0
 11
30.928619
 21
6221.418
 31
0.0
  0
LINE
  8
LC-001-002-----0
  6
CONTINUOUS
 62
     1
  5
20F
 10
-119.071381
 20
6212.418
 30
0.0
 11
-119.071381
 21
6221.418
 31
0.0
  0
LINE
  8
LC-001-002-----0
  6
CONTINUOUS
 62
     1
  5
210
 10
-120.071381
 20
6212.418
 30
0.0
 11
-119.071381
 21
6212.418
 31
0.0
  0
LINE
  8
LC-001-002-----0
  6
CONTINUOUS
 62
     1
  5
211
 10
-113.071381
 20
6217.918
 30
0.0
 11
-44.571381
 21
6217.918
 31
0.0
  0
LINE
  8
LC-001-002-----0
  6
CONTINUOUS
 62
     1
  5
212
 10
-114.071381
 20
6202.918
 30
0.0
 11
-114.071381
 21
6221.418
 31
0.0
  0
LINE
  8
LC-001-002-----0
  6
CONTINUOUS
 62
     1
  5
213
 10
-115.071381
 20
6202.918
 30
0.0
 11
-115.071381
 21
6221.418
 31
0.0
  0
LINE
  8
LC-001-002-----0
  6
CONTINUOUS
 62
     1
  5
214
 10
-115.071381
 20
6202.918
 30
0.0
 11
-114.071381
 21
6202.918
 31
0.0
  0
LINE
  8
LC-001-002-----0
  6
CONTINUOUS
 62
     1
  5
215
 10
-114.071381
 20
6202.918
 30
0.0
 11
-44.571381
 21
6202.918
 31
0.0
  0
LINE
  8
LC-001-002-----0
  6
CONTINUOUS
 62
     1
  5
216
 10
-82.312478
 20
6216.418
 30
0.0
 11
-82.312478
 21
6215.918
 31
0.0
  0
ARC
  8
LC-004-002-RND-0
  6
CONTINUOUS
  5
217
 10
-117.571381
 20
6221.418
 30
0.0
 40
1.5
 50
90.0
 51
180.0
  0
ARC
  8
LC-004-002-RND-0
  6
CONTINUOUS
  5
218
 10
-116.571381
 20
6221.418
 30
0.0
 40
1.5
 50
0.0
 51
90.0
  0
ARC
  8
LC-004-002-RND-0
  6
CONTINUOUS
  5
219
 10
-117.571381
 20
6221.418
 30
0.0
 40
2.5
 50
90.0
 51
180.0
  0
ARC
  8
LC-004-002-RND-0
  6
CONTINUOUS
  5
21A
 10
-116.571381
 20
6221.418
 30
0.0
 40
2.5
 50
0.0
 51
90.0
  0
LINE
  8
LC-001-002-----0
  6
CONTINUOUS
 62
     1
  5
21B
 10
-103.525682
 20
6215.918
 30
0.0
 11
-103.525682
 21
6216.418
 31
0.0
  0
LINE
  8
LC-001-002-----0
  6
CONTINUOUS
 62
     1
  5
21C
 10
-82.312478
 20
6215.918
 30
0.0
 11
-103.525682
 21
6215.918
 31
0.0
  0
LINE
  8
LC-001-002-----0
  6
CONTINUOUS
 62
     1
  5
21D
 10
27.428619
 20
6223.918
 30
0.0
 11
-44.571381
 21
6223.918
 31
0.0
  0
LINE
  8
LC-001-002-----0
  6
CONTINUOUS
 62
     1
  5
21E
 10
28.428619
 20
6222.918
 30
0.0
 11
27.428619
 21
6222.918
 31
0.0
  0
LINE
  8
LC-001-002-----0
  6
CONTINUOUS
 62
     1
  5
21F
 10
29.928619
 20
6212.418
 30
0.0
 11
29.928619
 21
6221.418
 31
0.0
  0
LINE
  8
LC-001-002-----0
  6
CONTINUOUS
 62
     1
  5
220
 10
30.928619
 20
6212.418
 30
0.0
 11
29.928619
 21
6212.418
 31
0.0
  0
LINE
  8
LC-001-002-----0
  6
CONTINUOUS
 62
     1
  5
221
 10
23.928619
 20
6217.918
 30
0.0
 11
-44.571381
 21
6217.918
 31
0.0
  0
LINE
  8
LC-001-002-----0
  6
CONTINUOUS
 62
     1
  5
222
 10
24.928619
 20
6202.918
 30
0.0
 11
24.928619
 21
6221.418
 31
0.0
  0
LINE
  8
LC-001-002-----0
  6
CONTINUOUS
 62
     1
  5
223
 10
25.928619
 20
6202.918
 30
0.0
 11
25.928619
 21
6221.418
 31
0.0
  0
LINE
  8
LC-001-002-----0
  6
CONTINUOUS
 62
     1
  5
224
 10
25.928619
 20
6202.918
 30
0.0
 11
24.928619
 21
6202.918
 31
0.0
  0
LINE
  8
LC-001-002-----0
  6
CONTINUOUS
 62
     1
  5
225
 10
24.928619
 20
6202.918
 30
0.0
 11
-44.571381
 21
6202.918
 31
0.0
  0
LINE
  8
LC-001-002-----0
  6
CONTINUOUS
 62
     1
  5
226
 10
-6.830284
 20
6216.418
 30
0.0
 11
-6.830284
 21
6215.918
 31
0.0
  0
LINE
  8
LC-001-002-----0
  6
CONTINUOUS
 62
     1
  5
227
 10
-117.571381
 20
6223.918
 30
0.0
 11
-116.571381
 21
6223.918
 31
0.0
  0
ARC
  8
LC-004-002-RND-0
  6
CONTINUOUS
  5
228
 10
28.428619
 20
6221.418
 30
0.0
 40
1.5
 50
0.0
 51
90.0
  0
ARC
  8
LC-004-002-RND-0
  6
CONTINUOUS
  5
229
 10
27.428619
 20
6221.418
 30
0.0
 40
1.5
 50
90.0
 51
180.0
  0
ARC
  8
LC-004-002-RND-0
  6
CONTINUOUS
  5
22A
 10
-113.071381
 20
6218.918
 30
0.0
 40
1.0
 50
180.0
 51
270.0
  0
ARC
  8
LC-004-002-RND-0
  6
CONTINUOUS
  5
22B
 10
28.428619
 20
6221.418
 30
0.0
 40
2.5
 50
0.0
 51
90.0
  0
ARC
  8
LC-004-002-RND-0
  6
CONTINUOUS
  5
22C
 10
27.428619
 20
6221.418
 30
0.0
 40
2.5
 50
90.0
 51
180.0
  0
LINE
  8
LC-001-002-----0
  6
CONTINUOUS
 62
     1
  5
22D
 10
14.38292
 20
6215.918
 30
0.0
 11
14.38292
 21
6216.418
 31
0.0
  0
ARC
  8
LC-004-002-RND-0
  6
CONTINUOUS
  5
22E
 10
-105.025682
 20
6216.418
 30
0.0
 40
1.5
 50
0.0
 51
90.0
  0
LINE
  8
LC-001-002-----0
  6
CONTINUOUS
 62
     1
  5
22F
 10
-6.830284
 20
6215.918
 30
0.0
 11
14.38292
 21
6215.918
 31
0.0
  0
LINE
  8
LC-001-002-----0
  6
CONTINUOUS
 62
     1
  5
230
 10
28.428619
 20
6223.918
 30
0.0
 11
27.428619
 21
6223.918
 31
0.0
  0
ARC
  8
LC-004-002-RND-0
  6
CONTINUOUS
  5
231
 10
23.928619
 20
6218.918
 30
0.0
 40
1.0
 50
270.0
 51
0.0
  0
ARC
  8
LC-004-002-RND-0
  6
CONTINUOUS
  5
232
 10
15.88292
 20
6216.418
 30
0.0
 40
1.5
 50
90.0
 51
180.0
  0
LINE
  8
LC-001-002-----0
  6
CONTINUOUS
 62
     1
  5
233
 10
25.928619
 20
6202.918
 30
0.0
 11
25.928619
 21
6221.418
 31
0.0
  0
LINE
  8
LC-001-002-----0
  6
CONTINUOUS
 62
     1
  5
234
 10
25.928619
 20
6202.918
 30
0.0
 11
24.928619
 21
6202.918
 31
0.0
  0
LINE
  8
LC-001-002-----0
  6
CONTINUOUS
 62
     1
  5
235
 10
-44.571381
 20
6202.918
 30
0.0
 11
24.928619
 21
6202.918
 31
0.0
  0
LINE
  8
LC-001-002-----0
  6
CONTINUOUS
 62
     1
  5
236
 10
-115.071381
 20
6202.918
 30
0.0
 11
-115.071381
 21
6221.418
 31
0.0
  0
LINE
  8
LC-001-002-----0
  6
CONTINUOUS
 62
     1
  5
237
 10
-115.071381
 20
6202.918
 30
0.0
 11
-114.071381
 21
6202.918
 31
0.0
  0
LINE
  8
LC-001-002-----0
  6
CONTINUOUS
 62
     1
  5
238
 10
-44.571381
 20
6202.918
 30
0.0
 11
-114.071381
 21
6202.918
 31
0.0
  0
ARC
  8
LC-004-002-RND-0
  6
CONTINUOUS
  5
239
 10
-106.549381
 20
6221.418
 30
0.0
 40
2.5
 50
0.0
 51
90.0
  0
ARC
  8
LC-004-002-RND-0
  6
CONTINUOUS
  5
23A
 10
-94.549381
 20
6221.418
 30
0.0
 40
2.5
 50
90.0
 51
180.0
  0
ARC
  8
LC-004-002-RND-0
  6
CONTINUOUS
  5
23B
 10
-90.549381
 20
6221.418
 30
0.0
 40
2.5
 50
0.0
 51
90.0
  0
ARC
  8
LC-004-002-RND-0
  6
CONTINUOUS
  5
23C
 10
-78.549381
 20
6221.418
 30
0.0
 40
2.5
 50
90.0
 51
180.0
  0
ARC
  8
LC-004-002-RND-0
  6
CONTINUOUS
  5
23D
 10
-74.549381
 20
6221.418
 30
0.0
 40
2.5
 50
0.0
 51
90.0
  0
ARC
  8
LC-004-002-RND-0
  6
CONTINUOUS
  5
23E
 10
-62.549381
 20
6221.418
 30
0.0
 40
2.5
 50
90.0
 51
180.0
  0
ARC
  8
LC-004-002-RND-0
  6
CONTINUOUS
  5
23F
 10
-111.049381
 20
6221.418
 30
0.0
 40
2.5
 50
90.0
 51
180.0
  0
ARC
  8
LC-004-002-RND-0
  6
CONTINUOUS
  5
240
 10
-26.593381
 20
6221.418
 30
0.0
 40
2.5
 50
0.0
 51
90.0
  0
ARC
  8
LC-004-002-RND-0
  6
CONTINUOUS
  5
241
 10
-14.593381
 20
6221.418
 30
0.0
 40
2.5
 50
90.0
 51
180.0
  0
ARC
  8
LC-004-002-RND-0
  6
CONTINUOUS
  5
242
 10
-10.593381
 20
6221.418
 30
0.0
 40
2.5
 50
0.0
 51
90.0
  0
ARC
  8
LC-004-002-RND-0
  6
CONTINUOUS
  5
243
 10
1.406619
 20
6221.418
 30
0.0
 40
2.5
 50
90.0
 51
180.0
  0
ARC
  8
LC-004-002-RND-0
  6
CONTINUOUS
  5
244
 10
5.406619
 20
6221.418
 30
0.0
 40
2.5
 50
0.0
 51
90.0
  0
ARC
  8
LC-004-002-RND-0
  6
CONTINUOUS
  5
245
 10
17.406619
 20
6221.418
 30
0.0
 40
2.5
 50
90.0
 51
180.0
  0
ARC
  8
LC-004-002-RND-0
  6
CONTINUOUS
  5
246
 10
21.906619
 20
6221.418
 30
0.0
 40
2.5
 50
0.0
 51
90.0
  0
LINE
  8
LC-001-002-----0
  6
CONTINUOUS
 62
     1
  5
247
 10
-106.549381
 20
6223.918
 30
0.0
 11
-94.549381
 21
6223.918
 31
0.0
  0
LINE
  8
LC-001-002-----0
  6
CONTINUOUS
 62
     1
  5
248
 10
-90.549381
 20
6223.918
 30
0.0
 11
-78.549381
 21
6223.918
 31
0.0
  0
LINE
  8
LC-001-002-----0
  6
CONTINUOUS
 62
     1
  5
249
 10
22.906619
 20
6218.918
 30
0.0
 11
22.906619
 21
6221.418
 31
0.0
  0
ARC
  8
LC-001-002-----0
  6
CONTINUOUS
 62
     1
  5
24A
 10
21.906619
 20
6221.418
 30
0.0
 40
1.0
 50
0.0
 51
90.0
  0
LINE
  8
LC-001-002-----0
  6
CONTINUOUS
 62
     1
  5
24B
 10
21.906619
 20
6222.418
 30
0.0
 11
17.406619
 21
6222.418
 31
0.0
  0
ARC
  8
LC-001-002-----0
  6
CONTINUOUS
 62
     1
  5
24C
 10
17.406619
 20
6221.418
 30
0.0
 40
1.0
 50
90.0
 51
180.0
  0
LINE
  8
LC-001-002-----0
  6
CONTINUOUS
 62
     1
  5
24D
 10
16.406619
 20
6221.418
 30
0.0
 11
16.406619
 21
6219.918
 31
0.0
  0
LINE
  8
LC-001-002-----0
  6
CONTINUOUS
 62
     1
  5
24E
 10
-113.549381
 20
6218.918
 30
0.0
 11
-113.549381
 21
6221.418
 31
0.0
  0
LINE
  8
LC-001-002-----0
  6
CONTINUOUS
 62
     1
  5
24F
 10
-111.049381
 20
6223.918
 30
0.0
 11
-106.549381
 21
6223.918
 31
0.0
  0
LINE
  8
LC-001-002-----0
  6
CONTINUOUS
 62
     1
  5
250
 10
-104.049381
 20
6221.418
 30
0.0
 11
-104.049381
 21
6219.918
 31
0.0
  0
LINE
  8
LC-001-002-----0
  6
CONTINUOUS
 62
     1
  5
251
 10
-105.549381
 20
6219.918
 30
0.0
 11
-95.549381
 21
6219.918
 31
0.0
  0
LINE
  8
LC-001-002-----0
  6
CONTINUOUS
 62
     1
  5
252
 10
-97.049381
 20
6219.918
 30
0.0
 11
-97.049381
 21
6221.418
 31
0.0
  0
LINE
  8
LC-001-002-----0
  6
CONTINUOUS
 62
     1
  5
253
 10
-94.549381
 20
6223.918
 30
0.0
 11
-90.549381
 21
6223.918
 31
0.0
  0
LINE
  8
LC-001-002-----0
  6
CONTINUOUS
 62
     1
  5
254
 10
-88.049381
 20
6221.418
 30
0.0
 11
-88.049381
 21
6219.918
 31
0.0
  0
LINE
  8
LC-001-002-----0
  6
CONTINUOUS
 62
     1
  5
255
 10
-89.549381
 20
6219.918
 30
0.0
 11
-79.549381
 21
6219.918
 31
0.0
  0
LINE
  8
LC-001-002-----0
  6
CONTINUOUS
 62
     1
  5
256
 10
-81.049381
 20
6219.918
 30
0.0
 11
-81.049381
 21
6221.418
 31
0.0
  0
LINE
  8
LC-001-002-----0
  6
CONTINUOUS
 62
     1
  5
257
 10
-78.549381
 20
6223.918
 30
0.0
 11
-74.549381
 21
6223.918
 31
0.0
  0
LINE
  8
LC-001-002-----0
  6
CONTINUOUS
 62
     1
  5
258
 10
-72.049381
 20
6221.418
 30
0.0
 11
-72.049381
 21
6219.918
 31
0.0
  0
LINE
  8
LC-001-002-----0
  6
CONTINUOUS
 62
     1
  5
259
 10
-73.549381
 20
6219.918
 30
0.0
 11
-63.549381
 21
6219.918
 31
0.0
  0
LINE
  8
LC-001-002-----0
  6
CONTINUOUS
 62
     1
  5
25A
 10
-65.049381
 20
6219.918
 30
0.0
 11
-65.049381
 21
6221.418
 31
0.0
  0
LINE
  8
LC-001-002-----0
  6
CONTINUOUS
 62
     1
  5
25B
 10
-62.549381
 20
6223.918
 30
0.0
 11
-44.571381
 21
6223.918
 31
0.0
  0
LINE
  8
LC-001-002-----0
  6
CONTINUOUS
 62
     1
  5
25C
 10
-112.049381
 20
6218.918
 30
0.0
 11
22.906619
 21
6218.918
 31
0.0
  0
LINE
  8
LC-001-002-----0
  6
CONTINUOUS
 62
     1
  5
25D
 10
24.406619
 20
6218.918
 30
0.0
 11
24.406619
 21
6221.418
 31
0.0
  0
LINE
  8
LC-001-002-----0
  6
CONTINUOUS
 62
     1
  5
25E
 10
21.906619
 20
6223.918
 30
0.0
 11
17.406619
 21
6223.918
 31
0.0
  0
LINE
  8
LC-001-002-----0
  6
CONTINUOUS
 62
     1
  5
25F
 10
14.906619
 20
6221.418
 30
0.0
 11
14.906619
 21
6219.918
 31
0.0
  0
LINE
  8
LC-001-002-----0
  6
CONTINUOUS
 62
     1
  5
260
 10
16.406619
 20
6219.918
 30
0.0
 11
6.406619
 21
6219.918
 31
0.0
  0
LINE
  8
LC-001-002-----0
  6
CONTINUOUS
 62
     1
  5
261
 10
7.906619
 20
6219.918
 30
0.0
 11
7.906619
 21
6221.418
 31
0.0
  0
LINE
  8
LC-001-002-----0
  6
CONTINUOUS
 62
     1
  5
262
 10
5.406619
 20
6223.918
 30
0.0
 11
1.406619
 21
6223.918
 31
0.0
  0
LINE
  8
LC-001-002-----0
  6
CONTINUOUS
 62
     1
  5
263
 10
-1.093381
 20
6221.418
 30
0.0
 11
-1.093381
 21
6219.918
 31
0.0
  0
LINE
  8
LC-001-002-----0
  6
CONTINUOUS
 62
     1
  5
264
 10
0.406619
 20
6219.918
 30
0.0
 11
-9.593381
 21
6219.918
 31
0.0
  0
LINE
  8
LC-001-002-----0
  6
CONTINUOUS
 62
     1
  5
265
 10
-8.093381
 20
6219.918
 30
0.0
 11
-8.093381
 21
6221.418
 31
0.0
  0
LINE
  8
LC-001-002-----0
  6
CONTINUOUS
 62
     1
  5
266
 10
-10.593381
 20
6223.918
 30
0.0
 11
-14.593381
 21
6223.918
 31
0.0
  0
LINE
  8
LC-001-002-----0
  6
CONTINUOUS
 62
     1
  5
267
 10
-17.093381
 20
6221.418
 30
0.0
 11
-17.093381
 21
6219.918
 31
0.0
  0
LINE
  8
LC-001-002-----0
  6
CONTINUOUS
 62
     1
  5
268
 10
-15.593381
 20
6219.918
 30
0.0
 11
-25.593381
 21
6219.918
 31
0.0
  0
LINE
  8
LC-001-002-----0
  6
CONTINUOUS
 62
     1
  5
269
 10
-24.093381
 20
6219.918
 30
0.0
 11
-24.093381
 21
6221.418
 31
0.0
  0
LINE
  8
LC-001-002-----0
  6
CONTINUOUS
 62
     1
  5
26A
 10
-26.593381
 20
6223.918
 30
0.0
 11
-44.571381
 21
6223.918
 31
0.0
  0
LINE
  8
LC-001-002-----0
  6
CONTINUOUS
 62
     1
  5
26B
 10
-26.593381
 20
6223.918
 30
0.0
 11
-14.593381
 21
6223.918
 31
0.0
  0
LINE
  8
LC-001-002-----0
  6
CONTINUOUS
 62
     1
  5
26C
 10
6.406619
 20
6219.918
 30
0.0
 11
6.406619
 21
6221.418
 31
0.0
  0
ARC
  8
LC-001-002-----0
  6
CONTINUOUS
 62
     1
  5
26D
 10
5.406619
 20
6221.418
 30
0.0
 40
1.0
 50
0.0
 51
90.0
  0
LINE
  8
LC-001-002-----0
  6
CONTINUOUS
 62
     1
  5
26E
 10
5.406619
 20
6222.418
 30
0.0
 11
1.406619
 21
6222.418
 31
0.0
  0
ARC
  8
LC-001-002-----0
  6
CONTINUOUS
 62
     1
  5
26F
 10
1.406619
 20
6221.418
 30
0.0
 40
1.0
 50
90.0
 51
180.0
  0
LINE
  8
LC-001-002-----0
  6
CONTINUOUS
 62
     1
  5
270
 10
0.406619
 20
6221.418
 30
0.0
 11
0.406619
 21
6219.918
 31
0.0
  0
LINE
  8
LC-001-002-----0
  6
CONTINUOUS
 62
     1
  5
271
 10
-10.593381
 20
6223.918
 30
0.0
 11
1.406619
 21
6223.918
 31
0.0
  0
LINE
  8
LC-001-002-----0
  6
CONTINUOUS
 62
     1
  5
272
 10
-9.593381
 20
6219.918
 30
0.0
 11
-9.593381
 21
6221.418
 31
0.0
  0
ARC
  8
LC-001-002-----0
  6
CONTINUOUS
 62
     1
  5
273
 10
-10.593381
 20
6221.418
 30
0.0
 40
1.0
 50
0.0
 51
90.0
  0
LINE
  8
LC-001-002-----0
  6
CONTINUOUS
 62
     1
  5
274
 10
-10.593381
 20
6222.418
 30
0.0
 11
-14.593381
 21
6222.418
 31
0.0
  0
ARC
  8
LC-001-002-----0
  6
CONTINUOUS
 62
     1
  5
275
 10
-14.593381
 20
6221.418
 30
0.0
 40
1.0
 50
90.0
 51
180.0
  0
LINE
  8
LC-001-002-----0
  6
CONTINUOUS
 62
     1
  5
276
 10
-15.593381
 20
6221.418
 30
0.0
 11
-15.593381
 21
6219.918
 31
0.0
  0
LINE
  8
LC-001-002-----0
  6
CONTINUOUS
 62
     1
  5
277
 10
5.406619
 20
6223.918
 30
0.0
 11
17.406619
 21
6223.918
 31
0.0
  0
LINE
  8
LC-001-002-----0
  6
CONTINUOUS
 62
     1
  5
278
 10
-25.593381
 20
6219.918
 30
0.0
 11
-25.593381
 21
6221.418
 31
0.0
  0
ARC
  8
LC-001-002-----0
  6
CONTINUOUS
 62
     1
  5
279
 10
-26.593381
 20
6221.418
 30
0.0
 40
1.0
 50
0.0
 51
90.0
  0
LINE
  8
LC-001-002-----0
  6
CONTINUOUS
 62
     1
  5
27A
 10
-26.593381
 20
6222.418
 30
0.0
 11
-44.571381
 21
6222.418
 31
0.0
  0
LINE
  8
LC-001-002-----0
  6
CONTINUOUS
 62
     1
  5
27B
 10
-44.571381
 20
6222.418
 30
0.0
 11
-62.549381
 21
6222.418
 31
0.0
  0
ARC
  8
LC-001-002-----0
  6
CONTINUOUS
 62
     1
  5
27C
 10
-62.549381
 20
6221.418
 30
0.0
 40
1.0
 50
90.0
 51
180.0
  0
LINE
  8
LC-001-002-----0
  6
CONTINUOUS
 62
     1
  5
27D
 10
-63.549381
 20
6221.418
 30
0.0
 11
-63.549381
 21
6219.918
 31
0.0
  0
LINE
  8
LC-001-002-----0
  6
CONTINUOUS
 62
     1
  5
27E
 10
-113.549381
 20
6218.918
 30
0.0
 11
-112.049381
 21
6218.918
 31
0.0
  0
LINE
  8
LC-001-002-----0
  6
CONTINUOUS
 62
     1
  5
27F
 10
-73.549381
 20
6219.918
 30
0.0
 11
-73.549381
 21
6221.418
 31
0.0
  0
ARC
  8
LC-001-002-----0
  6
CONTINUOUS
 62
     1
  5
280
 10
-74.549381
 20
6221.418
 30
0.0
 40
1.0
 50
0.0
 51
90.0
  0
LINE
  8
LC-001-002-----0
  6
CONTINUOUS
 62
     1
  5
281
 10
-74.549381
 20
6222.418
 30
0.0
 11
-78.549381
 21
6222.418
 31
0.0
  0
ARC
  8
LC-001-002-----0
  6
CONTINUOUS
 62
     1
  5
282
 10
-78.549381
 20
6221.418
 30
0.0
 40
1.0
 50
90.0
 51
180.0
  0
LINE
  8
LC-001-002-----0
  6
CONTINUOUS
 62
     1
  5
283
 10
-79.549381
 20
6221.418
 30
0.0
 11
-79.549381
 21
6219.918
 31
0.0
  0
LINE
  8
LC-001-002-----0
  6
CONTINUOUS
 62
     1
  5
284
 10
22.906619
 20
6218.918
 30
0.0
 11
24.406619
 21
6218.918
 31
0.0
  0
LINE
  8
LC-001-002-----0
  6
CONTINUOUS
 62
     1
  5
285
 10
-89.549381
 20
6219.918
 30
0.0
 11
-89.549381
 21
6221.418
 31
0.0
  0
ARC
  8
LC-001-002-----0
  6
CONTINUOUS
 62
     1
  5
286
 10
-90.549381
 20
6221.418
 30
0.0
 40
1.0
 50
0.0
 51
90.0
  0
LINE
  8
LC-001-002-----0
  6
CONTINUOUS
 62
     1
  5
287
 10
-90.549381
 20
6222.418
 30
0.0
 11
-94.549381
 21
6222.418
 31
0.0
  0
ARC
  8
LC-001-002-----0
  6
CONTINUOUS
 62
     1
  5
288
 10
-94.549381
 20
6221.418
 30
0.0
 40
1.0
 50
90.0
 51
180.0
  0
LINE
  8
LC-001-002-----0
  6
CONTINUOUS
 62
     1
  5
289
 10
-95.549381
 20
6221.418
 30
0.0
 11
-95.549381
 21
6219.918
 31
0.0
  0
LINE
  8
LC-001-002-----0
  6
CONTINUOUS
 62
     1
  5
28A
 10
-105.549381
 20
6219.918
 30
0.0
 11
-105.549381
 21
6221.418
 31
0.0
  0
ARC
  8
LC-001-002-----0
  6
CONTINUOUS
 62
     1
  5
28B
 10
-106.549381
 20
6221.418
 30
0.0
 40
1.0
 50
0.0
 51
90.0
  0
LINE
  8
LC-001-002-----0
  6
CONTINUOUS
 62
     1
  5
28C
 10
-106.549381
 20
6222.418
 30
0.0
 11
-111.049381
 21
6222.418
 31
0.0
  0
ARC
  8
LC-001-002-----0
  6
CONTINUOUS
 62
     1
  5
28D
 10
-111.049381
 20
6221.418
 30
0.0
 40
1.0
 50
90.0
 51
180.0
  0
LINE
  8
LC-001-002-----0
  6
CONTINUOUS
 62
     1
  5
28E
 10
-112.049381
 20
6221.418
 30
0.0
 11
-112.049381
 21
6218.918
 31
0.0
  0
LINE
  8
LC-001-002-----0
  6
CONTINUOUS
 62
     1
  5
28F
 10
-74.549381
 20
6223.918
 30
0.0
 11
-62.549381
 21
6223.918
 31
0.0
  0
LINE
  8
LC-001-002-----0
  6
CONTINUOUS
  5
290
 10
-114.071381
 20
6044.418
 30
0.0
 11
24.928619
 21
6044.418
 31
0.0
  0
LINE
  8
LC-001-002-----0
  6
CONTINUOUS
 62
     1
  5
291
 10
194.928619
 20
6143.146
 30
0.0
 11
211.928619
 21
6143.146
 31
0.0
  0
ARC
  8
LC-004-002-RND-0
  6
CONTINUOUS
  5
292
 10
138.240619
 20
6187.856
 30
0.0
 40
3.79
 50
90.0
 51
180.0
  0
ARC
  8
LC-004-002-RND-0
  6
CONTINUOUS
  5
293
 10
138.240619
 20
6057.48
 30
0.0
 40
3.79
 50
180.0
 51
270.0
  0
ARC
  8
LC-004-002-RND-0
  6
CONTINUOUS
  5
294
 10
268.616619
 20
6057.48
 30
0.0
 40
3.79
 50
270.0
 51
0.0
  0
ARC
  8
LC-004-002-RND-0
  6
CONTINUOUS
  5
295
 10
268.616619
 20
6187.856
 30
0.0
 40
3.79
 50
0.0
 51
90.0
  0
ARC
  8
LC-001-002-----0
  6
CONTINUOUS
 62
     1
  5
296
 10
243.928619
 20
6066.69
 30
0.0
 40
3.5
 50
270.0
 51
90.0
  0
ARC
  8
LC-001-002-----0
  6
CONTINUOUS
 62
     1
  5
297
 10
162.928619
 20
6066.69
 30
0.0
 40
3.5
 50
90.0
 51
270.0
  0
LINE
  8
LC-001-002-----0
  6
CONTINUOUS
 62
     1
  5
298
 10
243.928619
 20
6063.19
 30
0.0
 11
162.928619
 21
6063.19
 31
0.0
  0
LINE
  8
LC-001-002-----0
  6
CONTINUOUS
 62
     1
  5
299
 10
243.928619
 20
6070.19
 30
0.0
 11
162.928619
 21
6070.19
 31
0.0
  0
ARC
  8
LC-001-002-----0
  6
CONTINUOUS
 62
     1
  5
29A
 10
227.928619
 20
6082.69
 30
0.0
 40
3.5
 50
270.0
 51
90.0
  0
ARC
  8
LC-001-002-----0
  6
CONTINUOUS
 62
     1
  5
29B
 10
178.928619
 20
6082.69
 30
0.0
 40
3.5
 50
90.0
 51
270.0
  0
LINE
  8
LC-001-002-----0
  6
CONTINUOUS
 62
     1
  5
29C
 10
227.928619
 20
6079.19
 30
0.0
 11
178.928619
 21
6079.19
 31
0.0
  0
LINE
  8
LC-001-002-----0
  6
CONTINUOUS
 62
     1
  5
29D
 10
227.928619
 20
6086.19
 30
0.0
 11
178.928619
 21
6086.19
 31
0.0
  0
ARC
  8
LC-001-002-----0
  6
CONTINUOUS
 62
     1
  5
29E
 10
211.928619
 20
6098.69
 30
0.0
 40
3.5
 50
270.0
 51
90.0
  0
ARC
  8
LC-001-002-----0
  6
CONTINUOUS
 62
     1
  5
29F
 10
194.928619
 20
6098.69
 30
0.0
 40
3.5
 50
90.0
 51
270.0
  0
LINE
  8
LC-001-002-----0
  6
CONTINUOUS
 62
     1
  5
2A0
 10
211.928619
 20
6095.19
 30
0.0
 11
194.928619
 21
6095.19
 31
0.0
  0
LINE
  8
LC-001-002-----0
  6
CONTINUOUS
 62
     1
  5
2A1
 10
211.928619
 20
6102.19
 30
0.0
 11
194.928619
 21
6102.19
 31
0.0
  0
ARC
  8
LC-001-002-----0
  6
CONTINUOUS
 62
     1
  5
2A2
 10
259.406619
 20
6163.168
 30
0.0
 40
3.5
 50
0.0
 51
180.0
  0
ARC
  8
LC-001-002-----0
  6
CONTINUOUS
 62
     1
  5
2A3
 10
259.406619
 20
6082.168
 30
0.0
 40
3.5
 50
180.0
 51
0.0
  0
ARC
  8
LC-001-002-----0
  6
CONTINUOUS
 62
     1
  5
2A4
 10
147.450619
 20
6082.168
 30
0.0
 40
3.5
 50
180.0
 51
0.0
  0
ARC
  8
LC-001-002-----0
  6
CONTINUOUS
 62
     1
  5
2A5
 10
147.450619
 20
6163.168
 30
0.0
 40
3.5
 50
0.0
 51
180.0
  0
LINE
  8
LC-001-002-----0
  6
CONTINUOUS
 62
     1
  5
2A6
 10
143.950619
 20
6082.168
 30
0.0
 11
143.950619
 21
6163.168
 31
0.0
  0
LINE
  8
LC-001-002-----0
  6
CONTINUOUS
 62
     1
  5
2A7
 10
150.950619
 20
6082.168
 30
0.0
 11
150.950619
 21
6163.168
 31
0.0
  0
LINE
  8
LC-001-002-----0
  6
CONTINUOUS
 62
     1
  5
2A8
 10
262.906619
 20
6163.168
 30
0.0
 11
262.906619
 21
6082.168
 31
0.0
  0
LINE
  8
LC-001-002-----0
  6
CONTINUOUS
 62
     1
  5
2A9
 10
255.906619
 20
6163.168
 30
0.0
 11
255.906619
 21
6082.168
 31
0.0
  0
ARC
  8
LC-001-002-----0
  6
CONTINUOUS
 62
     1
  5
2AA
 10
163.450619
 20
6098.168
 30
0.0
 40
3.5
 50
180.0
 51
0.0
  0
ARC
  8
LC-001-002-----0
  6
CONTINUOUS
 62
     1
  5
2AB
 10
163.450619
 20
6147.168
 30
0.0
 40
3.5
 50
0.0
 51
180.0
  0
LINE
  8
LC-001-002-----0
  6
CONTINUOUS
 62
     1
  5
2AC
 10
159.950619
 20
6098.168
 30
0.0
 11
159.950619
 21
6147.168
 31
0.0
  0
LINE
  8
LC-001-002-----0
  6
CONTINUOUS
 62
     1
  5
2AD
 10
166.950619
 20
6098.168
 30
0.0
 11
166.950619
 21
6147.168
 31
0.0
  0
ARC
  8
LC-001-002-----0
  6
CONTINUOUS
 62
     1
  5
2AE
 10
243.406619
 20
6147.168
 30
0.0
 40
3.5
 50
0.0
 51
180.0
  0
ARC
  8
LC-001-002-----0
  6
CONTINUOUS
 62
     1
  5
2AF
 10
243.406619
 20
6098.168
 30
0.0
 40
3.5
 50
180.0
 51
0.0
  0
LINE
  8
LC-001-002-----0
  6
CONTINUOUS
 62
     1
  5
2B0
 10
246.906619
 20
6147.168
 30
0.0
 11
246.906619
 21
6098.168
 31
0.0
  0
LINE
  8
LC-001-002-----0
  6
CONTINUOUS
 62
     1
  5
2B1
 10
239.906619
 20
6147.168
 30
0.0
 11
239.906619
 21
6098.168
 31
0.0
  0
ARC
  8
LC-001-002-----0
  6
CONTINUOUS
 62
     1
  5
2B2
 10
179.450619
 20
6114.168
 30
0.0
 40
3.5
 50
180.0
 51
0.0
  0
ARC
  8
LC-001-002-----0
  6
CONTINUOUS
 62
     1
  5
2B3
 10
179.450619
 20
6131.168
 30
0.0
 40
3.5
 50
0.0
 51
180.0
  0
LINE
  8
LC-001-002-----0
  6
CONTINUOUS
 62
     1
  5
2B4
 10
175.950619
 20
6114.168
 30
0.0
 11
175.950619
 21
6131.168
 31
0.0
  0
LINE
  8
LC-001-002-----0
  6
CONTINUOUS
 62
     1
  5
2B5
 10
268.616619
 20
6053.69
 30
0.0
 11
138.240619
 21
6053.69
 31
0.0
  0
LINE
  8
LC-001-002-----0
  6
CONTINUOUS
 62
     1
  5
2B6
 10
134.450619
 20
6057.48
 30
0.0
 11
134.450619
 21
6187.856
 31
0.0
  0
LINE
  8
LC-001-002-----0
  6
CONTINUOUS
 62
     1
  5
2B7
 10
138.240619
 20
6191.646
 30
0.0
 11
268.616619
 21
6191.646
 31
0.0
  0
LINE
  8
LC-001-002-----0
  6
CONTINUOUS
 62
     1
  5
2B8
 10
272.406619
 20
6187.856
 30
0.0
 11
272.406619
 21
6057.48
 31
0.0
  0
LINE
  8
LC-001-002-----0
  6
CONTINUOUS
 62
     1
  5
2B9
 10
182.950619
 20
6114.168
 30
0.0
 11
182.950619
 21
6131.168
 31
0.0
  0
ARC
  8
LC-001-002-----0
  6
CONTINUOUS
 62
     1
  5
2BA
 10
227.406619
 20
6131.168
 30
0.0
 40
3.5
 50
0.0
 51
180.0
  0
ARC
  8
LC-001-002-----0
  6
CONTINUOUS
 62
     1
  5
2BB
 10
227.406619
 20
6114.168
 30
0.0
 40
3.5
 50
180.0
 51
0.0
  0
LINE
  8
LC-001-002-----0
  6
CONTINUOUS
 62
     1
  5
2BC
 10
230.906619
 20
6131.168
 30
0.0
 11
230.906619
 21
6114.168
 31
0.0
  0
LINE
  8
LC-001-002-----0
  6
CONTINUOUS
 62
     1
  5
2BD
 10
223.906619
 20
6131.168
 30
0.0
 11
223.906619
 21
6114.168
 31
0.0
  0
ARC
  8
LC-001-002-----0
  6
CONTINUOUS
 62
     1
  5
2BE
 10
162.928619
 20
6178.646
 30
0.0
 40
3.5
 50
90.0
 51
270.0
  0
ARC
  8
LC-001-002-----0
  6
CONTINUOUS
 62
     1
  5
2BF
 10
243.928619
 20
6178.646
 30
0.0
 40
3.5
 50
270.0
 51
90.0
  0
LINE
  8
LC-001-002-----0
  6
CONTINUOUS
 62
     1
  5
2C0
 10
162.928619
 20
6182.146
 30
0.0
 11
243.928619
 21
6182.146
 31
0.0
  0
LINE
  8
LC-001-002-----0
  6
CONTINUOUS
 62
     1
  5
2C1
 10
162.928619
 20
6175.146
 30
0.0
 11
243.928619
 21
6175.146
 31
0.0
  0
ARC
  8
LC-001-002-----0
  6
CONTINUOUS
 62
     1
  5
2C2
 10
178.928619
 20
6162.646
 30
0.0
 40
3.5
 50
90.0
 51
270.0
  0
ARC
  8
LC-001-002-----0
  6
CONTINUOUS
 62
     1
  5
2C3
 10
227.928619
 20
6162.646
 30
0.0
 40
3.5
 50
270.0
 51
90.0
  0
LINE
  8
LC-001-002-----0
  6
CONTINUOUS
 62
     1
  5
2C4
 10
178.928619
 20
6166.146
 30
0.0
 11
227.928619
 21
6166.146
 31
0.0
  0
LINE
  8
LC-001-002-----0
  6
CONTINUOUS
 62
     1
  5
2C5
 10
178.928619
 20
6159.146
 30
0.0
 11
227.928619
 21
6159.146
 31
0.0
  0
ARC
  8
LC-001-002-----0
  6
CONTINUOUS
 62
     1
  5
2C6
 10
194.928619
 20
6146.646
 30
0.0
 40
3.5
 50
90.0
 51
270.0
  0
ARC
  8
LC-001-002-----0
  6
CONTINUOUS
 62
     1
  5
2C7
 10
211.928619
 20
6146.646
 30
0.0
 40
3.5
 50
270.0
 51
90.0
  0
LINE
  8
LC-001-002-----0
  6
CONTINUOUS
 62
     1
  5
2C8
 10
194.928619
 20
6150.146
 30
0.0
 11
211.928619
 21
6150.146
 31
0.0
  0
ARC
  8
LC-004-002-RND-0
  6
CONTINUOUS
  5
2C9
 10
136.928619
 20
6189.168
 30
0.0
 40
3.0
 50
90.0
 51
180.0
  0
ARC
  8
LC-004-002-RND-0
  6
CONTINUOUS
  5
2CA
 10
136.928619
 20
6056.168
 30
0.0
 40
3.0
 50
180.0
 51
270.0
  0
ARC
  8
LC-004-002-RND-0
  6
CONTINUOUS
  5
2CB
 10
269.928619
 20
6056.168
 30
0.0
 40
3.0
 50
270.0
 51
0.0
  0
ARC
  8
LC-004-002-RND-0
  6
CONTINUOUS
  5
2CC
 10
269.928619
 20
6189.168
 30
0.0
 40
3.0
 50
0.0
 51
90.0
  0
LINE
  8
LC-001-002-----0
  6
CONTINUOUS
 62
     1
  5
2CD
 10
127.928619
 20
6195.168
 30
0.0
 11
127.928619
 21
6050.168
 31
0.0
  0
LINE
  8
LC-001-002-----0
  6
CONTINUOUS
 62
     1
  5
2CE
 10
130.928619
 20
6047.168
 30
0.0
 11
275.928619
 21
6047.168
 31
0.0
  0
LINE
  8
LC-001-002-----0
  6
CONTINUOUS
 62
     1
  5
2CF
 10
278.928619
 20
6050.168
 30
0.0
 11
278.928619
 21
6195.168
 31
0.0
  0
LINE
  8
LC-001-002-----0
  6
CONTINUOUS
 62
     1
  5
2D0
 10
275.928619
 20
6198.168
 30
0.0
 11
130.928619
 21
6198.168
 31
0.0
  0
LINE
  8
LC-001-002-----0
  6
CONTINUOUS
 62
     1
  5
2D1
 10
133.928619
 20
6189.168
 30
0.0
 11
133.928619
 21
6056.168
 31
0.0
  0
LINE
  8
LC-001-002-----0
  6
CONTINUOUS
 62
     1
  5
2D2
 10
136.928619
 20
6053.168
 30
0.0
 11
269.928619
 21
6053.168
 31
0.0
  0
LINE
  8
LC-001-002-----0
  6
CONTINUOUS
 62
     1
  5
2D3
 10
272.928619
 20
6056.168
 30
0.0
 11
272.928619
 21
6189.168
 31
0.0
  0
LINE
  8
LC-001-002-----0
  6
CONTINUOUS
 62
     1
  5
2D4
 10
269.928619
 20
6192.168
 30
0.0
 11
136.928619
 21
6192.168
 31
0.0
  0
ARC
  8
LC-004-002-RND-0
  6
CONTINUOUS
  5
2D5
 10
275.928619
 20
6195.168
 30
0.0
 40
3.0
 50
0.0
 51
90.0
  0
ARC
  8
LC-004-002-RND-0
  6
CONTINUOUS
  5
2D6
 10
130.928619
 20
6195.168
 30
0.0
 40
3.0
 50
90.0
 51
180.0
  0
ARC
  8
LC-004-002-RND-0
  6
CONTINUOUS
  5
2D7
 10
130.928619
 20
6050.168
 30
0.0
 40
3.0
 50
180.0
 51
270.0
  0
ARC
  8
LC-004-002-RND-0
  6
CONTINUOUS
  5
2D8
 10
275.928619
 20
6050.168
 30
0.0
 40
3.0
 50
270.0
 51
0.0
  0
ENDSEC
  0
EOF
