  0
SECTION
  2
HEADER
  9
$ACADVER
  1
AC1009
  9
$INSBASE
 10
0.0
 20
0.0
 30
0.0
  9
$EXTMIN
 10
-210.0
 20
-148.5
 30
0.0
  9
$EXTMAX
 10
630.0
 20
445.5
 30
0.0
  9
$LIMMIN
 10
-210.0
 20
-148.5
  9
$LIMMAX
 10
630.0
 20
445.5
  9
$ORTHOMODE
 70
     0
  9
$REGENMODE
 70
     1
  9
$FILLMODE
 70
     1
  9
$QTEXTMODE
 70
     0
  9
$MIRRTEXT
 70
     1
  9
$DRAGMODE
 70
     2
  9
$LTSCALE
 40
2.0
  9
$OSMODE
 70
     0
  9
$ATTMODE
 70
     1
  9
$TEXTSIZE
 40
0.2
  9
$TRACEWID
 40
0.05
  9
$TEXTSTYLE
  7
STANDARD
  9
$CLAYER
  8
0
  9
$CELTYPE
  6
BYLAYER
  9
$CECOLOR
 62
     7
  9
$DIMSCALE
 40
2.0
  9
$DIMASZ
 40
3.5
  9
$DIMEXO
 40
0.0625
  9
$DIMDLI
 40
0.38
  9
$DIMRND
 40
0.0
  9
$DIMDLE
 40
0.0
  9
$DIMEXE
 40
0.18
  9
$DIMTP
 40
0.0
  9
$DIMTM
 40
0.0
  9
$DIMTXT
 40
3.5
  9
$DIMCEN
 40
0.09
  9
$DIMTSZ
 40
0.0
  9
$DIMTOL
 70
     0
  9
$DIMLIM
 70
     0
  9
$DIMTIH
 70
     1
  9
$DIMTOH
 70
     1
  9
$DIMSE1
 70
     0
  9
$DIMSE2
 70
     0
  9
$DIMTAD
 70
     1
  9
$DIMZIN
 70
     0
  9
$DIMBLK
  1

  9
$DIMASO
 70
     1
  9
$DIMSHO
 70
     1
  9
$DIMPOST
  1

  9
$DIMAPOST
  1

  9
$DIMALT
 70
     0
  9
$DIMALTD
 70
     2
  9
$DIMALTF
 40
25.4
  9
$DIMLFAC
 40
1.0
  9
$DIMTOFL
 70
     0
  9
$DIMTVP
 40
0.0
  9
$DIMTIX
 70
     0
  9
$DIMSOXD
 70
     0
  9
$DIMSAH
 70
     0
  9
$DIMBLK1
  1

  9
$DIMBLK2
  1

  9
$DIMSTYLE
  2
STANDARD
  9
$DIMCLRD
 70
     0
  9
$DIMCLRE
 70
     0
  9
$DIMCLRT
 70
     0
  9
$DIMTFAC
 40
1.0
  9
$DIMGAP
 40
0.09
  9
$LUNITS
 70
     2
  9
$LUPREC
 70
     2
  9
$AXISMODE
 70
     0
  9
$AXISUNIT
 10
0.0
 20
0.0
  9
$SKETCHINC
 40
0.1
  9
$FILLETRAD
 40
0.0
  9
$AUNITS
 70
     0
  9
$AUPREC
 70
     0
  9
$MENU
  1
acad
  9
$ELEVATION
 40
0.0
  9
$PELEVATION
 40
0.0
  9
$THICKNESS
 40
0.0
  9
$LIMCHECK
 70
     0
  9
$BLIPMODE
 70
     1
  9
$CHAMFERA
 40
0.0
  9
$CHAMFERB
 40
0.0
  9
$SKPOLY
 70
     0
  9
$TDCREATE
 40
0.000000000
  9
$TDUPDATE
 40
0.000000000
  9
$TDINDWG
 40
0.0000000000
  9
$TDUSRTIMER
 40
0.0000000000
  9
$USRTIMER
 70
     1
  9
$ANGBASE
 50
0.0
  9
$ANGDIR
 70
     0
  9
$PDMODE
 70
     0
  9
$PDSIZE
 40
0.0
  9
$PLINEWID
 40
0.0
  9
$COORDS
 70
     0
  9
$SPLFRAME
 70
     0
  9
$SPLINETYPE
 70
     6
  9
$SPLINESEGS
 70
     8
  9
$ATTDIA
 70
     0
  9
$ATTREQ
 70
     1
  9
$HANDLING
 70
     1
  9
$HANDSEED
  5
164
  9
$SURFTAB1
 70
     6
  9
$SURFTAB2
 70
     6
  9
$SURFTYPE
 70
     6
  9
$SURFU
 70
     6
  9
$SURFV
 70
     6
  9
$UCSNAME
  2

  9
$UCSORG
 10
0.0
 20
0.0
 30
0.0
  9
$UCSXDIR
 10
1.0
 20
0.0
 30
0.0
  9
$UCSYDIR
 10
0.0
 20
1.0
 30
0.0
  9
$PUCSNAME
  2

  9
$PUCSORG
 10
0.0
 20
0.0
 30
0.0
  9
$PUCSXDIR
 10
1.0
 20
0.0
 30
0.0
  9
$PUCSYDIR
 10
0.0
 20
1.0
 30
0.0
  9
$USERI1
 70
     0
  9
$USERI2
 70
     0
  9
$USERI3
 70
     0
  9
$USERI4
 70
     0
  9
$USERI5
 70
     0
  9
$USERR1
 40
0.0
  9
$USERR2
 40
0.0
  9
$USERR3
 40
0.0
  9
$USERR4
 40
0.0
  9
$USERR5
 40
0.0
  9
$WORLDVIEW
 70
     1
  9
$SHADEDGE
 70
     3
  9
$SHADEDIF
 70
    70
  9
$TILEMODE
 70
     1
  9
$MAXACTVP
 70
    16
  9
$PINSBASE
 10
0.0
 20
0.0
 30
0.0
  9
$PLIMCHECK
 70
     0
  9
$PEXTMIN
 10
1.000000E+20
 20
1.000000E+20
 30
1.000000E+20
  9
$PEXTMAX
 10
-1.000000E+20
 20
-1.000000E+20
 30
-1.000000E+20
  9
$PLIMMIN
 10
-210.0
 20
-148.5
  9
$PLIMMAX
 10
630.0
 20
445.5
  9
$UNITMODE
 70
     0
  9
$VISRETAIN
 70
     0
  9
$PLINEGEN
 70
     1
  9
$PSLTSCALE
 70
     0
  9
$TREEDEPTH
 70
  3020
  9
$DWGCODEPAGE
  3
dos850
  0
ENDSEC
  0
SECTION
  2
TABLES
  0
TABLE
  2
VPORT
 70
     1
  0
VPORT
  2
*ACTIVE
 70
     0
 10
0.0
 20
0.0
 11
1.0
 21
1.0
 12
420.0
 22
297.0
 13
0.0
 23
0.0
 14
1.0
 24
1.0
 15
0.0
 25
0.0
 16
0.0
 26
0.0
 36
1.0
 17
-210.0
 27
-148.5
 37
0.0
 40
594.0
 41
1.604229
 42
50.0
 43
0.0
 44
0.0
 50
0.0
 51
0.0
 71
     0
 72
   100
 73
     1
 74
     1
 75
     0
 76
     0
 77
     0
 78
     0
  0
ENDTAB
  0
TABLE
  2
LTYPE
 70
     4
  0
LTYPE
  2
CONTINUOUS
 70
    64
  3
Solid line
 72
    65
 73
     0
 40
0.0
  0
LTYPE
  2
DASHED
 70
    64
  3
__ __ __ __ __
 72
    65
 73
     2
 40
6.25
 49
5.0
 49
-1.25
  0
LTYPE
  2
DASHDOT
 70
    64
  3
__ . __ . __ . __ . __
 72
    65
 73
     4
 40
7.5
 49
5.0
 49
-1.25
 49
0.0
 49
-1.25
  0
LTYPE
  2
CENTER
 70
    64
  3
__ . __ . __ . __ . __
 72
    65
 73
     4
 40
7.5
 49
5.0
 49
-1.25
 49
0.0
 49
-1.25
  0
ENDTAB
  0
TABLE
  2
LAYER
 70
    12
  0
LAYER
  2
0
 70
     0
 62
     7
  6
CONTINUOUS
  0
LAYER
  2
LC-INFO-1-2-MM-A3-0
 70
     1
 62
    -1
  6
CONTINUOUS
  0
LAYER
  2
LC-006-005-----0
 70
     0
 62
     2
  6
CONTINUOUS
  0
LAYER
  2
LC-008-003-MTH-0
 70
     0
 62
     2
  6
CONTINUOUS
  0
LAYER
  2
LC-007-003-----0
 70
     0
 62
     2
  6
CONTINUOUS
  0
LAYER
  2
LC-009-003-MTG-0
 70
     0
 62
     2
  6
CONTINUOUS
  0
LAYER
  2
LC-001-000-----0
 70
     0
 62
     7
  6
CONTINUOUS
  0
LAYER
  2
LC-002-002-----0
 70
     0
 62
     1
  6
CONTINUOUS
  0
LAYER
  2
LC-003-002-RND-0
 70
     0
 62
     1
  6
CONTINUOUS
  0
LAYER
  2
LC-004-006-MLN-0
 70
     0
 62
     2
  6
CENTER
  0
LAYER
  2
LC-005-101-----0
 70
     0
 62
     1
  6
CONTINUOUS
  0
LAYER
  2
LC-000
 70
     0
 62
     7
  6
CONTINUOUS
  0
ENDTAB
  0
TABLE
  2
STYLE
 70
     4
  0
STYLE
  2
STANDARD
 70
     0
 40
0.0
 41
1.0
 50
0.0
 71
     0
 42
0.0
  3
txt
  4

  0
STYLE
  2
LC-STANDARD
 70
    64
 40
0.0
 41
1.0
 50
0.0
 71
     0
 42
3.5
  3
MONOTXT
  4

  0
STYLE
  2
LC-TXTSTYLE-150-400-0-0-D2
 70
    64
 40
0.0
 41
1.0
 50
15.0
 71
     0
 42
3.5
  3
MONOTXT
  4

  0
STYLE
  2
LC-TXTSTYLE-150-400-0-0-D3
 70
    64
 40
0.0
 41
1.0
 50
15.0
 71
     0
 42
3.5
  3
LC-STANDARD
  4

  0
ENDTAB
  0
TABLE
  2
VIEW
 70
     0
  0
ENDTAB
  0
TABLE
  2
UCS
 70
     0
  0
ENDTAB
  0
TABLE
  2
APPID
 70
     1
  0
APPID
  2
ACAD
 70
     0
  0
ENDTAB
  0
TABLE
  2
DIMSTYLE
 70
     4
  0
DIMSTYLE
  2
STANDARD
 70
     0
  3

  4

  5

  6

  7

 40
1.0
 41
0.18
 42
0.0625
 43
0.38
 44
0.18
 45
0.0
 46
0.0
 47
0.0
 48
0.0
 71
     0
 72
     0
 73
     1
 74
     1
 75
     0
 76
     0
 77
     0
 78
     0
140
0.18
141
0.09
142
0.0
143
25.4
144
1.0
145
0.0
146
1.0
147
0.09
170
     0
171
     2
172
     0
173
     0
174
     0
175
     0
176
     0
177
     0
178
     0
  0
DIMSTYLE
  2
LC-STANDARD
 70
     0
  3

  4

  5

  6

  7

 40
1.0
 41
3.5
 42
0.0
 43
7.5
 44
1.8
 45
0.0
 46
0.0
 47
0.0
 48
0.0
 71
     0
 72
     0
 73
     0
 74
     0
 75
     0
 76
     0
 77
     1
 78
     8
140
3.5
141
0.0
142
0.0
143
25.4
144
1.0
145
0.0
146
0.71
147
1.5
170
     0
171
     2
172
     1
173
     0
174
     0
175
     0
176
     0
177
     0
178
     3
  0
DIMSTYLE
  2
LC-DIM-L-0090-01-02
 70
     0
  3

  4

  5

  6

  7

 40
2.0
 41
3.5
 42
0.0
 43
7.5
 44
1.8
 45
0.0
 46
0.0
 47
0.0
 48
0.0
 71
     0
 72
     0
 73
     0
 74
     0
 75
     0
 76
     0
 77
     1
 78
     8
140
9.0
141
0.0
142
0.0
143
25.4
144
1.0
145
0.0
146
0.71
147
1.5
170
     0
171
     2
172
     0
173
     0
174
     0
175
     0
176
     2
177
     2
178
     6
  0
DIMSTYLE
  2
LC-DIM-L-0090-02-02
 70
     0
  3

  4

  5

  6

  7

 40
2.0
 41
3.5
 42
0.0
 43
7.5
 44
1.8
 45
0.0
 46
0.0
 47
0.0
 48
0.0
 71
     0
 72
     0
 73
     0
 74
     0
 75
     0
 76
     0
 77
     1
 78
     8
140
9.0
141
0.0
142
0.0
143
25.4
144
1.0
145
0.0
146
0.71
147
1.5
170
     0
171
     2
172
     0
173
     0
174
     0
175
     0
176
     2
177
     2
178
     6
  0
ENDTAB
  0
ENDSEC
  0
SECTION
  2
BLOCKS
  0
BLOCK
  8
0
  5
24
  2
BLK1
 70
    64
 10
0.0
 20
0.0
 30
0.0
  3
BLK1
  0
ENDBLK
  8
0
  5
25
  0
BLOCK
  8
0
  5
27
  2
*X1
 70
    65
 10
114.768122
 20
185.925178
 30
0.0
  3
*X1
  0
LINE
  8
LC-006-005-----0
  6
CONTINUOUS
  5
29
 10
136.768122
 20
187.679811
 30
0.0
 11
137.768122
 21
188.679811
 31
0.0
  0
LINE
  8
LC-006-005-----0
  6
CONTINUOUS
  5
2A
 10
136.768122
 20
190.508238
 30
0.0
 11
137.768122
 21
191.508238
 31
0.0
  0
LINE
  8
LC-006-005-----0
  6
CONTINUOUS
  5
2B
 10
136.768122
 20
193.336665
 30
0.0
 11
137.768122
 21
194.336665
 31
0.0
  0
LINE
  8
LC-006-005-----0
  6
CONTINUOUS
  5
2C
 10
136.768122
 20
196.165092
 30
0.0
 11
137.768122
 21
197.165092
 31
0.0
  0
LINE
  8
LC-006-005-----0
  6
CONTINUOUS
  5
2D
 10
136.768122
 20
198.993519
 30
0.0
 11
137.768122
 21
199.993519
 31
0.0
  0
LINE
  8
LC-006-005-----0
  6
CONTINUOUS
  5
2E
 10
136.768122
 20
201.821946
 30
0.0
 11
137.768122
 21
202.821946
 31
0.0
  0
LINE
  8
LC-006-005-----0
  6
CONTINUOUS
  5
2F
 10
136.768122
 20
204.650373
 30
0.0
 11
137.768122
 21
205.650373
 31
0.0
  0
LINE
  8
LC-006-005-----0
  6
CONTINUOUS
  5
30
 10
136.768122
 20
207.4788
 30
0.0
 11
137.768122
 21
208.4788
 31
0.0
  0
LINE
  8
LC-006-005-----0
  6
CONTINUOUS
  5
31
 10
136.768122
 20
210.307227
 30
0.0
 11
137.768122
 21
211.307227
 31
0.0
  0
LINE
  8
LC-006-005-----0
  6
CONTINUOUS
  5
32
 10
136.768122
 20
213.135655
 30
0.0
 11
137.768122
 21
214.135655
 31
0.0
  0
LINE
  8
LC-006-005-----0
  6
CONTINUOUS
  5
33
 10
136.768122
 20
215.964082
 30
0.0
 11
137.768122
 21
216.964082
 31
0.0
  0
LINE
  8
LC-006-005-----0
  6
CONTINUOUS
  5
34
 10
136.768122
 20
218.792509
 30
0.0
 11
137.768122
 21
219.792509
 31
0.0
  0
LINE
  8
LC-006-005-----0
  6
CONTINUOUS
  5
35
 10
136.768122
 20
221.620936
 30
0.0
 11
137.768122
 21
222.620936
 31
0.0
  0
LINE
  8
LC-006-005-----0
  6
CONTINUOUS
  5
36
 10
136.768122
 20
224.449363
 30
0.0
 11
137.768122
 21
225.449363
 31
0.0
  0
LINE
  8
LC-006-005-----0
  6
CONTINUOUS
  5
37
 10
136.768122
 20
227.27779
 30
0.0
 11
137.768122
 21
228.27779
 31
0.0
  0
LINE
  8
LC-006-005-----0
  6
CONTINUOUS
  5
38
 10
136.768122
 20
230.106217
 30
0.0
 11
137.768122
 21
231.106217
 31
0.0
  0
LINE
  8
LC-006-005-----0
  6
CONTINUOUS
  5
39
 10
136.768122
 20
232.934644
 30
0.0
 11
137.768122
 21
233.934644
 31
0.0
  0
LINE
  8
LC-006-005-----0
  6
CONTINUOUS
  5
3A
 10
136.768122
 20
235.763072
 30
0.0
 11
137.768122
 21
236.763071
 31
0.0
  0
LINE
  8
LC-006-005-----0
  6
CONTINUOUS
  5
3B
 10
136.768122
 20
238.591499
 30
0.0
 11
137.768122
 21
239.591499
 31
0.0
  0
LINE
  8
LC-006-005-----0
  6
CONTINUOUS
  5
3C
 10
136.768122
 20
241.419926
 30
0.0
 11
137.768122
 21
242.419926
 31
0.0
  0
LINE
  8
LC-006-005-----0
  6
CONTINUOUS
  5
3D
 10
136.768122
 20
244.248353
 30
0.0
 11
137.768122
 21
245.248353
 31
0.0
  0
LINE
  8
LC-006-005-----0
  6
CONTINUOUS
  5
3E
 10
136.505511
 20
246.814168
 30
0.0
 11
137.530689
 21
247.839347
 31
0.0
  0
LINE
  8
LC-006-005-----0
  6
CONTINUOUS
  5
3F
 10
135.800063
 20
248.937148
 30
0.0
 11
136.838414
 21
249.975499
 31
0.0
  0
LINE
  8
LC-006-005-----0
  6
CONTINUOUS
  5
40
 10
134.774657
 20
250.740169
 30
0.0
 11
135.819193
 21
251.784705
 31
0.0
  0
LINE
  8
LC-006-005-----0
  6
CONTINUOUS
  5
41
 10
133.477426
 20
252.271365
 30
0.0
 11
134.523727
 21
253.317666
 31
0.0
  0
LINE
  8
LC-006-005-----0
  6
CONTINUOUS
  5
42
 10
131.920872
 20
253.543239
 30
0.0
 11
132.965109
 21
254.587476
 31
0.0
  0
LINE
  8
LC-006-005-----0
  6
CONTINUOUS
  5
43
 10
129.906355
 20
254.357148
 30
0.0
 11
131.1273
 21
255.578093
 31
0.0
  0
LINE
  8
LC-006-005-----0
  6
CONTINUOUS
  5
44
 10
127.145957
 20
254.425178
 30
0.0
 11
128.954583
 21
256.233803
 31
0.0
  0
LINE
  8
LC-006-005-----0
  6
CONTINUOUS
  5
45
 10
124.31753
 20
254.425178
 30
0.0
 11
126.31726
 21
256.424908
 31
0.0
  0
LINE
  8
LC-006-005-----0
  6
CONTINUOUS
  5
46
 10
121.489103
 20
254.425178
 30
0.0
 11
123.488917
 21
256.424992
 31
0.0
  0
LINE
  8
LC-006-005-----0
  6
CONTINUOUS
  5
47
 10
118.660676
 20
254.425178
 30
0.0
 11
121.809714
 21
257.574216
 31
0.0
  0
LINE
  8
LC-006-005-----0
  6
CONTINUOUS
  5
48
 10
117.592134
 20
256.185063
 30
0.0
 11
118.332249
 21
256.925178
 31
0.0
  0
LINE
  8
LC-006-005-----0
  6
CONTINUOUS
  5
49
 10
120.268122
 20
258.861051
 30
0.0
 11
121.653508
 21
260.246437
 31
0.0
  0
LINE
  8
LC-006-005-----0
  6
CONTINUOUS
  5
4A
 10
118.998111
 20
260.419467
 30
0.0
 11
120.47256
 21
261.893916
 31
0.0
  0
LINE
  8
LC-006-005-----0
  6
CONTINUOUS
  5
4B
 10
117.268122
 20
261.517906
 30
0.0
 11
118.175368
 21
262.425151
 31
0.0
  0
ENDBLK
  8
0
  5
4C
  0
BLOCK
  8
0
  5
4E
  2
*X2
 70
    65
 10
177.768122
 20
185.925178
 30
0.0
  3
*X2
  0
LINE
  8
LC-006-005-----0
  6
CONTINUOUS
  5
4F
 10
177.768122
 20
186.253404
 30
0.0
 11
178.768122
 21
187.253404
 31
0.0
  0
LINE
  8
LC-006-005-----0
  6
CONTINUOUS
  5
50
 10
177.768122
 20
189.081831
 30
0.0
 11
178.768122
 21
190.081831
 31
0.0
  0
LINE
  8
LC-006-005-----0
  6
CONTINUOUS
  5
51
 10
177.768122
 20
191.910258
 30
0.0
 11
178.768122
 21
192.910258
 31
0.0
  0
LINE
  8
LC-006-005-----0
  6
CONTINUOUS
  5
52
 10
177.768122
 20
194.738685
 30
0.0
 11
178.768122
 21
195.738685
 31
0.0
  0
LINE
  8
LC-006-005-----0
  6
CONTINUOUS
  5
53
 10
177.768122
 20
197.567112
 30
0.0
 11
178.768122
 21
198.567112
 31
0.0
  0
LINE
  8
LC-006-005-----0
  6
CONTINUOUS
  5
54
 10
177.768122
 20
200.395539
 30
0.0
 11
178.768122
 21
201.395539
 31
0.0
  0
LINE
  8
LC-006-005-----0
  6
CONTINUOUS
  5
55
 10
177.768122
 20
203.223966
 30
0.0
 11
178.768122
 21
204.223966
 31
0.0
  0
LINE
  8
LC-006-005-----0
  6
CONTINUOUS
  5
56
 10
177.768122
 20
206.052394
 30
0.0
 11
178.768122
 21
207.052394
 31
0.0
  0
LINE
  8
LC-006-005-----0
  6
CONTINUOUS
  5
57
 10
177.768122
 20
208.880821
 30
0.0
 11
178.768122
 21
209.880821
 31
0.0
  0
LINE
  8
LC-006-005-----0
  6
CONTINUOUS
  5
58
 10
177.768122
 20
211.709248
 30
0.0
 11
178.768122
 21
212.709248
 31
0.0
  0
LINE
  8
LC-006-005-----0
  6
CONTINUOUS
  5
59
 10
177.768122
 20
214.537675
 30
0.0
 11
178.768122
 21
215.537675
 31
0.0
  0
LINE
  8
LC-006-005-----0
  6
CONTINUOUS
  5
5A
 10
177.768122
 20
217.366102
 30
0.0
 11
178.768122
 21
218.366102
 31
0.0
  0
LINE
  8
LC-006-005-----0
  6
CONTINUOUS
  5
5B
 10
177.768122
 20
220.194529
 30
0.0
 11
178.768122
 21
221.194529
 31
0.0
  0
LINE
  8
LC-006-005-----0
  6
CONTINUOUS
  5
5C
 10
177.768122
 20
223.022956
 30
0.0
 11
178.768122
 21
224.022956
 31
0.0
  0
LINE
  8
LC-006-005-----0
  6
CONTINUOUS
  5
5D
 10
177.768122
 20
225.851384
 30
0.0
 11
178.768122
 21
226.851384
 31
0.0
  0
LINE
  8
LC-006-005-----0
  6
CONTINUOUS
  5
5E
 10
177.768122
 20
228.679811
 30
0.0
 11
178.768122
 21
229.679811
 31
0.0
  0
LINE
  8
LC-006-005-----0
  6
CONTINUOUS
  5
5F
 10
177.768122
 20
231.508238
 30
0.0
 11
178.768122
 21
232.508238
 31
0.0
  0
LINE
  8
LC-006-005-----0
  6
CONTINUOUS
  5
60
 10
177.768122
 20
234.336665
 30
0.0
 11
178.768122
 21
235.336665
 31
0.0
  0
LINE
  8
LC-006-005-----0
  6
CONTINUOUS
  5
61
 10
177.768122
 20
237.165092
 30
0.0
 11
178.768122
 21
238.165092
 31
0.0
  0
LINE
  8
LC-006-005-----0
  6
CONTINUOUS
  5
62
 10
195.028208
 20
254.425178
 30
0.0
 11
197.524706
 21
256.921676
 31
0.0
  0
LINE
  8
LC-006-005-----0
  6
CONTINUOUS
  5
63
 10
177.768123
 20
239.993519
 30
0.0
 11
178.768122
 21
240.993519
 31
0.0
  0
LINE
  8
LC-006-005-----0
  6
CONTINUOUS
  5
64
 10
192.199781
 20
254.425178
 30
0.0
 11
195.268123
 21
257.49352
 31
0.0
  0
LINE
  8
LC-006-005-----0
  6
CONTINUOUS
  5
65
 10
177.768123
 20
242.821946
 30
0.0
 11
178.768123
 21
243.821946
 31
0.0
  0
LINE
  8
LC-006-005-----0
  6
CONTINUOUS
  5
66
 10
189.371354
 20
254.425178
 30
0.0
 11
191.371148
 21
256.424972
 31
0.0
  0
LINE
  8
LC-006-005-----0
  6
CONTINUOUS
  5
67
 10
193.768124
 20
258.821948
 30
0.0
 11
197.371327
 21
262.425151
 31
0.0
  0
LINE
  8
LC-006-005-----0
  6
CONTINUOUS
  5
68
 10
177.768335
 20
245.650586
 30
0.0
 11
179.06005
 21
246.942301
 31
0.0
  0
LINE
  8
LC-006-005-----0
  6
CONTINUOUS
  5
69
 10
186.542927
 20
254.425178
 30
0.0
 11
188.542636
 21
256.424887
 31
0.0
  0
LINE
  8
LC-006-005-----0
  6
CONTINUOUS
  5
6A
 10
178.336514
 20
249.047192
 30
0.0
 11
185.146293
 21
255.856971
 31
0.0
  0
ENDBLK
  8
0
  5
6B
  0
BLOCK
  8
0
  5
6D
  2
*D3
 70
    65
 10
0.0
 20
0.0
 30
0.0
  3
*D3
  0
LINE
  8
LC-008-003-MTH-0
  6
CONTINUOUS
  5
6F
 10
118.220616
 20
254.425178
 30
0.0
 11
97.2
 21
254.425178
 31
0.0
  0
LINE
  8
LC-008-003-MTH-0
  6
CONTINUOUS
  5
70
 10
118.768211
 20
262.425133
 30
0.0
 11
97.2
 21
262.425133
 31
0.0
  0
LINE
  8
LC-007-003-----0
  6
CONTINUOUS
  5
72
 10
110.349471
 20
236.57917
 30
0.0
 11
108.0
 21
254.425178
 31
0.0
  0
LINE
  8
LC-007-003-----0
  6
CONTINUOUS
  5
73
 10
108.0
 20
254.425178
 30
0.0
 11
105.650529
 21
236.57917
 31
0.0
  0
LINE
  8
LC-007-003-----0
  6
CONTINUOUS
  5
74
 10
105.650529
 20
236.57917
 30
0.0
 11
110.349471
 21
236.57917
 31
0.0
  0
LINE
  8
LC-007-003-----0
  6
CONTINUOUS
  5
75
 10
109.738609
 20
236.539132
 30
0.0
 11
108.0
 21
249.745178
 31
0.0
  0
LINE
  8
LC-007-003-----0
  6
CONTINUOUS
  5
76
 10
108.0
 20
249.745178
 30
0.0
 11
106.261391
 21
236.539132
 31
0.0
  0
LINE
  8
LC-007-003-----0
  6
CONTINUOUS
  5
77
 10
109.127746
 20
236.499094
 30
0.0
 11
108.0
 21
245.065178
 31
0.0
  0
LINE
  8
LC-007-003-----0
  6
CONTINUOUS
  5
78
 10
108.0
 20
245.065178
 30
0.0
 11
106.872254
 21
236.499094
 31
0.0
  0
LINE
  8
LC-007-003-----0
  6
CONTINUOUS
  5
79
 10
108.516884
 20
236.459056
 30
0.0
 11
108.0
 21
240.385178
 31
0.0
  0
LINE
  8
LC-007-003-----0
  6
CONTINUOUS
  5
7A
 10
108.0
 20
240.385178
 30
0.0
 11
107.483116
 21
236.459056
 31
0.0
  0
LINE
  8
LC-007-003-----0
  6
CONTINUOUS
  5
7B
 10
105.650529
 20
280.271141
 30
0.0
 11
108.0
 21
262.425133
 31
0.0
  0
LINE
  8
LC-007-003-----0
  6
CONTINUOUS
  5
7C
 10
108.0
 20
262.425133
 30
0.0
 11
110.349471
 21
280.271141
 31
0.0
  0
LINE
  8
LC-007-003-----0
  6
CONTINUOUS
  5
7D
 10
110.349471
 20
280.271141
 30
0.0
 11
105.650529
 21
280.271141
 31
0.0
  0
LINE
  8
LC-007-003-----0
  6
CONTINUOUS
  5
7E
 10
106.261391
 20
280.311179
 30
0.0
 11
108.0
 21
267.105133
 31
0.0
  0
LINE
  8
LC-007-003-----0
  6
CONTINUOUS
  5
7F
 10
108.0
 20
267.105133
 30
0.0
 11
109.738609
 21
280.311179
 31
0.0
  0
LINE
  8
LC-007-003-----0
  6
CONTINUOUS
  5
80
 10
106.872254
 20
280.351217
 30
0.0
 11
108.0
 21
271.785133
 31
0.0
  0
LINE
  8
LC-007-003-----0
  6
CONTINUOUS
  5
81
 10
108.0
 20
271.785133
 30
0.0
 11
109.127746
 21
280.351217
 31
0.0
  0
LINE
  8
LC-007-003-----0
  6
CONTINUOUS
  5
82
 10
107.483116
 20
280.391255
 30
0.0
 11
108.0
 21
276.465133
 31
0.0
  0
LINE
  8
LC-007-003-----0
  6
CONTINUOUS
  5
83
 10
108.0
 20
276.465133
 30
0.0
 11
108.516884
 21
280.391255
 31
0.0
  0
LINE
  8
LC-009-003-MTG-0
  6
CONTINUOUS
  5
85
 10
108.0
 20
229.225178
 30
0.0
 11
108.0
 21
304.227653
 31
0.0
  0
TEXT
  8
LC-007-003-----0
  6
CONTINUOUS
 62
     6
  5
87
 10
97.568001
 20
289.700379
 30
0.0
 40
18.0
  1
8
 50
90.0
 41
0.9
 51
15.0
  7
LC-TXTSTYLE-150-400-0-0-D0
  0
ENDBLK
  8
0
  5
88
  0
BLOCK
  8
0
  5
8A
  2
*D4
 70
    65
 10
0.0
 20
0.0
 30
0.0
  3
*D4
  0
LINE
  8
LC-008-003-MTH-0
  6
CONTINUOUS
  5
8B
 10
178.768123
 20
244.424924
 30
0.0
 11
262.8
 21
244.424924
 31
0.0
  0
LINE
  8
LC-008-003-MTH-0
  6
CONTINUOUS
  5
8C
 10
198.268122
 20
262.425178
 30
0.0
 11
262.8
 21
262.425178
 31
0.0
  0
LINE
  8
LC-007-003-----0
  6
CONTINUOUS
  5
8D
 10
254.349471
 20
226.578916
 30
0.0
 11
252.0
 21
244.424924
 31
0.0
  0
LINE
  8
LC-007-003-----0
  6
CONTINUOUS
  5
8E
 10
252.0
 20
244.424924
 30
0.0
 11
249.650529
 21
226.578916
 31
0.0
  0
LINE
  8
LC-007-003-----0
  6
CONTINUOUS
  5
8F
 10
249.650529
 20
226.578916
 30
0.0
 11
254.349471
 21
226.578916
 31
0.0
  0
LINE
  8
LC-007-003-----0
  6
CONTINUOUS
  5
90
 10
253.738609
 20
226.538878
 30
0.0
 11
252.0
 21
239.744924
 31
0.0
  0
LINE
  8
LC-007-003-----0
  6
CONTINUOUS
  5
91
 10
252.0
 20
239.744924
 30
0.0
 11
250.261391
 21
226.538878
 31
0.0
  0
LINE
  8
LC-007-003-----0
  6
CONTINUOUS
  5
92
 10
253.127746
 20
226.49884
 30
0.0
 11
252.0
 21
235.064924
 31
0.0
  0
LINE
  8
LC-007-003-----0
  6
CONTINUOUS
  5
93
 10
252.0
 20
235.064924
 30
0.0
 11
250.872254
 21
226.49884
 31
0.0
  0
LINE
  8
LC-007-003-----0
  6
CONTINUOUS
  5
94
 10
252.516884
 20
226.458802
 30
0.0
 11
252.0
 21
230.384924
 31
0.0
  0
LINE
  8
LC-007-003-----0
  6
CONTINUOUS
  5
95
 10
252.0
 20
230.384924
 30
0.0
 11
251.483116
 21
226.458802
 31
0.0
  0
LINE
  8
LC-007-003-----0
  6
CONTINUOUS
  5
96
 10
249.650529
 20
280.271185
 30
0.0
 11
252.0
 21
262.425178
 31
0.0
  0
LINE
  8
LC-007-003-----0
  6
CONTINUOUS
  5
97
 10
252.0
 20
262.425178
 30
0.0
 11
254.349471
 21
280.271185
 31
0.0
  0
LINE
  8
LC-007-003-----0
  6
CONTINUOUS
  5
98
 10
254.349471
 20
280.271185
 30
0.0
 11
249.650529
 21
280.271185
 31
0.0
  0
LINE
  8
LC-007-003-----0
  6
CONTINUOUS
  5
99
 10
250.261391
 20
280.311223
 30
0.0
 11
252.0
 21
267.105178
 31
0.0
  0
LINE
  8
LC-007-003-----0
  6
CONTINUOUS
  5
9A
 10
252.0
 20
267.105178
 30
0.0
 11
253.738609
 21
280.311223
 31
0.0
  0
LINE
  8
LC-007-003-----0
  6
CONTINUOUS
  5
9B
 10
250.872254
 20
280.351262
 30
0.0
 11
252.0
 21
271.785178
 31
0.0
  0
LINE
  8
LC-007-003-----0
  6
CONTINUOUS
  5
9C
 10
252.0
 20
271.785178
 30
0.0
 11
253.127746
 21
280.351262
 31
0.0
  0
LINE
  8
LC-007-003-----0
  6
CONTINUOUS
  5
9D
 10
251.483116
 20
280.3913
 30
0.0
 11
252.0
 21
276.465178
 31
0.0
  0
LINE
  8
LC-007-003-----0
  6
CONTINUOUS
  5
9E
 10
252.0
 20
276.465178
 30
0.0
 11
252.516884
 21
280.3913
 31
0.0
  0
LINE
  8
LC-009-003-MTG-0
  6
CONTINUOUS
  5
9F
 10
252.0
 20
219.224924
 30
0.0
 11
252.0
 21
320.427698
 31
0.0
  0
TEXT
  8
LC-007-003-----0
  6
CONTINUOUS
 62
     6
  5
A0
 10
241.568001
 20
289.700424
 30
0.0
 40
18.0
  1
18
 50
90.0
 51
15.0
  7
LC-TXTSTYLE-150-400-0-0-D0
  0
ENDBLK
  8
0
  5
A1
  0
BLOCK
  8
0
  5
A3
  2
BLK2
 70
    64
 10
0.0
 20
0.0
 30
0.0
  3
BLK2
  0
ENDBLK
  8
0
  5
A4
  0
BLOCK
  8
0
  5
A6
  2
*D6
 70
    65
 10
0.0
 20
0.0
 30
0.0
  3
*D6
  0
LINE
  8
LC-008-003-MTH-0
  6
CONTINUOUS
  5
A7
 10
136.768122
 20
185.925178
 30
0.0
 11
136.768122
 21
169.2
 31
0.0
  0
LINE
  8
LC-008-003-MTH-0
  6
CONTINUOUS
  5
A8
 10
178.768122
 20
185.925178
 30
0.0
 11
178.768122
 21
169.2
 31
0.0
  0
LINE
  8
LC-007-003-----0
  6
CONTINUOUS
  5
A9
 10
118.922115
 20
177.650529
 30
0.0
 11
136.768122
 21
180.0
 31
0.0
  0
LINE
  8
LC-007-003-----0
  6
CONTINUOUS
  5
AA
 10
136.768122
 20
180.0
 30
0.0
 11
118.922115
 21
182.349471
 31
0.0
  0
LINE
  8
LC-007-003-----0
  6
CONTINUOUS
  5
AB
 10
118.922115
 20
182.349471
 30
0.0
 11
118.922115
 21
177.650529
 31
0.0
  0
LINE
  8
LC-007-003-----0
  6
CONTINUOUS
  5
AC
 10
118.882077
 20
178.261391
 30
0.0
 11
132.088122
 21
180.0
 31
0.0
  0
LINE
  8
LC-007-003-----0
  6
CONTINUOUS
  5
AD
 10
132.088122
 20
180.0
 30
0.0
 11
118.882077
 21
181.738609
 31
0.0
  0
LINE
  8
LC-007-003-----0
  6
CONTINUOUS
  5
AE
 10
118.842039
 20
178.872254
 30
0.0
 11
127.408122
 21
180.0
 31
0.0
  0
LINE
  8
LC-007-003-----0
  6
CONTINUOUS
  5
AF
 10
127.408122
 20
180.0
 30
0.0
 11
118.842039
 21
181.127746
 31
0.0
  0
LINE
  8
LC-007-003-----0
  6
CONTINUOUS
  5
B0
 10
118.802001
 20
179.483116
 30
0.0
 11
122.728122
 21
180.0
 31
0.0
  0
LINE
  8
LC-007-003-----0
  6
CONTINUOUS
  5
B1
 10
122.728122
 20
180.0
 30
0.0
 11
118.802001
 21
180.516884
 31
0.0
  0
LINE
  8
LC-007-003-----0
  6
CONTINUOUS
  5
B2
 10
196.61413
 20
182.349471
 30
0.0
 11
178.768122
 21
180.0
 31
0.0
  0
LINE
  8
LC-007-003-----0
  6
CONTINUOUS
  5
B3
 10
178.768122
 20
180.0
 30
0.0
 11
196.61413
 21
177.650529
 31
0.0
  0
LINE
  8
LC-007-003-----0
  6
CONTINUOUS
  5
B4
 10
196.61413
 20
177.650529
 30
0.0
 11
196.61413
 21
182.349471
 31
0.0
  0
LINE
  8
LC-007-003-----0
  6
CONTINUOUS
  5
B5
 10
196.654168
 20
181.738609
 30
0.0
 11
183.448122
 21
180.0
 31
0.0
  0
LINE
  8
LC-007-003-----0
  6
CONTINUOUS
  5
B6
 10
183.448122
 20
180.0
 30
0.0
 11
196.654168
 21
178.261391
 31
0.0
  0
LINE
  8
LC-007-003-----0
  6
CONTINUOUS
  5
B7
 10
196.694206
 20
181.127746
 30
0.0
 11
188.128122
 21
180.0
 31
0.0
  0
LINE
  8
LC-007-003-----0
  6
CONTINUOUS
  5
B8
 10
188.128122
 20
180.0
 30
0.0
 11
196.694206
 21
178.872254
 31
0.0
  0
LINE
  8
LC-007-003-----0
  6
CONTINUOUS
  5
B9
 10
196.734244
 20
180.516884
 30
0.0
 11
192.808122
 21
180.0
 31
0.0
  0
LINE
  8
LC-007-003-----0
  6
CONTINUOUS
  5
BA
 10
192.808122
 20
180.0
 30
0.0
 11
196.734244
 21
179.483116
 31
0.0
  0
LINE
  8
LC-009-003-MTG-0
  6
CONTINUOUS
  5
BB
 10
111.568122
 20
180.0
 30
0.0
 11
252.970642
 21
180.0
 31
0.0
  0
TEXT
  8
LC-007-003-----0
  6
CONTINUOUS
 62
     6
  5
BC
 10
206.043368
 20
190.431999
 30
0.0
 40
18.0
  1
Ø42
 51
15.0
  7
LC-TXTSTYLE-150-400-0-0-D0
  0
ENDBLK
  8
0
  5
BD
  0
BLOCK
  8
0
  5
BF
  2
*D7
 70
    65
 10
0.0
 20
0.0
 30
0.0
  3
*D7
  0
LINE
  8
LC-008-003-MTH-0
  6
CONTINUOUS
  5
C0
 10
136.768122
 20
185.925178
 30
0.0
 11
61.2
 21
185.925178
 31
0.0
  0
LINE
  8
LC-008-003-MTH-0
  6
CONTINUOUS
  5
C1
 10
112.6933
 20
262.425178
 30
0.0
 11
61.2
 21
262.425178
 31
0.0
  0
LINE
  8
LC-009-003-MTG-0
  6
CONTINUOUS
  5
C2
 10
72.0
 20
185.925178
 30
0.0
 11
72.0
 21
262.425178
 31
0.0
  0
LINE
  8
LC-007-003-----0
  6
CONTINUOUS
  5
C3
 10
69.650529
 20
203.771185
 30
0.0
 11
72.0
 21
185.925178
 31
0.0
  0
LINE
  8
LC-007-003-----0
  6
CONTINUOUS
  5
C4
 10
72.0
 20
185.925178
 30
0.0
 11
74.349471
 21
203.771185
 31
0.0
  0
LINE
  8
LC-007-003-----0
  6
CONTINUOUS
  5
C5
 10
74.349471
 20
203.771185
 30
0.0
 11
69.650529
 21
203.771185
 31
0.0
  0
LINE
  8
LC-007-003-----0
  6
CONTINUOUS
  5
C6
 10
70.261391
 20
203.811223
 30
0.0
 11
72.0
 21
190.605178
 31
0.0
  0
LINE
  8
LC-007-003-----0
  6
CONTINUOUS
  5
C7
 10
72.0
 20
190.605178
 30
0.0
 11
73.738609
 21
203.811223
 31
0.0
  0
LINE
  8
LC-007-003-----0
  6
CONTINUOUS
  5
C8
 10
70.872254
 20
203.851261
 30
0.0
 11
72.0
 21
195.285178
 31
0.0
  0
LINE
  8
LC-007-003-----0
  6
CONTINUOUS
  5
C9
 10
72.0
 20
195.285178
 30
0.0
 11
73.127746
 21
203.851261
 31
0.0
  0
LINE
  8
LC-007-003-----0
  6
CONTINUOUS
  5
CA
 10
71.483116
 20
203.891299
 30
0.0
 11
72.0
 21
199.965178
 31
0.0
  0
LINE
  8
LC-007-003-----0
  6
CONTINUOUS
  5
CB
 10
72.0
 20
199.965178
 30
0.0
 11
72.516884
 21
203.891299
 31
0.0
  0
LINE
  8
LC-007-003-----0
  6
CONTINUOUS
  5
CC
 10
74.349471
 20
244.57917
 30
0.0
 11
72.0
 21
262.425178
 31
0.0
  0
LINE
  8
LC-007-003-----0
  6
CONTINUOUS
  5
CD
 10
72.0
 20
262.425178
 30
0.0
 11
69.650529
 21
244.57917
 31
0.0
  0
LINE
  8
LC-007-003-----0
  6
CONTINUOUS
  5
CE
 10
69.650529
 20
244.57917
 30
0.0
 11
74.349471
 21
244.57917
 31
0.0
  0
LINE
  8
LC-007-003-----0
  6
CONTINUOUS
  5
CF
 10
73.738609
 20
244.539132
 30
0.0
 11
72.0
 21
257.745178
 31
0.0
  0
LINE
  8
LC-007-003-----0
  6
CONTINUOUS
  5
D0
 10
72.0
 20
257.745178
 30
0.0
 11
70.261391
 21
244.539132
 31
0.0
  0
LINE
  8
LC-007-003-----0
  6
CONTINUOUS
  5
D1
 10
73.127746
 20
244.499094
 30
0.0
 11
72.0
 21
253.065178
 31
0.0
  0
LINE
  8
LC-007-003-----0
  6
CONTINUOUS
  5
D2
 10
72.0
 20
253.065178
 30
0.0
 11
70.872254
 21
244.499094
 31
0.0
  0
LINE
  8
LC-007-003-----0
  6
CONTINUOUS
  5
D3
 10
72.516884
 20
244.459056
 30
0.0
 11
72.0
 21
248.385178
 31
0.0
  0
LINE
  8
LC-007-003-----0
  6
CONTINUOUS
  5
D4
 10
72.0
 20
248.385178
 30
0.0
 11
71.483116
 21
244.459056
 31
0.0
  0
TEXT
  8
LC-007-003-----0
  6
CONTINUOUS
 62
     6
  5
D5
 10
61.568001
 20
204.52003
 30
0.0
 40
18.0
  1
76,5
 50
90.0
 51
15.0
  7
LC-TXTSTYLE-150-400-0-0-D0
 72
     1
 11
61.568001
 21
226.970423
 31
0.0
  0
ENDBLK
  8
0
  5
D6
  0
BLOCK
  8
0
  5
D8
  2
BLK3
 70
    64
 10
0.0
 20
0.0
 30
0.0
  3
BLK3
  0
ENDBLK
  8
0
  5
D9
  0
BLOCK
  8
0
  5
DB
  2
*X9
 70
    65
 10
116.768122
 20
256.922322
 30
0.0
  3
*X9
  0
LINE
  8
LC-006-005-----0
  6
CONTINUOUS
  5
DC
 10
120.041749
 20
259.533172
 30
0.0
 11
119.378971
 21
260.195949
 31
0.0
  0
LINE
  8
LC-006-005-----0
  6
DASHED
  5
DE
 10
120.211765
 20
258.231785
 30
0.0
 11
118.077584
 21
260.365965
 31
0.0
  0
LINE
  8
LC-006-005-----0
  6
DASHED
  5
DF
 10
120.050576
 20
257.827288
 30
0.0
 11
117.673087
 21
260.204777
 31
0.0
  0
LINE
  8
LC-006-005-----0
  6
CONTINUOUS
  5
E0
 10
119.513511
 20
257.232982
 30
0.0
 11
117.078781
 21
259.667712
 31
0.0
  0
LINE
  8
LC-006-005-----0
  6
CONTINUOUS
  5
E1
 10
119.143086
 20
257.037722
 30
0.0
 11
116.883521
 21
259.297287
 31
0.0
  0
LINE
  8
LC-006-005-----0
  6
DASHED
  5
E2
 10
118.068321
 20
256.981116
 30
0.0
 11
116.826915
 21
258.222521
 31
0.0
  0
ENDBLK
  8
0
  5
E3
  0
BLOCK
  8
0
  5
E5
  2
*X10
 70
    65
 10
195.268123
 20
256.922322
 30
0.0
  3
*X10
  0
LINE
  8
LC-006-005-----0
  6
DASHED
  5
E6
 10
198.73588
 20
258.337943
 30
0.0
 11
196.683744
 21
260.39008
 31
0.0
  0
LINE
  8
LC-006-005-----0
  6
DASHED
  5
E7
 10
198.594914
 20
257.913224
 30
0.0
 11
196.259025
 21
260.249113
 31
0.0
  0
LINE
  8
LC-006-005-----0
  6
CONTINUOUS
  5
E8
 10
198.088741
 20
257.288026
 30
0.0
 11
195.633826
 21
259.742941
 31
0.0
  0
LINE
  8
LC-006-005-----0
  6
CONTINUOUS
  5
E9
 10
197.73513
 20
257.075951
 30
0.0
 11
195.421752
 21
259.38933
 31
0.0
  0
LINE
  8
LC-006-005-----0
  6
DASHED
  5
EA
 10
196.734203
 20
256.945507
 30
0.0
 11
195.291308
 21
258.388403
 31
0.0
  0
ENDBLK
  8
0
  5
EB
  0
BLOCK
  8
0
  5
ED
  2
*D11
 70
    65
 10
0.0
 20
0.0
 30
0.0
  3
*D11
  0
LINE
  8
LC-008-003-MTH-0
  6
CONTINUOUS
  5
EE
 10
117.268122
 20
262.425178
 30
0.0
 11
117.268122
 21
298.8
 31
0.0
  0
LINE
  8
LC-008-003-MTH-0
  6
CONTINUOUS
  5
EF
 10
198.268122
 20
262.425178
 30
0.0
 11
198.268122
 21
298.8
 31
0.0
  0
LINE
  8
LC-009-003-MTG-0
  6
CONTINUOUS
  5
F0
 10
117.268122
 20
288.0
 30
0.0
 11
198.268122
 21
288.0
 31
0.0
  0
LINE
  8
LC-007-003-----0
  6
CONTINUOUS
  5
F1
 10
135.11413
 20
290.349471
 30
0.0
 11
117.268122
 21
288.0
 31
0.0
  0
LINE
  8
LC-007-003-----0
  6
CONTINUOUS
  5
F2
 10
117.268122
 20
288.0
 30
0.0
 11
135.11413
 21
285.650529
 31
0.0
  0
LINE
  8
LC-007-003-----0
  6
CONTINUOUS
  5
F3
 10
135.11413
 20
285.650529
 30
0.0
 11
135.11413
 21
290.349471
 31
0.0
  0
LINE
  8
LC-007-003-----0
  6
CONTINUOUS
  5
F4
 10
135.154168
 20
289.738609
 30
0.0
 11
121.948122
 21
288.0
 31
0.0
  0
LINE
  8
LC-007-003-----0
  6
CONTINUOUS
  5
F5
 10
121.948122
 20
288.0
 30
0.0
 11
135.154168
 21
286.261391
 31
0.0
  0
LINE
  8
LC-007-003-----0
  6
CONTINUOUS
  5
F6
 10
135.194206
 20
289.127746
 30
0.0
 11
126.628122
 21
288.0
 31
0.0
  0
LINE
  8
LC-007-003-----0
  6
CONTINUOUS
  5
F7
 10
126.628122
 20
288.0
 30
0.0
 11
135.194206
 21
286.872254
 31
0.0
  0
LINE
  8
LC-007-003-----0
  6
CONTINUOUS
  5
F8
 10
135.234244
 20
288.516884
 30
0.0
 11
131.308122
 21
288.0
 31
0.0
  0
LINE
  8
LC-007-003-----0
  6
CONTINUOUS
  5
F9
 10
131.308122
 20
288.0
 30
0.0
 11
135.234244
 21
287.483116
 31
0.0
  0
LINE
  8
LC-007-003-----0
  6
CONTINUOUS
  5
FA
 10
180.422115
 20
285.650529
 30
0.0
 11
198.268122
 21
288.0
 31
0.0
  0
LINE
  8
LC-007-003-----0
  6
CONTINUOUS
  5
FB
 10
198.268122
 20
288.0
 30
0.0
 11
180.422115
 21
290.349471
 31
0.0
  0
LINE
  8
LC-007-003-----0
  6
CONTINUOUS
  5
FC
 10
180.422115
 20
290.349471
 30
0.0
 11
180.422115
 21
285.650529
 31
0.0
  0
LINE
  8
LC-007-003-----0
  6
CONTINUOUS
  5
FD
 10
180.382077
 20
286.261391
 30
0.0
 11
193.588122
 21
288.0
 31
0.0
  0
LINE
  8
LC-007-003-----0
  6
CONTINUOUS
  5
FE
 10
193.588122
 20
288.0
 30
0.0
 11
180.382077
 21
289.738609
 31
0.0
  0
LINE
  8
LC-007-003-----0
  6
CONTINUOUS
  5
FF
 10
180.342039
 20
286.872254
 30
0.0
 11
188.908122
 21
288.0
 31
0.0
  0
LINE
  8
LC-007-003-----0
  6
CONTINUOUS
  5
100
 10
188.908122
 20
288.0
 30
0.0
 11
180.342039
 21
289.127746
 31
0.0
  0
LINE
  8
LC-007-003-----0
  6
CONTINUOUS
  5
101
 10
180.302001
 20
287.483116
 30
0.0
 11
184.228122
 21
288.0
 31
0.0
  0
LINE
  8
LC-007-003-----0
  6
CONTINUOUS
  5
102
 10
184.228122
 20
288.0
 30
0.0
 11
180.302001
 21
288.516884
 31
0.0
  0
TEXT
  8
LC-007-003-----0
  6
CONTINUOUS
 62
     6
  5
103
 10
143.342896
 20
298.431999
 30
0.0
 40
18.0
  1
Ø81
 51
15.0
  7
LC-TXTSTYLE-150-400-0-0-D0
 72
     1
 11
160.563368
 21
298.431999
 31
0.0
  0
ENDBLK
  8
0
  5
104
  0
ENDSEC
  0
SECTION
  2
ENTITIES
  0
VIEWPORT
  8
LC-000
  5
15E
 67
     1
 68
     1
 10
420.0
 20
297.0
 30
0.0
 40
840.0
 41
594.0
 69
     1
1001
ACAD
1000
MVIEW
1002
{
1070
    16
1010
0.0
1020
0.0
1030
0.0
1010
0.0
1020
0.0
1030
1.0
1040
0.0
1040
594.0
1040
420.0
1040
297.0
1040
50.0
1040
0.0
1040
0.0
1070
     0
1070
   100
1070
     1
1070
     1
1070
     0
1070
     0
1070
     0
1070
     0
1040
0.0
1040
0.0
1040
0.0
1040
1.0
1040
1.0
1040
0.0
1040
0.0
1070
     0
1002
{
1002
}
1002
}
  0
VIEWPORT
  8
0
  5
15F
 67
     1
 68
     1
 10
0.0
 20
0.0
 30
0.0
 40
0.0
 41
0.0
 69
     1
1001
ACAD
1000
MVIEW
1002
{
1070
    16
1010
0.0
1020
0.0
1030
0.0
1010
0.0
1020
0.0
1030
1.0
1040
0.0
1040
594.0
1040
0.0
1040
0.0
1040
50.0
1040
0.0
1040
0.0
1070
     0
1070
   100
1070
     0
1070
     1
1070
     0
1070
     0
1070
     0
1070
     0
1040
0.0
1040
0.0
1040
0.0
1040
0.5
1040
0.5
1040
0.5
1040
0.5
1070
     0
1002
{
1002
}
1002
}
  0
INSERT
  8
0
  5
106
  2
BLK1
 10
0.0
 20
0.0
 30
0.0
  0
INSERT
  8
0
  5
107
  2
*X1
 10
114.768122
 20
185.925178
 30
0.0
  0
INSERT
  8
0
  5
108
  2
*X2
 10
177.768122
 20
185.925178
 30
0.0
  0
DIMENSION
  8
0
  5
109
  2
*D3
 10
108.0
 20
258.425156
 30
0.0
 11
108.0
 21
258.425156
 31
0.0
 13
118.220616
 23
254.425178
 33
0.0
 14
118.768211
 24
262.425133
 34
0.0
 50
90.0
  3
LC-DIM-L-0090-01-02
  0
DIMENSION
  8
0
  5
10A
  2
*D4
 10
252.0
 20
253.425051
 30
0.0
 11
252.0
 21
253.425051
 31
0.0
 13
178.768123
 23
244.424924
 33
0.0
 14
198.268122
 24
262.425178
 34
0.0
 50
90.0
  3
LC-DIM-L-0090-01-02
  0
INSERT
  8
0
  5
10B
  2
BLK2
 10
0.0
 20
0.0
 30
0.0
  0
DIMENSION
  8
0
  5
10C
  2
*D6
 10
157.768122
 20
180.0
 30
0.0
 11
157.768122
 21
180.0
 31
0.0
  1
%%c<>
 13
136.768122
 23
185.925178
 33
0.0
 14
178.768122
 24
185.925178
 34
0.0
  3
LC-DIM-L-0090-01-02
  0
DIMENSION
  8
0
  5
10D
  2
*D7
 10
72.0
 20
224.175178
 30
0.0
 11
72.0
 21
224.175178
 31
0.0
 13
136.768122
 23
185.925178
 33
0.0
 14
112.6933
 24
262.425178
 34
0.0
 50
90.0
  3
LC-DIM-L-0090-01-02
  0
INSERT
  8
0
  5
10E
  2
BLK3
 10
0.0
 20
0.0
 30
0.0
  0
INSERT
  8
0
  5
10F
  2
*X9
 10
116.768122
 20
256.922322
 30
0.0
  0
INSERT
  8
0
  5
110
  2
*X10
 10
195.268123
 20
256.922322
 30
0.0
  0
DIMENSION
  8
0
  5
111
  2
*D11
 10
157.768122
 20
288.0
 30
0.0
 11
157.768122
 21
288.0
 31
0.0
  1
%%c<>
 13
117.268122
 23
262.425178
 33
0.0
 14
198.268122
 24
262.425178
 34
0.0
  3
LC-DIM-L-0090-02-02
  0
CIRCLE
  8
LC-002-002-----0
  6
CONTINUOUS
  5
113
 10
157.768121
 20
99.435237
 30
0.0
 40
36.0
  0
ARC
  8
LC-003-002-RND-0
  6
CONTINUOUS
  5
115
 10
192.268124
 20
257.924999
 30
0.0
 40
1.5
 50
270.001712
 51
360.0
  0
ARC
  8
LC-002-002-----0
  6
CONTINUOUS
  5
116
 10
188.610782
 20
245.582703
 30
0.0
 40
10.842659
 50
89.466429
 51
180.0
  0
LINE
  8
LC-004-006-MLN-0
  6
DASHDOT
  5
11A
 10
157.768122
 20
175.925178
 30
0.0
 11
157.768122
 21
272.423968
 31
0.0
  0
ARC
  8
LC-003-002-RND-0
  6
CONTINUOUS
  5
11B
 10
123.268121
 20
257.924999
 30
0.0
 40
1.5
 50
180.0
 51
269.998288
  0
ARC
  8
LC-002-002-----0
  6
CONTINUOUS
  5
11C
 10
189.768123
 20
244.424924
 30
0.0
 40
11.0
 50
123.552923
 51
180.0
  0
ARC
  8
LC-002-002-----0
  6
CONTINUOUS
  5
11D
 10
126.925463
 20
245.582703
 30
0.0
 40
10.842659
 50
0.0
 51
90.533571
  0
ARC
  8
LC-002-002-----0
  6
CONTINUOUS
  5
11E
 10
125.768122
 20
244.424924
 30
0.0
 40
11.0
 50
0.0
 51
56.447077
  0
ARC
  8
LC-003-002-RND-0
  6
CONTINUOUS
  5
11F
 10
129.084364
 20
249.425178
 30
0.0
 40
5.0
 50
56.447077
 51
90.0
  0
ARC
  8
LC-003-002-RND-0
  6
CONTINUOUS
  5
120
 10
186.451881
 20
249.425178
 30
0.0
 40
5.0
 50
90.0
 51
123.552923
  0
LINE
  8
LC-002-002-----0
  6
CONTINUOUS
  5
121
 10
198.268122
 20
262.425178
 30
0.0
 11
157.768122
 21
262.423968
 31
0.0
  0
LINE
  8
LC-002-002-----0
  6
CONTINUOUS
  5
122
 10
117.268122
 20
262.425178
 30
0.0
 11
118.768211
 21
262.425133
 31
0.0
  0
LINE
  8
LC-002-002-----0
  6
CONTINUOUS
  5
123
 10
123.268076
 20
256.424999
 30
0.0
 11
127.027081
 21
256.424886
 31
0.0
  0
LINE
  8
LC-002-002-----0
  6
CONTINUOUS
  5
124
 10
197.813148
 20
254.875426
 30
0.0
 11
197.963147
 21
256.375426
 31
0.0
  0
LINE
  8
LC-002-002-----0
  6
CONTINUOUS
  5
125
 10
118.070616
 20
256.925178
 30
0.0
 11
119.768122
 21
256.925178
 31
0.0
  0
LINE
  8
LC-002-002-----0
  6
CONTINUOUS
  5
126
 10
117.768122
 20
260.419467
 30
0.0
 11
119.768122
 21
260.419467
 31
0.0
  0
LINE
  8
LC-002-002-----0
  6
CONTINUOUS
  5
127
 10
192.268169
 20
256.424999
 30
0.0
 11
173.524317
 21
256.424439
 31
0.0
  0
ARC
  8
LC-003-002-RND-0
  6
CONTINUOUS
  5
128
 10
119.768122
 20
257.425178
 30
0.0
 40
0.5
 50
270.0
 51
0.0
  0
LINE
  8
LC-002-002-----0
  6
CONTINUOUS
  5
129
 10
197.465629
 20
256.925178
 30
0.0
 11
195.768123
 21
256.925178
 31
0.0
  0
LINE
  8
LC-002-002-----0
  6
CONTINUOUS
  5
12A
 10
197.768122
 20
260.419467
 30
0.0
 11
195.768123
 21
260.419467
 31
0.0
  0
LINE
  8
LC-002-002-----0
  6
CONTINUOUS
  5
12B
 10
193.768124
 20
257.924999
 30
0.0
 11
193.768124
 21
259.425133
 31
0.0
  0
LINE
  8
LC-002-002-----0
  6
CONTINUOUS
  5
12C
 10
121.768121
 20
257.924999
 30
0.0
 11
121.768121
 21
259.425133
 31
0.0
  0
LINE
  8
LC-005-101-----0
  6
CONTINUOUS
  5
12E
 10
178.768122
 20
185.925178
 30
0.0
 11
178.768123
 21
244.424924
 31
0.0
  0
LINE
  8
LC-005-101-----0
  6
CONTINUOUS
  5
12F
 10
177.768122
 20
185.925178
 30
0.0
 11
177.768123
 21
245.582703
 31
0.0
  0
LINE
  8
LC-002-002-----0
  6
CONTINUOUS
  5
130
 10
198.268122
 20
260.919467
 30
0.0
 11
198.268122
 21
262.425178
 31
0.0
  0
LINE
  8
LC-005-101-----0
  6
CONTINUOUS
  5
131
 10
136.768122
 20
185.925178
 30
0.0
 11
136.768122
 21
244.424924
 31
0.0
  0
LINE
  8
LC-005-101-----0
  6
CONTINUOUS
  5
132
 10
137.768122
 20
185.925178
 30
0.0
 11
137.768122
 21
245.582703
 31
0.0
  0
LINE
  8
LC-005-101-----0
  6
CONTINUOUS
  5
133
 10
157.768122
 20
185.925178
 30
0.0
 11
178.768122
 21
185.925178
 31
0.0
  0
LINE
  8
LC-002-002-----0
  6
CONTINUOUS
  5
134
 10
117.268122
 20
260.919467
 30
0.0
 11
117.268122
 21
262.425178
 31
0.0
  0
LINE
  8
LC-002-002-----0
  6
CONTINUOUS
  5
135
 10
195.268123
 20
259.919467
 30
0.0
 11
195.268123
 21
257.425178
 31
0.0
  0
LINE
  8
LC-005-101-----0
  6
CONTINUOUS
  5
136
 10
157.768122
 20
185.925178
 30
0.0
 11
137.768122
 21
185.925178
 31
0.0
  0
LINE
  8
LC-002-002-----0
  6
CONTINUOUS
  5
137
 10
120.268122
 20
259.919467
 30
0.0
 11
120.268122
 21
257.425178
 31
0.0
  0
ARC
  8
LC-003-002-RND-0
  6
CONTINUOUS
  5
138
 10
118.768121
 20
259.425133
 30
0.0
 40
3.0
 50
0.0
 51
89.998288
  0
ARC
  8
LC-003-002-RND-0
  6
CONTINUOUS
  5
139
 10
196.768124
 20
259.425133
 30
0.0
 40
3.0
 50
90.001712
 51
180.0
  0
LINE
  8
LC-002-002-----0
  6
CONTINUOUS
  5
13A
 10
157.768122
 20
258.635619
 30
0.0
 11
166.917666
 21
258.635619
 31
0.0
  0
LINE
  8
LC-002-002-----0
  6
CONTINUOUS
 62
     2
  5
13B
 10
168.198508
 20
258.171668
 30
0.0
 11
169.369339
 21
260.045389
 31
0.0
  0
ARC
  8
LC-003-002-RND-0
  6
CONTINUOUS
  5
13C
 10
166.917666
 20
256.635619
 30
0.0
 40
2.0
 50
32.0
 51
90.000001
  0
LINE
  8
LC-002-002-----0
  6
CONTINUOUS
  5
13D
 10
178.267165
 20
248.834296
 30
0.0
 11
170.363077
 21
261.483481
 31
0.0
  0
LINE
  8
LC-002-002-----0
  6
CONTINUOUS
  5
13E
 10
197.315629
 20
254.425178
 30
0.0
 11
186.451881
 21
254.425178
 31
0.0
  0
ARC
  8
LC-003-002-RND-0
  6
CONTINUOUS
  5
13F
 10
168.666981
 20
260.423642
 30
0.0
 40
2.0
 50
32.0
 51
89.998288
  0
LINE
  8
LC-002-002-----0
  6
CONTINUOUS
  5
140
 10
157.768122
 20
258.635619
 30
0.0
 11
148.618579
 21
258.635619
 31
0.0
  0
LINE
  8
LC-002-002-----0
  6
CONTINUOUS
 62
     2
  5
141
 10
147.337737
 20
258.171668
 30
0.0
 11
146.166906
 21
260.045389
 31
0.0
  0
LINE
  8
LC-002-002-----0
  6
CONTINUOUS
  5
142
 10
168.613762
 20
257.695458
 30
0.0
 11
177.768123
 21
243.045419
 31
0.0
  0
ARC
  8
LC-003-002-RND-0
  6
CONTINUOUS
  5
143
 10
148.618579
 20
256.635619
 30
0.0
 40
2.0
 50
89.999999
 51
148.0
  0
LINE
  8
LC-005-101-----0
  6
CONTINUOUS
  5
144
 10
137.768122
 20
185.925178
 30
0.0
 11
136.768122
 21
185.925178
 31
0.0
  0
LINE
  8
LC-002-002-----0
  6
CONTINUOUS
  5
145
 10
117.723097
 20
254.875426
 30
0.0
 11
117.573097
 21
256.375426
 31
0.0
  0
LINE
  8
LC-002-002-----0
  6
CONTINUOUS
  5
146
 10
137.26908
 20
248.834296
 30
0.0
 11
145.173168
 21
261.483481
 31
0.0
  0
ARC
  8
LC-003-002-RND-0
  6
CONTINUOUS
  5
147
 10
119.768122
 20
259.919467
 30
0.0
 40
0.5
 50
0.0
 51
90.0
  0
ARC
  8
LC-003-002-RND-0
  6
CONTINUOUS
  5
148
 10
118.220616
 20
254.925178
 30
0.0
 40
0.5
 50
185.71058
 51
270.0
  0
ARC
  8
LC-003-002-RND-0
  6
CONTINUOUS
  5
149
 10
118.070616
 20
256.425178
 30
0.0
 40
0.5
 50
90.0
 51
185.71058
  0
ARC
  8
LC-003-002-RND-0
  6
CONTINUOUS
  5
14A
 10
117.768122
 20
260.919467
 30
0.0
 40
0.5
 50
180.0
 51
270.0
  0
ARC
  8
LC-003-002-RND-0
  6
CONTINUOUS
  5
14B
 10
197.465629
 20
256.425178
 30
0.0
 40
0.5
 50
354.289419
 51
90.0
  0
ARC
  8
LC-003-002-RND-0
  6
CONTINUOUS
  5
14C
 10
197.315629
 20
254.925178
 30
0.0
 40
0.5
 50
270.0
 51
354.289419
  0
ARC
  8
LC-003-002-RND-0
  6
CONTINUOUS
  5
14D
 10
195.768123
 20
257.425178
 30
0.0
 40
0.5
 50
180.0
 51
270.0
  0
ARC
  8
LC-003-002-RND-0
  6
CONTINUOUS
  5
14E
 10
195.768123
 20
259.919467
 30
0.0
 40
0.5
 50
90.0
 51
180.0
  0
ARC
  8
LC-003-002-RND-0
  6
CONTINUOUS
  5
14F
 10
197.768122
 20
260.919467
 30
0.0
 40
0.5
 50
270.0
 51
360.0
  0
LINE
  8
LC-002-002-----0
  6
CONTINUOUS
  5
150
 10
127.027081
 20
256.424886
 30
0.0
 11
142.011927
 21
256.424439
 31
0.0
  0
LINE
  8
LC-002-002-----0
  6
CONTINUOUS
  5
151
 10
118.768211
 20
262.425133
 30
0.0
 11
157.768122
 21
262.423968
 31
0.0
  0
LINE
  8
LC-002-002-----0
  6
CONTINUOUS
  5
152
 10
118.220616
 20
254.425178
 30
0.0
 11
129.084364
 21
254.425178
 31
0.0
  0
CIRCLE
  8
LC-002-002-----0
  6
CONTINUOUS
  5
153
 10
157.768121
 20
99.435237
 30
0.0
 40
40.5
  0
CIRCLE
  8
LC-002-002-----0
  6
CONTINUOUS
  5
154
 10
157.768121
 20
99.435237
 30
0.0
 40
20.0
  0
LINE
  8
LC-002-002-----0
  6
CONTINUOUS
  5
155
 10
137.868372
 20
97.435238
 30
0.0
 11
177.66787
 21
97.435237
 31
0.0
  0
LINE
  8
LC-002-002-----0
  6
CONTINUOUS
  5
156
 10
137.868372
 20
101.435238
 30
0.0
 11
177.66787
 21
101.435237
 31
0.0
  0
LINE
  8
LC-004-006-MLN-0
  6
DASHDOT
  5
157
 10
208.268121
 20
99.435237
 30
0.0
 11
107.268121
 21
99.435238
 31
0.0
  0
LINE
  8
LC-004-006-MLN-0
  6
DASHDOT
  5
158
 10
157.76812
 20
48.935238
 30
0.0
 11
157.768121
 21
149.935237
 31
0.0
  0
ARC
  8
LC-003-002-RND-0
  6
CONTINUOUS
  5
159
 10
146.869264
 20
260.423642
 30
0.0
 40
2.0
 50
90.001712
 51
148.0
  0
LINE
  8
LC-002-002-----0
  6
CONTINUOUS
  5
15A
 10
146.922483
 20
257.695458
 30
0.0
 11
137.768122
 21
243.045419
 31
0.0
  0
CIRCLE
  8
LC-002-002-----0
  6
CONTINUOUS
  5
15B
 10
118.518122
 20
258.672322
 30
0.0
 40
1.75
  0
CIRCLE
  8
LC-002-002-----0
  6
CONTINUOUS
  5
15C
 10
197.018123
 20
258.672322
 30
0.0
 40
1.75
  0
ENDSEC
  0
EOF
