  0
SECTION
  2
HEADER
  9
$ACADVER
  1
AC1015
  9
$ACADMAINTVER
 70
     6
  9
$DWGCODEPAGE
  3
DOS850
  9
$INSBASE
 10
265.204691
 20
256.501
 30
0.0
  9
$EXTMIN
 10
265.204691
 20
256.501
 30
0.0
  9
$EXTMAX
 10
1105.204691
 20
850.501
 30
0.0
  9
$LIMMIN
 10
265.204691
 20
256.501
  9
$LIMMAX
 10
1105.204691
 20
850.501
  9
$ORTHOMODE
 70
     0
  9
$REGENMODE
 70
     1
  9
$FILLMODE
 70
     1
  9
$QTEXTMODE
 70
     0
  9
$MIRRTEXT
 70
     1
  9
$LTSCALE
 40
2.0
  9
$ATTMODE
 70
     1
  9
$TEXTSIZE
 40
2.5
  9
$TRACEWID
 40
1.0
  9
$TEXTSTYLE
  7
Standard
  9
$CLAYER
  8
0
  9
$CELTYPE
  6
ByLayer
  9
$CECOLOR
 62
     7
  9
$CELTSCALE
 40
1.0
  9
$DISPSILH
 70
     0
  9
$DIMSCALE
 40
2.0
  9
$DIMASZ
 40
3.5
  9
$DIMEXO
 40
0.625
  9
$DIMDLI
 40
3.75
  9
$DIMRND
 40
0.0
  9
$DIMDLE
 40
0.0
  9
$DIMEXE
 40
1.25
  9
$DIMTP
 40
0.0
  9
$DIMTM
 40
0.0
  9
$DIMTXT
 40
3.5
  9
$DIMCEN
 40
2.5
  9
$DIMTSZ
 40
0.0
  9
$DIMTOL
 70
     0
  9
$DIMLIM
 70
     0
  9
$DIMTIH
 70
     0
  9
$DIMTOH
 70
     0
  9
$DIMSE1
 70
     0
  9
$DIMSE2
 70
     0
  9
$DIMTAD
 70
     1
  9
$DIMZIN
 70
     8
  9
$DIMBLK
  1

  9
$DIMASO
 70
     1
  9
$DIMSHO
 70
     1
  9
$DIMPOST
  1

  9
$DIMAPOST
  1

  9
$DIMALT
 70
     0
  9
$DIMALTD
 70
     3
  9
$DIMALTF
 40
0.03937
  9
$DIMLFAC
 40
1.0
  9
$DIMTOFL
 70
     1
  9
$DIMTVP
 40
0.0
  9
$DIMTIX
 70
     0
  9
$DIMSOXD
 70
     0
  9
$DIMSAH
 70
     0
  9
$DIMBLK1
  1

  9
$DIMBLK2
  1

  9
$DIMSTYLE
  2
ISO-25
  9
$DIMCLRD
 70
     0
  9
$DIMCLRE
 70
     0
  9
$DIMCLRT
 70
     0
  9
$DIMTFAC
 40
1.0
  9
$DIMGAP
 40
0.625
  9
$DIMJUST
 70
     0
  9
$DIMSD1
 70
     0
  9
$DIMSD2
 70
     0
  9
$DIMTOLJ
 70
     0
  9
$DIMTZIN
 70
     8
  9
$DIMALTZ
 70
     0
  9
$DIMALTTZ
 70
     0
  9
$DIMUPT
 70
     0
  9
$DIMDEC
 70
     2
  9
$DIMTDEC
 70
     2
  9
$DIMALTU
 70
     2
  9
$DIMALTTD
 70
     3
  9
$DIMTXSTY
  7
Standard
  9
$DIMAUNIT
 70
     0
  9
$DIMADEC
 70
     0
  9
$DIMALTRND
 40
0.0
  9
$DIMAZIN
 70
     0
  9
$DIMDSEP
 70
    44
  9
$DIMATFIT
 70
     3
  9
$DIMFRAC
 70
     0
  9
$DIMLDRBLK
  1

  9
$DIMLUNIT
 70
     2
  9
$DIMLWD
 70
    -2
  9
$DIMLWE
 70
    -2
  9
$DIMTMOVE
 70
     0
  9
$LUNITS
 70
     2
  9
$LUPREC
 70
     4
  9
$SKETCHINC
 40
1.0
  9
$FILLETRAD
 40
10.0
  9
$AUNITS
 70
     0
  9
$AUPREC
 70
     0
  9
$MENU
  1
.
  9
$ELEVATION
 40
0.0
  9
$PELEVATION
 40
0.0
  9
$THICKNESS
 40
0.0
  9
$LIMCHECK
 70
     0
  9
$CHAMFERA
 40
10.0
  9
$CHAMFERB
 40
10.0
  9
$CHAMFERC
 40
20.0
  9
$CHAMFERD
 40
0.0
  9
$SKPOLY
 70
     0
  9
$TDCREATE
 40
2453854.494205857
  9
$TDUCREATE
 40
2453854.410872523
  9
$TDUPDATE
 40
2453854.494205868
  9
$TDUUPDATE
 40
2453854.410872535
  9
$TDINDWG
 40
0.0000000116
  9
$TDUSRTIMER
 40
0.0000000116
  9
$USRTIMER
 70
     1
  9
$ANGBASE
 50
0.0
  9
$ANGDIR
 70
     0
  9
$PDMODE
 70
     0
  9
$PDSIZE
 40
0.0
  9
$PLINEWID
 40
0.0
  9
$SPLFRAME
 70
     0
  9
$SPLINETYPE
 70
     6
  9
$SPLINESEGS
 70
     8
  9
$HANDSEED
  5
4D2
  9
$SURFTAB1
 70
     6
  9
$SURFTAB2
 70
     6
  9
$SURFTYPE
 70
     6
  9
$SURFU
 70
     6
  9
$SURFV
 70
     6
  9
$UCSBASE
  2

  9
$UCSNAME
  2

  9
$UCSORG
 10
0.0
 20
0.0
 30
0.0
  9
$UCSXDIR
 10
1.0
 20
0.0
 30
0.0
  9
$UCSYDIR
 10
0.0
 20
1.0
 30
0.0
  9
$UCSORTHOREF
  2

  9
$UCSORTHOVIEW
 70
     0
  9
$UCSORGTOP
 10
0.0
 20
0.0
 30
0.0
  9
$UCSORGBOTTOM
 10
0.0
 20
0.0
 30
0.0
  9
$UCSORGLEFT
 10
0.0
 20
0.0
 30
0.0
  9
$UCSORGRIGHT
 10
0.0
 20
0.0
 30
0.0
  9
$UCSORGFRONT
 10
0.0
 20
0.0
 30
0.0
  9
$UCSORGBACK
 10
0.0
 20
0.0
 30
0.0
  9
$PUCSBASE
  2

  9
$PUCSNAME
  2

  9
$PUCSORG
 10
0.0
 20
0.0
 30
0.0
  9
$PUCSXDIR
 10
1.0
 20
0.0
 30
0.0
  9
$PUCSYDIR
 10
0.0
 20
1.0
 30
0.0
  9
$PUCSORTHOREF
  2

  9
$PUCSORTHOVIEW
 70
     0
  9
$PUCSORGTOP
 10
0.0
 20
0.0
 30
0.0
  9
$PUCSORGBOTTOM
 10
0.0
 20
0.0
 30
0.0
  9
$PUCSORGLEFT
 10
0.0
 20
0.0
 30
0.0
  9
$PUCSORGRIGHT
 10
0.0
 20
0.0
 30
0.0
  9
$PUCSORGFRONT
 10
0.0
 20
0.0
 30
0.0
  9
$PUCSORGBACK
 10
0.0
 20
0.0
 30
0.0
  9
$USERI1
 70
     0
  9
$USERI2
 70
     0
  9
$USERI3
 70
     0
  9
$USERI4
 70
     0
  9
$USERI5
 70
     0
  9
$USERR1
 40
0.0
  9
$USERR2
 40
0.0
  9
$USERR3
 40
0.0
  9
$USERR4
 40
0.0
  9
$USERR5
 40
0.0
  9
$WORLDVIEW
 70
     1
  9
$SHADEDGE
 70
     3
  9
$SHADEDIF
 70
    70
  9
$TILEMODE
 70
     1
  9
$MAXACTVP
 70
    64
  9
$PINSBASE
 10
0.0
 20
0.0
 30
0.0
  9
$PLIMCHECK
 70
     0
  9
$PEXTMIN
 10
265.204691
 20
256.501
 30
0.0
  9
$PEXTMAX
 10
1105.204691
 20
850.501
 30
0.0
  9
$PLIMMIN
 10
265.204691
 20
256.501
  9
$PLIMMAX
 10
1105.204691
 20
850.501
  9
$UNITMODE
 70
     0
  9
$VISRETAIN
 70
     1
  9
$PLINEGEN
 70
     0
  9
$PSLTSCALE
 70
     1
  9
$TREEDEPTH
 70
  3020
  9
$CMLSTYLE
  2
Standard
  9
$CMLJUST
 70
     0
  9
$CMLSCALE
 40
20.0
  9
$PROXYGRAPHICS
 70
     1
  9
$MEASUREMENT
 70
     1
  9
$CELWEIGHT
370
    -1
  9
$ENDCAPS
280
     0
  9
$JOINSTYLE
280
     0
  9
$LWDISPLAY
290
     0
  9
$INSUNITS
 70
     4
  9
$HYPERLINKBASE
  1

  9
$STYLESHEET
  1

  9
$XEDIT
290
     1
  9
$CEPSNTYPE
380
     0
  9
$PSTYLEMODE
290
     1
  9
$FINGERPRINTGUID
  2
{FAEB1C30-E019-11D5-929B-00C0DF256EC4}
  9
$VERSIONGUID
  2
{FAEB1C32-E019-11D5-929B-00C0DF256EC4}
  9
$EXTNAMES
290
     1
  9
$PSVPSCALE
 40
0.0
  9
$OLESTARTUP
290
     0
  0
ENDSEC
  0
SECTION
  2
CLASSES
  0
CLASS
  1
ACDBDICTIONARYWDFLT
  2
AcDbDictionaryWithDefault
  3
ObjectDBX Classes
 90
        0
280
     0
281
     0
  0
CLASS
  1
ACDBPLACEHOLDER
  2
AcDbPlaceHolder
  3
ObjectDBX Classes
 90
        0
280
     0
281
     0
  0
CLASS
  1
LAYOUT
  2
AcDbLayout
  3
ObjectDBX Classes
 90
        0
280
     0
281
     0
  0
ENDSEC
  0
SECTION
  2
TABLES
  0
TABLE
  2
VPORT
  5
8
330
0
100
AcDbSymbolTable
 70
     2
  0
VPORT
  5
29
330
8
100
AcDbSymbolTableRecord
100
AcDbViewportTableRecord
  2
*ACTIVE
 70
     0
 10
0.0
 20
0.0
 11
1.0
 21
1.0
 12
685.204691
 22
553.501
 13
0.0
 23
0.0
 14
1.0
 24
1.0
 15
0.0
 25
0.0
 16
0.0
 26
0.0
 36
1.0
 17
0.0
 27
0.0
 37
0.0
 40
594.0
 41
1.414141
 42
50.0
 43
0.0
 44
0.0
 50
0.0
 51
0.0
 71
    16
 72
   100
 73
     1
 74
     0
 75
     0
 76
     0
 77
     0
 78
     0
281
     0
 65
     0
110
0.0
120
0.0
130
0.0
111
1.0
121
0.0
131
0.0
112
0.0
122
1.0
132
0.0
 79
     0
146
0.0
  0
ENDTAB
  0
TABLE
  2
LTYPE
  5
5
330
0
100
AcDbSymbolTable
 70
     3
  0
LTYPE
  5
14
330
5
100
AcDbSymbolTableRecord
100
AcDbLinetypeTableRecord
  2
ByBlock
 70
     0
  3

 72
    65
 73
     0
 40
0.0
  0
LTYPE
  5
15
330
5
100
AcDbSymbolTableRecord
100
AcDbLinetypeTableRecord
  2
ByLayer
 70
     0
  3

 72
    65
 73
     0
 40
0.0
  0
LTYPE
  5
16
330
5
100
AcDbSymbolTableRecord
100
AcDbLinetypeTableRecord
  2
Continuous
 70
     0
  3
Solid line
 72
    65
 73
     0
 40
0.0
  0
LTYPE
  5
2A
330
5
100
AcDbSymbolTableRecord
100
AcDbLinetypeTableRecord
  2
DASHED
 70
     0
  3
__ __ __ __ __
 72
    65
 73
     2
 40
6.25
 49
5.0
 74
     4
 75
     0
340
0
 46
1.0
 50
0.0
 44
0.0
 45
0.0
 49
-1.25
 74
     4
 75
     0
340
0
 46
1.0
 50
0.0
 44
0.0
 45
0.0
  0
LTYPE
  5
104
330
5
100
AcDbSymbolTableRecord
100
AcDbLinetypeTableRecord
  2
DASHDOT
 70
     0
  3
__ . __ . __ . __ . __
 72
    65
 73
     4
 40
7.5
 49
5.0
 74
     4
 75
     0
340
0
 46
1.0
 50
0.0
 44
0.0
 45
0.0
 49
-1.25
 74
     4
 75
     0
340
0
 46
1.0
 50
0.0
 44
0.0
 45
0.0
 49
0.0
 74
     4
 75
     0
340
0
 46
1.0
 50
0.0
 44
0.0
 45
0.0
 49
-1.25
 74
     4
 75
     0
340
0
 46
1.0
 50
0.0
 44
0.0
 45
0.0
  0
ENDTAB
  0
TABLE
  2
LAYER
  5
2
330
0
100
AcDbSymbolTable
 70
    18
  0
LAYER
  5
10
330
2
100
AcDbSymbolTableRecord
100
AcDbLayerTableRecord
  2
0
 70
     0
 62
     7
  6
Continuous
370
    -3
390
F
  0
LAYER
  5
2B
330
2
100
AcDbSymbolTableRecord
100
AcDbLayerTableRecord
  2
LC-INFO-1-2-mm-A3-0
 70
     1
 62
     7
  6
ByBlock
370
    -3
390
F
  0
LAYER
  5
2C
330
2
100
AcDbSymbolTableRecord
100
AcDbLayerTableRecord
  2
LC-CUT-HIDDEN
 70
     0
 62
     7
  6
DASHED
370
    -3
390
F
  0
LAYER
  5
2D
330
2
100
AcDbSymbolTableRecord
100
AcDbLayerTableRecord
  2
LC-VIEWPORT
 70
     0
 62
     7
  6
ByBlock
370
    -3
390
F
  0
LAYER
  5
2E
330
2
100
AcDbSymbolTableRecord
100
AcDbLayerTableRecord
  2
LC-3D-HIDDEN
 70
     0
 62
     9
  6
DASHED
370
    -3
390
F
  0
LAYER
  5
33
330
2
100
AcDbSymbolTableRecord
100
AcDbLayerTableRecord
  2
LC-001-005-----0
 70
     0
 62
     2
  6
ByBlock
370
    -3
390
F
  0
LAYER
  5
43
330
2
100
AcDbSymbolTableRecord
100
AcDbLayerTableRecord
  2
LC-002-002-----0
 70
     0
 62
     1
  6
ByBlock
370
    -3
390
F
  0
LAYER
  5
49
330
2
100
AcDbSymbolTableRecord
100
AcDbLayerTableRecord
  2
LC-003-002-RND-0
 70
     0
 62
     1
  6
ByBlock
370
    -3
390
F
  0
LAYER
  5
A9
330
2
100
AcDbSymbolTableRecord
100
AcDbLayerTableRecord
  2
LC-004-003-----0
 70
     0
 62
     2
  6
ByBlock
370
    -3
390
F
  0
LAYER
  5
AB
330
2
100
AcDbSymbolTableRecord
100
AcDbLayerTableRecord
  2
Defpoints
 70
     0
 62
     7
  6
Continuous
290
     0
370
    -3
390
F
  0
LAYER
  5
BB
330
2
100
AcDbSymbolTableRecord
100
AcDbLayerTableRecord
  2
LC-005-101-----0
 70
     0
 62
     1
  6
ByBlock
370
    -3
390
F
  0
LAYER
  5
14D
330
2
100
AcDbSymbolTableRecord
100
AcDbLayerTableRecord
  2
LC-006-101-RND-0
 70
     0
 62
     1
  6
ByBlock
370
    -3
390
F
  0
LAYER
  5
1C2
330
2
100
AcDbSymbolTableRecord
100
AcDbLayerTableRecord
  2
LC-007-207-----0
 70
     0
 62
     1
  6
ByBlock
370
    -3
390
F
  0
LAYER
  5
1CA
330
2
100
AcDbSymbolTableRecord
100
AcDbLayerTableRecord
  2
LC-008-205-RND-0
 70
     0
 62
     1
  6
ByBlock
370
    -3
390
F
  0
LAYER
  5
1DB
330
2
100
AcDbSymbolTableRecord
100
AcDbLayerTableRecord
  2
LC-009-207-RND-0
 70
     0
 62
     1
  6
ByBlock
370
    -3
390
F
  0
LAYER
  5
42D
330
2
100
AcDbSymbolTableRecord
100
AcDbLayerTableRecord
  2
LC-010-205-----0
 70
     0
 62
     1
  6
ByBlock
370
    -3
390
F
  0
LAYER
  5
4BE
330
2
100
AcDbSymbolTableRecord
100
AcDbLayerTableRecord
  2
LC-011-003-MTG-0
 70
     0
 62
     2
  6
ByBlock
370
    -3
390
F
  0
LAYER
  5
4C2
330
2
100
AcDbSymbolTableRecord
100
AcDbLayerTableRecord
  2
LC-012-003-MTH-0
 70
     0
 62
     2
  6
ByBlock
370
    -3
390
F
  0
ENDTAB
  0
TABLE
  2
STYLE
  5
3
330
0
100
AcDbSymbolTable
 70
     3
  0
STYLE
  5
11
330
3
100
AcDbSymbolTableRecord
100
AcDbTextStyleTableRecord
  2
Standard
 70
     0
 40
0.0
 41
1.0
 50
0.0
 71
     0
 42
2.5
  3
txt
  4

  0
STYLE
  5
2F
330
3
100
AcDbSymbolTableRecord
100
AcDbTextStyleTableRecord
  2
LCTX15-400-0-0-Arial
 70
     0
 40
0.0
 41
0.9
 50
0.0
 71
     0
 42
3.5
  3
ARIAL.TTF
  4

1001
ACAD
1000
Arial
1071
 16777218
  0
STYLE
  5
A7
330
3
100
AcDbSymbolTableRecord
100
AcDbTextStyleTableRecord
  2
LCTX15-400-0-0pDIN-Schrift
 70
     0
 40
2.5
 41
0.8
 50
15.0
 71
     0
 42
3.5
  3
STANDARD
  4

  0
ENDTAB
  0
TABLE
  2
VIEW
  5
6
330
0
100
AcDbSymbolTable
 70
     0
  0
ENDTAB
  0
TABLE
  2
UCS
  5
7
330
0
100
AcDbSymbolTable
 70
     0
  0
ENDTAB
  0
TABLE
  2
APPID
  5
9
330
0
100
AcDbSymbolTable
 70
     1
  0
APPID
  5
12
330
9
100
AcDbSymbolTableRecord
100
AcDbRegAppTableRecord
  2
ACAD
 70
     0
  0
ENDTAB
  0
TABLE
  2
DIMSTYLE
  5
A
330
0
100
AcDbSymbolTable
 70
     3
100
AcDbDimStyleTable
  0
DIMSTYLE
105
27
330
A
100
AcDbSymbolTableRecord
100
AcDbDimStyleTableRecord
  2
ISO-25
 70
     0
 41
2.5
 42
0.625
 43
3.75
 44
1.25
 73
     0
 74
     0
 77
     1
 78
     8
140
2.5
141
2.5
143
0.03937
147
0.625
171
     3
172
     1
271
     2
272
     2
274
     3
278
    44
283
     0
284
     8
340
11
  0
DIMSTYLE
105
A8
102
{ACAD_REACTORS
330
AA
330
1CC
330
1DE
330
27D
330
28D
330
35C
330
387
330
3F7
330
484
102
}
330
A
100
AcDbSymbolTableRecord
100
AcDbDimStyleTableRecord
  2
LC-DIM-L-0140-02-02
 70
     0
 40
2.0
 41
14.0
 42
0.0
 43
7.5
 44
1.8
 73
     0
 74
     0
 77
     1
 78
     8
 79
     2
140
14.0
141
0.0
146
0.71
147
1.5
176
     2
177
     2
178
     2
179
     2
271
     2
278
    44
289
     1
340
A7
  0
DIMSTYLE
105
4A7
330
A
100
AcDbSymbolTableRecord
100
AcDbDimStyleTableRecord
  2
LC-DIM-W-0140-02-02
 70
     0
 40
2.0
 41
14.0
 42
0.0
 43
7.5
 44
1.8
 73
     0
 74
     0
 77
     1
 78
     8
 79
     2
140
14.0
141
0.0
146
0.71
147
1.5
176
     2
177
     2
178
     2
179
     2
271
     2
278
    44
289
     1
340
A7
  0
ENDTAB
  0
TABLE
  2
BLOCK_RECORD
  5
1
330
0
100
AcDbSymbolTable
 70
    26
  0
BLOCK_RECORD
  5
1F
330
1
100
AcDbSymbolTableRecord
100
AcDbBlockTableRecord
  2
*Model_Space
340
22
  0
BLOCK_RECORD
  5
1B
330
1
100
AcDbSymbolTableRecord
100
AcDbBlockTableRecord
  2
*Paper_Space
340
1E
  0
BLOCK_RECORD
  5
23
330
1
100
AcDbSymbolTableRecord
100
AcDbBlockTableRecord
  2
*Paper_Space0
340
26
  0
BLOCK_RECORD
  5
30
330
1
100
AcDbSymbolTableRecord
100
AcDbBlockTableRecord
  2
*X11
340
0
102
{BLKREFS
331
42
102
}
  0
BLOCK_RECORD
  5
58
330
1
100
AcDbSymbolTableRecord
100
AcDbBlockTableRecord
  2
*X22
340
0
102
{BLKREFS
331
7B
102
}
  0
BLOCK_RECORD
  5
AC
330
1
100
AcDbSymbolTableRecord
100
AcDbBlockTableRecord
  2
*D3
340
0
  0
BLOCK_RECORD
  5
C0
330
1
100
AcDbSymbolTableRecord
100
AcDbBlockTableRecord
  2
*X34
340
0
102
{BLKREFS
331
103
102
}
  0
BLOCK_RECORD
  5
107
330
1
100
AcDbSymbolTableRecord
100
AcDbBlockTableRecord
  2
*X45
340
0
102
{BLKREFS
331
112
102
}
  0
BLOCK_RECORD
  5
116
330
1
100
AcDbSymbolTableRecord
100
AcDbBlockTableRecord
  2
*X56
340
0
102
{BLKREFS
331
121
102
}
  0
BLOCK_RECORD
  5
16F
330
1
100
AcDbSymbolTableRecord
100
AcDbBlockTableRecord
  2
*X67
340
0
102
{BLKREFS
331
182
102
}
  0
BLOCK_RECORD
  5
18B
330
1
100
AcDbSymbolTableRecord
100
AcDbBlockTableRecord
  2
*X78
340
0
102
{BLKREFS
331
192
102
}
  0
BLOCK_RECORD
  5
195
330
1
100
AcDbSymbolTableRecord
100
AcDbBlockTableRecord
  2
*X89
340
0
102
{BLKREFS
331
19C
102
}
  0
BLOCK_RECORD
  5
19E
330
1
100
AcDbSymbolTableRecord
100
AcDbBlockTableRecord
  2
*X910
340
0
102
{BLKREFS
331
1AA
102
}
  0
BLOCK_RECORD
  5
1AC
330
1
100
AcDbSymbolTableRecord
100
AcDbBlockTableRecord
  2
*X1011
340
0
102
{BLKREFS
331
1B7
102
}
  0
BLOCK_RECORD
  5
1CD
330
1
100
AcDbSymbolTableRecord
100
AcDbBlockTableRecord
  2
*D12
340
0
  0
BLOCK_RECORD
  5
1DF
330
1
100
AcDbSymbolTableRecord
100
AcDbBlockTableRecord
  2
*D13
340
0
  0
BLOCK_RECORD
  5
1ED
330
1
100
AcDbSymbolTableRecord
100
AcDbBlockTableRecord
  2
*X1114
340
0
102
{BLKREFS
331
27C
102
}
  0
BLOCK_RECORD
  5
27E
330
1
100
AcDbSymbolTableRecord
100
AcDbBlockTableRecord
  2
*D15
340
0
  0
BLOCK_RECORD
  5
28E
330
1
100
AcDbSymbolTableRecord
100
AcDbBlockTableRecord
  2
*D16
340
0
  0
BLOCK_RECORD
  5
2BD
330
1
100
AcDbSymbolTableRecord
100
AcDbBlockTableRecord
  2
*X1217
340
0
102
{BLKREFS
331
2CF
102
}
  0
BLOCK_RECORD
  5
2EC
330
1
100
AcDbSymbolTableRecord
100
AcDbBlockTableRecord
  2
*X1318
340
0
102
{BLKREFS
331
31B
102
}
  0
BLOCK_RECORD
  5
31C
330
1
100
AcDbSymbolTableRecord
100
AcDbBlockTableRecord
  2
*X1419
340
0
102
{BLKREFS
331
346
102
}
  0
BLOCK_RECORD
  5
35D
330
1
100
AcDbSymbolTableRecord
100
AcDbBlockTableRecord
  2
*D20
340
0
  0
BLOCK_RECORD
  5
388
330
1
100
AcDbSymbolTableRecord
100
AcDbBlockTableRecord
  2
*D21
340
0
  0
BLOCK_RECORD
  5
3F8
330
1
100
AcDbSymbolTableRecord
100
AcDbBlockTableRecord
  2
*D22
340
0
  0
BLOCK_RECORD
  5
45C
330
1
100
AcDbSymbolTableRecord
100
AcDbBlockTableRecord
  2
*X1523
340
0
102
{BLKREFS
331
483
102
}
  0
BLOCK_RECORD
  5
485
330
1
100
AcDbSymbolTableRecord
100
AcDbBlockTableRecord
  2
*D24
340
0
  0
BLOCK_RECORD
  5
4A8
330
1
100
AcDbSymbolTableRecord
100
AcDbBlockTableRecord
  2
LCDIM1
340
0
102
{BLKREFS
331
4C6
102
}
  0
ENDTAB
  0
ENDSEC
  0
SECTION
  2
BLOCKS
  0
BLOCK
  5
20
330
1F
100
AcDbEntity
  8
0
100
AcDbBlockBegin
  2
*Model_Space
 70
     0
 71
     0
 10
0.0
 20
0.0
 30
0.0
  3
*Model_Space
  1

  0
ENDBLK
  5
21
330
1F
100
AcDbEntity
  8
0
100
AcDbBlockEnd
  0
BLOCK
  5
1C
330
1B
100
AcDbEntity
 67
     1
  8
0
100
AcDbBlockBegin
  2
*Paper_Space
 70
     0
 71
     0
 10
0.0
 20
0.0
 30
0.0
  3
*Paper_Space
  1

  0
ENDBLK
  5
1D
330
1B
100
AcDbEntity
 67
     1
  8
0
100
AcDbBlockEnd
  0
BLOCK
  5
24
330
23
100
AcDbEntity
  8
0
100
AcDbBlockBegin
  2
*Paper_Space0
 70
     0
 71
     0
 10
0.0
 20
0.0
 30
0.0
  3
*Paper_Space0
  1

  0
ENDBLK
  5
25
330
23
100
AcDbEntity
  8
0
100
AcDbBlockEnd
  0
BLOCK
  5
31
330
30
100
AcDbEntity
  8
0
100
AcDbBlockBegin
  2
*X11
 70
     1
 71
     0
 10
0.0
 20
0.0
 30
0.0
  3
*X11
  1

  4
*X1
  0
LINE
  5
34
330
30
100
AcDbEntity
  8
LC-001-005-----0
 62
     7
370
    25
100
AcDbLine
 10
618.867094
 20
557.75859
 30
0.0
 11
617.949843
 21
558.675841
 31
0.0
  0
LINE
  5
35
330
30
100
AcDbEntity
  8
LC-001-005-----0
 62
     7
370
    25
100
AcDbLine
 10
618.867094
 20
554.930163
 30
0.0
 11
615.121416
 21
558.675841
 31
0.0
  0
LINE
  5
36
330
30
100
AcDbEntity
  8
LC-001-005-----0
 62
     7
370
    25
100
AcDbLine
 10
618.867094
 20
552.101736
 30
0.0
 11
617.367094
 21
553.601736
 31
0.0
  0
LINE
  5
37
330
30
100
AcDbEntity
  8
LC-001-005-----0
 62
     7
370
    25
100
AcDbLine
 10
615.292989
 20
555.675841
 30
0.0
 11
612.292989
 21
558.675841
 31
0.0
  0
LINE
  5
38
330
30
100
AcDbEntity
  8
LC-001-005-----0
 62
     7
370
    25
100
AcDbLine
 10
618.867094
 20
549.273309
 30
0.0
 11
617.367094
 21
550.773309
 31
0.0
  0
LINE
  5
39
330
30
100
AcDbEntity
  8
LC-001-005-----0
 62
     7
370
    25
100
AcDbLine
 10
611.065649
 20
557.074753
 30
0.0
 11
609.875153
 21
558.26525
 31
0.0
  0
LINE
  5
3A
330
30
100
AcDbEntity
  8
LC-001-005-----0
 62
     7
370
    25
100
AcDbLine
 10
618.867094
 20
546.444882
 30
0.0
 11
617.367094
 21
547.944882
 31
0.0
  0
LINE
  5
3B
330
30
100
AcDbEntity
  8
LC-001-005-----0
 62
     7
370
    25
100
AcDbLine
 10
609.636134
 20
555.675841
 30
0.0
 11
608.136134
 21
557.175841
 31
0.0
  0
LINE
  5
3C
330
30
100
AcDbEntity
  8
LC-001-005-----0
 62
     7
370
    25
100
AcDbLine
 10
618.867094
 20
543.616455
 30
0.0
 11
617.367094
 21
545.116455
 31
0.0
  0
LINE
  5
3D
330
30
100
AcDbEntity
  8
LC-001-005-----0
 62
     7
370
    25
100
AcDbLine
 10
618.867094
 20
540.788027
 30
0.0
 11
617.367094
 21
542.288027
 31
0.0
  0
LINE
  5
3E
330
30
100
AcDbEntity
  8
LC-001-005-----0
 62
     7
370
    25
100
AcDbLine
 10
618.867094
 20
537.9596
 30
0.0
 11
617.367094
 21
539.4596
 31
0.0
  0
LINE
  5
3F
330
30
100
AcDbEntity
  8
LC-001-005-----0
 62
     7
370
    25
100
AcDbLine
 10
618.867094
 20
535.131173
 30
0.0
 11
617.367094
 21
536.631173
 31
0.0
  0
LINE
  5
40
330
30
100
AcDbEntity
  8
LC-001-005-----0
 62
     7
370
    25
100
AcDbLine
 10
618.867094
 20
532.302746
 30
0.0
 11
617.367094
 21
533.802746
 31
0.0
  0
LINE
  5
41
330
30
100
AcDbEntity
  8
LC-001-005-----0
 62
     7
370
    25
100
AcDbLine
 10
618.867094
 20
529.474319
 30
0.0
 11
617.367094
 21
530.974319
 31
0.0
  0
ENDBLK
  5
32
330
30
100
AcDbEntity
  8
0
100
AcDbBlockEnd
  0
BLOCK
  5
59
330
58
100
AcDbEntity
  8
0
100
AcDbBlockBegin
  2
*X22
 70
     1
 71
     0
 10
0.0
 20
0.0
 30
0.0
  3
*X22
  1

  4
*X2
  0
LINE
  5
5B
330
58
100
AcDbEntity
  8
LC-001-005-----0
 62
     7
370
    25
100
AcDbLine
 10
640.207722
 20
576.015942
 30
0.0
 11
628.707194
 21
587.516469
 31
0.0
  0
LINE
  5
5C
330
58
100
AcDbEntity
  8
LC-001-005-----0
 62
     7
370
    25
100
AcDbLine
 10
641.712832
 20
571.682405
 30
0.0
 11
639.449237
 21
573.945999
 31
0.0
  0
LINE
  5
5D
330
58
100
AcDbEntity
  8
LC-001-005-----0
 62
     7
370
    25
100
AcDbLine
 10
626.637252
 20
586.757985
 30
0.0
 11
624.373657
 21
589.021579
 31
0.0
  0
LINE
  5
5E
330
58
100
AcDbEntity
  8
LC-001-005-----0
 62
     7
370
    25
100
AcDbLine
 10
642.271303
 20
568.295506
 30
0.0
 11
640.524702
 21
570.042108
 31
0.0
  0
LINE
  5
5F
330
58
100
AcDbEntity
  8
LC-001-005-----0
 62
     7
370
    25
100
AcDbLine
 10
622.73336
 20
587.833449
 30
0.0
 11
620.986759
 21
589.58005
 31
0.0
  0
LINE
  5
60
330
58
100
AcDbEntity
  8
LC-001-005-----0
 62
     7
370
    25
100
AcDbLine
 10
642.367094
 20
565.371289
 30
0.0
 11
640.855737
 21
566.882645
 31
0.0
  0
LINE
  5
61
330
58
100
AcDbEntity
  8
LC-001-005-----0
 62
     7
370
    25
100
AcDbLine
 10
619.573898
 20
588.164484
 30
0.0
 11
618.062541
 21
589.675841
 31
0.0
  0
LINE
  5
62
330
58
100
AcDbEntity
  8
LC-001-005-----0
 62
     7
370
    25
100
AcDbLine
 10
614.367094
 20
593.371289
 30
0.0
 11
612.867094
 21
594.871289
 31
0.0
  0
LINE
  5
63
330
58
100
AcDbEntity
  8
LC-001-005-----0
 62
     7
370
    25
100
AcDbLine
 10
642.367094
 20
562.542861
 30
0.0
 11
640.867094
 21
564.042861
 31
0.0
  0
LINE
  5
64
330
58
100
AcDbEntity
  8
LC-001-005-----0
 62
     7
370
    25
100
AcDbLine
 10
616.734114
 20
588.175841
 30
0.0
 11
615.234114
 21
589.675841
 31
0.0
  0
LINE
  5
65
330
58
100
AcDbEntity
  8
LC-001-005-----0
 62
     7
370
    25
100
AcDbLine
 10
614.367094
 20
590.542861
 30
0.0
 11
609.234114
 21
595.675841
 31
0.0
  0
LINE
  5
66
330
58
100
AcDbEntity
  8
LC-001-005-----0
 62
     7
370
    25
100
AcDbLine
 10
642.367094
 20
559.714434
 30
0.0
 11
640.867094
 21
561.214434
 31
0.0
  0
LINE
  5
67
330
58
100
AcDbEntity
  8
LC-001-005-----0
 62
     7
370
    25
100
AcDbLine
 10
607.905687
 20
594.175841
 30
0.0
 11
607.15951
 21
594.922018
 31
0.0
  0
LINE
  5
68
330
58
100
AcDbEntity
  8
LC-001-005-----0
 62
     7
370
    25
100
AcDbLine
 10
642.367094
 20
556.886007
 30
0.0
 11
640.867094
 21
558.386007
 31
0.0
  0
LINE
  5
69
330
58
100
AcDbEntity
  8
LC-001-005-----0
 62
     7
370
    25
100
AcDbLine
 10
642.367094
 20
554.05758
 30
0.0
 11
640.867094
 21
555.55758
 31
0.0
  0
LINE
  5
6A
330
58
100
AcDbEntity
  8
LC-001-005-----0
 62
     7
370
    25
100
AcDbLine
 10
642.367094
 20
551.229153
 30
0.0
 11
640.867094
 21
552.729153
 31
0.0
  0
LINE
  5
6B
330
58
100
AcDbEntity
  8
LC-001-005-----0
 62
     7
370
    25
100
AcDbLine
 10
642.367094
 20
548.400726
 30
0.0
 11
640.867094
 21
549.900726
 31
0.0
  0
LINE
  5
6C
330
58
100
AcDbEntity
  8
LC-001-005-----0
 62
     7
370
    25
100
AcDbLine
 10
642.367094
 20
545.572299
 30
0.0
 11
640.867094
 21
547.072299
 31
0.0
  0
LINE
  5
6D
330
58
100
AcDbEntity
  8
LC-001-005-----0
 62
     7
370
    25
100
AcDbLine
 10
642.367094
 20
542.743872
 30
0.0
 11
640.867094
 21
544.243872
 31
0.0
  0
LINE
  5
6E
330
58
100
AcDbEntity
  8
LC-001-005-----0
 62
     7
370
    25
100
AcDbLine
 10
642.367094
 20
539.915444
 30
0.0
 11
640.867094
 21
541.415444
 31
0.0
  0
LINE
  5
6F
330
58
100
AcDbEntity
  8
LC-001-005-----0
 62
     7
370
    25
100
AcDbLine
 10
642.367094
 20
537.087017
 30
0.0
 11
640.867094
 21
538.587017
 31
0.0
  0
LINE
  5
70
330
58
100
AcDbEntity
  8
LC-001-005-----0
 62
     7
370
    25
100
AcDbLine
 10
642.367094
 20
534.25859
 30
0.0
 11
640.867094
 21
535.75859
 31
0.0
  0
LINE
  5
71
330
58
100
AcDbEntity
  8
LC-001-005-----0
 62
     7
370
    25
100
AcDbLine
 10
642.367094
 20
531.430163
 30
0.0
 11
640.867094
 21
532.930163
 31
0.0
  0
LINE
  5
72
330
58
100
AcDbEntity
  8
LC-001-005-----0
 62
     7
370
    25
100
AcDbLine
 10
642.367094
 20
528.601736
 30
0.0
 11
640.867094
 21
530.101736
 31
0.0
  0
LINE
  5
73
330
58
100
AcDbEntity
  8
LC-001-005-----0
 62
     7
370
    25
100
AcDbLine
 10
642.367094
 20
525.773309
 30
0.0
 11
640.867094
 21
527.273309
 31
0.0
  0
LINE
  5
74
330
58
100
AcDbEntity
  8
LC-001-005-----0
 62
     7
370
    25
100
AcDbLine
 10
642.367094
 20
522.944882
 30
0.0
 11
640.867094
 21
524.444882
 31
0.0
  0
LINE
  5
75
330
58
100
AcDbEntity
  8
LC-001-005-----0
 62
     7
370
    25
100
AcDbLine
 10
642.367094
 20
520.116455
 30
0.0
 11
640.867094
 21
521.616455
 31
0.0
  0
LINE
  5
76
330
58
100
AcDbEntity
  8
LC-001-005-----0
 62
     7
370
    25
100
AcDbLine
 10
642.367094
 20
517.288027
 30
0.0
 11
640.867094
 21
518.788027
 31
0.0
  0
LINE
  5
77
330
58
100
AcDbEntity
  8
LC-001-005-----0
 62
     7
370
    25
100
AcDbLine
 10
642.367094
 20
514.4596
 30
0.0
 11
640.867094
 21
515.9596
 31
0.0
  0
LINE
  5
78
330
58
100
AcDbEntity
  8
LC-001-005-----0
 62
     7
370
    25
100
AcDbLine
 10
642.367094
 20
511.631173
 30
0.0
 11
640.867094
 21
513.131173
 31
0.0
  0
LINE
  5
79
330
58
100
AcDbEntity
  8
LC-001-005-----0
 62
     7
370
    25
100
AcDbLine
 10
642.367094
 20
508.802746
 30
0.0
 11
640.867094
 21
510.302746
 31
0.0
  0
LINE
  5
7A
330
58
100
AcDbEntity
  8
LC-001-005-----0
 62
     7
370
    25
100
AcDbLine
 10
641.665572
 20
506.675841
 30
0.0
 11
640.867094
 21
507.474319
 31
0.0
  0
ENDBLK
  5
5A
330
58
100
AcDbEntity
  8
0
100
AcDbBlockEnd
  0
BLOCK
  5
B6
330
AC
100
AcDbEntity
  8
0
100
AcDbBlockBegin
  2
*D3
 70
     1
 71
     0
 10
0.0
 20
0.0
 30
0.0
  3
*D3
  1

  0
LINE
  5
AD
330
AC
100
AcDbEntity
  8
LC-004-003-----0
 62
     2
370
    -2
100
AcDbLine
 10
559.367094
 20
553.175841
 30
0.0
 11
559.367094
 21
427.6
 31
0.0
  0
LINE
  5
AE
330
AC
100
AcDbEntity
  8
LC-004-003-----0
 62
     2
370
    -2
100
AcDbLine
 10
860.367094
 20
546.9561
 30
0.0
 11
860.367094
 21
427.6
 31
0.0
  0
LINE
  5
AF
330
AC
100
AcDbEntity
  8
LC-004-003-----0
 62
     2
370
    -2
100
AcDbLine
 10
587.367094
 20
431.2
 30
0.0
 11
832.367094
 21
431.2
 31
0.0
  0
SOLID
  5
B0
330
AC
100
AcDbEntity
  8
LC-004-003-----0
 62
     2
100
AcDbTrace
 10
587.367094
 20
435.866667
 30
0.0
 11
587.367094
 21
426.533333
 31
0.0
 12
559.367094
 22
431.2
 32
0.0
 13
559.367094
 23
431.2
 33
0.0
  0
SOLID
  5
B1
330
AC
100
AcDbEntity
  8
LC-004-003-----0
 62
     2
100
AcDbTrace
 10
832.367094
 20
426.533333
 30
0.0
 11
832.367094
 21
435.866667
 31
0.0
 12
860.367094
 22
431.2
 32
0.0
 13
860.367094
 23
431.2
 33
0.0
  0
MTEXT
  5
B2
330
AC
100
AcDbEntity
  8
LC-004-003-----0
 62
     2
100
AcDbMText
 10
745.714097
 20
462.0
 30
0.0
 40
28.0
 41
0.0
 71
     5
 72
     1
  1
\A1;300
  7
LCTX15-400-0-0pDIN-Schrift
 73
     1
 44
1.0
  0
POINT
  5
B3
330
AC
100
AcDbEntity
  8
Defpoints
 62
     0
100
AcDbPoint
 10
559.367094
 20
553.175841
 30
0.0
  0
POINT
  5
B4
330
AC
100
AcDbEntity
  8
Defpoints
 62
     0
100
AcDbPoint
 10
860.367094
 20
546.9561
 30
0.0
  0
POINT
  5
B5
330
AC
100
AcDbEntity
  8
Defpoints
 62
     0
100
AcDbPoint
 10
860.367094
 20
431.2
 30
0.0
  0
ENDBLK
  5
B7
330
AC
100
AcDbEntity
  8
0
100
AcDbBlockEnd
  0
BLOCK
  5
C1
330
C0
100
AcDbEntity
  8
0
100
AcDbBlockBegin
  2
*X34
 70
     1
 71
     0
 10
0.0
 20
0.0
 30
0.0
  3
*X34
  1

  4
*X3
  0
LINE
  5
C3
330
C0
100
AcDbEntity
  8
LC-001-005-----0
 62
     7
370
    25
100
AcDbLine
 10
709.293279
 20
597.440053
 30
0.0
 11
707.912214
 21
598.821118
 31
0.0
  0
LINE
  5
C4
330
C0
100
AcDbEntity
  8
LC-001-005-----0
 62
     7
370
    25
100
AcDbLine
 10
706.916903
 20
596.988002
 30
0.0
 11
705.966736
 21
597.938169
 31
0.0
  0
LINE
  5
C5
330
C0
100
AcDbEntity
  8
LC-001-005-----0
 62
     7
370
    25
100
AcDbLine
 10
709.367094
 20
591.709383
 30
0.0
 11
708.578351
 21
592.498126
 31
0.0
  0
LINE
  5
C6
330
C0
100
AcDbEntity
  8
LC-001-005-----0
 62
     7
370
    25
100
AcDbLine
 10
706.867094
 20
594.209383
 30
0.0
 11
704.303158
 21
596.773319
 31
0.0
  0
LINE
  5
C7
330
C0
100
AcDbEntity
  8
LC-001-005-----0
 62
     7
370
    25
100
AcDbLine
 10
706.746271
 20
591.501779
 30
0.0
 11
704.870747
 21
593.377303
 31
0.0
  0
LINE
  5
C8
330
C0
100
AcDbEntity
  8
LC-001-005-----0
 62
     7
370
    25
100
AcDbLine
 10
703.716603
 20
594.531447
 30
0.0
 11
702.63958
 21
595.60847
 31
0.0
  0
LINE
  5
C9
330
C0
100
AcDbEntity
  8
LC-001-005-----0
 62
     7
370
    25
100
AcDbLine
 10
702.053025
 20
593.366598
 30
0.0
 11
700.976003
 21
594.44362
 31
0.0
  0
LINE
  5
CA
330
C0
100
AcDbEntity
  8
LC-001-005-----0
 62
     7
370
    25
100
AcDbLine
 10
700.389448
 20
592.201748
 30
0.0
 11
699.312425
 21
593.278771
 31
0.0
  0
LINE
  5
CB
330
C0
100
AcDbEntity
  8
LC-001-005-----0
 62
     7
370
    25
100
AcDbLine
 10
698.72587
 20
591.036899
 30
0.0
 11
697.648848
 21
592.113921
 31
0.0
  0
LINE
  5
CC
330
C0
100
AcDbEntity
  8
LC-001-005-----0
 62
     7
370
    25
100
AcDbLine
 10
697.062293
 20
589.872049
 30
0.0
 11
695.98527
 21
590.949072
 31
0.0
  0
LINE
  5
CD
330
C0
100
AcDbEntity
  8
LC-001-005-----0
 62
     7
370
    25
100
AcDbLine
 10
695.398715
 20
588.707199
 30
0.0
 11
694.322866
 21
589.783048
 31
0.0
  0
LINE
  5
CE
330
C0
100
AcDbEntity
  8
LC-001-005-----0
 62
     7
370
    25
100
AcDbLine
 10
693.777421
 20
587.500066
 30
0.0
 11
692.803291
 21
588.474197
 31
0.0
  0
LINE
  5
CF
330
C0
100
AcDbEntity
  8
LC-001-005-----0
 62
     7
370
    25
100
AcDbLine
 10
692.411696
 20
586.037364
 30
0.0
 11
691.521109
 21
586.927951
 31
0.0
  0
LINE
  5
D0
330
C0
100
AcDbEntity
  8
LC-001-005-----0
 62
     7
370
    25
100
AcDbLine
 10
691.339927
 20
584.280706
 30
0.0
 11
690.488108
 21
585.132525
 31
0.0
  0
LINE
  5
D1
330
C0
100
AcDbEntity
  8
LC-001-005-----0
 62
     7
370
    25
100
AcDbLine
 10
690.612419
 20
582.179787
 30
0.0
 11
689.743209
 21
583.048997
 31
0.0
  0
LINE
  5
D2
330
C0
100
AcDbEntity
  8
LC-001-005-----0
 62
     7
370
    25
100
AcDbLine
 10
690.367093
 20
579.596686
 30
0.0
 11
689.378251
 21
580.585528
 31
0.0
  0
LINE
  5
D3
330
C0
100
AcDbEntity
  8
LC-001-005-----0
 62
     7
370
    25
100
AcDbLine
 10
690.367093
 20
576.768259
 30
0.0
 11
689.367093
 21
577.768259
 31
0.0
  0
LINE
  5
D4
330
C0
100
AcDbEntity
  8
LC-001-005-----0
 62
     7
370
    25
100
AcDbLine
 10
690.367093
 20
573.939832
 30
0.0
 11
689.367093
 21
574.939832
 31
0.0
  0
LINE
  5
D5
330
C0
100
AcDbEntity
  8
LC-001-005-----0
 62
     7
370
    25
100
AcDbLine
 10
690.367093
 20
571.111405
 30
0.0
 11
689.367093
 21
572.111405
 31
0.0
  0
LINE
  5
D6
330
C0
100
AcDbEntity
  8
LC-001-005-----0
 62
     7
370
    25
100
AcDbLine
 10
690.367093
 20
568.282977
 30
0.0
 11
689.367093
 21
569.282977
 31
0.0
  0
LINE
  5
D7
330
C0
100
AcDbEntity
  8
LC-001-005-----0
 62
     7
370
    25
100
AcDbLine
 10
690.367093
 20
565.45455
 30
0.0
 11
689.367093
 21
566.45455
 31
0.0
  0
LINE
  5
D8
330
C0
100
AcDbEntity
  8
LC-001-005-----0
 62
     7
370
    25
100
AcDbLine
 10
690.367093
 20
562.626123
 30
0.0
 11
689.367093
 21
563.626123
 31
0.0
  0
LINE
  5
D9
330
C0
100
AcDbEntity
  8
LC-001-005-----0
 62
     7
370
    25
100
AcDbLine
 10
690.367093
 20
559.797696
 30
0.0
 11
689.367093
 21
560.797696
 31
0.0
  0
LINE
  5
DA
330
C0
100
AcDbEntity
  8
LC-001-005-----0
 62
     7
370
    25
100
AcDbLine
 10
690.367093
 20
556.969269
 30
0.0
 11
689.367093
 21
557.969269
 31
0.0
  0
LINE
  5
DB
330
C0
100
AcDbEntity
  8
LC-001-005-----0
 62
     7
370
    25
100
AcDbLine
 10
690.367093
 20
554.140842
 30
0.0
 11
689.367093
 21
555.140842
 31
0.0
  0
LINE
  5
DC
330
C0
100
AcDbEntity
  8
LC-001-005-----0
 62
     7
370
    25
100
AcDbLine
 10
690.367093
 20
551.312414
 30
0.0
 11
689.367093
 21
552.312414
 31
0.0
  0
LINE
  5
DD
330
C0
100
AcDbEntity
  8
LC-001-005-----0
 62
     7
370
    25
100
AcDbLine
 10
690.367093
 20
548.483987
 30
0.0
 11
689.367093
 21
549.483987
 31
0.0
  0
LINE
  5
DE
330
C0
100
AcDbEntity
  8
LC-001-005-----0
 62
     7
370
    25
100
AcDbLine
 10
690.367093
 20
545.65556
 30
0.0
 11
689.367093
 21
546.65556
 31
0.0
  0
LINE
  5
DF
330
C0
100
AcDbEntity
  8
LC-001-005-----0
 62
     7
370
    25
100
AcDbLine
 10
690.367093
 20
542.827133
 30
0.0
 11
689.367093
 21
543.827133
 31
0.0
  0
LINE
  5
E0
330
C0
100
AcDbEntity
  8
LC-001-005-----0
 62
     7
370
    25
100
AcDbLine
 10
648.395189
 20
584.799037
 30
0.0
 11
641.068547
 21
592.125679
 31
0.0
  0
LINE
  5
E1
330
C0
100
AcDbEntity
  8
LC-001-005-----0
 62
     7
370
    25
100
AcDbLine
 10
690.367093
 20
539.998706
 30
0.0
 11
689.367093
 21
540.998706
 31
0.0
  0
LINE
  5
E2
330
C0
100
AcDbEntity
  8
LC-001-005-----0
 62
     7
370
    25
100
AcDbLine
 10
649.327842
 20
581.037957
 30
0.0
 11
648.102558
 21
582.263241
 31
0.0
  0
LINE
  5
E3
330
C0
100
AcDbEntity
  8
LC-001-005-----0
 62
     7
370
    25
100
AcDbLine
 10
637.742028
 20
592.623771
 30
0.0
 11
631.843865
 21
598.521934
 31
0.0
  0
LINE
  5
E4
330
C0
100
AcDbEntity
  8
LC-001-005-----0
 62
     7
370
    25
100
AcDbLine
 10
690.367093
 20
537.170279
 30
0.0
 11
689.367093
 21
538.170279
 31
0.0
  0
LINE
  5
E5
330
C0
100
AcDbEntity
  8
LC-001-005-----0
 62
     7
370
    25
100
AcDbLine
 10
649.367093
 20
578.170279
 30
0.0
 11
648.367093
 21
579.170279
 31
0.0
  0
LINE
  5
E6
330
C0
100
AcDbEntity
  8
LC-001-005-----0
 62
     7
370
    25
100
AcDbLine
 10
633.867093
 20
593.670279
 30
0.0
 11
631.867093
 21
595.670279
 31
0.0
  0
LINE
  5
E7
330
C0
100
AcDbEntity
  8
LC-001-005-----0
 62
     7
370
    25
100
AcDbLine
 10
630.179045
 20
597.358327
 30
0.0
 11
628.867094
 21
598.670278
 31
0.0
  0
LINE
  5
E8
330
C0
100
AcDbEntity
  8
LC-001-005-----0
 62
     7
370
    25
100
AcDbLine
 10
690.367093
 20
534.341852
 30
0.0
 11
689.367093
 21
535.341852
 31
0.0
  0
LINE
  5
E9
330
C0
100
AcDbEntity
  8
LC-001-005-----0
 62
     7
370
    25
100
AcDbLine
 10
649.367093
 20
575.341852
 30
0.0
 11
648.367093
 21
576.341852
 31
0.0
  0
LINE
  5
EA
330
C0
100
AcDbEntity
  8
LC-001-005-----0
 62
     7
370
    25
100
AcDbLine
 10
632.914574
 20
591.794371
 30
0.0
 11
631.867093
 21
592.841852
 31
0.0
  0
LINE
  5
EB
330
C0
100
AcDbEntity
  8
LC-001-005-----0
 62
     7
370
    25
100
AcDbLine
 10
690.367094
 20
531.513424
 30
0.0
 11
689.367093
 21
532.513424
 31
0.0
  0
LINE
  5
EC
330
C0
100
AcDbEntity
  8
LC-001-005-----0
 62
     7
370
    25
100
AcDbLine
 10
649.367093
 20
572.513424
 30
0.0
 11
648.367093
 21
573.513424
 31
0.0
  0
LINE
  5
ED
330
C0
100
AcDbEntity
  8
LC-001-005-----0
 62
     7
370
    25
100
AcDbLine
 10
630.382391
 20
591.498126
 30
0.0
 11
629.382391
 21
592.498126
 31
0.0
  0
LINE
  5
EE
330
C0
100
AcDbEntity
  8
LC-001-005-----0
 62
     7
370
    25
100
AcDbLine
 10
690.367094
 20
528.684997
 30
0.0
 11
689.367094
 21
529.684997
 31
0.0
  0
LINE
  5
EF
330
C0
100
AcDbEntity
  8
LC-001-005-----0
 62
     7
370
    25
100
AcDbLine
 10
649.367093
 20
569.684997
 30
0.0
 11
648.367093
 21
570.684997
 31
0.0
  0
LINE
  5
F0
330
C0
100
AcDbEntity
  8
LC-001-005-----0
 62
     7
370
    25
100
AcDbLine
 10
690.367094
 20
525.85657
 30
0.0
 11
689.367094
 21
526.85657
 31
0.0
  0
LINE
  5
F1
330
C0
100
AcDbEntity
  8
LC-001-005-----0
 62
     7
370
    25
100
AcDbLine
 10
649.367093
 20
566.85657
 30
0.0
 11
648.367093
 21
567.85657
 31
0.0
  0
LINE
  5
F2
330
C0
100
AcDbEntity
  8
LC-001-005-----0
 62
     7
370
    25
100
AcDbLine
 10
690.367094
 20
523.028143
 30
0.0
 11
689.367094
 21
524.028143
 31
0.0
  0
LINE
  5
F3
330
C0
100
AcDbEntity
  8
LC-001-005-----0
 62
     7
370
    25
100
AcDbLine
 10
649.367093
 20
564.028143
 30
0.0
 11
648.367093
 21
565.028143
 31
0.0
  0
LINE
  5
F4
330
C0
100
AcDbEntity
  8
LC-001-005-----0
 62
     7
370
    25
100
AcDbLine
 10
649.367093
 20
561.199716
 30
0.0
 11
648.367093
 21
562.199716
 31
0.0
  0
LINE
  5
F5
330
C0
100
AcDbEntity
  8
LC-001-005-----0
 62
     7
370
    25
100
AcDbLine
 10
649.367093
 20
558.371289
 30
0.0
 11
648.367094
 21
559.371289
 31
0.0
  0
LINE
  5
F6
330
C0
100
AcDbEntity
  8
LC-001-005-----0
 62
     7
370
    25
100
AcDbLine
 10
649.367093
 20
555.542862
 30
0.0
 11
648.367094
 21
556.542862
 31
0.0
  0
LINE
  5
F7
330
C0
100
AcDbEntity
  8
LC-001-005-----0
 62
     7
370
    25
100
AcDbLine
 10
649.367094
 20
552.714435
 30
0.0
 11
648.367094
 21
553.714435
 31
0.0
  0
LINE
  5
F8
330
C0
100
AcDbEntity
  8
LC-001-005-----0
 62
     7
370
    25
100
AcDbLine
 10
649.367094
 20
549.886007
 30
0.0
 11
648.367094
 21
550.886007
 31
0.0
  0
LINE
  5
F9
330
C0
100
AcDbEntity
  8
LC-001-005-----0
 62
     7
370
    25
100
AcDbLine
 10
649.367094
 20
547.05758
 30
0.0
 11
648.367094
 21
548.05758
 31
0.0
  0
LINE
  5
FA
330
C0
100
AcDbEntity
  8
LC-001-005-----0
 62
     7
370
    25
100
AcDbLine
 10
649.367094
 20
544.229153
 30
0.0
 11
648.367094
 21
545.229153
 31
0.0
  0
LINE
  5
FB
330
C0
100
AcDbEntity
  8
LC-001-005-----0
 62
     7
370
    25
100
AcDbLine
 10
649.367094
 20
541.400726
 30
0.0
 11
648.367094
 21
542.400726
 31
0.0
  0
LINE
  5
FC
330
C0
100
AcDbEntity
  8
LC-001-005-----0
 62
     7
370
    25
100
AcDbLine
 10
649.367094
 20
538.572299
 30
0.0
 11
648.367094
 21
539.572299
 31
0.0
  0
LINE
  5
FD
330
C0
100
AcDbEntity
  8
LC-001-005-----0
 62
     7
370
    25
100
AcDbLine
 10
649.367094
 20
535.743872
 30
0.0
 11
648.367094
 21
536.743872
 31
0.0
  0
LINE
  5
FE
330
C0
100
AcDbEntity
  8
LC-001-005-----0
 62
     7
370
    25
100
AcDbLine
 10
649.367094
 20
532.915445
 30
0.0
 11
648.367094
 21
533.915445
 31
0.0
  0
LINE
  5
FF
330
C0
100
AcDbEntity
  8
LC-001-005-----0
 62
     7
370
    25
100
AcDbLine
 10
649.367094
 20
530.087017
 30
0.0
 11
648.367094
 21
531.087017
 31
0.0
  0
LINE
  5
100
330
C0
100
AcDbEntity
  8
LC-001-005-----0
 62
     7
370
    25
100
AcDbLine
 10
649.367094
 20
527.25859
 30
0.0
 11
648.367094
 21
528.25859
 31
0.0
  0
LINE
  5
101
330
C0
100
AcDbEntity
  8
LC-001-005-----0
 62
     7
370
    25
100
AcDbLine
 10
649.367094
 20
524.430163
 30
0.0
 11
648.367094
 21
525.430163
 31
0.0
  0
LINE
  5
102
330
C0
100
AcDbEntity
  8
LC-001-005-----0
 62
     7
370
    25
100
AcDbLine
 10
648.470704
 20
522.498126
 30
0.0
 11
648.367094
 21
522.601736
 31
0.0
  0
ENDBLK
  5
C2
330
C0
100
AcDbEntity
  8
0
100
AcDbBlockEnd
  0
BLOCK
  5
108
330
107
100
AcDbEntity
  8
0
100
AcDbBlockBegin
  2
*X45
 70
     1
 71
     0
 10
0.0
 20
0.0
 30
0.0
  3
*X45
  1

  4
*X4
  0
LINE
  5
10A
330
107
100
AcDbEntity
  8
LC-001-005-----0
 62
     7
370
    25
100
AcDbLine
 10
630.952177
 20
593.616939
 30
0.0
 11
631.74828
 21
594.413042
 31
0.0
  0
LINE
  5
10B
330
107
100
AcDbEntity
  8
LC-001-005-----0
 62
     7
370
    25
100
AcDbLine
 10
630.270774
 20
593.501222
 30
0.0
 11
631.863997
 21
595.094445
 31
0.0
  0
LINE
  5
10C
330
107
100
AcDbEntity
  8
LC-001-005-----0
 62
     7
370
    25
100
AcDbLine
 10
629.809486
 20
593.605619
 30
0.0
 11
631.7596
 21
595.555733
 31
0.0
  0
LINE
  5
10D
330
107
100
AcDbEntity
  8
LC-001-005-----0
 62
     7
370
    25
100
AcDbLine
 10
629.449616
 20
593.811435
 30
0.0
 11
631.553784
 21
595.915603
 31
0.0
  0
LINE
  5
10E
330
107
100
AcDbEntity
  8
LC-001-005-----0
 62
     7
370
    25
100
AcDbLine
 10
629.168607
 20
594.096111
 30
0.0
 11
631.269108
 21
596.196612
 31
0.0
  0
LINE
  5
10F
330
107
100
AcDbEntity
  8
LC-001-005-----0
 62
     7
370
    25
100
AcDbLine
 10
628.966906
 20
594.460095
 30
0.0
 11
630.905124
 21
596.398313
 31
0.0
  0
LINE
  5
110
330
107
100
AcDbEntity
  8
LC-001-005-----0
 62
     7
370
    25
100
AcDbLine
 10
628.868751
 20
594.927625
 30
0.0
 11
630.437594
 21
596.496468
 31
0.0
  0
LINE
  5
111
330
107
100
AcDbEntity
  8
LC-001-005-----0
 62
     7
370
    25
100
AcDbLine
 10
629.007752
 20
595.632312
 30
0.0
 11
629.732907
 21
596.357467
 31
0.0
  0
ENDBLK
  5
109
330
107
100
AcDbEntity
  8
0
100
AcDbBlockEnd
  0
BLOCK
  5
117
330
116
100
AcDbEntity
  8
0
100
AcDbBlockBegin
  2
*X56
 70
     1
 71
     0
 10
0.0
 20
0.0
 30
0.0
  3
*X56
  1

  4
*X5
  0
LINE
  5
119
330
116
100
AcDbEntity
  8
LC-001-005-----0
 62
     7
370
    25
100
AcDbLine
 10
709.076087
 20
593.67626
 30
0.0
 11
709.68896
 21
594.289134
 31
0.0
  0
LINE
  5
11A
330
116
100
AcDbEntity
  8
LC-001-005-----0
 62
     7
370
    25
100
AcDbLine
 10
708.332662
 20
593.498521
 30
0.0
 11
709.866699
 21
595.032558
 31
0.0
  0
LINE
  5
11B
330
116
100
AcDbEntity
  8
LC-001-005-----0
 62
     7
370
    25
100
AcDbLine
 10
707.856249
 20
593.587793
 30
0.0
 11
709.777427
 21
595.508971
 31
0.0
  0
LINE
  5
11C
330
116
100
AcDbEntity
  8
LC-001-005-----0
 62
     7
370
    25
100
AcDbLine
 10
707.486549
 20
593.783778
 30
0.0
 11
709.581442
 21
595.878671
 31
0.0
  0
LINE
  5
11D
330
116
100
AcDbEntity
  8
LC-001-005-----0
 62
     7
370
    25
100
AcDbLine
 10
707.196848
 20
594.059763
 30
0.0
 11
709.305457
 21
596.168372
 31
0.0
  0
LINE
  5
11E
330
116
100
AcDbEntity
  8
LC-001-005-----0
 62
     7
370
    25
100
AcDbLine
 10
706.985472
 20
594.414072
 30
0.0
 11
708.951148
 21
596.379749
 31
0.0
  0
LINE
  5
11F
330
116
100
AcDbEntity
  8
LC-001-005-----0
 62
     7
370
    25
100
AcDbLine
 10
706.872827
 20
594.867113
 30
0.0
 11
708.498108
 21
596.492393
 31
0.0
  0
LINE
  5
120
330
116
100
AcDbEntity
  8
LC-001-005-----0
 62
     7
370
    25
100
AcDbLine
 10
706.961265
 20
595.521236
 30
0.0
 11
707.843984
 21
596.403955
 31
0.0
  0
ENDBLK
  5
118
330
116
100
AcDbEntity
  8
0
100
AcDbBlockEnd
  0
BLOCK
  5
170
330
16F
100
AcDbEntity
  8
0
100
AcDbBlockBegin
  2
*X67
 70
     1
 71
     0
 10
0.0
 20
0.0
 30
0.0
  3
*X67
  1

  4
*X6
  0
LINE
  5
172
330
16F
100
AcDbEntity
  8
LC-001-005-----0
  6
DASHED
 62
     7
370
    25
100
AcDbLine
 10
571.749047
 20
556.22769
 30
0.0
 11
570.869629
 21
557.107109
 31
0.0
  0
LINE
  5
173
330
16F
100
AcDbEntity
  8
LC-001-005-----0
  6
DASHED
 62
     7
370
    25
100
AcDbLine
 10
573.867094
 20
553.543958
 30
0.0
 11
573.226377
 21
554.184675
 31
0.0
  0
LINE
  5
174
330
16F
100
AcDbEntity
  8
LC-001-005-----0
  6
DASHED
 62
     7
370
    25
100
AcDbLine
 10
571.593077
 20
555.817975
 30
0.0
 11
570.492505
 21
556.918547
 31
0.0
  0
LINE
  5
175
330
16F
100
AcDbEntity
  8
LC-001-005-----0
 62
     7
370
    25
100
AcDbLine
 10
573.779763
 20
552.499918
 30
0.0
 11
572.249284
 21
554.030397
 31
0.0
  0
LINE
  5
176
330
16F
100
AcDbEntity
  8
LC-001-005-----0
 62
     7
370
    25
100
AcDbLine
 10
571.281135
 20
554.998546
 30
0.0
 11
569.738258
 21
556.541423
 31
0.0
  0
LINE
  5
177
330
16F
100
AcDbEntity
  8
LC-001-005-----0
 62
     7
370
    25
100
AcDbLine
 10
573.660219
 20
552.053776
 30
0.0
 11
571.760737
 21
553.953258
 31
0.0
  0
LINE
  5
178
330
16F
100
AcDbEntity
  8
LC-001-005-----0
 62
     7
370
    25
100
AcDbLine
 10
571.125164
 20
554.588832
 30
0.0
 11
569.361134
 21
556.352861
 31
0.0
  0
LINE
  5
179
330
16F
100
AcDbEntity
  8
LC-001-005-----0
  6
DASHED
 62
     7
370
    25
100
AcDbLine
 10
573.223277
 20
551.359348
 30
0.0
 11
568.606887
 21
555.975738
 31
0.0
  0
LINE
  5
17A
330
16F
100
AcDbEntity
  8
LC-001-005-----0
  6
DASHED
 62
     7
370
    25
100
AcDbLine
 10
572.818509
 20
551.198431
 30
0.0
 11
572.507094
 21
551.509846
 31
0.0
  0
LINE
  5
17B
330
16F
100
AcDbEntity
  8
LC-001-005-----0
  6
DASHED
 62
     7
370
    25
100
AcDbLine
 10
572.311098
 20
551.705841
 30
0.0
 11
568.229763
 21
555.787176
 31
0.0
  0
LINE
  5
17C
330
16F
100
AcDbEntity
  8
LC-001-005-----0
 62
     7
370
    25
100
AcDbLine
 10
571.699727
 20
551.185841
 30
0.0
 11
567.475516
 21
555.410052
 31
0.0
  0
LINE
  5
17D
330
16F
100
AcDbEntity
  8
LC-001-005-----0
 62
     7
370
    25
100
AcDbLine
 10
571.281791
 20
551.038092
 30
0.0
 11
567.098393
 21
555.221491
 31
0.0
  0
LINE
  5
17E
330
16F
100
AcDbEntity
  8
LC-001-005-----0
  6
DASHED
 62
     7
370
    25
100
AcDbLine
 10
570.002671
 20
551.185841
 30
0.0
 11
566.43067
 21
554.757842
 31
0.0
  0
LINE
  5
17F
330
16F
100
AcDbEntity
  8
LC-001-005-----0
  6
DASHED
 62
     7
370
    25
100
AcDbLine
 10
569.764114
 20
550.858712
 30
0.0
 11
566.208421
 21
554.414406
 31
0.0
  0
LINE
  5
180
330
16F
100
AcDbEntity
  8
LC-001-005-----0
 62
     7
370
    25
100
AcDbLine
 10
568.471386
 20
551.02007
 30
0.0
 11
566.124541
 21
553.366915
 31
0.0
  0
LINE
  5
181
330
16F
100
AcDbEntity
  8
LC-001-005-----0
 62
     7
370
    25
100
AcDbLine
 10
567.73993
 20
551.185841
 30
0.0
 11
566.331596
 21
552.594174
 31
0.0
  0
ENDBLK
  5
171
330
16F
100
AcDbEntity
  8
0
100
AcDbBlockEnd
  0
BLOCK
  5
18C
330
18B
100
AcDbEntity
  8
0
100
AcDbBlockBegin
  2
*X78
 70
     1
 71
     0
 10
0.0
 20
0.0
 30
0.0
  3
*X78
  1

  4
*X7
  0
LINE
  5
18E
330
18B
100
AcDbEntity
  8
LC-001-005-----0
 62
     7
370
    25
100
AcDbLine
 10
611.724505
 20
594.188257
 30
0.0
 11
612.679678
 21
595.14343
 31
0.0
  0
LINE
  5
18F
330
18B
100
AcDbEntity
  8
LC-001-005-----0
 62
     7
370
    25
100
AcDbLine
 10
611.338222
 20
594.367659
 30
0.0
 11
612.500276
 21
595.529713
 31
0.0
  0
LINE
  5
190
330
18B
100
AcDbEntity
  8
LC-001-005-----0
 62
     7
370
    25
100
AcDbLine
 10
611.100593
 20
594.695716
 30
0.0
 11
612.172219
 21
595.767342
 31
0.0
  0
LINE
  5
191
330
18B
100
AcDbEntity
  8
LC-001-005-----0
 62
     7
370
    25
100
AcDbLine
 10
611.076798
 20
595.237606
 30
0.0
 11
611.630329
 21
595.791137
 31
0.0
  0
ENDBLK
  5
18D
330
18B
100
AcDbEntity
  8
0
100
AcDbBlockEnd
  0
BLOCK
  5
196
330
195
100
AcDbEntity
  8
0
100
AcDbBlockBegin
  2
*X89
 70
     1
 71
     0
 10
0.0
 20
0.0
 30
0.0
  3
*X89
  1

  4
*X8
  0
LINE
  5
198
330
195
100
AcDbEntity
  8
LC-001-005-----0
 62
     7
370
    25
100
AcDbLine
 10
612.141278
 20
555.572736
 30
0.0
 11
612.645199
 21
556.076656
 31
0.0
  0
LINE
  5
199
330
195
100
AcDbEntity
  8
LC-001-005-----0
 62
     7
370
    25
100
AcDbLine
 10
611.580192
 20
555.577335
 30
0.0
 11
612.6406
 21
556.637743
 31
0.0
  0
LINE
  5
19A
330
195
100
AcDbEntity
  8
LC-001-005-----0
 62
     7
370
    25
100
AcDbLine
 10
611.245532
 20
555.80836
 30
0.0
 11
612.409575
 21
556.972403
 31
0.0
  0
LINE
  5
19B
330
195
100
AcDbEntity
  8
LC-001-005-----0
 62
     7
370
    25
100
AcDbLine
 10
611.05852
 20
556.187033
 30
0.0
 11
612.030901
 21
557.159415
 31
0.0
  0
ENDBLK
  5
197
330
195
100
AcDbEntity
  8
0
100
AcDbBlockEnd
  0
BLOCK
  5
19F
330
19E
100
AcDbEntity
  8
0
100
AcDbBlockBegin
  2
*X910
 70
     1
 71
     0
 10
0.0
 20
0.0
 30
0.0
  3
*X910
  1

  4
*X9
  0
LINE
  5
1A1
330
19E
100
AcDbEntity
  8
LC-001-005-----0
 62
     7
370
    25
100
AcDbLine
 10
762.823264
 20
594.814693
 30
0.0
 11
763.857808
 21
595.849237
 31
0.0
  0
LINE
  5
1A2
330
19E
100
AcDbEntity
  8
LC-001-005-----0
 62
     7
370
    25
100
AcDbLine
 10
762.150237
 20
594.707351
 30
0.0
 11
763.96515
 21
596.522264
 31
0.0
  0
LINE
  5
1A3
330
19E
100
AcDbEntity
  8
LC-001-005-----0
 62
     7
370
    25
100
AcDbLine
 10
761.670594
 20
594.793393
 30
0.0
 11
763.879108
 21
597.001908
 31
0.0
  0
LINE
  5
1A4
330
19E
100
AcDbEntity
  8
LC-001-005-----0
 62
     7
370
    25
100
AcDbLine
 10
761.285654
 20
594.974139
 30
0.0
 11
763.698362
 21
597.386848
 31
0.0
  0
LINE
  5
1A5
330
19E
100
AcDbEntity
  8
LC-001-005-----0
 62
     7
370
    25
100
AcDbLine
 10
760.97175
 20
595.22592
 30
0.0
 11
763.446581
 21
597.700752
 31
0.0
  0
LINE
  5
1A6
330
19E
100
AcDbEntity
  8
LC-001-005-----0
 62
     7
370
    25
100
AcDbLine
 10
760.723366
 20
595.543222
 30
0.0
 11
763.129279
 21
597.949135
 31
0.0
  0
LINE
  5
1A7
330
19E
100
AcDbEntity
  8
LC-001-005-----0
 62
     7
370
    25
100
AcDbLine
 10
760.546661
 20
595.932203
 30
0.0
 11
762.740299
 21
598.12584
 31
0.0
  0
LINE
  5
1A8
330
19E
100
AcDbEntity
  8
LC-001-005-----0
 62
     7
370
    25
100
AcDbLine
 10
760.466815
 20
596.418042
 30
0.0
 11
762.254459
 21
598.205686
 31
0.0
  0
LINE
  5
1A9
330
19E
100
AcDbEntity
  8
LC-001-005-----0
 62
     7
370
    25
100
AcDbLine
 10
760.593207
 20
597.110119
 30
0.0
 11
761.562382
 21
598.079294
 31
0.0
  0
ENDBLK
  5
1A0
330
19E
100
AcDbEntity
  8
0
100
AcDbBlockEnd
  0
BLOCK
  5
1AD
330
1AC
100
AcDbEntity
  8
0
100
AcDbBlockBegin
  2
*X1011
 70
     1
 71
     0
 10
0.0
 20
0.0
 30
0.0
  3
*X1011
  1

  4
*X10
  0
LINE
  5
1AF
330
1AC
100
AcDbEntity
  8
LC-001-005-----0
 62
     7
370
    25
100
AcDbLine
 10
762.398613
 20
541.215612
 30
0.0
 11
763.956889
 21
542.773888
 31
0.0
  0
LINE
  5
1B0
330
1AC
100
AcDbEntity
  8
LC-001-005-----0
 62
     7
370
    25
100
AcDbLine
 10
761.860076
 20
541.242761
 30
0.0
 11
763.929741
 21
543.312425
 31
0.0
  0
LINE
  5
1B1
330
1AC
100
AcDbEntity
  8
LC-001-005-----0
 62
     7
370
    25
100
AcDbLine
 10
761.43959
 20
541.38796
 30
0.0
 11
763.784542
 21
543.732911
 31
0.0
  0
LINE
  5
1B2
330
1AC
100
AcDbEntity
  8
LC-001-005-----0
 62
     7
370
    25
100
AcDbLine
 10
761.09694
 20
541.610995
 30
0.0
 11
763.561506
 21
544.075561
 31
0.0
  0
LINE
  5
1B3
330
1AC
100
AcDbEntity
  8
LC-001-005-----0
 62
     7
370
    25
100
AcDbLine
 10
760.820679
 20
541.90042
 30
0.0
 11
763.272081
 21
544.351822
 31
0.0
  0
LINE
  5
1B4
330
1AC
100
AcDbEntity
  8
LC-001-005-----0
 62
     7
370
    25
100
AcDbLine
 10
760.611945
 20
542.257371
 30
0.0
 11
762.91513
 21
544.560556
 31
0.0
  0
LINE
  5
1B5
330
1AC
100
AcDbEntity
  8
LC-001-005-----0
 62
     7
370
    25
100
AcDbLine
 10
760.485714
 20
542.696826
 30
0.0
 11
762.475676
 21
544.686787
 31
0.0
  0
LINE
  5
1B6
330
1AC
100
AcDbEntity
  8
LC-001-005-----0
 62
     7
370
    25
100
AcDbLine
 10
760.495138
 20
543.271934
 30
0.0
 11
761.900567
 21
544.677364
 31
0.0
  0
ENDBLK
  5
1AE
330
1AC
100
AcDbEntity
  8
0
100
AcDbBlockEnd
  0
BLOCK
  5
1D9
330
1CD
100
AcDbEntity
  8
0
100
AcDbBlockBegin
  2
*D12
 70
     1
 71
     0
 10
0.0
 20
0.0
 30
0.0
  3
*D12
  1

  0
LINE
  5
1CE
330
1CD
100
AcDbEntity
  8
LC-004-003-----0
 62
     2
370
    -2
100
AcDbLine
 10
856.867094
 20
594.7061
 30
0.0
 11
881.2
 21
594.7061
 31
0.0
  0
LINE
  5
1CF
330
1CD
100
AcDbEntity
  8
LC-004-003-----0
 62
     2
370
    -2
100
AcDbLine
 10
856.867094
 20
544.7061
 30
0.0
 11
881.2
 21
544.7061
 31
0.0
  0
LINE
  5
1D0
330
1CD
100
AcDbEntity
  8
LC-004-003-----0
 62
     2
370
    -2
100
AcDbLine
 10
877.6
 20
622.7061
 30
0.0
 11
877.6
 21
650.7061
 31
0.0
  0
LINE
  5
1D1
330
1CD
100
AcDbEntity
  8
LC-004-003-----0
 62
     2
370
    -2
100
AcDbLine
 10
877.6
 20
516.7061
 30
0.0
 11
877.6
 21
488.7061
 31
0.0
  0
LINE
  5
1D2
330
1CD
100
AcDbEntity
  8
LC-004-003-----0
 62
     2
370
    -2
100
AcDbLine
 10
877.6
 20
594.7061
 30
0.0
 11
877.6
 21
544.7061
 31
0.0
  0
SOLID
  5
1D3
330
1CD
100
AcDbEntity
  8
LC-004-003-----0
 62
     2
100
AcDbTrace
 10
872.933333
 20
622.7061
 30
0.0
 11
882.266667
 21
622.7061
 31
0.0
 12
877.6
 22
594.7061
 32
0.0
 13
877.6
 23
594.7061
 33
0.0
  0
SOLID
  5
1D4
330
1CD
100
AcDbEntity
  8
LC-004-003-----0
 62
     2
100
AcDbTrace
 10
882.266667
 20
516.7061
 30
0.0
 11
872.933333
 21
516.7061
 31
0.0
 12
877.6
 22
544.7061
 32
0.0
 13
877.6
 23
544.7061
 33
0.0
  0
MTEXT
  5
1D5
330
1CD
100
AcDbEntity
  8
LC-004-003-----0
 62
     2
100
AcDbMText
 10
846.8
 20
569.7061
 30
0.0
 40
28.0
 41
0.0
 71
     5
 72
     1
  1
\A1;DN50
  7
LCTX15-400-0-0pDIN-Schrift
 11
6.123031769111886E-17
 21
1.0
 31
0.0
 73
     1
 44
1.0
  0
POINT
  5
1D6
330
1CD
100
AcDbEntity
  8
Defpoints
 62
     0
100
AcDbPoint
 10
856.867094
 20
594.7061
 30
0.0
  0
POINT
  5
1D7
330
1CD
100
AcDbEntity
  8
Defpoints
 62
     0
100
AcDbPoint
 10
856.867094
 20
544.7061
 30
0.0
  0
POINT
  5
1D8
330
1CD
100
AcDbEntity
  8
Defpoints
 62
     0
100
AcDbPoint
 10
877.6
 20
544.7061
 30
0.0
  0
ENDBLK
  5
1DA
330
1CD
100
AcDbEntity
  8
0
100
AcDbBlockEnd
  0
BLOCK
  5
1E9
330
1DF
100
AcDbEntity
  8
0
100
AcDbBlockBegin
  2
*D13
 70
     1
 71
     0
 10
0.0
 20
0.0
 30
0.0
  3
*D13
  1

  0
LINE
  5
1E0
330
1DF
100
AcDbEntity
  8
LC-004-003-----0
 62
     2
370
    -2
100
AcDbLine
 10
563.741443
 20
612.795107
 30
0.0
 11
427.6
 21
612.795107
 31
0.0
  0
LINE
  5
1E1
330
1DF
100
AcDbEntity
  8
LC-004-003-----0
 62
     2
370
    -2
100
AcDbLine
 10
627.367094
 20
498.675676
 30
0.0
 11
427.6
 21
498.675676
 31
0.0
  0
LINE
  5
1E2
330
1DF
100
AcDbEntity
  8
LC-004-003-----0
 62
     2
370
    -2
100
AcDbLine
 10
431.2
 20
584.795107
 30
0.0
 11
431.2
 21
526.675676
 31
0.0
  0
SOLID
  5
1E3
330
1DF
100
AcDbEntity
  8
LC-004-003-----0
 62
     2
100
AcDbTrace
 10
435.866667
 20
584.795107
 30
0.0
 11
426.533333
 21
584.795107
 31
0.0
 12
431.2
 22
612.795107
 32
0.0
 13
431.2
 23
612.795107
 33
0.0
  0
SOLID
  5
1E4
330
1DF
100
AcDbEntity
  8
LC-004-003-----0
 62
     2
100
AcDbTrace
 10
426.533333
 20
526.675676
 30
0.0
 11
435.866667
 21
526.675676
 31
0.0
 12
431.2
 22
498.675676
 32
0.0
 13
431.2
 23
498.675676
 33
0.0
  0
MTEXT
  5
1E5
330
1DF
100
AcDbEntity
  8
LC-004-003-----0
 62
     2
100
AcDbMText
 10
400.4
 20
555.735392
 30
0.0
 40
28.0
 41
0.0
 71
     5
 72
     1
  1
\A1;115
  7
LCTX15-400-0-0pDIN-Schrift
 11
6.123031769111886E-17
 21
1.0
 31
0.0
 73
     1
 44
1.0
  0
POINT
  5
1E6
330
1DF
100
AcDbEntity
  8
Defpoints
 62
     0
100
AcDbPoint
 10
563.741443
 20
612.795107
 30
0.0
  0
POINT
  5
1E7
330
1DF
100
AcDbEntity
  8
Defpoints
 62
     0
100
AcDbPoint
 10
627.367094
 20
498.675676
 30
0.0
  0
POINT
  5
1E8
330
1DF
100
AcDbEntity
  8
Defpoints
 62
     0
100
AcDbPoint
 10
431.2
 20
498.675676
 30
0.0
  0
ENDBLK
  5
1EA
330
1DF
100
AcDbEntity
  8
0
100
AcDbBlockEnd
  0
BLOCK
  5
1EE
330
1ED
100
AcDbEntity
  8
0
100
AcDbBlockBegin
  2
*X1114
 70
     1
 71
     0
 10
0.0
 20
0.0
 30
0.0
  3
*X1114
  1

  4
*X11
  0
LINE
  5
1F0
330
1ED
100
AcDbEntity
  8
LC-001-005-----0
 62
     7
370
    25
100
AcDbLine
 10
722.121419
 20
498.675676
 30
0.0
 11
724.367094
 21
500.921351
 31
0.0
  0
LINE
  5
1F1
330
1ED
100
AcDbEntity
  8
LC-001-005-----0
 62
     7
370
    25
100
AcDbLine
 10
766.280179
 20
542.834436
 30
0.0
 11
771.151843
 21
547.7061
 31
0.0
  0
LINE
  5
1F2
330
1ED
100
AcDbEntity
  8
LC-001-005-----0
 62
     7
370
    25
100
AcDbLine
 10
721.367094
 20
500.749778
 30
0.0
 11
724.367094
 21
503.749778
 31
0.0
  0
LINE
  5
1F3
330
1ED
100
AcDbEntity
  8
LC-001-005-----0
 62
     7
370
    25
100
AcDbLine
 10
764.466401
 20
543.849086
 30
0.0
 11
768.323416
 21
547.7061
 31
0.0
  0
LINE
  5
1F4
330
1ED
100
AcDbEntity
  8
LC-001-005-----0
 62
     7
370
    25
100
AcDbLine
 10
721.367094
 20
503.578205
 30
0.0
 11
724.367094
 21
506.578205
 31
0.0
  0
LINE
  5
1F5
330
1ED
100
AcDbEntity
  8
LC-001-005-----0
 62
     7
370
    25
100
AcDbLine
 10
758.231165
 20
540.442276
 30
0.0
 11
759.966401
 21
542.177513
 31
0.0
  0
LINE
  5
1F6
330
1ED
100
AcDbEntity
  8
LC-001-005-----0
 62
     7
370
    25
100
AcDbLine
 10
762.494989
 20
544.7061
 30
0.0
 11
765.494989
 21
547.7061
 31
0.0
  0
LINE
  5
1F7
330
1ED
100
AcDbEntity
  8
LC-001-005-----0
 62
     7
370
    25
100
AcDbLine
 10
721.367094
 20
506.406632
 30
0.0
 11
724.367094
 21
509.406632
 31
0.0
  0
LINE
  5
1F8
330
1ED
100
AcDbEntity
  8
LC-001-005-----0
 62
     7
370
    25
100
AcDbLine
 10
755.105081
 20
540.14462
 30
0.0
 11
762.666562
 21
547.7061
 31
0.0
  0
LINE
  5
1F9
330
1ED
100
AcDbEntity
  8
LC-001-005-----0
 62
     7
370
    25
100
AcDbLine
 10
721.367094
 20
509.235059
 30
0.0
 11
724.367094
 21
512.235059
 31
0.0
  0
LINE
  5
1FA
330
1ED
100
AcDbEntity
  8
LC-001-005-----0
 62
     7
370
    25
100
AcDbLine
 10
752.292703
 20
540.160668
 30
0.0
 11
759.838134
 21
547.7061
 31
0.0
  0
LINE
  5
1FB
330
1ED
100
AcDbEntity
  8
LC-001-005-----0
 62
     7
370
    25
100
AcDbLine
 10
721.367094
 20
512.063486
 30
0.0
 11
724.367094
 21
515.063486
 31
0.0
  0
LINE
  5
1FC
330
1ED
100
AcDbEntity
  8
LC-001-005-----0
 62
     7
370
    25
100
AcDbLine
 10
749.715162
 20
540.411554
 30
0.0
 11
757.009707
 21
547.7061
 31
0.0
  0
LINE
  5
1FD
330
1ED
100
AcDbEntity
  8
LC-001-005-----0
 62
     7
370
    25
100
AcDbLine
 10
721.367094
 20
514.891914
 30
0.0
 11
724.367094
 21
517.891914
 31
0.0
  0
LINE
  5
1FE
330
1ED
100
AcDbEntity
  8
LC-001-005-----0
 62
     7
370
    25
100
AcDbLine
 10
747.326089
 20
540.850908
 30
0.0
 11
754.18128
 21
547.7061
 31
0.0
  0
LINE
  5
1FF
330
1ED
100
AcDbEntity
  8
LC-001-005-----0
 62
     7
370
    25
100
AcDbLine
 10
721.367094
 20
517.720341
 30
0.0
 11
724.367094
 21
520.720341
 31
0.0
  0
LINE
  5
200
330
1ED
100
AcDbEntity
  8
LC-001-005-----0
 62
     7
370
    25
100
AcDbLine
 10
745.095689
 20
541.448936
 30
0.0
 11
751.352853
 21
547.7061
 31
0.0
  0
LINE
  5
201
330
1ED
100
AcDbEntity
  8
LC-001-005-----0
 62
     7
370
    25
100
AcDbLine
 10
721.367094
 20
520.548768
 30
0.0
 11
724.367094
 21
523.548768
 31
0.0
  0
LINE
  5
202
330
1ED
100
AcDbEntity
  8
LC-001-005-----0
 62
     7
370
    25
100
AcDbLine
 10
743.003709
 20
542.185383
 30
0.0
 11
748.524426
 21
547.7061
 31
0.0
  0
LINE
  5
203
330
1ED
100
AcDbEntity
  8
LC-001-005-----0
 62
     7
370
    25
100
AcDbLine
 10
721.367094
 20
523.377195
 30
0.0
 11
724.367094
 21
526.377195
 31
0.0
  0
LINE
  5
204
330
1ED
100
AcDbEntity
  8
LC-001-005-----0
 62
     7
370
    25
100
AcDbLine
 10
741.035889
 20
543.045991
 30
0.0
 11
745.695999
 21
547.7061
 31
0.0
  0
LINE
  5
205
330
1ED
100
AcDbEntity
  8
LC-001-005-----0
 62
     7
370
    25
100
AcDbLine
 10
721.367094
 20
526.205622
 30
0.0
 11
724.367094
 21
529.205622
 31
0.0
  0
LINE
  5
206
330
1ED
100
AcDbEntity
  8
LC-001-005-----0
 62
     7
370
    25
100
AcDbLine
 10
737.367572
 20
542.2061
 30
0.0
 11
738.366401
 21
543.20493
 31
0.0
  0
LINE
  5
207
330
1ED
100
AcDbEntity
  8
LC-001-005-----0
 62
     7
370
    25
100
AcDbLine
 10
739.182012
 20
544.02054
 30
0.0
 11
742.867572
 21
547.7061
 31
0.0
  0
LINE
  5
208
330
1ED
100
AcDbEntity
  8
LC-001-005-----0
 62
     7
370
    25
100
AcDbLine
 10
721.367094
 20
529.034049
 30
0.0
 11
724.367094
 21
532.034049
 31
0.0
  0
LINE
  5
209
330
1ED
100
AcDbEntity
  8
LC-001-005-----0
 62
     7
370
    25
100
AcDbLine
 10
735.866401
 20
543.533357
 30
0.0
 11
740.039145
 21
547.7061
 31
0.0
  0
LINE
  5
20A
330
1ED
100
AcDbEntity
  8
LC-001-005-----0
 62
     7
370
    25
100
AcDbLine
 10
721.367094
 20
531.862476
 30
0.0
 11
724.367094
 21
534.862476
 31
0.0
  0
LINE
  5
20B
330
1ED
100
AcDbEntity
  8
LC-001-005-----0
 62
     7
370
    25
100
AcDbLine
 10
734.210717
 20
544.7061
 30
0.0
 11
737.210717
 21
547.7061
 31
0.0
  0
LINE
  5
20C
330
1ED
100
AcDbEntity
  8
LC-001-005-----0
 62
     7
370
    25
100
AcDbLine
 10
686.345523
 20
499.669332
 30
0.0
 11
693.36712
 21
506.69093
 31
0.0
  0
LINE
  5
20D
330
1ED
100
AcDbEntity
  8
LC-001-005-----0
 62
     7
370
    25
100
AcDbLine
 10
721.367094
 20
534.690903
 30
0.0
 11
724.367094
 21
537.690903
 31
0.0
  0
LINE
  5
20E
330
1ED
100
AcDbEntity
  8
LC-001-005-----0
 62
     7
370
    25
100
AcDbLine
 10
731.38229
 20
544.7061
 30
0.0
 11
734.38229
 21
547.7061
 31
0.0
  0
LINE
  5
20F
330
1ED
100
AcDbEntity
  8
LC-001-005-----0
 62
     7
370
    25
100
AcDbLine
 10
682.580816
 20
498.733053
 30
0.0
 11
694.303399
 21
510.455636
 31
0.0
  0
LINE
  5
210
330
1ED
100
AcDbEntity
  8
LC-001-005-----0
 62
     7
370
    25
100
AcDbLine
 10
721.367094
 20
537.519331
 30
0.0
 11
724.367094
 21
540.519331
 31
0.0
  0
LINE
  5
211
330
1ED
100
AcDbEntity
  8
LC-001-005-----0
 62
     7
370
    25
100
AcDbLine
 10
728.5602
 20
544.712437
 30
0.0
 11
731.553863
 21
547.7061
 31
0.0
  0
LINE
  5
212
330
1ED
100
AcDbEntity
  8
LC-001-005-----0
 62
     7
370
    25
100
AcDbLine
 10
679.695012
 20
498.675676
 30
0.0
 11
682.798973
 21
501.779637
 31
0.0
  0
LINE
  5
213
330
1ED
100
AcDbEntity
  8
LC-001-005-----0
 62
     7
370
    25
100
AcDbLine
 10
691.256815
 20
510.237479
 30
0.0
 11
694.360776
 21
513.34144
 31
0.0
  0
LINE
  5
214
330
1ED
100
AcDbEntity
  8
LC-001-005-----0
 62
     7
370
    25
100
AcDbLine
 10
721.367094
 20
540.347758
 30
0.0
 11
724.367094
 21
543.347758
 31
0.0
  0
LINE
  5
215
330
1ED
100
AcDbEntity
  8
LC-001-005-----0
 62
     7
370
    25
100
AcDbLine
 10
726.064889
 20
545.045553
 30
0.0
 11
728.725436
 21
547.7061
 31
0.0
  0
LINE
  5
216
330
1ED
100
AcDbEntity
  8
LC-001-005-----0
 62
     7
370
    25
100
AcDbLine
 10
676.866585
 20
498.675676
 30
0.0
 11
679.866585
 21
501.675676
 31
0.0
  0
LINE
  5
217
330
1ED
100
AcDbEntity
  8
LC-001-005-----0
 62
     7
370
    25
100
AcDbLine
 10
691.360776
 20
513.169867
 30
0.0
 11
694.360776
 21
516.169867
 31
0.0
  0
LINE
  5
218
330
1ED
100
AcDbEntity
  8
LC-001-005-----0
 62
     7
370
    25
100
AcDbLine
 10
721.367094
 20
543.176185
 30
0.0
 11
726.161742
 21
547.970833
 31
0.0
  0
LINE
  5
219
330
1ED
100
AcDbEntity
  8
LC-001-005-----0
 62
     7
370
    25
100
AcDbLine
 10
674.038158
 20
498.675676
 30
0.0
 11
677.038158
 21
501.675676
 31
0.0
  0
LINE
  5
21A
330
1ED
100
AcDbEntity
  8
LC-001-005-----0
 62
     7
370
    25
100
AcDbLine
 10
691.360776
 20
515.998294
 30
0.0
 11
694.360776
 21
518.998294
 31
0.0
  0
LINE
  5
21B
330
1ED
100
AcDbEntity
  8
LC-001-005-----0
 62
     7
370
    25
100
AcDbLine
 10
721.367094
 20
546.004612
 30
0.0
 11
724.075113
 21
548.712632
 31
0.0
  0
LINE
  5
21C
330
1ED
100
AcDbEntity
  8
LC-001-005-----0
 62
     7
370
    25
100
AcDbLine
 10
671.209731
 20
498.675676
 30
0.0
 11
674.209731
 21
501.675676
 31
0.0
  0
LINE
  5
21D
330
1ED
100
AcDbEntity
  8
LC-001-005-----0
 62
     7
370
    25
100
AcDbLine
 10
691.360776
 20
518.826721
 30
0.0
 11
694.360776
 21
521.826721
 31
0.0
  0
LINE
  5
21E
330
1ED
100
AcDbEntity
  8
LC-001-005-----0
 62
     7
370
    25
100
AcDbLine
 10
720.51898
 20
547.984926
 30
0.0
 11
722.329787
 21
549.795732
 31
0.0
  0
LINE
  5
21F
330
1ED
100
AcDbEntity
  8
LC-001-005-----0
 62
     7
370
    25
100
AcDbLine
 10
668.381304
 20
498.675676
 30
0.0
 11
671.381304
 21
501.675676
 31
0.0
  0
LINE
  5
220
330
1ED
100
AcDbEntity
  8
LC-001-005-----0
 62
     7
370
    25
100
AcDbLine
 10
691.360776
 20
521.655148
 30
0.0
 11
694.360776
 21
524.655148
 31
0.0
  0
LINE
  5
221
330
1ED
100
AcDbEntity
  8
LC-001-005-----0
 62
     7
370
    25
100
AcDbLine
 10
718.963996
 20
549.258368
 30
0.0
 11
720.795122
 21
551.089494
 31
0.0
  0
LINE
  5
222
330
1ED
100
AcDbEntity
  8
LC-001-005-----0
 62
     7
370
    25
100
AcDbLine
 10
665.552877
 20
498.675676
 30
0.0
 11
668.552877
 21
501.675676
 31
0.0
  0
LINE
  5
223
330
1ED
100
AcDbEntity
  8
LC-001-005-----0
 62
     7
370
    25
100
AcDbLine
 10
691.360776
 20
524.483575
 30
0.0
 11
694.360776
 21
527.483575
 31
0.0
  0
LINE
  5
224
330
1ED
100
AcDbEntity
  8
LC-001-005-----0
 62
     7
370
    25
100
AcDbLine
 10
717.381848
 20
550.504648
 30
0.0
 11
719.228666
 21
552.351466
 31
0.0
  0
LINE
  5
225
330
1ED
100
AcDbEntity
  8
LC-001-005-----0
 62
     7
370
    25
100
AcDbLine
 10
662.72445
 20
498.675676
 30
0.0
 11
665.72445
 21
501.675676
 31
0.0
  0
LINE
  5
226
330
1ED
100
AcDbEntity
  8
LC-001-005-----0
 62
     7
370
    25
100
AcDbLine
 10
691.360776
 20
527.312002
 30
0.0
 11
694.360776
 21
530.312002
 31
0.0
  0
LINE
  5
227
330
1ED
100
AcDbEntity
  8
LC-001-005-----0
 62
     7
370
    25
100
AcDbLine
 10
715.799701
 20
551.750928
 30
0.0
 11
717.662211
 21
553.613438
 31
0.0
  0
LINE
  5
228
330
1ED
100
AcDbEntity
  8
LC-001-005-----0
 62
     7
370
    25
100
AcDbLine
 10
659.896023
 20
498.675676
 30
0.0
 11
662.896023
 21
501.675676
 31
0.0
  0
LINE
  5
229
330
1ED
100
AcDbEntity
  8
LC-001-005-----0
 62
     7
370
    25
100
AcDbLine
 10
691.360776
 20
530.14043
 30
0.0
 11
694.360776
 21
533.14043
 31
0.0
  0
LINE
  5
22A
330
1ED
100
AcDbEntity
  8
LC-001-005-----0
 62
     7
370
    25
100
AcDbLine
 10
714.217554
 20
552.997207
 30
0.0
 11
716.095755
 21
554.875409
 31
0.0
  0
LINE
  5
22B
330
1ED
100
AcDbEntity
  8
LC-001-005-----0
 62
     7
370
    25
100
AcDbLine
 10
657.067595
 20
498.675676
 30
0.0
 11
660.067595
 21
501.675676
 31
0.0
  0
LINE
  5
22C
330
1ED
100
AcDbEntity
  8
LC-001-005-----0
 62
     7
370
    25
100
AcDbLine
 10
691.360776
 20
532.968857
 30
0.0
 11
694.360776
 21
535.968857
 31
0.0
  0
LINE
  5
22D
330
1ED
100
AcDbEntity
  8
LC-001-005-----0
 62
     7
370
    25
100
AcDbLine
 10
712.635406
 20
554.243487
 30
0.0
 11
714.5293
 21
556.137381
 31
0.0
  0
LINE
  5
22E
330
1ED
100
AcDbEntity
  8
LC-001-005-----0
 62
     7
370
    25
100
AcDbLine
 10
654.239168
 20
498.675676
 30
0.0
 11
657.239168
 21
501.675676
 31
0.0
  0
LINE
  5
22F
330
1ED
100
AcDbEntity
  8
LC-001-005-----0
 62
     7
370
    25
100
AcDbLine
 10
691.360776
 20
535.797284
 30
0.0
 11
694.360776
 21
538.797284
 31
0.0
  0
LINE
  5
230
330
1ED
100
AcDbEntity
  8
LC-001-005-----0
 62
     7
370
    25
100
AcDbLine
 10
711.053259
 20
555.489767
 30
0.0
 11
712.962844
 21
557.399352
 31
0.0
  0
LINE
  5
231
330
1ED
100
AcDbEntity
  8
LC-001-005-----0
 62
     7
370
    25
100
AcDbLine
 10
651.410741
 20
498.675676
 30
0.0
 11
654.410741
 21
501.675676
 31
0.0
  0
LINE
  5
232
330
1ED
100
AcDbEntity
  8
LC-001-005-----0
 62
     7
370
    25
100
AcDbLine
 10
691.360776
 20
538.625711
 30
0.0
 11
694.360776
 21
541.625711
 31
0.0
  0
LINE
  5
233
330
1ED
100
AcDbEntity
  8
LC-001-005-----0
 62
     7
370
    25
100
AcDbLine
 10
709.471111
 20
556.736047
 30
0.0
 11
711.396389
 21
558.661324
 31
0.0
  0
LINE
  5
234
330
1ED
100
AcDbEntity
  8
LC-001-005-----0
 62
     7
370
    25
100
AcDbLine
 10
648.582314
 20
498.675676
 30
0.0
 11
651.582314
 21
501.675676
 31
0.0
  0
LINE
  5
235
330
1ED
100
AcDbEntity
  8
LC-001-005-----0
 62
     7
370
    25
100
AcDbLine
 10
691.360776
 20
541.454138
 30
0.0
 11
694.360776
 21
544.454138
 31
0.0
  0
LINE
  5
236
330
1ED
100
AcDbEntity
  8
LC-001-005-----0
 62
     7
370
    25
100
AcDbLine
 10
707.888964
 20
557.982326
 30
0.0
 11
709.829933
 21
559.923295
 31
0.0
  0
LINE
  5
237
330
1ED
100
AcDbEntity
  8
LC-001-005-----0
 62
     7
370
    25
100
AcDbLine
 10
645.753887
 20
498.675676
 30
0.0
 11
648.753887
 21
501.675676
 31
0.0
  0
LINE
  5
238
330
1ED
100
AcDbEntity
  8
LC-001-005-----0
 62
     7
370
    25
100
AcDbLine
 10
691.360776
 20
544.282565
 30
0.0
 11
694.360776
 21
547.282565
 31
0.0
  0
LINE
  5
239
330
1ED
100
AcDbEntity
  8
LC-001-005-----0
 62
     7
370
    25
100
AcDbLine
 10
706.306817
 20
559.228606
 30
0.0
 11
708.263477
 21
561.185267
 31
0.0
  0
LINE
  5
23A
330
1ED
100
AcDbEntity
  8
LC-001-005-----0
 62
     7
370
    25
100
AcDbLine
 10
642.92546
 20
498.675676
 30
0.0
 11
645.92546
 21
501.675676
 31
0.0
  0
LINE
  5
23B
330
1ED
100
AcDbEntity
  8
LC-001-005-----0
 62
     7
370
    25
100
AcDbLine
 10
691.360776
 20
547.110992
 30
0.0
 11
694.360776
 21
550.110992
 31
0.0
  0
LINE
  5
23C
330
1ED
100
AcDbEntity
  8
LC-001-005-----0
 62
     7
370
    25
100
AcDbLine
 10
704.724669
 20
560.474886
 30
0.0
 11
706.697022
 21
562.447238
 31
0.0
  0
LINE
  5
23D
330
1ED
100
AcDbEntity
  8
LC-001-005-----0
 62
     7
370
    25
100
AcDbLine
 10
640.097033
 20
498.675676
 30
0.0
 11
643.097033
 21
501.675676
 31
0.0
  0
LINE
  5
23E
330
1ED
100
AcDbEntity
  8
LC-001-005-----0
 62
     7
370
    25
100
AcDbLine
 10
691.360776
 20
549.939419
 30
0.0
 11
694.360776
 21
552.939419
 31
0.0
  0
LINE
  5
23F
330
1ED
100
AcDbEntity
  8
LC-001-005-----0
 62
     7
370
    25
100
AcDbLine
 10
703.142522
 20
561.721165
 30
0.0
 11
705.130566
 21
563.70921
 31
0.0
  0
LINE
  5
240
330
1ED
100
AcDbEntity
  8
LC-001-005-----0
 62
     7
370
    25
100
AcDbLine
 10
637.268606
 20
498.675676
 30
0.0
 11
640.268606
 21
501.675676
 31
0.0
  0
LINE
  5
241
330
1ED
100
AcDbEntity
  8
LC-001-005-----0
 62
     7
370
    25
100
AcDbLine
 10
691.360776
 20
552.767847
 30
0.0
 11
694.360776
 21
555.767847
 31
0.0
  0
LINE
  5
242
330
1ED
100
AcDbEntity
  8
LC-001-005-----0
 62
     7
370
    25
100
AcDbLine
 10
701.560374
 20
562.967445
 30
0.0
 11
703.564111
 21
564.971182
 31
0.0
  0
LINE
  5
243
330
1ED
100
AcDbEntity
  8
LC-001-005-----0
 62
     7
370
    25
100
AcDbLine
 10
634.440178
 20
498.675676
 30
0.0
 11
637.440178
 21
501.675676
 31
0.0
  0
LINE
  5
244
330
1ED
100
AcDbEntity
  8
LC-001-005-----0
 62
     7
370
    25
100
AcDbLine
 10
691.360776
 20
555.596274
 30
0.0
 11
694.360776
 21
558.596274
 31
0.0
  0
LINE
  5
245
330
1ED
100
AcDbEntity
  8
LC-001-005-----0
 62
     7
370
    25
100
AcDbLine
 10
699.978227
 20
564.213725
 30
0.0
 11
701.997655
 21
566.233153
 31
0.0
  0
LINE
  5
246
330
1ED
100
AcDbEntity
  8
LC-001-005-----0
 62
     7
370
    25
100
AcDbLine
 10
631.611751
 20
498.675676
 30
0.0
 11
634.611751
 21
501.675676
 31
0.0
  0
LINE
  5
247
330
1ED
100
AcDbEntity
  8
LC-001-005-----0
 62
     7
370
    25
100
AcDbLine
 10
691.360776
 20
558.424701
 30
0.0
 11
694.360776
 21
561.424701
 31
0.0
  0
LINE
  5
248
330
1ED
100
AcDbEntity
  8
LC-001-005-----0
 62
     7
370
    25
100
AcDbLine
 10
698.396079
 20
565.460005
 30
0.0
 11
700.4312
 21
567.495125
 31
0.0
  0
LINE
  5
249
330
1ED
100
AcDbEntity
  8
LC-001-005-----0
 62
     7
370
    25
100
AcDbLine
 10
628.783324
 20
498.675676
 30
0.0
 11
631.783324
 21
501.675676
 31
0.0
  0
LINE
  5
24A
330
1ED
100
AcDbEntity
  8
LC-001-005-----0
 62
     7
370
    25
100
AcDbLine
 10
691.360776
 20
561.253128
 30
0.0
 11
694.360776
 21
564.253128
 31
0.0
  0
LINE
  5
24B
330
1ED
100
AcDbEntity
  8
LC-001-005-----0
 62
     7
370
    25
100
AcDbLine
 10
696.813932
 20
566.706284
 30
0.0
 11
698.864744
 21
568.757096
 31
0.0
  0
LINE
  5
24C
330
1ED
100
AcDbEntity
  8
LC-001-005-----0
 62
     7
370
    25
100
AcDbLine
 10
626.02442
 20
498.7452
 30
0.0
 11
628.954897
 21
501.675676
 31
0.0
  0
LINE
  5
24D
330
1ED
100
AcDbEntity
  8
LC-001-005-----0
 62
     7
370
    25
100
AcDbLine
 10
691.360776
 20
564.081555
 30
0.0
 11
694.360776
 21
567.081555
 31
0.0
  0
LINE
  5
24E
330
1ED
100
AcDbEntity
  8
LC-001-005-----0
 62
     7
370
    25
100
AcDbLine
 10
695.231785
 20
567.952564
 30
0.0
 11
697.298288
 21
570.019068
 31
0.0
  0
LINE
  5
24F
330
1ED
100
AcDbEntity
  8
LC-001-005-----0
 62
     7
370
    25
100
AcDbLine
 10
623.664806
 20
499.214013
 30
0.0
 11
626.195356
 21
501.744562
 31
0.0
  0
LINE
  5
250
330
1ED
100
AcDbEntity
  8
LC-001-005-----0
 62
     7
370
    25
100
AcDbLine
 10
691.360776
 20
566.909982
 30
0.0
 11
695.731833
 21
571.281039
 31
0.0
  0
LINE
  5
251
330
1ED
100
AcDbEntity
  8
LC-001-005-----0
 62
     7
370
    25
100
AcDbLine
 10
621.631651
 20
500.009285
 30
0.0
 11
623.913381
 21
502.291015
 31
0.0
  0
LINE
  5
252
330
1ED
100
AcDbEntity
  8
LC-001-005-----0
 62
     7
370
    25
100
AcDbLine
 10
691.360776
 20
569.738409
 30
0.0
 11
694.104702
 21
572.482336
 31
0.0
  0
LINE
  5
253
330
1ED
100
AcDbEntity
  8
LC-001-005-----0
 62
     7
370
    25
100
AcDbLine
 10
619.857803
 20
501.063864
 30
0.0
 11
622.019544
 21
503.225605
 31
0.0
  0
LINE
  5
254
330
1ED
100
AcDbEntity
  8
LC-001-005-----0
 62
     7
370
    25
100
AcDbLine
 10
618.312775
 20
502.347262
 30
0.0
 11
620.434401
 21
504.468889
 31
0.0
  0
LINE
  5
255
330
1ED
100
AcDbEntity
  8
LC-001-005-----0
 62
     7
370
    25
100
AcDbLine
 10
616.986695
 20
503.84961
 30
0.0
 11
619.135156
 21
505.998071
 31
0.0
  0
LINE
  5
256
330
1ED
100
AcDbEntity
  8
LC-001-005-----0
 62
     7
370
    25
100
AcDbLine
 10
615.886148
 20
505.57749
 30
0.0
 11
618.13687
 21
507.828213
 31
0.0
  0
LINE
  5
257
330
1ED
100
AcDbEntity
  8
LC-001-005-----0
 62
     7
370
    25
100
AcDbLine
 10
615.036897
 20
507.556666
 30
0.0
 11
617.504409
 21
510.024178
 31
0.0
  0
LINE
  5
258
330
1ED
100
AcDbEntity
  8
LC-001-005-----0
 62
     7
370
    25
100
AcDbLine
 10
614.496659
 20
509.844855
 30
0.0
 11
617.367094
 21
512.71529
 31
0.0
  0
LINE
  5
259
330
1ED
100
AcDbEntity
  8
LC-001-005-----0
 62
     7
370
    25
100
AcDbLine
 10
614.367094
 20
512.543717
 30
0.0
 11
617.367094
 21
515.543717
 31
0.0
  0
LINE
  5
25A
330
1ED
100
AcDbEntity
  8
LC-001-005-----0
 62
     7
370
    25
100
AcDbLine
 10
614.367094
 20
515.372144
 30
0.0
 11
617.367094
 21
518.372144
 31
0.0
  0
LINE
  5
25B
330
1ED
100
AcDbEntity
  8
LC-001-005-----0
 62
     7
370
    25
100
AcDbLine
 10
614.367094
 20
518.200571
 30
0.0
 11
617.367094
 21
521.200571
 31
0.0
  0
LINE
  5
25C
330
1ED
100
AcDbEntity
  8
LC-001-005-----0
 62
     7
370
    25
100
AcDbLine
 10
614.367094
 20
521.028999
 30
0.0
 11
617.367094
 21
524.028999
 31
0.0
  0
LINE
  5
25D
330
1ED
100
AcDbEntity
  8
LC-001-005-----0
 62
     7
370
    25
100
AcDbLine
 10
614.367094
 20
523.857426
 30
0.0
 11
617.367094
 21
526.857426
 31
0.0
  0
LINE
  5
25E
330
1ED
100
AcDbEntity
  8
LC-001-005-----0
 62
     7
370
    25
100
AcDbLine
 10
614.367094
 20
526.685853
 30
0.0
 11
617.367094
 21
529.685853
 31
0.0
  0
LINE
  5
25F
330
1ED
100
AcDbEntity
  8
LC-001-005-----0
 62
     7
370
    25
100
AcDbLine
 10
614.367094
 20
529.51428
 30
0.0
 11
617.367094
 21
532.51428
 31
0.0
  0
LINE
  5
260
330
1ED
100
AcDbEntity
  8
LC-001-005-----0
 62
     7
370
    25
100
AcDbLine
 10
614.367094
 20
532.342707
 30
0.0
 11
617.367094
 21
535.342707
 31
0.0
  0
LINE
  5
261
330
1ED
100
AcDbEntity
  8
LC-001-005-----0
 62
     7
370
    25
100
AcDbLine
 10
614.367094
 20
535.171134
 30
0.0
 11
617.367094
 21
538.171134
 31
0.0
  0
LINE
  5
262
330
1ED
100
AcDbEntity
  8
LC-001-005-----0
 62
     7
370
    25
100
AcDbLine
 10
614.367094
 20
537.999561
 30
0.0
 11
617.367094
 21
540.999561
 31
0.0
  0
LINE
  5
263
330
1ED
100
AcDbEntity
  8
LC-001-005-----0
 62
     7
370
    25
100
AcDbLine
 10
614.367094
 20
540.827988
 30
0.0
 11
617.367094
 21
543.827988
 31
0.0
  0
LINE
  5
264
330
1ED
100
AcDbEntity
  8
LC-001-005-----0
 62
     7
370
    25
100
AcDbLine
 10
614.367094
 20
543.656416
 30
0.0
 11
617.367094
 21
546.656416
 31
0.0
  0
LINE
  5
265
330
1ED
100
AcDbEntity
  8
LC-001-005-----0
 62
     7
370
    25
100
AcDbLine
 10
614.367094
 20
546.484843
 30
0.0
 11
617.367094
 21
549.484843
 31
0.0
  0
LINE
  5
266
330
1ED
100
AcDbEntity
  8
LC-001-005-----0
 62
     7
370
    25
100
AcDbLine
 10
614.367094
 20
549.31327
 30
0.0
 11
617.367094
 21
552.31327
 31
0.0
  0
LINE
  5
267
330
1ED
100
AcDbEntity
  8
LC-001-005-----0
 62
     7
370
    25
100
AcDbLine
 10
614.367094
 20
552.141697
 30
0.0
 11
617.367094
 21
555.141697
 31
0.0
  0
LINE
  5
268
330
1ED
100
AcDbEntity
  8
LC-001-005-----0
 62
     7
370
    25
100
AcDbLine
 10
613.072811
 20
553.675841
 30
0.0
 11
614.922811
 21
555.525841
 31
0.0
  0
LINE
  5
269
330
1ED
100
AcDbEntity
  8
LC-001-005-----0
 62
     7
370
    25
100
AcDbLine
 10
610.244384
 20
553.675841
 30
0.0
 11
612.094384
 21
555.525841
 31
0.0
  0
LINE
  5
26A
330
1ED
100
AcDbEntity
  8
LC-001-005-----0
 62
     7
370
    25
100
AcDbLine
 10
607.415956
 20
553.675841
 30
0.0
 11
609.265956
 21
555.525841
 31
0.0
  0
LINE
  5
26B
330
1ED
100
AcDbEntity
  8
LC-001-005-----0
 62
     7
370
    25
100
AcDbLine
 10
604.587529
 20
553.675841
 30
0.0
 11
606.437529
 21
555.525841
 31
0.0
  0
LINE
  5
26C
330
1ED
100
AcDbEntity
  8
LC-001-005-----0
 62
     7
370
    25
100
AcDbLine
 10
601.759102
 20
553.675841
 30
0.0
 11
603.609102
 21
555.525841
 31
0.0
  0
LINE
  5
26D
330
1ED
100
AcDbEntity
  8
LC-001-005-----0
 62
     7
370
    25
100
AcDbLine
 10
598.930675
 20
553.675841
 30
0.0
 11
600.780675
 21
555.525841
 31
0.0
  0
LINE
  5
26E
330
1ED
100
AcDbEntity
  8
LC-001-005-----0
 62
     7
370
    25
100
AcDbLine
 10
596.102248
 20
553.675841
 30
0.0
 11
597.952248
 21
555.525841
 31
0.0
  0
LINE
  5
26F
330
1ED
100
AcDbEntity
  8
LC-001-005-----0
 62
     7
370
    25
100
AcDbLine
 10
593.273821
 20
553.675841
 30
0.0
 11
595.123821
 21
555.525841
 31
0.0
  0
LINE
  5
270
330
1ED
100
AcDbEntity
  8
LC-001-005-----0
 62
     7
370
    25
100
AcDbLine
 10
590.445394
 20
553.675841
 30
0.0
 11
592.295394
 21
555.525841
 31
0.0
  0
LINE
  5
271
330
1ED
100
AcDbEntity
  8
LC-001-005-----0
 62
     7
370
    25
100
AcDbLine
 10
587.616967
 20
553.675841
 30
0.0
 11
589.466967
 21
555.525841
 31
0.0
  0
LINE
  5
272
330
1ED
100
AcDbEntity
  8
LC-001-005-----0
 62
     7
370
    25
100
AcDbLine
 10
584.788539
 20
553.675841
 30
0.0
 11
586.638539
 21
555.525841
 31
0.0
  0
LINE
  5
273
330
1ED
100
AcDbEntity
  8
LC-001-005-----0
 62
     7
370
    25
100
AcDbLine
 10
581.960112
 20
553.675841
 30
0.0
 11
583.810112
 21
555.525841
 31
0.0
  0
LINE
  5
274
330
1ED
100
AcDbEntity
  8
LC-001-005-----0
 62
     7
370
    25
100
AcDbLine
 10
579.131685
 20
553.675841
 30
0.0
 11
580.981685
 21
555.525841
 31
0.0
  0
LINE
  5
275
330
1ED
100
AcDbEntity
  8
LC-001-005-----0
 62
     7
370
    25
100
AcDbLine
 10
571.303258
 20
548.675841
 30
0.0
 11
578.153258
 21
555.525841
 31
0.0
  0
LINE
  5
276
330
1ED
100
AcDbEntity
  8
LC-001-005-----0
 62
     7
370
    25
100
AcDbLine
 10
568.474831
 20
548.675841
 30
0.0
 11
570.624831
 21
550.825841
 31
0.0
  0
LINE
  5
277
330
1ED
100
AcDbEntity
  8
LC-001-005-----0
 62
     7
370
    25
100
AcDbLine
 10
573.867094
 20
554.068104
 30
0.0
 11
575.324831
 21
555.525841
 31
0.0
  0
LINE
  5
278
330
1ED
100
AcDbEntity
  8
LC-001-005-----0
 62
     7
370
    25
100
AcDbLine
 10
565.717563
 20
548.747
 30
0.0
 11
567.796404
 21
550.825841
 31
0.0
  0
LINE
  5
279
330
1ED
100
AcDbEntity
  8
LC-001-005-----0
 62
     7
370
    25
100
AcDbLine
 10
563.989058
 20
549.846922
 30
0.0
 11
565.842535
 21
551.7004
 31
0.0
  0
LINE
  5
27A
330
1ED
100
AcDbEntity
  8
LC-001-005-----0
 62
     7
370
    25
100
AcDbLine
 10
562.98955
 20
551.675841
 30
0.0
 11
564.428322
 21
553.114613
 31
0.0
  0
LINE
  5
27B
330
1ED
100
AcDbEntity
  8
LC-001-005-----0
 62
     7
370
    25
100
AcDbLine
 10
560.161122
 20
551.675841
 30
0.0
 11
561.661122
 21
553.175841
 31
0.0
  0
ENDBLK
  5
1EF
330
1ED
100
AcDbEntity
  8
0
100
AcDbBlockEnd
  0
BLOCK
  5
289
330
27E
100
AcDbEntity
  8
0
100
AcDbBlockBegin
  2
*D15
 70
     1
 71
     0
 10
0.0
 20
0.0
 30
0.0
  3
*D15
  1

  0
LINE
  5
27F
330
27E
100
AcDbEntity
  8
LC-004-003-----0
 62
     2
370
    -2
100
AcDbLine
 10
573.867094
 20
595.825841
 30
0.0
 11
506.0
 21
595.825841
 31
0.0
  0
LINE
  5
280
330
27E
100
AcDbEntity
  8
LC-004-003-----0
 62
     2
370
    -2
100
AcDbLine
 10
573.867094
 20
555.525841
 30
0.0
 11
506.0
 21
555.525841
 31
0.0
  0
LINE
  5
281
330
27E
100
AcDbEntity
  8
LC-004-003-----0
 62
     2
370
    -2
100
AcDbLine
 10
509.6
 20
623.825841
 30
0.0
 11
509.6
 21
651.825841
 31
0.0
  0
LINE
  5
282
330
27E
100
AcDbEntity
  8
LC-004-003-----0
 62
     2
370
    -2
100
AcDbLine
 10
509.6
 20
527.525841
 30
0.0
 11
509.6
 21
399.950242
 31
0.0
  0
SOLID
  5
283
330
27E
100
AcDbEntity
  8
LC-004-003-----0
 62
     2
100
AcDbTrace
 10
504.933333
 20
623.825841
 30
0.0
 11
514.266667
 21
623.825841
 31
0.0
 12
509.6
 22
595.825841
 32
0.0
 13
509.6
 23
595.825841
 33
0.0
  0
SOLID
  5
284
330
27E
100
AcDbEntity
  8
LC-004-003-----0
 62
     2
100
AcDbTrace
 10
514.266667
 20
527.525841
 30
0.0
 11
504.933333
 21
527.525841
 31
0.0
 12
509.6
 22
555.525841
 32
0.0
 13
509.6
 23
555.525841
 33
0.0
  0
MTEXT
  5
285
330
27E
100
AcDbEntity
  8
LC-004-003-----0
 62
     2
100
AcDbMText
 10
478.8
 20
445.987
 30
0.0
 40
28.0
 41
0.0
 71
     5
 72
     1
  1
\A1;DN40
  7
LCTX15-400-0-0pDIN-Schrift
 11
6.123031769111886E-17
 21
1.0
 31
0.0
 73
     1
 44
1.0
  0
POINT
  5
286
330
27E
100
AcDbEntity
  8
Defpoints
 62
     0
100
AcDbPoint
 10
573.867094
 20
595.825841
 30
0.0
  0
POINT
  5
287
330
27E
100
AcDbEntity
  8
Defpoints
 62
     0
100
AcDbPoint
 10
573.867094
 20
555.525841
 30
0.0
  0
POINT
  5
288
330
27E
100
AcDbEntity
  8
Defpoints
 62
     0
100
AcDbPoint
 10
509.6
 20
555.525841
 30
0.0
  0
ENDBLK
  5
28A
330
27E
100
AcDbEntity
  8
0
100
AcDbBlockEnd
  0
BLOCK
  5
299
330
28E
100
AcDbEntity
  8
0
100
AcDbBlockBegin
  2
*D16
 70
     1
 71
     0
 10
0.0
 20
0.0
 30
0.0
  3
*D16
  1

  0
LINE
  5
28F
330
28E
100
AcDbEntity
  8
LC-004-003-----0
 62
     2
370
    -2
100
AcDbLine
 10
693.360776
 20
572.625841
 30
0.0
 11
709.2
 21
572.625841
 31
0.0
  0
LINE
  5
290
330
28E
100
AcDbEntity
  8
LC-004-003-----0
 62
     2
370
    -2
100
AcDbLine
 10
689.367094
 20
522.498126
 30
0.0
 11
709.2
 21
522.498126
 31
0.0
  0
LINE
  5
291
330
28E
100
AcDbEntity
  8
LC-004-003-----0
 62
     2
370
    -2
100
AcDbLine
 10
705.6
 20
600.625841
 30
0.0
 11
705.6
 21
628.625841
 31
0.0
  0
LINE
  5
292
330
28E
100
AcDbEntity
  8
LC-004-003-----0
 62
     2
370
    -2
100
AcDbLine
 10
705.6
 20
494.498126
 30
0.0
 11
705.6
 21
468.802774
 31
0.0
  0
SOLID
  5
293
330
28E
100
AcDbEntity
  8
LC-004-003-----0
 62
     2
100
AcDbTrace
 10
700.933333
 20
600.625841
 30
0.0
 11
710.266667
 21
600.625841
 31
0.0
 12
705.6
 22
572.625841
 32
0.0
 13
705.6
 23
572.625841
 33
0.0
  0
SOLID
  5
294
330
28E
100
AcDbEntity
  8
LC-004-003-----0
 62
     2
100
AcDbTrace
 10
710.266667
 20
494.498126
 30
0.0
 11
700.933333
 21
494.498126
 31
0.0
 12
705.6
 22
522.498126
 32
0.0
 13
705.6
 23
522.498126
 33
0.0
  0
MTEXT
  5
295
330
28E
100
AcDbEntity
  8
LC-004-003-----0
 62
     2
100
AcDbMText
 10
674.8
 20
491.725
 30
0.0
 40
28.0
 41
0.0
 71
     5
 72
     1
  1
\A1;50
  7
LCTX15-400-0-0pDIN-Schrift
 11
6.123031769111886E-17
 21
1.0
 31
0.0
 73
     1
 44
1.0
  0
POINT
  5
296
330
28E
100
AcDbEntity
  8
Defpoints
 62
     0
100
AcDbPoint
 10
693.360776
 20
572.625841
 30
0.0
  0
POINT
  5
297
330
28E
100
AcDbEntity
  8
Defpoints
 62
     0
100
AcDbPoint
 10
689.367094
 20
522.498126
 30
0.0
  0
POINT
  5
298
330
28E
100
AcDbEntity
  8
Defpoints
 62
     0
100
AcDbPoint
 10
705.6
 20
522.498126
 30
0.0
  0
ENDBLK
  5
29A
330
28E
100
AcDbEntity
  8
0
100
AcDbBlockEnd
  0
BLOCK
  5
2BE
330
2BD
100
AcDbEntity
  8
0
100
AcDbBlockBegin
  2
*X1217
 70
     1
 71
     0
 10
0.0
 20
0.0
 30
0.0
  3
*X1217
  1

  4
*X12
  0
LINE
  5
2C0
330
2BD
100
AcDbEntity
  8
LC-001-005-----0
 62
     7
370
    25
100
AcDbLine
 10
573.44185
 20
599.789722
 30
0.0
 11
573.284211
 21
599.947361
 31
0.0
  0
LINE
  5
2C1
330
2BD
100
AcDbEntity
  8
LC-001-005-----0
  6
DASHED
 62
     7
370
    25
100
AcDbLine
 10
573.867094
 20
598.233107
 30
0.0
 11
572.454359
 21
599.645841
 31
0.0
  0
LINE
  5
2C2
330
2BD
100
AcDbEntity
  8
LC-001-005-----0
  6
DASHED
 62
     7
370
    25
100
AcDbLine
 10
573.867094
 20
597.667421
 30
0.0
 11
571.888674
 21
599.645841
 31
0.0
  0
LINE
  5
2C3
330
2BD
100
AcDbEntity
  8
LC-001-005-----0
  6
DASHED
 62
     7
370
    25
100
AcDbLine
 10
571.707094
 20
599.827421
 30
0.0
 11
571.368674
 21
600.165841
 31
0.0
  0
LINE
  5
2C4
330
2BD
100
AcDbEntity
  8
LC-001-005-----0
  6
DASHED
 62
     7
370
    25
100
AcDbLine
 10
571.364935
 20
600.16958
 30
0.0
 11
571.016804
 21
600.517712
 31
0.0
  0
LINE
  5
2C5
330
2BD
100
AcDbEntity
  8
LC-001-005-----0
 62
     7
370
    25
100
AcDbLine
 10
573.237967
 20
597.165177
 30
0.0
 11
570.237303
 21
600.165841
 31
0.0
  0
LINE
  5
2C6
330
2BD
100
AcDbEntity
  8
LC-001-005-----0
 62
     7
370
    25
100
AcDbLine
 10
572.566216
 20
597.271243
 30
0.0
 11
569.478557
 21
600.358902
 31
0.0
  0
LINE
  5
2C7
330
2BD
100
AcDbEntity
  8
LC-001-005-----0
  6
DASHED
 62
     7
370
    25
100
AcDbLine
 10
571.241527
 20
597.464561
 30
0.0
 11
568.196638
 21
600.50945
 31
0.0
  0
LINE
  5
2C8
330
2BD
100
AcDbEntity
  8
LC-001-005-----0
  6
DASHED
 62
     7
370
    25
100
AcDbLine
 10
570.992355
 20
597.148047
 30
0.0
 11
567.969827
 21
600.170575
 31
0.0
  0
LINE
  5
2C9
330
2BD
100
AcDbEntity
  8
LC-001-005-----0
 62
     7
370
    25
100
AcDbLine
 10
571.665456
 20
595.343576
 30
0.0
 11
566.976843
 21
600.032188
 31
0.0
  0
LINE
  5
2CA
330
2BD
100
AcDbEntity
  8
LC-001-005-----0
 62
     7
370
    25
100
AcDbLine
 10
571.945347
 20
594.498
 30
0.0
 11
566.676808
 21
599.766538
 31
0.0
  0
LINE
  5
2CB
330
2BD
100
AcDbEntity
  8
LC-001-005-----0
  6
DASHED
 62
     7
370
    25
100
AcDbLine
 10
571.261085
 20
594.05089
 30
0.0
 11
566.378694
 21
598.933281
 31
0.0
  0
LINE
  5
2CC
330
2BD
100
AcDbEntity
  8
LC-001-005-----0
  6
DASHED
 62
     7
370
    25
100
AcDbLine
 10
570.133804
 20
594.612486
 30
0.0
 11
566.259151
 21
598.487139
 31
0.0
  0
LINE
  5
2CD
330
2BD
100
AcDbEntity
  8
LC-001-005-----0
 62
     7
370
    25
100
AcDbLine
 10
567.871062
 20
595.743857
 30
0.0
 11
566.067307
 21
597.547612
 31
0.0
  0
LINE
  5
2CE
330
2BD
100
AcDbEntity
  8
LC-001-005-----0
 62
     7
370
    25
100
AcDbLine
 10
566.701131
 20
596.348103
 30
0.0
 11
566.342305
 21
596.706929
 31
0.0
  0
ENDBLK
  5
2BF
330
2BD
100
AcDbEntity
  8
0
100
AcDbBlockEnd
  0
BLOCK
  5
2ED
330
2EC
100
AcDbEntity
  8
0
100
AcDbBlockBegin
  2
*X1318
 70
     1
 71
     0
 10
0.0
 20
0.0
 30
0.0
  3
*X1318
  1

  4
*X13
  0
LINE
  5
2EF
330
2EC
100
AcDbEntity
  8
LC-001-005-----0
 62
     7
370
    25
100
AcDbLine
 10
860.144108
 20
545.584173
 30
0.0
 11
858.772181
 21
546.9561
 31
0.0
  0
LINE
  5
2F0
330
2EC
100
AcDbEntity
  8
LC-001-005-----0
 62
     7
370
    25
100
AcDbLine
 10
857.913398
 20
544.986456
 30
0.0
 11
855.943754
 21
546.9561
 31
0.0
  0
LINE
  5
2F1
330
2EC
100
AcDbEntity
  8
LC-001-005-----0
 62
     7
370
    25
100
AcDbLine
 10
855.365327
 20
544.7061
 30
0.0
 11
853.115327
 21
546.9561
 31
0.0
  0
LINE
  5
2F2
330
2EC
100
AcDbEntity
  8
LC-001-005-----0
 62
     7
370
    25
100
AcDbLine
 10
852.5369
 20
544.7061
 30
0.0
 11
850.2869
 21
546.9561
 31
0.0
  0
LINE
  5
2F3
330
2EC
100
AcDbEntity
  8
LC-001-005-----0
 62
     7
370
    25
100
AcDbLine
 10
849.708472
 20
544.7061
 30
0.0
 11
847.458472
 21
546.9561
 31
0.0
  0
LINE
  5
2F4
330
2EC
100
AcDbEntity
  8
LC-001-005-----0
 62
     7
370
    25
100
AcDbLine
 10
846.880045
 20
544.7061
 30
0.0
 11
844.630045
 21
546.9561
 31
0.0
  0
LINE
  5
2F5
330
2EC
100
AcDbEntity
  8
LC-001-005-----0
 62
     7
370
    25
100
AcDbLine
 10
844.051618
 20
544.7061
 30
0.0
 11
841.801618
 21
546.9561
 31
0.0
  0
LINE
  5
2F6
330
2EC
100
AcDbEntity
  8
LC-001-005-----0
 62
     7
370
    25
100
AcDbLine
 10
841.223191
 20
544.7061
 30
0.0
 11
838.973191
 21
546.9561
 31
0.0
  0
LINE
  5
2F7
330
2EC
100
AcDbEntity
  8
LC-001-005-----0
 62
     7
370
    25
100
AcDbLine
 10
838.394764
 20
544.7061
 30
0.0
 11
836.144764
 21
546.9561
 31
0.0
  0
LINE
  5
2F8
330
2EC
100
AcDbEntity
  8
LC-001-005-----0
 62
     7
370
    25
100
AcDbLine
 10
835.566337
 20
544.7061
 30
0.0
 11
833.316337
 21
546.9561
 31
0.0
  0
LINE
  5
2F9
330
2EC
100
AcDbEntity
  8
LC-001-005-----0
 62
     7
370
    25
100
AcDbLine
 10
832.73791
 20
544.7061
 30
0.0
 11
830.48791
 21
546.9561
 31
0.0
  0
LINE
  5
2FA
330
2EC
100
AcDbEntity
  8
LC-001-005-----0
 62
     7
370
    25
100
AcDbLine
 10
829.909483
 20
544.7061
 30
0.0
 11
827.659483
 21
546.9561
 31
0.0
  0
LINE
  5
2FB
330
2EC
100
AcDbEntity
  8
LC-001-005-----0
 62
     7
370
    25
100
AcDbLine
 10
827.081055
 20
544.7061
 30
0.0
 11
824.831055
 21
546.9561
 31
0.0
  0
LINE
  5
2FC
330
2EC
100
AcDbEntity
  8
LC-001-005-----0
 62
     7
370
    25
100
AcDbLine
 10
824.252628
 20
544.7061
 30
0.0
 11
822.002628
 21
546.9561
 31
0.0
  0
LINE
  5
2FD
330
2EC
100
AcDbEntity
  8
LC-001-005-----0
 62
     7
370
    25
100
AcDbLine
 10
821.424201
 20
544.7061
 30
0.0
 11
819.174201
 21
546.9561
 31
0.0
  0
LINE
  5
2FE
330
2EC
100
AcDbEntity
  8
LC-001-005-----0
 62
     7
370
    25
100
AcDbLine
 10
818.595774
 20
544.7061
 30
0.0
 11
816.345774
 21
546.9561
 31
0.0
  0
LINE
  5
2FF
330
2EC
100
AcDbEntity
  8
LC-001-005-----0
 62
     7
370
    25
100
AcDbLine
 10
815.767347
 20
544.7061
 30
0.0
 11
813.517347
 21
546.9561
 31
0.0
  0
LINE
  5
300
330
2EC
100
AcDbEntity
  8
LC-001-005-----0
 62
     7
370
    25
100
AcDbLine
 10
812.93892
 20
544.7061
 30
0.0
 11
810.68892
 21
546.9561
 31
0.0
  0
LINE
  5
301
330
2EC
100
AcDbEntity
  8
LC-001-005-----0
 62
     7
370
    25
100
AcDbLine
 10
810.110493
 20
544.7061
 30
0.0
 11
807.860493
 21
546.9561
 31
0.0
  0
LINE
  5
302
330
2EC
100
AcDbEntity
  8
LC-001-005-----0
 62
     7
370
    25
100
AcDbLine
 10
807.282066
 20
544.7061
 30
0.0
 11
805.032066
 21
546.9561
 31
0.0
  0
LINE
  5
303
330
2EC
100
AcDbEntity
  8
LC-001-005-----0
 62
     7
370
    25
100
AcDbLine
 10
804.453638
 20
544.7061
 30
0.0
 11
802.203638
 21
546.9561
 31
0.0
  0
LINE
  5
304
330
2EC
100
AcDbEntity
  8
LC-001-005-----0
 62
     7
370
    25
100
AcDbLine
 10
801.625211
 20
544.7061
 30
0.0
 11
799.375211
 21
546.9561
 31
0.0
  0
LINE
  5
305
330
2EC
100
AcDbEntity
  8
LC-001-005-----0
 62
     7
370
    25
100
AcDbLine
 10
798.796784
 20
544.7061
 30
0.0
 11
796.546784
 21
546.9561
 31
0.0
  0
LINE
  5
306
330
2EC
100
AcDbEntity
  8
LC-001-005-----0
 62
     7
370
    25
100
AcDbLine
 10
795.968357
 20
544.7061
 30
0.0
 11
793.718357
 21
546.9561
 31
0.0
  0
LINE
  5
307
330
2EC
100
AcDbEntity
  8
LC-001-005-----0
 62
     7
370
    25
100
AcDbLine
 10
793.13993
 20
544.7061
 30
0.0
 11
790.88993
 21
546.9561
 31
0.0
  0
LINE
  5
308
330
2EC
100
AcDbEntity
  8
LC-001-005-----0
 62
     7
370
    25
100
AcDbLine
 10
790.311503
 20
544.7061
 30
0.0
 11
788.061503
 21
546.9561
 31
0.0
  0
LINE
  5
309
330
2EC
100
AcDbEntity
  8
LC-001-005-----0
 62
     7
370
    25
100
AcDbLine
 10
787.483076
 20
544.7061
 30
0.0
 11
785.233076
 21
546.9561
 31
0.0
  0
LINE
  5
30A
330
2EC
100
AcDbEntity
  8
LC-001-005-----0
 62
     7
370
    25
100
AcDbLine
 10
784.654649
 20
544.7061
 30
0.0
 11
782.404649
 21
546.9561
 31
0.0
  0
LINE
  5
30B
330
2EC
100
AcDbEntity
  8
LC-001-005-----0
 62
     7
370
    25
100
AcDbLine
 10
781.826221
 20
544.7061
 30
0.0
 11
779.576221
 21
546.9561
 31
0.0
  0
LINE
  5
30C
330
2EC
100
AcDbEntity
  8
LC-001-005-----0
 62
     7
370
    25
100
AcDbLine
 10
778.997794
 20
544.7061
 30
0.0
 11
776.747794
 21
546.9561
 31
0.0
  0
LINE
  5
30D
330
2EC
100
AcDbEntity
  8
LC-001-005-----0
 62
     7
370
    25
100
AcDbLine
 10
776.169367
 20
544.7061
 30
0.0
 11
773.919367
 21
546.9561
 31
0.0
  0
LINE
  5
30E
330
2EC
100
AcDbEntity
  8
LC-001-005-----0
 62
     7
370
    25
100
AcDbLine
 10
773.60589
 20
544.44115
 30
0.0
 11
771.922721
 21
546.12432
 31
0.0
  0
LINE
  5
30F
330
2EC
100
AcDbEntity
  8
LC-001-005-----0
 62
     7
370
    25
100
AcDbLine
 10
771.968839
 20
543.249774
 30
0.0
 11
770.27141
 21
544.947203
 31
0.0
  0
LINE
  5
310
330
2EC
100
AcDbEntity
  8
LC-001-005-----0
 62
     7
370
    25
100
AcDbLine
 10
770.23845
 20
542.151736
 30
0.0
 11
768.518776
 21
543.87141
 31
0.0
  0
LINE
  5
311
330
2EC
100
AcDbEntity
  8
LC-001-005-----0
 62
     7
370
    25
100
AcDbLine
 10
768.410605
 20
541.151154
 30
0.0
 11
766.659624
 21
542.902135
 31
0.0
  0
LINE
  5
312
330
2EC
100
AcDbEntity
  8
LC-001-005-----0
 62
     7
370
    25
100
AcDbLine
 10
766.479543
 20
540.253789
 30
0.0
 11
764.686564
 21
542.046768
 31
0.0
  0
LINE
  5
313
330
2EC
100
AcDbEntity
  8
LC-001-005-----0
 62
     7
370
    25
100
AcDbLine
 10
764.4374
 20
539.467504
 30
0.0
 11
762.589308
 21
541.315596
 31
0.0
  0
LINE
  5
314
330
2EC
100
AcDbEntity
  8
LC-001-005-----0
 62
     7
370
    25
100
AcDbLine
 10
762.273508
 20
538.802969
 30
0.0
 11
760.353513
 21
540.722965
 31
0.0
  0
LINE
  5
315
330
2EC
100
AcDbEntity
  8
LC-001-005-----0
 62
     7
370
    25
100
AcDbLine
 10
759.973243
 20
538.274807
 30
0.0
 11
757.958808
 21
540.289243
 31
0.0
  0
LINE
  5
316
330
2EC
100
AcDbEntity
  8
LC-001-005-----0
 62
     7
370
    25
100
AcDbLine
 10
757.516109
 20
537.903514
 30
0.0
 11
755.37523
 21
540.044393
 31
0.0
  0
LINE
  5
317
330
2EC
100
AcDbEntity
  8
LC-001-005-----0
 62
     7
370
    25
100
AcDbLine
 10
754.872291
 20
537.718905
 30
0.0
 11
752.556129
 21
540.035067
 31
0.0
  0
LINE
  5
318
330
2EC
100
AcDbEntity
  8
LC-001-005-----0
 62
     7
370
    25
100
AcDbLine
 10
752.056669
 20
537.7061
 30
0.0
 11
749.422091
 21
540.340678
 31
0.0
  0
LINE
  5
319
330
2EC
100
AcDbEntity
  8
LC-001-005-----0
 62
     7
370
    25
100
AcDbLine
 10
749.228242
 20
537.7061
 30
0.0
 11
746.04964
 21
540.884702
 31
0.0
  0
LINE
  5
31A
330
2EC
100
AcDbEntity
  8
LC-001-005-----0
 62
     7
370
    25
100
AcDbLine
 10
746.399815
 20
537.7061
 30
0.0
 11
745.367094
 21
538.738821
 31
0.0
  0
ENDBLK
  5
2EE
330
2EC
100
AcDbEntity
  8
0
100
AcDbBlockEnd
  0
BLOCK
  5
31D
330
31C
100
AcDbEntity
  8
0
100
AcDbBlockBegin
  2
*X1419
 70
     1
 71
     0
 10
0.0
 20
0.0
 30
0.0
  3
*X1419
  1

  4
*X14
  0
LINE
  5
31F
330
31C
100
AcDbEntity
  8
LC-001-005-----0
 62
     7
370
    25
100
AcDbLine
 10
860.367094
 20
593.444448
 30
0.0
 11
859.924734
 21
593.886808
 31
0.0
  0
LINE
  5
320
330
31C
100
AcDbEntity
  8
LC-001-005-----0
 62
     7
370
    25
100
AcDbLine
 10
858.527015
 20
592.4561
 30
0.0
 11
856.277015
 21
594.7061
 31
0.0
  0
LINE
  5
321
330
31C
100
AcDbEntity
  8
LC-001-005-----0
 62
     7
370
    25
100
AcDbLine
 10
855.698588
 20
592.4561
 30
0.0
 11
853.448588
 21
594.7061
 31
0.0
  0
LINE
  5
322
330
31C
100
AcDbEntity
  8
LC-001-005-----0
 62
     7
370
    25
100
AcDbLine
 10
852.870161
 20
592.4561
 30
0.0
 11
850.620161
 21
594.7061
 31
0.0
  0
LINE
  5
323
330
31C
100
AcDbEntity
  8
LC-001-005-----0
 62
     7
370
    25
100
AcDbLine
 10
850.041734
 20
592.4561
 30
0.0
 11
847.791734
 21
594.7061
 31
0.0
  0
LINE
  5
324
330
31C
100
AcDbEntity
  8
LC-001-005-----0
 62
     7
370
    25
100
AcDbLine
 10
847.213306
 20
592.4561
 30
0.0
 11
844.963306
 21
594.7061
 31
0.0
  0
LINE
  5
325
330
31C
100
AcDbEntity
  8
LC-001-005-----0
 62
     7
370
    25
100
AcDbLine
 10
844.384879
 20
592.4561
 30
0.0
 11
842.134879
 21
594.7061
 31
0.0
  0
LINE
  5
326
330
31C
100
AcDbEntity
  8
LC-001-005-----0
 62
     7
370
    25
100
AcDbLine
 10
841.556452
 20
592.4561
 30
0.0
 11
839.306452
 21
594.7061
 31
0.0
  0
LINE
  5
327
330
31C
100
AcDbEntity
  8
LC-001-005-----0
 62
     7
370
    25
100
AcDbLine
 10
838.728025
 20
592.4561
 30
0.0
 11
836.478025
 21
594.7061
 31
0.0
  0
LINE
  5
328
330
31C
100
AcDbEntity
  8
LC-001-005-----0
 62
     7
370
    25
100
AcDbLine
 10
835.899598
 20
592.4561
 30
0.0
 11
833.649598
 21
594.7061
 31
0.0
  0
LINE
  5
329
330
31C
100
AcDbEntity
  8
LC-001-005-----0
 62
     7
370
    25
100
AcDbLine
 10
833.071171
 20
592.4561
 30
0.0
 11
830.821171
 21
594.7061
 31
0.0
  0
LINE
  5
32A
330
31C
100
AcDbEntity
  8
LC-001-005-----0
 62
     7
370
    25
100
AcDbLine
 10
830.242744
 20
592.4561
 30
0.0
 11
827.992744
 21
594.7061
 31
0.0
  0
LINE
  5
32B
330
31C
100
AcDbEntity
  8
LC-001-005-----0
 62
     7
370
    25
100
AcDbLine
 10
827.414317
 20
592.4561
 30
0.0
 11
825.164317
 21
594.7061
 31
0.0
  0
LINE
  5
32C
330
31C
100
AcDbEntity
  8
LC-001-005-----0
 62
     7
370
    25
100
AcDbLine
 10
824.585889
 20
592.4561
 30
0.0
 11
822.335889
 21
594.7061
 31
0.0
  0
LINE
  5
32D
330
31C
100
AcDbEntity
  8
LC-001-005-----0
 62
     7
370
    25
100
AcDbLine
 10
821.757462
 20
592.4561
 30
0.0
 11
819.507462
 21
594.7061
 31
0.0
  0
LINE
  5
32E
330
31C
100
AcDbEntity
  8
LC-001-005-----0
 62
     7
370
    25
100
AcDbLine
 10
818.929035
 20
592.4561
 30
0.0
 11
816.679035
 21
594.7061
 31
0.0
  0
LINE
  5
32F
330
31C
100
AcDbEntity
  8
LC-001-005-----0
 62
     7
370
    25
100
AcDbLine
 10
816.100608
 20
592.4561
 30
0.0
 11
813.850608
 21
594.7061
 31
0.0
  0
LINE
  5
330
330
31C
100
AcDbEntity
  8
LC-001-005-----0
 62
     7
370
    25
100
AcDbLine
 10
813.272181
 20
592.4561
 30
0.0
 11
811.022181
 21
594.7061
 31
0.0
  0
LINE
  5
331
330
31C
100
AcDbEntity
  8
LC-001-005-----0
 62
     7
370
    25
100
AcDbLine
 10
810.443754
 20
592.4561
 30
0.0
 11
808.193754
 21
594.7061
 31
0.0
  0
LINE
  5
332
330
31C
100
AcDbEntity
  8
LC-001-005-----0
 62
     7
370
    25
100
AcDbLine
 10
807.615327
 20
592.4561
 30
0.0
 11
805.365327
 21
594.7061
 31
0.0
  0
LINE
  5
333
330
31C
100
AcDbEntity
  8
LC-001-005-----0
 62
     7
370
    25
100
AcDbLine
 10
804.7869
 20
592.4561
 30
0.0
 11
802.5369
 21
594.7061
 31
0.0
  0
LINE
  5
334
330
31C
100
AcDbEntity
  8
LC-001-005-----0
 62
     7
370
    25
100
AcDbLine
 10
801.958472
 20
592.4561
 30
0.0
 11
799.708472
 21
594.7061
 31
0.0
  0
LINE
  5
335
330
31C
100
AcDbEntity
  8
LC-001-005-----0
 62
     7
370
    25
100
AcDbLine
 10
799.130045
 20
592.4561
 30
0.0
 11
796.880045
 21
594.7061
 31
0.0
  0
LINE
  5
336
330
31C
100
AcDbEntity
  8
LC-001-005-----0
 62
     7
370
    25
100
AcDbLine
 10
796.301618
 20
592.4561
 30
0.0
 11
794.051618
 21
594.7061
 31
0.0
  0
LINE
  5
337
330
31C
100
AcDbEntity
  8
LC-001-005-----0
 62
     7
370
    25
100
AcDbLine
 10
793.473191
 20
592.4561
 30
0.0
 11
791.223191
 21
594.7061
 31
0.0
  0
LINE
  5
338
330
31C
100
AcDbEntity
  8
LC-001-005-----0
 62
     7
370
    25
100
AcDbLine
 10
790.644764
 20
592.4561
 30
0.0
 11
788.394764
 21
594.7061
 31
0.0
  0
LINE
  5
339
330
31C
100
AcDbEntity
  8
LC-001-005-----0
 62
     7
370
    25
100
AcDbLine
 10
787.816337
 20
592.4561
 30
0.0
 11
785.566337
 21
594.7061
 31
0.0
  0
LINE
  5
33A
330
31C
100
AcDbEntity
  8
LC-001-005-----0
 62
     7
370
    25
100
AcDbLine
 10
784.98791
 20
592.4561
 30
0.0
 11
782.73791
 21
594.7061
 31
0.0
  0
LINE
  5
33B
330
31C
100
AcDbEntity
  8
LC-001-005-----0
 62
     7
370
    25
100
AcDbLine
 10
782.159483
 20
592.4561
 30
0.0
 11
779.909483
 21
594.7061
 31
0.0
  0
LINE
  5
33C
330
31C
100
AcDbEntity
  8
LC-001-005-----0
 62
     7
370
    25
100
AcDbLine
 10
779.331055
 20
592.4561
 30
0.0
 11
777.081055
 21
594.7061
 31
0.0
  0
LINE
  5
33D
330
31C
100
AcDbEntity
  8
LC-001-005-----0
 62
     7
370
    25
100
AcDbLine
 10
776.502628
 20
592.4561
 30
0.0
 11
774.252628
 21
594.7061
 31
0.0
  0
LINE
  5
33E
330
31C
100
AcDbEntity
  8
LC-001-005-----0
 62
     7
370
    25
100
AcDbLine
 10
773.674201
 20
592.4561
 30
0.0
 11
767.363119
 21
598.767183
 31
0.0
  0
LINE
  5
33F
330
31C
100
AcDbEntity
  8
LC-001-005-----0
 62
     7
370
    25
100
AcDbLine
 10
766.915366
 20
596.386508
 30
0.0
 11
762.854773
 21
600.447101
 31
0.0
  0
LINE
  5
340
330
31C
100
AcDbEntity
  8
LC-001-005-----0
 62
     7
370
    25
100
AcDbLine
 10
762.285193
 20
598.188254
 30
0.0
 11
759.197735
 21
601.275712
 31
0.0
  0
LINE
  5
341
330
31C
100
AcDbEntity
  8
LC-001-005-----0
 62
     7
370
    25
100
AcDbLine
 10
758.621933
 20
599.023087
 30
0.0
 11
756.003801
 21
601.641219
 31
0.0
  0
LINE
  5
342
330
31C
100
AcDbEntity
  8
LC-001-005-----0
 62
     7
370
    25
100
AcDbLine
 10
755.452832
 20
599.363761
 30
0.0
 11
753.110493
 21
601.7061
 31
0.0
  0
LINE
  5
343
330
31C
100
AcDbEntity
  8
LC-001-005-----0
 62
     7
370
    25
100
AcDbLine
 10
752.608753
 20
599.379412
 30
0.0
 11
750.282066
 21
601.7061
 31
0.0
  0
LINE
  5
344
330
31C
100
AcDbEntity
  8
LC-001-005-----0
 62
     7
370
    25
100
AcDbLine
 10
750.005773
 20
599.153965
 30
0.0
 11
747.453638
 21
601.7061
 31
0.0
  0
LINE
  5
345
330
31C
100
AcDbEntity
  8
LC-001-005-----0
 62
     7
370
    25
100
AcDbLine
 10
747.595112
 20
598.7362
 30
0.0
 11
745.367094
 21
600.964218
 31
0.0
  0
ENDBLK
  5
31E
330
31C
100
AcDbEntity
  8
0
100
AcDbBlockEnd
  0
BLOCK
  5
368
330
35D
100
AcDbEntity
  8
0
100
AcDbBlockBegin
  2
*D20
 70
     1
 71
     0
 10
0.0
 20
0.0
 30
0.0
  3
*D20
  1

  0
LINE
  5
35E
330
35D
100
AcDbEntity
  8
LC-004-003-----0
 62
     2
370
    -2
100
AcDbLine
 10
563.741443
 20
612.795107
 30
0.0
 11
466.8
 21
612.795107
 31
0.0
  0
LINE
  5
35F
330
35D
100
AcDbEntity
  8
LC-004-003-----0
 62
     2
370
    -2
100
AcDbLine
 10
559.367094
 20
575.675841
 30
0.0
 11
466.8
 21
575.675841
 31
0.0
  0
LINE
  5
360
330
35D
100
AcDbEntity
  8
LC-004-003-----0
 62
     2
370
    -2
100
AcDbLine
 10
470.4
 20
640.795107
 30
0.0
 11
470.4
 21
668.795107
 31
0.0
  0
LINE
  5
361
330
35D
100
AcDbEntity
  8
LC-004-003-----0
 62
     2
370
    -2
100
AcDbLine
 10
470.4
 20
547.675841
 30
0.0
 11
470.4
 21
501.412909
 31
0.0
  0
SOLID
  5
362
330
35D
100
AcDbEntity
  8
LC-004-003-----0
 62
     2
100
AcDbTrace
 10
465.733333
 20
640.795107
 30
0.0
 11
475.066667
 21
640.795107
 31
0.0
 12
470.4
 22
612.795107
 32
0.0
 13
470.4
 23
612.795107
 33
0.0
  0
SOLID
  5
363
330
35D
100
AcDbEntity
  8
LC-004-003-----0
 62
     2
100
AcDbTrace
 10
475.066667
 20
547.675841
 30
0.0
 11
465.733333
 21
547.675841
 31
0.0
 12
470.4
 22
575.675841
 32
0.0
 13
470.4
 23
575.675841
 33
0.0
  0
MTEXT
  5
364
330
35D
100
AcDbEntity
  8
LC-004-003-----0
 62
     2
100
AcDbMText
 10
439.6
 20
525.583
 30
0.0
 40
28.0
 41
0.0
 71
     5
 72
     1
  1
\A1;37
  7
LCTX15-400-0-0pDIN-Schrift
 11
6.123031769111886E-17
 21
1.0
 31
0.0
 73
     1
 44
1.0
  0
POINT
  5
365
330
35D
100
AcDbEntity
  8
Defpoints
 62
     0
100
AcDbPoint
 10
563.741443
 20
612.795107
 30
0.0
  0
POINT
  5
366
330
35D
100
AcDbEntity
  8
Defpoints
 62
     0
100
AcDbPoint
 10
559.367094
 20
575.675841
 30
0.0
  0
POINT
  5
367
330
35D
100
AcDbEntity
  8
Defpoints
 62
     0
100
AcDbPoint
 10
470.4
 20
575.675841
 30
0.0
  0
ENDBLK
  5
369
330
35D
100
AcDbEntity
  8
0
100
AcDbBlockEnd
  0
BLOCK
  5
392
330
388
100
AcDbEntity
  8
0
100
AcDbBlockBegin
  2
*D21
 70
     1
 71
     0
 10
0.0
 20
0.0
 30
0.0
  3
*D21
  1

  0
LINE
  5
389
330
388
100
AcDbEntity
  8
LC-004-003-----0
 62
     2
370
    -2
100
AcDbLine
 10
554.367094
 20
615.661776
 30
0.0
 11
554.367094
 21
647.6
 31
0.0
  0
LINE
  5
38A
330
388
100
AcDbEntity
  8
LC-004-003-----0
 62
     2
370
    -2
100
AcDbLine
 10
784.367094
 20
615.666557
 30
0.0
 11
784.367094
 21
647.6
 31
0.0
  0
LINE
  5
38B
330
388
100
AcDbEntity
  8
LC-004-003-----0
 62
     2
370
    -2
100
AcDbLine
 10
582.367094
 20
644.0
 30
0.0
 11
756.367094
 21
644.0
 31
0.0
  0
SOLID
  5
38C
330
388
100
AcDbEntity
  8
LC-004-003-----0
 62
     2
100
AcDbTrace
 10
582.367094
 20
648.666667
 30
0.0
 11
582.367094
 21
639.333333
 31
0.0
 12
554.367094
 22
644.0
 32
0.0
 13
554.367094
 23
644.0
 33
0.0
  0
SOLID
  5
38D
330
388
100
AcDbEntity
  8
LC-004-003-----0
 62
     2
100
AcDbTrace
 10
756.367094
 20
639.333333
 30
0.0
 11
756.367094
 21
648.666667
 31
0.0
 12
784.367094
 22
644.0
 32
0.0
 13
784.367094
 23
644.0
 33
0.0
  0
MTEXT
  5
38E
330
388
100
AcDbEntity
  8
LC-004-003-----0
 62
     2
100
AcDbMText
 10
669.367094
 20
674.8
 30
0.0
 40
28.0
 41
0.0
 71
     5
 72
     1
  1
%%c\A1;230
  7
LCTX15-400-0-0pDIN-Schrift
 73
     1
 44
1.0
  0
POINT
  5
38F
330
388
100
AcDbEntity
  8
Defpoints
 62
     0
100
AcDbPoint
 10
554.367094
 20
615.661776
 30
0.0
  0
POINT
  5
390
330
388
100
AcDbEntity
  8
Defpoints
 62
     0
100
AcDbPoint
 10
784.367094
 20
615.666557
 30
0.0
  0
POINT
  5
391
330
388
100
AcDbEntity
  8
Defpoints
 62
     0
100
AcDbPoint
 10
784.367094
 20
644.0
 30
0.0
  0
ENDBLK
  5
393
330
388
100
AcDbEntity
  8
0
100
AcDbBlockEnd
  0
BLOCK
  5
403
330
3F8
100
AcDbEntity
  8
0
100
AcDbBlockBegin
  2
*D22
 70
     1
 71
     0
 10
0.0
 20
0.0
 30
0.0
  3
*D22
  1

  0
LINE
  5
3F9
330
3F8
100
AcDbEntity
  8
LC-004-003-----0
 62
     2
370
    -2
100
AcDbLine
 10
774.992745
 20
612.795107
 30
0.0
 11
831.6
 21
612.795107
 31
0.0
  0
LINE
  5
3FA
330
3F8
100
AcDbEntity
  8
LC-004-003-----0
 62
     2
370
    -2
100
AcDbLine
 10
772.960141
 20
569.7061
 30
0.0
 11
831.6
 21
569.7061
 31
0.0
  0
LINE
  5
3FB
330
3F8
100
AcDbEntity
  8
LC-004-003-----0
 62
     2
370
    -2
100
AcDbLine
 10
828.0
 20
541.7061
 30
0.0
 11
828.0
 21
513.7061
 31
0.0
  0
LINE
  5
3FC
330
3F8
100
AcDbEntity
  8
LC-004-003-----0
 62
     2
370
    -2
100
AcDbLine
 10
828.0
 20
640.795107
 30
0.0
 11
828.0
 21
654.415859
 31
0.0
  0
SOLID
  5
3FD
330
3F8
100
AcDbEntity
  8
LC-004-003-----0
 62
     2
100
AcDbTrace
 10
823.333333
 20
640.795107
 30
0.0
 11
832.666667
 21
640.795107
 31
0.0
 12
828.0
 22
612.795107
 32
0.0
 13
828.0
 23
612.795107
 33
0.0
  0
SOLID
  5
3FE
330
3F8
100
AcDbEntity
  8
LC-004-003-----0
 62
     2
100
AcDbTrace
 10
832.666667
 20
541.7061
 30
0.0
 11
823.333333
 21
541.7061
 31
0.0
 12
828.0
 22
569.7061
 32
0.0
 13
828.0
 23
569.7061
 33
0.0
  0
MTEXT
  5
3FF
330
3F8
100
AcDbEntity
  8
LC-004-003-----0
 62
     2
100
AcDbMText
 10
797.2
 20
631.315
 30
0.0
 40
28.0
 41
0.0
 71
     5
 72
     1
  1
\A1;43
  7
LCTX15-400-0-0pDIN-Schrift
 11
6.123031769111886E-17
 21
1.0
 31
0.0
 73
     1
 44
1.0
  0
POINT
  5
400
330
3F8
100
AcDbEntity
  8
Defpoints
 62
     0
100
AcDbPoint
 10
774.992745
 20
612.795107
 30
0.0
  0
POINT
  5
401
330
3F8
100
AcDbEntity
  8
Defpoints
 62
     0
100
AcDbPoint
 10
772.960141
 20
569.7061
 30
0.0
  0
POINT
  5
402
330
3F8
100
AcDbEntity
  8
Defpoints
 62
     0
100
AcDbPoint
 10
828.0
 20
569.7061
 30
0.0
  0
ENDBLK
  5
404
330
3F8
100
AcDbEntity
  8
0
100
AcDbBlockEnd
  0
BLOCK
  5
45D
330
45C
100
AcDbEntity
  8
0
100
AcDbBlockBegin
  2
*X1523
 70
     1
 71
     0
 10
0.0
 20
0.0
 30
0.0
  3
*X1523
  1

  4
*X15
  0
LINE
  5
45F
330
45C
100
AcDbEntity
  8
LC-001-005-----0
 62
     7
370
    25
100
AcDbLine
 10
581.131685
 20
555.675841
 30
0.0
 11
584.285644
 21
558.829799
 31
0.0
  0
LINE
  5
460
330
45C
100
AcDbEntity
  8
LC-001-005-----0
 62
     7
370
    25
100
AcDbLine
 10
578.303258
 20
555.675841
 30
0.0
 11
580.303258
 21
557.675841
 31
0.0
  0
LINE
  5
461
330
45C
100
AcDbEntity
  8
LC-001-005-----0
 62
     7
370
    25
100
AcDbLine
 10
582.285644
 20
559.658227
 30
0.0
 11
584.285644
 21
561.658227
 31
0.0
  0
LINE
  5
462
330
45C
100
AcDbEntity
  8
LC-001-005-----0
 62
     7
370
    25
100
AcDbLine
 10
575.474831
 20
555.675841
 30
0.0
 11
577.474831
 21
557.675841
 31
0.0
  0
LINE
  5
463
330
45C
100
AcDbEntity
  8
LC-001-005-----0
 62
     7
370
    25
100
AcDbLine
 10
582.285644
 20
562.486654
 30
0.0
 11
584.285644
 21
564.486654
 31
0.0
  0
LINE
  5
464
330
45C
100
AcDbEntity
  8
LC-001-005-----0
 62
     7
370
    25
100
AcDbLine
 10
572.646404
 20
555.675841
 30
0.0
 11
574.646404
 21
557.675841
 31
0.0
  0
LINE
  5
465
330
45C
100
AcDbEntity
  8
LC-001-005-----0
 62
     7
370
    25
100
AcDbLine
 10
582.285644
 20
565.315081
 30
0.0
 11
584.285644
 21
567.315081
 31
0.0
  0
LINE
  5
466
330
45C
100
AcDbEntity
  8
LC-001-005-----0
 62
     7
370
    25
100
AcDbLine
 10
569.817977
 20
555.675841
 30
0.0
 11
571.817977
 21
557.675841
 31
0.0
  0
LINE
  5
467
330
45C
100
AcDbEntity
  8
LC-001-005-----0
 62
     7
370
    25
100
AcDbLine
 10
582.285644
 20
568.143508
 30
0.0
 11
584.285644
 21
570.143508
 31
0.0
  0
LINE
  5
468
330
45C
100
AcDbEntity
  8
LC-001-005-----0
 62
     7
370
    25
100
AcDbLine
 10
566.98955
 20
555.675841
 30
0.0
 11
568.98955
 21
557.675841
 31
0.0
  0
LINE
  5
469
330
45C
100
AcDbEntity
  8
LC-001-005-----0
 62
     7
370
    25
100
AcDbLine
 10
582.285644
 20
570.971935
 30
0.0
 11
584.285644
 21
572.971935
 31
0.0
  0
LINE
  5
46A
330
45C
100
AcDbEntity
  8
LC-001-005-----0
 62
     7
370
    25
100
AcDbLine
 10
558.161122
 20
549.675841
 30
0.0
 11
559.285644
 21
550.800362
 31
0.0
  0
LINE
  5
46B
330
45C
100
AcDbEntity
  8
LC-001-005-----0
 62
     7
370
    25
100
AcDbLine
 10
564.161122
 20
555.675841
 30
0.0
 11
566.161122
 21
557.675841
 31
0.0
  0
LINE
  5
46C
330
45C
100
AcDbEntity
  8
LC-001-005-----0
 62
     7
370
    25
100
AcDbLine
 10
582.285644
 20
573.800362
 30
0.0
 11
584.285644
 21
575.800362
 31
0.0
  0
LINE
  5
46D
330
45C
100
AcDbEntity
  8
LC-001-005-----0
 62
     7
370
    25
100
AcDbLine
 10
557.285644
 20
551.628789
 30
0.0
 11
559.285644
 21
553.628789
 31
0.0
  0
LINE
  5
46E
330
45C
100
AcDbEntity
  8
LC-001-005-----0
 62
     7
370
    25
100
AcDbLine
 10
561.332695
 20
555.675841
 30
0.0
 11
563.332695
 21
557.675841
 31
0.0
  0
LINE
  5
46F
330
45C
100
AcDbEntity
  8
LC-001-005-----0
 62
     7
370
    25
100
AcDbLine
 10
582.285644
 20
576.628789
 30
0.0
 11
584.285644
 21
578.628789
 31
0.0
  0
LINE
  5
470
330
45C
100
AcDbEntity
  8
LC-001-005-----0
 62
     7
370
    25
100
AcDbLine
 10
557.285644
 20
554.457216
 30
0.0
 11
560.504268
 21
557.675841
 31
0.0
  0
LINE
  5
471
330
45C
100
AcDbEntity
  8
LC-001-005-----0
 62
     7
370
    25
100
AcDbLine
 10
582.285644
 20
579.457216
 30
0.0
 11
584.285644
 21
581.457216
 31
0.0
  0
LINE
  5
472
330
45C
100
AcDbEntity
  8
LC-001-005-----0
 62
     7
370
    25
100
AcDbLine
 10
557.285644
 20
557.285644
 30
0.0
 11
557.675841
 21
557.675841
 31
0.0
  0
LINE
  5
473
330
45C
100
AcDbEntity
  8
LC-001-005-----0
 62
     7
370
    25
100
AcDbLine
 10
582.285644
 20
582.285644
 30
0.0
 11
584.285644
 21
584.285644
 31
0.0
  0
LINE
  5
474
330
45C
100
AcDbEntity
  8
LC-001-005-----0
 62
     7
370
    25
100
AcDbLine
 10
582.285644
 20
585.114071
 30
0.0
 11
584.285644
 21
587.114071
 31
0.0
  0
LINE
  5
475
330
45C
100
AcDbEntity
  8
LC-001-005-----0
 62
     7
370
    25
100
AcDbLine
 10
582.285644
 20
587.942498
 30
0.0
 11
584.285644
 21
589.942498
 31
0.0
  0
LINE
  5
476
330
45C
100
AcDbEntity
  8
LC-001-005-----0
 62
     7
370
    25
100
AcDbLine
 10
582.285644
 20
590.770925
 30
0.0
 11
584.285644
 21
592.770925
 31
0.0
  0
LINE
  5
477
330
45C
100
AcDbEntity
  8
LC-001-005-----0
 62
     7
370
    25
100
AcDbLine
 10
582.02996
 20
593.343668
 30
0.0
 11
583.711994
 21
595.025702
 31
0.0
  0
LINE
  5
478
330
45C
100
AcDbEntity
  8
LC-001-005-----0
 62
     7
370
    25
100
AcDbLine
 10
579.533705
 20
593.675841
 30
0.0
 11
581.481284
 21
595.623419
 31
0.0
  0
LINE
  5
479
330
45C
100
AcDbEntity
  8
LC-001-005-----0
 62
     7
370
    25
100
AcDbLine
 10
576.705278
 20
593.675841
 30
0.0
 11
578.705278
 21
595.675841
 31
0.0
  0
LINE
  5
47A
330
45C
100
AcDbEntity
  8
LC-001-005-----0
 62
     7
370
    25
100
AcDbLine
 10
573.876851
 20
593.675841
 30
0.0
 11
575.876851
 21
595.675841
 31
0.0
  0
LINE
  5
47B
330
45C
100
AcDbEntity
  8
LC-001-005-----0
 62
     7
370
    25
100
AcDbLine
 10
571.048424
 20
593.675841
 30
0.0
 11
573.048424
 21
595.675841
 31
0.0
  0
LINE
  5
47C
330
45C
100
AcDbEntity
  8
LC-001-005-----0
 62
     7
370
    25
100
AcDbLine
 10
568.219997
 20
593.675841
 30
0.0
 11
570.219997
 21
595.675841
 31
0.0
  0
LINE
  5
47D
330
45C
100
AcDbEntity
  8
LC-001-005-----0
 62
     7
370
    25
100
AcDbLine
 10
565.39157
 20
593.675841
 30
0.0
 11
567.39157
 21
595.675841
 31
0.0
  0
LINE
  5
47E
330
45C
100
AcDbEntity
  8
LC-001-005-----0
 62
     7
370
    25
100
AcDbLine
 10
562.563143
 20
593.675841
 30
0.0
 11
564.563143
 21
595.675841
 31
0.0
  0
LINE
  5
47F
330
45C
100
AcDbEntity
  8
LC-001-005-----0
 62
     7
370
    25
100
AcDbLine
 10
559.734716
 20
593.675841
 30
0.0
 11
561.734716
 21
595.675841
 31
0.0
  0
LINE
  5
480
330
45C
100
AcDbEntity
  8
LC-001-005-----0
 62
     7
370
    25
100
AcDbLine
 10
557.285644
 20
594.055196
 30
0.0
 11
559.285644
 21
596.055196
 31
0.0
  0
LINE
  5
481
330
45C
100
AcDbEntity
  8
LC-001-005-----0
 62
     7
370
    25
100
AcDbLine
 10
557.285644
 20
596.883623
 30
0.0
 11
559.285644
 21
598.883623
 31
0.0
  0
LINE
  5
482
330
45C
100
AcDbEntity
  8
LC-001-005-----0
 62
     7
370
    25
100
AcDbLine
 10
557.285644
 20
599.71205
 30
0.0
 11
559.249434
 21
601.675841
 31
0.0
  0
ENDBLK
  5
45E
330
45C
100
AcDbEntity
  8
0
100
AcDbBlockEnd
  0
BLOCK
  5
48F
330
485
100
AcDbEntity
  8
0
100
AcDbBlockBegin
  2
*D24
 70
     1
 71
     0
 10
0.0
 20
0.0
 30
0.0
  3
*D24
  1

  0
LINE
  5
486
330
485
100
AcDbEntity
  8
LC-004-003-----0
 62
     2
370
    -2
100
AcDbLine
 10
724.367094
 20
498.675676
 30
0.0
 11
724.367094
 21
507.6
 31
0.0
  0
LINE
  5
487
330
485
100
AcDbEntity
  8
LC-004-003-----0
 62
     2
370
    -2
100
AcDbLine
 10
860.367094
 20
546.9561
 30
0.0
 11
860.367094
 21
500.4
 31
0.0
  0
LINE
  5
488
330
485
100
AcDbEntity
  8
LC-004-003-----0
 62
     2
370
    -2
100
AcDbLine
 10
752.367094
 20
504.0
 30
0.0
 11
832.367094
 21
504.0
 31
0.0
  0
SOLID
  5
489
330
485
100
AcDbEntity
  8
LC-004-003-----0
 62
     2
100
AcDbTrace
 10
752.367094
 20
508.666667
 30
0.0
 11
752.367094
 21
499.333333
 31
0.0
 12
724.367094
 22
504.0
 32
0.0
 13
724.367094
 23
504.0
 33
0.0
  0
SOLID
  5
48A
330
485
100
AcDbEntity
  8
LC-004-003-----0
 62
     2
100
AcDbTrace
 10
832.367094
 20
499.333333
 30
0.0
 11
832.367094
 21
508.666667
 31
0.0
 12
860.367094
 22
504.0
 32
0.0
 13
860.367094
 23
504.0
 33
0.0
  0
MTEXT
  5
48B
330
485
100
AcDbEntity
  8
LC-004-003-----0
 62
     2
100
AcDbMText
 10
778.743515
 20
534.8
 30
0.0
 40
28.0
 41
0.0
 71
     5
 72
     1
  1
\A1;136
  7
LCTX15-400-0-0pDIN-Schrift
 73
     1
 44
1.0
  0
POINT
  5
48C
330
485
100
AcDbEntity
  8
Defpoints
 62
     0
100
AcDbPoint
 10
724.367094
 20
498.675676
 30
0.0
  0
POINT
  5
48D
330
485
100
AcDbEntity
  8
Defpoints
 62
     0
100
AcDbPoint
 10
860.367094
 20
546.9561
 30
0.0
  0
POINT
  5
48E
330
485
100
AcDbEntity
  8
Defpoints
 62
     0
100
AcDbPoint
 10
860.367094
 20
504.0
 30
0.0
  0
ENDBLK
  5
490
330
485
100
AcDbEntity
  8
0
100
AcDbBlockEnd
  0
BLOCK
  5
4A9
330
4A8
100
AcDbEntity
  8
0
100
AcDbBlockBegin
  2
LCDIM1
 70
     0
 71
     0
 10
0.0
 20
0.0
 30
0.0
  3
LCDIM1
  1

  4
LCDIM1
  0
TEXT
  5
4AB
330
4A8
100
AcDbEntity
  8
LC-004-003-----0
 62
     7
370
   140
100
AcDbText
 10
915.2052
 20
438.504579
 30
0.0
 40
28.0
  1
 15%%d
 50
58.398071
 41
0.9
 51
15.0
  7
LCTX15-400-0-0-Arial
 72
     1
 11
931.738069
 21
465.376348
 31
0.0
100
AcDbText
  0
LINE
  5
4AC
330
4A8
100
AcDbEntity
  8
LC-004-003-----0
 62
     7
370
    25
100
AcDbLine
 10
963.289934
 20
484.670859
 30
0.0
 11
965.123593
 21
494.015258
 31
0.0
  0
LINE
  5
4AD
330
4A8
100
AcDbEntity
  8
LC-004-003-----0
 62
     7
370
    25
100
AcDbLine
 10
966.041212
 20
498.691482
 30
0.0
 11
968.68157
 21
512.146854
 31
0.0
  0
LINE
  5
4AE
330
4A8
100
AcDbEntity
  8
LC-004-003-----0
 62
     7
370
    25
100
AcDbLine
 10
968.68157
 20
512.146854
 30
0.0
 11
963.004582
 21
500.55977
 31
0.0
  0
LINE
  5
4AF
330
4A8
100
AcDbEntity
  8
LC-004-003-----0
 62
     7
370
    25
100
AcDbLine
 10
960.046167
 20
485.762642
 30
0.0
 11
963.289934
 21
484.670859
 31
0.0
  0
LINE
  5
4B0
330
4A8
100
AcDbEntity
  8
LC-004-003-----0
 62
     7
370
    25
100
AcDbLine
 10
962.369479
 20
484.91495
 30
0.0
 11
963.701751
 21
491.704262
 31
0.0
  0
LINE
  5
4B1
330
4A8
100
AcDbEntity
  8
LC-004-003-----0
 62
     7
370
    25
100
AcDbLine
 10
965.177175
 20
499.223082
 30
0.0
 11
966.35929
 21
505.247186
 31
0.0
  0
LINE
  5
4B2
330
4A8
100
AcDbEntity
  8
LC-004-003-----0
 62
     7
370
    25
100
AcDbLine
 10
966.35929
 20
505.247186
 30
0.0
 11
963.817646
 21
500.059533
 31
0.0
  0
LINE
  5
4B3
330
4A8
100
AcDbEntity
  8
LC-004-003-----0
 62
     7
370
    25
100
AcDbLine
 10
961.449025
 20
485.159041
 30
0.0
 11
962.27991
 21
489.393266
 31
0.0
  0
LINE
  5
4B4
330
4A8
100
AcDbEntity
  8
LC-004-003-----0
 62
     7
370
    25
100
AcDbLine
 10
960.52857
 20
485.403132
 30
0.0
 11
960.858068
 21
487.08227
 31
0.0
  0
LINE
  5
4B5
330
4A8
100
AcDbEntity
  8
LC-004-003-----0
 62
     7
370
    25
100
AcDbLine
 10
970.867753
 20
597.182094
 30
0.0
 11
976.259388
 21
569.7061
 31
0.0
  0
LINE
  5
4B6
330
4A8
100
AcDbEntity
  8
LC-004-003-----0
 62
     7
370
    25
100
AcDbLine
 10
976.259388
 20
569.7061
 30
0.0
 11
978.162779
 21
597.641331
 31
0.0
  0
LINE
  5
4B7
330
4A8
100
AcDbEntity
  8
LC-004-003-----0
 62
     7
370
    25
100
AcDbLine
 10
978.162779
 20
597.641331
 30
0.0
 11
970.867753
 21
597.182094
 31
0.0
  0
LINE
  5
4B8
330
4A8
100
AcDbEntity
  8
LC-004-003-----0
 62
     7
370
    25
100
AcDbLine
 10
971.812193
 20
597.303954
 30
0.0
 11
975.802003
 21
576.971718
 31
0.0
  0
LINE
  5
4B9
330
4A8
100
AcDbEntity
  8
LC-004-003-----0
 62
     7
370
    25
100
AcDbLine
 10
975.802003
 20
576.971718
 30
0.0
 11
977.210513
 21
597.643788
 31
0.0
  0
LINE
  5
4BA
330
4A8
100
AcDbEntity
  8
LC-004-003-----0
 62
     7
370
    25
100
AcDbLine
 10
972.756634
 20
597.425813
 30
0.0
 11
975.344619
 21
584.237335
 31
0.0
  0
LINE
  5
4BB
330
4A8
100
AcDbEntity
  8
LC-004-003-----0
 62
     7
370
    25
100
AcDbLine
 10
975.344619
 20
584.237335
 30
0.0
 11
976.258246
 21
597.646246
 31
0.0
  0
LINE
  5
4BC
330
4A8
100
AcDbEntity
  8
LC-004-003-----0
 62
     7
370
    25
100
AcDbLine
 10
973.701074
 20
597.547672
 30
0.0
 11
974.887234
 21
591.502953
 31
0.0
  0
LINE
  5
4BD
330
4A8
100
AcDbEntity
  8
LC-004-003-----0
 62
     7
370
    25
100
AcDbLine
 10
974.887234
 20
591.502953
 30
0.0
 11
975.30598
 21
597.648704
 31
0.0
  0
ARC
  5
4BF
330
4A8
100
AcDbEntity
  8
LC-011-003-MTG-0
 62
     7
370
    25
100
AcDbCircle
 10
753.867538
 20
569.7061
 30
0.0
 40
222.391850449758
100
AcDbArc
 50
318.244661
 51
319.028854
  0
ARC
  5
4C0
330
4A8
100
AcDbEntity
  8
LC-011-003-MTG-0
 62
     7
370
    25
100
AcDbCircle
 10
753.867538
 20
569.7061
 30
0.0
 40
222.3918504497579
100
AcDbArc
 50
319.296551
 51
337.499591
  0
ARC
  5
4C1
330
4A8
100
AcDbEntity
  8
LC-011-003-MTG-0
 62
     7
370
    25
100
AcDbCircle
 10
753.867538
 20
569.7061
 30
0.0
 40
222.391850449758
100
AcDbArc
 50
341.575557
 51
9.996581
  0
LINE
  5
4C3
330
4A8
100
AcDbEntity
  8
LC-012-003-MTH-0
 62
     7
370
    25
100
AcDbLine
 10
856.642046
 20
542.167754
 30
0.0
 11
924.403454
 21
524.011139
 31
0.0
  0
LINE
  5
4C4
330
4A8
100
AcDbEntity
  8
LC-012-003-MTH-0
 62
     7
370
    25
100
AcDbLine
 10
925.261484
 20
523.78123
 30
0.0
 11
972.545273
 21
511.111578
 31
0.0
  0
LINE
  5
4C5
330
4A8
100
AcDbEntity
  8
LC-012-003-MTH-0
 62
     7
370
    25
100
AcDbLine
 10
860.267538
 20
569.7061
 30
0.0
 11
980.259388
 21
569.7061
 31
0.0
  0
ENDBLK
  5
4AA
330
4A8
100
AcDbEntity
  8
0
100
AcDbBlockEnd
  0
ENDSEC
  0
SECTION
  2
ENTITIES
  0
INSERT
  5
42
102
{ACAD_REACTORS
330
4CC
102
}
330
1F
100
AcDbEntity
  8
LC-001-005-----0
 62
     7
370
    25
100
AcDbBlockReference
  2
*X11
 10
0.0
 20
0.0
 30
0.0
  0
LINE
  5
44
102
{ACAD_REACTORS
330
4CC
102
}
330
1F
100
AcDbEntity
  8
LC-002-002-----0
 62
     7
370
    50
100
AcDbLine
 10
618.867094
 20
558.675841
 30
0.0
 11
618.867094
 21
588.175841
 31
0.0
  0
LINE
  5
45
102
{ACAD_REACTORS
330
4CC
102
}
330
1F
100
AcDbEntity
  8
LC-002-002-----0
 62
     7
370
    50
100
AcDbLine
 10
608.46517
 20
595.675841
 30
0.0
 11
610.867094
 21
595.675841
 31
0.0
  0
LINE
  5
46
102
{ACAD_REACTORS
330
4CC
102
}
330
1F
100
AcDbEntity
  8
LC-002-002-----0
 62
     7
370
    50
100
AcDbLine
 10
605.867094
 20
594.175841
 30
0.0
 11
605.867094
 21
557.175841
 31
0.0
  0
LINE
  5
47
102
{ACAD_REACTORS
330
4CC
102
}
330
1F
100
AcDbEntity
  8
LC-002-002-----0
 62
     7
370
    50
100
AcDbLine
 10
640.867094
 20
506.675841
 30
0.0
 11
642.367094
 21
506.675841
 31
0.0
  0
LINE
  5
48
102
{ACAD_REACTORS
330
4CC
102
}
330
1F
100
AcDbEntity
  8
LC-002-002-----0
 62
     7
370
    50
100
AcDbLine
 10
642.367094
 20
566.175841
 30
0.0
 11
642.367094
 21
506.675841
 31
0.0
  0
ARC
  5
4A
102
{ACAD_REACTORS
330
4CC
102
}
330
1F
100
AcDbEntity
  8
LC-003-002-RND-0
 62
     7
370
    50
100
AcDbCircle
 10
614.867094
 20
590.175841
 30
0.0
 40
0.5
100
AcDbArc
 50
180.0
 51
270.0
  0
LINE
  5
4B
102
{ACAD_REACTORS
330
4CC
102
}
330
1F
100
AcDbEntity
  8
LC-002-002-----0
 62
     7
370
    50
100
AcDbLine
 10
605.867094
 20
594.175841
 30
0.0
 11
609.367094
 21
594.175841
 31
0.0
  0
LINE
  5
4C
102
{ACAD_REACTORS
330
4CC
102
}
330
1F
100
AcDbEntity
  8
LC-002-002-----0
 62
     7
370
    50
100
AcDbLine
 10
640.867094
 20
566.175841
 30
0.0
 11
640.867094
 21
506.675841
 31
0.0
  0
ARC
  5
4D
102
{ACAD_REACTORS
330
4CC
102
}
330
1F
100
AcDbEntity
  8
LC-003-002-RND-0
 62
     7
370
    50
100
AcDbCircle
 10
618.867094
 20
566.175841
 30
0.0
 40
22.0
100
AcDbArc
 50
0.0
 51
90.0
  0
LINE
  5
4E
102
{ACAD_REACTORS
330
4CC
102
}
330
1F
100
AcDbEntity
  8
LC-002-002-----0
 62
     7
370
    50
100
AcDbLine
 10
610.367094
 20
592.675841
 30
0.0
 11
610.867094
 21
592.675841
 31
0.0
  0
LINE
  5
4F
102
{ACAD_REACTORS
330
4CC
102
}
330
1F
100
AcDbEntity
  8
LC-002-002-----0
 62
     7
370
    50
100
AcDbLine
 10
609.867094
 20
593.675841
 30
0.0
 11
609.867094
 21
593.175841
 31
0.0
  0
LINE
  5
50
102
{ACAD_REACTORS
330
4CC
102
}
330
1F
100
AcDbEntity
  8
LC-002-002-----0
 62
     7
370
    50
100
AcDbLine
 10
605.867094
 20
557.175841
 30
0.0
 11
609.367094
 21
557.175841
 31
0.0
  0
LINE
  5
51
102
{ACAD_REACTORS
330
4CC
102
}
330
1F
100
AcDbEntity
  8
LC-002-002-----0
 62
     7
370
    50
100
AcDbLine
 10
610.367094
 20
558.675841
 30
0.0
 11
618.867094
 21
558.675841
 31
0.0
  0
LINE
  5
52
102
{ACAD_REACTORS
330
4CC
102
}
330
1F
100
AcDbEntity
  8
LC-002-002-----0
 62
     7
370
    50
100
AcDbLine
 10
609.867094
 20
557.675841
 30
0.0
 11
609.867094
 21
558.175841
 31
0.0
  0
ARC
  5
53
102
{ACAD_REACTORS
330
4CC
102
}
330
1F
100
AcDbEntity
  8
LC-003-002-RND-0
 62
     7
370
    50
100
AcDbCircle
 10
618.867094
 20
566.175841
 30
0.0
 40
23.5
100
AcDbArc
 50
0.0
 51
90.0
  0
ARC
  5
54
102
{ACAD_REACTORS
330
4CC
102
}
330
1F
100
AcDbEntity
  8
LC-003-002-RND-0
 62
     7
370
    50
100
AcDbCircle
 10
609.367094
 20
593.675841
 30
0.0
 40
0.5
100
AcDbArc
 50
0.0
 51
90.0
  0
ARC
  5
55
102
{ACAD_REACTORS
330
4CC
102
}
330
1F
100
AcDbEntity
  8
LC-003-002-RND-0
 62
     7
370
    50
100
AcDbCircle
 10
610.367094
 20
593.175841
 30
0.0
 40
0.5
100
AcDbArc
 50
180.0
 51
270.0
  0
ARC
  5
56
102
{ACAD_REACTORS
330
4CC
102
}
330
1F
100
AcDbEntity
  8
LC-003-002-RND-0
 62
     7
370
    50
100
AcDbCircle
 10
609.367094
 20
557.675841
 30
0.0
 40
0.5
100
AcDbArc
 50
270.0
 51
0.0
  0
ARC
  5
57
102
{ACAD_REACTORS
330
4CC
102
}
330
1F
100
AcDbEntity
  8
LC-003-002-RND-0
 62
     7
370
    50
100
AcDbCircle
 10
610.367094
 20
558.175841
 30
0.0
 40
0.5
100
AcDbArc
 50
90.0
 51
180.0
  0
INSERT
  5
7B
102
{ACAD_REACTORS
330
4CC
102
}
330
1F
100
AcDbEntity
  8
LC-001-005-----0
 62
     7
370
    25
100
AcDbBlockReference
  2
*X22
 10
0.0
 20
0.0
 30
0.0
  0
LINE
  5
7C
102
{ACAD_REACTORS
330
4CC
102
}
330
1F
100
AcDbEntity
  8
LC-002-002-----0
 62
     7
370
    50
100
AcDbLine
 10
610.867094
 20
595.675841
 30
0.0
 11
610.867094
 21
594.675841
 31
0.0
  0
LINE
  5
7D
102
{ACAD_REACTORS
330
4CC
102
}
330
1F
100
AcDbEntity
  8
LC-002-002-----0
 62
     7
370
    50
100
AcDbLine
 10
612.867094
 20
555.675841
 30
0.0
 11
612.867094
 21
556.675841
 31
0.0
  0
LINE
  5
7E
102
{ACAD_REACTORS
330
4CC
102
}
330
1F
100
AcDbEntity
  8
LC-002-002-----0
 62
     7
370
    50
100
AcDbLine
 10
611.367094
 20
557.175841
 30
0.0
 11
612.367094
 21
557.175841
 31
0.0
  0
LINE
  5
7F
102
{ACAD_REACTORS
330
4CC
102
}
330
1F
100
AcDbEntity
  8
LC-002-002-----0
 62
     7
370
    50
100
AcDbLine
 10
611.367094
 20
594.175841
 30
0.0
 11
612.367094
 21
594.175841
 31
0.0
  0
LINE
  5
80
102
{ACAD_REACTORS
330
4CC
102
}
330
1F
100
AcDbEntity
  8
LC-002-002-----0
 62
     7
370
    50
100
AcDbLine
 10
612.867094
 20
595.675841
 30
0.0
 11
612.867094
 21
594.675841
 31
0.0
  0
LINE
  5
81
102
{ACAD_REACTORS
330
4CC
102
}
330
1F
100
AcDbEntity
  8
LC-002-002-----0
 62
     7
370
    50
100
AcDbLine
 10
612.867094
 20
595.675841
 30
0.0
 11
614.367094
 21
595.675841
 31
0.0
  0
LINE
  5
82
102
{ACAD_REACTORS
330
4CC
102
}
330
1F
100
AcDbEntity
  8
LC-002-002-----0
 62
     7
370
    50
100
AcDbLine
 10
610.867094
 20
555.675841
 30
0.0
 11
610.867094
 21
556.675841
 31
0.0
  0
LINE
  5
83
102
{ACAD_REACTORS
330
4CF
102
}
330
1F
100
AcDbEntity
  8
LC-002-002-----0
 62
     7
370
    50
100
AcDbLine
 10
631.867093
 20
591.498126
 30
0.0
 11
629.367093
 21
591.498126
 31
0.0
  0
LINE
  5
84
102
{ACAD_REACTORS
330
4CC
102
}
330
1F
100
AcDbEntity
  8
LC-002-002-----0
 62
     7
370
    50
100
AcDbLine
 10
612.867094
 20
555.675841
 30
0.0
 11
617.367094
 21
555.675841
 31
0.0
  0
ARC
  5
85
102
{ACAD_REACTORS
330
4CC
102
}
330
1F
100
AcDbEntity
  8
LC-003-002-RND-0
 62
     7
370
    50
100
AcDbCircle
 10
611.367094
 20
556.675841
 30
0.0
 40
0.5
100
AcDbArc
 50
90.0
 51
180.0
  0
ARC
  5
86
102
{ACAD_REACTORS
330
4CC
102
}
330
1F
100
AcDbEntity
  8
LC-003-002-RND-0
 62
     7
370
    50
100
AcDbCircle
 10
612.367094
 20
556.675841
 30
0.0
 40
0.5
100
AcDbArc
 50
0.0
 51
90.0
  0
ARC
  5
87
102
{ACAD_REACTORS
330
4CC
102
}
330
1F
100
AcDbEntity
  8
LC-003-002-RND-0
 62
     7
370
    50
100
AcDbCircle
 10
611.367094
 20
594.675841
 30
0.0
 40
0.5
100
AcDbArc
 50
180.0
 51
270.0
  0
ARC
  5
88
102
{ACAD_REACTORS
330
4CC
102
}
330
1F
100
AcDbEntity
  8
LC-003-002-RND-0
 62
     7
370
    50
100
AcDbCircle
 10
612.367094
 20
594.675841
 30
0.0
 40
0.5
100
AcDbArc
 50
270.0
 51
0.0
  0
LINE
  5
89
102
{ACAD_REACTORS
330
4CC
102
}
330
1F
100
AcDbEntity
  8
LC-002-002-----0
 62
     7
370
    50
100
AcDbLine
 10
617.367094
 20
555.675841
 30
0.0
 11
617.367094
 21
528.675841
 31
0.0
  0
LINE
  5
8A
102
{ACAD_REACTORS
330
4CC
102
}
330
1F
100
AcDbEntity
  8
LC-002-002-----0
 62
     7
370
    50
100
AcDbLine
 10
618.867094
 20
558.675841
 30
0.0
 11
618.867094
 21
557.175841
 31
0.0
  0
LINE
  5
8B
102
{ACAD_REACTORS
330
4CC
102
}
330
1F
100
AcDbEntity
  8
LC-002-002-----0
 62
     7
370
    50
100
AcDbLine
 10
618.867094
 20
557.175841
 30
0.0
 11
618.867094
 21
528.675841
 31
0.0
  0
LINE
  5
8C
330
1F
100
AcDbEntity
  8
LC-002-002-----0
 62
     7
370
    25
100
AcDbLine
 10
554.367094
 20
615.661776
 30
0.0
 11
554.367094
 21
614.632863
 31
0.0
  0
LINE
  5
8D
102
{ACAD_REACTORS
330
4CC
102
}
330
1F
100
AcDbEntity
  8
LC-002-002-----0
 62
     7
370
    50
100
AcDbLine
 10
609.867094
 20
593.175841
 30
0.0
 11
609.867094
 21
558.175841
 31
0.0
  0
ARC
  5
8E
102
{ACAD_REACTORS
330
4CC
102
}
330
1F
100
AcDbEntity
  8
LC-003-002-RND-0
 62
     7
370
    50
100
AcDbCircle
 10
614.867094
 20
590.175841
 30
0.0
 40
2.0
100
AcDbArc
 50
180.0
 51
270.0
  0
LINE
  5
8F
102
{ACAD_REACTORS
330
4CC
102
}
330
1F
100
AcDbEntity
  8
LC-002-002-----0
 62
     7
370
    50
100
AcDbLine
 10
614.367094
 20
595.675841
 30
0.0
 11
614.367094
 21
590.175841
 31
0.0
  0
LINE
  5
90
102
{ACAD_REACTORS
330
4CC
102
}
330
1F
100
AcDbEntity
  8
LC-002-002-----0
 62
     7
370
    50
100
AcDbLine
 10
614.867094
 20
589.675841
 30
0.0
 11
618.867094
 21
589.675841
 31
0.0
  0
LINE
  5
91
102
{ACAD_REACTORS
330
4CC
102
}
330
1F
100
AcDbEntity
  8
LC-002-002-----0
 62
     7
370
    50
100
AcDbLine
 10
618.867094
 20
588.175841
 30
0.0
 11
614.867094
 21
588.175841
 31
0.0
  0
LINE
  5
92
102
{ACAD_REACTORS
330
4CC
102
}
330
1F
100
AcDbEntity
  8
LC-002-002-----0
 62
     7
370
    50
100
AcDbLine
 10
612.867094
 20
590.175841
 30
0.0
 11
612.867094
 21
590.675841
 31
0.0
  0
ARC
  5
93
102
{ACAD_REACTORS
330
4CC
102
}
330
1F
100
AcDbEntity
  8
LC-003-002-RND-0
 62
     7
370
    50
100
AcDbCircle
 10
610.867094
 20
590.675841
 30
0.0
 40
2.0
100
AcDbArc
 50
0.0
 51
90.0
  0
LINE
  5
94
102
{ACAD_REACTORS
330
4CC
102
}
330
1F
100
AcDbEntity
  8
LC-002-002-----0
 62
     7
370
    50
100
AcDbLine
 10
608.46517
 20
555.675841
 30
0.0
 11
610.867094
 21
555.675841
 31
0.0
  0
LINE
  5
95
102
{ACAD_REACTORS
330
4CC
102
}
330
1F
100
AcDbEntity
  8
LC-002-002-----0
 62
     7
370
    50
100
AcDbLine
 10
617.367094
 20
528.675841
 30
0.0
 11
640.867094
 21
528.675841
 31
0.0
  0
LINE
  5
96
102
{ACAD_REACTORS
330
4CC
102
}
330
1F
100
AcDbEntity
  8
LC-002-002-----0
 62
     7
370
    50
100
AcDbLine
 10
605.867094
 20
594.175841
 30
0.0
 11
608.46517
 21
595.675841
 31
0.0
  0
LINE
  5
97
102
{ACAD_REACTORS
330
4CC
102
}
330
1F
100
AcDbEntity
  8
LC-002-002-----0
 62
     7
370
    50
100
AcDbLine
 10
605.867094
 20
557.175841
 30
0.0
 11
608.46517
 21
555.675841
 31
0.0
  0
LINE
  5
98
102
{ACAD_REACTORS
330
4CF
102
}
330
1F
100
AcDbEntity
  8
LC-002-002-----0
 62
     7
370
    50
100
AcDbLine
 10
631.867093
 20
591.498126
 30
0.0
 11
632.867093
 21
591.498126
 31
0.0
  0
LINE
  5
99
330
1F
100
AcDbEntity
  8
LC-002-002-----0
 62
     7
370
    50
100
AcDbLine
 10
603.366604
 20
610.176521
 30
0.0
 11
602.655683
 21
610.176521
 31
0.0
  0
LINE
  5
9A
102
{ACAD_REACTORS
330
4CF
102
}
330
1F
100
AcDbEntity
  8
LC-002-002-----0
 62
     7
370
    50
100
AcDbLine
 10
704.867094
 20
594.376539
 30
0.0
 11
704.867094
 21
593.498126
 31
0.0
  0
LINE
  5
9B
102
{ACAD_REACTORS
330
4CF
102
}
330
1F
100
AcDbEntity
  8
LC-002-002-----0
 62
     7
370
    50
100
AcDbLine
 10
706.867094
 20
591.498126
 30
0.0
 11
705.867094
 21
591.498126
 31
0.0
  0
LINE
  5
9C
102
{ACAD_REACTORS
330
4CF
102
}
330
1F
100
AcDbEntity
  8
LC-002-002-----0
 62
     7
370
    50
100
AcDbLine
 10
706.867094
 20
596.770452
 30
0.0
 11
706.867094
 21
592.498126
 31
0.0
  0
LINE
  5
9D
102
{ACAD_REACTORS
330
4CF
102
}
330
1F
100
AcDbEntity
  8
LC-002-002-----0
 62
     7
370
    50
100
AcDbLine
 10
709.867094
 20
597.490028
 30
0.0
 11
707.316715
 21
597.267907
 31
0.0
  0
LINE
  5
9E
102
{ACAD_REACTORS
330
4CF
102
}
330
1F
100
AcDbEntity
  8
LC-002-002-----0
 62
     7
370
    50
100
AcDbLine
 10
709.867094
 20
597.490028
 30
0.0
 11
709.867094
 21
598.995706
 31
0.0
  0
LINE
  5
9F
102
{ACAD_REACTORS
330
4CF
102
}
330
1F
100
AcDbEntity
  8
LC-002-002-----0
 62
     7
370
    50
100
AcDbLine
 10
709.867094
 20
598.995706
 30
0.0
 11
708.061178
 21
598.838423
 31
0.0
  0
LINE
  5
A0
102
{ACAD_REACTORS
330
4CF
102
}
330
1F
100
AcDbEntity
  8
LC-002-002-----0
 62
     7
370
    50
100
AcDbLine
 10
694.484176
 20
589.897994
 30
0.0
 11
706.372003
 21
598.22194
 31
0.0
  0
LINE
  5
A1
102
{ACAD_REACTORS
330
4CF
102
}
330
1F
100
AcDbEntity
  8
LC-002-002-----0
 62
     7
370
    50
100
AcDbLine
 10
628.867094
 20
598.998126
 30
0.0
 11
709.867094
 21
598.995706
 31
0.0
  0
LINE
  5
A2
102
{ACAD_REACTORS
330
4CF
102
}
330
1F
100
AcDbEntity
  8
LC-002-002-----0
 62
     7
370
    50
100
AcDbLine
 10
644.250011
 20
589.897995
 30
0.0
 11
632.362184
 21
598.22194
 31
0.0
  0
LINE
  5
A3
102
{ACAD_REACTORS
330
4CF
102
}
330
1F
100
AcDbEntity
  8
LC-002-002-----0
 62
     7
370
    50
100
AcDbLine
 10
629.367093
 20
591.498126
 30
0.0
 11
629.367093
 21
592.498126
 31
0.0
  0
LINE
  5
A4
102
{ACAD_REACTORS
330
4CF
102
}
330
1F
100
AcDbEntity
  8
LC-002-002-----0
 62
     7
370
    50
100
AcDbLine
 10
629.367093
 20
592.498126
 30
0.0
 11
631.867093
 21
592.498126
 31
0.0
  0
ARC
  5
A5
102
{ACAD_REACTORS
330
4CF
102
}
330
1F
100
AcDbEntity
  8
LC-003-002-RND-0
 62
     7
370
    50
100
AcDbCircle
 10
706.867094
 20
593.498126
 30
0.0
 40
2.0
100
AcDbArc
 50
180.0
 51
270.0
  0
LINE
  5
A6
330
1F
100
AcDbEntity
  8
LC-002-002-----0
 62
     7
370
    50
100
AcDbLine
 10
602.078074
 20
610.176521
 30
0.0
 11
596.655683
 21
610.176521
 31
0.0
  0
DIMENSION
  5
AA
330
1F
100
AcDbEntity
  8
LC-004-003-----0
 62
     7
370
    25
100
AcDbDimension
  2
*D3
 10
860.367094
 20
431.2
 30
0.0
 11
745.714097
 21
462.0
 31
0.0
 70
   160
  1
300
 71
     5
 42
301.0
  3
LC-DIM-L-0140-02-02
100
AcDbAlignedDimension
 13
559.367094
 23
553.175841
 33
0.0
 14
860.367094
 24
546.9561
 34
0.0
100
AcDbRotatedDimension
  0
LINE
  5
B8
102
{ACAD_REACTORS
330
4CF
102
}
330
1F
100
AcDbEntity
  8
LC-002-002-----0
 62
     7
370
    50
100
AcDbLine
 10
706.867094
 20
591.498126
 30
0.0
 11
709.367094
 21
591.498126
 31
0.0
  0
LINE
  5
B9
102
{ACAD_REACTORS
330
4CF
102
}
330
1F
100
AcDbEntity
  8
LC-002-002-----0
 62
     7
370
    50
100
AcDbLine
 10
709.367094
 20
591.498126
 30
0.0
 11
709.367094
 21
592.498126
 31
0.0
  0
LINE
  5
BA
102
{ACAD_REACTORS
330
4CF
102
}
330
1F
100
AcDbEntity
  8
LC-002-002-----0
 62
     7
370
    50
100
AcDbLine
 10
709.367094
 20
592.498126
 30
0.0
 11
706.867094
 21
592.498126
 31
0.0
  0
LINE
  5
BC
102
{ACAD_REACTORS
330
4CF
102
}
330
1F
100
AcDbEntity
  8
LC-005-101-----0
 62
     7
370
    50
100
AcDbLine
 10
689.367094
 20
522.498126
 30
0.0
 11
690.367094
 21
522.498126
 31
0.0
  0
LINE
  5
BD
102
{ACAD_REACTORS
330
4CF
102
}
330
1F
100
AcDbEntity
  8
LC-002-002-----0
 62
     7
370
    50
100
AcDbLine
 10
694.631329
 20
588.16987
 30
0.0
 11
704.080306
 21
594.786115
 31
0.0
  0
LINE
  5
BE
330
1F
100
AcDbEntity
  8
LC-002-002-----0
 62
     7
370
    50
100
AcDbLine
 10
709.867094
 20
598.996916
 30
0.0
 11
709.867094
 21
590.175831
 31
0.0
  0
LINE
  5
BF
330
1F
100
AcDbEntity
  8
LC-002-002-----0
 62
     7
370
    50
100
AcDbLine
 10
618.617094
 20
599.175831
 30
0.0
 11
628.867094
 21
598.996916
 31
0.0
  0
INSERT
  5
103
102
{ACAD_REACTORS
330
4CF
102
}
330
1F
100
AcDbEntity
  8
LC-001-005-----0
 62
     7
370
    25
100
AcDbBlockReference
  2
*X34
 10
0.0
 20
0.0
 30
0.0
  0
LINE
  5
105
330
1F
100
AcDbEntity
  8
LC-002-002-----0
  6
DASHDOT
 62
     7
370
    25
100
AcDbLine
 10
599.366604
 20
596.675831
 30
0.0
 11
599.366604
 21
610.676521
 31
0.0
  0
LINE
  5
106
330
1F
100
AcDbEntity
  8
LC-002-002-----0
 62
     7
370
    50
100
AcDbLine
 10
609.367068
 20
599.175831
 30
0.0
 11
618.617094
 21
599.175831
 31
0.0
  0
INSERT
  5
112
330
1F
100
AcDbEntity
  8
LC-001-005-----0
 62
     7
370
    25
100
AcDbBlockReference
  2
*X45
 10
0.0
 20
0.0
 30
0.0
  0
CIRCLE
  5
113
330
1F
100
AcDbEntity
  8
LC-002-002-----0
 62
     7
370
    50
100
AcDbCircle
 10
708.367094
 20
594.998126
 30
0.0
 40
1.5
  0
CIRCLE
  5
114
330
1F
100
AcDbEntity
  8
LC-002-002-----0
 62
     7
370
    50
100
AcDbCircle
 10
630.367093
 20
594.998126
 30
0.0
 40
1.499999999999948
  0
ARC
  5
115
102
{ACAD_REACTORS
330
4CF
102
}
330
1F
100
AcDbEntity
  8
LC-003-002-RND-0
 62
     7
370
    50
100
AcDbCircle
 10
637.367093
 20
580.06817
 30
0.0
 40
12.0
100
AcDbArc
 50
0.0
 51
55.0
  0
INSERT
  5
121
330
1F
100
AcDbEntity
  8
LC-001-005-----0
 62
     7
370
    25
100
AcDbBlockReference
  2
*X56
 10
0.0
 20
0.0
 30
0.0
  0
LINE
  5
122
330
1F
100
AcDbEntity
  8
LC-002-002-----0
 62
     7
370
    50
100
AcDbLine
 10
628.867094
 20
598.996916
 30
0.0
 11
628.867094
 21
590.175831
 31
0.0
  0
LINE
  5
123
330
1F
100
AcDbEntity
  8
LC-002-002-----0
 62
     7
370
    50
100
AcDbLine
 10
626.867094
 20
590.175831
 30
0.0
 11
628.867094
 21
590.175831
 31
0.0
  0
LINE
  5
124
330
1F
100
AcDbEntity
  8
LC-002-002-----0
 62
     7
370
    50
100
AcDbLine
 10
626.867094
 20
597.175831
 30
0.0
 11
626.867094
 21
590.175831
 31
0.0
  0
LINE
  5
125
330
1F
100
AcDbEntity
  8
LC-002-002-----0
 62
     7
370
    50
100
AcDbLine
 10
617.367094
 20
597.175831
 30
0.0
 11
626.867094
 21
597.175831
 31
0.0
  0
LINE
  5
126
102
{ACAD_REACTORS
330
4CF
102
}
330
1F
100
AcDbEntity
  8
LC-002-002-----0
 62
     7
370
    50
100
AcDbLine
 10
644.102858
 20
588.16987
 30
0.0
 11
634.653881
 21
594.786115
 31
0.0
  0
LINE
  5
127
102
{ACAD_REACTORS
330
4CF
102
}
330
1F
100
AcDbEntity
  8
LC-005-101-----0
 62
     7
370
    50
100
AcDbLine
 10
648.367094
 20
522.498126
 30
0.0
 11
648.367093
 21
579.97835
 31
0.0
  0
LINE
  5
128
102
{ACAD_REACTORS
330
4CF
102
}
330
1F
100
AcDbEntity
  8
LC-005-101-----0
 62
     7
370
    50
100
AcDbLine
 10
649.367094
 20
522.498126
 30
0.0
 11
649.367093
 21
580.06817
 31
0.0
  0
LINE
  5
129
102
{ACAD_REACTORS
330
4CF
102
}
330
1F
100
AcDbEntity
  8
LC-002-002-----0
 62
     7
370
    50
100
AcDbLine
 10
628.867094
 20
597.492415
 30
0.0
 11
628.867094
 21
598.998126
 31
0.0
  0
LINE
  5
12A
102
{ACAD_REACTORS
330
4CF
102
}
330
1F
100
AcDbEntity
  8
LC-002-002-----0
 62
     7
370
    50
100
AcDbLine
 10
628.867094
 20
597.492415
 30
0.0
 11
631.417931
 21
597.231707
 31
0.0
  0
LINE
  5
12B
102
{ACAD_REACTORS
330
4CF
102
}
330
1F
100
AcDbEntity
  8
LC-005-101-----0
 62
     7
370
    50
100
AcDbLine
 10
669.367094
 20
522.498126
 30
0.0
 11
648.367094
 21
522.498126
 31
0.0
  0
LINE
  5
12C
102
{ACAD_REACTORS
330
4CF
102
}
330
1F
100
AcDbEntity
  8
LC-002-002-----0
 62
     7
370
    50
100
AcDbLine
 10
631.867093
 20
596.734298
 30
0.0
 11
631.867093
 21
592.498126
 31
0.0
  0
LINE
  5
12D
330
1F
100
AcDbEntity
  8
LC-002-002-----0
 62
     7
370
    50
100
AcDbLine
 10
711.867094
 20
590.175831
 30
0.0
 11
709.867094
 21
590.175831
 31
0.0
  0
LINE
  5
12E
102
{ACAD_REACTORS
330
4CF
102
}
330
1F
100
AcDbEntity
  8
LC-002-002-----0
 62
     7
370
    50
100
AcDbLine
 10
633.867093
 20
594.376539
 30
0.0
 11
633.867093
 21
593.498126
 31
0.0
  0
LINE
  5
12F
330
1F
100
AcDbEntity
  8
LC-002-002-----0
 62
     7
370
    50
100
AcDbLine
 10
711.867094
 20
597.175831
 30
0.0
 11
711.867094
 21
590.175831
 31
0.0
  0
LINE
  5
130
330
1F
100
AcDbEntity
  8
LC-002-002-----0
 62
     7
370
    50
100
AcDbLine
 10
711.867094
 20
597.175831
 30
0.0
 11
727.367206
 21
597.176521
 31
0.0
  0
ARC
  5
131
102
{ACAD_REACTORS
330
4CF
102
}
330
1F
100
AcDbEntity
  8
LC-003-002-RND-0
 62
     7
370
    50
100
AcDbCircle
 10
638.367093
 20
579.97835
 30
0.0
 40
10.0
100
AcDbArc
 50
0.0
 51
55.0
  0
LINE
  5
132
102
{ACAD_REACTORS
330
4CE
102
}
330
1F
100
AcDbEntity
  8
LC-001-005-----0
 62
     7
370
    25
100
AcDbLine
 10
729.367206
 20
610.573267
 30
0.0
 11
730.470461
 21
611.676521
 31
0.0
  0
ARC
  5
133
102
{ACAD_REACTORS
330
4CF
102
}
330
1F
100
AcDbEntity
  8
LC-003-002-RND-0
 62
     7
370
    50
100
AcDbCircle
 10
700.367093
 20
579.978349
 30
0.0
 40
10.0
100
AcDbArc
 50
125.0
 51
180.0
  0
LINE
  5
134
102
{ACAD_REACTORS
330
4CF
102
}
330
1F
100
AcDbEntity
  8
LC-005-101-----0
 62
     7
370
    50
100
AcDbLine
 10
690.367094
 20
522.498126
 30
0.0
 11
690.367093
 21
579.978349
 31
0.0
  0
LINE
  5
135
330
1F
100
AcDbEntity
  8
LC-002-002-----0
 62
     7
370
    50
100
AcDbLine
 10
720.117094
 20
599.175831
 30
0.0
 11
709.867094
 21
598.996916
 31
0.0
  0
LINE
  5
136
330
1F
100
AcDbEntity
  8
LC-002-002-----0
 62
     7
370
    50
100
AcDbLine
 10
697.417617
 20
611.675831
 30
0.0
 11
697.417617
 21
614.675831
 31
0.0
  0
LINE
  5
137
330
1F
100
AcDbEntity
  8
LC-002-002-----0
 62
     7
370
    50
100
AcDbLine
 10
697.417617
 20
614.675831
 30
0.0
 11
702.367107
 21
614.675831
 31
0.0
  0
LINE
  5
138
330
1F
100
AcDbEntity
  8
LC-002-002-----0
 62
     7
370
    50
100
AcDbLine
 10
702.367107
 20
614.675831
 30
0.0
 11
702.367107
 21
611.675831
 31
0.0
  0
LINE
  5
139
330
1F
100
AcDbEntity
  8
LC-002-002-----0
 62
     7
370
    50
100
AcDbLine
 10
729.36712
 20
599.175831
 30
0.0
 11
720.117094
 21
599.175831
 31
0.0
  0
LINE
  5
13A
330
1F
100
AcDbEntity
  8
LC-002-002-----0
 62
     7
370
    50
100
AcDbLine
 10
594.367094
 20
610.676521
 30
0.0
 11
602.367008
 21
610.676521
 31
0.0
  0
LINE
  5
13B
102
{ACAD_REACTORS
330
4CE
102
}
330
1F
100
AcDbEntity
  8
LC-001-005-----0
 62
     7
370
    25
100
AcDbLine
 10
729.367206
 20
607.744839
 30
0.0
 11
733.298888
 21
611.676521
 31
0.0
  0
LINE
  5
13C
330
1F
100
AcDbEntity
  8
LC-002-002-----0
 62
     7
370
    50
100
AcDbLine
 10
604.367094
 20
610.676521
 30
0.0
 11
602.371811
 21
610.676521
 31
0.0
  0
LINE
  5
13D
102
{ACAD_REACTORS
330
4CF
102
}
330
1F
100
AcDbEntity
  8
LC-005-101-----0
 62
     7
370
    50
100
AcDbLine
 10
689.367094
 20
522.498126
 30
0.0
 11
689.367093
 21
580.068169
 31
0.0
  0
LINE
  5
13E
330
1F
100
AcDbEntity
  8
LC-002-002-----0
 62
     7
370
    50
100
AcDbLine
 10
604.367094
 20
610.676521
 30
0.0
 11
605.367094
 21
610.676521
 31
0.0
  0
LINE
  5
13F
102
{ACAD_REACTORS
330
4CE
102
}
330
1F
100
AcDbEntity
  8
LC-001-005-----0
 62
     7
370
    25
100
AcDbLine
 10
769.897009
 20
591.7061
 30
0.0
 11
771.466401
 21
593.275492
 31
0.0
  0
LINE
  5
140
102
{ACAD_REACTORS
330
4CE
102
}
330
1F
100
AcDbEntity
  8
LC-001-005-----0
 62
     7
370
    25
100
AcDbLine
 10
767.068582
 20
591.7061
 30
0.0
 11
769.932696
 21
594.570214
 31
0.0
  0
LINE
  5
141
102
{ACAD_REACTORS
330
4CE
102
}
330
1F
100
AcDbEntity
  8
LC-001-005-----0
 62
     7
370
    25
100
AcDbLine
 10
764.240155
 20
591.7061
 30
0.0
 11
768.162494
 21
595.62844
 31
0.0
  0
LINE
  5
142
102
{ACAD_REACTORS
330
4CE
102
}
330
1F
100
AcDbEntity
  8
LC-001-005-----0
 62
     7
370
    25
100
AcDbLine
 10
761.411728
 20
591.7061
 30
0.0
 11
766.28433
 21
596.578702
 31
0.0
  0
LINE
  5
143
102
{ACAD_REACTORS
330
4CF
102
}
330
1F
100
AcDbEntity
  8
LC-005-101-----0
 62
     7
370
    50
100
AcDbLine
 10
669.367094
 20
522.498126
 30
0.0
 11
689.367094
 21
522.498126
 31
0.0
  0
ARC
  5
144
102
{ACAD_REACTORS
330
4CF
102
}
330
1F
100
AcDbEntity
  8
LC-003-002-RND-0
 62
     7
370
    50
100
AcDbCircle
 10
634.367093
 20
594.376539
 30
0.0
 40
0.4999999999999033
100
AcDbArc
 50
55.0
 51
180.0
  0
LINE
  5
145
102
{ACAD_REACTORS
330
4CF
102
}
330
1F
100
AcDbEntity
  8
LC-002-002-----0
 62
     7
370
    50
100
AcDbLine
 10
628.867094
 20
598.998126
 30
0.0
 11
630.67318
 21
598.840371
 31
0.0
  0
ARC
  5
146
102
{ACAD_REACTORS
330
4CF
102
}
330
1F
100
AcDbEntity
  8
LC-003-002-RND-0
 62
     7
370
    50
100
AcDbCircle
 10
631.867093
 20
593.498126
 30
0.0
 40
2.0
100
AcDbArc
 50
270.0
 51
0.0
  0
LINE
  5
147
330
1F
100
AcDbEntity
  8
LC-002-002-----0
 62
     7
370
    50
100
AcDbLine
 10
743.367583
 20
610.176521
 30
0.0
 11
744.078419
 21
610.176521
 31
0.0
  0
LINE
  5
148
330
1F
100
AcDbEntity
  8
LC-002-002-----0
 62
     7
370
    50
100
AcDbLine
 10
744.367094
 20
610.676521
 30
0.0
 11
742.36718
 21
610.676521
 31
0.0
  0
LINE
  5
149
102
{ACAD_REACTORS
330
4CE
102
}
330
1F
100
AcDbEntity
  8
LC-001-005-----0
 62
     7
370
    25
100
AcDbLine
 10
758.5833
 20
591.7061
 30
0.0
 11
761.5833
 21
594.7061
 31
0.0
  0
ARC
  5
14A
102
{ACAD_REACTORS
330
4CF
102
}
330
1F
100
AcDbEntity
  8
LC-003-002-RND-0
 62
     7
370
    50
100
AcDbCircle
 10
631.367093
 20
596.734298
 30
0.0
 40
0.5
100
AcDbArc
 50
0.0
 51
84.164355
  0
LINE
  5
14B
330
1F
100
AcDbEntity
  8
LC-002-002-----0
 62
     7
370
    50
100
AcDbLine
 10
602.655683
 20
610.176521
 30
0.0
 11
602.367008
 21
610.676521
 31
0.0
  0
LINE
  5
14C
102
{ACAD_REACTORS
330
4CE
102
}
330
1F
100
AcDbEntity
  8
LC-001-005-----0
 62
     7
370
    25
100
AcDbLine
 10
779.857364
 20
612.980164
 30
0.0
 11
783.286308
 21
616.409108
 31
0.0
  0
ARC
  5
14E
102
{ACAD_REACTORS
330
4CF
102
}
330
1F
100
AcDbEntity
  8
LC-006-101-RND-0
 62
     7
370
    50
100
AcDbCircle
 10
701.367093
 20
580.068169
 30
0.0
 40
11.99999999999999
100
AcDbArc
 50
125.0
 51
180.0
  0
ARC
  5
14F
102
{ACAD_REACTORS
330
4CF
102
}
330
1F
100
AcDbEntity
  8
LC-003-002-RND-0
 62
     7
370
    50
100
AcDbCircle
 10
707.367094
 20
596.770452
 30
0.0
 40
0.499999999999826
100
AcDbArc
 50
95.782875
 51
180.0
  0
ARC
  5
150
102
{ACAD_REACTORS
330
4CF
102
}
330
1F
100
AcDbEntity
  8
LC-003-002-RND-0
 62
     7
370
    50
100
AcDbCircle
 10
704.367094
 20
594.376539
 30
0.0
 40
0.5
100
AcDbArc
 50
0.0
 51
125.0
  0
LINE
  5
151
330
1F
100
AcDbEntity
  8
LC-002-002-----0
 62
     7
370
    50
100
AcDbLine
 10
736.078505
 20
610.176521
 30
0.0
 11
736.36718
 21
610.676521
 31
0.0
  0
LINE
  5
152
102
{ACAD_REACTORS
330
4CF
102
}
330
1F
100
AcDbEntity
  8
LC-002-002-----0
 62
     7
370
    50
100
AcDbLine
 10
631.867093
 20
591.498126
 30
0.0
 11
639.349615
 21
591.498126
 31
0.0
  0
LINE
  5
153
102
{ACAD_REACTORS
330
4CF
102
}
330
1F
100
AcDbEntity
  8
LC-002-002-----0
 62
     7
370
    50
100
AcDbLine
 10
705.867094
 20
591.498126
 30
0.0
 11
699.384572
 21
591.498126
 31
0.0
  0
LINE
  5
154
102
{ACAD_REACTORS
330
4D0
102
}
330
1F
100
AcDbEntity
  8
LC-002-002-----0
 62
     7
370
    50
100
AcDbLine
 10
573.867094
 20
552.850699
 30
0.0
 11
573.867094
 21
551.975841
 31
0.0
  0
LINE
  5
155
102
{ACAD_REACTORS
330
4D0
102
}
330
1F
100
AcDbEntity
  8
LC-002-002-----0
 62
     7
370
    50
100
AcDbLine
 10
567.476285
 20
551.185841
 30
0.0
 11
567.967094
 21
551.185841
 31
0.0
  0
LINE
  5
156
102
{ACAD_REACTORS
330
4D0
102
}
330
1F
100
AcDbEntity
  8
LC-002-002-----0
 62
     7
370
    50
100
AcDbLine
 10
571.367094
 20
551.185841
 30
0.0
 11
571.205325
 21
550.905649
 31
0.0
  0
ARC
  5
157
102
{ACAD_REACTORS
330
4CF
102
}
330
1F
100
AcDbEntity
  8
LC-002-002-----0
 62
     7
370
    50
100
AcDbCircle
 10
630.367094
 20
595.372656
 30
0.0
 40
3.478334111086788
100
AcDbArc
 50
55.0
 51
84.955683
  0
ARC
  5
158
102
{ACAD_REACTORS
330
4CF
102
}
330
1F
100
AcDbEntity
  8
LC-002-002-----0
 62
     7
370
    50
100
AcDbCircle
 10
708.367094
 20
595.372656
 30
0.0
 40
3.478334111086619
100
AcDbArc
 50
95.044317
 51
125.0
  0
LINE
  5
159
102
{ACAD_REACTORS
330
4D0
102
}
330
1F
100
AcDbEntity
  8
LC-002-002-----0
 62
     7
370
    50
100
AcDbLine
 10
566.118205
 20
553.390561
 30
0.0
 11
566.510359
 21
551.927022
 31
0.0
  0
LINE
  5
15A
102
{ACAD_REACTORS
330
4D0
102
}
330
1F
100
AcDbEntity
  8
LC-002-002-----0
 62
     7
370
    50
100
AcDbLine
 10
566.896273
 20
555.120431
 30
0.0
 11
571.222049
 21
557.283319
 31
0.0
  0
LINE
  5
15B
102
{ACAD_REACTORS
330
4D0
102
}
330
1F
100
AcDbEntity
  8
LC-002-002-----0
 62
     7
370
    50
100
AcDbLine
 10
572.507094
 20
551.705841
 30
0.0
 11
572.507094
 21
551.185841
 31
0.0
  0
LINE
  5
15C
102
{ACAD_REACTORS
330
4D0
102
}
330
1F
100
AcDbEntity
  8
LC-002-002-----0
 62
     7
370
    50
100
AcDbLine
 10
569.967094
 20
551.185841
 30
0.0
 11
570.767094
 21
551.185841
 31
0.0
  0
LINE
  5
15D
102
{ACAD_REACTORS
330
4D0
102
}
330
1F
100
AcDbEntity
  8
LC-002-002-----0
 62
     7
370
    50
100
AcDbLine
 10
568.567094
 20
551.185841
 30
0.0
 11
568.405325
 21
550.905649
 31
0.0
  0
ARC
  5
15E
102
{ACAD_REACTORS
330
4D0
102
}
330
1F
100
AcDbEntity
  8
LC-002-002-----0
 62
     7
370
    50
100
AcDbCircle
 10
568.267094
 20
550.985456
 30
0.0
 40
0.1596152422705804
100
AcDbArc
 50
210.0
 51
330.0
  0
LINE
  5
15F
102
{ACAD_REACTORS
330
4D0
102
}
330
1F
100
AcDbEntity
  8
LC-002-002-----0
 62
     7
370
    50
100
AcDbLine
 10
567.967094
 20
551.185841
 30
0.0
 11
568.128863
 21
550.905649
 31
0.0
  0
LINE
  5
160
102
{ACAD_REACTORS
330
4D0
102
}
330
1F
100
AcDbEntity
  8
LC-002-002-----0
 62
     7
370
    50
100
AcDbLine
 10
569.967094
 20
551.185841
 30
0.0
 11
569.805325
 21
550.905649
 31
0.0
  0
LINE
  5
161
330
1F
100
AcDbEntity
  8
LC-002-002-----0
 62
     7
370
    50
100
AcDbLine
 10
734.213856
 20
610.676521
 30
0.0
 11
735.056647
 21
610.676521
 31
0.0
  0
LINE
  5
162
330
1F
100
AcDbEntity
  8
LC-002-002-----0
 62
     7
370
    50
100
AcDbLine
 10
734.213856
 20
610.676521
 30
0.0
 11
733.367094
 21
610.676521
 31
0.0
  0
LINE
  5
163
102
{ACAD_REACTORS
330
4D0
102
}
330
1F
100
AcDbEntity
  8
LC-002-002-----0
 62
     7
370
    50
100
AcDbLine
 10
573.289112
 20
554.194581
 30
0.0
 11
571.338427
 21
553.886578
 31
0.0
  0
ARC
  5
164
102
{ACAD_REACTORS
330
4D0
102
}
330
1F
100
AcDbEntity
  8
LC-002-002-----0
 62
     7
370
    50
100
AcDbCircle
 10
569.667094
 20
550.985456
 30
0.0
 40
0.1596152422705804
100
AcDbArc
 50
210.0
 51
330.0
  0
ARC
  5
165
102
{ACAD_REACTORS
330
4D0
102
}
330
1F
100
AcDbEntity
  8
LC-003-002-RND-0
 62
     7
370
    50
100
AcDbCircle
 10
571.291638
 20
554.182907
 30
0.0
 40
0.2999999999999508
100
AcDbArc
 50
159.159081
 51
278.972627
  0
LINE
  5
166
102
{ACAD_REACTORS
330
4D0
102
}
330
1F
100
AcDbEntity
  8
LC-002-002-----0
 62
     7
370
    50
100
AcDbLine
 10
569.367094
 20
551.185841
 30
0.0
 11
569.528863
 21
550.905649
 31
0.0
  0
LINE
  5
167
102
{ACAD_REACTORS
330
4D0
102
}
330
1F
100
AcDbEntity
  8
LC-002-002-----0
 62
     7
370
    50
100
AcDbLine
 10
573.867094
 20
552.825841
 30
0.0
 11
573.626256
 21
551.927022
 31
0.0
  0
LINE
  5
168
102
{ACAD_REACTORS
330
4D0
102
}
330
1F
100
AcDbEntity
  8
LC-002-002-----0
 62
     7
370
    50
100
AcDbLine
 10
568.567094
 20
551.185841
 30
0.0
 11
569.367094
 21
551.185841
 31
0.0
  0
LINE
  5
169
102
{ACAD_REACTORS
330
4D0
102
}
330
1F
100
AcDbEntity
  8
LC-002-002-----0
 62
     7
370
    50
100
AcDbLine
 10
571.367094
 20
551.185841
 30
0.0
 11
571.707094
 21
551.185841
 31
0.0
  0
ARC
  5
16A
102
{ACAD_REACTORS
330
4D0
102
}
330
1F
100
AcDbEntity
  8
LC-002-002-----0
 62
     7
370
    50
100
AcDbCircle
 10
571.067094
 20
550.985456
 30
0.0
 40
0.1596152422705804
100
AcDbArc
 50
210.0
 51
330.0
  0
LINE
  5
16B
102
{ACAD_REACTORS
330
4D0
102
}
330
1F
100
AcDbEntity
  8
LC-002-002-----0
 62
     7
370
    50
100
AcDbLine
 10
572.507094
 20
551.185841
 30
0.0
 11
572.66033
 21
551.185841
 31
0.0
  0
ARC
  5
16C
102
{ACAD_REACTORS
330
4D0
102
}
330
1F
100
AcDbEntity
  8
LC-003-002-RND-0
 62
     7
370
    50
100
AcDbCircle
 10
571.445656
 20
556.836105
 30
0.0
 40
0.4999999999999888
100
AcDbArc
 50
339.159081
 51
116.565051
  0
LINE
  5
16D
102
{ACAD_REACTORS
330
4D0
102
}
330
1F
100
AcDbEntity
  8
LC-002-002-----0
 62
     7
370
    50
100
AcDbLine
 10
570.767094
 20
551.185841
 30
0.0
 11
570.928863
 21
550.905649
 31
0.0
  0
LINE
  5
16E
102
{ACAD_REACTORS
330
4D0
102
}
330
1F
100
AcDbEntity
  8
LC-002-002-----0
 62
     7
370
    50
100
AcDbLine
 10
571.912942
 20
556.658218
 30
0.0
 11
571.011267
 21
554.289639
 31
0.0
  0
INSERT
  5
182
102
{ACAD_REACTORS
330
4D0
102
}
330
1F
100
AcDbEntity
  8
LC-001-005-----0
 62
     7
370
    25
100
AcDbBlockReference
  2
*X67
 10
0.0
 20
0.0
 30
0.0
  0
LINE
  5
183
102
{ACAD_REACTORS
330
4D0
102
}
330
1F
100
AcDbEntity
  8
LC-002-002-----0
 62
     7
370
    50
100
AcDbLine
 10
571.707094
 20
551.705841
 30
0.0
 11
572.507094
 21
551.705841
 31
0.0
  0
ARC
  5
184
102
{ACAD_REACTORS
330
4D0
102
}
330
1F
100
AcDbEntity
  8
LC-003-002-RND-0
 62
     7
370
    50
100
AcDbCircle
 10
572.66033
 20
552.185841
 30
0.0
 40
1.0
100
AcDbArc
 50
270.0
 51
345.0
  0
ARC
  5
185
102
{ACAD_REACTORS
330
4D0
102
}
330
1F
100
AcDbEntity
  8
LC-003-002-RND-0
 62
     7
370
    50
100
AcDbCircle
 10
567.567094
 20
553.77879
 30
0.0
 40
1.499999999999848
100
AcDbArc
 50
116.565051
 51
195.0
  0
ARC
  5
186
102
{ACAD_REACTORS
330
4D0
102
}
330
1F
100
AcDbEntity
  8
LC-003-002-RND-0
 62
     7
370
    50
100
AcDbCircle
 10
567.476285
 20
552.185841
 30
0.0
 40
1.00000000000006
100
AcDbArc
 50
195.0
 51
270.0
  0
LINE
  5
187
102
{ACAD_REACTORS
330
4D0
102
}
330
1F
100
AcDbEntity
  8
LC-002-002-----0
 62
     7
370
    50
100
AcDbLine
 10
571.707094
 20
551.705841
 30
0.0
 11
571.707094
 21
551.185841
 31
0.0
  0
ARC
  5
188
102
{ACAD_REACTORS
330
4D0
102
}
330
1F
100
AcDbEntity
  8
LC-003-002-RND-0
 62
     7
370
    50
100
AcDbCircle
 10
573.367094
 20
553.700699
 30
0.0
 40
0.5
100
AcDbArc
 50
0.0
 51
98.972627
  0
LINE
  5
189
102
{ACAD_REACTORS
330
4CE
102
}
330
1F
100
AcDbEntity
  8
LC-001-005-----0
 62
     7
370
    25
100
AcDbLine
 10
755.754873
 20
591.7061
 30
0.0
 11
759.966401
 21
595.917628
 31
0.0
  0
LINE
  5
18A
102
{ACAD_REACTORS
330
4CE
102
}
330
1F
100
AcDbEntity
  8
LC-001-005-----0
 62
     7
370
    25
100
AcDbLine
 10
776.917085
 20
612.868311
 30
0.0
 11
780.624993
 21
616.57622
 31
0.0
  0
INSERT
  5
192
330
1F
100
AcDbEntity
  8
LC-001-005-----0
 62
     7
370
    25
100
AcDbBlockReference
  2
*X78
 10
0.0
 20
0.0
 30
0.0
  0
CIRCLE
  5
193
330
1F
100
AcDbEntity
  8
LC-002-002-----0
 62
     7
370
    50
100
AcDbCircle
 10
611.867094
 20
556.350841
 30
0.0
 40
0.8250000000000455
  0
CIRCLE
  5
194
330
1F
100
AcDbEntity
  8
LC-002-002-----0
 62
     7
370
    50
100
AcDbCircle
 10
611.867094
 20
595.000841
 30
0.0
 40
0.8250000000000455
  0
INSERT
  5
19C
330
1F
100
AcDbEntity
  8
LC-001-005-----0
 62
     7
370
    25
100
AcDbBlockReference
  2
*X89
 10
0.0
 20
0.0
 30
0.0
  0
CIRCLE
  5
19D
330
1F
100
AcDbEntity
  8
LC-002-002-----0
 62
     7
370
    50
100
AcDbCircle
 10
762.216401
 20
596.4561
 30
0.0
 40
1.75
  0
INSERT
  5
1AA
330
1F
100
AcDbEntity
  8
LC-001-005-----0
 62
     7
370
    25
100
AcDbBlockReference
  2
*X910
 10
0.0
 20
0.0
 30
0.0
  0
CIRCLE
  5
1AB
330
1F
100
AcDbEntity
  8
LC-002-002-----0
 62
     7
370
    50
100
AcDbCircle
 10
762.216401
 20
542.9561
 30
0.0
 40
1.75
  0
INSERT
  5
1B7
330
1F
100
AcDbEntity
  8
LC-001-005-----0
 62
     7
370
    25
100
AcDbBlockReference
  2
*X1011
 10
0.0
 20
0.0
 30
0.0
  0
LINE
  5
1B8
330
1F
100
AcDbEntity
  8
LC-002-002-----0
 62
     7
370
    50
100
AcDbLine
 10
617.367094
 20
555.525841
 30
0.0
 11
617.367094
 21
511.675676
 31
0.0
  0
ARC
  5
1B9
102
{ACAD_REACTORS
330
4CB
102
}
330
1F
100
AcDbEntity
  8
LC-002-002-----0
 62
     7
370
    50
100
AcDbCircle
 10
753.967094
 20
569.7061
 30
0.0
 40
32.00000000000125
100
AcDbArc
 50
270.0
 51
308.624833
  0
LINE
  5
1BA
102
{ACAD_REACTORS
330
4CE
102
}
330
1F
100
AcDbEntity
  8
LC-001-005-----0
 62
     7
370
    25
100
AcDbLine
 10
752.926446
 20
591.7061
 30
0.0
 11
759.821693
 21
598.601347
 31
0.0
  0
LINE
  5
1BB
102
{ACAD_REACTORS
330
4CB
102
}
330
1F
100
AcDbEntity
  8
LC-002-002-----0
 62
     7
370
    50
100
AcDbLine
 10
856.867094
 20
544.7061
 30
0.0
 11
860.367094
 21
545.643922
 31
0.0
  0
LINE
  5
1BC
102
{ACAD_REACTORS
330
4CE
102
}
330
1F
100
AcDbEntity
  8
LC-001-005-----0
 62
     7
370
    25
100
AcDbLine
 10
773.584951
 20
612.364605
 30
0.0
 11
777.699604
 21
616.479258
 31
0.0
  0
LINE
  5
1BD
102
{ACAD_REACTORS
330
4CE
102
}
330
1F
100
AcDbEntity
  8
LC-001-005-----0
 62
     7
370
    25
100
AcDbLine
 10
750.098019
 20
591.7061
 30
0.0
 11
757.465779
 21
599.07386
 31
0.0
  0
LINE
  5
1BE
102
{ACAD_REACTORS
330
4CB
102
}
330
1F
100
AcDbEntity
  8
LC-002-002-----0
 62
     7
370
    50
100
AcDbLine
 10
745.367094
 20
599.475772
 30
0.0
 11
745.367094
 21
601.7061
 31
0.0
  0
LINE
  5
1BF
102
{ACAD_REACTORS
330
4CE
102
}
330
1F
100
AcDbEntity
  8
LC-001-005-----0
 62
     7
370
    25
100
AcDbLine
 10
769.510586
 20
611.118667
 30
0.0
 11
774.774216
 21
616.382297
 31
0.0
  0
LINE
  5
1C0
102
{ACAD_REACTORS
330
4CE
102
}
330
1F
100
AcDbEntity
  8
LC-001-005-----0
 62
     7
370
    25
100
AcDbLine
 10
747.269592
 20
591.7061
 30
0.0
 11
754.840948
 21
599.277456
 31
0.0
  0
LINE
  5
1C1
330
1F
100
AcDbEntity
  8
LC-002-002-----0
 62
     7
370
    50
100
AcDbLine
 10
742.36718
 20
610.676521
 30
0.0
 11
742.655855
 21
610.176521
 31
0.0
  0
ARC
  5
1C3
102
{ACAD_REACTORS
330
4CB
102
}
330
1F
100
AcDbEntity
  8
LC-007-207-----0
 62
     7
370
    50
100
AcDbCircle
 10
753.867538
 20
569.7061
 30
0.0
 40
29.7000000000001
100
AcDbArc
 50
255.858695
 51
310.004562
  0
LINE
  5
1C4
330
1F
100
AcDbEntity
  8
LC-002-002-----0
 62
     7
370
    50
100
AcDbLine
 10
735.367583
 20
610.176521
 30
0.0
 11
736.078505
 21
610.176521
 31
0.0
  0
LINE
  5
1C5
102
{ACAD_REACTORS
330
4CE
102
}
330
1F
100
AcDbEntity
  8
LC-001-005-----0
 62
     7
370
    25
100
AcDbLine
 10
765.436222
 20
609.87273
 30
0.0
 11
770.748229
 21
615.184737
 31
0.0
  0
LINE
  5
1C6
330
1F
100
AcDbEntity
  8
LC-002-002-----0
 62
     7
370
    50
100
AcDbLine
 10
742.655855
 20
610.176521
 30
0.0
 11
743.367583
 21
610.176521
 31
0.0
  0
LINE
  5
1C7
102
{ACAD_REACTORS
330
4CE
102
}
330
1F
100
AcDbEntity
  8
LC-001-005-----0
 62
     7
370
    25
100
AcDbLine
 10
744.441165
 20
591.7061
 30
0.0
 11
751.967464
 21
599.2324
 31
0.0
  0
LINE
  5
1C8
102
{ACAD_REACTORS
330
4CE
102
}
330
1F
100
AcDbEntity
  8
LC-001-005-----0
 62
     7
370
    25
100
AcDbLine
 10
761.361857
 20
608.626792
 30
0.0
 11
766.674266
 21
613.939202
 31
0.0
  0
LINE
  5
1C9
102
{ACAD_REACTORS
330
4CE
102
}
330
1F
100
AcDbEntity
  8
LC-001-005-----0
 62
     7
370
    25
100
AcDbLine
 10
741.612738
 20
591.7061
 30
0.0
 11
748.755065
 21
598.848428
 31
0.0
  0
ARC
  5
1CB
330
1F
100
AcDbEntity
  8
LC-008-205-RND-0
 62
     7
370
    50
100
AcDbCircle
 10
759.466401
 20
598.249541
 30
0.0
 40
0.5
100
AcDbArc
 50
0.0
 51
78.902197
  0
DIMENSION
  5
1CC
330
1F
100
AcDbEntity
  8
LC-004-003-----0
 62
     7
370
    25
100
AcDbDimension
  2
*D12
 10
877.6
 20
544.7061
 30
0.0
 11
846.8
 21
569.7061
 31
0.0
 70
   160
  1
DN50
 71
     5
 42
50.0
 53
90.0
  3
LC-DIM-L-0140-02-02
100
AcDbAlignedDimension
 13
856.867094
 23
594.7061
 33
0.0
 14
856.867094
 24
544.7061
 34
0.0
 50
90.0
100
AcDbRotatedDimension
  0
ARC
  5
1DC
102
{ACAD_REACTORS
330
4CB
102
}
330
1F
100
AcDbEntity
  8
LC-009-207-RND-0
 62
     7
370
    50
100
AcDbCircle
 10
746.367094
 20
539.936429
 30
0.0
 40
0.9999999999999977
100
AcDbArc
 50
75.858695
 51
180.0
  0
LINE
  5
1DD
102
{ACAD_REACTORS
330
4CB
102
}
330
1F
100
AcDbEntity
  8
LC-002-002-----0
 62
     7
370
    50
100
AcDbLine
 10
745.367094
 20
539.936429
 30
0.0
 11
745.367094
 21
537.7061
 31
0.0
  0
DIMENSION
  5
1DE
330
1F
100
AcDbEntity
  8
LC-004-003-----0
 62
     7
370
    25
100
AcDbDimension
  2
*D13
 10
431.2
 20
498.675676
 30
0.0
 11
400.4
 21
555.735392
 31
0.0
 70
   160
  1
115
 71
     5
 42
114.119431
 53
90.0
  3
LC-DIM-L-0140-02-02
100
AcDbAlignedDimension
 13
563.741443
 23
612.795107
 33
0.0
 14
627.367094
 24
498.675676
 34
0.0
 50
90.0
100
AcDbRotatedDimension
  0
LINE
  5
1EB
330
1F
100
AcDbEntity
  8
LC-002-002-----0
 62
     7
370
    50
100
AcDbLine
 10
596.367008
 20
610.676521
 30
0.0
 11
596.078332
 21
610.176521
 31
0.0
  0
LINE
  5
1EC
330
1F
100
AcDbEntity
  8
LC-002-002-----0
 62
     7
370
    50
100
AcDbLine
 10
608.367068
 20
614.675831
 30
0.0
 11
606.367068
 21
614.675831
 31
0.0
  0
INSERT
  5
27C
330
1F
100
AcDbEntity
  8
LC-001-005-----0
 62
     7
370
    25
100
AcDbBlockReference
  2
*X1114
 10
0.0
 20
0.0
 30
0.0
  0
DIMENSION
  5
27D
330
1F
100
AcDbEntity
  8
LC-004-003-----0
 62
     7
370
    25
100
AcDbDimension
  2
*D15
 10
509.6
 20
555.525841
 30
0.0
 11
478.8
 21
445.987
 31
0.0
 70
   160
  1
DN40
 71
     5
 42
40.3
 53
90.0
  3
LC-DIM-L-0140-02-02
100
AcDbAlignedDimension
 13
573.867094
 23
595.825841
 33
0.0
 14
573.867094
 24
555.525841
 34
0.0
 50
90.0
100
AcDbRotatedDimension
  0
LINE
  5
28B
102
{ACAD_REACTORS
330
4CB
102
}
330
1F
100
AcDbEntity
  8
LC-002-002-----0
  6
DASHDOT
 62
     7
370
    25
100
AcDbLine
 10
860.367094
 20
569.7061
 30
0.0
 11
726.250211
 21
569.7061
 31
0.0
  0
LINE
  5
28C
102
{ACAD_REACTORS
330
4CE
102
}
330
1F
100
AcDbEntity
  8
LC-001-005-----0
 62
     7
370
    25
100
AcDbLine
 10
757.287492
 20
607.380855
 30
0.0
 11
762.600304
 21
612.693666
 31
0.0
  0
DIMENSION
  5
28D
330
1F
100
AcDbEntity
  8
LC-004-003-----0
 62
     7
370
    25
100
AcDbDimension
  2
*D16
 10
705.6
 20
522.498126
 30
0.0
 11
674.8
 21
491.725
 31
0.0
 70
   160
  1
50
 71
     5
 42
50.127715
 53
90.0
  3
LC-DIM-L-0140-02-02
100
AcDbAlignedDimension
 13
693.360776
 23
572.625841
 33
0.0
 14
689.367094
 24
522.498126
 34
0.0
 50
90.0
100
AcDbRotatedDimension
  0
LINE
  5
29B
102
{ACAD_REACTORS
330
4CE
102
}
330
1F
100
AcDbEntity
  8
LC-001-005-----0
 62
     7
370
    25
100
AcDbLine
 10
738.784311
 20
591.7061
 30
0.0
 11
745.367615
 21
598.289405
 31
0.0
  0
LINE
  5
29C
102
{ACAD_REACTORS
330
4D1
102
}
330
1F
100
AcDbEntity
  8
LC-002-002-----0
 62
     7
370
    50
100
AcDbLine
 10
573.867094
 20
598.500983
 30
0.0
 11
573.867094
 21
599.375841
 31
0.0
  0
ARC
  5
29D
102
{ACAD_REACTORS
330
4CA
102
}
330
1F
100
AcDbEntity
  8
LC-002-002-----0
 62
     7
370
    50
100
AcDbCircle
 10
753.867538
 20
569.7061
 30
0.0
 40
29.58737299402673
100
AcDbArc
 50
238.40507
 51
281.647377
  0
LINE
  5
29E
102
{ACAD_REACTORS
330
4CE
102
}
330
1F
100
AcDbEntity
  8
LC-001-005-----0
 62
     7
370
    25
100
AcDbLine
 10
751.254732
 20
604.176521
 30
0.0
 11
758.526341
 21
611.448131
 31
0.0
  0
LINE
  5
29F
102
{ACAD_REACTORS
330
4CE
102
}
330
1F
100
AcDbEntity
  8
LC-001-005-----0
 62
     7
370
    25
100
AcDbLine
 10
735.955883
 20
591.7061
 30
0.0
 11
740.925614
 21
596.675831
 31
0.0
  0
LINE
  5
2A0
102
{ACAD_REACTORS
330
4CE
102
}
330
1F
100
AcDbEntity
  8
LC-001-005-----0
 62
     7
370
    25
100
AcDbLine
 10
741.867583
 20
597.6178
 30
0.0
 11
745.367615
 21
601.117832
 31
0.0
  0
LINE
  5
2A1
102
{ACAD_REACTORS
330
4CE
102
}
330
1F
100
AcDbEntity
  8
LC-001-005-----0
 62
     7
370
    25
100
AcDbLine
 10
748.426305
 20
604.176521
 30
0.0
 11
750.926305
 21
606.676521
 31
0.0
  0
LINE
  5
2A2
102
{ACAD_REACTORS
330
4CE
102
}
330
1F
100
AcDbEntity
  8
LC-001-005-----0
 62
     7
370
    25
100
AcDbLine
 10
752.367615
 20
608.117832
 30
0.0
 11
754.452379
 21
610.202596
 31
0.0
  0
LINE
  5
2A3
102
{ACAD_REACTORS
330
4CE
102
}
330
1F
100
AcDbEntity
  8
LC-001-005-----0
 62
     7
370
    25
100
AcDbLine
 10
733.127456
 20
591.7061
 30
0.0
 11
738.097187
 21
596.675831
 31
0.0
  0
LINE
  5
2A4
102
{ACAD_REACTORS
330
4CE
102
}
330
1F
100
AcDbEntity
  8
LC-001-005-----0
 62
     7
370
    25
100
AcDbLine
 10
741.867583
 20
600.446227
 30
0.0
 11
745.367615
 21
603.946259
 31
0.0
  0
LINE
  5
2A5
102
{ACAD_REACTORS
330
4CE
102
}
330
1F
100
AcDbEntity
  8
LC-001-005-----0
 62
     7
370
    25
100
AcDbLine
 10
745.597878
 20
604.176521
 30
0.0
 11
748.097878
 21
606.676521
 31
0.0
  0
LINE
  5
2A6
102
{ACAD_REACTORS
330
4CE
102
}
330
1F
100
AcDbEntity
  8
LC-001-005-----0
 62
     7
370
    25
100
AcDbLine
 10
730.299029
 20
591.7061
 30
0.0
 11
736.867583
 21
598.274654
 31
0.0
  0
LINE
  5
2A7
102
{ACAD_REACTORS
330
4CE
102
}
330
1F
100
AcDbEntity
  8
LC-001-005-----0
 62
     7
370
    25
100
AcDbLine
 10
741.867583
 20
603.274654
 30
0.0
 11
745.367094
 21
606.774165
 31
0.0
  0
LINE
  5
2A8
102
{ACAD_REACTORS
330
4D1
102
}
330
1F
100
AcDbEntity
  8
LC-002-002-----0
 62
     7
370
    50
100
AcDbLine
 10
567.476285
 20
600.165841
 30
0.0
 11
567.967094
 21
600.165841
 31
0.0
  0
LINE
  5
2A9
102
{ACAD_REACTORS
330
4D1
102
}
330
1F
100
AcDbEntity
  8
LC-002-002-----0
 62
     7
370
    50
100
AcDbLine
 10
571.367094
 20
600.165841
 30
0.0
 11
571.205325
 21
600.446033
 31
0.0
  0
LINE
  5
2AA
102
{ACAD_REACTORS
330
4D1
102
}
330
1F
100
AcDbEntity
  8
LC-002-002-----0
 62
     7
370
    50
100
AcDbLine
 10
566.118205
 20
597.961121
 30
0.0
 11
566.510359
 21
599.42466
 31
0.0
  0
LINE
  5
2AB
102
{ACAD_REACTORS
330
4D1
102
}
330
1F
100
AcDbEntity
  8
LC-002-002-----0
 62
     7
370
    50
100
AcDbLine
 10
572.507094
 20
599.645841
 30
0.0
 11
572.507094
 21
600.165841
 31
0.0
  0
LINE
  5
2AC
102
{ACAD_REACTORS
330
4D1
102
}
330
1F
100
AcDbEntity
  8
LC-002-002-----0
 62
     7
370
    50
100
AcDbLine
 10
569.967094
 20
600.165841
 30
0.0
 11
570.767094
 21
600.165841
 31
0.0
  0
LINE
  5
2AD
102
{ACAD_REACTORS
330
4D1
102
}
330
1F
100
AcDbEntity
  8
LC-002-002-----0
 62
     7
370
    50
100
AcDbLine
 10
568.567094
 20
600.165841
 30
0.0
 11
568.405325
 21
600.446033
 31
0.0
  0
ARC
  5
2AE
102
{ACAD_REACTORS
330
4D1
102
}
330
1F
100
AcDbEntity
  8
LC-002-002-----0
 62
     7
370
    50
100
AcDbCircle
 10
568.267094
 20
600.366226
 30
0.0
 40
0.1596152422703834
100
AcDbArc
 50
30.0
 51
150.0
  0
LINE
  5
2AF
102
{ACAD_REACTORS
330
4D1
102
}
330
1F
100
AcDbEntity
  8
LC-002-002-----0
 62
     7
370
    50
100
AcDbLine
 10
567.967094
 20
600.165841
 30
0.0
 11
568.128863
 21
600.446033
 31
0.0
  0
LINE
  5
2B0
102
{ACAD_REACTORS
330
4D1
102
}
330
1F
100
AcDbEntity
  8
LC-002-002-----0
 62
     7
370
    50
100
AcDbLine
 10
569.967094
 20
600.165841
 30
0.0
 11
569.805325
 21
600.446033
 31
0.0
  0
LINE
  5
2B1
102
{ACAD_REACTORS
330
4D1
102
}
330
1F
100
AcDbEntity
  8
LC-002-002-----0
 62
     7
370
    50
100
AcDbLine
 10
573.289112
 20
597.157101
 30
0.0
 11
571.338427
 21
597.465104
 31
0.0
  0
ARC
  5
2B2
102
{ACAD_REACTORS
330
4D1
102
}
330
1F
100
AcDbEntity
  8
LC-002-002-----0
 62
     7
370
    50
100
AcDbCircle
 10
569.667094
 20
600.366226
 30
0.0
 40
0.1596152422705804
100
AcDbArc
 50
30.0
 51
150.0
  0
ARC
  5
2B3
102
{ACAD_REACTORS
330
4D1
102
}
330
1F
100
AcDbEntity
  8
LC-003-002-RND-0
 62
     7
370
    50
100
AcDbCircle
 10
571.291638
 20
597.168775
 30
0.0
 40
0.3000000000000149
100
AcDbArc
 50
81.027373
 51
200.840919
  0
LINE
  5
2B4
102
{ACAD_REACTORS
330
4D1
102
}
330
1F
100
AcDbEntity
  8
LC-002-002-----0
 62
     7
370
    50
100
AcDbLine
 10
569.367094
 20
600.165841
 30
0.0
 11
569.528863
 21
600.446033
 31
0.0
  0
LINE
  5
2B5
102
{ACAD_REACTORS
330
4D1
102
}
330
1F
100
AcDbEntity
  8
LC-002-002-----0
 62
     7
370
    50
100
AcDbLine
 10
573.867094
 20
598.525841
 30
0.0
 11
573.626256
 21
599.42466
 31
0.0
  0
LINE
  5
2B6
102
{ACAD_REACTORS
330
4D1
102
}
330
1F
100
AcDbEntity
  8
LC-002-002-----0
 62
     7
370
    50
100
AcDbLine
 10
568.567094
 20
600.165841
 30
0.0
 11
569.367094
 21
600.165841
 31
0.0
  0
LINE
  5
2B7
102
{ACAD_REACTORS
330
4D1
102
}
330
1F
100
AcDbEntity
  8
LC-002-002-----0
 62
     7
370
    50
100
AcDbLine
 10
571.367094
 20
600.165841
 30
0.0
 11
571.707094
 21
600.165841
 31
0.0
  0
ARC
  5
2B8
102
{ACAD_REACTORS
330
4D1
102
}
330
1F
100
AcDbEntity
  8
LC-002-002-----0
 62
     7
370
    50
100
AcDbCircle
 10
571.067094
 20
600.366226
 30
0.0
 40
0.1596152422703834
100
AcDbArc
 50
30.0
 51
150.0
  0
LINE
  5
2B9
102
{ACAD_REACTORS
330
4D1
102
}
330
1F
100
AcDbEntity
  8
LC-002-002-----0
 62
     7
370
    50
100
AcDbLine
 10
572.507094
 20
600.165841
 30
0.0
 11
572.66033
 21
600.165841
 31
0.0
  0
ARC
  5
2BA
102
{ACAD_REACTORS
330
4D1
102
}
330
1F
100
AcDbEntity
  8
LC-003-002-RND-0
 62
     7
370
    50
100
AcDbCircle
 10
571.445656
 20
594.515577
 30
0.0
 40
0.500000000000085
100
AcDbArc
 50
243.434949
 51
20.840919
  0
LINE
  5
2BB
102
{ACAD_REACTORS
330
4D1
102
}
330
1F
100
AcDbEntity
  8
LC-002-002-----0
 62
     7
370
    50
100
AcDbLine
 10
570.767094
 20
600.165841
 30
0.0
 11
570.928863
 21
600.446033
 31
0.0
  0
LINE
  5
2BC
102
{ACAD_REACTORS
330
4D1
102
}
330
1F
100
AcDbEntity
  8
LC-002-002-----0
 62
     7
370
    50
100
AcDbLine
 10
571.912942
 20
594.693464
 30
0.0
 11
571.011267
 21
597.062043
 31
0.0
  0
INSERT
  5
2CF
102
{ACAD_REACTORS
330
4D1
102
}
330
1F
100
AcDbEntity
  8
LC-001-005-----0
 62
     7
370
    25
100
AcDbBlockReference
  2
*X1217
 10
0.0
 20
0.0
 30
0.0
  0
LINE
  5
2D0
102
{ACAD_REACTORS
330
4D1
102
}
330
1F
100
AcDbEntity
  8
LC-002-002-----0
 62
     7
370
    50
100
AcDbLine
 10
571.707094
 20
599.645841
 30
0.0
 11
572.507094
 21
599.645841
 31
0.0
  0
ARC
  5
2D1
102
{ACAD_REACTORS
330
4D1
102
}
330
1F
100
AcDbEntity
  8
LC-003-002-RND-0
 62
     7
370
    50
100
AcDbCircle
 10
572.66033
 20
599.165841
 30
0.0
 40
0.9999999999998402
100
AcDbArc
 50
15.0
 51
90.0
  0
ARC
  5
2D2
102
{ACAD_REACTORS
330
4D1
102
}
330
1F
100
AcDbEntity
  8
LC-003-002-RND-0
 62
     7
370
    50
100
AcDbCircle
 10
567.567094
 20
597.572892
 30
0.0
 40
1.500000000000061
100
AcDbArc
 50
165.0
 51
243.434949
  0
ARC
  5
2D3
102
{ACAD_REACTORS
330
4D1
102
}
330
1F
100
AcDbEntity
  8
LC-003-002-RND-0
 62
     7
370
    50
100
AcDbCircle
 10
567.476285
 20
599.165841
 30
0.0
 40
1.0
100
AcDbArc
 50
90.0
 51
165.0
  0
LINE
  5
2D4
102
{ACAD_REACTORS
330
4D1
102
}
330
1F
100
AcDbEntity
  8
LC-002-002-----0
 62
     7
370
    50
100
AcDbLine
 10
571.707094
 20
599.645841
 30
0.0
 11
571.707094
 21
600.165841
 31
0.0
  0
ARC
  5
2D5
102
{ACAD_REACTORS
330
4D1
102
}
330
1F
100
AcDbEntity
  8
LC-003-002-RND-0
 62
     7
370
    50
100
AcDbCircle
 10
573.367094
 20
597.650983
 30
0.0
 40
0.4999999999998632
100
AcDbArc
 50
261.027373
 51
0.0
  0
LINE
  5
2D6
102
{ACAD_REACTORS
330
4D1
102
}
330
1F
100
AcDbEntity
  8
LC-002-002-----0
 62
     7
370
    50
100
AcDbLine
 10
566.896273
 20
596.231251
 30
0.0
 11
571.222049
 21
594.068363
 31
0.0
  0
LINE
  5
2D7
102
{ACAD_REACTORS
330
4CE
102
}
330
1F
100
AcDbEntity
  8
LC-001-005-----0
 62
     7
370
    25
100
AcDbLine
 10
727.470602
 20
591.7061
 30
0.0
 11
736.867583
 21
601.103081
 31
0.0
  0
LINE
  5
2D8
102
{ACAD_REACTORS
330
4CE
102
}
330
1F
100
AcDbEntity
  8
LC-001-005-----0
 62
     7
370
    25
100
AcDbLine
 10
741.867583
 20
606.103081
 30
0.0
 11
745.367094
 21
609.602592
 31
0.0
  0
LINE
  5
2D9
102
{ACAD_REACTORS
330
4CE
102
}
330
1F
100
AcDbEntity
  8
LC-001-005-----0
 62
     7
370
    25
100
AcDbLine
 10
727.367206
 20
594.431131
 30
0.0
 11
736.867583
 21
603.931508
 31
0.0
  0
LINE
  5
2DA
330
1F
100
AcDbEntity
  8
LC-002-002-----0
 62
     7
370
    50
100
AcDbLine
 10
736.36718
 20
610.676521
 30
0.0
 11
736.655855
 21
610.176521
 31
0.0
  0
LINE
  5
2DB
102
{ACAD_REACTORS
330
4CB
102
}
330
1F
100
AcDbEntity
  8
LC-002-002-----0
 62
     7
370
    50
100
AcDbLine
 10
860.367094
 20
545.643922
 30
0.0
 11
860.367094
 21
546.9561
 31
0.0
  0
LINE
  5
2DC
102
{ACAD_REACTORS
330
4CB
102
}
330
1F
100
AcDbEntity
  8
LC-002-002-----0
 62
     7
370
    50
100
AcDbLine
 10
860.367094
 20
546.9561
 30
0.0
 11
860.367094
 21
592.4561
 31
0.0
  0
LINE
  5
2DD
102
{ACAD_REACTORS
330
4CB
102
}
330
1F
100
AcDbEntity
  8
LC-002-002-----0
 62
     7
370
    50
100
AcDbLine
 10
860.367094
 20
592.4561
 30
0.0
 11
860.367094
 21
593.768278
 31
0.0
  0
ARC
  5
2DE
102
{ACAD_REACTORS
330
4CB
102
}
330
1F
100
AcDbEntity
  8
LC-007-207-----0
 62
     7
370
    50
100
AcDbCircle
 10
753.867538
 20
569.7061
 30
0.0
 40
29.7000000000001
100
AcDbArc
 50
69.721682
 51
104.141305
  0
LINE
  5
2DF
102
{ACAD_REACTORS
330
4CE
102
}
330
1F
100
AcDbEntity
  8
LC-001-005-----0
 62
     7
370
    25
100
AcDbLine
 10
741.867583
 20
608.931508
 30
0.0
 11
743.112596
 21
610.176521
 31
0.0
  0
LINE
  5
2E0
102
{ACAD_REACTORS
330
4CB
102
}
330
1F
100
AcDbEntity
  8
LC-002-002-----0
 62
     7
370
    50
100
AcDbLine
 10
856.867094
 20
594.7061
 30
0.0
 11
860.367094
 21
593.768278
 31
0.0
  0
ARC
  5
2E1
102
{ACAD_REACTORS
330
4CB
102
}
330
1F
100
AcDbEntity
  8
LC-009-207-RND-0
 62
     7
370
    50
100
AcDbCircle
 10
746.367094
 20
599.475772
 30
0.0
 40
1.0
100
AcDbArc
 50
180.0
 51
284.141305
  0
LINE
  5
2E2
102
{ACAD_REACTORS
330
4CB
102
}
330
1F
100
AcDbEntity
  8
LC-007-207-----0
 62
     7
370
    50
100
AcDbLine
 10
773.942078
 20
594.7061
 30
0.0
 11
856.867094
 21
594.7061
 31
0.0
  0
LINE
  5
2E3
330
1F
100
AcDbEntity
  8
LC-002-002-----0
 62
     7
370
    50
100
AcDbLine
 10
734.36718
 20
610.676521
 30
0.0
 11
742.36718
 21
610.676521
 31
0.0
  0
LINE
  5
2E4
102
{ACAD_REACTORS
330
4CB
102
}
330
1F
100
AcDbEntity
  8
LC-007-207-----0
 62
     7
370
    50
100
AcDbLine
 10
773.942078
 20
544.7061
 30
0.0
 11
856.867094
 21
544.7061
 31
0.0
  0
ARC
  5
2E5
102
{ACAD_REACTORS
330
4CB
102
}
330
1F
100
AcDbEntity
  8
LC-007-207-----0
 62
     7
370
    50
100
AcDbCircle
 10
753.867538
 20
569.7061
 30
0.0
 40
29.70000000000012
100
AcDbArc
 50
49.995438
 51
69.721682
  0
LINE
  5
2E6
102
{ACAD_REACTORS
330
4CE
102
}
330
1F
100
AcDbEntity
  8
LC-001-005-----0
 62
     7
370
    25
100
AcDbLine
 10
727.284165
 20
597.176518
 30
0.0
 11
736.867583
 21
606.759935
 31
0.0
  0
LINE
  5
2E7
102
{ACAD_REACTORS
330
4CE
102
}
330
1F
100
AcDbEntity
  8
LC-001-005-----0
 62
     7
370
    25
100
AcDbLine
 10
724.455612
 20
597.176392
 30
0.0
 11
726.455051
 21
599.175831
 31
0.0
  0
LINE
  5
2E8
102
{ACAD_REACTORS
330
4CE
102
}
330
1F
100
AcDbEntity
  8
LC-001-005-----0
 62
     7
370
    25
100
AcDbLine
 10
721.627059
 20
597.176266
 30
0.0
 11
723.626624
 21
599.175831
 31
0.0
  0
LINE
  5
2E9
102
{ACAD_REACTORS
330
4CE
102
}
330
1F
100
AcDbEntity
  8
LC-001-005-----0
 62
     7
370
    25
100
AcDbLine
 10
711.798197
 20
590.175831
 30
0.0
 11
711.867094
 21
590.244727
 31
0.0
  0
LINE
  5
2EA
102
{ACAD_REACTORS
330
4CE
102
}
330
1F
100
AcDbEntity
  8
LC-001-005-----0
 62
     7
370
    25
100
AcDbLine
 10
718.798506
 20
597.17614
 30
0.0
 11
720.798197
 21
599.175831
 31
0.0
  0
LINE
  5
2EB
102
{ACAD_REACTORS
330
4CB
102
}
330
1F
100
AcDbEntity
  8
LC-007-207-----0
 62
     7
370
    50
100
AcDbLine
 10
772.960141
 20
592.4561
 30
0.0
 11
860.367094
 21
592.4561
 31
0.0
  0
INSERT
  5
31B
102
{ACAD_REACTORS
330
4CB
102
}
330
1F
100
AcDbEntity
  8
LC-001-005-----0
 62
     7
370
    25
100
AcDbBlockReference
  2
*X1318
 10
0.0
 20
0.0
 30
0.0
  0
INSERT
  5
346
102
{ACAD_REACTORS
330
4CB
102
}
330
1F
100
AcDbEntity
  8
LC-001-005-----0
 62
     7
370
    25
100
AcDbBlockReference
  2
*X1419
 10
0.0
 20
0.0
 30
0.0
  0
ARC
  5
347
102
{ACAD_REACTORS
330
4CB
102
}
330
1F
100
AcDbEntity
  8
LC-002-002-----0
 62
     7
370
    50
100
AcDbCircle
 10
753.967094
 20
569.7061
 30
0.0
 40
32.00000000000082
100
AcDbArc
 50
51.375167
 51
90.17905
  0
LINE
  5
348
102
{ACAD_REACTORS
330
4CB
102
}
330
1F
100
AcDbEntity
  8
LC-002-002-----0
 62
     7
370
    50
100
AcDbLine
 10
745.367094
 20
601.7061
 30
0.0
 11
753.867094
 21
601.7061
 31
0.0
  0
LINE
  5
349
330
1F
100
AcDbEntity
  8
LC-002-002-----0
 62
     7
370
    50
100
AcDbLine
 10
727.367206
 20
597.176521
 30
0.0
 11
727.367206
 21
591.7061
 31
0.0
  0
LINE
  5
34A
102
{ACAD_REACTORS
330
4CB
102
}
330
1F
100
AcDbEntity
  8
LC-002-002-----0
 62
     7
370
    50
100
AcDbLine
 10
745.367094
 20
537.7061
 30
0.0
 11
753.967094
 21
537.7061
 31
0.0
  0
LINE
  5
34B
102
{ACAD_REACTORS
330
4CB
102
}
330
1F
100
AcDbEntity
  8
LC-007-207-----0
 62
     7
370
    50
100
AcDbLine
 10
772.960141
 20
546.9561
 30
0.0
 11
860.367094
 21
546.9561
 31
0.0
  0
LINE
  5
34C
330
1F
100
AcDbEntity
  8
LC-002-002-----0
 62
     7
370
    50
100
AcDbLine
 10
694.688246
 20
572.121776
 30
0.0
 11
721.451645
 21
550.560585
 31
0.0
  0
LINE
  5
34D
330
1F
100
AcDbEntity
  8
LC-002-002-----0
 62
     7
370
    50
100
AcDbLine
 10
694.360776
 20
568.63867
 30
0.0
 11
720.213386
 21
548.274206
 31
0.0
  0
ARC
  5
34E
330
1F
100
AcDbEntity
  8
LC-003-002-RND-0
 62
     7
370
    50
100
AcDbCircle
 10
728.447473
 20
557.7061
 30
0.0
 40
10.00000000000011
100
AcDbArc
 50
225.606456
 51
270.0
  0
ARC
  5
34F
330
1F
100
AcDbEntity
  8
LC-003-002-RND-0
 62
     7
370
    50
100
AcDbCircle
 10
728.958171
 20
557.2061
 30
0.0
 40
12.49999999999998
100
AcDbArc
 50
225.606456
 51
232.606464
  0
LINE
  5
350
330
1F
100
AcDbEntity
  8
LC-002-002-----0
 62
     7
370
    50
100
AcDbLine
 10
721.367094
 20
547.275061
 30
0.0
 11
721.367094
 21
498.675676
 31
0.0
  0
LINE
  5
351
330
1F
100
AcDbEntity
  8
LC-002-002-----0
 62
     7
370
    50
100
AcDbLine
 10
724.367094
 20
545.57975
 30
0.0
 11
724.367094
 21
498.675676
 31
0.0
  0
LINE
  5
352
330
1F
100
AcDbEntity
  8
LC-002-002-----0
 62
     7
370
    50
100
AcDbLine
 10
721.367094
 20
498.675676
 30
0.0
 11
724.367094
 21
498.675676
 31
0.0
  0
LINE
  5
353
330
1F
100
AcDbEntity
  8
LC-002-002-----0
 62
     7
370
    50
100
AcDbLine
 10
721.367094
 20
498.675676
 30
0.0
 11
681.360776
 21
498.675676
 31
0.0
  0
LINE
  5
354
330
1F
100
AcDbEntity
  8
LC-002-002-----0
 62
     7
370
    50
100
AcDbLine
 10
772.960141
 20
592.4561
 30
0.0
 11
772.960141
 21
546.9561
 31
0.0
  0
ARC
  5
355
330
1F
100
AcDbEntity
  8
LC-003-002-RND-0
 62
     7
370
    50
100
AcDbCircle
 10
728.958171
 20
557.2061
 30
0.0
 40
12.50000000000001
100
AcDbArc
 50
248.451652
 51
270.0
  0
ARC
  5
356
330
1F
100
AcDbEntity
  8
LC-003-002-RND-0
 62
     7
370
    50
100
AcDbCircle
 10
782.367094
 20
614.632863
 30
0.0
 40
2.0
100
AcDbArc
 50
0.0
 51
91.898364
  0
LINE
  5
357
330
1F
100
AcDbEntity
  8
LC-002-002-----0
 62
     7
370
    25
100
AcDbLine
 10
782.797643
 20
613.092016
 30
0.0
 11
784.352792
 21
614.647165
 31
0.0
  0
ARC
  5
358
330
1F
100
AcDbEntity
  8
LC-003-002-RND-0
 62
     7
370
    50
100
AcDbCircle
 10
556.367094
 20
614.632863
 30
0.0
 40
1.999999999999994
100
AcDbArc
 50
88.101636
 51
180.0
  0
LINE
  5
359
330
1F
100
AcDbEntity
  8
LC-002-002-----0
 62
     7
370
    50
100
AcDbLine
 10
563.741443
 20
612.795107
 30
0.0
 11
554.367094
 21
613.15172
 31
0.0
  0
LINE
  5
35A
330
1F
100
AcDbEntity
  8
LC-002-002-----0
 62
     7
370
    50
100
AcDbLine
 10
554.367094
 20
613.15172
 30
0.0
 11
554.367094
 21
614.632863
 31
0.0
  0
LINE
  5
35B
330
1F
100
AcDbEntity
  8
LC-002-002-----0
 62
     7
370
    50
100
AcDbLine
 10
586.366572
 20
610.176521
 30
0.0
 11
593.367094
 21
610.176521
 31
0.0
  0
DIMENSION
  5
35C
330
1F
100
AcDbEntity
  8
LC-004-003-----0
 62
     7
370
    25
100
AcDbDimension
  2
*D20
 10
470.4
 20
575.675841
 30
0.0
 11
439.6
 21
525.583
 31
0.0
 70
   160
  1
37
 71
     5
 42
37.119266
 53
90.0
  3
LC-DIM-L-0140-02-02
100
AcDbAlignedDimension
 13
563.741443
 23
612.795107
 33
0.0
 14
559.367094
 24
575.675841
 34
0.0
 50
90.0
100
AcDbRotatedDimension
  0
LINE
  5
36A
330
1F
100
AcDbEntity
  8
LC-002-002-----0
 62
     7
370
    50
100
AcDbLine
 10
784.367094
 20
613.15172
 30
0.0
 11
784.367094
 21
614.632863
 31
0.0
  0
LINE
  5
36B
330
1F
100
AcDbEntity
  8
LC-002-002-----0
 62
     7
370
    50
100
AcDbLine
 10
752.367615
 20
610.176521
 30
0.0
 11
745.367094
 21
610.176521
 31
0.0
  0
LINE
  5
36C
102
{ACAD_REACTORS
330
4CD
102
}
330
1F
100
AcDbEntity
  8
LC-001-005-----0
 62
     7
370
    25
100
AcDbLine
 10
626.945383
 20
590.175831
 30
0.0
 11
628.867094
 21
592.097541
 31
0.0
  0
LINE
  5
36D
102
{ACAD_REACTORS
330
4CD
102
}
330
1F
100
AcDbEntity
  8
LC-001-005-----0
 62
     7
370
    25
100
AcDbLine
 10
626.867094
 20
592.925968
 30
0.0
 11
628.867094
 21
594.925968
 31
0.0
  0
LINE
  5
36E
102
{ACAD_REACTORS
330
4CD
102
}
330
1F
100
AcDbEntity
  8
LC-001-005-----0
 62
     7
370
    25
100
AcDbLine
 10
626.867094
 20
595.754395
 30
0.0
 11
628.867094
 21
597.754395
 31
0.0
  0
LINE
  5
36F
102
{ACAD_REACTORS
330
4CD
102
}
330
1F
100
AcDbEntity
  8
LC-001-005-----0
 62
     7
370
    25
100
AcDbLine
 10
625.460102
 20
597.175831
 30
0.0
 11
627.308395
 21
599.024124
 31
0.0
  0
LINE
  5
370
330
1F
100
AcDbEntity
  8
LC-002-002-----0
 62
     7
370
    50
100
AcDbLine
 10
733.367094
 20
611.676521
 30
0.0
 11
733.367094
 21
610.176521
 31
0.0
  0
LINE
  5
371
102
{ACAD_REACTORS
330
4C9
102
}
330
1F
100
AcDbEntity
  8
LC-002-002-----0
 62
     7
370
    50
100
AcDbLine
 10
605.367094
 20
611.675831
 30
0.0
 11
605.367094
 21
610.176521
 31
0.0
  0
LINE
  5
372
102
{ACAD_REACTORS
330
4CD
102
}
330
1F
100
AcDbEntity
  8
LC-001-005-----0
 62
     7
370
    25
100
AcDbLine
 10
622.631675
 20
597.175831
 30
0.0
 11
624.528491
 21
599.072647
 31
0.0
  0
LINE
  5
373
102
{ACAD_REACTORS
330
4CE
102
}
330
1F
100
AcDbEntity
  8
LC-001-005-----0
 62
     7
370
    25
100
AcDbLine
 10
709.867094
 20
591.073154
 30
0.0
 11
711.867094
 21
593.073154
 31
0.0
  0
LINE
  5
374
102
{ACAD_REACTORS
330
4CD
102
}
330
1F
100
AcDbEntity
  8
LC-001-005-----0
 62
     7
370
    25
100
AcDbLine
 10
619.803248
 20
597.175831
 30
0.0
 11
621.748587
 21
599.12117
 31
0.0
  0
LINE
  5
375
102
{ACAD_REACTORS
330
4CD
102
}
330
1F
100
AcDbEntity
  8
LC-001-005-----0
 62
     7
370
    25
100
AcDbLine
 10
615.624831
 20
595.825841
 30
0.0
 11
618.968684
 21
599.169694
 31
0.0
  0
LINE
  5
376
102
{ACAD_REACTORS
330
4CE
102
}
330
1F
100
AcDbEntity
  8
LC-001-005-----0
 62
     7
370
    25
100
AcDbLine
 10
715.969953
 20
597.176014
 30
0.0
 11
717.931623
 21
599.137683
 31
0.0
  0
LINE
  5
377
102
{ACAD_REACTORS
330
4CD
102
}
330
1F
100
AcDbEntity
  8
LC-001-005-----0
 62
     7
370
    25
100
AcDbLine
 10
612.796404
 20
595.825841
 30
0.0
 11
616.146394
 21
599.175831
 31
0.0
  0
LINE
  5
378
102
{ACAD_REACTORS
330
4CE
102
}
330
1F
100
AcDbEntity
  8
LC-001-005-----0
 62
     7
370
    25
100
AcDbLine
 10
709.867094
 20
593.901582
 30
0.0
 11
711.867094
 21
595.901582
 31
0.0
  0
LINE
  5
379
102
{ACAD_REACTORS
330
4CE
102
}
330
1F
100
AcDbEntity
  8
LC-001-005-----0
 62
     7
370
    25
100
AcDbLine
 10
713.1414
 20
597.175888
 30
0.0
 11
715.052948
 21
599.087436
 31
0.0
  0
LINE
  5
37A
102
{ACAD_REACTORS
330
4CE
102
}
330
1F
100
AcDbEntity
  8
LC-001-005-----0
 62
     7
370
    25
100
AcDbLine
 10
709.867094
 20
596.730009
 30
0.0
 11
712.174273
 21
599.037188
 31
0.0
  0
LINE
  5
37B
102
{ACAD_REACTORS
330
4CE
102
}
330
1F
100
AcDbEntity
  8
LC-001-005-----0
 62
     7
370
    25
100
AcDbLine
 10
729.367206
 20
604.916412
 30
0.0
 11
734.645354
 21
610.19456
 31
0.0
  0
LINE
  5
37C
330
1F
100
AcDbEntity
  8
LC-002-002-----0
 62
     7
370
    50
100
AcDbLine
 10
738.367266
 20
610.676521
 30
0.0
 11
738.655941
 21
610.176521
 31
0.0
  0
LINE
  5
37D
102
{ACAD_REACTORS
330
4CE
102
}
330
1F
100
AcDbEntity
  8
LC-001-005-----0
 62
     7
370
    25
100
AcDbLine
 10
729.367206
 20
602.087985
 30
0.0
 11
736.867583
 21
609.588362
 31
0.0
  0
LINE
  5
37E
330
1F
100
AcDbEntity
  8
LC-002-002-----0
  6
DASHDOT
 62
     7
370
    25
100
AcDbLine
 10
739.367583
 20
596.675831
 30
0.0
 11
739.367583
 21
610.676521
 31
0.0
  0
LINE
  5
37F
330
1F
100
AcDbEntity
  8
LC-002-002-----0
 62
     7
370
    50
100
AcDbLine
 10
563.367094
 20
551.675841
 30
0.0
 11
559.367094
 21
551.675841
 31
0.0
  0
LINE
  5
380
330
1F
100
AcDbEntity
  8
LC-002-002-----0
 62
     7
370
    50
100
AcDbLine
 10
606.367068
 20
611.675371
 30
0.0
 11
606.367068
 21
614.675831
 31
0.0
  0
LINE
  5
381
330
1F
100
AcDbEntity
  8
LC-002-002-----0
  6
DASHDOT
 62
     7
370
    25
100
AcDbLine
 10
669.367094
 20
498.675676
 30
0.0
 11
669.367094
 21
616.176114
 31
0.0
  0
LINE
  5
382
330
1F
100
AcDbEntity
  8
LC-002-002-----0
 62
     7
370
    50
100
AcDbLine
 10
566.367094
 20
548.675841
 30
0.0
 11
573.367094
 21
548.675841
 31
0.0
  0
ARC
  5
383
330
1F
100
AcDbEntity
  8
LC-003-002-RND-0
 62
     7
370
    50
100
AcDbCircle
 10
566.367094
 20
551.675841
 30
0.0
 40
3.0
100
AcDbArc
 50
180.0
 51
270.0
  0
LINE
  5
384
330
1F
100
AcDbEntity
  8
LC-002-002-----0
 62
     7
370
    50
100
AcDbLine
 10
577.367094
 20
553.675841
 30
0.0
 11
573.367094
 21
548.675841
 31
0.0
  0
LINE
  5
385
330
1F
100
AcDbEntity
  8
LC-002-002-----0
 62
     7
370
    50
100
AcDbLine
 10
577.367094
 20
553.675841
 30
0.0
 11
614.367094
 21
553.675841
 31
0.0
  0
LINE
  5
386
330
1F
100
AcDbEntity
  8
LC-002-002-----0
 62
     7
370
    50
100
AcDbLine
 10
559.367094
 20
553.175841
 30
0.0
 11
559.367094
 21
551.675841
 31
0.0
  0
DIMENSION
  5
387
330
1F
100
AcDbEntity
  8
LC-004-003-----0
 62
     7
370
    25
100
AcDbDimension
  2
*D21
 10
784.367094
 20
644.0
 30
0.0
 11
669.367094
 21
674.8
 31
0.0
 70
   160
  1
%%c<>
 71
     5
 42
230.0
  3
LC-DIM-L-0140-02-02
100
AcDbAlignedDimension
 13
554.367094
 23
615.661776
 33
0.0
 14
784.367094
 24
615.666557
 34
0.0
100
AcDbRotatedDimension
  0
LINE
  5
394
330
1F
100
AcDbEntity
  8
LC-002-002-----0
 62
     7
370
    50
100
AcDbLine
 10
559.367094
 20
553.175841
 30
0.0
 11
564.367094
 21
553.175841
 31
0.0
  0
LINE
  5
395
330
1F
100
AcDbEntity
  8
LC-002-002-----0
 62
     7
370
    50
100
AcDbLine
 10
564.367094
 20
553.175841
 30
0.0
 11
566.717094
 21
550.825841
 31
0.0
  0
LINE
  5
396
330
1F
100
AcDbEntity
  8
LC-002-002-----0
 62
     7
370
    50
100
AcDbLine
 10
566.717094
 20
550.825841
 30
0.0
 11
572.867094
 21
550.825841
 31
0.0
  0
ARC
  5
397
330
1F
100
AcDbEntity
  8
LC-002-002-----0
 62
     7
370
    50
100
AcDbCircle
 10
572.867094
 20
551.825841
 30
0.0
 40
1.0
100
AcDbArc
 50
270.0
 51
0.0
  0
LINE
  5
398
330
1F
100
AcDbEntity
  8
LC-002-002-----0
 62
     7
370
    50
100
AcDbLine
 10
573.867094
 20
555.525841
 30
0.0
 11
573.867094
 21
551.825841
 31
0.0
  0
LINE
  5
399
330
1F
100
AcDbEntity
  8
LC-002-002-----0
 62
     7
370
    50
100
AcDbLine
 10
573.867094
 20
555.525841
 30
0.0
 11
617.367094
 21
555.525841
 31
0.0
  0
LINE
  5
39A
330
1F
100
AcDbEntity
  8
LC-002-002-----0
 62
     7
370
    50
100
AcDbLine
 10
573.867094
 20
595.825841
 30
0.0
 11
613.867094
 21
595.825841
 31
0.0
  0
LINE
  5
39B
330
1F
100
AcDbEntity
  8
LC-002-002-----0
 62
     7
370
    50
100
AcDbLine
 10
573.867094
 20
595.825841
 30
0.0
 11
573.867094
 21
599.525841
 31
0.0
  0
ARC
  5
39C
330
1F
100
AcDbEntity
  8
LC-002-002-----0
 62
     7
370
    50
100
AcDbCircle
 10
572.867094
 20
599.525841
 30
0.0
 40
1.0
100
AcDbArc
 50
0.0
 51
90.0
  0
LINE
  5
39D
330
1F
100
AcDbEntity
  8
LC-002-002-----0
 62
     7
370
    50
100
AcDbLine
 10
566.717094
 20
600.525841
 30
0.0
 11
572.867094
 21
600.525841
 31
0.0
  0
LINE
  5
39E
330
1F
100
AcDbEntity
  8
LC-002-002-----0
 62
     7
370
    50
100
AcDbLine
 10
564.367094
 20
598.175841
 30
0.0
 11
566.717094
 21
600.525841
 31
0.0
  0
LINE
  5
39F
330
1F
100
AcDbEntity
  8
LC-002-002-----0
 62
     7
370
    50
100
AcDbLine
 10
559.367094
 20
598.175841
 30
0.0
 11
564.367094
 21
598.175841
 31
0.0
  0
LINE
  5
3A0
330
1F
100
AcDbEntity
  8
LC-002-002-----0
 62
     7
370
    50
100
AcDbLine
 10
573.867094
 20
598.736206
 30
0.0
 11
573.867094
 21
595.825841
 31
0.0
  0
LINE
  5
3A1
330
1F
100
AcDbEntity
  8
LC-002-002-----0
 62
     7
370
    50
100
AcDbLine
 10
559.367094
 20
598.175841
 30
0.0
 11
559.367094
 21
599.675841
 31
0.0
  0
LINE
  5
3A2
102
{ACAD_REACTORS
330
4CD
102
}
330
1F
100
AcDbEntity
  8
LC-001-005-----0
 62
     7
370
    25
100
AcDbLine
 10
609.967977
 20
595.825841
 30
0.0
 11
613.317966
 21
599.175831
 31
0.0
  0
LINE
  5
3A3
102
{ACAD_REACTORS
330
4CD
102
}
330
1F
100
AcDbEntity
  8
LC-001-005-----0
 62
     7
370
    25
100
AcDbLine
 10
607.13955
 20
595.825841
 30
0.0
 11
610.489539
 21
599.175831
 31
0.0
  0
LINE
  5
3A4
330
1F
100
AcDbEntity
  8
LC-002-002-----0
 62
     7
370
    50
100
AcDbLine
 10
738.078591
 20
610.176521
 30
0.0
 11
738.367266
 21
610.676521
 31
0.0
  0
ARC
  5
3A5
330
1F
100
AcDbEntity
  8
LC-003-002-RND-0
 62
     7
370
    50
100
AcDbCircle
 10
693.360776
 20
570.625841
 30
0.0
 40
2.000000000000003
100
AcDbArc
 50
48.414637
 51
180.0
  0
LINE
  5
3A6
330
1F
100
AcDbEntity
  8
LC-002-002-----0
 62
     7
370
    50
100
AcDbLine
 10
740.367352
 20
610.676521
 30
0.0
 11
740.656027
 21
610.176521
 31
0.0
  0
LINE
  5
3A7
330
1F
100
AcDbEntity
  8
LC-002-002-----0
 62
     7
370
    50
100
AcDbLine
 10
740.078677
 20
610.176521
 30
0.0
 11
740.367352
 21
610.676521
 31
0.0
  0
LINE
  5
3A8
330
1F
100
AcDbEntity
  8
LC-002-002-----0
 62
     7
370
    50
100
AcDbLine
 10
736.655855
 20
610.176521
 30
0.0
 11
742.078505
 21
610.176521
 31
0.0
  0
LINE
  5
3A9
330
1F
100
AcDbEntity
  8
LC-002-002-----0
 62
     7
370
    50
100
AcDbLine
 10
742.078505
 20
610.176521
 30
0.0
 11
742.36718
 21
610.676521
 31
0.0
  0
LINE
  5
3AA
330
1F
100
AcDbEntity
  8
LC-002-002-----0
 62
     7
370
    50
100
AcDbLine
 10
596.655683
 20
610.176521
 30
0.0
 11
596.367008
 21
610.676521
 31
0.0
  0
LINE
  5
3AB
330
1F
100
AcDbEntity
  8
LC-002-002-----0
 62
     7
370
    50
100
AcDbLine
 10
598.366921
 20
610.676521
 30
0.0
 11
598.078246
 21
610.176521
 31
0.0
  0
LINE
  5
3AC
330
1F
100
AcDbEntity
  8
LC-002-002-----0
 62
     7
370
    50
100
AcDbLine
 10
598.655597
 20
610.176521
 30
0.0
 11
598.366921
 21
610.676521
 31
0.0
  0
LINE
  5
3AD
330
1F
100
AcDbEntity
  8
LC-002-002-----0
 62
     7
370
    50
100
AcDbLine
 10
600.65551
 20
610.176521
 30
0.0
 11
600.366835
 21
610.676521
 31
0.0
  0
LINE
  5
3AE
330
1F
100
AcDbEntity
  8
LC-002-002-----0
 62
     7
370
    50
100
AcDbLine
 10
600.366835
 20
610.676521
 30
0.0
 11
600.07816
 21
610.176521
 31
0.0
  0
LINE
  5
3AF
330
1F
100
AcDbEntity
  8
LC-002-002-----0
 62
     7
370
    50
100
AcDbLine
 10
577.367094
 20
597.675841
 30
0.0
 11
573.367094
 21
602.675841
 31
0.0
  0
LINE
  5
3B0
330
1F
100
AcDbEntity
  8
LC-002-002-----0
 62
     7
370
    50
100
AcDbLine
 10
566.367094
 20
602.675841
 30
0.0
 11
573.367094
 21
602.675841
 31
0.0
  0
ARC
  5
3B1
330
1F
100
AcDbEntity
  8
LC-003-002-RND-0
 62
     7
370
    50
100
AcDbCircle
 10
566.367094
 20
599.675841
 30
0.0
 40
3.0
100
AcDbArc
 50
90.0
 51
180.0
  0
LINE
  5
3B2
330
1F
100
AcDbEntity
  8
LC-002-002-----0
 62
     7
370
    50
100
AcDbLine
 10
602.366749
 20
610.676521
 30
0.0
 11
602.078074
 21
610.176521
 31
0.0
  0
LINE
  5
3B3
330
1F
100
AcDbEntity
  8
LC-002-002-----0
 62
     7
370
    50
100
AcDbLine
 10
596.078332
 20
610.176521
 30
0.0
 11
595.366604
 21
610.176521
 31
0.0
  0
LINE
  5
3B4
330
1F
100
AcDbEntity
  8
LC-002-002-----0
 62
     7
370
    50
100
AcDbLine
 10
556.367094
 20
616.632863
 30
0.0
 11
782.30084
 21
616.632863
 31
0.0
  0
LINE
  5
3B5
102
{ACAD_REACTORS
330
4CD
102
}
330
1F
100
AcDbEntity
  8
LC-001-005-----0
 62
     7
370
    25
100
AcDbLine
 10
604.311122
 20
595.825841
 30
0.0
 11
609.367068
 21
600.881786
 31
0.0
  0
LINE
  5
3B6
102
{ACAD_REACTORS
330
4CD
102
}
330
1F
100
AcDbEntity
  8
LC-001-005-----0
 62
     7
370
    25
100
AcDbLine
 10
601.482695
 20
595.825841
 30
0.0
 11
609.367068
 21
603.710213
 31
0.0
  0
LINE
  5
3B7
102
{ACAD_REACTORS
330
4CD
102
}
330
1F
100
AcDbEntity
  8
LC-001-005-----0
 62
     7
370
    25
100
AcDbLine
 10
598.654268
 20
595.825841
 30
0.0
 11
599.504258
 21
596.675831
 31
0.0
  0
LINE
  5
3B8
102
{ACAD_REACTORS
330
4CD
102
}
330
1F
100
AcDbEntity
  8
LC-001-005-----0
 62
     7
370
    25
100
AcDbLine
 10
601.866604
 20
599.038177
 30
0.0
 11
609.367068
 21
606.53864
 31
0.0
  0
LINE
  5
3B9
102
{ACAD_REACTORS
330
4CD
102
}
330
1F
100
AcDbEntity
  8
LC-001-005-----0
 62
     7
370
    25
100
AcDbLine
 10
595.825841
 20
595.825841
 30
0.0
 11
596.866604
 21
596.866604
 31
0.0
  0
LINE
  5
3BA
102
{ACAD_REACTORS
330
4CD
102
}
330
1F
100
AcDbEntity
  8
LC-001-005-----0
 62
     7
370
    25
100
AcDbLine
 10
601.866604
 20
601.866604
 30
0.0
 11
609.367068
 21
609.367068
 31
0.0
  0
LINE
  5
3BB
102
{ACAD_REACTORS
330
4CD
102
}
330
1F
100
AcDbEntity
  8
LC-001-005-----0
 62
     7
370
    25
100
AcDbLine
 10
592.997414
 20
595.825841
 30
0.0
 11
596.866604
 21
599.695031
 31
0.0
  0
LINE
  5
3BC
102
{ACAD_REACTORS
330
4CD
102
}
330
1F
100
AcDbEntity
  8
LC-001-005-----0
 62
     7
370
    25
100
AcDbLine
 10
602.371807
 20
605.200234
 30
0.0
 11
608.847404
 21
611.675831
 31
0.0
  0
LINE
  5
3BD
102
{ACAD_REACTORS
330
4CD
102
}
330
1F
100
AcDbEntity
  8
LC-001-005-----0
 62
     7
370
    25
100
AcDbLine
 10
590.168987
 20
595.825841
 30
0.0
 11
592.018987
 21
597.675841
 31
0.0
  0
LINE
  5
3BE
102
{ACAD_REACTORS
330
4CD
102
}
330
1F
100
AcDbEntity
  8
LC-001-005-----0
 62
     7
370
    25
100
AcDbLine
 10
593.366572
 20
599.023426
 30
0.0
 11
596.866604
 21
602.523458
 31
0.0
  0
LINE
  5
3BF
102
{ACAD_REACTORS
330
4CD
102
}
330
1F
100
AcDbEntity
  8
LC-001-005-----0
 62
     7
370
    25
100
AcDbLine
 10
602.371809
 20
608.028663
 30
0.0
 11
604.605952
 21
610.262806
 31
0.0
  0
LINE
  5
3C0
102
{ACAD_REACTORS
330
4CD
102
}
330
1F
100
AcDbEntity
  8
LC-001-005-----0
 62
     7
370
    25
100
AcDbLine
 10
605.367094
 20
611.023948
 30
0.0
 11
606.018677
 21
611.675531
 31
0.0
  0
LINE
  5
3C1
102
{ACAD_REACTORS
330
4CD
102
}
330
1F
100
AcDbEntity
  8
LC-001-005-----0
 62
     7
370
    25
100
AcDbLine
 10
606.367068
 20
612.023922
 30
0.0
 11
608.367068
 21
614.023922
 31
0.0
  0
LINE
  5
3C2
102
{ACAD_REACTORS
330
4CD
102
}
330
1F
100
AcDbEntity
  8
LC-001-005-----0
 62
     7
370
    25
100
AcDbLine
 10
587.34056
 20
595.825841
 30
0.0
 11
589.19056
 21
597.675841
 31
0.0
  0
LINE
  5
3C3
102
{ACAD_REACTORS
330
4CD
102
}
330
1F
100
AcDbEntity
  8
LC-001-005-----0
 62
     7
370
    25
100
AcDbLine
 10
593.366572
 20
601.851853
 30
0.0
 11
596.373044
 21
604.858325
 31
0.0
  0
LINE
  5
3C4
330
1F
100
AcDbEntity
  8
LC-002-002-----0
 62
     7
370
    50
100
AcDbLine
 10
563.367094
 20
599.675841
 30
0.0
 11
559.367094
 21
599.675841
 31
0.0
  0
LINE
  5
3C5
330
1F
100
AcDbEntity
  8
LC-002-002-----0
 62
     7
370
    50
100
AcDbLine
 10
577.367094
 20
597.675841
 30
0.0
 11
593.366572
 21
597.675841
 31
0.0
  0
LINE
  5
3C6
102
{ACAD_REACTORS
330
4CD
102
}
330
1F
100
AcDbEntity
  8
LC-001-005-----0
 62
     7
370
    25
100
AcDbLine
 10
584.512133
 20
595.825841
 30
0.0
 11
586.362133
 21
597.675841
 31
0.0
  0
LINE
  5
3C7
102
{ACAD_REACTORS
330
4CD
102
}
330
1F
100
AcDbEntity
  8
LC-001-005-----0
 62
     7
370
    25
100
AcDbLine
 10
592.862813
 20
604.176521
 30
0.0
 11
596.373051
 21
607.68676
 31
0.0
  0
LINE
  5
3C8
102
{ACAD_REACTORS
330
4CD
102
}
330
1F
100
AcDbEntity
  8
LC-001-005-----0
 62
     7
370
    25
100
AcDbLine
 10
581.683705
 20
595.825841
 30
0.0
 11
583.533705
 21
597.675841
 31
0.0
  0
LINE
  5
3C9
102
{ACAD_REACTORS
330
4CD
102
}
330
1F
100
AcDbEntity
  8
LC-001-005-----0
 62
     7
370
    25
100
AcDbLine
 10
590.034386
 20
604.176521
 30
0.0
 11
592.534386
 21
606.676521
 31
0.0
  0
LINE
  5
3CA
330
1F
100
AcDbEntity
  8
LC-002-002-----0
 62
     7
370
    50
100
AcDbLine
 10
605.367094
 20
611.675831
 30
0.0
 11
606.367068
 21
611.675371
 31
0.0
  0
LINE
  5
3CB
102
{ACAD_REACTORS
330
4C9
102
}
330
1F
100
AcDbEntity
  8
LC-002-002-----0
 62
     7
370
    50
100
AcDbLine
 10
593.367094
 20
610.176521
 30
0.0
 11
593.367094
 21
606.676521
 31
0.0
  0
LINE
  5
3CC
102
{ACAD_REACTORS
330
4CD
102
}
330
1F
100
AcDbEntity
  8
LC-001-005-----0
 62
     7
370
    25
100
AcDbLine
 10
593.367094
 20
607.509229
 30
0.0
 11
596.034386
 21
610.176521
 31
0.0
  0
LINE
  5
3CD
102
{ACAD_REACTORS
330
4CD
102
}
330
1F
100
AcDbEntity
  8
LC-001-005-----0
 62
     7
370
    25
100
AcDbLine
 10
578.855278
 20
595.825841
 30
0.0
 11
580.705278
 21
597.675841
 31
0.0
  0
LINE
  5
3CE
102
{ACAD_REACTORS
330
4CD
102
}
330
1F
100
AcDbEntity
  8
LC-001-005-----0
 62
     7
370
    25
100
AcDbLine
 10
587.205959
 20
604.176521
 30
0.0
 11
589.705959
 21
606.676521
 31
0.0
  0
LINE
  5
3CF
102
{ACAD_REACTORS
330
4CD
102
}
330
1F
100
AcDbEntity
  8
LC-001-005-----0
 62
     7
370
    25
100
AcDbLine
 10
576.026851
 20
595.825841
 30
0.0
 11
577.876851
 21
597.675841
 31
0.0
  0
LINE
  5
3D0
102
{ACAD_REACTORS
330
4CD
102
}
330
1F
100
AcDbEntity
  8
LC-001-005-----0
 62
     7
370
    25
100
AcDbLine
 10
585.372052
 20
605.171042
 30
0.0
 11
586.877531
 21
606.676521
 31
0.0
  0
LINE
  5
3D1
102
{ACAD_REACTORS
330
4CD
102
}
330
1F
100
AcDbEntity
  8
LC-001-005-----0
 62
     7
370
    25
100
AcDbLine
 10
573.867094
 20
596.494511
 30
0.0
 11
576.336574
 21
598.963991
 31
0.0
  0
LINE
  5
3D2
102
{ACAD_REACTORS
330
4CD
102
}
330
1F
100
AcDbEntity
  8
LC-001-005-----0
 62
     7
370
    25
100
AcDbLine
 10
583.957838
 20
606.585255
 30
0.0
 11
586.366572
 21
608.993989
 31
0.0
  0
LINE
  5
3D3
102
{ACAD_REACTORS
330
4CD
102
}
330
1F
100
AcDbEntity
  8
LC-001-005-----0
 62
     7
370
    25
100
AcDbLine
 10
573.867094
 20
599.322938
 30
0.0
 11
575.079495
 21
600.535339
 31
0.0
  0
LINE
  5
3D4
102
{ACAD_REACTORS
330
4CD
102
}
330
1F
100
AcDbEntity
  8
LC-001-005-----0
 62
     7
370
    25
100
AcDbLine
 10
581.812996
 20
607.26884
 30
0.0
 11
584.720677
 21
610.176521
 31
0.0
  0
LINE
  5
3D5
102
{ACAD_REACTORS
330
4CD
102
}
330
1F
100
AcDbEntity
  8
LC-001-005-----0
 62
     7
370
    25
100
AcDbLine
 10
572.24157
 20
600.525841
 30
0.0
 11
573.822416
 21
602.106688
 31
0.0
  0
LINE
  5
3D6
102
{ACAD_REACTORS
330
4CD
102
}
330
1F
100
AcDbEntity
  8
LC-001-005-----0
 62
     7
370
    25
100
AcDbLine
 10
579.646945
 20
607.931217
 30
0.0
 11
582.471723
 21
610.755994
 31
0.0
  0
LINE
  5
3D7
102
{ACAD_REACTORS
330
4CD
102
}
330
1F
100
AcDbEntity
  8
LC-001-005-----0
 62
     7
370
    25
100
AcDbLine
 10
569.413143
 20
600.525841
 30
0.0
 11
571.563143
 21
602.675841
 31
0.0
  0
LINE
  5
3D8
102
{ACAD_REACTORS
330
4CD
102
}
330
1F
100
AcDbEntity
  8
LC-001-005-----0
 62
     7
370
    25
100
AcDbLine
 10
577.480895
 20
608.593593
 30
0.0
 11
580.305559
 21
611.418257
 31
0.0
  0
LINE
  5
3D9
102
{ACAD_REACTORS
330
4CD
102
}
330
1F
100
AcDbEntity
  8
LC-001-005-----0
 62
     7
370
    25
100
AcDbLine
 10
564.234716
 20
598.175841
 30
0.0
 11
568.734716
 21
602.675841
 31
0.0
  0
LINE
  5
3DA
102
{ACAD_REACTORS
330
4CD
102
}
330
1F
100
AcDbEntity
  8
LC-001-005-----0
 62
     7
370
    25
100
AcDbLine
 10
575.314844
 20
609.25597
 30
0.0
 11
578.139394
 21
612.08052
 31
0.0
  0
LINE
  5
3DB
102
{ACAD_REACTORS
330
4CD
102
}
330
1F
100
AcDbEntity
  8
LC-001-005-----0
 62
     7
370
    25
100
AcDbLine
 10
561.406288
 20
598.175841
 30
0.0
 11
562.906288
 21
599.675841
 31
0.0
  0
LINE
  5
3DC
102
{ACAD_REACTORS
330
4CD
102
}
330
1F
100
AcDbEntity
  8
LC-001-005-----0
 62
     7
370
    25
100
AcDbLine
 10
563.409619
 20
600.179171
 30
0.0
 11
565.863763
 21
602.633316
 31
0.0
  0
LINE
  5
3DD
102
{ACAD_REACTORS
330
4CD
102
}
330
1F
100
AcDbEntity
  8
LC-001-005-----0
 62
     7
370
    25
100
AcDbLine
 10
573.148794
 20
609.918346
 30
0.0
 11
575.97323
 21
612.742783
 31
0.0
  0
LINE
  5
3DE
102
{ACAD_REACTORS
330
4CD
102
}
330
1F
100
AcDbEntity
  8
LC-001-005-----0
 62
     7
370
    25
100
AcDbLine
 10
559.367094
 20
598.965073
 30
0.0
 11
560.077861
 21
599.675841
 31
0.0
  0
LINE
  5
3DF
330
1F
100
AcDbEntity
  8
LC-002-002-----0
 62
     7
370
    50
100
AcDbLine
 10
745.367094
 20
610.176521
 30
0.0
 11
745.367094
 21
606.676521
 31
0.0
  0
LINE
  5
3E0
330
1F
100
AcDbEntity
  8
LC-002-002-----0
 62
     7
370
    50
100
AcDbLine
 10
733.367094
 20
610.176521
 30
0.0
 11
734.078419
 21
610.176521
 31
0.0
  0
LINE
  5
3E1
102
{ACAD_REACTORS
330
4C9
102
}
330
1F
100
AcDbEntity
  8
LC-002-002-----0
 62
     7
370
    50
100
AcDbLine
 10
605.367094
 20
610.176521
 30
0.0
 11
604.655769
 21
610.176521
 31
0.0
  0
LINE
  5
3E2
330
1F
100
AcDbEntity
  8
LC-002-002-----0
 62
     7
370
    50
100
AcDbLine
 10
745.367615
 20
606.676521
 30
0.0
 11
752.367615
 21
606.676521
 31
0.0
  0
LINE
  5
3E3
330
1F
100
AcDbEntity
  8
LC-002-002-----0
 62
     7
370
    50
100
AcDbLine
 10
752.367615
 20
606.676521
 30
0.0
 11
752.367615
 21
610.176521
 31
0.0
  0
LINE
  5
3E4
102
{ACAD_REACTORS
330
4CD
102
}
330
1F
100
AcDbEntity
  8
LC-001-005-----0
 62
     7
370
    25
100
AcDbLine
 10
570.982743
 20
610.580723
 30
0.0
 11
573.807066
 21
613.405046
 31
0.0
  0
LINE
  5
3E5
102
{ACAD_REACTORS
330
4CD
102
}
330
1F
100
AcDbEntity
  8
LC-001-005-----0
 62
     7
370
    25
100
AcDbLine
 10
568.816693
 20
611.2431
 30
0.0
 11
571.640902
 21
614.067309
 31
0.0
  0
LINE
  5
3E6
102
{ACAD_REACTORS
330
4C9
102
}
330
1F
100
AcDbEntity
  8
LC-002-002-----0
 62
     7
370
    50
100
AcDbLine
 10
593.366572
 20
606.676521
 30
0.0
 11
586.366572
 21
606.676521
 31
0.0
  0
LINE
  5
3E7
330
1F
100
AcDbEntity
  8
LC-002-002-----0
 62
     7
370
    50
100
AcDbLine
 10
745.367615
 20
604.176521
 30
0.0
 11
752.367615
 21
604.176521
 31
0.0
  0
LINE
  5
3E8
330
1F
100
AcDbEntity
  8
LC-002-002-----0
 62
     7
370
    50
100
AcDbLine
 10
752.367615
 20
604.176521
 30
0.0
 11
754.816242
 21
606.625148
 31
0.0
  0
LINE
  5
3E9
102
{ACAD_REACTORS
330
4C9
102
}
330
1F
100
AcDbEntity
  8
LC-002-002-----0
 62
     7
370
    50
100
AcDbLine
 10
586.366572
 20
606.676521
 30
0.0
 11
586.366572
 21
610.176521
 31
0.0
  0
LINE
  5
3EA
330
1F
100
AcDbEntity
  8
LC-002-002-----0
 62
     7
370
    50
100
AcDbLine
 10
734.078419
 20
610.176521
 30
0.0
 11
734.367094
 21
610.676521
 31
0.0
  0
LINE
  5
3EB
330
1F
100
AcDbEntity
  8
LC-002-002-----0
 62
     7
370
    50
100
AcDbLine
 10
734.367094
 20
610.676521
 30
0.0
 11
734.655769
 21
610.176521
 31
0.0
  0
LINE
  5
3EC
330
1F
100
AcDbEntity
  8
LC-002-002-----0
 62
     7
370
    50
100
AcDbLine
 10
734.655769
 20
610.176521
 30
0.0
 11
735.367583
 21
610.176521
 31
0.0
  0
LINE
  5
3ED
102
{ACAD_REACTORS
330
4CD
102
}
330
1F
100
AcDbEntity
  8
LC-001-005-----0
 62
     7
370
    25
100
AcDbLine
 10
566.650642
 20
611.905476
 30
0.0
 11
569.474737
 21
614.729571
 31
0.0
  0
LINE
  5
3EE
102
{ACAD_REACTORS
330
4CD
102
}
330
1F
100
AcDbEntity
  8
LC-001-005-----0
 62
     7
370
    25
100
AcDbLine
 10
564.484592
 20
612.567853
 30
0.0
 11
567.308573
 21
615.391834
 31
0.0
  0
LINE
  5
3EF
102
{ACAD_REACTORS
330
4CD
102
}
330
1F
100
AcDbEntity
  8
LC-001-005-----0
 62
     7
370
    25
100
AcDbLine
 10
561.95151
 20
612.863198
 30
0.0
 11
565.142409
 21
616.054097
 31
0.0
  0
LINE
  5
3F0
102
{ACAD_REACTORS
330
4CD
102
}
330
1F
100
AcDbEntity
  8
LC-001-005-----0
 62
     7
370
    25
100
AcDbLine
 10
559.226737
 20
612.966852
 30
0.0
 11
562.684458
 21
616.424573
 31
0.0
  0
LINE
  5
3F1
330
1F
100
AcDbEntity
  8
LC-002-002-----0
 62
     7
370
    50
100
AcDbLine
 10
744.367094
 20
610.676521
 30
0.0
 11
744.655769
 21
610.176521
 31
0.0
  0
LINE
  5
3F2
102
{ACAD_REACTORS
330
4CD
102
}
330
1F
100
AcDbEntity
  8
LC-001-005-----0
 62
     7
370
    25
100
AcDbLine
 10
556.501964
 20
613.070506
 30
0.0
 11
559.946771
 21
616.515314
 31
0.0
  0
LINE
  5
3F3
102
{ACAD_REACTORS
330
4CD
102
}
330
1F
100
AcDbEntity
  8
LC-001-005-----0
 62
     7
370
    25
100
AcDbLine
 10
554.367094
 20
613.764063
 30
0.0
 11
557.209084
 21
616.606054
 31
0.0
  0
LINE
  5
3F4
330
1F
100
AcDbEntity
  8
LC-002-002-----0
 62
     7
370
    50
100
AcDbLine
 10
774.992745
 20
612.795107
 30
0.0
 11
784.367094
 21
613.15172
 31
0.0
  0
LINE
  5
3F5
330
1F
100
AcDbEntity
  8
LC-002-002-----0
 62
     7
370
    25
100
AcDbLine
 10
784.367094
 20
614.632863
 30
0.0
 11
784.367094
 21
615.666557
 31
0.0
  0
LINE
  5
3F6
330
1F
100
AcDbEntity
  8
LC-002-002-----0
 62
     7
370
    50
100
AcDbLine
 10
744.078419
 20
610.176521
 30
0.0
 11
744.367094
 21
610.676521
 31
0.0
  0
DIMENSION
  5
3F7
330
1F
100
AcDbEntity
  8
LC-004-003-----0
 62
     7
370
    25
100
AcDbDimension
  2
*D22
 10
828.0
 20
569.7061
 30
0.0
 11
797.2
 21
631.315
 31
0.0
 70
   160
  1
43
 71
     5
 42
43.089007
 53
90.0
  3
LC-DIM-L-0140-02-02
100
AcDbAlignedDimension
 13
774.992745
 23
612.795107
 33
0.0
 14
772.960141
 24
569.7061
 34
0.0
 50
90.0
100
AcDbRotatedDimension
  0
LINE
  5
405
330
1F
100
AcDbEntity
  8
LC-002-002-----0
 62
     7
370
    50
100
AcDbLine
 10
744.655769
 20
610.176521
 30
0.0
 11
745.367094
 21
610.176521
 31
0.0
  0
LINE
  5
406
102
{ACAD_REACTORS
330
4C9
102
}
330
1F
100
AcDbEntity
  8
LC-002-002-----0
 62
     7
370
    50
100
AcDbLine
 10
593.366572
 20
604.176521
 30
0.0
 11
586.366572
 21
604.176521
 31
0.0
  0
LINE
  5
407
102
{ACAD_REACTORS
330
4C9
102
}
330
1F
100
AcDbEntity
  8
LC-002-002-----0
 62
     7
370
    50
100
AcDbLine
 10
586.366572
 20
604.176521
 30
0.0
 11
583.917945
 21
606.625148
 31
0.0
  0
LINE
  5
408
102
{ACAD_REACTORS
330
4C9
102
}
330
1F
100
AcDbEntity
  8
LC-002-002-----0
 62
     7
370
    50
100
AcDbLine
 10
604.655769
 20
610.176521
 30
0.0
 11
604.367094
 21
610.676521
 31
0.0
  0
LINE
  5
409
102
{ACAD_REACTORS
330
4C9
102
}
330
1F
100
AcDbEntity
  8
LC-002-002-----0
 62
     7
370
    50
100
AcDbLine
 10
604.367094
 20
610.676521
 30
0.0
 11
604.078419
 21
610.176521
 31
0.0
  0
LINE
  5
40A
102
{ACAD_REACTORS
330
4C9
102
}
330
1F
100
AcDbEntity
  8
LC-002-002-----0
 62
     7
370
    50
100
AcDbLine
 10
604.078419
 20
610.176521
 30
0.0
 11
603.366604
 21
610.176521
 31
0.0
  0
LINE
  5
40B
102
{ACAD_REACTORS
330
4C9
102
}
330
1F
100
AcDbEntity
  8
LC-002-002-----0
 62
     7
370
    50
100
AcDbLine
 10
594.367094
 20
610.676521
 30
0.0
 11
594.078419
 21
610.176521
 31
0.0
  0
LINE
  5
40C
102
{ACAD_REACTORS
330
4C9
102
}
330
1F
100
AcDbEntity
  8
LC-002-002-----0
 62
     7
370
    50
100
AcDbLine
 10
594.655769
 20
610.176521
 30
0.0
 11
594.367094
 21
610.676521
 31
0.0
  0
LINE
  5
40D
102
{ACAD_REACTORS
330
4C9
102
}
330
1F
100
AcDbEntity
  8
LC-002-002-----0
 62
     7
370
    50
100
AcDbLine
 10
595.366604
 20
610.176521
 30
0.0
 11
594.655769
 21
610.176521
 31
0.0
  0
LINE
  5
40E
102
{ACAD_REACTORS
330
4C9
102
}
330
1F
100
AcDbEntity
  8
LC-002-002-----0
 62
     7
370
    50
100
AcDbLine
 10
594.078419
 20
610.176521
 30
0.0
 11
593.367094
 21
610.176521
 31
0.0
  0
LINE
  5
40F
102
{ACAD_REACTORS
330
4C9
102
}
330
1F
100
AcDbEntity
  8
LC-002-002-----0
 62
     7
370
    50
100
AcDbLine
 10
586.366572
 20
610.176521
 30
0.0
 11
584.367094
 21
610.176521
 31
0.0
  0
LINE
  5
410
330
1F
100
AcDbEntity
  8
LC-002-002-----0
 62
     7
370
    50
100
AcDbLine
 10
608.367068
 20
611.675831
 30
0.0
 11
608.367068
 21
614.675831
 31
0.0
  0
LINE
  5
411
330
1F
100
AcDbEntity
  8
LC-002-002-----0
 62
     7
370
    50
100
AcDbLine
 10
774.652023
 20
616.378247
 30
0.0
 11
782.300877
 21
616.631767
 31
0.0
  0
LINE
  5
412
330
1F
100
AcDbEntity
  8
LC-002-002-----0
 62
     7
370
    50
100
AcDbLine
 10
613.867094
 20
595.825841
 30
0.0
 11
617.367094
 21
595.825841
 31
0.0
  0
LINE
  5
413
330
1F
100
AcDbEntity
  8
LC-002-002-----0
 62
     7
370
    50
100
AcDbLine
 10
617.367094
 20
595.825841
 30
0.0
 11
617.367094
 21
595.825841
 31
0.0
  0
ARC
  5
414
330
1F
100
AcDbEntity
  8
LC-002-002-----0
 62
     7
370
    50
100
AcDbCircle
 10
753.867538
 20
569.7061
 30
0.0
 40
29.58737299402693
100
AcDbArc
 50
78.902197
 51
106.695308
  0
LINE
  5
415
330
1F
100
AcDbEntity
  8
LC-002-002-----0
 62
     7
370
    50
100
AcDbLine
 10
564.082164
 20
616.378247
 30
0.0
 11
556.36713
 21
616.63396
 31
0.0
  0
LINE
  5
416
330
1F
100
AcDbEntity
  8
LC-002-002-----0
 62
     7
370
    50
100
AcDbLine
 10
584.367094
 20
610.176521
 30
0.0
 11
564.082164
 21
616.378247
 31
0.0
  0
LINE
  5
417
330
1F
100
AcDbEntity
  8
LC-002-002-----0
 62
     7
370
    50
100
AcDbLine
 10
583.917945
 20
606.625148
 30
0.0
 11
563.741443
 21
612.795107
 31
0.0
  0
LINE
  5
418
330
1F
100
AcDbEntity
  8
LC-002-002-----0
 62
     7
370
    50
100
AcDbLine
 10
754.816366
 20
606.625186
 30
0.0
 11
774.992745
 21
612.795107
 31
0.0
  0
LINE
  5
419
330
1F
100
AcDbEntity
  8
LC-002-002-----0
 62
     7
370
    50
100
AcDbLine
 10
754.367094
 20
610.176521
 30
0.0
 11
774.652023
 21
616.378247
 31
0.0
  0
LINE
  5
41A
330
1F
100
AcDbEntity
  8
LC-002-002-----0
 62
     7
370
    50
100
AcDbLine
 10
614.367094
 20
553.675841
 30
0.0
 11
614.367094
 21
511.675676
 31
0.0
  0
LINE
  5
41B
330
1F
100
AcDbEntity
  8
LC-002-002-----0
 62
     7
370
    50
100
AcDbLine
 10
601.866604
 20
610.176521
 30
0.0
 11
601.866604
 21
596.675831
 31
0.0
  0
LINE
  5
41C
330
1F
100
AcDbEntity
  8
LC-002-002-----0
 62
     7
370
    50
100
AcDbLine
 10
596.866604
 20
610.176521
 30
0.0
 11
596.866604
 21
596.675831
 31
0.0
  0
LINE
  5
41D
330
1F
100
AcDbEntity
  8
LC-002-002-----0
 62
     7
370
    50
100
AcDbLine
 10
617.367094
 20
597.175831
 30
0.0
 11
617.367094
 21
595.825841
 31
0.0
  0
LINE
  5
41E
330
1F
100
AcDbEntity
  8
LC-002-002-----0
 62
     7
370
    50
100
AcDbLine
 10
596.866604
 20
596.675831
 30
0.0
 11
601.866604
 21
596.675831
 31
0.0
  0
LINE
  5
41F
330
1F
100
AcDbEntity
  8
LC-002-002-----0
 62
     7
370
    50
100
AcDbLine
 10
609.367068
 20
611.675831
 30
0.0
 11
669.367094
 21
611.675831
 31
0.0
  0
LINE
  5
420
330
1F
100
AcDbEntity
  8
LC-002-002-----0
 62
     7
370
    50
100
AcDbLine
 10
609.367068
 20
611.675831
 30
0.0
 11
608.367068
 21
611.675831
 31
0.0
  0
LINE
  5
421
330
1F
100
AcDbEntity
  8
LC-002-002-----0
 62
     7
370
    50
100
AcDbLine
 10
609.367068
 20
611.675831
 30
0.0
 11
609.367068
 21
599.175831
 31
0.0
  0
LINE
  5
422
330
1F
100
AcDbEntity
  8
LC-002-002-----0
 62
     7
370
    50
100
AcDbLine
 10
741.867583
 20
596.675831
 30
0.0
 11
736.867583
 21
596.675831
 31
0.0
  0
LINE
  5
423
330
1F
100
AcDbEntity
  8
LC-002-002-----0
 62
     7
370
    50
100
AcDbLine
 10
736.867583
 20
610.176521
 30
0.0
 11
736.867583
 21
596.675831
 31
0.0
  0
LINE
  5
424
330
1F
100
AcDbEntity
  8
LC-002-002-----0
 62
     7
370
    50
100
AcDbLine
 10
741.867583
 20
610.176521
 30
0.0
 11
741.867583
 21
596.675831
 31
0.0
  0
LINE
  5
425
330
1F
100
AcDbEntity
  8
LC-002-002-----0
 62
     7
370
    50
100
AcDbLine
 10
745.367615
 20
604.176521
 30
0.0
 11
745.367615
 21
598.062972
 31
0.0
  0
LINE
  5
426
330
1F
100
AcDbEntity
  8
LC-002-002-----0
 62
     7
370
    50
100
AcDbLine
 10
733.367094
 20
611.676521
 30
0.0
 11
729.367206
 21
611.676521
 31
0.0
  0
LINE
  5
427
330
1F
100
AcDbEntity
  8
LC-002-002-----0
 62
     7
370
    50
100
AcDbLine
 10
752.367615
 20
610.176521
 30
0.0
 11
754.367094
 21
610.176521
 31
0.0
  0
LINE
  5
428
330
1F
100
AcDbEntity
  8
LC-002-002-----0
 62
     7
370
    50
100
AcDbLine
 10
729.367206
 20
611.675831
 30
0.0
 11
729.367206
 21
599.175831
 31
0.0
  0
LINE
  5
429
330
1F
100
AcDbEntity
  8
LC-002-002-----0
 62
     7
370
    50
100
AcDbLine
 10
669.367094
 20
611.675831
 30
0.0
 11
729.367206
 21
611.675831
 31
0.0
  0
LINE
  5
42A
330
1F
100
AcDbEntity
  8
LC-002-002-----0
 62
     7
370
    50
100
AcDbLine
 10
735.866401
 20
542.2061
 30
0.0
 11
738.366401
 21
542.2061
 31
0.0
  0
LINE
  5
42B
330
1F
100
AcDbEntity
  8
LC-002-002-----0
 62
     7
370
    50
100
AcDbLine
 10
735.866401
 20
544.7061
 30
0.0
 11
735.866401
 21
542.2061
 31
0.0
  0
LINE
  5
42C
330
1F
100
AcDbEntity
  8
LC-002-002-----0
 62
     7
370
    50
100
AcDbLine
 10
738.366401
 20
544.504366
 30
0.0
 11
738.366401
 21
542.2061
 31
0.0
  0
ARC
  5
42E
330
1F
100
AcDbEntity
  8
LC-010-205-----0
 62
     7
370
    50
100
AcDbCircle
 10
763.966401
 20
595.2061
 30
0.0
 40
0.5000000000002274
100
AcDbArc
 50
270.0
 51
0.0
  0
ARC
  5
42F
330
1F
100
AcDbEntity
  8
LC-002-002-----0
 62
     7
370
    50
100
AcDbCircle
 10
753.867538
 20
569.7061
 30
0.0
 40
29.6025923914001
100
AcDbArc
 50
53.522709
 51
68.309138
  0
LINE
  5
430
330
1F
100
AcDbEntity
  8
LC-010-205-----0
 62
     7
370
    50
100
AcDbLine
 10
771.466401
 20
593.509324
 30
0.0
 11
771.466401
 21
591.7061
 31
0.0
  0
LINE
  5
431
330
1F
100
AcDbEntity
  8
LC-010-205-----0
 62
     7
370
    50
100
AcDbLine
 10
771.466401
 20
591.7061
 30
0.0
 11
771.466401
 21
547.7061
 31
0.0
  0
LINE
  5
432
330
1F
100
AcDbEntity
  8
LC-002-002-----0
 62
     7
370
    50
100
AcDbLine
 10
681.360776
 20
501.675676
 30
0.0
 11
627.367094
 21
501.675676
 31
0.0
  0
LINE
  5
433
330
1F
100
AcDbEntity
  8
LC-010-205-----0
 62
     7
370
    50
100
AcDbLine
 10
771.466401
 20
547.7061
 30
0.0
 11
771.466401
 21
545.9061
 31
0.0
  0
LINE
  5
434
330
1F
100
AcDbEntity
  8
LC-010-205-----0
 62
     7
370
    50
100
AcDbLine
 10
760.466401
 20
544.7061
 30
0.0
 11
763.966401
 21
544.7061
 31
0.0
  0
ARC
  5
435
330
1F
100
AcDbEntity
  8
LC-010-205-----0
 62
     7
370
    50
100
AcDbCircle
 10
763.966401
 20
544.2061
 30
0.0
 40
0.5
100
AcDbArc
 50
0.0
 51
90.0
  0
LINE
  5
436
330
1F
100
AcDbEntity
  8
LC-010-205-----0
 62
     7
370
    50
100
AcDbLine
 10
764.466401
 20
544.2061
 30
0.0
 11
764.466401
 21
542.508586
 31
0.0
  0
ARC
  5
437
330
1F
100
AcDbEntity
  8
LC-010-205-----0
 62
     7
370
    50
100
AcDbCircle
 10
764.766401
 20
542.508586
 30
0.0
 40
0.2999999999997272
100
AcDbArc
 50
180.0
 51
291.837464
  0
ARC
  5
438
330
1F
100
AcDbEntity
  8
LC-010-205-----0
 62
     7
370
    50
100
AcDbCircle
 10
753.867538
 20
569.7061
 30
0.0
 40
29.60000000000002
100
AcDbArc
 50
291.837464
 51
306.482667
  0
LINE
  5
439
330
1F
100
AcDbEntity
  8
LC-002-002-----0
 62
     7
370
    50
100
AcDbLine
 10
728.447473
 20
547.7061
 30
0.0
 11
771.466401
 21
547.7061
 31
0.0
  0
LINE
  5
43A
330
1F
100
AcDbEntity
  8
LC-010-205-----0
 62
     7
370
    50
100
AcDbLine
 10
759.966401
 20
598.249541
 30
0.0
 11
759.966401
 21
595.2061
 31
0.0
  0
LINE
  5
43B
330
1F
100
AcDbEntity
  8
LC-010-205-----0
 62
     7
370
    50
100
AcDbLine
 10
764.466401
 20
596.980792
 30
0.0
 11
764.466401
 21
595.2061
 31
0.0
  0
LINE
  5
43C
330
1F
100
AcDbEntity
  8
LC-010-205-----0
 62
     7
370
    50
100
AcDbLine
 10
760.466401
 20
594.7061
 30
0.0
 11
763.966401
 21
594.7061
 31
0.0
  0
ARC
  5
43D
330
1F
100
AcDbEntity
  8
LC-010-205-----0
 62
     7
370
    50
100
AcDbCircle
 10
760.466401
 20
595.2061
 30
0.0
 40
0.5
100
AcDbArc
 50
180.0
 51
270.0
  0
LINE
  5
43E
330
1F
100
AcDbEntity
  8
LC-010-205-----0
 62
     7
370
    50
100
AcDbLine
 10
759.966401
 20
544.2061
 30
0.0
 11
759.966401
 21
540.944784
 31
0.0
  0
ARC
  5
43F
330
1F
100
AcDbEntity
  8
LC-010-205-----0
 62
     7
370
    50
100
AcDbCircle
 10
760.466401
 20
544.2061
 30
0.0
 40
0.5
100
AcDbArc
 50
90.0
 51
180.0
  0
ARC
  5
440
330
1F
100
AcDbEntity
  8
LC-010-205-----0
 62
     7
370
    50
100
AcDbCircle
 10
764.716401
 20
596.980792
 30
0.0
 40
0.2500000000000429
100
AcDbArc
 50
68.305797
 51
180.0
  0
ARC
  5
441
330
1F
100
AcDbEntity
  8
LC-010-205-----0
 62
     7
370
    50
100
AcDbCircle
 10
759.716401
 20
540.944784
 30
0.0
 40
0.2499999999637476
100
AcDbArc
 50
299.859129
 51
0.0
  0
LINE
  5
442
330
1F
100
AcDbEntity
  8
LC-010-205-----0
 62
     7
370
    50
100
AcDbLine
 10
728.958171
 20
544.7061
 30
0.0
 11
735.866401
 21
544.7061
 31
0.0
  0
ARC
  5
443
330
1F
100
AcDbEntity
  8
LC-003-002-RND-0
 62
     7
370
    50
100
AcDbCircle
 10
627.367094
 20
511.675676
 30
0.0
 40
13.0
100
AcDbArc
 50
180.0
 51
270.0
  0
ARC
  5
444
330
1F
100
AcDbEntity
  8
LC-003-002-RND-0
 62
     7
370
    50
100
AcDbCircle
 10
681.360776
 20
511.675676
 30
0.0
 40
13.0
100
AcDbArc
 50
270.0
 51
0.0
  0
LINE
  5
445
330
1F
100
AcDbEntity
  8
LC-002-002-----0
 62
     7
370
    50
100
AcDbLine
 10
691.360776
 20
511.675676
 30
0.0
 11
691.360776
 21
570.625841
 31
0.0
  0
ARC
  5
446
330
1F
100
AcDbEntity
  8
LC-003-002-RND-0
 62
     7
370
    50
100
AcDbCircle
 10
627.367094
 20
511.675676
 30
0.0
 40
10.0
100
AcDbArc
 50
180.0
 51
270.0
  0
ARC
  5
447
330
1F
100
AcDbEntity
  8
LC-003-002-RND-0
 62
     7
370
    50
100
AcDbCircle
 10
681.360776
 20
511.675676
 30
0.0
 40
10.0
100
AcDbArc
 50
270.0
 51
360.0
  0
LINE
  5
448
330
1F
100
AcDbEntity
  8
LC-002-002-----0
 62
     7
370
    50
100
AcDbLine
 10
694.360776
 20
568.63867
 30
0.0
 11
694.360776
 21
511.675676
 31
0.0
  0
LINE
  5
449
330
1F
100
AcDbEntity
  8
LC-002-002-----0
 62
     7
370
    50
100
AcDbLine
 10
771.466401
 20
591.7061
 30
0.0
 11
727.367206
 21
591.7061
 31
0.0
  0
LINE
  5
44A
330
1F
100
AcDbEntity
  8
LC-002-002-----0
 62
     7
370
    50
100
AcDbLine
 10
593.366572
 20
604.176521
 30
0.0
 11
593.366572
 21
597.675841
 31
0.0
  0
LINE
  5
44B
330
1F
100
AcDbEntity
  8
LC-002-002-----0
 62
     7
370
    50
100
AcDbLine
 10
681.360776
 20
498.675676
 30
0.0
 11
627.367094
 21
498.675676
 31
0.0
  0
LINE
  5
44C
330
1F
100
AcDbEntity
  8
LC-002-002-----0
  6
DASHDOT
 62
     7
370
    25
100
AcDbLine
 10
617.367094
 20
575.675841
 30
0.0
 11
559.367094
 21
575.675841
 31
0.0
  0
LINE
  5
44D
102
{ACAD_REACTORS
330
4C8
102
}
330
1F
100
AcDbEntity
  8
LC-002-002-----0
 62
     7
370
    50
100
AcDbLine
 10
557.285644
 20
601.675841
 30
0.0
 11
557.285644
 21
549.675841
 31
0.0
  0
LINE
  5
44E
102
{ACAD_REACTORS
330
4C8
102
}
330
1F
100
AcDbEntity
  8
LC-002-002-----0
 62
     7
370
    50
100
AcDbLine
 10
557.285644
 20
549.675841
 30
0.0
 11
559.285644
 21
549.675841
 31
0.0
  0
LINE
  5
44F
102
{ACAD_REACTORS
330
4C8
102
}
330
1F
100
AcDbEntity
  8
LC-002-002-----0
 62
     7
370
    50
100
AcDbLine
 10
559.285644
 20
549.675841
 30
0.0
 11
559.285644
 21
555.675841
 31
0.0
  0
LINE
  5
450
102
{ACAD_REACTORS
330
4C8
102
}
330
1F
100
AcDbEntity
  8
LC-002-002-----0
 62
     7
370
    50
100
AcDbLine
 10
559.285644
 20
555.675841
 30
0.0
 11
581.285644
 21
555.675841
 31
0.0
  0
LINE
  5
451
102
{ACAD_REACTORS
330
4C8
102
}
330
1F
100
AcDbEntity
  8
LC-002-002-----0
 62
     7
370
    50
100
AcDbLine
 10
584.285644
 20
556.479689
 30
0.0
 11
584.285644
 21
594.871993
 31
0.0
  0
LINE
  5
452
102
{ACAD_REACTORS
330
4C8
102
}
330
1F
100
AcDbEntity
  8
LC-002-002-----0
 62
     7
370
    50
100
AcDbLine
 10
581.285644
 20
595.675841
 30
0.0
 11
559.285644
 21
595.675841
 31
0.0
  0
LINE
  5
453
102
{ACAD_REACTORS
330
4C8
102
}
330
1F
100
AcDbEntity
  8
LC-002-002-----0
 62
     7
370
    50
100
AcDbLine
 10
559.285644
 20
595.675841
 30
0.0
 11
559.285644
 21
601.675841
 31
0.0
  0
LINE
  5
454
102
{ACAD_REACTORS
330
4C8
102
}
330
1F
100
AcDbEntity
  8
LC-002-002-----0
 62
     7
370
    50
100
AcDbLine
 10
559.285644
 20
601.675841
 30
0.0
 11
557.285644
 21
601.675841
 31
0.0
  0
LINE
  5
455
102
{ACAD_REACTORS
330
4C8
102
}
330
1F
100
AcDbEntity
  8
LC-002-002-----0
 62
     7
370
    50
100
AcDbLine
 10
582.285644
 20
558.675841
 30
0.0
 11
582.285644
 21
592.675841
 31
0.0
  0
LINE
  5
456
102
{ACAD_REACTORS
330
4C8
102
}
330
1F
100
AcDbEntity
  8
LC-002-002-----0
 62
     7
370
    50
100
AcDbLine
 10
581.285644
 20
593.675841
 30
0.0
 11
557.285644
 21
593.675841
 31
0.0
  0
LINE
  5
457
102
{ACAD_REACTORS
330
4C8
102
}
330
1F
100
AcDbEntity
  8
LC-002-002-----0
 62
     7
370
    50
100
AcDbLine
 10
557.285644
 20
557.675841
 30
0.0
 11
581.285644
 21
557.675841
 31
0.0
  0
LINE
  5
458
102
{ACAD_REACTORS
330
4C8
102
}
330
1F
100
AcDbEntity
  8
LC-002-002-----0
 62
     7
370
    50
100
AcDbLine
 10
584.285644
 20
594.871993
 30
0.0
 11
581.285644
 21
595.675841
 31
0.0
  0
LINE
  5
459
102
{ACAD_REACTORS
330
4C8
102
}
330
1F
100
AcDbEntity
  8
LC-002-002-----0
 62
     7
370
    50
100
AcDbLine
 10
584.285644
 20
556.479689
 30
0.0
 11
581.285644
 21
555.675841
 31
0.0
  0
ARC
  5
45A
102
{ACAD_REACTORS
330
4C8
102
}
330
1F
100
AcDbEntity
  8
LC-003-002-RND-0
 62
     7
370
    50
100
AcDbCircle
 10
581.285644
 20
592.675841
 30
0.0
 40
1.0
100
AcDbArc
 50
0.0
 51
90.0
  0
ARC
  5
45B
102
{ACAD_REACTORS
330
4C8
102
}
330
1F
100
AcDbEntity
  8
LC-003-002-RND-0
 62
     7
370
    50
100
AcDbCircle
 10
581.285644
 20
558.675841
 30
0.0
 40
1.0
100
AcDbArc
 50
270.0
 51
0.0
  0
INSERT
  5
483
102
{ACAD_REACTORS
330
4C8
102
}
330
1F
100
AcDbEntity
  8
LC-001-005-----0
 62
     7
370
    25
100
AcDbBlockReference
  2
*X1523
 10
0.0
 20
0.0
 30
0.0
  0
DIMENSION
  5
484
330
1F
100
AcDbEntity
  8
LC-004-003-----0
 62
     7
370
    25
100
AcDbDimension
  2
*D24
 10
860.367094
 20
504.0
 30
0.0
 11
778.743515
 21
534.8
 31
0.0
 70
   160
 71
     5
 42
136.0
  3
LC-DIM-L-0140-02-02
100
AcDbAlignedDimension
 13
724.367094
 23
498.675676
 33
0.0
 14
860.367094
 24
546.9561
 34
0.0
100
AcDbRotatedDimension
  0
LINE
  5
491
102
{ACAD_REACTORS
330
4C7
102
}
330
1F
100
AcDbEntity
  8
LC-002-002-----0
  6
DASHED
 62
     7
370
    25
100
AcDbLine
 10
846.790829
 20
518.925475
 30
0.0
 11
850.414296
 21
518.925475
 31
0.0
  0
ARC
  5
492
102
{ACAD_REACTORS
330
4C7
102
}
330
1F
100
AcDbEntity
  8
LC-007-207-----0
 62
     7
370
    50
100
AcDbCircle
 10
753.771374
 20
569.731867
 30
0.0
 40
29.70000000000009
100
AcDbArc
 50
54.721682
 51
89.141305
  0
ARC
  5
493
102
{ACAD_REACTORS
330
4C7
102
}
330
1F
100
AcDbEntity
  8
LC-002-002-----0
  6
DASHED
 62
     7
370
    25
100
AcDbCircle
 10
738.821543
 20
542.91783
 30
0.0
 40
1.000000000000003
100
AcDbArc
 50
60.858695
 51
165.0
  0
LINE
  5
494
102
{ACAD_REACTORS
330
4C7
102
}
330
1F
100
AcDbEntity
  8
LC-002-002-----0
  6
DASHED
 62
     7
370
    25
100
AcDbLine
 10
737.855618
 20
543.176649
 30
0.0
 11
737.278366
 21
541.022317
 31
0.0
  0
LINE
  5
495
102
{ACAD_REACTORS
330
4C7
102
}
330
1F
100
AcDbEntity
  8
LC-002-002-----0
  6
DASHED
 62
     7
370
    25
100
AcDbLine
 10
850.414296
 20
518.925475
 30
0.0
 11
850.753912
 21
520.192941
 31
0.0
  0
LINE
  5
496
102
{ACAD_REACTORS
330
4C7
102
}
330
1F
100
AcDbEntity
  8
LC-002-002-----0
  6
DASHED
 62
     7
370
    25
100
AcDbLine
 10
850.753912
 20
520.192941
 30
0.0
 11
862.530179
 21
564.142566
 31
0.0
  0
LINE
  5
497
102
{ACAD_REACTORS
330
4C7
102
}
330
1F
100
AcDbEntity
  8
LC-002-002-----0
  6
DASHED
 62
     7
370
    25
100
AcDbLine
 10
862.530179
 20
564.142566
 30
0.0
 11
862.869795
 21
565.410033
 31
0.0
  0
LINE
  5
498
102
{ACAD_REACTORS
330
4C7
102
}
330
1F
100
AcDbEntity
  8
LC-002-002-----0
  6
DASHDOT
 62
     7
370
    25
100
AcDbLine
 10
856.642046
 20
542.167754
 30
0.0
 11
727.095084
 21
576.879757
 31
0.0
  0
LINE
  5
499
102
{ACAD_REACTORS
330
4C7
102
}
330
1F
100
AcDbEntity
  8
LC-002-002-----0
  6
DASHED
 62
     7
370
    25
100
AcDbLine
 10
859.731781
 20
567.221766
 30
0.0
 11
862.869795
 21
565.410033
 31
0.0
  0
ARC
  5
49A
102
{ACAD_REACTORS
330
4C7
102
}
330
1F
100
AcDbEntity
  8
LC-002-002-----0
  6
DASHED
 62
     7
370
    25
100
AcDbCircle
 10
754.231459
 20
600.428419
 30
0.0
 40
1.00000000000006
100
AcDbArc
 50
165.0
 51
269.141305
  0
LINE
  5
49B
102
{ACAD_REACTORS
330
4C7
102
}
330
1F
100
AcDbEntity
  8
LC-002-002-----0
  6
DASHED
 62
     7
370
    25
100
AcDbLine
 10
779.632367
 20
588.684339
 30
0.0
 11
859.731781
 21
567.221766
 31
0.0
  0
LINE
  5
49C
102
{ACAD_REACTORS
330
4C7
102
}
330
1F
100
AcDbEntity
  8
LC-002-002-----0
  6
DASHED
 62
     7
370
    25
100
AcDbLine
 10
766.691415
 20
540.388048
 30
0.0
 11
846.790829
 21
518.925475
 31
0.0
  0
LINE
  5
49D
102
{ACAD_REACTORS
330
4C7
102
}
330
1F
100
AcDbEntity
  8
LC-002-002-----0
  6
DASHED
 62
     7
370
    25
100
AcDbLine
 10
778.101546
 20
586.76515
 30
0.0
 11
862.530179
 21
564.142566
 31
0.0
  0
LINE
  5
49E
102
{ACAD_REACTORS
330
4C7
102
}
330
1F
100
AcDbEntity
  8
LC-002-002-----0
  6
DASHED
 62
     7
370
    25
100
AcDbLine
 10
766.325279
 20
542.815525
 30
0.0
 11
850.753912
 21
520.192941
 31
0.0
  0
LINE
  5
49F
102
{ACAD_REACTORS
330
4C7
102
}
330
1F
100
AcDbEntity
  8
LC-002-002-----0
  6
DASHED
 62
     7
370
    25
100
AcDbLine
 10
753.265533
 20
600.687238
 30
0.0
 11
753.842785
 21
602.84157
 31
0.0
  0
LINE
  5
4A0
102
{ACAD_REACTORS
330
4C7
102
}
330
1F
100
AcDbEntity
  8
LC-002-002-----0
  6
DASHED
 62
     7
370
    25
100
AcDbLine
 10
753.842785
 20
602.84157
 30
0.0
 11
762.053155
 21
600.641608
 31
0.0
  0
LINE
  5
4A1
102
{ACAD_REACTORS
330
4C7
102
}
330
1F
100
AcDbEntity
  8
LC-002-002-----0
  6
DASHED
 62
     7
370
    25
100
AcDbLine
 10
737.278366
 20
541.022317
 30
0.0
 11
745.585328
 21
538.796474
 31
0.0
  0
ARC
  5
4A2
102
{ACAD_REACTORS
330
4C7
102
}
330
1F
100
AcDbEntity
  8
LC-002-002-----0
  6
DASHED
 62
     7
370
    25
100
AcDbCircle
 10
753.867538
 20
569.7061
 30
0.0
 40
32.00000000000092
100
AcDbArc
 50
36.375167
 51
75.17905
  0
ARC
  5
4A3
102
{ACAD_REACTORS
330
4C7
102
}
330
1F
100
AcDbEntity
  8
LC-002-002-----0
  6
DASHED
 62
     7
370
    25
100
AcDbCircle
 10
753.867538
 20
569.7061
 30
0.0
 40
32.00000000000112
100
AcDbArc
 50
255.0
 51
293.624833
  0
ARC
  5
4A4
102
{ACAD_REACTORS
330
4C7
102
}
330
1F
100
AcDbEntity
  8
LC-002-002-----0
  6
DASHED
 62
     7
370
    25
100
AcDbCircle
 10
753.771374
 20
569.731867
 30
0.0
 40
29.70000000000013
100
AcDbArc
 50
34.995438
 51
54.721682
  0
ARC
  5
4A5
102
{ACAD_REACTORS
330
4C7
102
}
330
1F
100
AcDbEntity
  8
LC-002-002-----0
  6
DASHED
 62
     7
370
    25
100
AcDbCircle
 10
753.771374
 20
569.731867
 30
0.0
 40
29.70000000000022
100
AcDbArc
 50
240.858695
 51
295.004562
  0
LINE
  5
4A6
330
1F
100
AcDbEntity
  8
LC-002-002-----0
  6
DASHED
 62
     7
370
    25
100
AcDbLine
 10
778.101546
 20
586.76515
 30
0.0
 11
766.325279
 21
542.815525
 31
0.0
  0
INSERT
  5
4C6
330
1F
100
AcDbEntity
  8
LC-004-003-----0
 62
     7
370
    25
100
AcDbBlockReference
  2
LCDIM1
 10
0.0
 20
0.0
 30
0.0
  0
ENDSEC
  0
SECTION
  2
OBJECTS
  0
DICTIONARY
  5
C
330
0
100
AcDbDictionary
281
     1
  3
ACAD_GROUP
350
D
  3
ACAD_LAYOUT
350
1A
  3
ACAD_MLINESTYLE
350
17
  3
ACAD_PLOTSETTINGS
350
19
  3
ACAD_PLOTSTYLENAME
350
E
  0
DICTIONARY
  5
D
102
{ACAD_REACTORS
330
C
102
}
330
C
100
AcDbDictionary
281
     1
  3
LCGROUP156
350
4CE
  3
LCGROUP186
350
4CF
  3
LCGROUP215
350
4D0
  3
LCGROUP352
350
4CB
  3
LCGROUP4089
350
4C8
  3
LCGROUP4091
350
4C7
  3
LCGROUP426
350
4CD
  3
LCGROUP507
350
4D1
  3
LCGROUP593
350
4C9
  3
LCGROUP877
350
4CA
  3
LCGROUP96
350
4CC
  0
DICTIONARY
  5
1A
102
{ACAD_REACTORS
330
C
102
}
330
C
100
AcDbDictionary
281
     1
  3
Layout1
350
1E
  3
Layout2
350
26
  3
Model
350
22
  0
DICTIONARY
  5
17
102
{ACAD_REACTORS
330
C
102
}
330
C
100
AcDbDictionary
281
     1
  3
Standard
350
18
  0
DICTIONARY
  5
19
102
{ACAD_REACTORS
330
C
102
}
330
C
100
AcDbDictionary
281
     1
  0
ACDBDICTIONARYWDFLT
  5
E
102
{ACAD_REACTORS
330
C
102
}
330
C
100
AcDbDictionary
281
     1
  3
Normal
350
F
100
AcDbDictionaryWithDefault
340
F
  0
GROUP
  5
4CE
102
{ACAD_REACTORS
330
D
102
}
330
D
100
AcDbGroup
300
GRP156
 70
     1
 71
     1
340
132
340
13B
340
13F
340
140
340
141
340
142
340
149
340
14C
340
189
340
18A
340
1BA
340
1BC
340
1BD
340
1BF
340
1C0
340
1C5
340
1C7
340
1C8
340
1C9
340
28C
340
29B
340
29E
340
29F
340
2A0
340
2A1
340
2A2
340
2A3
340
2A4
340
2A5
340
2A6
340
2A7
340
2D7
340
2D8
340
2D9
340
2DF
340
2E6
340
2E7
340
2E8
340
2E9
340
2EA
340
373
340
376
340
378
340
379
340
37A
340
37B
340
37D
  0
GROUP
  5
4CF
102
{ACAD_REACTORS
330
D
102
}
330
D
100
AcDbGroup
300
Verschluss SN
 70
     1
 71
     1
340
83
340
98
340
9A
340
9B
340
9C
340
9D
340
9E
340
9F
340
A0
340
A1
340
A2
340
A3
340
A4
340
A5
340
B8
340
B9
340
BA
340
BC
340
BD
340
103
340
115
340
126
340
127
340
128
340
129
340
12A
340
12B
340
12C
340
12E
340
131
340
133
340
134
340
13D
340
143
340
144
340
145
340
146
340
14A
340
14E
340
14F
340
150
340
152
340
153
340
157
340
158
  0
GROUP
  5
4D0
102
{ACAD_REACTORS
330
D
102
}
330
D
100
AcDbGroup
300
GRP215
 70
     1
 71
     1
340
154
340
155
340
156
340
159
340
15A
340
15B
340
15C
340
15D
340
15E
340
15F
340
160
340
163
340
164
340
165
340
166
340
167
340
168
340
169
340
16A
340
16B
340
16C
340
16D
340
16E
340
182
340
183
340
184
340
185
340
186
340
187
340
188
  0
GROUP
  5
4CB
102
{ACAD_REACTORS
330
D
102
}
330
D
100
AcDbGroup
300
GRP352
 70
     1
 71
     1
340
1B9
340
1BB
340
1BE
340
1C3
340
1DC
340
1DD
340
28B
340
2DB
340
2DC
340
2DD
340
2DE
340
2E0
340
2E1
340
2E2
340
2E4
340
2E5
340
2EB
340
31B
340
346
340
347
340
348
340
34A
340
34B
  0
GROUP
  5
4C8
102
{ACAD_REACTORS
330
D
102
}
330
D
100
AcDbGroup
300
GRP4089
 70
     1
 71
     1
340
44D
340
44E
340
44F
340
450
340
451
340
452
340
453
340
454
340
455
340
456
340
457
340
458
340
459
340
45A
340
45B
340
483
  0
GROUP
  5
4C7
102
{ACAD_REACTORS
330
D
102
}
330
D
100
AcDbGroup
300
GRP4091
 70
     1
 71
     1
340
491
340
492
340
493
340
494
340
495
340
496
340
497
340
498
340
499
340
49A
340
49B
340
49C
340
49D
340
49E
340
49F
340
4A0
340
4A1
340
4A2
340
4A3
340
4A4
340
4A5
  0
GROUP
  5
4CD
102
{ACAD_REACTORS
330
D
102
}
330
D
100
AcDbGroup
300
GRP426
 70
     1
 71
     1
340
36C
340
36D
340
36E
340
36F
340
372
340
374
340
375
340
377
340
3A2
340
3A3
340
3B5
340
3B6
340
3B7
340
3B8
340
3B9
340
3BA
340
3BB
340
3BC
340
3BD
340
3BE
340
3BF
340
3C0
340
3C1
340
3C2
340
3C3
340
3C6
340
3C7
340
3C8
340
3C9
340
3CC
340
3CD
340
3CE
340
3CF
340
3D0
340
3D1
340
3D2
340
3D3
340
3D4
340
3D5
340
3D6
340
3D7
340
3D8
340
3D9
340
3DA
340
3DB
340
3DC
340
3DD
340
3DE
340
3E4
340
3E5
340
3ED
340
3EE
340
3EF
340
3F0
340
3F2
340
3F3
  0
GROUP
  5
4D1
102
{ACAD_REACTORS
330
D
102
}
330
D
100
AcDbGroup
300
GRP507
 70
     1
 71
     1
340
29C
340
2A8
340
2A9
340
2AA
340
2AB
340
2AC
340
2AD
340
2AE
340
2AF
340
2B0
340
2B1
340
2B2
340
2B3
340
2B4
340
2B5
340
2B6
340
2B7
340
2B8
340
2B9
340
2BA
340
2BB
340
2BC
340
2CF
340
2D0
340
2D1
340
2D2
340
2D3
340
2D4
340
2D5
340
2D6
  0
GROUP
  5
4C9
102
{ACAD_REACTORS
330
D
102
}
330
D
100
AcDbGroup
300
ablaufschn
 70
     1
 71
     1
340
371
340
3CB
340
3E1
340
3E6
340
3E9
340
406
340
407
340
408
340
409
340
40A
340
40B
340
40C
340
40D
340
40E
340
40F
  0
GROUP
  5
4CA
102
{ACAD_REACTORS
330
D
102
}
330
D
100
AcDbGroup
300
ablaufschn
 70
     1
 71
     1
340
29D
  0
GROUP
  5
4CC
102
{ACAD_REACTORS
330
D
102
}
330
D
100
AcDbGroup
300
Einlaufbremse SN
 70
     1
 71
     1
340
42
340
44
340
45
340
46
340
47
340
48
340
4A
340
4B
340
4C
340
4D
340
4E
340
4F
340
50
340
51
340
52
340
53
340
54
340
55
340
56
340
57
340
7B
340
7C
340
7D
340
7E
340
7F
340
80
340
81
340
82
340
84
340
85
340
86
340
87
340
88
340
89
340
8A
340
8B
340
8D
340
8E
340
8F
340
90
340
91
340
92
340
93
340
94
340
95
340
96
340
97
  0
LAYOUT
  5
1E
102
{ACAD_REACTORS
330
1A
102
}
330
1A
100
AcDbPlotSettings
  1

  2

  4

  6

 40
0.0
 41
0.0
 42
0.0
 43
0.0
 44
0.0
 45
0.0
 46
0.0
 47
0.0
 48
0.0
 49
0.0
140
0.0
141
0.0
142
1.0
143
1.0
 70
   688
 72
     0
 73
     0
 74
     5
  7

 75
    16
147
1.0
148
0.0
149
0.0
100
AcDbLayout
  1
Layout1
 70
     1
 71
     1
 10
265.204691
 20
256.501
 11
1105.204691
 21
850.501
 12
0.0
 22
0.0
 32
0.0
 14
265.204691
 24
256.501
 34
0.0
 15
1105.204691
 25
850.501
 35
0.0
146
0.0
 13
0.0
 23
0.0
 33
0.0
 16
1.0
 26
0.0
 36
0.0
 17
0.0
 27
1.0
 37
0.0
 76
     0
330
1B
  0
LAYOUT
  5
26
102
{ACAD_REACTORS
330
1A
102
}
330
1A
100
AcDbPlotSettings
  1

  2

  4

  6

 40
0.0
 41
0.0
 42
0.0
 43
0.0
 44
0.0
 45
0.0
 46
0.0
 47
0.0
 48
0.0
 49
0.0
140
0.0
141
0.0
142
1.0
143
1.0
 70
   688
 72
     0
 73
     0
 74
     5
  7

 75
    16
147
1.0
148
0.0
149
0.0
100
AcDbLayout
  1
Layout2
 70
     1
 71
     2
 10
0.0
 20
0.0
 11
0.0
 21
0.0
 12
0.0
 22
0.0
 32
0.0
 14
0.0
 24
0.0
 34
0.0
 15
0.0
 25
0.0
 35
0.0
146
0.0
 13
0.0
 23
0.0
 33
0.0
 16
1.0
 26
0.0
 36
0.0
 17
0.0
 27
1.0
 37
0.0
 76
     0
330
23
  0
LAYOUT
  5
22
102
{ACAD_REACTORS
330
1A
102
}
330
1A
100
AcDbPlotSettings
  1

  2

  4

  6

 40
0.0
 41
0.0
 42
0.0
 43
0.0
 44
0.0
 45
0.0
 46
0.0
 47
0.0
 48
0.0
 49
0.0
140
0.0
141
0.0
142
1.0
143
1.0
 70
  1776
 72
     0
 73
     0
 74
     0
  7

 75
     0
147
1.0
148
0.0
149
0.0
100
AcDbLayout
  1
Model
 70
     1
 71
     0
 10
265.204691
 20
256.501
 11
1105.204691
 21
850.501
 12
265.204691
 22
256.501
 32
0.0
 14
265.204691
 24
256.501
 34
0.0
 15
1105.204691
 25
850.501
 35
0.0
146
0.0
 13
0.0
 23
0.0
 33
0.0
 16
1.0
 26
0.0
 36
0.0
 17
0.0
 27
1.0
 37
0.0
 76
     0
330
1F
  0
MLINESTYLE
  5
18
102
{ACAD_REACTORS
330
17
102
}
330
17
100
AcDbMlineStyle
  2
Standard
 70
     0
  3

 62
   256
 51
90.0
 52
90.0
 71
     2
 49
0.5
 62
   256
  6
BYLAYER
 49
-0.5
 62
   256
  6
BYLAYER
  0
ACDBPLACEHOLDER
  5
F
102
{ACAD_REACTORS
330
E
102
}
330
E
  0
ENDSEC
  0
EOF
