  0
SECTION
  2
HEADER
  9
$ACADVER
  1
AC1015
  9
$ACADMAINTVER
 70
     6
  9
$DWGCODEPAGE
  3
DOS850
  9
$INSBASE
 10
300.546594
 20
31.942
 30
0.0
  9
$EXTMIN
 10
300.546594
 20
31.942
 30
0.0
  9
$EXTMAX
 10
1140.546594
 20
625.942
 30
0.0
  9
$LIMMIN
 10
300.546594
 20
31.942
  9
$LIMMAX
 10
1140.546594
 20
625.942
  9
$ORTHOMODE
 70
     0
  9
$REGENMODE
 70
     1
  9
$FILLMODE
 70
     1
  9
$QTEXTMODE
 70
     0
  9
$MIRRTEXT
 70
     1
  9
$LTSCALE
 40
2.0
  9
$ATTMODE
 70
     1
  9
$TEXTSIZE
 40
2.5
  9
$TRACEWID
 40
1.0
  9
$TEXTSTYLE
  7
Standard
  9
$CLAYER
  8
0
  9
$CELTYPE
  6
ByLayer
  9
$CECOLOR
 62
     7
  9
$CELTSCALE
 40
1.0
  9
$DISPSILH
 70
     0
  9
$DIMSCALE
 40
2.0
  9
$DIMASZ
 40
3.5
  9
$DIMEXO
 40
0.625
  9
$DIMDLI
 40
3.75
  9
$DIMRND
 40
0.0
  9
$DIMDLE
 40
0.0
  9
$DIMEXE
 40
1.25
  9
$DIMTP
 40
0.0
  9
$DIMTM
 40
0.0
  9
$DIMTXT
 40
3.5
  9
$DIMCEN
 40
2.5
  9
$DIMTSZ
 40
0.0
  9
$DIMTOL
 70
     0
  9
$DIMLIM
 70
     0
  9
$DIMTIH
 70
     0
  9
$DIMTOH
 70
     0
  9
$DIMSE1
 70
     0
  9
$DIMSE2
 70
     0
  9
$DIMTAD
 70
     1
  9
$DIMZIN
 70
     8
  9
$DIMBLK
  1

  9
$DIMASO
 70
     1
  9
$DIMSHO
 70
     1
  9
$DIMPOST
  1

  9
$DIMAPOST
  1

  9
$DIMALT
 70
     0
  9
$DIMALTD
 70
     3
  9
$DIMALTF
 40
0.03937
  9
$DIMLFAC
 40
1.0
  9
$DIMTOFL
 70
     1
  9
$DIMTVP
 40
0.0
  9
$DIMTIX
 70
     0
  9
$DIMSOXD
 70
     0
  9
$DIMSAH
 70
     0
  9
$DIMBLK1
  1

  9
$DIMBLK2
  1

  9
$DIMSTYLE
  2
ISO-25
  9
$DIMCLRD
 70
     0
  9
$DIMCLRE
 70
     0
  9
$DIMCLRT
 70
     0
  9
$DIMTFAC
 40
1.0
  9
$DIMGAP
 40
0.625
  9
$DIMJUST
 70
     0
  9
$DIMSD1
 70
     0
  9
$DIMSD2
 70
     0
  9
$DIMTOLJ
 70
     0
  9
$DIMTZIN
 70
     8
  9
$DIMALTZ
 70
     0
  9
$DIMALTTZ
 70
     0
  9
$DIMUPT
 70
     0
  9
$DIMDEC
 70
     2
  9
$DIMTDEC
 70
     2
  9
$DIMALTU
 70
     2
  9
$DIMALTTD
 70
     3
  9
$DIMTXSTY
  7
Standard
  9
$DIMAUNIT
 70
     0
  9
$DIMADEC
 70
     0
  9
$DIMALTRND
 40
0.0
  9
$DIMAZIN
 70
     0
  9
$DIMDSEP
 70
    44
  9
$DIMATFIT
 70
     3
  9
$DIMFRAC
 70
     0
  9
$DIMLDRBLK
  1

  9
$DIMLUNIT
 70
     2
  9
$DIMLWD
 70
    -2
  9
$DIMLWE
 70
    -2
  9
$DIMTMOVE
 70
     0
  9
$LUNITS
 70
     2
  9
$LUPREC
 70
     4
  9
$SKETCHINC
 40
1.0
  9
$FILLETRAD
 40
10.0
  9
$AUNITS
 70
     0
  9
$AUPREC
 70
     0
  9
$MENU
  1
.
  9
$ELEVATION
 40
0.0
  9
$PELEVATION
 40
0.0
  9
$THICKNESS
 40
0.0
  9
$LIMCHECK
 70
     0
  9
$CHAMFERA
 40
10.0
  9
$CHAMFERB
 40
10.0
  9
$CHAMFERC
 40
20.0
  9
$CHAMFERD
 40
0.0
  9
$SKPOLY
 70
     0
  9
$TDCREATE
 40
2453854.493199444
  9
$TDUCREATE
 40
2453854.409866111
  9
$TDUPDATE
 40
2453854.493199456
  9
$TDUUPDATE
 40
2453854.409866123
  9
$TDINDWG
 40
0.0000000116
  9
$TDUSRTIMER
 40
0.0000000116
  9
$USRTIMER
 70
     1
  9
$ANGBASE
 50
0.0
  9
$ANGDIR
 70
     0
  9
$PDMODE
 70
     0
  9
$PDSIZE
 40
0.0
  9
$PLINEWID
 40
0.0
  9
$SPLFRAME
 70
     0
  9
$SPLINETYPE
 70
     6
  9
$SPLINESEGS
 70
     8
  9
$HANDSEED
  5
46D
  9
$SURFTAB1
 70
     6
  9
$SURFTAB2
 70
     6
  9
$SURFTYPE
 70
     6
  9
$SURFU
 70
     6
  9
$SURFV
 70
     6
  9
$UCSBASE
  2

  9
$UCSNAME
  2

  9
$UCSORG
 10
0.0
 20
0.0
 30
0.0
  9
$UCSXDIR
 10
1.0
 20
0.0
 30
0.0
  9
$UCSYDIR
 10
0.0
 20
1.0
 30
0.0
  9
$UCSORTHOREF
  2

  9
$UCSORTHOVIEW
 70
     0
  9
$UCSORGTOP
 10
0.0
 20
0.0
 30
0.0
  9
$UCSORGBOTTOM
 10
0.0
 20
0.0
 30
0.0
  9
$UCSORGLEFT
 10
0.0
 20
0.0
 30
0.0
  9
$UCSORGRIGHT
 10
0.0
 20
0.0
 30
0.0
  9
$UCSORGFRONT
 10
0.0
 20
0.0
 30
0.0
  9
$UCSORGBACK
 10
0.0
 20
0.0
 30
0.0
  9
$PUCSBASE
  2

  9
$PUCSNAME
  2

  9
$PUCSORG
 10
0.0
 20
0.0
 30
0.0
  9
$PUCSXDIR
 10
1.0
 20
0.0
 30
0.0
  9
$PUCSYDIR
 10
0.0
 20
1.0
 30
0.0
  9
$PUCSORTHOREF
  2

  9
$PUCSORTHOVIEW
 70
     0
  9
$PUCSORGTOP
 10
0.0
 20
0.0
 30
0.0
  9
$PUCSORGBOTTOM
 10
0.0
 20
0.0
 30
0.0
  9
$PUCSORGLEFT
 10
0.0
 20
0.0
 30
0.0
  9
$PUCSORGRIGHT
 10
0.0
 20
0.0
 30
0.0
  9
$PUCSORGFRONT
 10
0.0
 20
0.0
 30
0.0
  9
$PUCSORGBACK
 10
0.0
 20
0.0
 30
0.0
  9
$USERI1
 70
     0
  9
$USERI2
 70
     0
  9
$USERI3
 70
     0
  9
$USERI4
 70
     0
  9
$USERI5
 70
     0
  9
$USERR1
 40
0.0
  9
$USERR2
 40
0.0
  9
$USERR3
 40
0.0
  9
$USERR4
 40
0.0
  9
$USERR5
 40
0.0
  9
$WORLDVIEW
 70
     1
  9
$SHADEDGE
 70
     3
  9
$SHADEDIF
 70
    70
  9
$TILEMODE
 70
     1
  9
$MAXACTVP
 70
    64
  9
$PINSBASE
 10
0.0
 20
0.0
 30
0.0
  9
$PLIMCHECK
 70
     0
  9
$PEXTMIN
 10
300.546594
 20
31.942
 30
0.0
  9
$PEXTMAX
 10
1140.546594
 20
625.942
 30
0.0
  9
$PLIMMIN
 10
300.546594
 20
31.942
  9
$PLIMMAX
 10
1140.546594
 20
625.942
  9
$UNITMODE
 70
     0
  9
$VISRETAIN
 70
     1
  9
$PLINEGEN
 70
     0
  9
$PSLTSCALE
 70
     1
  9
$TREEDEPTH
 70
  3020
  9
$CMLSTYLE
  2
Standard
  9
$CMLJUST
 70
     0
  9
$CMLSCALE
 40
20.0
  9
$PROXYGRAPHICS
 70
     1
  9
$MEASUREMENT
 70
     1
  9
$CELWEIGHT
370
    -1
  9
$ENDCAPS
280
     0
  9
$JOINSTYLE
280
     0
  9
$LWDISPLAY
290
     0
  9
$INSUNITS
 70
     4
  9
$HYPERLINKBASE
  1

  9
$STYLESHEET
  1

  9
$XEDIT
290
     1
  9
$CEPSNTYPE
380
     0
  9
$PSTYLEMODE
290
     1
  9
$FINGERPRINTGUID
  2
{FAEB1C30-E019-11D5-929B-00C0DF256EC4}
  9
$VERSIONGUID
  2
{FAEB1C32-E019-11D5-929B-00C0DF256EC4}
  9
$EXTNAMES
290
     1
  9
$PSVPSCALE
 40
0.0
  9
$OLESTARTUP
290
     0
  0
ENDSEC
  0
SECTION
  2
CLASSES
  0
CLASS
  1
ACDBDICTIONARYWDFLT
  2
AcDbDictionaryWithDefault
  3
ObjectDBX Classes
 90
        0
280
     0
281
     0
  0
CLASS
  1
ACDBPLACEHOLDER
  2
AcDbPlaceHolder
  3
ObjectDBX Classes
 90
        0
280
     0
281
     0
  0
CLASS
  1
LAYOUT
  2
AcDbLayout
  3
ObjectDBX Classes
 90
        0
280
     0
281
     0
  0
ENDSEC
  0
SECTION
  2
TABLES
  0
TABLE
  2
VPORT
  5
8
330
0
100
AcDbSymbolTable
 70
     2
  0
VPORT
  5
29
330
8
100
AcDbSymbolTableRecord
100
AcDbViewportTableRecord
  2
*ACTIVE
 70
     0
 10
0.0
 20
0.0
 11
1.0
 21
1.0
 12
720.546594
 22
328.942
 13
0.0
 23
0.0
 14
1.0
 24
1.0
 15
0.0
 25
0.0
 16
0.0
 26
0.0
 36
1.0
 17
0.0
 27
0.0
 37
0.0
 40
594.0
 41
1.414141
 42
50.0
 43
0.0
 44
0.0
 50
0.0
 51
0.0
 71
    16
 72
   100
 73
     1
 74
     0
 75
     0
 76
     0
 77
     0
 78
     0
281
     0
 65
     0
110
0.0
120
0.0
130
0.0
111
1.0
121
0.0
131
0.0
112
0.0
122
1.0
132
0.0
 79
     0
146
0.0
  0
ENDTAB
  0
TABLE
  2
LTYPE
  5
5
330
0
100
AcDbSymbolTable
 70
     3
  0
LTYPE
  5
14
330
5
100
AcDbSymbolTableRecord
100
AcDbLinetypeTableRecord
  2
ByBlock
 70
     0
  3

 72
    65
 73
     0
 40
0.0
  0
LTYPE
  5
15
330
5
100
AcDbSymbolTableRecord
100
AcDbLinetypeTableRecord
  2
ByLayer
 70
     0
  3

 72
    65
 73
     0
 40
0.0
  0
LTYPE
  5
16
330
5
100
AcDbSymbolTableRecord
100
AcDbLinetypeTableRecord
  2
Continuous
 70
     0
  3
Solid line
 72
    65
 73
     0
 40
0.0
  0
LTYPE
  5
2A
330
5
100
AcDbSymbolTableRecord
100
AcDbLinetypeTableRecord
  2
DASHED
 70
     0
  3
__ __ __ __ __
 72
    65
 73
     2
 40
6.25
 49
5.0
 74
     4
 75
     0
340
0
 46
1.0
 50
0.0
 44
0.0
 45
0.0
 49
-1.25
 74
     4
 75
     0
340
0
 46
1.0
 50
0.0
 44
0.0
 45
0.0
  0
LTYPE
  5
30
330
5
100
AcDbSymbolTableRecord
100
AcDbLinetypeTableRecord
  2
DASHDOT
 70
     0
  3
__ . __ . __ . __ . __
 72
    65
 73
     4
 40
7.5
 49
5.0
 74
     4
 75
     0
340
0
 46
1.0
 50
0.0
 44
0.0
 45
0.0
 49
-1.25
 74
     4
 75
     0
340
0
 46
1.0
 50
0.0
 44
0.0
 45
0.0
 49
0.0
 74
     4
 75
     0
340
0
 46
1.0
 50
0.0
 44
0.0
 45
0.0
 49
-1.25
 74
     4
 75
     0
340
0
 46
1.0
 50
0.0
 44
0.0
 45
0.0
  0
ENDTAB
  0
TABLE
  2
LAYER
  5
2
330
0
100
AcDbSymbolTable
 70
    18
  0
LAYER
  5
10
330
2
100
AcDbSymbolTableRecord
100
AcDbLayerTableRecord
  2
0
 70
     0
 62
     7
  6
Continuous
370
    -3
390
F
  0
LAYER
  5
2B
330
2
100
AcDbSymbolTableRecord
100
AcDbLayerTableRecord
  2
LC-INFO-1-2-mm-A3-0
 70
     1
 62
     7
  6
ByBlock
370
    -3
390
F
  0
LAYER
  5
2C
330
2
100
AcDbSymbolTableRecord
100
AcDbLayerTableRecord
  2
LC-CUT-HIDDEN
 70
     0
 62
     7
  6
DASHED
370
    -3
390
F
  0
LAYER
  5
2D
330
2
100
AcDbSymbolTableRecord
100
AcDbLayerTableRecord
  2
LC-VIEWPORT
 70
     0
 62
     7
  6
ByBlock
370
    -3
390
F
  0
LAYER
  5
2E
330
2
100
AcDbSymbolTableRecord
100
AcDbLayerTableRecord
  2
LC-3D-HIDDEN
 70
     0
 62
     9
  6
DASHED
370
    -3
390
F
  0
LAYER
  5
31
330
2
100
AcDbSymbolTableRecord
100
AcDbLayerTableRecord
  2
LC-001-002-----0
 70
     0
 62
     2
  6
DASHDOT
370
    -3
390
F
  0
LAYER
  5
3A
330
2
100
AcDbSymbolTableRecord
100
AcDbLayerTableRecord
  2
LC-002-002-RND-0
 70
     0
 62
     1
  6
ByBlock
370
    -3
390
F
  0
LAYER
  5
40
330
2
100
AcDbSymbolTableRecord
100
AcDbLayerTableRecord
  2
LC-003-205-RND-0
 70
     0
 62
     1
  6
ByBlock
370
    -3
390
F
  0
LAYER
  5
4F
330
2
100
AcDbSymbolTableRecord
100
AcDbLayerTableRecord
  2
LC-004-005-----0
 70
     0
 62
     2
  6
ByBlock
370
    -3
390
F
  0
LAYER
  5
51
330
2
100
AcDbSymbolTableRecord
100
AcDbLayerTableRecord
  2
LC-005-205-----0
 70
     0
 62
     1
  6
ByBlock
370
    -3
390
F
  0
LAYER
  5
118
330
2
100
AcDbSymbolTableRecord
100
AcDbLayerTableRecord
  2
LC-006-101-----0
 70
     0
 62
     1
  6
ByBlock
370
    -3
390
F
  0
LAYER
  5
19F
330
2
100
AcDbSymbolTableRecord
100
AcDbLayerTableRecord
  2
LC-007-101-RND-0
 70
     0
 62
     1
  6
ByBlock
370
    -3
390
F
  0
LAYER
  5
1B4
330
2
100
AcDbSymbolTableRecord
100
AcDbLayerTableRecord
  2
LC-008-207-----0
 70
     0
 62
     1
  6
ByBlock
370
    -3
390
F
  0
LAYER
  5
1C4
330
2
100
AcDbSymbolTableRecord
100
AcDbLayerTableRecord
  2
LC-009-207-RND-0
 70
     0
 62
     1
  6
ByBlock
370
    -3
390
F
  0
LAYER
  5
253
330
2
100
AcDbSymbolTableRecord
100
AcDbLayerTableRecord
  2
LC-010-003-----0
 70
     0
 62
     2
  6
ByBlock
370
    -3
390
F
  0
LAYER
  5
255
330
2
100
AcDbSymbolTableRecord
100
AcDbLayerTableRecord
  2
Defpoints
 70
     0
 62
     7
  6
Continuous
290
     0
370
    -3
390
F
  0
LAYER
  5
45D
330
2
100
AcDbSymbolTableRecord
100
AcDbLayerTableRecord
  2
LC-011-003-MTG-0
 70
     0
 62
     2
  6
ByBlock
370
    -3
390
F
  0
LAYER
  5
461
330
2
100
AcDbSymbolTableRecord
100
AcDbLayerTableRecord
  2
LC-012-003-MTH-0
 70
     0
 62
     2
  6
ByBlock
370
    -3
390
F
  0
ENDTAB
  0
TABLE
  2
STYLE
  5
3
330
0
100
AcDbSymbolTable
 70
     3
  0
STYLE
  5
11
330
3
100
AcDbSymbolTableRecord
100
AcDbTextStyleTableRecord
  2
Standard
 70
     0
 40
0.0
 41
1.0
 50
0.0
 71
     0
 42
2.5
  3
txt
  4

  0
STYLE
  5
2F
330
3
100
AcDbSymbolTableRecord
100
AcDbTextStyleTableRecord
  2
LCTX15-400-0-0-Arial
 70
     0
 40
0.0
 41
0.9
 50
0.0
 71
     0
 42
3.5
  3
ARIAL.TTF
  4

1001
ACAD
1000
Arial
1071
 16777218
  0
STYLE
  5
251
330
3
100
AcDbSymbolTableRecord
100
AcDbTextStyleTableRecord
  2
LCTX15-400-0-0pDIN-Schrift
 70
     0
 40
2.5
 41
0.8
 50
15.0
 71
     0
 42
3.5
  3
STANDARD
  4

  0
ENDTAB
  0
TABLE
  2
VIEW
  5
6
330
0
100
AcDbSymbolTable
 70
     0
  0
ENDTAB
  0
TABLE
  2
UCS
  5
7
330
0
100
AcDbSymbolTable
 70
     0
  0
ENDTAB
  0
TABLE
  2
APPID
  5
9
330
0
100
AcDbSymbolTable
 70
     1
  0
APPID
  5
12
330
9
100
AcDbSymbolTableRecord
100
AcDbRegAppTableRecord
  2
ACAD
 70
     0
  0
ENDTAB
  0
TABLE
  2
DIMSTYLE
  5
A
330
0
100
AcDbSymbolTable
 70
     3
100
AcDbDimStyleTable
  0
DIMSTYLE
105
27
330
A
100
AcDbSymbolTableRecord
100
AcDbDimStyleTableRecord
  2
ISO-25
 70
     0
 41
2.5
 42
0.625
 43
3.75
 44
1.25
 73
     0
 74
     0
 77
     1
 78
     8
140
2.5
141
2.5
143
0.03937
147
0.625
171
     3
172
     1
271
     2
272
     2
274
     3
278
    44
283
     0
284
     8
340
11
  0
DIMSTYLE
105
252
102
{ACAD_REACTORS
330
254
330
263
330
36D
330
3A4
330
3B2
330
3C1
330
3CE
330
3DE
102
}
330
A
100
AcDbSymbolTableRecord
100
AcDbDimStyleTableRecord
  2
LC-DIM-L-0140-02-02
 70
     0
 40
2.0
 41
14.0
 42
0.0
 43
7.5
 44
1.8
 73
     0
 74
     0
 77
     1
 78
     8
 79
     2
140
14.0
141
0.0
146
0.71
147
1.5
176
     2
177
     2
178
     2
179
     2
271
     2
278
    44
289
     1
340
251
  0
DIMSTYLE
105
448
330
A
100
AcDbSymbolTableRecord
100
AcDbDimStyleTableRecord
  2
LC-DIM-W-0140-02-02
 70
     0
 40
2.0
 41
14.0
 42
0.0
 43
7.5
 44
1.8
 73
     0
 74
     0
 77
     1
 78
     8
 79
     2
140
14.0
141
0.0
146
0.71
147
1.5
176
     2
177
     2
178
     2
179
     2
271
     2
278
    44
289
     1
340
251
  0
ENDTAB
  0
TABLE
  2
BLOCK_RECORD
  5
1
330
0
100
AcDbSymbolTable
 70
    22
  0
BLOCK_RECORD
  5
1F
330
1
100
AcDbSymbolTableRecord
100
AcDbBlockTableRecord
  2
*Model_Space
340
22
  0
BLOCK_RECORD
  5
1B
330
1
100
AcDbSymbolTableRecord
100
AcDbBlockTableRecord
  2
*Paper_Space
340
1E
  0
BLOCK_RECORD
  5
23
330
1
100
AcDbSymbolTableRecord
100
AcDbBlockTableRecord
  2
*Paper_Space0
340
26
  0
BLOCK_RECORD
  5
60
330
1
100
AcDbSymbolTableRecord
100
AcDbBlockTableRecord
  2
*X11
340
0
102
{BLKREFS
331
B5
102
}
  0
BLOCK_RECORD
  5
BB
330
1
100
AcDbSymbolTableRecord
100
AcDbBlockTableRecord
  2
*X22
340
0
102
{BLKREFS
331
C5
102
}
  0
BLOCK_RECORD
  5
C8
330
1
100
AcDbSymbolTableRecord
100
AcDbBlockTableRecord
  2
*X33
340
0
102
{BLKREFS
331
D2
102
}
  0
BLOCK_RECORD
  5
D9
330
1
100
AcDbSymbolTableRecord
100
AcDbBlockTableRecord
  2
*X44
340
0
102
{BLKREFS
331
113
102
}
  0
BLOCK_RECORD
  5
15F
330
1
100
AcDbSymbolTableRecord
100
AcDbBlockTableRecord
  2
*X55
340
0
102
{BLKREFS
331
18C
102
}
  0
BLOCK_RECORD
  5
1B6
330
1
100
AcDbSymbolTableRecord
100
AcDbBlockTableRecord
  2
*X66
340
0
102
{BLKREFS
331
1C1
102
}
  0
BLOCK_RECORD
  5
1D6
330
1
100
AcDbSymbolTableRecord
100
AcDbBlockTableRecord
  2
*X77
340
0
102
{BLKREFS
331
205
102
}
  0
BLOCK_RECORD
  5
206
330
1
100
AcDbSymbolTableRecord
100
AcDbBlockTableRecord
  2
*X88
340
0
102
{BLKREFS
331
22F
102
}
  0
BLOCK_RECORD
  5
235
330
1
100
AcDbSymbolTableRecord
100
AcDbBlockTableRecord
  2
*X99
340
0
102
{BLKREFS
331
241
102
}
  0
BLOCK_RECORD
  5
256
330
1
100
AcDbSymbolTableRecord
100
AcDbBlockTableRecord
  2
*D10
340
0
  0
BLOCK_RECORD
  5
264
330
1
100
AcDbSymbolTableRecord
100
AcDbBlockTableRecord
  2
*D11
340
0
  0
BLOCK_RECORD
  5
287
330
1
100
AcDbSymbolTableRecord
100
AcDbBlockTableRecord
  2
*X1012
340
0
102
{BLKREFS
331
297
102
}
  0
BLOCK_RECORD
  5
2F7
330
1
100
AcDbSymbolTableRecord
100
AcDbBlockTableRecord
  2
*X1113
340
0
102
{BLKREFS
331
30B
102
}
  0
BLOCK_RECORD
  5
36E
330
1
100
AcDbSymbolTableRecord
100
AcDbBlockTableRecord
  2
*D14
340
0
  0
BLOCK_RECORD
  5
3A5
330
1
100
AcDbSymbolTableRecord
100
AcDbBlockTableRecord
  2
*D15
340
0
  0
BLOCK_RECORD
  5
3B3
330
1
100
AcDbSymbolTableRecord
100
AcDbBlockTableRecord
  2
*D16
340
0
  0
BLOCK_RECORD
  5
3C2
330
1
100
AcDbSymbolTableRecord
100
AcDbBlockTableRecord
  2
*D17
340
0
  0
BLOCK_RECORD
  5
3CF
330
1
100
AcDbSymbolTableRecord
100
AcDbBlockTableRecord
  2
*D18
340
0
  0
BLOCK_RECORD
  5
3DF
330
1
100
AcDbSymbolTableRecord
100
AcDbBlockTableRecord
  2
*D19
340
0
  0
BLOCK_RECORD
  5
40B
330
1
100
AcDbSymbolTableRecord
100
AcDbBlockTableRecord
  2
*X1220
340
0
102
{BLKREFS
331
432
102
}
  0
BLOCK_RECORD
  5
449
330
1
100
AcDbSymbolTableRecord
100
AcDbBlockTableRecord
  2
LCDIM1
340
0
102
{BLKREFS
331
465
102
}
  0
ENDTAB
  0
ENDSEC
  0
SECTION
  2
BLOCKS
  0
BLOCK
  5
20
330
1F
100
AcDbEntity
  8
0
100
AcDbBlockBegin
  2
*Model_Space
 70
     0
 71
     0
 10
0.0
 20
0.0
 30
0.0
  3
*Model_Space
  1

  0
ENDBLK
  5
21
330
1F
100
AcDbEntity
  8
0
100
AcDbBlockEnd
  0
BLOCK
  5
1C
330
1B
100
AcDbEntity
 67
     1
  8
0
100
AcDbBlockBegin
  2
*Paper_Space
 70
     0
 71
     0
 10
0.0
 20
0.0
 30
0.0
  3
*Paper_Space
  1

  0
ENDBLK
  5
1D
330
1B
100
AcDbEntity
 67
     1
  8
0
100
AcDbBlockEnd
  0
BLOCK
  5
24
330
23
100
AcDbEntity
  8
0
100
AcDbBlockBegin
  2
*Paper_Space0
 70
     0
 71
     0
 10
0.0
 20
0.0
 30
0.0
  3
*Paper_Space0
  1

  0
ENDBLK
  5
25
330
23
100
AcDbEntity
  8
0
100
AcDbBlockEnd
  0
BLOCK
  5
61
330
60
100
AcDbEntity
  8
0
100
AcDbBlockBegin
  2
*X11
 70
     1
 71
     0
 10
0.0
 20
0.0
 30
0.0
  3
*X11
  1

  4
*X1
  0
LINE
  5
63
330
60
100
AcDbEntity
  8
LC-004-005-----0
 62
     7
370
    25
100
AcDbLine
 10
805.897256
 20
395.775323
 30
0.0
 11
808.848623
 21
398.72669
 31
0.0
  0
LINE
  5
64
330
60
100
AcDbEntity
  8
LC-004-005-----0
 62
     7
370
    25
100
AcDbLine
 10
801.848623
 20
394.555117
 30
0.0
 11
806.60213
 21
399.308624
 31
0.0
  0
LINE
  5
65
330
60
100
AcDbEntity
  8
LC-004-005-----0
 62
     7
370
    25
100
AcDbLine
 10
796.908046
 20
392.442967
 30
0.0
 11
797.348623
 21
392.883544
 31
0.0
  0
LINE
  5
66
330
60
100
AcDbEntity
  8
LC-004-005-----0
 62
     7
370
    25
100
AcDbLine
 10
800.962199
 20
396.49712
 30
0.0
 11
803.773703
 21
399.308624
 31
0.0
  0
LINE
  5
67
330
60
100
AcDbEntity
  8
LC-004-005-----0
 62
     7
370
    25
100
AcDbLine
 10
793.629596
 20
391.992944
 30
0.0
 11
797.348623
 21
395.711972
 31
0.0
  0
LINE
  5
68
330
60
100
AcDbEntity
  8
LC-004-005-----0
 62
     7
370
    25
100
AcDbLine
 10
798.133772
 20
396.49712
 30
0.0
 11
800.945276
 21
399.308624
 31
0.0
  0
LINE
  5
69
330
60
100
AcDbEntity
  8
LC-004-005-----0
 62
     7
370
    25
100
AcDbLine
 10
790.710262
 20
391.902037
 30
0.0
 11
798.116849
 21
399.308624
 31
0.0
  0
LINE
  5
6A
330
60
100
AcDbEntity
  8
LC-004-005-----0
 62
     7
370
    25
100
AcDbLine
 10
788.050336
 20
392.070539
 30
0.0
 11
795.288422
 21
399.308624
 31
0.0
  0
LINE
  5
6B
330
60
100
AcDbEntity
  8
LC-004-005-----0
 62
     7
370
    25
100
AcDbLine
 10
785.593871
 20
392.4425
 30
0.0
 11
792.459995
 21
399.308624
 31
0.0
  0
LINE
  5
6C
330
60
100
AcDbEntity
  8
LC-004-005-----0
 62
     7
370
    25
100
AcDbLine
 10
783.305933
 20
392.98299
 30
0.0
 11
789.631568
 21
399.308624
 31
0.0
  0
LINE
  5
6D
330
60
100
AcDbEntity
  8
LC-004-005-----0
 62
     7
370
    25
100
AcDbLine
 10
781.163207
 20
393.668691
 30
0.0
 11
786.80314
 21
399.308624
 31
0.0
  0
LINE
  5
6E
330
60
100
AcDbEntity
  8
LC-004-005-----0
 62
     7
370
    25
100
AcDbLine
 10
779.149459
 20
394.48337
 30
0.0
 11
783.974713
 21
399.308624
 31
0.0
  0
LINE
  5
6F
330
60
100
AcDbEntity
  8
LC-004-005-----0
 62
     7
370
    25
100
AcDbLine
 10
775.834782
 20
393.99712
 30
0.0
 11
775.848623
 21
394.010961
 31
0.0
  0
LINE
  5
70
330
60
100
AcDbEntity
  8
LC-004-005-----0
 62
     7
370
    25
100
AcDbLine
 10
777.253108
 20
395.415446
 30
0.0
 11
781.146286
 21
399.308624
 31
0.0
  0
LINE
  5
71
330
60
100
AcDbEntity
  8
LC-004-005-----0
 62
     7
370
    25
100
AcDbLine
 10
773.348623
 20
394.339389
 30
0.0
 11
778.317859
 21
399.308624
 31
0.0
  0
LINE
  5
72
330
60
100
AcDbEntity
  8
LC-004-005-----0
 62
     7
370
    25
100
AcDbLine
 10
772.489432
 20
396.308624
 30
0.0
 11
775.489432
 21
399.308624
 31
0.0
  0
LINE
  5
73
330
60
100
AcDbEntity
  8
LC-004-005-----0
 62
     7
370
    25
100
AcDbLine
 10
769.661005
 20
396.308624
 30
0.0
 11
772.661005
 21
399.308624
 31
0.0
  0
LINE
  5
74
330
60
100
AcDbEntity
  8
LC-004-005-----0
 62
     7
370
    25
100
AcDbLine
 10
766.832578
 20
396.308624
 30
0.0
 11
769.832578
 21
399.308624
 31
0.0
  0
LINE
  5
75
330
60
100
AcDbEntity
  8
LC-004-005-----0
 62
     7
370
    25
100
AcDbLine
 10
759.12766
 20
391.432133
 30
0.0
 11
761.637311
 21
393.941785
 31
0.0
  0
LINE
  5
76
330
60
100
AcDbEntity
  8
LC-004-005-----0
 62
     7
370
    25
100
AcDbLine
 10
764.004151
 20
396.308624
 30
0.0
 11
767.004151
 21
399.308624
 31
0.0
  0
LINE
  5
77
330
60
100
AcDbEntity
  8
LC-004-005-----0
 62
     7
370
    25
100
AcDbLine
 10
756.187228
 20
391.320129
 30
0.0
 11
764.175723
 21
399.308624
 31
0.0
  0
LINE
  5
78
330
60
100
AcDbEntity
  8
LC-004-005-----0
 62
     7
370
    25
100
AcDbLine
 10
753.358801
 20
391.320129
 30
0.0
 11
756.358801
 21
394.320129
 31
0.0
  0
LINE
  5
79
330
60
100
AcDbEntity
  8
LC-004-005-----0
 62
     7
370
    25
100
AcDbLine
 10
758.749316
 20
396.710644
 30
0.0
 11
761.347296
 21
399.308624
 31
0.0
  0
LINE
  5
7A
330
60
100
AcDbEntity
  8
LC-004-005-----0
 62
     7
370
    25
100
AcDbLine
 10
750.530374
 20
391.320129
 30
0.0
 11
753.530374
 21
394.320129
 31
0.0
  0
LINE
  5
7B
330
60
100
AcDbEntity
  8
LC-004-005-----0
 62
     7
370
    25
100
AcDbLine
 10
747.701946
 20
391.320129
 30
0.0
 11
750.701946
 21
394.320129
 31
0.0
  0
LINE
  5
7C
330
60
100
AcDbEntity
  8
LC-004-005-----0
 62
     7
370
    25
100
AcDbLine
 10
744.873519
 20
391.320129
 30
0.0
 11
747.873519
 21
394.320129
 31
0.0
  0
LINE
  5
7D
330
60
100
AcDbEntity
  8
LC-004-005-----0
 62
     7
370
    25
100
AcDbLine
 10
742.045092
 20
391.320129
 30
0.0
 11
745.045092
 21
394.320129
 31
0.0
  0
LINE
  5
7E
330
60
100
AcDbEntity
  8
LC-004-005-----0
 62
     7
370
    25
100
AcDbLine
 10
739.216665
 20
391.320129
 30
0.0
 11
742.216665
 21
394.320129
 31
0.0
  0
LINE
  5
7F
330
60
100
AcDbEntity
  8
LC-004-005-----0
 62
     7
370
    25
100
AcDbLine
 10
736.388238
 20
391.320129
 30
0.0
 11
739.388238
 21
394.320129
 31
0.0
  0
LINE
  5
80
330
60
100
AcDbEntity
  8
LC-004-005-----0
 62
     7
370
    25
100
AcDbLine
 10
733.559811
 20
391.320129
 30
0.0
 11
736.559811
 21
394.320129
 31
0.0
  0
LINE
  5
81
330
60
100
AcDbEntity
  8
LC-004-005-----0
 62
     7
370
    25
100
AcDbLine
 10
730.731384
 20
391.320129
 30
0.0
 11
733.731384
 21
394.320129
 31
0.0
  0
LINE
  5
82
330
60
100
AcDbEntity
  8
LC-004-005-----0
 62
     7
370
    25
100
AcDbLine
 10
727.902957
 20
391.320129
 30
0.0
 11
730.902957
 21
394.320129
 31
0.0
  0
LINE
  5
83
330
60
100
AcDbEntity
  8
LC-004-005-----0
 62
     7
370
    25
100
AcDbLine
 10
725.074529
 20
391.320129
 30
0.0
 11
728.074529
 21
394.320129
 31
0.0
  0
LINE
  5
84
330
60
100
AcDbEntity
  8
LC-004-005-----0
 62
     7
370
    25
100
AcDbLine
 10
722.246102
 20
391.320129
 30
0.0
 11
725.246102
 21
394.320129
 31
0.0
  0
LINE
  5
85
330
60
100
AcDbEntity
  8
LC-004-005-----0
 62
     7
370
    25
100
AcDbLine
 10
719.417675
 20
391.320129
 30
0.0
 11
722.417675
 21
394.320129
 31
0.0
  0
LINE
  5
86
330
60
100
AcDbEntity
  8
LC-004-005-----0
 62
     7
370
    25
100
AcDbLine
 10
716.589248
 20
391.320129
 30
0.0
 11
719.589248
 21
394.320129
 31
0.0
  0
LINE
  5
87
330
60
100
AcDbEntity
  8
LC-004-005-----0
 62
     7
370
    25
100
AcDbLine
 10
713.760821
 20
391.320129
 30
0.0
 11
716.760821
 21
394.320129
 31
0.0
  0
LINE
  5
88
330
60
100
AcDbEntity
  8
LC-004-005-----0
 62
     7
370
    25
100
AcDbLine
 10
710.932394
 20
391.320129
 30
0.0
 11
713.932394
 21
394.320129
 31
0.0
  0
LINE
  5
89
330
60
100
AcDbEntity
  8
LC-004-005-----0
 62
     7
370
    25
100
AcDbLine
 10
708.103967
 20
391.320129
 30
0.0
 11
711.103967
 21
394.320129
 31
0.0
  0
LINE
  5
8A
330
60
100
AcDbEntity
  8
LC-004-005-----0
 62
     7
370
    25
100
AcDbLine
 10
705.27554
 20
391.320129
 30
0.0
 11
708.27554
 21
394.320129
 31
0.0
  0
LINE
  5
8B
330
60
100
AcDbEntity
  8
LC-004-005-----0
 62
     7
370
    25
100
AcDbLine
 10
702.447112
 20
391.320129
 30
0.0
 11
705.447112
 21
394.320129
 31
0.0
  0
LINE
  5
8C
330
60
100
AcDbEntity
  8
LC-004-005-----0
 62
     7
370
    25
100
AcDbLine
 10
699.618685
 20
391.320129
 30
0.0
 11
702.618685
 21
394.320129
 31
0.0
  0
LINE
  5
8D
330
60
100
AcDbEntity
  8
LC-004-005-----0
 62
     7
370
    25
100
AcDbLine
 10
696.790258
 20
391.320129
 30
0.0
 11
699.790258
 21
394.320129
 31
0.0
  0
LINE
  5
8E
330
60
100
AcDbEntity
  8
LC-004-005-----0
 62
     7
370
    25
100
AcDbLine
 10
693.961831
 20
391.320129
 30
0.0
 11
696.961831
 21
394.320129
 31
0.0
  0
LINE
  5
8F
330
60
100
AcDbEntity
  8
LC-004-005-----0
 62
     7
370
    25
100
AcDbLine
 10
691.133404
 20
391.320129
 30
0.0
 11
694.133404
 21
394.320129
 31
0.0
  0
LINE
  5
90
330
60
100
AcDbEntity
  8
LC-004-005-----0
 62
     7
370
    25
100
AcDbLine
 10
688.304977
 20
391.320129
 30
0.0
 11
691.304977
 21
394.320129
 31
0.0
  0
LINE
  5
91
330
60
100
AcDbEntity
  8
LC-004-005-----0
 62
     7
370
    25
100
AcDbLine
 10
685.47655
 20
391.320129
 30
0.0
 11
688.47655
 21
394.320129
 31
0.0
  0
LINE
  5
92
330
60
100
AcDbEntity
  8
LC-004-005-----0
 62
     7
370
    25
100
AcDbLine
 10
682.648123
 20
391.320129
 30
0.0
 11
685.648123
 21
394.320129
 31
0.0
  0
LINE
  5
93
330
60
100
AcDbEntity
  8
LC-004-005-----0
 62
     7
370
    25
100
AcDbLine
 10
679.819695
 20
391.320129
 30
0.0
 11
682.819695
 21
394.320129
 31
0.0
  0
LINE
  5
94
330
60
100
AcDbEntity
  8
LC-004-005-----0
 62
     7
370
    25
100
AcDbLine
 10
676.991268
 20
391.320129
 30
0.0
 11
679.991268
 21
394.320129
 31
0.0
  0
LINE
  5
95
330
60
100
AcDbEntity
  8
LC-004-005-----0
 62
     7
370
    25
100
AcDbLine
 10
674.162841
 20
391.320129
 30
0.0
 11
677.162841
 21
394.320129
 31
0.0
  0
LINE
  5
96
330
60
100
AcDbEntity
  8
LC-004-005-----0
 62
     7
370
    25
100
AcDbLine
 10
671.334414
 20
391.320129
 30
0.0
 11
674.334414
 21
394.320129
 31
0.0
  0
LINE
  5
97
330
60
100
AcDbEntity
  8
LC-004-005-----0
 62
     7
370
    25
100
AcDbLine
 10
668.505987
 20
391.320129
 30
0.0
 11
671.505987
 21
394.320129
 31
0.0
  0
LINE
  5
98
330
60
100
AcDbEntity
  8
LC-004-005-----0
 62
     7
370
    25
100
AcDbLine
 10
665.67756
 20
391.320129
 30
0.0
 11
668.67756
 21
394.320129
 31
0.0
  0
LINE
  5
99
330
60
100
AcDbEntity
  8
LC-004-005-----0
 62
     7
370
    25
100
AcDbLine
 10
662.849133
 20
391.320129
 30
0.0
 11
665.849133
 21
394.320129
 31
0.0
  0
LINE
  5
9A
330
60
100
AcDbEntity
  8
LC-004-005-----0
 62
     7
370
    25
100
AcDbLine
 10
660.020706
 20
391.320129
 30
0.0
 11
663.020706
 21
394.320129
 31
0.0
  0
LINE
  5
9B
330
60
100
AcDbEntity
  8
LC-004-005-----0
 62
     7
370
    25
100
AcDbLine
 10
657.192278
 20
391.320129
 30
0.0
 11
660.192278
 21
394.320129
 31
0.0
  0
LINE
  5
9C
330
60
100
AcDbEntity
  8
LC-004-005-----0
 62
     7
370
    25
100
AcDbLine
 10
654.455143
 20
391.411421
 30
0.0
 11
657.363851
 21
394.320129
 31
0.0
  0
LINE
  5
9D
330
60
100
AcDbEntity
  8
LC-004-005-----0
 62
     7
370
    25
100
AcDbLine
 10
652.669808
 20
392.454513
 30
0.0
 11
654.805379
 21
394.590084
 31
0.0
  0
LINE
  5
9E
330
60
100
AcDbEntity
  8
LC-004-005-----0
 62
     7
370
    25
100
AcDbLine
 10
651.775959
 20
394.389091
 30
0.0
 11
654.749316
 21
397.362447
 31
0.0
  0
LINE
  5
9F
330
60
100
AcDbEntity
  8
LC-004-005-----0
 62
     7
370
    25
100
AcDbLine
 10
651.749316
 20
397.190874
 30
0.0
 11
654.749316
 21
400.190874
 31
0.0
  0
LINE
  5
A0
330
60
100
AcDbEntity
  8
LC-004-005-----0
 62
     7
370
    25
100
AcDbLine
 10
651.088638
 20
399.358624
 30
0.0
 11
652.638638
 21
400.908624
 31
0.0
  0
LINE
  5
A1
330
60
100
AcDbEntity
  8
LC-004-005-----0
 62
     7
370
    25
100
AcDbLine
 10
648.260211
 20
399.358624
 30
0.0
 11
649.810211
 21
400.908624
 31
0.0
  0
LINE
  5
A2
330
60
100
AcDbEntity
  8
LC-004-005-----0
 62
     7
370
    25
100
AcDbLine
 10
645.431784
 20
399.358624
 30
0.0
 11
646.981784
 21
400.908624
 31
0.0
  0
LINE
  5
A3
330
60
100
AcDbEntity
  8
LC-004-005-----0
 62
     7
370
    25
100
AcDbLine
 10
642.603357
 20
399.358624
 30
0.0
 11
644.153357
 21
400.908624
 31
0.0
  0
LINE
  5
A4
330
60
100
AcDbEntity
  8
LC-004-005-----0
 62
     7
370
    25
100
AcDbLine
 10
639.77493
 20
399.358624
 30
0.0
 11
641.32493
 21
400.908624
 31
0.0
  0
LINE
  5
A5
330
60
100
AcDbEntity
  8
LC-004-005-----0
 62
     7
370
    25
100
AcDbLine
 10
636.946503
 20
399.358624
 30
0.0
 11
638.496503
 21
400.908624
 31
0.0
  0
LINE
  5
A6
330
60
100
AcDbEntity
  8
LC-004-005-----0
 62
     7
370
    25
100
AcDbLine
 10
634.118076
 20
399.358624
 30
0.0
 11
635.668076
 21
400.908624
 31
0.0
  0
LINE
  5
A7
330
60
100
AcDbEntity
  8
LC-004-005-----0
 62
     7
370
    25
100
AcDbLine
 10
631.289649
 20
399.358624
 30
0.0
 11
632.839649
 21
400.908624
 31
0.0
  0
LINE
  5
A8
330
60
100
AcDbEntity
  8
LC-004-005-----0
 62
     7
370
    25
100
AcDbLine
 10
628.461221
 20
399.358624
 30
0.0
 11
630.011221
 21
400.908624
 31
0.0
  0
LINE
  5
A9
330
60
100
AcDbEntity
  8
LC-004-005-----0
 62
     7
370
    25
100
AcDbLine
 10
625.632794
 20
399.358624
 30
0.0
 11
627.182794
 21
400.908624
 31
0.0
  0
LINE
  5
AA
330
60
100
AcDbEntity
  8
LC-004-005-----0
 62
     7
370
    25
100
AcDbLine
 10
622.804367
 20
399.358624
 30
0.0
 11
624.354367
 21
400.908624
 31
0.0
  0
LINE
  5
AB
330
60
100
AcDbEntity
  8
LC-004-005-----0
 62
     7
370
    25
100
AcDbLine
 10
619.97594
 20
399.358624
 30
0.0
 11
621.52594
 21
400.908624
 31
0.0
  0
LINE
  5
AC
330
60
100
AcDbEntity
  8
LC-004-005-----0
 62
     7
370
    25
100
AcDbLine
 10
617.147513
 20
399.358624
 30
0.0
 11
618.697513
 21
400.908624
 31
0.0
  0
LINE
  5
AD
330
60
100
AcDbEntity
  8
LC-004-005-----0
 62
     7
370
    25
100
AcDbLine
 10
609.269086
 20
394.308624
 30
0.0
 11
615.869086
 21
400.908624
 31
0.0
  0
LINE
  5
AE
330
60
100
AcDbEntity
  8
LC-004-005-----0
 62
     7
370
    25
100
AcDbLine
 10
606.440659
 20
394.308624
 30
0.0
 11
608.590659
 21
396.458624
 31
0.0
  0
LINE
  5
AF
330
60
100
AcDbEntity
  8
LC-004-005-----0
 62
     7
370
    25
100
AcDbLine
 10
611.241482
 20
399.109448
 30
0.0
 11
613.040659
 21
400.908624
 31
0.0
  0
LINE
  5
B0
330
60
100
AcDbEntity
  8
LC-004-005-----0
 62
     7
370
    25
100
AcDbLine
 10
603.614903
 20
394.311296
 30
0.0
 11
605.762232
 21
396.458624
 31
0.0
  0
LINE
  5
B1
330
60
100
AcDbEntity
  8
LC-004-005-----0
 62
     7
370
    25
100
AcDbLine
 10
601.641428
 20
395.166248
 30
0.0
 11
603.512643
 21
397.037463
 31
0.0
  0
LINE
  5
B2
330
60
100
AcDbEntity
  8
LC-004-005-----0
 62
     7
370
    25
100
AcDbLine
 10
600.748616
 20
397.101863
 30
0.0
 11
602.09843
 21
398.451677
 31
0.0
  0
LINE
  5
B3
330
60
100
AcDbEntity
  8
LC-004-005-----0
 62
     7
370
    25
100
AcDbLine
 10
598.12695
 20
397.308624
 30
0.0
 11
599.62695
 21
398.808624
 31
0.0
  0
LINE
  5
B4
330
60
100
AcDbEntity
  8
LC-004-005-----0
 62
     7
370
    25
100
AcDbLine
 10
596.741482
 20
398.751583
 30
0.0
 11
596.798523
 21
398.808624
 31
0.0
  0
ENDBLK
  5
62
330
60
100
AcDbEntity
  8
0
100
AcDbBlockEnd
  0
BLOCK
  5
BC
330
BB
100
AcDbEntity
  8
0
100
AcDbBlockBegin
  2
*X22
 70
     1
 71
     0
 10
0.0
 20
0.0
 30
0.0
  3
*X22
  1

  4
*X2
  0
LINE
  5
BE
330
BB
100
AcDbEntity
  8
LC-004-005-----0
 62
     7
370
    25
100
AcDbLine
 10
667.909635
 20
450.120747
 30
0.0
 11
669.240723
 21
451.451834
 31
0.0
  0
LINE
  5
BF
330
BB
100
AcDbEntity
  8
LC-004-005-----0
 62
     7
370
    25
100
AcDbLine
 10
667.381223
 20
450.15802
 30
0.0
 11
669.20345
 21
451.980247
 31
0.0
  0
LINE
  5
C0
330
BB
100
AcDbEntity
  8
LC-004-005-----0
 62
     7
370
    25
100
AcDbLine
 10
666.981239
 20
450.323722
 30
0.0
 11
669.037748
 21
452.38023
 31
0.0
  0
LINE
  5
C1
330
BB
100
AcDbEntity
  8
LC-004-005-----0
 62
     7
370
    25
100
AcDbLine
 10
666.666233
 20
450.574401
 30
0.0
 11
668.787069
 21
452.695237
 31
0.0
  0
LINE
  5
C2
330
BB
100
AcDbEntity
  8
LC-004-005-----0
 62
     7
370
    25
100
AcDbLine
 10
666.428099
 20
450.901952
 30
0.0
 11
668.459518
 21
452.933371
 31
0.0
  0
LINE
  5
C3
330
BB
100
AcDbEntity
  8
LC-004-005-----0
 62
     7
370
    25
100
AcDbLine
 10
666.278444
 20
451.317982
 30
0.0
 11
668.043487
 21
453.083026
 31
0.0
  0
LINE
  5
C4
330
BB
100
AcDbEntity
  8
LC-004-005-----0
 62
     7
370
    25
100
AcDbLine
 10
666.273124
 20
451.878348
 30
0.0
 11
667.483122
 21
453.088346
 31
0.0
  0
ENDBLK
  5
BD
330
BB
100
AcDbEntity
  8
0
100
AcDbBlockEnd
  0
BLOCK
  5
C9
330
C8
100
AcDbEntity
  8
0
100
AcDbBlockBegin
  2
*X33
 70
     1
 71
     0
 10
0.0
 20
0.0
 30
0.0
  3
*X33
  1

  4
*X3
  0
LINE
  5
CB
330
C8
100
AcDbEntity
  8
LC-004-005-----0
 62
     7
370
    25
100
AcDbLine
 10
745.984124
 20
450.130647
 30
0.0
 11
747.230824
 21
451.377347
 31
0.0
  0
LINE
  5
CC
330
C8
100
AcDbEntity
  8
LC-004-005-----0
 62
     7
370
    25
100
AcDbLine
 10
745.433557
 20
450.145766
 30
0.0
 11
747.215705
 21
451.927913
 31
0.0
  0
LINE
  5
CD
330
C8
100
AcDbEntity
  8
LC-004-005-----0
 62
     7
370
    25
100
AcDbLine
 10
745.02225
 20
450.300143
 30
0.0
 11
747.061328
 21
452.339221
 31
0.0
  0
LINE
  5
CE
330
C8
100
AcDbEntity
  8
LC-004-005-----0
 62
     7
370
    25
100
AcDbLine
 10
744.698329
 20
450.541908
 30
0.0
 11
746.819562
 21
452.663141
 31
0.0
  0
LINE
  5
CF
330
C8
100
AcDbEntity
  8
LC-004-005-----0
 62
     7
370
    25
100
AcDbLine
 10
744.451235
 20
450.8605
 30
0.0
 11
746.500971
 21
452.910236
 31
0.0
  0
LINE
  5
D0
330
C8
100
AcDbEntity
  8
LC-004-005-----0
 62
     7
370
    25
100
AcDbLine
 10
744.290043
 20
451.264993
 30
0.0
 11
746.096478
 21
453.071428
 31
0.0
  0
LINE
  5
D1
330
C8
100
AcDbEntity
  8
LC-004-005-----0
 62
     7
370
    25
100
AcDbLine
 10
744.261381
 20
451.802016
 30
0.0
 11
745.559455
 21
453.10009
 31
0.0
  0
ENDBLK
  5
CA
330
C8
100
AcDbEntity
  8
0
100
AcDbBlockEnd
  0
BLOCK
  5
DA
330
D9
100
AcDbEntity
  8
0
100
AcDbBlockBegin
  2
*X44
 70
     1
 71
     0
 10
0.0
 20
0.0
 30
0.0
  3
*X44
  1

  4
*X4
  0
LINE
  5
DC
330
D9
100
AcDbEntity
  8
LC-004-005-----0
 62
     7
370
    25
100
AcDbLine
 10
738.139564
 20
395.899881
 30
0.0
 11
743.461589
 21
401.221907
 31
0.0
  0
LINE
  5
DD
330
D9
100
AcDbEntity
  8
LC-004-005-----0
 62
     7
370
    25
100
AcDbLine
 10
734.527273
 20
395.116018
 30
0.0
 11
736.266146
 21
396.854891
 31
0.0
  0
LINE
  5
DE
330
D9
100
AcDbEntity
  8
LC-004-005-----0
 62
     7
370
    25
100
AcDbLine
 10
742.50658
 20
403.095325
 30
0.0
 11
744.245453
 21
404.834198
 31
0.0
  0
LINE
  5
DF
330
D9
100
AcDbEntity
  8
LC-004-005-----0
 62
     7
370
    25
100
AcDbLine
 10
731.694982
 20
395.112155
 30
0.0
 11
733.194982
 21
396.612155
 31
0.0
  0
LINE
  5
E0
330
D9
100
AcDbEntity
  8
LC-004-005-----0
 62
     7
370
    25
100
AcDbLine
 10
742.749316
 20
406.166488
 30
0.0
 11
744.249316
 21
407.666488
 31
0.0
  0
LINE
  5
E1
330
D9
100
AcDbEntity
  8
LC-004-005-----0
 62
     7
370
    25
100
AcDbLine
 10
728.866555
 20
395.112155
 30
0.0
 11
730.366555
 21
396.612155
 31
0.0
  0
LINE
  5
E2
330
D9
100
AcDbEntity
  8
LC-004-005-----0
 62
     7
370
    25
100
AcDbLine
 10
742.749316
 20
408.994916
 30
0.0
 11
744.249316
 21
410.494916
 31
0.0
  0
LINE
  5
E3
330
D9
100
AcDbEntity
  8
LC-004-005-----0
 62
     7
370
    25
100
AcDbLine
 10
726.038128
 20
395.112155
 30
0.0
 11
727.538128
 21
396.612155
 31
0.0
  0
LINE
  5
E4
330
D9
100
AcDbEntity
  8
LC-004-005-----0
 62
     7
370
    25
100
AcDbLine
 10
742.749316
 20
411.823343
 30
0.0
 11
744.249316
 21
413.323343
 31
0.0
  0
LINE
  5
E5
330
D9
100
AcDbEntity
  8
LC-004-005-----0
 62
     7
370
    25
100
AcDbLine
 10
723.209701
 20
395.112155
 30
0.0
 11
724.709701
 21
396.612155
 31
0.0
  0
LINE
  5
E6
330
D9
100
AcDbEntity
  8
LC-004-005-----0
 62
     7
370
    25
100
AcDbLine
 10
742.749316
 20
414.65177
 30
0.0
 11
744.249316
 21
416.15177
 31
0.0
  0
LINE
  5
E7
330
D9
100
AcDbEntity
  8
LC-004-005-----0
 62
     7
370
    25
100
AcDbLine
 10
720.381274
 20
395.112155
 30
0.0
 11
721.881274
 21
396.612155
 31
0.0
  0
LINE
  5
E8
330
D9
100
AcDbEntity
  8
LC-004-005-----0
 62
     7
370
    25
100
AcDbLine
 10
742.749316
 20
417.480197
 30
0.0
 11
744.249316
 21
418.980197
 31
0.0
  0
LINE
  5
E9
330
D9
100
AcDbEntity
  8
LC-004-005-----0
 62
     7
370
    25
100
AcDbLine
 10
717.708061
 20
395.267369
 30
0.0
 11
719.071978
 21
396.631286
 31
0.0
  0
LINE
  5
EA
330
D9
100
AcDbEntity
  8
LC-004-005-----0
 62
     7
370
    25
100
AcDbLine
 10
742.749316
 20
420.308624
 30
0.0
 11
744.249316
 21
421.808624
 31
0.0
  0
LINE
  5
EB
330
D9
100
AcDbEntity
  8
LC-004-005-----0
 62
     7
370
    25
100
AcDbLine
 10
715.433028
 20
395.820763
 30
0.0
 11
716.635462
 21
397.023197
 31
0.0
  0
LINE
  5
EC
330
D9
100
AcDbEntity
  8
LC-004-005-----0
 62
     7
370
    25
100
AcDbLine
 10
742.749316
 20
423.137051
 30
0.0
 11
744.249316
 21
424.637051
 31
0.0
  0
LINE
  5
ED
330
D9
100
AcDbEntity
  8
LC-004-005-----0
 62
     7
370
    25
100
AcDbLine
 10
713.453784
 20
396.669946
 30
0.0
 11
714.570855
 21
397.787017
 31
0.0
  0
LINE
  5
EE
330
D9
100
AcDbEntity
  8
LC-004-005-----0
 62
     7
370
    25
100
AcDbLine
 10
742.749316
 20
425.965478
 30
0.0
 11
744.249316
 21
427.465478
 31
0.0
  0
LINE
  5
EF
330
D9
100
AcDbEntity
  8
LC-004-005-----0
 62
     7
370
    25
100
AcDbLine
 10
711.717074
 20
397.761663
 30
0.0
 11
712.79098
 21
398.835569
 31
0.0
  0
LINE
  5
F0
330
D9
100
AcDbEntity
  8
LC-004-005-----0
 62
     7
370
    25
100
AcDbLine
 10
742.749316
 20
428.793905
 30
0.0
 11
744.249316
 21
430.293905
 31
0.0
  0
LINE
  5
F1
330
D9
100
AcDbEntity
  8
LC-004-005-----0
 62
     7
370
    25
100
AcDbLine
 10
710.198284
 20
399.071301
 30
0.0
 11
711.258945
 21
400.131961
 31
0.0
  0
LINE
  5
F2
330
D9
100
AcDbEntity
  8
LC-004-005-----0
 62
     7
370
    25
100
AcDbLine
 10
742.749316
 20
431.622332
 30
0.0
 11
744.249316
 21
433.122332
 31
0.0
  0
LINE
  5
F3
330
D9
100
AcDbEntity
  8
LC-004-005-----0
 62
     7
370
    25
100
AcDbLine
 10
708.89017
 20
400.591614
 30
0.0
 11
709.964272
 21
401.665715
 31
0.0
  0
LINE
  5
F4
330
D9
100
AcDbEntity
  8
LC-004-005-----0
 62
     7
370
    25
100
AcDbLine
 10
742.749316
 20
434.450759
 30
0.0
 11
744.249316
 21
435.950759
 31
0.0
  0
LINE
  5
F5
330
D9
100
AcDbEntity
  8
LC-004-005-----0
 62
     7
370
    25
100
AcDbLine
 10
707.73213
 20
402.262001
 30
0.0
 11
708.794126
 21
403.323996
 31
0.0
  0
LINE
  5
F6
330
D9
100
AcDbEntity
  8
LC-004-005-----0
 62
     7
370
    25
100
AcDbLine
 10
698.690708
 20
396.049006
 30
0.0
 11
706.770458
 21
404.128756
 31
0.0
  0
LINE
  5
F7
330
D9
100
AcDbEntity
  8
LC-004-005-----0
 62
     7
370
    25
100
AcDbLine
 10
694.981807
 20
395.168532
 30
0.0
 11
696.826746
 21
397.013471
 31
0.0
  0
LINE
  5
F8
330
D9
100
AcDbEntity
  8
LC-004-005-----0
 62
     7
370
    25
100
AcDbLine
 10
692.097003
 20
395.112155
 30
0.0
 11
693.597003
 21
396.612155
 31
0.0
  0
LINE
  5
F9
330
D9
100
AcDbEntity
  8
LC-004-005-----0
 62
     7
370
    25
100
AcDbLine
 10
746.097003
 20
449.112155
 30
0.0
 11
746.7493
 21
449.764452
 31
0.0
  0
LINE
  5
FA
330
D9
100
AcDbEntity
  8
LC-004-005-----0
 62
     7
370
    25
100
AcDbLine
 10
689.268576
 20
395.112155
 30
0.0
 11
690.768576
 21
396.612155
 31
0.0
  0
LINE
  5
FB
330
D9
100
AcDbEntity
  8
LC-004-005-----0
 62
     7
370
    25
100
AcDbLine
 10
744.249305
 20
450.092884
 30
0.0
 11
744.268576
 21
450.112155
 31
0.0
  0
LINE
  5
FC
330
D9
100
AcDbEntity
  8
LC-004-005-----0
 62
     7
370
    25
100
AcDbLine
 10
686.440148
 20
395.112155
 30
0.0
 11
687.940148
 21
396.612155
 31
0.0
  0
LINE
  5
FD
330
D9
100
AcDbEntity
  8
LC-004-005-----0
 62
     7
370
    25
100
AcDbLine
 10
683.611721
 20
395.112155
 30
0.0
 11
685.111721
 21
396.612155
 31
0.0
  0
LINE
  5
FE
330
D9
100
AcDbEntity
  8
LC-004-005-----0
 62
     7
370
    25
100
AcDbLine
 10
680.783294
 20
395.112155
 30
0.0
 11
682.283294
 21
396.612155
 31
0.0
  0
LINE
  5
FF
330
D9
100
AcDbEntity
  8
LC-004-005-----0
 62
     7
370
    25
100
AcDbLine
 10
678.029539
 20
395.186826
 30
0.0
 11
679.454867
 21
396.612155
 31
0.0
  0
LINE
  5
100
330
D9
100
AcDbEntity
  8
LC-004-005-----0
 62
     7
370
    25
100
AcDbLine
 10
675.756327
 20
395.742041
 30
0.0
 11
676.944801
 21
396.930516
 31
0.0
  0
LINE
  5
101
330
D9
100
AcDbEntity
  8
LC-004-005-----0
 62
     7
370
    25
100
AcDbLine
 10
673.868857
 20
396.682999
 30
0.0
 11
674.959771
 21
397.773912
 31
0.0
  0
LINE
  5
102
330
D9
100
AcDbEntity
  8
LC-004-005-----0
 62
     7
370
    25
100
AcDbLine
 10
672.289241
 20
397.93181
 30
0.0
 11
673.350053
 21
398.992621
 31
0.0
  0
LINE
  5
103
330
D9
100
AcDbEntity
  8
LC-004-005-----0
 62
     7
370
    25
100
AcDbLine
 10
670.995462
 20
399.466458
 30
0.0
 11
672.078008
 21
400.549004
 31
0.0
  0
LINE
  5
104
330
D9
100
AcDbEntity
  8
LC-004-005-----0
 62
     7
370
    25
100
AcDbLine
 10
670.003322
 20
401.302746
 30
0.0
 11
671.170438
 21
402.469861
 31
0.0
  0
LINE
  5
105
330
D9
100
AcDbEntity
  8
LC-004-005-----0
 62
     7
370
    25
100
AcDbLine
 10
669.379006
 20
403.506857
 30
0.0
 11
670.752478
 21
404.880329
 31
0.0
  0
LINE
  5
106
330
D9
100
AcDbEntity
  8
LC-004-005-----0
 62
     7
370
    25
100
AcDbLine
 10
669.249316
 20
406.205594
 30
0.0
 11
670.749316
 21
407.705594
 31
0.0
  0
LINE
  5
107
330
D9
100
AcDbEntity
  8
LC-004-005-----0
 62
     7
370
    25
100
AcDbLine
 10
669.249316
 20
409.034021
 30
0.0
 11
670.749316
 21
410.534021
 31
0.0
  0
LINE
  5
108
330
D9
100
AcDbEntity
  8
LC-004-005-----0
 62
     7
370
    25
100
AcDbLine
 10
669.249316
 20
411.862448
 30
0.0
 11
670.749316
 21
413.362448
 31
0.0
  0
LINE
  5
109
330
D9
100
AcDbEntity
  8
LC-004-005-----0
 62
     7
370
    25
100
AcDbLine
 10
669.249316
 20
414.690875
 30
0.0
 11
670.749316
 21
416.190875
 31
0.0
  0
LINE
  5
10A
330
D9
100
AcDbEntity
  8
LC-004-005-----0
 62
     7
370
    25
100
AcDbLine
 10
669.249316
 20
417.519302
 30
0.0
 11
670.749316
 21
419.019302
 31
0.0
  0
LINE
  5
10B
330
D9
100
AcDbEntity
  8
LC-004-005-----0
 62
     7
370
    25
100
AcDbLine
 10
669.249316
 20
420.347729
 30
0.0
 11
670.749316
 21
421.847729
 31
0.0
  0
LINE
  5
10C
330
D9
100
AcDbEntity
  8
LC-004-005-----0
 62
     7
370
    25
100
AcDbLine
 10
669.249316
 20
423.176156
 30
0.0
 11
670.749316
 21
424.676156
 31
0.0
  0
LINE
  5
10D
330
D9
100
AcDbEntity
  8
LC-004-005-----0
 62
     7
370
    25
100
AcDbLine
 10
669.249316
 20
426.004583
 30
0.0
 11
670.749316
 21
427.504583
 31
0.0
  0
LINE
  5
10E
330
D9
100
AcDbEntity
  8
LC-004-005-----0
 62
     7
370
    25
100
AcDbLine
 10
669.249316
 20
428.83301
 30
0.0
 11
670.749316
 21
430.33301
 31
0.0
  0
LINE
  5
10F
330
D9
100
AcDbEntity
  8
LC-004-005-----0
 62
     7
370
    25
100
AcDbLine
 10
669.249316
 20
431.661437
 30
0.0
 11
670.749316
 21
433.161437
 31
0.0
  0
LINE
  5
110
330
D9
100
AcDbEntity
  8
LC-004-005-----0
 62
     7
370
    25
100
AcDbLine
 10
669.249316
 20
434.489864
 30
0.0
 11
670.749316
 21
435.989864
 31
0.0
  0
LINE
  5
111
330
D9
100
AcDbEntity
  8
LC-004-005-----0
 62
     7
370
    25
100
AcDbLine
 10
669.249316
 20
437.318291
 30
0.0
 11
669.896247
 21
437.965223
 31
0.0
  0
LINE
  5
112
330
D9
100
AcDbEntity
  8
LC-004-005-----0
 62
     7
370
    25
100
AcDbLine
 10
666.901043
 20
449.112155
 30
0.0
 11
667.901043
 21
450.112155
 31
0.0
  0
ENDBLK
  5
DB
330
D9
100
AcDbEntity
  8
0
100
AcDbBlockEnd
  0
BLOCK
  5
160
330
15F
100
AcDbEntity
  8
0
100
AcDbBlockBegin
  2
*X55
 70
     1
 71
     0
 10
0.0
 20
0.0
 30
0.0
  3
*X55
  1

  4
*X5
  0
LINE
  5
162
330
15F
100
AcDbEntity
  8
LC-004-005-----0
 62
     7
370
    25
100
AcDbLine
 10
747.249316
 20
454.832212
 30
0.0
 11
746.534085
 21
455.547443
 31
0.0
  0
LINE
  5
163
330
15F
100
AcDbEntity
  8
LC-004-005-----0
 62
     7
370
    25
100
AcDbLine
 10
745.317309
 20
453.935792
 30
0.0
 11
744.168207
 21
455.084894
 31
0.0
  0
LINE
  5
164
330
15F
100
AcDbEntity
  8
LC-004-005-----0
 62
     7
370
    25
100
AcDbLine
 10
744.249316
 20
452.175358
 30
0.0
 11
742.480545
 21
453.944129
 31
0.0
  0
LINE
  5
165
330
15F
100
AcDbEntity
  8
LC-004-005-----0
 62
     7
370
    25
100
AcDbLine
 10
745.484092
 20
448.112155
 30
0.0
 11
744.484092
 21
449.112155
 31
0.0
  0
LINE
  5
166
330
15F
100
AcDbEntity
  8
LC-004-005-----0
 62
     7
370
    25
100
AcDbLine
 10
744.249316
 20
449.34693
 30
0.0
 11
740.816968
 21
452.779279
 31
0.0
  0
LINE
  5
167
330
15F
100
AcDbEntity
  8
LC-004-005-----0
 62
     7
370
    25
100
AcDbLine
 10
740.230413
 20
450.537407
 30
0.0
 11
739.15339
 21
451.614429
 31
0.0
  0
LINE
  5
168
330
15F
100
AcDbEntity
  8
LC-004-005-----0
 62
     7
370
    25
100
AcDbLine
 10
738.566835
 20
449.372557
 30
0.0
 11
737.489812
 21
450.44958
 31
0.0
  0
LINE
  5
169
330
15F
100
AcDbEntity
  8
LC-004-005-----0
 62
     7
370
    25
100
AcDbLine
 10
736.903257
 20
448.207708
 30
0.0
 11
735.826235
 21
449.28473
 31
0.0
  0
LINE
  5
16A
330
15F
100
AcDbEntity
  8
LC-004-005-----0
 62
     7
370
    25
100
AcDbLine
 10
735.23968
 20
447.042858
 30
0.0
 11
734.162657
 21
448.119881
 31
0.0
  0
LINE
  5
16B
330
15F
100
AcDbEntity
  8
LC-004-005-----0
 62
     7
370
    25
100
AcDbLine
 10
733.576102
 20
445.878009
 30
0.0
 11
732.49908
 21
446.955031
 31
0.0
  0
LINE
  5
16C
330
15F
100
AcDbEntity
  8
LC-004-005-----0
 62
     7
370
    25
100
AcDbLine
 10
731.91307
 20
444.712614
 30
0.0
 11
730.882153
 21
445.743531
 31
0.0
  0
LINE
  5
16D
330
15F
100
AcDbEntity
  8
LC-004-005-----0
 62
     7
370
    25
100
AcDbLine
 10
730.411271
 20
443.385986
 30
0.0
 11
729.486342
 21
444.310915
 31
0.0
  0
LINE
  5
16E
330
15F
100
AcDbEntity
  8
LC-004-005-----0
 62
     7
370
    25
100
AcDbLine
 10
729.195865
 20
441.772965
 30
0.0
 11
728.331331
 21
442.637499
 31
0.0
  0
LINE
  5
16F
330
15F
100
AcDbEntity
  8
LC-004-005-----0
 62
     7
370
    25
100
AcDbLine
 10
728.293672
 20
439.846731
 30
0.0
 11
727.441519
 21
440.698883
 31
0.0
  0
LINE
  5
170
330
15F
100
AcDbEntity
  8
LC-004-005-----0
 62
     7
370
    25
100
AcDbLine
 10
727.792393
 20
437.519582
 30
0.0
 11
726.877884
 21
438.434091
 31
0.0
  0
LINE
  5
171
330
15F
100
AcDbEntity
  8
LC-004-005-----0
 62
     7
370
    25
100
AcDbLine
 10
727.749315
 20
434.734233
 30
0.0
 11
726.749315
 21
435.734233
 31
0.0
  0
LINE
  5
172
330
15F
100
AcDbEntity
  8
LC-004-005-----0
 62
     7
370
    25
100
AcDbLine
 10
727.749315
 20
431.905806
 30
0.0
 11
726.749315
 21
432.905806
 31
0.0
  0
LINE
  5
173
330
15F
100
AcDbEntity
  8
LC-004-005-----0
 62
     7
370
    25
100
AcDbLine
 10
727.749315
 20
429.077379
 30
0.0
 11
726.749315
 21
430.077379
 31
0.0
  0
LINE
  5
174
330
15F
100
AcDbEntity
  8
LC-004-005-----0
 62
     7
370
    25
100
AcDbLine
 10
727.749315
 20
426.248952
 30
0.0
 11
726.749315
 21
427.248952
 31
0.0
  0
LINE
  5
175
330
15F
100
AcDbEntity
  8
LC-004-005-----0
 62
     7
370
    25
100
AcDbLine
 10
727.749315
 20
423.420524
 30
0.0
 11
726.749315
 21
424.420524
 31
0.0
  0
LINE
  5
176
330
15F
100
AcDbEntity
  8
LC-004-005-----0
 62
     7
370
    25
100
AcDbLine
 10
727.749315
 20
420.592097
 30
0.0
 11
726.749315
 21
421.592097
 31
0.0
  0
LINE
  5
177
330
15F
100
AcDbEntity
  8
LC-004-005-----0
 62
     7
370
    25
100
AcDbLine
 10
727.749315
 20
417.76367
 30
0.0
 11
726.749315
 21
418.76367
 31
0.0
  0
LINE
  5
178
330
15F
100
AcDbEntity
  8
LC-004-005-----0
 62
     7
370
    25
100
AcDbLine
 10
727.749315
 20
414.935243
 30
0.0
 11
726.749315
 21
415.935243
 31
0.0
  0
LINE
  5
179
330
15F
100
AcDbEntity
  8
LC-004-005-----0
 62
     7
370
    25
100
AcDbLine
 10
727.749316
 20
412.106816
 30
0.0
 11
726.749316
 21
413.106816
 31
0.0
  0
LINE
  5
17A
330
15F
100
AcDbEntity
  8
LC-004-005-----0
 62
     7
370
    25
100
AcDbLine
 10
727.749316
 20
409.278389
 30
0.0
 11
726.749316
 21
410.278389
 31
0.0
  0
LINE
  5
17B
330
15F
100
AcDbEntity
  8
LC-004-005-----0
 62
     7
370
    25
100
AcDbLine
 10
727.088332
 20
407.110945
 30
0.0
 11
726.749316
 21
407.449961
 31
0.0
  0
LINE
  5
17C
330
15F
100
AcDbEntity
  8
LC-004-005-----0
 62
     7
370
    25
100
AcDbLine
 10
686.473424
 20
439.240571
 30
0.0
 11
684.736637
 21
440.977359
 31
0.0
  0
LINE
  5
17D
330
15F
100
AcDbEntity
  8
LC-004-005-----0
 62
     7
370
    25
100
AcDbLine
 10
679.633856
 20
446.08014
 30
0.0
 11
673.525757
 21
452.188239
 31
0.0
  0
LINE
  5
17E
330
15F
100
AcDbEntity
  8
LC-004-005-----0
 62
     7
370
    25
100
AcDbLine
 10
686.749315
 20
436.136253
 30
0.0
 11
685.733649
 21
437.15192
 31
0.0
  0
LINE
  5
17F
330
15F
100
AcDbEntity
  8
LC-004-005-----0
 62
     7
370
    25
100
AcDbLine
 10
671.47619
 20
451.409378
 30
0.0
 11
667.371426
 21
455.514142
 31
0.0
  0
LINE
  5
180
330
15F
100
AcDbEntity
  8
LC-004-005-----0
 62
     7
370
    25
100
AcDbLine
 10
686.749315
 20
433.307826
 30
0.0
 11
685.749316
 21
434.307826
 31
0.0
  0
LINE
  5
181
330
15F
100
AcDbEntity
  8
LC-004-005-----0
 62
     7
370
    25
100
AcDbLine
 10
670.967921
 20
449.089221
 30
0.0
 11
669.249315
 21
450.807826
 31
0.0
  0
LINE
  5
182
330
15F
100
AcDbEntity
  8
LC-004-005-----0
 62
     7
370
    25
100
AcDbLine
 10
686.749316
 20
430.479399
 30
0.0
 11
685.749316
 21
431.479399
 31
0.0
  0
LINE
  5
183
330
15F
100
AcDbEntity
  8
LC-004-005-----0
 62
     7
370
    25
100
AcDbLine
 10
669.116559
 20
448.112155
 30
0.0
 11
668.116559
 21
449.112155
 31
0.0
  0
LINE
  5
184
330
15F
100
AcDbEntity
  8
LC-004-005-----0
 62
     7
370
    25
100
AcDbLine
 10
686.749316
 20
427.650972
 30
0.0
 11
685.749316
 21
428.650972
 31
0.0
  0
LINE
  5
185
330
15F
100
AcDbEntity
  8
LC-004-005-----0
 62
     7
370
    25
100
AcDbLine
 10
686.749316
 20
424.822544
 30
0.0
 11
685.749316
 21
425.822544
 31
0.0
  0
LINE
  5
186
330
15F
100
AcDbEntity
  8
LC-004-005-----0
 62
     7
370
    25
100
AcDbLine
 10
686.749316
 20
421.994117
 30
0.0
 11
685.749316
 21
422.994117
 31
0.0
  0
LINE
  5
187
330
15F
100
AcDbEntity
  8
LC-004-005-----0
 62
     7
370
    25
100
AcDbLine
 10
686.749316
 20
419.16569
 30
0.0
 11
685.749316
 21
420.16569
 31
0.0
  0
LINE
  5
188
330
15F
100
AcDbEntity
  8
LC-004-005-----0
 62
     7
370
    25
100
AcDbLine
 10
686.749316
 20
416.337263
 30
0.0
 11
685.749316
 21
417.337263
 31
0.0
  0
LINE
  5
189
330
15F
100
AcDbEntity
  8
LC-004-005-----0
 62
     7
370
    25
100
AcDbLine
 10
686.749316
 20
413.508836
 30
0.0
 11
685.749316
 21
414.508836
 31
0.0
  0
LINE
  5
18A
330
15F
100
AcDbEntity
  8
LC-004-005-----0
 62
     7
370
    25
100
AcDbLine
 10
686.749316
 20
410.680409
 30
0.0
 11
685.749316
 21
411.680409
 31
0.0
  0
LINE
  5
18B
330
15F
100
AcDbEntity
  8
LC-004-005-----0
 62
     7
370
    25
100
AcDbLine
 10
686.749316
 20
407.851982
 30
0.0
 11
685.749316
 21
408.851982
 31
0.0
  0
ENDBLK
  5
161
330
15F
100
AcDbEntity
  8
0
100
AcDbBlockEnd
  0
BLOCK
  5
1B7
330
1B6
100
AcDbEntity
  8
0
100
AcDbBlockBegin
  2
*X66
 70
     1
 71
     0
 10
0.0
 20
0.0
 30
0.0
  3
*X66
  1

  4
*X6
  0
LINE
  5
1B9
330
1B6
100
AcDbEntity
  8
LC-004-005-----0
 62
     7
370
    25
100
AcDbLine
 10
799.885727
 20
446.332336
 30
0.0
 11
801.324912
 21
447.771521
 31
0.0
  0
LINE
  5
1BA
330
1B6
100
AcDbEntity
  8
LC-004-005-----0
 62
     7
370
    25
100
AcDbLine
 10
799.31884
 20
446.331135
 30
0.0
 11
801.326113
 21
448.338408
 31
0.0
  0
LINE
  5
1BB
330
1B6
100
AcDbEntity
  8
LC-004-005-----0
 62
     7
370
    25
100
AcDbLine
 10
798.88345
 20
446.461431
 30
0.0
 11
801.195817
 21
448.773797
 31
0.0
  0
LINE
  5
1BC
330
1B6
100
AcDbEntity
  8
LC-004-005-----0
 62
     7
370
    25
100
AcDbLine
 10
798.529504
 20
446.67317
 30
0.0
 11
800.984078
 21
449.127744
 31
0.0
  0
LINE
  5
1BD
330
1B6
100
AcDbEntity
  8
LC-004-005-----0
 62
     7
370
    25
100
AcDbLine
 10
798.242808
 20
446.952159
 30
0.0
 11
800.705088
 21
449.41444
 31
0.0
  0
LINE
  5
1BE
330
1B6
100
AcDbEntity
  8
LC-004-005-----0
 62
     7
370
    25
100
AcDbLine
 10
798.022697
 20
447.297733
 30
0.0
 11
800.359514
 21
449.634551
 31
0.0
  0
LINE
  5
1BF
330
1B6
100
AcDbEntity
  8
LC-004-005-----0
 62
     7
370
    25
100
AcDbLine
 10
797.8813
 20
447.722022
 30
0.0
 11
799.935226
 21
449.775948
 31
0.0
  0
LINE
  5
1C0
330
1B6
100
AcDbEntity
  8
LC-004-005-----0
 62
     7
370
    25
100
AcDbLine
 10
797.861139
 20
448.267546
 30
0.0
 11
799.389701
 21
449.796109
 31
0.0
  0
ENDBLK
  5
1B8
330
1B6
100
AcDbEntity
  8
0
100
AcDbBlockEnd
  0
BLOCK
  5
1D7
330
1D6
100
AcDbEntity
  8
0
100
AcDbBlockBegin
  2
*X77
 70
     1
 71
     0
 10
0.0
 20
0.0
 30
0.0
  3
*X77
  1

  4
*X7
  0
LINE
  5
1D9
330
1D6
100
AcDbEntity
  8
LC-004-005-----0
 62
     7
370
    25
100
AcDbLine
 10
897.749316
 20
397.670307
 30
0.0
 11
896.860999
 21
398.558624
 31
0.0
  0
LINE
  5
1DA
330
1D6
100
AcDbEntity
  8
LC-004-005-----0
 62
     7
370
    25
100
AcDbLine
 10
895.852894
 20
396.738302
 30
0.0
 11
894.032572
 21
398.558624
 31
0.0
  0
LINE
  5
1DB
330
1D6
100
AcDbEntity
  8
LC-004-005-----0
 62
     7
370
    25
100
AcDbLine
 10
893.454144
 20
396.308624
 30
0.0
 11
891.204144
 21
398.558624
 31
0.0
  0
LINE
  5
1DC
330
1D6
100
AcDbEntity
  8
LC-004-005-----0
 62
     7
370
    25
100
AcDbLine
 10
890.625717
 20
396.308624
 30
0.0
 11
888.375717
 21
398.558624
 31
0.0
  0
LINE
  5
1DD
330
1D6
100
AcDbEntity
  8
LC-004-005-----0
 62
     7
370
    25
100
AcDbLine
 10
887.79729
 20
396.308624
 30
0.0
 11
885.54729
 21
398.558624
 31
0.0
  0
LINE
  5
1DE
330
1D6
100
AcDbEntity
  8
LC-004-005-----0
 62
     7
370
    25
100
AcDbLine
 10
884.968863
 20
396.308624
 30
0.0
 11
882.718863
 21
398.558624
 31
0.0
  0
LINE
  5
1DF
330
1D6
100
AcDbEntity
  8
LC-004-005-----0
 62
     7
370
    25
100
AcDbLine
 10
882.140436
 20
396.308624
 30
0.0
 11
879.890436
 21
398.558624
 31
0.0
  0
LINE
  5
1E0
330
1D6
100
AcDbEntity
  8
LC-004-005-----0
 62
     7
370
    25
100
AcDbLine
 10
879.312009
 20
396.308624
 30
0.0
 11
877.062009
 21
398.558624
 31
0.0
  0
LINE
  5
1E1
330
1D6
100
AcDbEntity
  8
LC-004-005-----0
 62
     7
370
    25
100
AcDbLine
 10
876.483582
 20
396.308624
 30
0.0
 11
874.233582
 21
398.558624
 31
0.0
  0
LINE
  5
1E2
330
1D6
100
AcDbEntity
  8
LC-004-005-----0
 62
     7
370
    25
100
AcDbLine
 10
873.655155
 20
396.308624
 30
0.0
 11
871.405155
 21
398.558624
 31
0.0
  0
LINE
  5
1E3
330
1D6
100
AcDbEntity
  8
LC-004-005-----0
 62
     7
370
    25
100
AcDbLine
 10
870.826727
 20
396.308624
 30
0.0
 11
868.576727
 21
398.558624
 31
0.0
  0
LINE
  5
1E4
330
1D6
100
AcDbEntity
  8
LC-004-005-----0
 62
     7
370
    25
100
AcDbLine
 10
867.9983
 20
396.308624
 30
0.0
 11
865.7483
 21
398.558624
 31
0.0
  0
LINE
  5
1E5
330
1D6
100
AcDbEntity
  8
LC-004-005-----0
 62
     7
370
    25
100
AcDbLine
 10
865.169873
 20
396.308624
 30
0.0
 11
862.919873
 21
398.558624
 31
0.0
  0
LINE
  5
1E6
330
1D6
100
AcDbEntity
  8
LC-004-005-----0
 62
     7
370
    25
100
AcDbLine
 10
862.341446
 20
396.308624
 30
0.0
 11
860.091446
 21
398.558624
 31
0.0
  0
LINE
  5
1E7
330
1D6
100
AcDbEntity
  8
LC-004-005-----0
 62
     7
370
    25
100
AcDbLine
 10
859.513019
 20
396.308624
 30
0.0
 11
857.263019
 21
398.558624
 31
0.0
  0
LINE
  5
1E8
330
1D6
100
AcDbEntity
  8
LC-004-005-----0
 62
     7
370
    25
100
AcDbLine
 10
856.684592
 20
396.308624
 30
0.0
 11
854.434592
 21
398.558624
 31
0.0
  0
LINE
  5
1E9
330
1D6
100
AcDbEntity
  8
LC-004-005-----0
 62
     7
370
    25
100
AcDbLine
 10
853.856165
 20
396.308624
 30
0.0
 11
851.606165
 21
398.558624
 31
0.0
  0
LINE
  5
1EA
330
1D6
100
AcDbEntity
  8
LC-004-005-----0
 62
     7
370
    25
100
AcDbLine
 10
851.027738
 20
396.308624
 30
0.0
 11
848.777738
 21
398.558624
 31
0.0
  0
LINE
  5
1EB
330
1D6
100
AcDbEntity
  8
LC-004-005-----0
 62
     7
370
    25
100
AcDbLine
 10
848.199311
 20
396.308624
 30
0.0
 11
845.949311
 21
398.558624
 31
0.0
  0
LINE
  5
1EC
330
1D6
100
AcDbEntity
  8
LC-004-005-----0
 62
     7
370
    25
100
AcDbLine
 10
845.370883
 20
396.308624
 30
0.0
 11
843.120883
 21
398.558624
 31
0.0
  0
LINE
  5
1ED
330
1D6
100
AcDbEntity
  8
LC-004-005-----0
 62
     7
370
    25
100
AcDbLine
 10
842.542456
 20
396.308624
 30
0.0
 11
840.292456
 21
398.558624
 31
0.0
  0
LINE
  5
1EE
330
1D6
100
AcDbEntity
  8
LC-004-005-----0
 62
     7
370
    25
100
AcDbLine
 10
839.714029
 20
396.308624
 30
0.0
 11
837.464029
 21
398.558624
 31
0.0
  0
LINE
  5
1EF
330
1D6
100
AcDbEntity
  8
LC-004-005-----0
 62
     7
370
    25
100
AcDbLine
 10
836.885602
 20
396.308624
 30
0.0
 11
834.635602
 21
398.558624
 31
0.0
  0
LINE
  5
1F0
330
1D6
100
AcDbEntity
  8
LC-004-005-----0
 62
     7
370
    25
100
AcDbLine
 10
834.057175
 20
396.308624
 30
0.0
 11
831.807175
 21
398.558624
 31
0.0
  0
LINE
  5
1F1
330
1D6
100
AcDbEntity
  8
LC-004-005-----0
 62
     7
370
    25
100
AcDbLine
 10
831.228748
 20
396.308624
 30
0.0
 11
828.978748
 21
398.558624
 31
0.0
  0
LINE
  5
1F2
330
1D6
100
AcDbEntity
  8
LC-004-005-----0
 62
     7
370
    25
100
AcDbLine
 10
828.400321
 20
396.308624
 30
0.0
 11
826.150321
 21
398.558624
 31
0.0
  0
LINE
  5
1F3
330
1D6
100
AcDbEntity
  8
LC-004-005-----0
 62
     7
370
    25
100
AcDbLine
 10
825.571894
 20
396.308624
 30
0.0
 11
823.321894
 21
398.558624
 31
0.0
  0
LINE
  5
1F4
330
1D6
100
AcDbEntity
  8
LC-004-005-----0
 62
     7
370
    25
100
AcDbLine
 10
822.743466
 20
396.308624
 30
0.0
 11
820.493466
 21
398.558624
 31
0.0
  0
LINE
  5
1F5
330
1D6
100
AcDbEntity
  8
LC-004-005-----0
 62
     7
370
    25
100
AcDbLine
 10
819.915039
 20
396.308624
 30
0.0
 11
817.665039
 21
398.558624
 31
0.0
  0
LINE
  5
1F6
330
1D6
100
AcDbEntity
  8
LC-004-005-----0
 62
     7
370
    25
100
AcDbLine
 10
817.086612
 20
396.308624
 30
0.0
 11
814.836612
 21
398.558624
 31
0.0
  0
LINE
  5
1F7
330
1D6
100
AcDbEntity
  8
LC-004-005-----0
 62
     7
370
    25
100
AcDbLine
 10
814.258185
 20
396.308624
 30
0.0
 11
812.008185
 21
398.558624
 31
0.0
  0
LINE
  5
1F8
330
1D6
100
AcDbEntity
  8
LC-004-005-----0
 62
     7
370
    25
100
AcDbLine
 10
811.429758
 20
396.308624
 30
0.0
 11
809.702091
 21
398.036292
 31
0.0
  0
LINE
  5
1F9
330
1D6
100
AcDbEntity
  8
LC-004-005-----0
 62
     7
370
    25
100
AcDbLine
 10
809.768645
 20
395.14131
 30
0.0
 11
808.075494
 21
396.834461
 31
0.0
  0
LINE
  5
1FA
330
1D6
100
AcDbEntity
  8
LC-004-005-----0
 62
     7
370
    25
100
AcDbLine
 10
808.061902
 20
394.019626
 30
0.0
 11
806.348585
 21
395.732943
 31
0.0
  0
LINE
  5
1FB
330
1D6
100
AcDbEntity
  8
LC-004-005-----0
 62
     7
370
    25
100
AcDbLine
 10
806.258874
 20
392.994227
 30
0.0
 11
804.51664
 21
394.736461
 31
0.0
  0
LINE
  5
1FC
330
1D6
100
AcDbEntity
  8
LC-004-005-----0
 62
     7
370
    25
100
AcDbLine
 10
804.354242
 20
392.070432
 30
0.0
 11
802.572872
 21
393.851802
 31
0.0
  0
LINE
  5
1FD
330
1D6
100
AcDbEntity
  8
LC-004-005-----0
 62
     7
370
    25
100
AcDbLine
 10
802.340724
 20
391.255522
 30
0.0
 11
800.507803
 21
393.088443
 31
0.0
  0
LINE
  5
1FE
330
1D6
100
AcDbEntity
  8
LC-004-005-----0
 62
     7
370
    25
100
AcDbLine
 10
800.208438
 20
390.559381
 30
0.0
 11
798.308246
 21
392.459573
 31
0.0
  0
LINE
  5
1FF
330
1D6
100
AcDbEntity
  8
LC-004-005-----0
 62
     7
370
    25
100
AcDbLine
 10
797.94389
 20
389.995503
 30
0.0
 11
795.95559
 21
391.983803
 31
0.0
  0
LINE
  5
200
330
1D6
100
AcDbEntity
  8
LC-004-005-----0
 62
     7
370
    25
100
AcDbLine
 10
795.528295
 20
389.582671
 30
0.0
 11
793.422742
 21
391.688223
 31
0.0
  0
LINE
  5
201
330
1D6
100
AcDbEntity
  8
LC-004-005-----0
 62
     7
370
    25
100
AcDbLine
 10
792.934621
 20
389.347917
 30
0.0
 11
790.66822
 21
391.614318
 31
0.0
  0
LINE
  5
202
330
1D6
100
AcDbEntity
  8
LC-004-005-----0
 62
     7
370
    25
100
AcDbLine
 10
790.145487
 20
389.308624
 30
0.0
 11
787.623248
 21
391.830863
 31
0.0
  0
LINE
  5
203
330
1D6
100
AcDbEntity
  8
LC-004-005-----0
 62
     7
370
    25
100
AcDbLine
 10
787.31706
 20
389.308624
 30
0.0
 11
784.157933
 21
392.467751
 31
0.0
  0
LINE
  5
204
330
1D6
100
AcDbEntity
  8
LC-004-005-----0
 62
     7
370
    25
100
AcDbLine
 10
784.488632
 20
389.308624
 30
0.0
 11
782.749316
 21
391.047941
 31
0.0
  0
ENDBLK
  5
1D8
330
1D6
100
AcDbEntity
  8
0
100
AcDbBlockEnd
  0
BLOCK
  5
207
330
206
100
AcDbEntity
  8
0
100
AcDbBlockBegin
  2
*X88
 70
     1
 71
     0
 10
0.0
 20
0.0
 30
0.0
  3
*X88
  1

  4
*X8
  0
LINE
  5
209
330
206
100
AcDbEntity
  8
LC-004-005-----0
 62
     7
370
    25
100
AcDbLine
 10
896.615833
 20
444.058624
 30
0.0
 11
894.408481
 21
446.265976
 31
0.0
  0
LINE
  5
20A
330
206
100
AcDbEntity
  8
LC-004-005-----0
 62
     7
370
    25
100
AcDbLine
 10
893.787406
 20
444.058624
 30
0.0
 11
891.537406
 21
446.308624
 31
0.0
  0
LINE
  5
20B
330
206
100
AcDbEntity
  8
LC-004-005-----0
 62
     7
370
    25
100
AcDbLine
 10
890.958978
 20
444.058624
 30
0.0
 11
888.708978
 21
446.308624
 31
0.0
  0
LINE
  5
20C
330
206
100
AcDbEntity
  8
LC-004-005-----0
 62
     7
370
    25
100
AcDbLine
 10
888.130551
 20
444.058624
 30
0.0
 11
885.880551
 21
446.308624
 31
0.0
  0
LINE
  5
20D
330
206
100
AcDbEntity
  8
LC-004-005-----0
 62
     7
370
    25
100
AcDbLine
 10
885.302124
 20
444.058624
 30
0.0
 11
883.052124
 21
446.308624
 31
0.0
  0
LINE
  5
20E
330
206
100
AcDbEntity
  8
LC-004-005-----0
 62
     7
370
    25
100
AcDbLine
 10
882.473697
 20
444.058624
 30
0.0
 11
880.223697
 21
446.308624
 31
0.0
  0
LINE
  5
20F
330
206
100
AcDbEntity
  8
LC-004-005-----0
 62
     7
370
    25
100
AcDbLine
 10
879.64527
 20
444.058624
 30
0.0
 11
877.39527
 21
446.308624
 31
0.0
  0
LINE
  5
210
330
206
100
AcDbEntity
  8
LC-004-005-----0
 62
     7
370
    25
100
AcDbLine
 10
876.816843
 20
444.058624
 30
0.0
 11
874.566843
 21
446.308624
 31
0.0
  0
LINE
  5
211
330
206
100
AcDbEntity
  8
LC-004-005-----0
 62
     7
370
    25
100
AcDbLine
 10
873.988416
 20
444.058624
 30
0.0
 11
871.738416
 21
446.308624
 31
0.0
  0
LINE
  5
212
330
206
100
AcDbEntity
  8
LC-004-005-----0
 62
     7
370
    25
100
AcDbLine
 10
871.159989
 20
444.058624
 30
0.0
 11
868.909989
 21
446.308624
 31
0.0
  0
LINE
  5
213
330
206
100
AcDbEntity
  8
LC-004-005-----0
 62
     7
370
    25
100
AcDbLine
 10
868.331561
 20
444.058624
 30
0.0
 11
866.081561
 21
446.308624
 31
0.0
  0
LINE
  5
214
330
206
100
AcDbEntity
  8
LC-004-005-----0
 62
     7
370
    25
100
AcDbLine
 10
865.503134
 20
444.058624
 30
0.0
 11
863.253134
 21
446.308624
 31
0.0
  0
LINE
  5
215
330
206
100
AcDbEntity
  8
LC-004-005-----0
 62
     7
370
    25
100
AcDbLine
 10
862.674707
 20
444.058624
 30
0.0
 11
860.424707
 21
446.308624
 31
0.0
  0
LINE
  5
216
330
206
100
AcDbEntity
  8
LC-004-005-----0
 62
     7
370
    25
100
AcDbLine
 10
859.84628
 20
444.058624
 30
0.0
 11
857.59628
 21
446.308624
 31
0.0
  0
LINE
  5
217
330
206
100
AcDbEntity
  8
LC-004-005-----0
 62
     7
370
    25
100
AcDbLine
 10
857.017853
 20
444.058624
 30
0.0
 11
854.767853
 21
446.308624
 31
0.0
  0
LINE
  5
218
330
206
100
AcDbEntity
  8
LC-004-005-----0
 62
     7
370
    25
100
AcDbLine
 10
854.189426
 20
444.058624
 30
0.0
 11
851.939426
 21
446.308624
 31
0.0
  0
LINE
  5
219
330
206
100
AcDbEntity
  8
LC-004-005-----0
 62
     7
370
    25
100
AcDbLine
 10
851.360999
 20
444.058624
 30
0.0
 11
849.110999
 21
446.308624
 31
0.0
  0
LINE
  5
21A
330
206
100
AcDbEntity
  8
LC-004-005-----0
 62
     7
370
    25
100
AcDbLine
 10
848.532572
 20
444.058624
 30
0.0
 11
846.282572
 21
446.308624
 31
0.0
  0
LINE
  5
21B
330
206
100
AcDbEntity
  8
LC-004-005-----0
 62
     7
370
    25
100
AcDbLine
 10
845.704144
 20
444.058624
 30
0.0
 11
843.454144
 21
446.308624
 31
0.0
  0
LINE
  5
21C
330
206
100
AcDbEntity
  8
LC-004-005-----0
 62
     7
370
    25
100
AcDbLine
 10
842.875717
 20
444.058624
 30
0.0
 11
840.625717
 21
446.308624
 31
0.0
  0
LINE
  5
21D
330
206
100
AcDbEntity
  8
LC-004-005-----0
 62
     7
370
    25
100
AcDbLine
 10
840.04729
 20
444.058624
 30
0.0
 11
837.79729
 21
446.308624
 31
0.0
  0
LINE
  5
21E
330
206
100
AcDbEntity
  8
LC-004-005-----0
 62
     7
370
    25
100
AcDbLine
 10
837.218863
 20
444.058624
 30
0.0
 11
834.968863
 21
446.308624
 31
0.0
  0
LINE
  5
21F
330
206
100
AcDbEntity
  8
LC-004-005-----0
 62
     7
370
    25
100
AcDbLine
 10
834.390436
 20
444.058624
 30
0.0
 11
832.140436
 21
446.308624
 31
0.0
  0
LINE
  5
220
330
206
100
AcDbEntity
  8
LC-004-005-----0
 62
     7
370
    25
100
AcDbLine
 10
831.562009
 20
444.058624
 30
0.0
 11
829.312009
 21
446.308624
 31
0.0
  0
LINE
  5
221
330
206
100
AcDbEntity
  8
LC-004-005-----0
 62
     7
370
    25
100
AcDbLine
 10
828.733582
 20
444.058624
 30
0.0
 11
826.483582
 21
446.308624
 31
0.0
  0
LINE
  5
222
330
206
100
AcDbEntity
  8
LC-004-005-----0
 62
     7
370
    25
100
AcDbLine
 10
825.905155
 20
444.058624
 30
0.0
 11
823.655155
 21
446.308624
 31
0.0
  0
LINE
  5
223
330
206
100
AcDbEntity
  8
LC-004-005-----0
 62
     7
370
    25
100
AcDbLine
 10
823.076727
 20
444.058624
 30
0.0
 11
820.826727
 21
446.308624
 31
0.0
  0
LINE
  5
224
330
206
100
AcDbEntity
  8
LC-004-005-----0
 62
     7
370
    25
100
AcDbLine
 10
820.2483
 20
444.058624
 30
0.0
 11
817.9983
 21
446.308624
 31
0.0
  0
LINE
  5
225
330
206
100
AcDbEntity
  8
LC-004-005-----0
 62
     7
370
    25
100
AcDbLine
 10
817.419873
 20
444.058624
 30
0.0
 11
815.169873
 21
446.308624
 31
0.0
  0
LINE
  5
226
330
206
100
AcDbEntity
  8
LC-004-005-----0
 62
     7
370
    25
100
AcDbLine
 10
814.591446
 20
444.058624
 30
0.0
 11
812.341446
 21
446.308624
 31
0.0
  0
LINE
  5
227
330
206
100
AcDbEntity
  8
LC-004-005-----0
 62
     7
370
    25
100
AcDbLine
 10
811.763019
 20
444.058624
 30
0.0
 11
806.132368
 21
449.689276
 31
0.0
  0
LINE
  5
228
330
206
100
AcDbEntity
  8
LC-004-005-----0
 62
     7
370
    25
100
AcDbLine
 10
805.783771
 20
447.209445
 30
0.0
 11
801.257014
 21
451.736203
 31
0.0
  0
LINE
  5
229
330
206
100
AcDbEntity
  8
LC-004-005-----0
 62
     7
370
    25
100
AcDbLine
 10
800.699643
 20
449.465146
 30
0.0
 11
797.441418
 21
452.723371
 31
0.0
  0
LINE
  5
22A
330
206
100
AcDbEntity
  8
LC-004-005-----0
 62
     7
370
    25
100
AcDbLine
 10
796.863008
 20
450.473354
 30
0.0
 11
794.150584
 21
453.185778
 31
0.0
  0
LINE
  5
22B
330
206
100
AcDbEntity
  8
LC-004-005-----0
 62
     7
370
    25
100
AcDbLine
 10
793.591797
 20
450.916138
 30
0.0
 11
791.199311
 21
453.308624
 31
0.0
  0
LINE
  5
22C
330
206
100
AcDbEntity
  8
LC-004-005-----0
 62
     7
370
    25
100
AcDbLine
 10
790.676418
 20
451.00309
 30
0.0
 11
788.370883
 21
453.308624
 31
0.0
  0
LINE
  5
22D
330
206
100
AcDbEntity
  8
LC-004-005-----0
 62
     7
370
    25
100
AcDbLine
 10
788.018729
 20
450.832351
 30
0.0
 11
785.542456
 21
453.308624
 31
0.0
  0
LINE
  5
22E
330
206
100
AcDbEntity
  8
LC-004-005-----0
 62
     7
370
    25
100
AcDbLine
 10
785.563455
 20
450.459198
 30
0.0
 11
782.749316
 21
453.273338
 31
0.0
  0
ENDBLK
  5
208
330
206
100
AcDbEntity
  8
0
100
AcDbBlockEnd
  0
BLOCK
  5
236
330
235
100
AcDbEntity
  8
0
100
AcDbBlockBegin
  2
*X99
 70
     1
 71
     0
 10
0.0
 20
0.0
 30
0.0
  3
*X99
  1

  4
*X9
  0
LINE
  5
238
330
235
100
AcDbEntity
  8
LC-004-005-----0
 62
     7
370
    25
100
AcDbLine
 10
800.618613
 20
393.325107
 30
0.0
 11
801.020636
 21
393.72713
 31
0.0
  0
LINE
  5
239
330
235
100
AcDbEntity
  8
LC-004-005-----0
 62
     7
370
    25
100
AcDbLine
 10
799.729869
 20
393.002049
 30
0.0
 11
801.343695
 21
394.615874
 31
0.0
  0
LINE
  5
23A
330
235
100
AcDbEntity
  8
LC-004-005-----0
 62
     7
370
    25
100
AcDbLine
 10
799.204267
 20
393.042132
 30
0.0
 11
801.303611
 21
395.141476
 31
0.0
  0
LINE
  5
23B
330
235
100
AcDbEntity
  8
LC-004-005-----0
 62
     7
370
    25
100
AcDbLine
 10
798.791048
 20
393.194599
 30
0.0
 11
801.151145
 21
395.554695
 31
0.0
  0
LINE
  5
23C
330
235
100
AcDbEntity
  8
LC-004-005-----0
 62
     7
370
    25
100
AcDbLine
 10
798.454067
 20
393.423303
 30
0.0
 11
800.92244
 21
395.891676
 31
0.0
  0
LINE
  5
23D
330
235
100
AcDbEntity
  8
LC-004-005-----0
 62
     7
370
    25
100
AcDbLine
 10
798.183151
 20
393.718072
 30
0.0
 11
800.627671
 21
396.162592
 31
0.0
  0
LINE
  5
23E
330
235
100
AcDbEntity
  8
LC-004-005-----0
 62
     7
370
    25
100
AcDbLine
 10
797.980368
 20
394.080975
 30
0.0
 11
800.264769
 21
396.365375
 31
0.0
  0
LINE
  5
23F
330
235
100
AcDbEntity
  8
LC-004-005-----0
 62
     7
370
    25
100
AcDbLine
 10
797.862319
 20
394.528611
 30
0.0
 11
799.817133
 21
396.483425
 31
0.0
  0
LINE
  5
240
330
235
100
AcDbEntity
  8
LC-004-005-----0
 62
     7
370
    25
100
AcDbLine
 10
797.88903
 20
395.121008
 30
0.0
 11
799.224736
 21
396.456713
 31
0.0
  0
ENDBLK
  5
237
330
235
100
AcDbEntity
  8
0
100
AcDbBlockEnd
  0
BLOCK
  5
261
330
256
100
AcDbEntity
  8
0
100
AcDbBlockBegin
  2
*D10
 70
     1
 71
     0
 10
0.0
 20
0.0
 30
0.0
  3
*D10
  1

  0
LINE
  5
257
330
256
100
AcDbEntity
  8
LC-010-003-----0
 62
     2
370
    -2
100
AcDbLine
 10
742.749316
 20
437.112155
 30
0.0
 11
880.533041
 21
437.112155
 31
0.0
  0
LINE
  5
258
330
256
100
AcDbEntity
  8
LC-010-003-----0
 62
     2
370
    -2
100
AcDbLine
 10
727.749316
 20
407.110945
 30
0.0
 11
880.533041
 21
407.110945
 31
0.0
  0
LINE
  5
259
330
256
100
AcDbEntity
  8
LC-010-003-----0
 62
     2
370
    -2
100
AcDbLine
 10
876.933041
 20
379.110945
 30
0.0
 11
876.933041
 21
351.110945
 31
0.0
  0
LINE
  5
25A
330
256
100
AcDbEntity
  8
LC-010-003-----0
 62
     2
370
    -2
100
AcDbLine
 10
876.933041
 20
465.112155
 30
0.0
 11
876.933041
 21
526.362862
 31
0.0
  0
SOLID
  5
25B
330
256
100
AcDbEntity
  8
LC-010-003-----0
 62
     2
100
AcDbTrace
 10
872.266374
 20
465.112155
 30
0.0
 11
881.599707
 21
465.112155
 31
0.0
 12
876.933041
 22
437.112155
 32
0.0
 13
876.933041
 23
437.112155
 33
0.0
  0
SOLID
  5
25C
330
256
100
AcDbEntity
  8
LC-010-003-----0
 62
     2
100
AcDbTrace
 10
881.599707
 20
379.110945
 30
0.0
 11
872.266374
 21
379.110945
 31
0.0
 12
876.933041
 22
407.110945
 32
0.0
 13
876.933041
 23
407.110945
 33
0.0
  0
MTEXT
  5
25D
330
256
100
AcDbEntity
  8
LC-010-003-----0
 62
     2
100
AcDbMText
 10
846.133041
 20
503.440635
 30
0.0
 40
28.0
 41
0.0
 71
     5
 72
     1
  1
\A1;30
  7
LCTX15-400-0-0pDIN-Schrift
 11
6.123031769111886E-17
 21
1.0
 31
0.0
 73
     1
 44
1.0
  0
POINT
  5
25E
330
256
100
AcDbEntity
  8
Defpoints
 62
     0
100
AcDbPoint
 10
742.749316
 20
437.112155
 30
0.0
  0
POINT
  5
25F
330
256
100
AcDbEntity
  8
Defpoints
 62
     0
100
AcDbPoint
 10
727.749316
 20
407.110945
 30
0.0
  0
POINT
  5
260
330
256
100
AcDbEntity
  8
Defpoints
 62
     0
100
AcDbPoint
 10
876.933041
 20
407.110945
 30
0.0
  0
ENDBLK
  5
262
330
256
100
AcDbEntity
  8
0
100
AcDbBlockEnd
  0
BLOCK
  5
270
330
264
100
AcDbEntity
  8
0
100
AcDbBlockBegin
  2
*D11
 70
     1
 71
     0
 10
0.0
 20
0.0
 30
0.0
  3
*D11
  1

  0
LINE
  5
265
330
264
100
AcDbEntity
  8
LC-010-003-----0
 62
     2
370
    -2
100
AcDbLine
 10
601.123665
 20
469.409136
 30
0.0
 11
542.133041
 21
469.409136
 31
0.0
  0
LINE
  5
266
330
264
100
AcDbEntity
  8
LC-010-003-----0
 62
     2
370
    -2
100
AcDbLine
 10
596.741482
 20
421.308624
 30
0.0
 11
542.133041
 21
421.308624
 31
0.0
  0
LINE
  5
267
330
264
100
AcDbEntity
  8
LC-010-003-----0
 62
     2
370
    -2
100
AcDbLine
 10
545.733041
 20
497.409136
 30
0.0
 11
545.733041
 21
525.409136
 31
0.0
  0
LINE
  5
268
330
264
100
AcDbEntity
  8
LC-010-003-----0
 62
     2
370
    -2
100
AcDbLine
 10
545.733041
 20
393.308624
 30
0.0
 11
545.733041
 21
365.308624
 31
0.0
  0
LINE
  5
269
330
264
100
AcDbEntity
  8
LC-010-003-----0
 62
     2
370
    -2
100
AcDbLine
 10
545.733041
 20
469.409136
 30
0.0
 11
545.733041
 21
421.308624
 31
0.0
  0
SOLID
  5
26A
330
264
100
AcDbEntity
  8
LC-010-003-----0
 62
     2
100
AcDbTrace
 10
541.066374
 20
497.409136
 30
0.0
 11
550.399707
 21
497.409136
 31
0.0
 12
545.733041
 22
469.409136
 32
0.0
 13
545.733041
 23
469.409136
 33
0.0
  0
SOLID
  5
26B
330
264
100
AcDbEntity
  8
LC-010-003-----0
 62
     2
100
AcDbTrace
 10
550.399707
 20
393.308624
 30
0.0
 11
541.066374
 21
393.308624
 31
0.0
 12
545.733041
 22
421.308624
 32
0.0
 13
545.733041
 23
421.308624
 33
0.0
  0
MTEXT
  5
26C
330
264
100
AcDbEntity
  8
LC-010-003-----0
 62
     2
100
AcDbMText
 10
514.933041
 20
445.35888
 30
0.0
 40
28.0
 41
0.0
 71
     5
 72
     1
  1
\A1;48
  7
LCTX15-400-0-0pDIN-Schrift
 11
6.123031769111886E-17
 21
1.0
 31
0.0
 73
     1
 44
1.0
  0
POINT
  5
26D
330
264
100
AcDbEntity
  8
Defpoints
 62
     0
100
AcDbPoint
 10
601.123665
 20
469.409136
 30
0.0
  0
POINT
  5
26E
330
264
100
AcDbEntity
  8
Defpoints
 62
     0
100
AcDbPoint
 10
596.741482
 20
421.308624
 30
0.0
  0
POINT
  5
26F
330
264
100
AcDbEntity
  8
Defpoints
 62
     0
100
AcDbPoint
 10
545.733041
 20
421.308624
 30
0.0
  0
ENDBLK
  5
271
330
264
100
AcDbEntity
  8
0
100
AcDbBlockEnd
  0
BLOCK
  5
288
330
287
100
AcDbEntity
  8
0
100
AcDbBlockBegin
  2
*X1012
 70
     1
 71
     0
 10
0.0
 20
0.0
 30
0.0
  3
*X1012
  1

  4
*X10
  0
LINE
  5
28A
330
287
100
AcDbEntity
  8
LC-004-005-----0
 62
     7
370
    25
100
AcDbLine
 10
610.962203
 20
445.172485
 30
0.0
 11
610.408579
 21
445.726109
 31
0.0
  0
LINE
  5
28B
330
287
100
AcDbEntity
  8
LC-004-005-----0
  6
DASHED
 62
     7
370
    25
100
AcDbLine
 10
611.241482
 20
443.761835
 30
0.0
 11
609.724693
 21
445.278624
 31
0.0
  0
LINE
  5
28C
330
287
100
AcDbEntity
  8
LC-004-005-----0
  6
DASHED
 62
     7
370
    25
100
AcDbLine
 10
611.234876
 20
443.202756
 30
0.0
 11
609.159008
 21
445.278624
 31
0.0
  0
LINE
  5
28D
330
287
100
AcDbEntity
  8
LC-004-005-----0
  6
DASHED
 62
     7
370
    25
100
AcDbLine
 10
609.081482
 20
445.35615
 30
0.0
 11
608.327197
 21
446.110436
 31
0.0
  0
LINE
  5
28E
330
287
100
AcDbEntity
  8
LC-004-005-----0
 62
     7
370
    25
100
AcDbLine
 10
610.488791
 20
442.81747
 30
0.0
 11
607.507637
 21
445.798624
 31
0.0
  0
LINE
  5
28F
330
287
100
AcDbEntity
  8
LC-004-005-----0
 62
     7
370
    25
100
AcDbLine
 10
609.817039
 20
442.923536
 30
0.0
 11
606.814859
 21
445.925717
 31
0.0
  0
LINE
  5
290
330
287
100
AcDbEntity
  8
LC-004-005-----0
  6
DASHED
 62
     7
370
    25
100
AcDbLine
 10
608.536872
 20
443.072333
 30
0.0
 11
605.514063
 21
446.095142
 31
0.0
  0
LINE
  5
291
330
287
100
AcDbEntity
  8
LC-004-005-----0
  6
DASHED
 62
     7
370
    25
100
AcDbLine
 10
608.408375
 20
442.635145
 30
0.0
 11
605.244895
 21
445.798624
 31
0.0
  0
LINE
  5
292
330
287
100
AcDbEntity
  8
LC-004-005-----0
 62
     7
370
    25
100
AcDbLine
 10
609.103805
 20
440.808344
 30
0.0
 11
604.287313
 21
445.624836
 31
0.0
  0
LINE
  5
293
330
287
100
AcDbEntity
  8
LC-004-005-----0
 62
     7
370
    25
100
AcDbLine
 10
609.307851
 20
440.038612
 30
0.0
 11
604.008552
 21
445.337912
 31
0.0
  0
LINE
  5
294
330
287
100
AcDbEntity
  8
LC-004-005-----0
  6
DASHED
 62
     7
370
    25
100
AcDbLine
 10
608.431454
 20
439.783638
 30
0.0
 11
603.731094
 21
444.483999
 31
0.0
  0
LINE
  5
295
330
287
100
AcDbEntity
  8
LC-004-005-----0
  6
DASHED
 62
     7
370
    25
100
AcDbLine
 10
607.300083
 20
440.349324
 30
0.0
 11
603.61155
 21
444.037857
 31
0.0
  0
LINE
  5
296
330
287
100
AcDbEntity
  8
LC-004-005-----0
 62
     7
370
    25
100
AcDbLine
 10
605.037341
 20
441.480695
 30
0.0
 11
603.44759
 21
443.070446
 31
0.0
  0
ENDBLK
  5
289
330
287
100
AcDbEntity
  8
0
100
AcDbBlockEnd
  0
BLOCK
  5
2F8
330
2F7
100
AcDbEntity
  8
0
100
AcDbBlockBegin
  2
*X1113
 70
     1
 71
     0
 10
0.0
 20
0.0
 30
0.0
  3
*X1113
  1

  4
*X11
  0
LINE
  5
2FA
330
2F7
100
AcDbEntity
  8
LC-004-005-----0
  6
DASHED
 62
     7
370
    25
100
AcDbLine
 10
609.094746
 20
401.785108
 30
0.0
 11
608.174647
 21
402.705207
 31
0.0
  0
LINE
  5
2FB
330
2F7
100
AcDbEntity
  8
LC-004-005-----0
  6
DASHED
 62
     7
370
    25
100
AcDbLine
 10
611.241482
 20
399.072687
 30
0.0
 11
610.5109
 21
399.803269
 31
0.0
  0
LINE
  5
2FC
330
2F7
100
AcDbEntity
  8
LC-004-005-----0
  6
DASHED
 62
     7
370
    25
100
AcDbLine
 10
608.938775
 20
401.375394
 30
0.0
 11
607.797524
 21
402.516645
 31
0.0
  0
LINE
  5
2FD
330
2F7
100
AcDbEntity
  8
LC-004-005-----0
 62
     7
370
    25
100
AcDbLine
 10
611.132162
 20
398.050636
 30
0.0
 11
609.533807
 21
399.648991
 31
0.0
  0
LINE
  5
2FE
330
2F7
100
AcDbEntity
  8
LC-004-005-----0
 62
     7
370
    25
100
AcDbLine
 10
608.626833
 20
400.555965
 30
0.0
 11
607.043276
 21
402.139522
 31
0.0
  0
LINE
  5
2FF
330
2F7
100
AcDbEntity
  8
LC-004-005-----0
 62
     7
370
    25
100
AcDbLine
 10
611.012619
 20
397.604494
 30
0.0
 11
609.04526
 21
399.571853
 31
0.0
  0
LINE
  5
300
330
2F7
100
AcDbEntity
  8
LC-004-005-----0
 62
     7
370
    25
100
AcDbLine
 10
608.470862
 20
400.14625
 30
0.0
 11
606.666153
 21
401.95096
 31
0.0
  0
LINE
  5
301
330
2F7
100
AcDbEntity
  8
LC-004-005-----0
  6
DASHED
 62
     7
370
    25
100
AcDbLine
 10
610.533719
 20
396.952023
 30
0.0
 11
605.911906
 21
401.573836
 31
0.0
  0
LINE
  5
302
330
2F7
100
AcDbEntity
  8
LC-004-005-----0
  6
DASHED
 62
     7
370
    25
100
AcDbLine
 10
610.099342
 20
396.820715
 30
0.0
 11
609.881482
 21
397.038574
 31
0.0
  0
LINE
  5
303
330
2F7
100
AcDbEntity
  8
LC-004-005-----0
  6
DASHED
 62
     7
370
    25
100
AcDbLine
 10
609.581432
 20
397.338624
 30
0.0
 11
605.534782
 21
401.385274
 31
0.0
  0
LINE
  5
304
330
2F7
100
AcDbEntity
  8
LC-004-005-----0
 62
     7
370
    25
100
AcDbLine
 10
608.970061
 20
396.818624
 30
0.0
 11
604.780535
 21
401.008151
 31
0.0
  0
LINE
  5
305
330
2F7
100
AcDbEntity
  8
LC-004-005-----0
 62
     7
370
    25
100
AcDbLine
 10
608.618093
 20
396.604908
 30
0.0
 11
604.403411
 21
400.819589
 31
0.0
  0
LINE
  5
306
330
2F7
100
AcDbEntity
  8
LC-004-005-----0
  6
DASHED
 62
     7
370
    25
100
AcDbLine
 10
607.316418
 20
396.775212
 30
0.0
 11
603.758194
 21
400.333435
 31
0.0
  0
LINE
  5
307
330
2F7
100
AcDbEntity
  8
LC-004-005-----0
  6
DASHED
 62
     7
370
    25
100
AcDbLine
 10
607.065502
 20
396.460442
 30
0.0
 11
606.788149
 21
396.737795
 31
0.0
  0
LINE
  5
308
330
2F7
100
AcDbEntity
  8
LC-004-005-----0
  6
DASHED
 62
     7
370
    25
100
AcDbLine
 10
606.707319
 20
396.818624
 30
0.0
 11
603.551212
 21
399.974732
 31
0.0
  0
LINE
  5
309
330
2F7
100
AcDbEntity
  8
LC-004-005-----0
 62
     7
370
    25
100
AcDbLine
 10
605.807688
 20
396.586885
 30
0.0
 11
603.537016
 21
398.857557
 31
0.0
  0
LINE
  5
30A
330
2F7
100
AcDbEntity
  8
LC-004-005-----0
 62
     7
370
    25
100
AcDbLine
 10
605.010263
 20
396.818624
 30
0.0
 11
603.744071
 21
398.084816
 31
0.0
  0
ENDBLK
  5
2F9
330
2F7
100
AcDbEntity
  8
0
100
AcDbBlockEnd
  0
BLOCK
  5
378
330
36E
100
AcDbEntity
  8
0
100
AcDbBlockBegin
  2
*D14
 70
     1
 71
     0
 10
0.0
 20
0.0
 30
0.0
  3
*D14
  1

  0
LINE
  5
36F
330
36E
100
AcDbEntity
  8
LC-010-003-----0
 62
     2
370
    -2
100
AcDbLine
 10
591.749316
 20
472.275804
 30
0.0
 11
591.749316
 21
504.794
 31
0.0
  0
LINE
  5
370
330
36E
100
AcDbEntity
  8
LC-010-003-----0
 62
     2
370
    -2
100
AcDbLine
 10
821.750653
 20
472.276213
 30
0.0
 11
821.750653
 21
504.794
 31
0.0
  0
LINE
  5
371
330
36E
100
AcDbEntity
  8
LC-010-003-----0
 62
     2
370
    -2
100
AcDbLine
 10
619.749316
 20
501.194
 30
0.0
 11
793.750653
 21
501.194
 31
0.0
  0
SOLID
  5
372
330
36E
100
AcDbEntity
  8
LC-010-003-----0
 62
     2
100
AcDbTrace
 10
619.749316
 20
505.860667
 30
0.0
 11
619.749316
 21
496.527333
 31
0.0
 12
591.749316
 22
501.194
 32
0.0
 13
591.749316
 23
501.194
 33
0.0
  0
SOLID
  5
373
330
36E
100
AcDbEntity
  8
LC-010-003-----0
 62
     2
100
AcDbTrace
 10
793.750653
 20
496.527333
 30
0.0
 11
793.750653
 21
505.860667
 31
0.0
 12
821.750653
 22
501.194
 32
0.0
 13
821.750653
 23
501.194
 33
0.0
  0
MTEXT
  5
374
330
36E
100
AcDbEntity
  8
LC-010-003-----0
 62
     2
100
AcDbMText
 10
695.194391
 20
531.994
 30
0.0
 40
28.0
 41
0.0
 71
     5
 72
     1
  1
%%c\A1;230
  7
LCTX15-400-0-0pDIN-Schrift
 73
     1
 44
1.0
  0
POINT
  5
375
330
36E
100
AcDbEntity
  8
Defpoints
 62
     0
100
AcDbPoint
 10
591.749316
 20
472.275804
 30
0.0
  0
POINT
  5
376
330
36E
100
AcDbEntity
  8
Defpoints
 62
     0
100
AcDbPoint
 10
821.750653
 20
472.276213
 30
0.0
  0
POINT
  5
377
330
36E
100
AcDbEntity
  8
Defpoints
 62
     0
100
AcDbPoint
 10
821.750653
 20
501.194
 30
0.0
  0
ENDBLK
  5
379
330
36E
100
AcDbEntity
  8
0
100
AcDbBlockEnd
  0
BLOCK
  5
3B0
330
3A5
100
AcDbEntity
  8
0
100
AcDbBlockBegin
  2
*D15
 70
     1
 71
     0
 10
0.0
 20
0.0
 30
0.0
  3
*D15
  1

  0
LINE
  5
3A6
330
3A5
100
AcDbEntity
  8
LC-010-003-----0
 62
     2
370
    -2
100
AcDbLine
 10
611.693495
 20
441.708624
 30
0.0
 11
581.333041
 21
441.708624
 31
0.0
  0
LINE
  5
3A7
330
3A5
100
AcDbEntity
  8
LC-010-003-----0
 62
     2
370
    -2
100
AcDbLine
 10
611.241482
 20
400.908624
 30
0.0
 11
581.333041
 21
400.908624
 31
0.0
  0
LINE
  5
3A8
330
3A5
100
AcDbEntity
  8
LC-010-003-----0
 62
     2
370
    -2
100
AcDbLine
 10
584.933041
 20
469.708624
 30
0.0
 11
584.933041
 21
497.708624
 31
0.0
  0
LINE
  5
3A9
330
3A5
100
AcDbEntity
  8
LC-010-003-----0
 62
     2
370
    -2
100
AcDbLine
 10
584.933041
 20
372.908624
 30
0.0
 11
584.933041
 21
303.101242
 31
0.0
  0
SOLID
  5
3AA
330
3A5
100
AcDbEntity
  8
LC-010-003-----0
 62
     2
100
AcDbTrace
 10
580.266374
 20
469.708624
 30
0.0
 11
589.599707
 21
469.708624
 31
0.0
 12
584.933041
 22
441.708624
 32
0.0
 13
584.933041
 23
441.708624
 33
0.0
  0
SOLID
  5
3AB
330
3A5
100
AcDbEntity
  8
LC-010-003-----0
 62
     2
100
AcDbTrace
 10
589.599707
 20
372.908624
 30
0.0
 11
580.266374
 21
372.908624
 31
0.0
 12
584.933041
 22
400.908624
 32
0.0
 13
584.933041
 23
400.908624
 33
0.0
  0
MTEXT
  5
3AC
330
3A5
100
AcDbEntity
  8
LC-010-003-----0
 62
     2
100
AcDbMText
 10
554.133041
 20
349.138
 30
0.0
 40
28.0
 41
0.0
 71
     5
 72
     1
  1
\A1;DN40
  7
LCTX15-400-0-0pDIN-Schrift
 11
6.123031769111886E-17
 21
1.0
 31
0.0
 73
     1
 44
1.0
  0
POINT
  5
3AD
330
3A5
100
AcDbEntity
  8
Defpoints
 62
     0
100
AcDbPoint
 10
611.693495
 20
441.708624
 30
0.0
  0
POINT
  5
3AE
330
3A5
100
AcDbEntity
  8
Defpoints
 62
     0
100
AcDbPoint
 10
611.241482
 20
400.908624
 30
0.0
  0
POINT
  5
3AF
330
3A5
100
AcDbEntity
  8
Defpoints
 62
     0
100
AcDbPoint
 10
584.933041
 20
400.908624
 30
0.0
  0
ENDBLK
  5
3B1
330
3A5
100
AcDbEntity
  8
0
100
AcDbBlockEnd
  0
BLOCK
  5
3BF
330
3B3
100
AcDbEntity
  8
0
100
AcDbBlockBegin
  2
*D16
 70
     1
 71
     0
 10
0.0
 20
0.0
 30
0.0
  3
*D16
  1

  0
LINE
  5
3B4
330
3B3
100
AcDbEntity
  8
LC-010-003-----0
 62
     2
370
    -2
100
AcDbLine
 10
894.249316
 20
446.308624
 30
0.0
 11
936.533041
 21
446.308624
 31
0.0
  0
LINE
  5
3B5
330
3B3
100
AcDbEntity
  8
LC-010-003-----0
 62
     2
370
    -2
100
AcDbLine
 10
894.249316
 20
396.308624
 30
0.0
 11
936.533041
 21
396.308624
 31
0.0
  0
LINE
  5
3B6
330
3B3
100
AcDbEntity
  8
LC-010-003-----0
 62
     2
370
    -2
100
AcDbLine
 10
932.933041
 20
474.308624
 30
0.0
 11
932.933041
 21
502.308624
 31
0.0
  0
LINE
  5
3B7
330
3B3
100
AcDbEntity
  8
LC-010-003-----0
 62
     2
370
    -2
100
AcDbLine
 10
932.933041
 20
368.308624
 30
0.0
 11
932.933041
 21
340.308624
 31
0.0
  0
LINE
  5
3B8
330
3B3
100
AcDbEntity
  8
LC-010-003-----0
 62
     2
370
    -2
100
AcDbLine
 10
932.933041
 20
446.308624
 30
0.0
 11
932.933041
 21
396.308624
 31
0.0
  0
SOLID
  5
3B9
330
3B3
100
AcDbEntity
  8
LC-010-003-----0
 62
     2
100
AcDbTrace
 10
928.266374
 20
474.308624
 30
0.0
 11
937.599707
 21
474.308624
 31
0.0
 12
932.933041
 22
446.308624
 32
0.0
 13
932.933041
 23
446.308624
 33
0.0
  0
SOLID
  5
3BA
330
3B3
100
AcDbEntity
  8
LC-010-003-----0
 62
     2
100
AcDbTrace
 10
937.599707
 20
368.308624
 30
0.0
 11
928.266374
 21
368.308624
 31
0.0
 12
932.933041
 22
396.308624
 32
0.0
 13
932.933041
 23
396.308624
 33
0.0
  0
MTEXT
  5
3BB
330
3B3
100
AcDbEntity
  8
LC-010-003-----0
 62
     2
100
AcDbMText
 10
902.133041
 20
435.268
 30
0.0
 40
28.0
 41
0.0
 71
     5
 72
     1
  1
\A1;DN50
  7
LCTX15-400-0-0pDIN-Schrift
 11
6.123031769111886E-17
 21
1.0
 31
0.0
 73
     1
 44
1.0
  0
POINT
  5
3BC
330
3B3
100
AcDbEntity
  8
Defpoints
 62
     0
100
AcDbPoint
 10
894.249316
 20
446.308624
 30
0.0
  0
POINT
  5
3BD
330
3B3
100
AcDbEntity
  8
Defpoints
 62
     0
100
AcDbPoint
 10
894.249316
 20
396.308624
 30
0.0
  0
POINT
  5
3BE
330
3B3
100
AcDbEntity
  8
Defpoints
 62
     0
100
AcDbPoint
 10
932.933041
 20
396.308624
 30
0.0
  0
ENDBLK
  5
3C0
330
3B3
100
AcDbEntity
  8
0
100
AcDbBlockEnd
  0
BLOCK
  5
3CC
330
3C2
100
AcDbEntity
  8
0
100
AcDbBlockBegin
  2
*D17
 70
     1
 71
     0
 10
0.0
 20
0.0
 30
0.0
  3
*D17
  1

  0
LINE
  5
3C3
330
3C2
100
AcDbEntity
  8
LC-010-003-----0
 62
     2
370
    -2
100
AcDbLine
 10
596.741482
 20
398.808624
 30
0.0
 11
596.741482
 21
290.394
 31
0.0
  0
LINE
  5
3C4
330
3C2
100
AcDbEntity
  8
LC-010-003-----0
 62
     2
370
    -2
100
AcDbLine
 10
897.749316
 20
398.558624
 30
0.0
 11
897.749316
 21
290.394
 31
0.0
  0
LINE
  5
3C5
330
3C2
100
AcDbEntity
  8
LC-010-003-----0
 62
     2
370
    -2
100
AcDbLine
 10
624.741482
 20
293.994
 30
0.0
 11
869.749316
 21
293.994
 31
0.0
  0
SOLID
  5
3C6
330
3C2
100
AcDbEntity
  8
LC-010-003-----0
 62
     2
100
AcDbTrace
 10
624.741482
 20
298.660667
 30
0.0
 11
624.741482
 21
289.327333
 31
0.0
 12
596.741482
 22
293.994
 32
0.0
 13
596.741482
 23
293.994
 33
0.0
  0
SOLID
  5
3C7
330
3C2
100
AcDbEntity
  8
LC-010-003-----0
 62
     2
100
AcDbTrace
 10
869.749316
 20
289.327333
 30
0.0
 11
869.749316
 21
298.660667
 31
0.0
 12
897.749316
 22
293.994
 32
0.0
 13
897.749316
 23
293.994
 33
0.0
  0
MTEXT
  5
3C8
330
3C2
100
AcDbEntity
  8
LC-010-003-----0
 62
     2
100
AcDbMText
 10
704.978834
 20
324.794
 30
0.0
 40
28.0
 41
0.0
 71
     5
 72
     1
  1
\A1;300
  7
LCTX15-400-0-0pDIN-Schrift
 73
     1
 44
1.0
  0
POINT
  5
3C9
330
3C2
100
AcDbEntity
  8
Defpoints
 62
     0
100
AcDbPoint
 10
596.741482
 20
398.808624
 30
0.0
  0
POINT
  5
3CA
330
3C2
100
AcDbEntity
  8
Defpoints
 62
     0
100
AcDbPoint
 10
897.749316
 20
398.558624
 30
0.0
  0
POINT
  5
3CB
330
3C2
100
AcDbEntity
  8
Defpoints
 62
     0
100
AcDbPoint
 10
897.749316
 20
293.994
 30
0.0
  0
ENDBLK
  5
3CD
330
3C2
100
AcDbEntity
  8
0
100
AcDbBlockEnd
  0
BLOCK
  5
3D9
330
3CF
100
AcDbEntity
  8
0
100
AcDbBlockBegin
  2
*D18
 70
     1
 71
     0
 10
0.0
 20
0.0
 30
0.0
  3
*D18
  1

  0
LINE
  5
3D0
330
3CF
100
AcDbEntity
  8
LC-010-003-----0
 62
     2
370
    -2
100
AcDbLine
 10
761.749316
 20
394.820129
 30
0.0
 11
761.749316
 21
329.594
 31
0.0
  0
LINE
  5
3D1
330
3CF
100
AcDbEntity
  8
LC-010-003-----0
 62
     2
370
    -2
100
AcDbLine
 10
897.749316
 20
398.558624
 30
0.0
 11
897.749316
 21
329.594
 31
0.0
  0
LINE
  5
3D2
330
3CF
100
AcDbEntity
  8
LC-010-003-----0
 62
     2
370
    -2
100
AcDbLine
 10
789.749316
 20
333.194
 30
0.0
 11
869.749316
 21
333.194
 31
0.0
  0
SOLID
  5
3D3
330
3CF
100
AcDbEntity
  8
LC-010-003-----0
 62
     2
100
AcDbTrace
 10
789.749316
 20
337.860667
 30
0.0
 11
789.749316
 21
328.527333
 31
0.0
 12
761.749316
 22
333.194
 32
0.0
 13
761.749316
 23
333.194
 33
0.0
  0
SOLID
  5
3D4
330
3CF
100
AcDbEntity
  8
LC-010-003-----0
 62
     2
100
AcDbTrace
 10
869.749316
 20
328.527333
 30
0.0
 11
869.749316
 21
337.860667
 31
0.0
 12
897.749316
 22
333.194
 32
0.0
 13
897.749316
 23
333.194
 33
0.0
  0
MTEXT
  5
3D5
330
3CF
100
AcDbEntity
  8
LC-010-003-----0
 62
     2
100
AcDbMText
 10
829.749316
 20
363.994
 30
0.0
 40
28.0
 41
0.0
 71
     5
 72
     1
  1
\A1;136
  7
LCTX15-400-0-0pDIN-Schrift
 73
     1
 44
1.0
  0
POINT
  5
3D6
330
3CF
100
AcDbEntity
  8
Defpoints
 62
     0
100
AcDbPoint
 10
761.749316
 20
394.820129
 30
0.0
  0
POINT
  5
3D7
330
3CF
100
AcDbEntity
  8
Defpoints
 62
     0
100
AcDbPoint
 10
897.749316
 20
398.558624
 30
0.0
  0
POINT
  5
3D8
330
3CF
100
AcDbEntity
  8
Defpoints
 62
     0
100
AcDbPoint
 10
897.749316
 20
333.194
 30
0.0
  0
ENDBLK
  5
3DA
330
3CF
100
AcDbEntity
  8
0
100
AcDbBlockEnd
  0
BLOCK
  5
3E9
330
3DF
100
AcDbEntity
  8
0
100
AcDbBlockBegin
  2
*D19
 70
     1
 71
     0
 10
0.0
 20
0.0
 30
0.0
  3
*D19
  1

  0
LINE
  5
3E0
330
3DF
100
AcDbEntity
  8
LC-010-003-----0
 62
     2
370
    -2
100
AcDbLine
 10
601.123665
 20
469.409136
 30
0.0
 11
502.933041
 21
469.409136
 31
0.0
  0
LINE
  5
3E1
330
3DF
100
AcDbEntity
  8
LC-010-003-----0
 62
     2
370
    -2
100
AcDbLine
 10
655.249316
 20
391.320129
 30
0.0
 11
502.933041
 21
391.320129
 31
0.0
  0
LINE
  5
3E2
330
3DF
100
AcDbEntity
  8
LC-010-003-----0
 62
     2
370
    -2
100
AcDbLine
 10
506.533041
 20
441.409136
 30
0.0
 11
506.533041
 21
419.320129
 31
0.0
  0
SOLID
  5
3E3
330
3DF
100
AcDbEntity
  8
LC-010-003-----0
 62
     2
100
AcDbTrace
 10
511.199707
 20
441.409136
 30
0.0
 11
501.866374
 21
441.409136
 31
0.0
 12
506.533041
 22
469.409136
 32
0.0
 13
506.533041
 23
469.409136
 33
0.0
  0
SOLID
  5
3E4
330
3DF
100
AcDbEntity
  8
LC-010-003-----0
 62
     2
100
AcDbTrace
 10
501.866374
 20
419.320129
 30
0.0
 11
511.199707
 21
419.320129
 31
0.0
 12
506.533041
 22
391.320129
 32
0.0
 13
506.533041
 23
391.320129
 33
0.0
  0
MTEXT
  5
3E5
330
3DF
100
AcDbEntity
  8
LC-010-003-----0
 62
     2
100
AcDbMText
 10
475.733041
 20
430.364632
 30
0.0
 40
28.0
 41
0.0
 71
     5
 72
     1
  1
\A1;78
  7
LCTX15-400-0-0pDIN-Schrift
 11
6.123031769111886E-17
 21
1.0
 31
0.0
 73
     1
 44
1.0
  0
POINT
  5
3E6
330
3DF
100
AcDbEntity
  8
Defpoints
 62
     0
100
AcDbPoint
 10
601.123665
 20
469.409136
 30
0.0
  0
POINT
  5
3E7
330
3DF
100
AcDbEntity
  8
Defpoints
 62
     0
100
AcDbPoint
 10
655.249316
 20
391.320129
 30
0.0
  0
POINT
  5
3E8
330
3DF
100
AcDbEntity
  8
Defpoints
 62
     0
100
AcDbPoint
 10
506.533041
 20
391.320129
 30
0.0
  0
ENDBLK
  5
3EA
330
3DF
100
AcDbEntity
  8
0
100
AcDbBlockEnd
  0
BLOCK
  5
40C
330
40B
100
AcDbEntity
  8
0
100
AcDbBlockBegin
  2
*X1220
 70
     1
 71
     0
 10
0.0
 20
0.0
 30
0.0
  3
*X1220
  1

  4
*X12
  0
LINE
  5
40E
330
40B
100
AcDbEntity
  8
LC-004-005-----0
 62
     7
370
    25
100
AcDbLine
 10
619.227829
 20
401.438941
 30
0.0
 11
621.741482
 21
403.952593
 31
0.0
  0
LINE
  5
40F
330
40B
100
AcDbEntity
  8
LC-004-005-----0
 62
     7
370
    25
100
AcDbLine
 10
616.269086
 20
401.308624
 30
0.0
 11
618.269086
 21
403.308624
 31
0.0
  0
LINE
  5
410
330
40B
100
AcDbEntity
  8
LC-004-005-----0
 62
     7
370
    25
100
AcDbLine
 10
619.741482
 20
404.781021
 30
0.0
 11
621.741482
 21
406.781021
 31
0.0
  0
LINE
  5
411
330
40B
100
AcDbEntity
  8
LC-004-005-----0
 62
     7
370
    25
100
AcDbLine
 10
613.440659
 20
401.308624
 30
0.0
 11
615.440659
 21
403.308624
 31
0.0
  0
LINE
  5
412
330
40B
100
AcDbEntity
  8
LC-004-005-----0
 62
     7
370
    25
100
AcDbLine
 10
619.741482
 20
407.609448
 30
0.0
 11
621.741482
 21
409.609448
 31
0.0
  0
LINE
  5
413
330
40B
100
AcDbEntity
  8
LC-004-005-----0
 62
     7
370
    25
100
AcDbLine
 10
610.612232
 20
401.308624
 30
0.0
 11
612.612232
 21
403.308624
 31
0.0
  0
LINE
  5
414
330
40B
100
AcDbEntity
  8
LC-004-005-----0
 62
     7
370
    25
100
AcDbLine
 10
619.741482
 20
410.437875
 30
0.0
 11
621.741482
 21
412.437875
 31
0.0
  0
LINE
  5
415
330
40B
100
AcDbEntity
  8
LC-004-005-----0
 62
     7
370
    25
100
AcDbLine
 10
607.783804
 20
401.308624
 30
0.0
 11
609.783804
 21
403.308624
 31
0.0
  0
LINE
  5
416
330
40B
100
AcDbEntity
  8
LC-004-005-----0
 62
     7
370
    25
100
AcDbLine
 10
619.741482
 20
413.266302
 30
0.0
 11
621.741482
 21
415.266302
 31
0.0
  0
LINE
  5
417
330
40B
100
AcDbEntity
  8
LC-004-005-----0
 62
     7
370
    25
100
AcDbLine
 10
604.955377
 20
401.308624
 30
0.0
 11
606.955377
 21
403.308624
 31
0.0
  0
LINE
  5
418
330
40B
100
AcDbEntity
  8
LC-004-005-----0
 62
     7
370
    25
100
AcDbLine
 10
619.741482
 20
416.094729
 30
0.0
 11
621.741482
 21
418.094729
 31
0.0
  0
LINE
  5
419
330
40B
100
AcDbEntity
  8
LC-004-005-----0
 62
     7
370
    25
100
AcDbLine
 10
596.12695
 20
395.308624
 30
0.0
 11
596.741482
 21
395.923156
 31
0.0
  0
LINE
  5
41A
330
40B
100
AcDbEntity
  8
LC-004-005-----0
 62
     7
370
    25
100
AcDbLine
 10
602.12695
 20
401.308624
 30
0.0
 11
604.12695
 21
403.308624
 31
0.0
  0
LINE
  5
41B
330
40B
100
AcDbEntity
  8
LC-004-005-----0
 62
     7
370
    25
100
AcDbLine
 10
619.741482
 20
418.923156
 30
0.0
 11
621.741482
 21
420.923156
 31
0.0
  0
LINE
  5
41C
330
40B
100
AcDbEntity
  8
LC-004-005-----0
 62
     7
370
    25
100
AcDbLine
 10
594.741482
 20
396.751583
 30
0.0
 11
596.741482
 21
398.751583
 31
0.0
  0
LINE
  5
41D
330
40B
100
AcDbEntity
  8
LC-004-005-----0
 62
     7
370
    25
100
AcDbLine
 10
599.298523
 20
401.308624
 30
0.0
 11
601.298523
 21
403.308624
 31
0.0
  0
LINE
  5
41E
330
40B
100
AcDbEntity
  8
LC-004-005-----0
 62
     7
370
    25
100
AcDbLine
 10
619.741482
 20
421.751583
 30
0.0
 11
621.741482
 21
423.751583
 31
0.0
  0
LINE
  5
41F
330
40B
100
AcDbEntity
  8
LC-004-005-----0
 62
     7
370
    25
100
AcDbLine
 10
594.741482
 20
399.58001
 30
0.0
 11
598.470096
 21
403.308624
 31
0.0
  0
LINE
  5
420
330
40B
100
AcDbEntity
  8
LC-004-005-----0
 62
     7
370
    25
100
AcDbLine
 10
619.741482
 20
424.58001
 30
0.0
 11
621.741482
 21
426.58001
 31
0.0
  0
LINE
  5
421
330
40B
100
AcDbEntity
  8
LC-004-005-----0
 62
     7
370
    25
100
AcDbLine
 10
594.741482
 20
402.408438
 30
0.0
 11
595.641669
 21
403.308624
 31
0.0
  0
LINE
  5
422
330
40B
100
AcDbEntity
  8
LC-004-005-----0
 62
     7
370
    25
100
AcDbLine
 10
619.741482
 20
427.408438
 30
0.0
 11
621.741482
 21
429.408438
 31
0.0
  0
LINE
  5
423
330
40B
100
AcDbEntity
  8
LC-004-005-----0
 62
     7
370
    25
100
AcDbLine
 10
619.741482
 20
430.236865
 30
0.0
 11
621.741482
 21
432.236865
 31
0.0
  0
LINE
  5
424
330
40B
100
AcDbEntity
  8
LC-004-005-----0
 62
     7
370
    25
100
AcDbLine
 10
619.741482
 20
433.065292
 30
0.0
 11
621.741482
 21
435.065292
 31
0.0
  0
LINE
  5
425
330
40B
100
AcDbEntity
  8
LC-004-005-----0
 62
     7
370
    25
100
AcDbLine
 10
619.741482
 20
435.893719
 30
0.0
 11
621.741482
 21
437.893719
 31
0.0
  0
LINE
  5
426
330
40B
100
AcDbEntity
  8
LC-004-005-----0
 62
     7
370
    25
100
AcDbLine
 10
619.678158
 20
438.658822
 30
0.0
 11
621.570048
 21
440.550712
 31
0.0
  0
LINE
  5
427
330
40B
100
AcDbEntity
  8
LC-004-005-----0
 62
     7
370
    25
100
AcDbLine
 10
617.499533
 20
439.308624
 30
0.0
 11
619.339338
 21
441.148429
 31
0.0
  0
LINE
  5
428
330
40B
100
AcDbEntity
  8
LC-004-005-----0
 62
     7
370
    25
100
AcDbLine
 10
614.671106
 20
439.308624
 30
0.0
 11
616.671106
 21
441.308624
 31
0.0
  0
LINE
  5
429
330
40B
100
AcDbEntity
  8
LC-004-005-----0
 62
     7
370
    25
100
AcDbLine
 10
611.842679
 20
439.308624
 30
0.0
 11
613.842679
 21
441.308624
 31
0.0
  0
LINE
  5
42A
330
40B
100
AcDbEntity
  8
LC-004-005-----0
 62
     7
370
    25
100
AcDbLine
 10
609.014252
 20
439.308624
 30
0.0
 11
611.014252
 21
441.308624
 31
0.0
  0
LINE
  5
42B
330
40B
100
AcDbEntity
  8
LC-004-005-----0
 62
     7
370
    25
100
AcDbLine
 10
606.185825
 20
439.308624
 30
0.0
 11
608.185825
 21
441.308624
 31
0.0
  0
LINE
  5
42C
330
40B
100
AcDbEntity
  8
LC-004-005-----0
 62
     7
370
    25
100
AcDbLine
 10
603.357398
 20
439.308624
 30
0.0
 11
605.357398
 21
441.308624
 31
0.0
  0
LINE
  5
42D
330
40B
100
AcDbEntity
  8
LC-004-005-----0
 62
     7
370
    25
100
AcDbLine
 10
600.52897
 20
439.308624
 30
0.0
 11
602.52897
 21
441.308624
 31
0.0
  0
LINE
  5
42E
330
40B
100
AcDbEntity
  8
LC-004-005-----0
 62
     7
370
    25
100
AcDbLine
 10
597.700543
 20
439.308624
 30
0.0
 11
599.700543
 21
441.308624
 31
0.0
  0
LINE
  5
42F
330
40B
100
AcDbEntity
  8
LC-004-005-----0
 62
     7
370
    25
100
AcDbLine
 10
594.872116
 20
439.308624
 30
0.0
 11
596.872116
 21
441.308624
 31
0.0
  0
LINE
  5
430
330
40B
100
AcDbEntity
  8
LC-004-005-----0
 62
     7
370
    25
100
AcDbLine
 10
594.741482
 20
442.006417
 30
0.0
 11
596.741482
 21
444.006417
 31
0.0
  0
LINE
  5
431
330
40B
100
AcDbEntity
  8
LC-004-005-----0
 62
     7
370
    25
100
AcDbLine
 10
594.741482
 20
444.834844
 30
0.0
 11
596.741482
 21
446.834844
 31
0.0
  0
ENDBLK
  5
40D
330
40B
100
AcDbEntity
  8
0
100
AcDbBlockEnd
  0
BLOCK
  5
44A
330
449
100
AcDbEntity
  8
0
100
AcDbBlockBegin
  2
LCDIM1
 70
     0
 71
     0
 10
0.0
 20
0.0
 30
0.0
  3
LCDIM1
  1

  4
LCDIM1
  0
TEXT
  5
44C
330
449
100
AcDbEntity
  8
LC-010-003-----0
 62
     7
370
   140
100
AcDbText
 10
948.262557
 20
310.342712
 30
0.0
 40
28.0
  1
 15%%d
 50
62.886948
 41
0.9
 51
15.0
  7
LCTX15-400-0-0-Arial
 72
     1
 11
962.641579
 21
338.426007
 31
0.0
100
AcDbText
  0
LINE
  5
44D
330
449
100
AcDbEntity
  8
LC-010-003-----0
 62
     7
370
    25
100
AcDbLine
 10
985.243093
 20
340.391818
 30
0.0
 11
989.457661
 21
361.337108
 31
0.0
  0
LINE
  5
44E
330
449
100
AcDbEntity
  8
LC-010-003-----0
 62
     7
370
    25
100
AcDbLine
 10
979.703262
 20
342.286044
 30
0.0
 11
985.243093
 21
340.391818
 31
0.0
  0
LINE
  5
44F
330
449
100
AcDbEntity
  8
LC-010-003-----0
 62
     7
370
    25
100
AcDbLine
 10
984.323819
 20
340.640322
 30
0.0
 11
987.860846
 21
358.218411
 31
0.0
  0
LINE
  5
450
330
449
100
AcDbEntity
  8
LC-010-003-----0
 62
     7
370
    25
100
AcDbLine
 10
983.404546
 20
340.888826
 30
0.0
 11
986.055776
 21
354.064735
 31
0.0
  0
LINE
  5
451
330
449
100
AcDbEntity
  8
LC-010-003-----0
 62
     7
370
    25
100
AcDbLine
 10
986.055776
 20
354.064735
 30
0.0
 11
980.084708
 21
342.023973
 31
0.0
  0
LINE
  5
452
330
449
100
AcDbEntity
  8
LC-010-003-----0
 62
     7
370
    25
100
AcDbLine
 10
982.485273
 20
341.13733
 30
0.0
 11
983.70042
 21
347.176289
 31
0.0
  0
LINE
  5
453
330
449
100
AcDbEntity
  8
LC-010-003-----0
 62
     7
370
    25
100
AcDbLine
 10
983.70042
 20
347.176289
 30
0.0
 11
980.963681
 21
341.657606
 31
0.0
  0
LINE
  5
454
330
449
100
AcDbEntity
  8
LC-010-003-----0
 62
     7
370
    25
100
AcDbLine
 10
992.282156
 20
448.758435
 30
0.0
 11
997.80555
 21
421.308624
 31
0.0
  0
LINE
  5
455
330
449
100
AcDbEntity
  8
LC-010-003-----0
 62
     7
370
    25
100
AcDbLine
 10
997.80555
 20
421.308624
 30
0.0
 11
999.574895
 21
449.252665
 31
0.0
  0
LINE
  5
456
330
449
100
AcDbEntity
  8
LC-010-003-----0
 62
     7
370
    25
100
AcDbLine
 10
999.574895
 20
449.252665
 30
0.0
 11
992.282156
 21
448.758435
 31
0.0
  0
LINE
  5
457
330
449
100
AcDbEntity
  8
LC-010-003-----0
 62
     7
370
    25
100
AcDbLine
 10
993.226001
 20
448.884824
 30
0.0
 11
997.313313
 21
428.571964
 31
0.0
  0
LINE
  5
458
330
449
100
AcDbEntity
  8
LC-010-003-----0
 62
     7
370
    25
100
AcDbLine
 10
997.313313
 20
428.571964
 30
0.0
 11
998.622628
 21
449.250554
 31
0.0
  0
LINE
  5
459
330
449
100
AcDbEntity
  8
LC-010-003-----0
 62
     7
370
    25
100
AcDbLine
 10
994.169846
 20
449.011213
 30
0.0
 11
996.821075
 21
435.835304
 31
0.0
  0
LINE
  5
45A
330
449
100
AcDbEntity
  8
LC-010-003-----0
 62
     7
370
    25
100
AcDbLine
 10
996.821075
 20
435.835304
 30
0.0
 11
997.67036
 21
449.248443
 31
0.0
  0
LINE
  5
45B
330
449
100
AcDbEntity
  8
LC-010-003-----0
 62
     7
370
    25
100
AcDbLine
 10
995.113691
 20
449.137602
 30
0.0
 11
996.328837
 21
443.098643
 31
0.0
  0
LINE
  5
45C
330
449
100
AcDbEntity
  8
LC-010-003-----0
 62
     7
370
    25
100
AcDbLine
 10
996.328837
 20
443.098643
 30
0.0
 11
996.718093
 21
449.246332
 31
0.0
  0
ARC
  5
45E
330
449
100
AcDbEntity
  8
LC-011-003-MTG-0
 62
     7
370
    25
100
AcDbCircle
 10
791.224944
 20
421.308624
 30
0.0
 40
206.5806066980788
100
AcDbArc
 50
321.974445
 51
322.793406
  0
ARC
  5
45F
330
449
100
AcDbEntity
  8
LC-011-003-MTG-0
 62
     7
370
    25
100
AcDbCircle
 10
791.224944
 20
421.308624
 30
0.0
 40
206.5806066980788
100
AcDbArc
 50
323.442781
 51
342.331114
  0
ARC
  5
460
330
449
100
AcDbEntity
  8
LC-011-003-MTG-0
 62
     7
370
    25
100
AcDbCircle
 10
791.224944
 20
421.308624
 30
0.0
 40
206.5806066980788
100
AcDbArc
 50
347.093408
 51
10.744498
  0
LINE
  5
462
330
449
100
AcDbEntity
  8
LC-012-003-MTH-0
 62
     7
370
    25
100
AcDbLine
 10
894.071645
 20
393.750934
 30
0.0
 11
942.752934
 21
380.706822
 31
0.0
  0
LINE
  5
463
330
449
100
AcDbEntity
  8
LC-012-003-MTH-0
 62
     7
370
    25
100
AcDbLine
 10
992.544175
 20
367.365299
 30
0.0
 11
994.63019
 21
366.806353
 31
0.0
  0
LINE
  5
464
330
449
100
AcDbEntity
  8
LC-012-003-MTH-0
 62
     7
370
    25
100
AcDbLine
 10
897.749316
 20
421.308624
 30
0.0
 11
1001.80555
 21
421.308624
 31
0.0
  0
ENDBLK
  5
44B
330
449
100
AcDbEntity
  8
0
100
AcDbBlockEnd
  0
ENDSEC
  0
SECTION
  2
ENTITIES
  0
LINE
  5
32
330
1F
100
AcDbEntity
  8
LC-001-002-----0
 62
     7
370
    25
100
AcDbLine
 10
706.749316
 20
391.320129
 30
0.0
 11
706.749316
 21
472.790143
 31
0.0
  0
LINE
  5
33
330
1F
100
AcDbEntity
  8
LC-001-002-----0
 62
     7
370
    25
100
AcDbLine
 10
636.918632
 20
466.79055
 30
0.0
 11
636.918632
 21
453.28986
 31
0.0
  0
LINE
  5
34
330
1F
100
AcDbEntity
  8
LC-001-002-----0
  6
DASHED
 62
     7
370
    25
100
AcDbLine
 10
815.531145
 20
438.34833
 30
0.0
 11
803.754879
 21
394.398705
 31
0.0
  0
LINE
  5
35
330
1F
100
AcDbEntity
  8
LC-001-002-----0
  6
ByBlock
 62
     7
370
    50
100
AcDbLine
 10
596.741482
 20
443.808624
 30
0.0
 11
601.741482
 21
443.808624
 31
0.0
  0
LINE
  5
36
330
1F
100
AcDbEntity
  8
LC-001-002-----0
  6
ByBlock
 62
     7
370
    50
100
AcDbLine
 10
639.74923
 20
467.29055
 30
0.0
 11
632.748826
 21
467.29055
 31
0.0
  0
LINE
  5
37
330
1F
100
AcDbEntity
  8
LC-001-002-----0
  6
ByBlock
 62
     7
370
    50
100
AcDbLine
 10
596.741482
 20
443.808624
 30
0.0
 11
596.741482
 21
445.308624
 31
0.0
  0
LINE
  5
38
330
1F
100
AcDbEntity
  8
LC-001-002-----0
  6
ByBlock
 62
     7
370
    50
100
AcDbLine
 10
600.741482
 20
445.308624
 30
0.0
 11
596.741482
 21
445.308624
 31
0.0
  0
LINE
  5
39
330
1F
100
AcDbEntity
  8
LC-001-002-----0
  6
ByBlock
 62
     7
370
    50
100
AcDbLine
 10
758.749316
 20
399.308624
 30
0.0
 11
758.749316
 21
394.820129
 31
0.0
  0
ARC
  5
3B
330
1F
100
AcDbEntity
  8
LC-002-002-RND-0
 62
     7
370
    50
100
AcDbCircle
 10
603.741482
 20
445.308624
 30
0.0
 40
3.0
100
AcDbArc
 50
90.0
 51
180.0
  0
LINE
  5
3C
330
1F
100
AcDbEntity
  8
LC-001-002-----0
  6
ByBlock
 62
     7
370
    50
100
AcDbLine
 10
603.741482
 20
448.308624
 30
0.0
 11
610.741482
 21
448.308624
 31
0.0
  0
LINE
  5
3D
330
1F
100
AcDbEntity
  8
LC-001-002-----0
  6
ByBlock
 62
     7
370
    50
100
AcDbLine
 10
614.741482
 20
443.308624
 30
0.0
 11
610.741482
 21
448.308624
 31
0.0
  0
LINE
  5
3E
330
1F
100
AcDbEntity
  8
LC-001-002-----0
  6
ByBlock
 62
     7
370
    50
100
AcDbLine
 10
611.241482
 20
441.708624
 30
0.0
 11
611.241482
 21
445.158624
 31
0.0
  0
ARC
  5
3F
330
1F
100
AcDbEntity
  8
LC-001-002-----0
  6
ByBlock
 62
     7
370
    50
100
AcDbCircle
 10
610.241482
 20
445.158624
 30
0.0
 40
1.0
100
AcDbArc
 50
0.0
 51
90.0
  0
ARC
  5
41
102
{ACAD_REACTORS
330
46B
102
}
330
1F
100
AcDbEntity
  8
LC-003-205-RND-0
 62
     7
370
    50
100
AcDbCircle
 10
797.048623
 20
450.032517
 30
0.0
 40
0.2999999999999545
100
AcDbArc
 50
0.0
 51
78.586371
  0
LINE
  5
42
330
1F
100
AcDbEntity
  8
LC-001-002-----0
  6
ByBlock
 62
     7
370
    50
100
AcDbLine
 10
604.091482
 20
446.158624
 30
0.0
 11
610.241482
 21
446.158624
 31
0.0
  0
LINE
  5
43
330
1F
100
AcDbEntity
  8
LC-001-002-----0
  6
ByBlock
 62
     7
370
    50
100
AcDbLine
 10
601.741482
 20
443.808624
 30
0.0
 11
604.091482
 21
446.158624
 31
0.0
  0
LINE
  5
44
330
1F
100
AcDbEntity
  8
LC-001-002-----0
  6
ByBlock
 62
     7
370
    50
100
AcDbLine
 10
596.741482
 20
398.808624
 30
0.0
 11
601.741482
 21
398.808624
 31
0.0
  0
LINE
  5
45
330
1F
100
AcDbEntity
  8
LC-001-002-----0
  6
ByBlock
 62
     7
370
    50
100
AcDbLine
 10
601.741482
 20
398.808624
 30
0.0
 11
604.091482
 21
396.458624
 31
0.0
  0
LINE
  5
46
330
1F
100
AcDbEntity
  8
LC-001-002-----0
  6
ByBlock
 62
     7
370
    50
100
AcDbLine
 10
604.091482
 20
396.458624
 30
0.0
 11
610.241482
 21
396.458624
 31
0.0
  0
ARC
  5
47
330
1F
100
AcDbEntity
  8
LC-001-002-----0
  6
ByBlock
 62
     7
370
    50
100
AcDbCircle
 10
610.241482
 20
397.458624
 30
0.0
 40
1.0
100
AcDbArc
 50
270.0
 51
0.0
  0
LINE
  5
48
330
1F
100
AcDbEntity
  8
LC-001-002-----0
  6
ByBlock
 62
     7
370
    50
100
AcDbLine
 10
611.241482
 20
400.908624
 30
0.0
 11
611.241482
 21
397.458624
 31
0.0
  0
LINE
  5
49
330
1F
100
AcDbEntity
  8
LC-001-002-----0
  6
ByBlock
 62
     7
370
    50
100
AcDbLine
 10
614.781482
 20
399.358624
 30
0.0
 11
610.741482
 21
394.308624
 31
0.0
  0
LINE
  5
4A
330
1F
100
AcDbEntity
  8
LC-001-002-----0
  6
ByBlock
 62
     7
370
    50
100
AcDbLine
 10
603.741482
 20
394.308624
 30
0.0
 11
610.741482
 21
394.308624
 31
0.0
  0
ARC
  5
4B
330
1F
100
AcDbEntity
  8
LC-002-002-RND-0
 62
     7
370
    50
100
AcDbCircle
 10
603.741482
 20
397.308624
 30
0.0
 40
3.0
100
AcDbArc
 50
180.0
 51
270.0
  0
LINE
  5
4C
330
1F
100
AcDbEntity
  8
LC-001-002-----0
  6
ByBlock
 62
     7
370
    50
100
AcDbLine
 10
600.741482
 20
397.308624
 30
0.0
 11
596.741482
 21
397.308624
 31
0.0
  0
LINE
  5
4D
330
1F
100
AcDbEntity
  8
LC-001-002-----0
  6
ByBlock
 62
     7
370
    50
100
AcDbLine
 10
596.741482
 20
398.808624
 30
0.0
 11
596.741482
 21
397.308624
 31
0.0
  0
LINE
  5
4E
330
1F
100
AcDbEntity
  8
LC-001-002-----0
  6
ByBlock
 62
     7
370
    50
100
AcDbLine
 10
635.761246
 20
466.79055
 30
0.0
 11
634.043957
 21
466.79055
 31
0.0
  0
LINE
  5
50
102
{ACAD_REACTORS
330
46A
102
}
330
1F
100
AcDbEntity
  8
LC-004-005-----0
 62
     7
370
    25
100
AcDbLine
 10
639.248826
 20
460.778675
 30
0.0
 11
646.74929
 21
468.279138
 31
0.0
  0
LINE
  5
52
330
1F
100
AcDbEntity
  8
LC-005-205-----0
 62
     7
370
    50
100
AcDbLine
 10
761.430633
 20
446.308624
 30
0.0
 11
773.348623
 21
446.308624
 31
0.0
  0
LINE
  5
53
330
1F
100
AcDbEntity
  8
LC-001-002-----0
  6
ByBlock
 62
     7
370
    50
100
AcDbLine
 10
773.348623
 20
446.308624
 30
0.0
 11
773.348623
 21
448.620129
 31
0.0
  0
LINE
  5
54
330
1F
100
AcDbEntity
  8
LC-001-002-----0
  6
ByBlock
 62
     7
370
    50
100
AcDbLine
 10
773.348623
 20
448.620129
 30
0.0
 11
775.848623
 21
448.620129
 31
0.0
  0
LINE
  5
55
330
1F
100
AcDbEntity
  8
LC-001-002-----0
  6
ByBlock
 62
     7
370
    50
100
AcDbLine
 10
775.848623
 20
446.590354
 30
0.0
 11
775.848623
 21
448.620129
 31
0.0
  0
LINE
  5
56
330
1F
100
AcDbEntity
  8
LC-001-002-----0
  6
ByBlock
 62
     7
370
    50
100
AcDbLine
 10
761.430633
 20
451.28986
 30
0.0
 11
761.430633
 21
446.308624
 31
0.0
  0
LINE
  5
57
330
1F
100
AcDbEntity
  8
LC-001-002-----0
  6
ByBlock
 62
     7
370
    50
100
AcDbLine
 10
808.848623
 20
399.308624
 30
0.0
 11
808.848623
 21
443.308624
 31
0.0
  0
LINE
  5
58
330
1F
100
AcDbEntity
  8
LC-001-002-----0
  6
ByBlock
 62
     7
370
    50
100
AcDbLine
 10
761.749316
 20
396.308624
 30
0.0
 11
761.749316
 21
394.820129
 31
0.0
  0
ARC
  5
59
330
1F
100
AcDbEntity
  8
LC-002-002-RND-0
 62
     7
370
    50
100
AcDbCircle
 10
758.249316
 20
394.820129
 30
0.0
 40
3.5
100
AcDbArc
 50
270.0
 51
360.0
  0
ARC
  5
5A
102
{ACAD_REACTORS
330
46B
102
}
330
1F
100
AcDbEntity
  8
LC-002-002-RND-0
 62
     7
370
    50
100
AcDbCircle
 10
758.249316
 20
394.820129
 30
0.0
 40
0.5
100
AcDbArc
 50
270.0
 51
360.0
  0
ARC
  5
5B
330
1F
100
AcDbEntity
  8
LC-002-002-RND-0
 62
     7
370
    50
100
AcDbCircle
 10
655.249316
 20
394.820129
 30
0.0
 40
3.5
100
AcDbArc
 50
180.0
 51
270.0
  0
ARC
  5
5C
330
1F
100
AcDbEntity
  8
LC-002-002-RND-0
 62
     7
370
    50
100
AcDbCircle
 10
655.249316
 20
394.820129
 30
0.0
 40
0.5
100
AcDbArc
 50
180.0
 51
270.0
  0
LINE
  5
5D
330
1F
100
AcDbEntity
  8
LC-001-002-----0
  6
ByBlock
 62
     7
370
    50
100
AcDbLine
 10
651.749316
 20
394.820129
 30
0.0
 11
651.749316
 21
399.358624
 31
0.0
  0
LINE
  5
5E
330
1F
100
AcDbEntity
  8
LC-001-002-----0
  6
ByBlock
 62
     7
370
    50
100
AcDbLine
 10
654.749316
 20
394.820129
 30
0.0
 11
654.749316
 21
400.908624
 31
0.0
  0
ARC
  5
5F
330
1F
100
AcDbEntity
  8
LC-001-002-----0
  6
ByBlock
 62
     7
370
    50
100
AcDbCircle
 10
628.12686
 20
421.308624
 30
0.0
 40
33.53975507606346
100
AcDbArc
 50
322.538123
 51
37.461877
  0
INSERT
  5
B5
330
1F
100
AcDbEntity
  8
LC-004-005-----0
 62
     7
370
    25
100
AcDbBlockReference
  2
*X11
 10
0.0
 20
0.0
 30
0.0
  0
LINE
  5
B6
330
1F
100
AcDbEntity
  8
LC-001-002-----0
  6
ByBlock
 62
     7
370
    50
100
AcDbLine
 10
747.249316
 20
455.610945
 30
0.0
 11
747.249316
 21
446.78986
 31
0.0
  0
LINE
  5
B7
330
1F
100
AcDbEntity
  8
LC-001-002-----0
  6
ByBlock
 62
     7
370
    50
100
AcDbLine
 10
655.999316
 20
455.78986
 30
0.0
 11
666.249316
 21
455.610945
 31
0.0
  0
LINE
  5
B8
330
1F
100
AcDbEntity
  8
LC-001-002-----0
  6
ByBlock
 62
     7
370
    50
100
AcDbLine
 10
633.75528
 20
466.79055
 30
0.0
 11
632.037991
 21
466.79055
 31
0.0
  0
LINE
  5
B9
330
1F
100
AcDbEntity
  8
LC-001-002-----0
  6
ByBlock
 62
     7
370
    50
100
AcDbLine
 10
634.043957
 20
466.79055
 30
0.0
 11
633.755281
 21
467.29055
 31
0.0
  0
LINE
  5
BA
330
1F
100
AcDbEntity
  8
LC-001-002-----0
  6
ByBlock
 62
     7
370
    50
100
AcDbLine
 10
646.74929
 20
455.78986
 30
0.0
 11
655.999316
 21
455.78986
 31
0.0
  0
INSERT
  5
C5
330
1F
100
AcDbEntity
  8
LC-004-005-----0
 62
     7
370
    25
100
AcDbBlockReference
  2
*X22
 10
0.0
 20
0.0
 30
0.0
  0
CIRCLE
  5
C6
330
1F
100
AcDbEntity
  8
LC-001-002-----0
  6
ByBlock
 62
     7
370
    50
100
AcDbCircle
 10
745.749316
 20
451.612155
 30
0.0
 40
1.5
  0
CIRCLE
  5
C7
330
1F
100
AcDbEntity
  8
LC-001-002-----0
  6
ByBlock
 62
     7
370
    50
100
AcDbCircle
 10
667.749315
 20
451.612155
 30
0.0
 40
1.5
  0
INSERT
  5
D2
330
1F
100
AcDbEntity
  8
LC-004-005-----0
 62
     7
370
    25
100
AcDbBlockReference
  2
*X33
 10
0.0
 20
0.0
 30
0.0
  0
LINE
  5
D3
330
1F
100
AcDbEntity
  8
LC-001-002-----0
  6
ByBlock
 62
     7
370
    50
100
AcDbLine
 10
666.249316
 20
455.610945
 30
0.0
 11
666.249316
 21
446.78986
 31
0.0
  0
LINE
  5
D4
330
1F
100
AcDbEntity
  8
LC-001-002-----0
  6
ByBlock
 62
     7
370
    50
100
AcDbLine
 10
664.249316
 20
446.78986
 30
0.0
 11
666.249316
 21
446.78986
 31
0.0
  0
LINE
  5
D5
330
1F
100
AcDbEntity
  8
LC-001-002-----0
  6
ByBlock
 62
     7
370
    50
100
AcDbLine
 10
664.249316
 20
453.78986
 30
0.0
 11
664.249316
 21
446.78986
 31
0.0
  0
LINE
  5
D6
330
1F
100
AcDbEntity
  8
LC-001-002-----0
  6
ByBlock
 62
     7
370
    50
100
AcDbLine
 10
654.749316
 20
453.78986
 30
0.0
 11
664.249316
 21
453.78986
 31
0.0
  0
LINE
  5
D7
330
1F
100
AcDbEntity
  8
LC-001-002-----0
  6
ByBlock
 62
     7
370
    50
100
AcDbLine
 10
669.249316
 20
430.636806
 30
0.0
 11
666.749321
 21
433.1368
 31
0.0
  0
LINE
  5
D8
330
1F
100
AcDbEntity
  8
LC-001-002-----0
  6
ByBlock
 62
     7
370
    50
100
AcDbLine
 10
744.249316
 20
430.636822
 30
0.0
 11
746.7493
 21
433.136807
 31
0.0
  0
INSERT
  5
113
330
1F
100
AcDbEntity
  8
LC-004-005-----0
 62
     7
370
    25
100
AcDbBlockReference
  2
*X44
 10
0.0
 20
0.0
 30
0.0
  0
ARC
  5
114
330
1F
100
AcDbEntity
  8
LC-001-002-----0
  6
ByBlock
 62
     7
370
    50
100
AcDbCircle
 10
719.749311
 20
408.612155
 30
0.0
 40
12.00000000000004
100
AcDbArc
 50
209.926478
 51
270.0
  0
ARC
  5
115
330
1F
100
AcDbEntity
  8
LC-001-002-----0
  6
ByBlock
 62
     7
370
    50
100
AcDbCircle
 10
693.749322
 20
408.612154
 30
0.0
 40
12.0
100
AcDbArc
 50
269.989261
 51
330.073523
  0
ARC
  5
116
330
1F
100
AcDbEntity
  8
LC-002-002-RND-0
 62
     7
370
    50
100
AcDbCircle
 10
706.749316
 20
401.12883
 30
0.0
 40
2.999999999999629
100
AcDbArc
 50
29.926478
 51
150.073523
  0
ARC
  5
117
330
1F
100
AcDbEntity
  8
LC-001-002-----0
  6
ByBlock
 62
     7
370
    50
100
AcDbCircle
 10
693.749322
 20
408.612154
 30
0.0
 40
13.50000000000011
100
AcDbArc
 50
270.010125
 51
330.073523
  0
LINE
  5
119
330
1F
100
AcDbEntity
  8
LC-006-101-----0
 62
     7
370
    50
100
AcDbLine
 10
719.749311
 20
396.612155
 30
0.0
 11
734.249316
 21
396.612155
 31
0.0
  0
ARC
  5
11A
330
1F
100
AcDbEntity
  8
LC-001-002-----0
  6
ByBlock
 62
     7
370
    50
100
AcDbCircle
 10
719.749311
 20
408.612155
 30
0.0
 40
13.49999999999995
100
AcDbArc
 50
209.926478
 51
270.0
  0
ARC
  5
11B
330
1F
100
AcDbEntity
  8
LC-001-002-----0
  6
ByBlock
 62
     7
370
    50
100
AcDbCircle
 10
706.749316
 20
401.12883
 30
0.0
 40
1.499999999999504
100
AcDbArc
 50
29.926478
 51
150.073523
  0
LINE
  5
11C
330
1F
100
AcDbEntity
  8
LC-001-002-----0
  6
ByBlock
 62
     7
370
    50
100
AcDbLine
 10
666.749321
 20
449.112155
 30
0.0
 11
669.249316
 21
449.112155
 31
0.0
  0
LINE
  5
11D
330
1F
100
AcDbEntity
  8
LC-001-002-----0
  6
ByBlock
 62
     7
370
    50
100
AcDbLine
 10
666.749321
 20
449.112155
 30
0.0
 11
666.749321
 21
450.112155
 31
0.0
  0
LINE
  5
11E
330
1F
100
AcDbEntity
  8
LC-001-002-----0
  6
ByBlock
 62
     7
370
    50
100
AcDbLine
 10
666.749321
 20
450.112155
 30
0.0
 11
669.249316
 21
450.112155
 31
0.0
  0
LINE
  5
11F
330
1F
100
AcDbEntity
  8
LC-001-002-----0
  6
ByBlock
 62
     7
370
    50
100
AcDbLine
 10
669.249316
 20
450.112155
 30
0.0
 11
669.249316
 21
449.112155
 31
0.0
  0
LINE
  5
120
330
1F
100
AcDbEntity
  8
LC-001-002-----0
  6
ByBlock
 62
     7
370
    50
100
AcDbLine
 10
746.7493
 20
449.112155
 30
0.0
 11
746.7493
 21
450.112155
 31
0.0
  0
LINE
  5
121
330
1F
100
AcDbEntity
  8
LC-001-002-----0
  6
ByBlock
 62
     7
370
    50
100
AcDbLine
 10
744.249305
 20
450.112155
 30
0.0
 11
744.249305
 21
449.112155
 31
0.0
  0
LINE
  5
122
330
1F
100
AcDbEntity
  8
LC-001-002-----0
  6
ByBlock
 62
     7
370
    50
100
AcDbLine
 10
746.7493
 20
449.112155
 30
0.0
 11
744.249305
 21
449.112155
 31
0.0
  0
LINE
  5
123
330
1F
100
AcDbEntity
  8
LC-001-002-----0
  6
ByBlock
 62
     7
370
    50
100
AcDbLine
 10
746.7493
 20
450.112155
 30
0.0
 11
744.249305
 21
450.112155
 31
0.0
  0
LINE
  5
124
330
1F
100
AcDbEntity
  8
LC-006-101-----0
 62
     7
370
    50
100
AcDbLine
 10
719.749311
 20
395.112155
 30
0.0
 11
734.249316
 21
395.112155
 31
0.0
  0
LINE
  5
125
330
1F
100
AcDbEntity
  8
LC-001-002-----0
  6
ByBlock
 62
     7
370
    50
100
AcDbLine
 10
746.7493
 20
449.112155
 30
0.0
 11
746.7493
 21
433.136807
 31
0.0
  0
LINE
  5
126
330
1F
100
AcDbEntity
  8
LC-001-002-----0
  6
ByBlock
 62
     7
370
    50
100
AcDbLine
 10
749.249316
 20
446.78986
 30
0.0
 11
747.249316
 21
446.78986
 31
0.0
  0
LINE
  5
127
330
1F
100
AcDbEntity
  8
LC-001-002-----0
  6
ByBlock
 62
     7
370
    50
100
AcDbLine
 10
742.749316
 20
437.112155
 30
0.0
 11
744.249316
 21
438.612155
 31
0.0
  0
LINE
  5
128
330
1F
100
AcDbEntity
  8
LC-006-101-----0
 62
     7
370
    50
100
AcDbLine
 10
670.749316
 20
437.112155
 30
0.0
 11
670.749316
 21
405.112155
 31
0.0
  0
LINE
  5
129
330
1F
100
AcDbEntity
  8
LC-001-002-----0
  6
ByBlock
 62
     7
370
    50
100
AcDbLine
 10
749.249316
 20
453.78986
 30
0.0
 11
749.249316
 21
446.78986
 31
0.0
  0
LINE
  5
12A
330
1F
100
AcDbEntity
  8
LC-006-101-----0
 62
     7
370
    50
100
AcDbLine
 10
744.249316
 20
438.612155
 30
0.0
 11
744.249316
 21
405.112155
 31
0.0
  0
LINE
  5
12B
330
1F
100
AcDbEntity
  8
LC-001-002-----0
  6
ByBlock
 62
     7
370
    50
100
AcDbLine
 10
758.749316
 20
453.78986
 30
0.0
 11
749.249316
 21
453.78986
 31
0.0
  0
LINE
  5
12C
330
1F
100
AcDbEntity
  8
LC-006-101-----0
 62
     7
370
    50
100
AcDbLine
 10
669.249316
 20
438.612155
 30
0.0
 11
670.749316
 21
437.112155
 31
0.0
  0
ARC
  5
12D
330
1F
100
AcDbEntity
  8
LC-006-101-----0
 62
     7
370
    50
100
AcDbCircle
 10
734.249316
 20
405.112155
 30
0.0
 40
8.5
100
AcDbArc
 50
270.0
 51
0.0
  0
ARC
  5
12E
330
1F
100
AcDbEntity
  8
LC-006-101-----0
 62
     7
370
    50
100
AcDbCircle
 10
734.249316
 20
405.112155
 30
0.0
 40
10.0
100
AcDbArc
 50
270.0
 51
0.0
  0
ARC
  5
12F
330
1F
100
AcDbEntity
  8
LC-006-101-----0
 62
     7
370
    50
100
AcDbCircle
 10
679.249316
 20
405.112155
 30
0.0
 40
8.5
100
AcDbArc
 50
180.0
 51
270.0
  0
LINE
  5
130
330
1F
100
AcDbEntity
  8
LC-006-101-----0
 62
     7
370
    50
100
AcDbLine
 10
669.249316
 20
438.612155
 30
0.0
 11
669.249316
 21
405.112155
 31
0.0
  0
LINE
  5
131
330
1F
100
AcDbEntity
  8
LC-006-101-----0
 62
     7
370
    50
100
AcDbLine
 10
742.749316
 20
437.112155
 30
0.0
 11
742.749316
 21
405.112155
 31
0.0
  0
ARC
  5
132
330
1F
100
AcDbEntity
  8
LC-006-101-----0
 62
     7
370
    50
100
AcDbCircle
 10
679.249316
 20
405.112155
 30
0.0
 40
10.0
100
AcDbArc
 50
180.0
 51
270.0
  0
LINE
  5
133
330
1F
100
AcDbEntity
  8
LC-006-101-----0
 62
     7
370
    50
100
AcDbLine
 10
679.249316
 20
395.112155
 30
0.0
 11
693.751707
 21
395.112155
 31
0.0
  0
LINE
  5
134
330
1F
100
AcDbEntity
  8
LC-001-002-----0
  6
ByBlock
 62
     7
370
    50
100
AcDbLine
 10
744.249305
 20
448.112155
 30
0.0
 11
744.249305
 21
438.612155
 31
0.0
  0
LINE
  5
135
330
1F
100
AcDbEntity
  8
LC-006-101-----0
 62
     7
370
    50
100
AcDbLine
 10
679.249316
 20
396.612155
 30
0.0
 11
693.747073
 21
396.612155
 31
0.0
  0
LINE
  5
136
330
1F
100
AcDbEntity
  8
LC-001-002-----0
  6
ByBlock
 62
     7
370
    50
100
AcDbLine
 10
666.749321
 20
433.1368
 30
0.0
 11
666.749321
 21
449.112155
 31
0.0
  0
LINE
  5
137
330
1F
100
AcDbEntity
  8
LC-001-002-----0
  6
ByBlock
 62
     7
370
    50
100
AcDbLine
 10
669.249316
 20
448.112155
 30
0.0
 11
669.249316
 21
438.612154
 31
0.0
  0
LINE
  5
138
330
1F
100
AcDbEntity
  8
LC-001-002-----0
  6
ByBlock
 62
     7
370
    50
100
AcDbLine
 10
757.499316
 20
455.78986
 30
0.0
 11
747.249316
 21
455.610945
 31
0.0
  0
LINE
  5
139
330
1F
100
AcDbEntity
  8
LC-001-002-----0
  6
ByBlock
 62
     7
370
    50
100
AcDbLine
 10
766.749342
 20
455.78986
 30
0.0
 11
757.499316
 21
455.78986
 31
0.0
  0
ARC
  5
13A
330
1F
100
AcDbEntity
  8
LC-002-002-RND-0
 62
     7
370
    50
100
AcDbCircle
 10
783.249837
 20
459.79055
 30
0.0
 40
1.0
100
AcDbArc
 50
90.0
 51
180.0
  0
LINE
  5
13B
330
1F
100
AcDbEntity
  8
LC-001-002-----0
  6
ByBlock
 62
     7
370
    50
100
AcDbLine
 10
774.249891
 20
466.79055
 30
0.0
 11
774.249891
 21
453.28986
 31
0.0
  0
LINE
  5
13C
330
1F
100
AcDbEntity
  8
LC-001-002-----0
  6
ByBlock
 62
     7
370
    50
100
AcDbLine
 10
782.249837
 20
459.79055
 30
0.0
 11
782.249837
 21
452.28986
 31
0.0
  0
LINE
  5
13D
330
1F
100
AcDbEntity
  8
LC-001-002-----0
 62
     7
370
    25
100
AcDbLine
 10
661.666615
 20
421.308624
 30
0.0
 11
596.741482
 21
421.308624
 31
0.0
  0
LINE
  5
13E
102
{ACAD_REACTORS
330
46B
102
}
330
1F
100
AcDbEntity
  8
LC-001-002-----0
  6
ByBlock
 62
     7
370
    50
100
AcDbLine
 10
654.749316
 20
453.78986
 30
0.0
 11
654.749316
 21
441.708624
 31
0.0
  0
LINE
  5
13F
330
1F
100
AcDbEntity
  8
LC-001-002-----0
 62
     7
370
    25
100
AcDbLine
 10
776.749805
 20
453.28986
 30
0.0
 11
776.749806
 21
467.29055
 31
0.0
  0
LINE
  5
140
102
{ACAD_REACTORS
330
46B
102
}
330
1F
100
AcDbEntity
  8
LC-001-002-----0
  6
ByBlock
 62
     7
370
    50
100
AcDbLine
 10
758.749316
 20
453.78986
 30
0.0
 11
758.749316
 21
443.308624
 31
0.0
  0
LINE
  5
141
330
1F
100
AcDbEntity
  8
LC-001-002-----0
  6
ByBlock
 62
     7
370
    50
100
AcDbLine
 10
636.049922
 20
466.79055
 30
0.0
 11
635.761247
 21
467.29055
 31
0.0
  0
LINE
  5
142
330
1F
100
AcDbEntity
  8
LC-001-002-----0
  6
ByBlock
 62
     7
370
    50
100
AcDbLine
 10
635.755195
 20
467.29055
 30
0.0
 11
635.46652
 21
466.79055
 31
0.0
  0
LINE
  5
143
102
{ACAD_REACTORS
330
466
102
}
330
1F
100
AcDbEntity
  8
LC-001-002-----0
  6
ByBlock
 62
     7
370
    50
100
AcDbLine
 10
611.241482
 20
398.483483
 30
0.0
 11
611.241482
 21
397.608624
 31
0.0
  0
LINE
  5
144
330
1F
100
AcDbEntity
  8
LC-001-002-----0
  6
ByBlock
 62
     7
370
    50
100
AcDbLine
 10
638.055888
 20
466.79055
 30
0.0
 11
637.767213
 21
467.29055
 31
0.0
  0
LINE
  5
145
330
1F
100
AcDbEntity
  8
LC-001-002-----0
  6
ByBlock
 62
     7
370
    50
100
AcDbLine
 10
637.761161
 20
467.29055
 30
0.0
 11
637.472486
 21
466.79055
 31
0.0
  0
LINE
  5
146
330
1F
100
AcDbEntity
  8
LC-001-002-----0
  6
ByBlock
 62
     7
370
    50
100
AcDbLine
 10
639.767127
 20
467.29055
 30
0.0
 11
639.478452
 21
466.79055
 31
0.0
  0
LINE
  5
147
330
1F
100
AcDbEntity
  8
LC-001-002-----0
  6
ByBlock
 62
     7
370
    50
100
AcDbLine
 10
773.749402
 20
467.29055
 30
0.0
 11
774.038077
 21
466.79055
 31
0.0
  0
LINE
  5
148
330
1F
100
AcDbEntity
  8
LC-001-002-----0
  6
ByBlock
 62
     7
370
    50
100
AcDbLine
 10
669.249315
 20
448.112155
 30
0.0
 11
666.749315
 21
448.112155
 31
0.0
  0
LINE
  5
149
330
1F
100
AcDbEntity
  8
LC-001-002-----0
  6
ByBlock
 62
     7
370
    50
100
AcDbLine
 10
640.037905
 20
466.79055
 30
0.0
 11
639.74923
 21
467.29055
 31
0.0
  0
LINE
  5
14A
330
1F
100
AcDbEntity
  8
LC-001-002-----0
  6
ByBlock
 62
     7
370
    50
100
AcDbLine
 10
775.749402
 20
467.29055
 30
0.0
 11
776.038077
 21
466.79055
 31
0.0
  0
LINE
  5
14B
330
1F
100
AcDbEntity
  8
LC-001-002-----0
  6
ByBlock
 62
     7
370
    50
100
AcDbLine
 10
742.249316
 20
450.990567
 30
0.0
 11
742.249316
 21
450.112155
 31
0.0
  0
LINE
  5
14C
330
1F
100
AcDbEntity
  8
LC-001-002-----0
  6
ByBlock
 62
     7
370
    50
100
AcDbLine
 10
773.749402
 20
467.29055
 30
0.0
 11
773.757482
 21
467.276555
 31
0.0
  0
LINE
  5
14D
330
1F
100
AcDbEntity
  8
LC-001-002-----0
  6
ByBlock
 62
     7
370
    50
100
AcDbLine
 10
744.249316
 20
453.384481
 30
0.0
 11
744.249316
 21
449.112155
 31
0.0
  0
LINE
  5
14E
330
1F
100
AcDbEntity
  8
LC-001-002-----0
  6
ByBlock
 62
     7
370
    50
100
AcDbLine
 10
773.460727
 20
466.79055
 30
0.0
 11
773.749402
 21
467.29055
 31
0.0
  0
LINE
  5
14F
330
1F
100
AcDbEntity
  8
LC-001-002-----0
  6
ByBlock
 62
     7
370
    50
100
AcDbLine
 10
747.249316
 20
454.104057
 30
0.0
 11
744.698937
 21
453.881936
 31
0.0
  0
LINE
  5
150
330
1F
100
AcDbEntity
  8
LC-001-002-----0
  6
ByBlock
 62
     7
370
    50
100
AcDbLine
 10
747.249316
 20
446.78986
 30
0.0
 11
747.249316
 21
455.609735
 31
0.0
  0
LINE
  5
151
330
1F
100
AcDbEntity
  8
LC-001-002-----0
  6
ByBlock
 62
     7
370
    50
100
AcDbLine
 10
747.249316
 20
455.609735
 30
0.0
 11
745.4434
 21
455.452452
 31
0.0
  0
LINE
  5
152
330
1F
100
AcDbEntity
  8
LC-001-002-----0
  6
ByBlock
 62
     7
370
    50
100
AcDbLine
 10
731.866398
 20
446.512023
 30
0.0
 11
743.754225
 21
454.835969
 31
0.0
  0
LINE
  5
153
330
1F
100
AcDbEntity
  8
LC-001-002-----0
  6
ByBlock
 62
     7
370
    50
100
AcDbLine
 10
666.249316
 20
455.612155
 30
0.0
 11
747.249316
 21
455.609735
 31
0.0
  0
LINE
  5
154
330
1F
100
AcDbEntity
  8
LC-001-002-----0
  6
ByBlock
 62
     7
370
    50
100
AcDbLine
 10
681.632233
 20
446.512023
 30
0.0
 11
669.744406
 21
454.835969
 31
0.0
  0
LINE
  5
155
330
1F
100
AcDbEntity
  8
LC-001-002-----0
  6
ByBlock
 62
     7
370
    50
100
AcDbLine
 10
666.749315
 20
448.112155
 30
0.0
 11
666.749315
 21
449.112155
 31
0.0
  0
LINE
  5
156
330
1F
100
AcDbEntity
  8
LC-001-002-----0
  6
ByBlock
 62
     7
370
    50
100
AcDbLine
 10
779.749402
 20
467.29055
 30
0.0
 11
780.749891
 21
467.29055
 31
0.0
  0
LINE
  5
157
330
1F
100
AcDbEntity
  8
LC-001-002-----0
  6
ByBlock
 62
     7
370
    50
100
AcDbLine
 10
666.749315
 20
449.112155
 30
0.0
 11
669.249315
 21
449.112155
 31
0.0
  0
LINE
  5
158
102
{ACAD_REACTORS
330
46B
102
}
330
1F
100
AcDbEntity
  8
LC-001-002-----0
  6
ByBlock
 62
     7
370
    50
100
AcDbLine
 10
632.248794
 20
451.28986
 30
0.0
 11
648.749316
 21
451.28986
 31
0.0
  0
ARC
  5
159
330
1F
100
AcDbEntity
  8
LC-002-002-RND-0
 62
     7
370
    50
100
AcDbCircle
 10
744.249316
 20
450.112155
 30
0.0
 40
2.0
100
AcDbArc
 50
180.0
 51
270.0
  0
LINE
  5
15A
330
1F
100
AcDbEntity
  8
LC-001-002-----0
  6
ByBlock
 62
     7
370
    50
100
AcDbLine
 10
744.249316
 20
448.112155
 30
0.0
 11
746.749316
 21
448.112155
 31
0.0
  0
LINE
  5
15B
330
1F
100
AcDbEntity
  8
LC-001-002-----0
  6
ByBlock
 62
     7
370
    50
100
AcDbLine
 10
746.749316
 20
448.112155
 30
0.0
 11
746.749316
 21
449.112155
 31
0.0
  0
LINE
  5
15C
330
1F
100
AcDbEntity
  8
LC-001-002-----0
  6
ByBlock
 62
     7
370
    50
100
AcDbLine
 10
746.749316
 20
449.112155
 30
0.0
 11
744.249316
 21
449.112155
 31
0.0
  0
LINE
  5
15D
330
1F
100
AcDbEntity
  8
LC-006-101-----0
 62
     7
370
    50
100
AcDbLine
 10
726.749316
 20
407.110945
 30
0.0
 11
727.749316
 21
407.110945
 31
0.0
  0
LINE
  5
15E
330
1F
100
AcDbEntity
  8
LC-001-002-----0
  6
ByBlock
 62
     7
370
    50
100
AcDbLine
 10
732.013551
 20
444.783898
 30
0.0
 11
741.462528
 21
451.400143
 31
0.0
  0
INSERT
  5
18C
330
1F
100
AcDbEntity
  8
LC-004-005-----0
 62
     7
370
    25
100
AcDbBlockReference
  2
*X55
 10
0.0
 20
0.0
 30
0.0
  0
ARC
  5
18D
330
1F
100
AcDbEntity
  8
LC-002-002-RND-0
 62
     7
370
    50
100
AcDbCircle
 10
674.749315
 20
436.682199
 30
0.0
 40
12.0
100
AcDbArc
 50
0.0
 51
55.0
  0
LINE
  5
18E
330
1F
100
AcDbEntity
  8
LC-001-002-----0
  6
ByBlock
 62
     7
370
    50
100
AcDbLine
 10
681.48508
 20
444.783899
 30
0.0
 11
672.036103
 21
451.400143
 31
0.0
  0
LINE
  5
18F
330
1F
100
AcDbEntity
  8
LC-006-101-----0
 62
     7
370
    50
100
AcDbLine
 10
685.749316
 20
407.110945
 30
0.0
 11
685.749315
 21
436.592378
 31
0.0
  0
LINE
  5
190
330
1F
100
AcDbEntity
  8
LC-006-101-----0
 62
     7
370
    50
100
AcDbLine
 10
686.749316
 20
407.110945
 30
0.0
 11
686.749315
 21
436.682199
 31
0.0
  0
LINE
  5
191
330
1F
100
AcDbEntity
  8
LC-001-002-----0
  6
ByBlock
 62
     7
370
    50
100
AcDbLine
 10
666.249316
 20
454.106444
 30
0.0
 11
666.249316
 21
455.612155
 31
0.0
  0
LINE
  5
192
330
1F
100
AcDbEntity
  8
LC-001-002-----0
  6
ByBlock
 62
     7
370
    50
100
AcDbLine
 10
666.249316
 20
454.106444
 30
0.0
 11
668.800153
 21
453.845736
 31
0.0
  0
LINE
  5
193
330
1F
100
AcDbEntity
  8
LC-006-101-----0
 62
     7
370
    50
100
AcDbLine
 10
706.749316
 20
407.110945
 30
0.0
 11
685.749316
 21
407.110945
 31
0.0
  0
LINE
  5
194
330
1F
100
AcDbEntity
  8
LC-001-002-----0
  6
ByBlock
 62
     7
370
    50
100
AcDbLine
 10
669.249315
 20
453.348327
 30
0.0
 11
669.249315
 21
449.112155
 31
0.0
  0
LINE
  5
195
330
1F
100
AcDbEntity
  8
LC-001-002-----0
  6
ByBlock
 62
     7
370
    50
100
AcDbLine
 10
671.249315
 20
450.990567
 30
0.0
 11
671.249315
 21
450.112155
 31
0.0
  0
ARC
  5
196
330
1F
100
AcDbEntity
  8
LC-002-002-RND-0
 62
     7
370
    50
100
AcDbCircle
 10
675.749315
 20
436.592378
 30
0.0
 40
10.0
100
AcDbArc
 50
0.0
 51
55.0
  0
ARC
  5
197
330
1F
100
AcDbEntity
  8
LC-002-002-RND-0
 62
     7
370
    50
100
AcDbCircle
 10
737.749315
 20
436.592378
 30
0.0
 40
10.0000000000001
100
AcDbArc
 50
125.0
 51
180.0
  0
LINE
  5
198
330
1F
100
AcDbEntity
  8
LC-006-101-----0
 62
     7
370
    50
100
AcDbLine
 10
727.749316
 20
407.110945
 30
0.0
 11
727.749315
 21
436.592378
 31
0.0
  0
LINE
  5
199
330
1F
100
AcDbEntity
  8
LC-006-101-----0
 62
     7
370
    50
100
AcDbLine
 10
726.749316
 20
407.110945
 30
0.0
 11
726.749315
 21
436.682198
 31
0.0
  0
LINE
  5
19A
330
1F
100
AcDbEntity
  8
LC-006-101-----0
 62
     7
370
    50
100
AcDbLine
 10
706.749316
 20
407.110945
 30
0.0
 11
726.749316
 21
407.110945
 31
0.0
  0
ARC
  5
19B
330
1F
100
AcDbEntity
  8
LC-002-002-RND-0
 62
     7
370
    50
100
AcDbCircle
 10
671.749315
 20
450.990567
 30
0.0
 40
0.5000000000001548
100
AcDbArc
 50
55.0
 51
180.0
  0
LINE
  5
19C
330
1F
100
AcDbEntity
  8
LC-001-002-----0
  6
ByBlock
 62
     7
370
    50
100
AcDbLine
 10
666.249316
 20
455.612155
 30
0.0
 11
668.055402
 21
455.454399
 31
0.0
  0
ARC
  5
19D
330
1F
100
AcDbEntity
  8
LC-002-002-RND-0
 62
     7
370
    50
100
AcDbCircle
 10
669.249315
 20
450.112155
 30
0.0
 40
2.0
100
AcDbArc
 50
270.0
 51
0.0
  0
ARC
  5
19E
330
1F
100
AcDbEntity
  8
LC-002-002-RND-0
 62
     7
370
    50
100
AcDbCircle
 10
668.749315
 20
453.348327
 30
0.0
 40
0.5
100
AcDbArc
 50
0.0
 51
84.164355
  0
ARC
  5
1A0
330
1F
100
AcDbEntity
  8
LC-007-101-RND-0
 62
     7
370
    50
100
AcDbCircle
 10
738.749315
 20
436.682198
 30
0.0
 40
12.00000000000006
100
AcDbArc
 50
125.0
 51
180.0
  0
ARC
  5
1A1
330
1F
100
AcDbEntity
  8
LC-002-002-RND-0
 62
     7
370
    50
100
AcDbCircle
 10
744.749316
 20
453.384481
 30
0.0
 40
0.5000000000000522
100
AcDbArc
 50
95.782875
 51
180.0
  0
ARC
  5
1A2
330
1F
100
AcDbEntity
  8
LC-002-002-RND-0
 62
     7
370
    50
100
AcDbCircle
 10
741.749316
 20
450.990567
 30
0.0
 40
0.5
100
AcDbArc
 50
0.0
 51
125.0
  0
LINE
  5
1A3
102
{ACAD_REACTORS
330
46A
102
}
330
1F
100
AcDbEntity
  8
LC-004-005-----0
 62
     7
370
    25
100
AcDbLine
 10
664.857991
 20
446.78986
 30
0.0
 11
666.249316
 21
448.181184
 31
0.0
  0
LINE
  5
1A4
330
1F
100
AcDbEntity
  8
LC-001-002-----0
  6
ByBlock
 62
     7
370
    50
100
AcDbLine
 10
779.749402
 20
467.29055
 30
0.0
 11
780.038077
 21
466.79055
 31
0.0
  0
LINE
  5
1A5
102
{ACAD_REACTORS
330
46A
102
}
330
1F
100
AcDbEntity
  8
LC-004-005-----0
 62
     7
370
    25
100
AcDbLine
 10
664.249316
 20
449.009611
 30
0.0
 11
666.249316
 21
451.009611
 31
0.0
  0
LINE
  5
1A6
330
1F
100
AcDbEntity
  8
LC-001-002-----0
  6
ByBlock
 62
     7
370
    50
100
AcDbLine
 10
775.460727
 20
466.79055
 30
0.0
 11
775.749402
 21
467.29055
 31
0.0
  0
LINE
  5
1A7
330
1F
100
AcDbEntity
  8
LC-001-002-----0
  6
ByBlock
 62
     7
370
    50
100
AcDbLine
 10
777.749402
 20
467.29055
 30
0.0
 11
778.038077
 21
466.79055
 31
0.0
  0
ARC
  5
1A8
330
1F
100
AcDbEntity
  8
LC-001-002-----0
  6
ByBlock
 62
     7
370
    50
100
AcDbCircle
 10
667.749316
 20
451.986684
 30
0.0
 40
3.478334111086722
100
AcDbArc
 50
55.0
 51
84.955683
  0
ARC
  5
1A9
330
1F
100
AcDbEntity
  8
LC-001-002-----0
  6
ByBlock
 62
     7
370
    50
100
AcDbCircle
 10
745.749316
 20
451.986684
 30
0.0
 40
3.478334111086553
100
AcDbArc
 50
95.044317
 51
125.0
  0
LINE
  5
1AA
102
{ACAD_REACTORS
330
46A
102
}
330
1F
100
AcDbEntity
  8
LC-004-005-----0
 62
     7
370
    25
100
AcDbLine
 10
654.119902
 20
441.708624
 30
0.0
 11
654.749316
 21
442.338038
 31
0.0
  0
LINE
  5
1AB
102
{ACAD_REACTORS
330
46A
102
}
330
1F
100
AcDbEntity
  8
LC-004-005-----0
 62
     7
370
    25
100
AcDbLine
 10
664.249316
 20
451.838038
 30
0.0
 11
666.249316
 21
453.838038
 31
0.0
  0
LINE
  5
1AC
102
{ACAD_REACTORS
330
46B
102
}
330
1F
100
AcDbEntity
  8
LC-001-002-----0
  6
ByBlock
 62
    70
370
    50
100
AcDbLine
 10
614.781482
 20
443.258624
 30
0.0
 11
650.749316
 21
443.258624
 31
0.0
  0
LINE
  5
1AD
330
1F
100
AcDbEntity
  8
LC-001-002-----0
  6
ByBlock
 62
     7
370
    50
100
AcDbLine
 10
812.034245
 20
472.992275
 30
0.0
 11
819.683062
 21
473.245794
 31
0.0
  0
LINE
  5
1AE
102
{ACAD_REACTORS
330
466
102
}
330
1F
100
AcDbEntity
  8
LC-001-002-----0
  6
ByBlock
 62
     7
370
    50
100
AcDbLine
 10
611.241482
 20
444.133766
 30
0.0
 11
611.241482
 21
445.008624
 31
0.0
  0
LINE
  5
1AF
102
{ACAD_REACTORS
330
46A
102
}
330
1F
100
AcDbEntity
  8
LC-004-005-----0
 62
     7
370
    25
100
AcDbLine
 10
651.291475
 20
441.708624
 30
0.0
 11
654.749316
 21
445.166466
 31
0.0
  0
LINE
  5
1B0
330
1F
100
AcDbEntity
  8
LC-001-002-----0
  6
ByBlock
 62
     7
370
    50
100
AcDbLine
 10
633.755281
 20
467.280068
 30
0.0
 11
633.74923
 21
467.29055
 31
0.0
  0
LINE
  5
1B1
330
1F
100
AcDbEntity
  8
LC-001-002-----0
  6
ByBlock
 62
     7
370
    50
100
AcDbLine
 10
633.74923
 20
467.29055
 30
0.0
 11
633.460554
 21
466.79055
 31
0.0
  0
LINE
  5
1B2
330
1F
100
AcDbEntity
  8
LC-001-002-----0
  6
ByBlock
 62
     7
370
    50
100
AcDbLine
 10
781.249837
 20
451.28986
 30
0.0
 11
761.430633
 21
451.28986
 31
0.0
  0
LINE
  5
1B3
102
{ACAD_REACTORS
330
46C
102
}
330
1F
100
AcDbEntity
  8
LC-001-002-----0
  6
ByBlock
 62
     7
370
    50
100
AcDbLine
 10
894.249316
 20
396.308624
 30
0.0
 11
897.749316
 21
397.246447
 31
0.0
  0
ARC
  5
1B5
102
{ACAD_REACTORS
330
46C
102
}
330
1F
100
AcDbEntity
  8
LC-008-207-----0
 62
     7
370
    50
100
AcDbCircle
 10
791.24976
 20
421.308624
 30
0.0
 40
29.7000000000001
100
AcDbArc
 50
69.721682
 51
104.141305
  0
INSERT
  5
1C1
330
1F
100
AcDbEntity
  8
LC-004-005-----0
 62
     7
370
    25
100
AcDbBlockReference
  2
*X66
 10
0.0
 20
0.0
 30
0.0
  0
LINE
  5
1C2
330
1F
100
AcDbEntity
  8
LC-001-002-----0
  6
ByBlock
 62
     7
370
    50
100
AcDbLine
 10
777.460727
 20
466.79055
 30
0.0
 11
777.749402
 21
467.29055
 31
0.0
  0
LINE
  5
1C3
330
1F
100
AcDbEntity
  8
LC-001-002-----0
  6
ByBlock
 62
     7
370
    50
100
AcDbLine
 10
779.460727
 20
466.79055
 30
0.0
 11
779.749402
 21
467.29055
 31
0.0
  0
ARC
  5
1C5
102
{ACAD_REACTORS
330
46C
102
}
330
1F
100
AcDbEntity
  8
LC-009-207-RND-0
 62
     7
370
    50
100
AcDbCircle
 10
783.749316
 20
391.538953
 30
0.0
 40
0.9999999999999977
100
AcDbArc
 50
75.858695
 51
180.0
  0
LINE
  5
1C6
102
{ACAD_REACTORS
330
46C
102
}
330
1F
100
AcDbEntity
  8
LC-001-002-----0
  6
ByBlock
 62
     7
370
    50
100
AcDbLine
 10
782.749316
 20
391.538953
 30
0.0
 11
782.749316
 21
389.308624
 31
0.0
  0
LINE
  5
1C7
102
{ACAD_REACTORS
330
46C
102
}
330
1F
100
AcDbEntity
  8
LC-001-002-----0
  6
ByBlock
 62
     7
370
    50
100
AcDbLine
 10
897.749316
 20
397.246447
 30
0.0
 11
897.749316
 21
398.558624
 31
0.0
  0
LINE
  5
1C8
102
{ACAD_REACTORS
330
46C
102
}
330
1F
100
AcDbEntity
  8
LC-001-002-----0
  6
ByBlock
 62
     7
370
    50
100
AcDbLine
 10
897.749316
 20
398.558624
 30
0.0
 11
897.749316
 21
444.058624
 31
0.0
  0
LINE
  5
1C9
102
{ACAD_REACTORS
330
46C
102
}
330
1F
100
AcDbEntity
  8
LC-001-002-----0
  6
ByBlock
 62
     7
370
    50
100
AcDbLine
 10
897.749316
 20
444.058624
 30
0.0
 11
897.749316
 21
445.370802
 31
0.0
  0
LINE
  5
1CA
102
{ACAD_REACTORS
330
46C
102
}
330
1F
100
AcDbEntity
  8
LC-001-002-----0
 62
     7
370
    25
100
AcDbLine
 10
897.749316
 20
421.308624
 30
0.0
 11
763.632433
 21
421.308624
 31
0.0
  0
LINE
  5
1CB
102
{ACAD_REACTORS
330
46B
102
}
330
1F
100
AcDbEntity
  8
LC-001-002-----0
  6
ByBlock
 62
    70
370
    50
100
AcDbLine
 10
654.749316
 20
441.708624
 30
0.0
 11
611.241482
 21
441.708624
 31
0.0
  0
LINE
  5
1CC
102
{ACAD_REACTORS
330
46B
102
}
330
1F
100
AcDbEntity
  8
LC-001-002-----0
  6
ByBlock
 62
    70
370
    50
100
AcDbLine
 10
654.749316
 20
400.908624
 30
0.0
 11
611.241482
 21
400.908624
 31
0.0
  0
LINE
  5
1CD
102
{ACAD_REACTORS
330
46B
102
}
330
1F
100
AcDbEntity
  8
LC-001-002-----0
  6
ByBlock
 62
    70
370
    50
100
AcDbLine
 10
614.781482
 20
399.358624
 30
0.0
 11
651.749316
 21
399.358624
 31
0.0
  0
LINE
  5
1CE
102
{ACAD_REACTORS
330
46C
102
}
330
1F
100
AcDbEntity
  8
LC-001-002-----0
  6
ByBlock
 62
     7
370
    50
100
AcDbLine
 10
894.249316
 20
446.308624
 30
0.0
 11
897.749316
 21
445.370802
 31
0.0
  0
CIRCLE
  5
1CF
330
1F
100
AcDbEntity
  8
LC-001-002-----0
  6
ByBlock
 62
     7
370
    50
100
AcDbCircle
 10
799.598623
 20
448.058624
 30
0.0
 40
1.75
  0
ARC
  5
1D0
102
{ACAD_REACTORS
330
46C
102
}
330
1F
100
AcDbEntity
  8
LC-009-207-RND-0
 62
     7
370
    50
100
AcDbCircle
 10
783.749316
 20
451.078296
 30
0.0
 40
1.0
100
AcDbArc
 50
180.0
 51
284.141305
  0
LINE
  5
1D1
102
{ACAD_REACTORS
330
46C
102
}
330
1F
100
AcDbEntity
  8
LC-008-207-----0
 62
     7
370
    50
100
AcDbLine
 10
811.3243
 20
446.308624
 30
0.0
 11
894.249316
 21
446.308624
 31
0.0
  0
CIRCLE
  5
1D2
330
1F
100
AcDbEntity
  8
LC-001-002-----0
  6
ByBlock
 62
     7
370
    50
100
AcDbCircle
 10
799.598623
 20
394.74712
 30
0.0
 40
1.75
  0
LINE
  5
1D3
102
{ACAD_REACTORS
330
46C
102
}
330
1F
100
AcDbEntity
  8
LC-008-207-----0
 62
     7
370
    50
100
AcDbLine
 10
811.3243
 20
396.308624
 30
0.0
 11
894.249316
 21
396.308624
 31
0.0
  0
LINE
  5
1D4
102
{ACAD_REACTORS
330
46C
102
}
330
1F
100
AcDbEntity
  8
LC-008-207-----0
 62
     7
370
    50
100
AcDbLine
 10
810.342363
 20
444.058624
 30
0.0
 11
897.749316
 21
444.058624
 31
0.0
  0
LINE
  5
1D5
102
{ACAD_REACTORS
330
46C
102
}
330
1F
100
AcDbEntity
  8
LC-008-207-----0
 62
     7
370
    50
100
AcDbLine
 10
810.342363
 20
398.558624
 30
0.0
 11
897.749316
 21
398.558624
 31
0.0
  0
INSERT
  5
205
102
{ACAD_REACTORS
330
46C
102
}
330
1F
100
AcDbEntity
  8
LC-004-005-----0
 62
     7
370
    25
100
AcDbBlockReference
  2
*X77
 10
0.0
 20
0.0
 30
0.0
  0
INSERT
  5
22F
102
{ACAD_REACTORS
330
46C
102
}
330
1F
100
AcDbEntity
  8
LC-004-005-----0
 62
     7
370
    25
100
AcDbBlockReference
  2
*X88
 10
0.0
 20
0.0
 30
0.0
  0
LINE
  5
230
102
{ACAD_REACTORS
330
46C
102
}
330
1F
100
AcDbEntity
  8
LC-001-002-----0
  6
ByBlock
 62
     7
370
    50
100
AcDbLine
 10
782.749316
 20
451.078296
 30
0.0
 11
782.749316
 21
453.308624
 31
0.0
  0
LINE
  5
231
102
{ACAD_REACTORS
330
46C
102
}
330
1F
100
AcDbEntity
  8
LC-001-002-----0
  6
ByBlock
 62
     7
370
    50
100
AcDbLine
 10
782.749316
 20
453.308624
 30
0.0
 11
791.249316
 21
453.308624
 31
0.0
  0
LINE
  5
232
102
{ACAD_REACTORS
330
46C
102
}
330
1F
100
AcDbEntity
  8
LC-008-207-----0
  6
DASHED
 62
     7
370
    25
100
AcDbLine
 10
782.749316
 20
389.308624
 30
0.0
 11
791.349316
 21
389.308624
 31
0.0
  0
ARC
  5
233
102
{ACAD_REACTORS
330
46C
102
}
330
1F
100
AcDbEntity
  8
LC-001-002-----0
  6
ByBlock
 62
     7
370
    50
100
AcDbCircle
 10
791.349316
 20
421.308624
 30
0.0
 40
32.00000000000082
100
AcDbArc
 50
51.375167
 51
90.17905
  0
ARC
  5
234
102
{ACAD_REACTORS
330
46C
102
}
330
1F
100
AcDbEntity
  8
LC-001-002-----0
  6
ByBlock
 62
     7
370
    50
100
AcDbCircle
 10
791.349316
 20
421.308624
 30
0.0
 40
32.00000000000125
100
AcDbArc
 50
270.0
 51
308.624833
  0
INSERT
  5
241
330
1F
100
AcDbEntity
  8
LC-004-005-----0
 62
     7
370
    25
100
AcDbBlockReference
  2
*X99
 10
0.0
 20
0.0
 30
0.0
  0
ARC
  5
242
102
{ACAD_REACTORS
330
46C
102
}
330
1F
100
AcDbEntity
  8
LC-008-207-----0
 62
     7
370
    50
100
AcDbCircle
 10
791.24976
 20
421.308624
 30
0.0
 40
29.70000000000012
100
AcDbArc
 50
49.995438
 51
69.721682
  0
ARC
  5
243
102
{ACAD_REACTORS
330
46C
102
}
330
1F
100
AcDbEntity
  8
LC-008-207-----0
 62
     7
370
    50
100
AcDbCircle
 10
791.24976
 20
421.308624
 30
0.0
 40
29.7000000000001
100
AcDbArc
 50
255.858695
 51
310.004562
  0
ARC
  5
244
330
1F
100
AcDbEntity
  8
LC-002-002-RND-0
 62
     7
370
    50
100
AcDbCircle
 10
781.249837
 20
452.28986
 30
0.0
 40
1.0
100
AcDbArc
 50
270.0
 51
0.0
  0
ARC
  5
245
102
{ACAD_REACTORS
330
46B
102
}
330
1F
100
AcDbEntity
  8
LC-002-002-RND-0
 62
     7
370
    50
100
AcDbCircle
 10
632.248794
 20
452.28986
 30
0.0
 40
1.0
100
AcDbArc
 50
180.0
 51
270.0
  0
LINE
  5
246
102
{ACAD_REACTORS
330
46A
102
}
330
1F
100
AcDbEntity
  8
LC-004-005-----0
 62
     7
370
    25
100
AcDbLine
 10
663.37271
 20
453.78986
 30
0.0
 11
665.211903
 21
455.629053
 31
0.0
  0
LINE
  5
247
102
{ACAD_REACTORS
330
46A
102
}
330
1F
100
AcDbEntity
  8
LC-004-005-----0
 62
     7
370
    25
100
AcDbLine
 10
648.463047
 20
441.708624
 30
0.0
 11
650.013047
 21
443.258624
 31
0.0
  0
LINE
  5
248
102
{ACAD_REACTORS
330
46A
102
}
330
1F
100
AcDbEntity
  8
LC-004-005-----0
 62
     7
370
    25
100
AcDbLine
 10
651.749316
 20
444.994893
 30
0.0
 11
654.749316
 21
447.994893
 31
0.0
  0
LINE
  5
249
102
{ACAD_REACTORS
330
46A
102
}
330
1F
100
AcDbEntity
  8
LC-004-005-----0
 62
     7
370
    25
100
AcDbLine
 10
660.544283
 20
453.78986
 30
0.0
 11
662.432
 21
455.677577
 31
0.0
  0
LINE
  5
24A
102
{ACAD_REACTORS
330
46A
102
}
330
1F
100
AcDbEntity
  8
LC-004-005-----0
 62
     7
370
    25
100
AcDbLine
 10
645.63462
 20
441.708624
 30
0.0
 11
647.18462
 21
443.258624
 31
0.0
  0
LINE
  5
24B
102
{ACAD_REACTORS
330
46A
102
}
330
1F
100
AcDbEntity
  8
LC-004-005-----0
 62
     7
370
    25
100
AcDbLine
 10
651.749316
 20
447.82332
 30
0.0
 11
654.749316
 21
450.82332
 31
0.0
  0
LINE
  5
24C
102
{ACAD_REACTORS
330
46A
102
}
330
1F
100
AcDbEntity
  8
LC-004-005-----0
 62
     7
370
    25
100
AcDbLine
 10
657.715855
 20
453.78986
 30
0.0
 11
659.652096
 21
455.7261
 31
0.0
  0
LINE
  5
24D
102
{ACAD_REACTORS
330
46A
102
}
330
1F
100
AcDbEntity
  8
LC-004-005-----0
 62
     7
370
    25
100
AcDbLine
 10
642.806193
 20
441.708624
 30
0.0
 11
644.356193
 21
443.258624
 31
0.0
  0
LINE
  5
24E
102
{ACAD_REACTORS
330
46A
102
}
330
1F
100
AcDbEntity
  8
LC-004-005-----0
 62
     7
370
    25
100
AcDbLine
 10
651.165561
 20
450.067993
 30
0.0
 11
654.749316
 21
453.651747
 31
0.0
  0
LINE
  5
24F
102
{ACAD_REACTORS
330
46A
102
}
330
1F
100
AcDbEntity
  8
LC-004-005-----0
 62
     7
370
    25
100
AcDbLine
 10
654.887428
 20
453.78986
 30
0.0
 11
656.872192
 21
455.774623
 31
0.0
  0
LINE
  5
250
102
{ACAD_REACTORS
330
46A
102
}
330
1F
100
AcDbEntity
  8
LC-004-005-----0
 62
     7
370
    25
100
AcDbLine
 10
639.977766
 20
441.708624
 30
0.0
 11
641.527766
 21
443.258624
 31
0.0
  0
DIMENSION
  5
254
330
1F
100
AcDbEntity
  8
LC-010-003-----0
 62
     7
370
    25
100
AcDbDimension
  2
*D10
 10
876.933041
 20
407.110945
 30
0.0
 11
846.133041
 21
503.440635
 31
0.0
 70
   160
 71
     5
 42
30.00121
 53
90.0
  3
LC-DIM-L-0140-02-02
100
AcDbAlignedDimension
 13
742.749316
 23
437.112155
 33
0.0
 14
727.749316
 24
407.110945
 34
0.0
 50
90.0
100
AcDbRotatedDimension
  0
DIMENSION
  5
263
330
1F
100
AcDbEntity
  8
LC-010-003-----0
 62
     7
370
    25
100
AcDbDimension
  2
*D11
 10
545.733041
 20
421.308624
 30
0.0
 11
514.933041
 21
445.35888
 31
0.0
 70
   160
  1
48
 71
     5
 42
48.100511
 53
90.0
  3
LC-DIM-L-0140-02-02
100
AcDbAlignedDimension
 13
601.123665
 23
469.409136
 33
0.0
 14
596.741482
 24
421.308624
 34
0.0
 50
90.0
100
AcDbRotatedDimension
  0
LINE
  5
272
330
1F
100
AcDbEntity
  8
LC-001-002-----0
  6
ByBlock
 62
     7
370
    50
100
AcDbLine
 10
593.749316
 20
473.246892
 30
0.0
 11
818.555783
 21
473.246892
 31
0.0
  0
LINE
  5
273
102
{ACAD_REACTORS
330
46A
102
}
330
1F
100
AcDbEntity
  8
LC-004-005-----0
 62
     7
370
    25
100
AcDbLine
 10
649.470922
 20
451.201781
 30
0.0
 11
654.059001
 21
455.78986
 31
0.0
  0
LINE
  5
274
102
{ACAD_REACTORS
330
46A
102
}
330
1F
100
AcDbEntity
  8
LC-004-005-----0
 62
     7
370
    25
100
AcDbLine
 10
637.149339
 20
441.708624
 30
0.0
 11
638.699339
 21
443.258624
 31
0.0
  0
ARC
  5
275
330
1F
100
AcDbEntity
  8
LC-002-002-RND-0
 62
     7
370
    50
100
AcDbCircle
 10
593.749316
 20
471.246892
 30
0.0
 40
1.999999999999994
100
AcDbArc
 50
88.101636
 51
180.0
  0
LINE
  5
276
330
1F
100
AcDbEntity
  8
LC-001-002-----0
  6
ByBlock
 62
     7
370
    50
100
AcDbLine
 10
779.756234
 20
466.79055
 30
0.0
 11
781.460727
 21
466.79055
 31
0.0
  0
ELLIPSE
  5
277
330
1F
100
AcDbEntity
  8
LC-001-002-----0
  6
ByBlock
 62
     7
370
    50
100
AcDbEllipse
 10
758.749316
 20
421.308624
 30
0.0
 11
0.0
 21
-21.99999999911487
 31
0.0
210
0.0
220
0.0
230
1.0
 40
0.22196
 41
6.283092605574678
 42
9.424777960769426
  0
LINE
  5
278
102
{ACAD_REACTORS
330
46A
102
}
330
1F
100
AcDbEntity
  8
LC-004-005-----0
 62
     7
370
    25
100
AcDbLine
 10
646.730574
 20
451.28986
 30
0.0
 11
651.230574
 21
455.78986
 31
0.0
  0
LINE
  5
279
102
{ACAD_REACTORS
330
46A
102
}
330
1F
100
AcDbEntity
  8
LC-004-005-----0
 62
     7
370
    25
100
AcDbLine
 10
634.320912
 20
441.708624
 30
0.0
 11
635.870912
 21
443.258624
 31
0.0
  0
LINE
  5
27A
330
1F
100
AcDbEntity
  8
LC-001-002-----0
  6
ByBlock
 62
     7
370
    25
100
AcDbLine
 10
820.731225
 20
469.727019
 30
0.0
 11
821.749316
 21
470.745109
 31
0.0
  0
ARC
  5
27B
330
1F
100
AcDbEntity
  8
LC-002-002-RND-0
 62
     7
370
    50
100
AcDbCircle
 10
819.749316
 20
471.246892
 30
0.0
 40
2.0
100
AcDbArc
 50
0.0
 51
91.898364
  0
LINE
  5
27C
330
1F
100
AcDbEntity
  8
LC-001-002-----0
  6
ByBlock
 62
     7
370
    50
100
AcDbLine
 10
734.799839
 20
468.28986
 30
0.0
 11
734.799839
 21
471.28986
 31
0.0
  0
LINE
  5
27D
102
{ACAD_REACTORS
330
46A
102
}
330
1F
100
AcDbEntity
  8
LC-004-005-----0
 62
     7
370
    25
100
AcDbLine
 10
643.902147
 20
451.28986
 30
0.0
 11
648.402147
 21
455.78986
 31
0.0
  0
LINE
  5
27E
102
{ACAD_REACTORS
330
46A
102
}
330
1F
100
AcDbEntity
  8
LC-004-005-----0
 62
     7
370
    25
100
AcDbLine
 10
631.492485
 20
441.708624
 30
0.0
 11
633.042485
 21
443.258624
 31
0.0
  0
ARC
  5
27F
102
{ACAD_REACTORS
330
46B
102
}
330
1F
100
AcDbEntity
  8
LC-002-002-RND-0
 62
     7
370
    50
100
AcDbCircle
 10
648.749316
 20
448.28986
 30
0.0
 40
3.0
100
AcDbArc
 50
360.0
 51
90.0
  0
LINE
  5
280
102
{ACAD_REACTORS
330
46B
102
}
330
1F
100
AcDbEntity
  8
LC-001-002-----0
  6
ByBlock
 62
     7
370
    50
100
AcDbLine
 10
654.749316
 20
452.458624
 30
0.0
 11
654.749316
 21
450.850899
 31
0.0
  0
LINE
  5
281
102
{ACAD_REACTORS
330
46B
102
}
330
1F
100
AcDbEntity
  8
LC-001-002-----0
  6
ByBlock
 62
     7
370
    50
100
AcDbLine
 10
651.749316
 20
448.28986
 30
0.0
 11
651.749316
 21
444.258624
 31
0.0
  0
ARC
  5
282
102
{ACAD_REACTORS
330
46B
102
}
330
1F
100
AcDbEntity
  8
LC-005-205-----0
 62
     7
370
    50
100
AcDbCircle
 10
802.098623
 20
448.583316
 30
0.0
 40
0.2500000000000429
100
AcDbArc
 50
68.305797
 51
180.0
  0
ARC
  5
283
102
{ACAD_REACTORS
330
46B
102
}
330
1F
100
AcDbEntity
  8
LC-002-002-RND-0
 62
    70
370
    50
100
AcDbCircle
 10
650.749316
 20
444.258624
 30
0.0
 40
1.0
100
AcDbArc
 50
270.0
 51
360.0
  0
LINE
  5
284
102
{ACAD_REACTORS
330
46B
102
}
330
1F
100
AcDbEntity
  8
LC-001-002-----0
  6
ByBlock
 62
     7
370
    50
100
AcDbLine
 10
655.249316
 20
391.320129
 30
0.0
 11
758.249316
 21
391.320129
 31
0.0
  0
LINE
  5
285
102
{ACAD_REACTORS
330
466
102
}
330
1F
100
AcDbEntity
  8
LC-001-002-----0
  6
ByBlock
 62
     7
370
    50
100
AcDbLine
 10
609.881482
 20
445.278624
 30
0.0
 11
609.881482
 21
445.798624
 31
0.0
  0
ARC
  5
286
102
{ACAD_REACTORS
330
46B
102
}
330
1F
100
AcDbEntity
  8
LC-001-002-----0
  6
ByBlock
 62
     7
370
    50
100
AcDbCircle
 10
791.24976
 20
421.308624
 30
0.0
 40
29.60339290378799
100
AcDbArc
 50
78.506497
 51
121.348957
  0
INSERT
  5
297
102
{ACAD_REACTORS
330
466
102
}
330
1F
100
AcDbEntity
  8
LC-004-005-----0
 62
     7
370
    25
100
AcDbBlockReference
  2
*X1012
 10
0.0
 20
0.0
 30
0.0
  0
LINE
  5
298
102
{ACAD_REACTORS
330
466
102
}
330
1F
100
AcDbEntity
  8
LC-001-002-----0
  6
ByBlock
 62
     7
370
    50
100
AcDbLine
 10
609.881482
 20
397.338624
 30
0.0
 11
609.881482
 21
396.818624
 31
0.0
  0
LINE
  5
299
102
{ACAD_REACTORS
330
466
102
}
330
1F
100
AcDbEntity
  8
LC-001-002-----0
  6
ByBlock
 62
     7
370
    50
100
AcDbLine
 10
609.081482
 20
445.278624
 30
0.0
 11
609.081482
 21
445.798624
 31
0.0
  0
ARC
  5
29A
102
{ACAD_REACTORS
330
466
102
}
330
1F
100
AcDbEntity
  8
LC-002-002-RND-0
 62
     7
370
    50
100
AcDbCircle
 10
610.741482
 20
443.283766
 30
0.0
 40
0.4999999999999755
100
AcDbArc
 50
261.027373
 51
0.0
  0
ARC
  5
29B
102
{ACAD_REACTORS
330
466
102
}
330
1F
100
AcDbEntity
  8
LC-002-002-RND-0
 62
     7
370
    50
100
AcDbCircle
 10
608.666027
 20
442.801559
 30
0.0
 40
0.3000000000000149
100
AcDbArc
 50
81.027373
 51
200.840919
  0
LINE
  5
29C
102
{ACAD_REACTORS
330
46B
102
}
330
1F
100
AcDbEntity
  8
LC-001-002-----0
  6
ByBlock
 62
     7
370
    50
100
AcDbLine
 10
773.348623
 20
393.99712
 30
0.0
 11
775.848623
 21
393.99712
 31
0.0
  0
LINE
  5
29D
102
{ACAD_REACTORS
330
46B
102
}
330
1F
100
AcDbEntity
  8
LC-001-002-----0
  6
ByBlock
 62
     7
370
    50
100
AcDbLine
 10
773.348623
 20
396.308624
 30
0.0
 11
773.348623
 21
393.99712
 31
0.0
  0
LINE
  5
29E
330
1F
100
AcDbEntity
  8
LC-001-002-----0
  6
ByBlock
 62
     7
370
    50
100
AcDbLine
 10
734.799839
 20
471.28986
 30
0.0
 11
739.749329
 21
471.28986
 31
0.0
  0
LINE
  5
29F
102
{ACAD_REACTORS
330
466
102
}
330
1F
100
AcDbEntity
  8
LC-001-002-----0
  6
ByBlock
 62
     7
370
    50
100
AcDbLine
 10
611.241482
 20
444.158624
 30
0.0
 11
611.000644
 21
445.057443
 31
0.0
  0
LINE
  5
2A0
330
1F
100
AcDbEntity
  8
LC-001-002-----0
  6
ByBlock
 62
     7
370
    50
100
AcDbLine
 10
781.749402
 20
467.29055
 30
0.0
 11
780.749891
 21
467.29055
 31
0.0
  0
LINE
  5
2A1
330
1F
100
AcDbEntity
  8
LC-001-002-----0
  6
ByBlock
 62
     7
370
    50
100
AcDbLine
 10
771.749402
 20
467.29055
 30
0.0
 11
779.749402
 21
467.29055
 31
0.0
  0
LINE
  5
2A2
330
1F
100
AcDbEntity
  8
LC-001-002-----0
  6
ByBlock
 62
     7
370
    50
100
AcDbLine
 10
771.749402
 20
467.29055
 30
0.0
 11
770.749402
 21
467.29055
 31
0.0
  0
LINE
  5
2A3
330
1F
100
AcDbEntity
  8
LC-001-002-----0
  6
ByBlock
 62
     7
370
    50
100
AcDbLine
 10
789.749924
 20
466.79055
 30
0.0
 11
782.749402
 21
466.79055
 31
0.0
  0
LINE
  5
2A4
330
1F
100
AcDbEntity
  8
LC-001-002-----0
  6
ByBlock
 62
     7
370
    50
100
AcDbLine
 10
770.749402
 20
468.29055
 30
0.0
 11
770.749402
 21
466.79055
 31
0.0
  0
LINE
  5
2A5
330
1F
100
AcDbEntity
  8
LC-001-002-----0
  6
ByBlock
 62
     7
370
    50
100
AcDbLine
 10
782.749402
 20
466.79055
 30
0.0
 11
782.749402
 21
463.29055
 31
0.0
  0
LINE
  5
2A6
330
1F
100
AcDbEntity
  8
LC-001-002-----0
  6
ByBlock
 62
     7
370
    50
100
AcDbLine
 10
770.749402
 20
466.79055
 30
0.0
 11
771.460727
 21
466.79055
 31
0.0
  0
LINE
  5
2A7
330
1F
100
AcDbEntity
  8
LC-001-002-----0
  6
ByBlock
 62
     7
370
    50
100
AcDbLine
 10
782.749924
 20
463.29055
 30
0.0
 11
789.749924
 21
463.29055
 31
0.0
  0
LINE
  5
2A8
330
1F
100
AcDbEntity
  8
LC-001-002-----0
  6
ByBlock
 62
     7
370
    50
100
AcDbLine
 10
789.749924
 20
463.29055
 30
0.0
 11
789.749924
 21
466.79055
 31
0.0
  0
LINE
  5
2A9
330
1F
100
AcDbEntity
  8
LC-001-002-----0
  6
ByBlock
 62
     7
370
    50
100
AcDbLine
 10
783.249837
 20
460.79055
 30
0.0
 11
789.749924
 21
460.79055
 31
0.0
  0
LINE
  5
2AA
330
1F
100
AcDbEntity
  8
LC-001-002-----0
  6
ByBlock
 62
     7
370
    50
100
AcDbLine
 10
789.749924
 20
460.79055
 30
0.0
 11
792.198588
 21
463.239215
 31
0.0
  0
LINE
  5
2AB
330
1F
100
AcDbEntity
  8
LC-001-002-----0
  6
ByBlock
 62
     7
370
    50
100
AcDbLine
 10
771.460727
 20
466.79055
 30
0.0
 11
771.749402
 21
467.29055
 31
0.0
  0
LINE
  5
2AC
330
1F
100
AcDbEntity
  8
LC-001-002-----0
  6
ByBlock
 62
     7
370
    50
100
AcDbLine
 10
771.749402
 20
467.29055
 30
0.0
 11
772.038077
 21
466.79055
 31
0.0
  0
LINE
  5
2AD
330
1F
100
AcDbEntity
  8
LC-001-002-----0
  6
ByBlock
 62
     7
370
    50
100
AcDbLine
 10
772.038077
 20
466.79055
 30
0.0
 11
779.756234
 21
466.79055
 31
0.0
  0
LINE
  5
2AE
330
1F
100
AcDbEntity
  8
LC-001-002-----0
  6
ByBlock
 62
     7
370
    50
100
AcDbLine
 10
781.749402
 20
467.29055
 30
0.0
 11
782.038077
 21
466.79055
 31
0.0
  0
LINE
  5
2AF
330
1F
100
AcDbEntity
  8
LC-001-002-----0
  6
ByBlock
 62
     7
370
    50
100
AcDbLine
 10
781.460727
 20
466.79055
 30
0.0
 11
781.749402
 21
467.29055
 31
0.0
  0
LINE
  5
2B0
330
1F
100
AcDbEntity
  8
LC-001-002-----0
  6
ByBlock
 62
     7
370
    50
100
AcDbLine
 10
782.038077
 20
466.79055
 30
0.0
 11
782.749402
 21
466.79055
 31
0.0
  0
LINE
  5
2B1
330
1F
100
AcDbEntity
  8
LC-001-002-----0
  6
ByBlock
 62
     7
370
    50
100
AcDbLine
 10
779.249891
 20
453.28986
 30
0.0
 11
774.249891
 21
453.28986
 31
0.0
  0
LINE
  5
2B2
102
{ACAD_REACTORS
330
46A
102
}
330
1F
100
AcDbEntity
  8
LC-004-005-----0
 62
     7
370
    25
100
AcDbLine
 10
641.07372
 20
451.28986
 30
0.0
 11
646.74929
 21
456.965429
 31
0.0
  0
LINE
  5
2B3
330
1F
100
AcDbEntity
  8
LC-001-002-----0
  6
ByBlock
 62
     7
370
    50
100
AcDbLine
 10
779.249891
 20
466.79055
 30
0.0
 11
779.249891
 21
453.28986
 31
0.0
  0
LINE
  5
2B4
330
1F
100
AcDbEntity
  8
LC-001-002-----0
  6
ByBlock
 62
     7
370
    50
100
AcDbLine
 10
770.749402
 20
468.29055
 30
0.0
 11
766.749514
 21
468.29055
 31
0.0
  0
LINE
  5
2B5
330
1F
100
AcDbEntity
  8
LC-001-002-----0
  6
ByBlock
 62
     7
370
    50
100
AcDbLine
 10
789.749924
 20
466.79055
 30
0.0
 11
791.749402
 21
466.79055
 31
0.0
  0
LINE
  5
2B6
102
{ACAD_REACTORS
330
466
102
}
330
1F
100
AcDbEntity
  8
LC-001-002-----0
  6
ByBlock
 62
     7
370
    50
100
AcDbLine
 10
603.492593
 20
443.593904
 30
0.0
 11
603.884748
 21
445.057443
 31
0.0
  0
LINE
  5
2B7
330
1F
100
AcDbEntity
  8
LC-001-002-----0
  6
ByBlock
 62
     7
370
    50
100
AcDbLine
 10
631.749316
 20
467.29055
 30
0.0
 11
632.748826
 21
467.29055
 31
0.0
  0
LINE
  5
2B8
330
1F
100
AcDbEntity
  8
LC-001-002-----0
  6
ByBlock
 62
     7
370
    50
100
AcDbLine
 10
641.749316
 20
467.29055
 30
0.0
 11
639.74923
 21
467.29055
 31
0.0
  0
LINE
  5
2B9
330
1F
100
AcDbEntity
  8
LC-001-002-----0
  6
ByBlock
 62
     7
370
    50
100
AcDbLine
 10
641.749316
 20
467.29055
 30
0.0
 11
642.749316
 21
467.29055
 31
0.0
  0
LINE
  5
2BA
102
{ACAD_REACTORS
330
466
102
}
330
1F
100
AcDbEntity
  8
LC-001-002-----0
  6
ByBlock
 62
     7
370
    50
100
AcDbLine
 10
604.850673
 20
445.798624
 30
0.0
 11
605.341482
 21
445.798624
 31
0.0
  0
LINE
  5
2BB
102
{ACAD_REACTORS
330
466
102
}
330
1F
100
AcDbEntity
  8
LC-001-002-----0
  6
ByBlock
 62
     7
370
    50
100
AcDbLine
 10
604.270662
 20
441.864035
 30
0.0
 11
608.596437
 21
439.701147
 31
0.0
  0
ARC
  5
2BC
102
{ACAD_REACTORS
330
466
102
}
330
1F
100
AcDbEntity
  8
LC-002-002-RND-0
 62
     7
370
    50
100
AcDbCircle
 10
604.850673
 20
444.798624
 30
0.0
 40
1.0
100
AcDbArc
 50
90.0
 51
165.0
  0
ARC
  5
2BD
102
{ACAD_REACTORS
330
466
102
}
330
1F
100
AcDbEntity
  8
LC-002-002-RND-0
 62
     7
370
    50
100
AcDbCircle
 10
604.941482
 20
443.205675
 30
0.0
 40
1.499999999999921
100
AcDbArc
 50
165.0
 51
243.434949
  0
LINE
  5
2BE
330
1F
100
AcDbEntity
  8
LC-001-002-----0
  6
ByBlock
 62
     7
370
    50
100
AcDbLine
 10
645.74929
 20
471.28986
 30
0.0
 11
643.74929
 21
471.28986
 31
0.0
  0
LINE
  5
2BF
330
1F
100
AcDbEntity
  8
LC-001-002-----0
  6
ByBlock
 62
     7
370
    50
100
AcDbLine
 10
623.748794
 20
466.79055
 30
0.0
 11
630.824932
 21
466.79055
 31
0.0
  0
LINE
  5
2C0
330
1F
100
AcDbEntity
  8
LC-001-002-----0
  6
ByBlock
 62
     7
370
    50
100
AcDbLine
 10
642.749316
 20
468.28986
 30
0.0
 11
642.749316
 21
466.79055
 31
0.0
  0
LINE
  5
2C1
330
1F
100
AcDbEntity
  8
LC-001-002-----0
  6
ByBlock
 62
     7
370
    50
100
AcDbLine
 10
643.74929
 20
468.289399
 30
0.0
 11
643.74929
 21
471.28986
 31
0.0
  0
LINE
  5
2C2
330
1F
100
AcDbEntity
  8
LC-001-002-----0
  6
ByBlock
 62
     7
370
    50
100
AcDbLine
 10
642.749316
 20
468.28986
 30
0.0
 11
643.74929
 21
468.289399
 31
0.0
  0
LINE
  5
2C3
330
1F
100
AcDbEntity
  8
LC-001-002-----0
  6
ByBlock
 62
     7
370
    50
100
AcDbLine
 10
630.749316
 20
466.79055
 30
0.0
 11
630.749316
 21
463.29055
 31
0.0
  0
LINE
  5
2C4
330
1F
100
AcDbEntity
  8
LC-001-002-----0
  6
ByBlock
 62
     7
370
    50
100
AcDbLine
 10
642.749316
 20
466.79055
 30
0.0
 11
642.037991
 21
466.79055
 31
0.0
  0
LINE
  5
2C5
330
1F
100
AcDbEntity
  8
LC-001-002-----0
  6
ByBlock
 62
     7
370
    50
100
AcDbLine
 10
630.748794
 20
463.29055
 30
0.0
 11
623.748794
 21
463.29055
 31
0.0
  0
LINE
  5
2C6
330
1F
100
AcDbEntity
  8
LC-001-002-----0
  6
ByBlock
 62
     7
370
    50
100
AcDbLine
 10
623.748794
 20
463.29055
 30
0.0
 11
623.748794
 21
466.79055
 31
0.0
  0
LINE
  5
2C7
330
1F
100
AcDbEntity
  8
LC-001-002-----0
  6
ByBlock
 62
     7
370
    50
100
AcDbLine
 10
630.248794
 20
460.79055
 30
0.0
 11
623.748794
 21
460.79055
 31
0.0
  0
LINE
  5
2C8
330
1F
100
AcDbEntity
  8
LC-001-002-----0
  6
ByBlock
 62
     7
370
    50
100
AcDbLine
 10
623.748794
 20
460.79055
 30
0.0
 11
621.300167
 21
463.239177
 31
0.0
  0
LINE
  5
2C9
330
1F
100
AcDbEntity
  8
LC-001-002-----0
  6
ByBlock
 62
     7
370
    50
100
AcDbLine
 10
642.037991
 20
466.79055
 30
0.0
 11
641.749316
 21
467.29055
 31
0.0
  0
LINE
  5
2CA
330
1F
100
AcDbEntity
  8
LC-001-002-----0
  6
ByBlock
 62
     7
370
    50
100
AcDbLine
 10
641.749316
 20
467.29055
 30
0.0
 11
641.460641
 21
466.79055
 31
0.0
  0
LINE
  5
2CB
330
1F
100
AcDbEntity
  8
LC-001-002-----0
  6
ByBlock
 62
     7
370
    50
100
AcDbLine
 10
641.460641
 20
466.79055
 30
0.0
 11
640.748826
 21
466.79055
 31
0.0
  0
LINE
  5
2CC
330
1F
100
AcDbEntity
  8
LC-001-002-----0
  6
ByBlock
 62
     7
370
    50
100
AcDbLine
 10
631.749316
 20
467.29055
 30
0.0
 11
631.460641
 21
466.79055
 31
0.0
  0
LINE
  5
2CD
330
1F
100
AcDbEntity
  8
LC-001-002-----0
  6
ByBlock
 62
     7
370
    50
100
AcDbLine
 10
632.037991
 20
466.79055
 30
0.0
 11
631.749316
 21
467.29055
 31
0.0
  0
LINE
  5
2CE
330
1F
100
AcDbEntity
  8
LC-001-002-----0
  6
ByBlock
 62
     7
370
    50
100
AcDbLine
 10
640.74529
 20
466.79055
 30
0.0
 11
633.460554
 21
466.79055
 31
0.0
  0
LINE
  5
2CF
330
1F
100
AcDbEntity
  8
LC-001-002-----0
  6
ByBlock
 62
     7
370
    50
100
AcDbLine
 10
631.460641
 20
466.79055
 30
0.0
 11
630.749316
 21
466.79055
 31
0.0
  0
LINE
  5
2D0
330
1F
100
AcDbEntity
  8
LC-001-002-----0
  6
ByBlock
 62
     7
370
    50
100
AcDbLine
 10
623.748794
 20
466.79055
 30
0.0
 11
621.749316
 21
466.79055
 31
0.0
  0
LINE
  5
2D1
330
1F
100
AcDbEntity
  8
LC-001-002-----0
  6
ByBlock
 62
     7
370
    50
100
AcDbLine
 10
645.74929
 20
468.28986
 30
0.0
 11
645.74929
 21
471.28986
 31
0.0
  0
LINE
  5
2D2
330
1F
100
AcDbEntity
  8
LC-001-002-----0
  6
ByBlock
 62
     7
370
    50
100
AcDbLine
 10
639.248826
 20
466.79055
 30
0.0
 11
639.248826
 21
453.28986
 31
0.0
  0
LINE
  5
2D3
330
1F
100
AcDbEntity
  8
LC-001-002-----0
  6
ByBlock
 62
     7
370
    50
100
AcDbLine
 10
634.248826
 20
466.79055
 30
0.0
 11
634.248826
 21
453.28986
 31
0.0
  0
LINE
  5
2D4
330
1F
100
AcDbEntity
  8
LC-001-002-----0
  6
ByBlock
 62
     7
370
    50
100
AcDbLine
 10
634.248826
 20
453.28986
 30
0.0
 11
639.248826
 21
453.28986
 31
0.0
  0
LINE
  5
2D5
330
1F
100
AcDbEntity
  8
LC-001-002-----0
  6
ByBlock
 62
     7
370
    50
100
AcDbLine
 10
646.74929
 20
468.28986
 30
0.0
 11
645.74929
 21
468.28986
 31
0.0
  0
ARC
  5
2D6
102
{ACAD_REACTORS
330
466
102
}
330
1F
100
AcDbEntity
  8
LC-002-002-RND-0
 62
     7
370
    50
100
AcDbCircle
 10
610.034718
 20
444.798624
 30
0.0
 40
1.00000000000003
100
AcDbArc
 50
15.0
 51
90.0
  0
LINE
  5
2D7
102
{ACAD_REACTORS
330
466
102
}
330
1F
100
AcDbEntity
  8
LC-001-002-----0
  6
ByBlock
 62
     7
370
    50
100
AcDbLine
 10
609.081482
 20
445.278624
 30
0.0
 11
609.881482
 21
445.278624
 31
0.0
  0
LINE
  5
2D8
330
1F
100
AcDbEntity
  8
LC-001-002-----0
  6
ByBlock
 62
     7
370
    50
100
AcDbLine
 10
739.749329
 20
471.28986
 30
0.0
 11
739.749329
 21
468.28986
 31
0.0
  0
LINE
  5
2D9
102
{ACAD_REACTORS
330
46B
102
}
330
1F
100
AcDbEntity
  8
LC-001-002-----0
  6
ByBlock
 62
     7
370
    50
100
AcDbLine
 10
775.848623
 20
396.219363
 30
0.0
 11
775.848623
 21
393.99712
 31
0.0
  0
ARC
  5
2DA
102
{ACAD_REACTORS
330
46B
102
}
330
1F
100
AcDbEntity
  8
LC-005-205-----0
 62
     7
370
    50
100
AcDbCircle
 10
801.348623
 20
446.808624
 30
0.0
 40
0.5000000000002274
100
AcDbArc
 50
270.0
 51
0.0
  0
ARC
  5
2DB
102
{ACAD_REACTORS
330
46B
102
}
330
1F
100
AcDbEntity
  8
LC-001-002-----0
  6
ByBlock
 62
     7
370
    50
100
AcDbCircle
 10
791.24976
 20
421.308624
 30
0.0
 40
29.6025923914001
100
AcDbArc
 50
53.522709
 51
68.309138
  0
LINE
  5
2DC
102
{ACAD_REACTORS
330
46B
102
}
330
1F
100
AcDbEntity
  8
LC-005-205-----0
 62
     7
370
    50
100
AcDbLine
 10
808.848623
 20
445.111848
 30
0.0
 11
808.848623
 21
443.308624
 31
0.0
  0
LINE
  5
2DD
102
{ACAD_REACTORS
330
466
102
}
330
1F
100
AcDbEntity
  8
LC-001-002-----0
  6
ByBlock
 62
     7
370
    50
100
AcDbLine
 10
609.28733
 20
440.326248
 30
0.0
 11
608.385655
 21
442.694826
 31
0.0
  0
LINE
  5
2DE
102
{ACAD_REACTORS
330
46B
102
}
330
1F
100
AcDbEntity
  8
LC-001-002-----0
  6
ByBlock
 62
     7
370
    50
100
AcDbLine
 10
758.249316
 20
394.320129
 30
0.0
 11
655.249316
 21
394.320129
 31
0.0
  0
LINE
  5
2DF
102
{ACAD_REACTORS
330
46B
102
}
330
1F
100
AcDbEntity
  8
LC-005-205-----0
 62
     7
370
    50
100
AcDbLine
 10
808.848623
 20
399.308624
 30
0.0
 11
808.848623
 21
397.69712
 31
0.0
  0
LINE
  5
2E0
102
{ACAD_REACTORS
330
46B
102
}
330
1F
100
AcDbEntity
  8
LC-005-205-----0
 62
     7
370
    50
100
AcDbLine
 10
797.848623
 20
396.49712
 30
0.0
 11
801.348623
 21
396.49712
 31
0.0
  0
ARC
  5
2E1
102
{ACAD_REACTORS
330
46B
102
}
330
1F
100
AcDbEntity
  8
LC-005-205-----0
 62
     7
370
    50
100
AcDbCircle
 10
801.348623
 20
395.99712
 30
0.0
 40
0.5
100
AcDbArc
 50
0.0
 51
90.0
  0
LINE
  5
2E2
102
{ACAD_REACTORS
330
46B
102
}
330
1F
100
AcDbEntity
  8
LC-005-205-----0
 62
     7
370
    50
100
AcDbLine
 10
801.848623
 20
395.99712
 30
0.0
 11
801.848623
 21
394.299606
 31
0.0
  0
ARC
  5
2E3
102
{ACAD_REACTORS
330
466
102
}
330
1F
100
AcDbEntity
  8
LC-002-002-RND-0
 62
     7
370
    50
100
AcDbCircle
 10
608.820044
 20
440.14836
 30
0.0
 40
0.5000000000000342
100
AcDbArc
 50
243.434949
 51
20.840919
  0
ARC
  5
2E4
102
{ACAD_REACTORS
330
46B
102
}
330
1F
100
AcDbEntity
  8
LC-005-205-----0
 62
     7
370
    50
100
AcDbCircle
 10
802.148623
 20
394.299606
 30
0.0
 40
0.2999999999997272
100
AcDbArc
 50
180.0
 51
291.837464
  0
ARC
  5
2E5
102
{ACAD_REACTORS
330
46B
102
}
330
1F
100
AcDbEntity
  8
LC-005-205-----0
 62
     7
370
    50
100
AcDbCircle
 10
791.24976
 20
421.49712
 30
0.0
 40
29.60000000000002
100
AcDbArc
 50
291.837464
 51
306.481001
  0
LINE
  5
2E6
102
{ACAD_REACTORS
330
46B
102
}
330
1F
100
AcDbEntity
  8
LC-001-002-----0
  6
ByBlock
 62
     7
370
    50
100
AcDbLine
 10
758.749316
 20
399.308624
 30
0.0
 11
808.848623
 21
399.308624
 31
0.0
  0
ARC
  5
2E7
102
{ACAD_REACTORS
330
46B
102
}
330
1F
100
AcDbEntity
  8
LC-005-205-----0
 62
     7
370
    50
100
AcDbCircle
 10
797.098623
 20
450.073403
 30
0.0
 40
0.25
100
AcDbArc
 50
0.0
 51
78.504265
  0
LINE
  5
2E8
102
{ACAD_REACTORS
330
46B
102
}
330
1F
100
AcDbEntity
  8
LC-005-205-----0
 62
     7
370
    50
100
AcDbLine
 10
797.348623
 20
450.073403
 30
0.0
 11
797.348623
 21
446.808624
 31
0.0
  0
LINE
  5
2E9
102
{ACAD_REACTORS
330
46B
102
}
330
1F
100
AcDbEntity
  8
LC-005-205-----0
 62
     7
370
    50
100
AcDbLine
 10
801.848623
 20
448.583316
 30
0.0
 11
801.848623
 21
446.808624
 31
0.0
  0
LINE
  5
2EA
102
{ACAD_REACTORS
330
46B
102
}
330
1F
100
AcDbEntity
  8
LC-005-205-----0
 62
     7
370
    50
100
AcDbLine
 10
797.848623
 20
446.308624
 30
0.0
 11
801.348623
 21
446.308624
 31
0.0
  0
ARC
  5
2EB
102
{ACAD_REACTORS
330
46B
102
}
330
1F
100
AcDbEntity
  8
LC-005-205-----0
 62
     7
370
    50
100
AcDbCircle
 10
797.848623
 20
446.808624
 30
0.0
 40
0.5
100
AcDbArc
 50
180.0
 51
270.0
  0
LINE
  5
2EC
102
{ACAD_REACTORS
330
46B
102
}
330
1F
100
AcDbEntity
  8
LC-005-205-----0
 62
     7
370
    50
100
AcDbLine
 10
797.348623
 20
395.99712
 30
0.0
 11
797.348623
 21
392.735804
 31
0.0
  0
ARC
  5
2ED
102
{ACAD_REACTORS
330
46B
102
}
330
1F
100
AcDbEntity
  8
LC-005-205-----0
 62
     7
370
    50
100
AcDbCircle
 10
797.848623
 20
395.99712
 30
0.0
 40
0.5
100
AcDbArc
 50
90.0
 51
180.0
  0
ARC
  5
2EE
102
{ACAD_REACTORS
330
46B
102
}
330
1F
100
AcDbEntity
  8
LC-005-205-----0
 62
     7
370
    50
100
AcDbCircle
 10
791.24976
 20
421.49712
 30
0.0
 40
29.60000000000006
100
AcDbArc
 50
238.647042
 51
281.49485
  0
ARC
  5
2EF
102
{ACAD_REACTORS
330
46B
102
}
330
1F
100
AcDbEntity
  8
LC-005-205-----0
 62
     7
370
    50
100
AcDbCircle
 10
802.098623
 20
448.583316
 30
0.0
 40
0.2500000000000429
100
AcDbArc
 50
68.305797
 51
180.0
  0
ARC
  5
2F0
102
{ACAD_REACTORS
330
46B
102
}
330
1F
100
AcDbEntity
  8
LC-005-205-----0
 62
     7
370
    50
100
AcDbCircle
 10
797.098623
 20
392.735804
 30
0.0
 40
0.2500000000000769
100
AcDbArc
 50
281.49485
 51
0.0
  0
LINE
  5
2F1
102
{ACAD_REACTORS
330
46B
102
}
330
1F
100
AcDbEntity
  8
LC-005-205-----0
 62
     7
370
    50
100
AcDbLine
 10
761.749316
 20
396.308624
 30
0.0
 11
773.348623
 21
396.308624
 31
0.0
  0
LINE
  5
2F2
102
{ACAD_REACTORS
330
46B
102
}
330
1F
100
AcDbEntity
  8
LC-001-002-----0
  6
ByBlock
 62
     7
370
    50
100
AcDbLine
 10
808.848623
 20
443.308624
 30
0.0
 11
758.749316
 21
443.308624
 31
0.0
  0
LINE
  5
2F3
102
{ACAD_REACTORS
330
466
102
}
330
1F
100
AcDbEntity
  8
LC-001-002-----0
  6
ByBlock
 62
     7
370
    50
100
AcDbLine
 10
609.881482
 20
445.798624
 30
0.0
 11
610.034718
 21
445.798624
 31
0.0
  0
LINE
  5
2F4
102
{ACAD_REACTORS
330
466
102
}
330
1F
100
AcDbEntity
  8
LC-001-002-----0
  6
ByBlock
 62
     7
370
    50
100
AcDbLine
 10
605.941482
 20
445.798624
 30
0.0
 11
606.741482
 21
445.798624
 31
0.0
  0
LINE
  5
2F5
102
{ACAD_REACTORS
330
466
102
}
330
1F
100
AcDbEntity
  8
LC-001-002-----0
  6
ByBlock
 62
     7
370
    50
100
AcDbLine
 10
610.663501
 20
442.789885
 30
0.0
 11
608.712816
 21
443.097888
 31
0.0
  0
LINE
  5
2F6
102
{ACAD_REACTORS
330
466
102
}
330
1F
100
AcDbEntity
  8
LC-001-002-----0
  6
ByBlock
 62
     7
370
    50
100
AcDbLine
 10
607.341482
 20
445.798624
 30
0.0
 11
608.141482
 21
445.798624
 31
0.0
  0
INSERT
  5
30B
102
{ACAD_REACTORS
330
466
102
}
330
1F
100
AcDbEntity
  8
LC-004-005-----0
 62
     7
370
    25
100
AcDbBlockReference
  2
*X1113
 10
0.0
 20
0.0
 30
0.0
  0
LINE
  5
30C
102
{ACAD_REACTORS
330
466
102
}
330
1F
100
AcDbEntity
  8
LC-001-002-----0
  6
ByBlock
 62
     7
370
    50
100
AcDbLine
 10
608.741482
 20
445.798624
 30
0.0
 11
608.579713
 21
446.078817
 31
0.0
  0
LINE
  5
30D
102
{ACAD_REACTORS
330
466
102
}
330
1F
100
AcDbEntity
  8
LC-001-002-----0
  6
ByBlock
 62
     7
370
    50
100
AcDbLine
 10
608.141482
 20
445.798624
 30
0.0
 11
608.303251
 21
446.078817
 31
0.0
  0
ARC
  5
30E
102
{ACAD_REACTORS
330
466
102
}
330
1F
100
AcDbEntity
  8
LC-001-002-----0
  6
ByBlock
 62
     7
370
    50
100
AcDbCircle
 10
608.441482
 20
445.999009
 30
0.0
 40
0.1596152422705388
100
AcDbArc
 50
30.0
 51
150.0
  0
LINE
  5
30F
102
{ACAD_REACTORS
330
466
102
}
330
1F
100
AcDbEntity
  8
LC-001-002-----0
  6
ByBlock
 62
     7
370
    50
100
AcDbLine
 10
608.741482
 20
445.798624
 30
0.0
 11
609.081482
 21
445.798624
 31
0.0
  0
LINE
  5
310
102
{ACAD_REACTORS
330
466
102
}
330
1F
100
AcDbEntity
  8
LC-001-002-----0
  6
ByBlock
 62
     7
370
    50
100
AcDbLine
 10
609.081482
 20
397.338624
 30
0.0
 11
609.081482
 21
396.818624
 31
0.0
  0
ARC
  5
311
102
{ACAD_REACTORS
330
466
102
}
330
1F
100
AcDbEntity
  8
LC-002-002-RND-0
 62
     7
370
    50
100
AcDbCircle
 10
610.741482
 20
399.333483
 30
0.0
 40
0.5
100
AcDbArc
 50
0.0
 51
98.972627
  0
LINE
  5
312
102
{ACAD_REACTORS
330
466
102
}
330
1F
100
AcDbEntity
  8
LC-001-002-----0
  6
ByBlock
 62
     7
370
    50
100
AcDbLine
 10
606.741482
 20
445.798624
 30
0.0
 11
606.903251
 21
446.078817
 31
0.0
  0
ARC
  5
313
102
{ACAD_REACTORS
330
466
102
}
330
1F
100
AcDbEntity
  8
LC-001-002-----0
  6
ByBlock
 62
     7
370
    50
100
AcDbCircle
 10
607.041482
 20
445.999009
 30
0.0
 40
0.1596152422705388
100
AcDbArc
 50
30.0
 51
150.0
  0
LINE
  5
314
102
{ACAD_REACTORS
330
466
102
}
330
1F
100
AcDbEntity
  8
LC-001-002-----0
  6
ByBlock
 62
     7
370
    50
100
AcDbLine
 10
607.341482
 20
445.798624
 30
0.0
 11
607.179713
 21
446.078817
 31
0.0
  0
LINE
  5
315
102
{ACAD_REACTORS
330
466
102
}
330
1F
100
AcDbEntity
  8
LC-001-002-----0
  6
ByBlock
 62
     7
370
    50
100
AcDbLine
 10
605.341482
 20
445.798624
 30
0.0
 11
605.503251
 21
446.078817
 31
0.0
  0
ARC
  5
316
102
{ACAD_REACTORS
330
466
102
}
330
1F
100
AcDbEntity
  8
LC-001-002-----0
  6
ByBlock
 62
     7
370
    50
100
AcDbCircle
 10
605.641482
 20
445.999009
 30
0.0
 40
0.1596152422705388
100
AcDbArc
 50
30.0
 51
150.0
  0
LINE
  5
317
102
{ACAD_REACTORS
330
466
102
}
330
1F
100
AcDbEntity
  8
LC-001-002-----0
  6
ByBlock
 62
     7
370
    50
100
AcDbLine
 10
605.941482
 20
445.798624
 30
0.0
 11
605.779713
 21
446.078817
 31
0.0
  0
ARC
  5
318
102
{ACAD_REACTORS
330
466
102
}
330
1F
100
AcDbEntity
  8
LC-002-002-RND-0
 62
     7
370
    50
100
AcDbCircle
 10
608.666027
 20
399.81569
 30
0.0
 40
0.3000000000000571
100
AcDbArc
 50
159.159081
 51
278.972627
  0
LINE
  5
319
102
{ACAD_REACTORS
330
466
102
}
330
1F
100
AcDbEntity
  8
LC-001-002-----0
  6
ByBlock
 62
     7
370
    50
100
AcDbLine
 10
611.241482
 20
398.458624
 30
0.0
 11
611.000644
 21
397.559805
 31
0.0
  0
LINE
  5
31A
102
{ACAD_REACTORS
330
466
102
}
330
1F
100
AcDbEntity
  8
LC-001-002-----0
  6
ByBlock
 62
     7
370
    50
100
AcDbLine
 10
603.492593
 20
399.023345
 30
0.0
 11
603.884748
 21
397.559805
 31
0.0
  0
LINE
  5
31B
102
{ACAD_REACTORS
330
466
102
}
330
1F
100
AcDbEntity
  8
LC-001-002-----0
  6
ByBlock
 62
     7
370
    50
100
AcDbLine
 10
604.850673
 20
396.818624
 30
0.0
 11
605.341482
 21
396.818624
 31
0.0
  0
LINE
  5
31C
102
{ACAD_REACTORS
330
466
102
}
330
1F
100
AcDbEntity
  8
LC-001-002-----0
  6
ByBlock
 62
     7
370
    50
100
AcDbLine
 10
604.270662
 20
400.753214
 30
0.0
 11
608.596437
 21
402.916102
 31
0.0
  0
ARC
  5
31D
102
{ACAD_REACTORS
330
466
102
}
330
1F
100
AcDbEntity
  8
LC-002-002-RND-0
 62
     7
370
    50
100
AcDbCircle
 10
604.850673
 20
397.818624
 30
0.0
 40
1.00000000000003
100
AcDbArc
 50
195.0
 51
270.0
  0
ARC
  5
31E
102
{ACAD_REACTORS
330
466
102
}
330
1F
100
AcDbEntity
  8
LC-002-002-RND-0
 62
     7
370
    50
100
AcDbCircle
 10
604.941482
 20
399.411573
 30
0.0
 40
1.500000000000001
100
AcDbArc
 50
116.565051
 51
195.0
  0
ARC
  5
31F
102
{ACAD_REACTORS
330
466
102
}
330
1F
100
AcDbEntity
  8
LC-002-002-RND-0
 62
     7
370
    50
100
AcDbCircle
 10
610.034718
 20
397.818624
 30
0.0
 40
1.0
100
AcDbArc
 50
270.0
 51
345.0
  0
LINE
  5
320
102
{ACAD_REACTORS
330
466
102
}
330
1F
100
AcDbEntity
  8
LC-001-002-----0
  6
ByBlock
 62
     7
370
    50
100
AcDbLine
 10
609.081482
 20
397.338624
 30
0.0
 11
609.881482
 21
397.338624
 31
0.0
  0
LINE
  5
321
102
{ACAD_REACTORS
330
466
102
}
330
1F
100
AcDbEntity
  8
LC-001-002-----0
  6
ByBlock
 62
     7
370
    50
100
AcDbLine
 10
609.28733
 20
402.291001
 30
0.0
 11
608.385655
 21
399.922422
 31
0.0
  0
ARC
  5
322
102
{ACAD_REACTORS
330
466
102
}
330
1F
100
AcDbEntity
  8
LC-002-002-RND-0
 62
     7
370
    50
100
AcDbCircle
 10
608.820044
 20
402.468888
 30
0.0
 40
0.500000000000095
100
AcDbArc
 50
339.159081
 51
116.565051
  0
LINE
  5
323
102
{ACAD_REACTORS
330
466
102
}
330
1F
100
AcDbEntity
  8
LC-001-002-----0
  6
ByBlock
 62
     7
370
    50
100
AcDbLine
 10
609.881482
 20
396.818624
 30
0.0
 11
610.034718
 21
396.818624
 31
0.0
  0
LINE
  5
324
102
{ACAD_REACTORS
330
466
102
}
330
1F
100
AcDbEntity
  8
LC-001-002-----0
  6
ByBlock
 62
     7
370
    50
100
AcDbLine
 10
605.941482
 20
396.818624
 30
0.0
 11
606.741482
 21
396.818624
 31
0.0
  0
LINE
  5
325
102
{ACAD_REACTORS
330
466
102
}
330
1F
100
AcDbEntity
  8
LC-001-002-----0
  6
ByBlock
 62
     7
370
    50
100
AcDbLine
 10
610.663501
 20
399.827364
 30
0.0
 11
608.712816
 21
399.519361
 31
0.0
  0
LINE
  5
326
102
{ACAD_REACTORS
330
466
102
}
330
1F
100
AcDbEntity
  8
LC-001-002-----0
  6
ByBlock
 62
     7
370
    50
100
AcDbLine
 10
607.341482
 20
396.818624
 30
0.0
 11
608.141482
 21
396.818624
 31
0.0
  0
LINE
  5
327
102
{ACAD_REACTORS
330
466
102
}
330
1F
100
AcDbEntity
  8
LC-001-002-----0
  6
ByBlock
 62
     7
370
    50
100
AcDbLine
 10
608.741482
 20
396.818624
 30
0.0
 11
608.579713
 21
396.538432
 31
0.0
  0
LINE
  5
328
102
{ACAD_REACTORS
330
466
102
}
330
1F
100
AcDbEntity
  8
LC-001-002-----0
  6
ByBlock
 62
     7
370
    50
100
AcDbLine
 10
608.141482
 20
396.818624
 30
0.0
 11
608.303251
 21
396.538432
 31
0.0
  0
ARC
  5
329
102
{ACAD_REACTORS
330
466
102
}
330
1F
100
AcDbEntity
  8
LC-001-002-----0
  6
ByBlock
 62
     7
370
    50
100
AcDbCircle
 10
608.441482
 20
396.61824
 30
0.0
 40
0.1596152422705804
100
AcDbArc
 50
210.0
 51
330.0
  0
LINE
  5
32A
102
{ACAD_REACTORS
330
466
102
}
330
1F
100
AcDbEntity
  8
LC-001-002-----0
  6
ByBlock
 62
     7
370
    50
100
AcDbLine
 10
608.741482
 20
396.818624
 30
0.0
 11
609.081482
 21
396.818624
 31
0.0
  0
LINE
  5
32B
102
{ACAD_REACTORS
330
466
102
}
330
1F
100
AcDbEntity
  8
LC-001-002-----0
  6
ByBlock
 62
     7
370
    50
100
AcDbLine
 10
606.741482
 20
396.818624
 30
0.0
 11
606.903251
 21
396.538432
 31
0.0
  0
ARC
  5
32C
102
{ACAD_REACTORS
330
466
102
}
330
1F
100
AcDbEntity
  8
LC-001-002-----0
  6
ByBlock
 62
     7
370
    50
100
AcDbCircle
 10
607.041482
 20
396.61824
 30
0.0
 40
0.1596152422705804
100
AcDbArc
 50
210.0
 51
330.0
  0
LINE
  5
32D
102
{ACAD_REACTORS
330
466
102
}
330
1F
100
AcDbEntity
  8
LC-001-002-----0
  6
ByBlock
 62
     7
370
    50
100
AcDbLine
 10
607.341482
 20
396.818624
 30
0.0
 11
607.179713
 21
396.538432
 31
0.0
  0
LINE
  5
32E
102
{ACAD_REACTORS
330
46A
102
}
330
1F
100
AcDbEntity
  8
LC-004-005-----0
 62
     7
370
    25
100
AcDbLine
 10
628.664058
 20
441.708624
 30
0.0
 11
630.214058
 21
443.258624
 31
0.0
  0
LINE
  5
32F
102
{ACAD_REACTORS
330
46A
102
}
330
1F
100
AcDbEntity
  8
LC-004-005-----0
 62
     7
370
    25
100
AcDbLine
 10
638.245293
 20
451.28986
 30
0.0
 11
646.74929
 21
459.793856
 31
0.0
  0
LINE
  5
330
102
{ACAD_REACTORS
330
46A
102
}
330
1F
100
AcDbEntity
  8
LC-004-005-----0
 62
     7
370
    25
100
AcDbLine
 10
625.83563
 20
441.708624
 30
0.0
 11
627.38563
 21
443.258624
 31
0.0
  0
LINE
  5
331
102
{ACAD_REACTORS
330
46A
102
}
330
1F
100
AcDbEntity
  8
LC-004-005-----0
 62
     7
370
    25
100
AcDbLine
 10
635.416866
 20
451.28986
 30
0.0
 11
637.416866
 21
453.28986
 31
0.0
  0
LINE
  5
332
102
{ACAD_REACTORS
330
466
102
}
330
1F
100
AcDbEntity
  8
LC-001-002-----0
  6
ByBlock
 62
     7
370
    50
100
AcDbLine
 10
605.341482
 20
396.818624
 30
0.0
 11
605.503251
 21
396.538432
 31
0.0
  0
LINE
  5
333
102
{ACAD_REACTORS
330
46A
102
}
330
1F
100
AcDbEntity
  8
LC-004-005-----0
 62
     7
370
    25
100
AcDbLine
 10
639.248826
 20
455.12182
 30
0.0
 11
646.74929
 21
462.622284
 31
0.0
  0
LINE
  5
334
102
{ACAD_REACTORS
330
46A
102
}
330
1F
100
AcDbEntity
  8
LC-004-005-----0
 62
     7
370
    25
100
AcDbLine
 10
623.007203
 20
441.708624
 30
0.0
 11
624.557203
 21
443.258624
 31
0.0
  0
LINE
  5
335
102
{ACAD_REACTORS
330
46A
102
}
330
1F
100
AcDbEntity
  8
LC-004-005-----0
 62
     7
370
    25
100
AcDbLine
 10
632.588438
 20
451.28986
 30
0.0
 11
634.588438
 21
453.28986
 31
0.0
  0
ARC
  5
336
102
{ACAD_REACTORS
330
466
102
}
330
1F
100
AcDbEntity
  8
LC-001-002-----0
  6
ByBlock
 62
     7
370
    50
100
AcDbCircle
 10
605.641482
 20
396.61824
 30
0.0
 40
0.1596152422705804
100
AcDbArc
 50
210.0
 51
330.0
  0
LINE
  5
337
102
{ACAD_REACTORS
330
466
102
}
330
1F
100
AcDbEntity
  8
LC-001-002-----0
  6
ByBlock
 62
     7
370
    50
100
AcDbLine
 10
605.941482
 20
396.818624
 30
0.0
 11
605.779713
 21
396.538432
 31
0.0
  0
LINE
  5
338
102
{ACAD_REACTORS
330
46A
102
}
330
1F
100
AcDbEntity
  8
LC-004-005-----0
 62
     7
370
    25
100
AcDbLine
 10
639.248826
 20
457.950247
 30
0.0
 11
646.74929
 21
465.450711
 31
0.0
  0
LINE
  5
339
102
{ACAD_REACTORS
330
46A
102
}
330
1F
100
AcDbEntity
  8
LC-004-005-----0
 62
     7
370
    25
100
AcDbLine
 10
620.178776
 20
441.708624
 30
0.0
 11
621.728776
 21
443.258624
 31
0.0
  0
LINE
  5
33A
102
{ACAD_REACTORS
330
46A
102
}
330
1F
100
AcDbEntity
  8
LC-004-005-----0
 62
     7
370
    25
100
AcDbLine
 10
631.248794
 20
452.778642
 30
0.0
 11
634.248826
 21
455.778675
 31
0.0
  0
LINE
  5
33B
102
{ACAD_REACTORS
330
46A
102
}
330
1F
100
AcDbEntity
  8
LC-004-005-----0
 62
     7
370
    25
100
AcDbLine
 10
617.350349
 20
441.708624
 30
0.0
 11
618.900349
 21
443.258624
 31
0.0
  0
LINE
  5
33C
102
{ACAD_REACTORS
330
46A
102
}
330
1F
100
AcDbEntity
  8
LC-004-005-----0
 62
     7
370
    25
100
AcDbLine
 10
631.248794
 20
455.607069
 30
0.0
 11
634.248826
 21
458.607102
 31
0.0
  0
LINE
  5
33D
102
{ACAD_REACTORS
330
46A
102
}
330
1F
100
AcDbEntity
  8
LC-004-005-----0
 62
     7
370
    25
100
AcDbLine
 10
639.248826
 20
463.607102
 30
0.0
 11
642.432275
 21
466.79055
 31
0.0
  0
LINE
  5
33E
102
{ACAD_REACTORS
330
46A
102
}
330
1F
100
AcDbEntity
  8
LC-004-005-----0
 62
     7
370
    25
100
AcDbLine
 10
642.749316
 20
467.107591
 30
0.0
 11
645.74929
 21
470.107565
 31
0.0
  0
LINE
  5
33F
102
{ACAD_REACTORS
330
46A
102
}
330
1F
100
AcDbEntity
  8
LC-004-005-----0
 62
     7
370
    25
100
AcDbLine
 10
614.521922
 20
441.708624
 30
0.0
 11
616.071922
 21
443.258624
 31
0.0
  0
LINE
  5
340
102
{ACAD_REACTORS
330
46A
102
}
330
1F
100
AcDbEntity
  8
LC-004-005-----0
 62
     7
370
    25
100
AcDbLine
 10
631.248794
 20
458.435496
 30
0.0
 11
634.248826
 21
461.435529
 31
0.0
  0
LINE
  5
341
102
{ACAD_REACTORS
330
466
102
}
330
1F
100
AcDbEntity
  8
LC-001-002-----0
  6
ByBlock
 62
     7
370
    50
100
AcDbLine
 10
611.241482
 20
398.483483
 30
0.0
 11
611.241482
 21
400.908624
 31
0.0
  0
LINE
  5
342
102
{ACAD_REACTORS
330
46A
102
}
330
1F
100
AcDbEntity
  8
LC-004-005-----0
 62
     7
370
    25
100
AcDbLine
 10
611.693495
 20
441.708624
 30
0.0
 11
614.097932
 21
444.113062
 31
0.0
  0
LINE
  5
343
102
{ACAD_REACTORS
330
46A
102
}
330
1F
100
AcDbEntity
  8
LC-004-005-----0
 62
     7
370
    25
100
AcDbLine
 10
630.678425
 20
460.693554
 30
0.0
 11
634.248826
 21
464.263956
 31
0.0
  0
LINE
  5
344
102
{ACAD_REACTORS
330
46A
102
}
330
1F
100
AcDbEntity
  8
LC-004-005-----0
 62
     7
370
    25
100
AcDbLine
 10
611.241482
 20
444.085039
 30
0.0
 11
612.840853
 21
445.68441
 31
0.0
  0
LINE
  5
345
102
{ACAD_REACTORS
330
46A
102
}
330
1F
100
AcDbEntity
  8
LC-004-005-----0
 62
     7
370
    25
100
AcDbLine
 10
627.946993
 20
460.79055
 30
0.0
 11
630.446993
 21
463.29055
 31
0.0
  0
LINE
  5
346
102
{ACAD_REACTORS
330
46A
102
}
330
1F
100
AcDbEntity
  8
LC-004-005-----0
 62
     7
370
    25
100
AcDbLine
 10
630.749316
 20
463.592872
 30
0.0
 11
633.946993
 21
466.79055
 31
0.0
  0
LINE
  5
347
102
{ACAD_REACTORS
330
46A
102
}
330
1F
100
AcDbEntity
  8
LC-004-005-----0
 62
     7
370
    25
100
AcDbLine
 10
610.462019
 20
446.134003
 30
0.0
 11
611.583775
 21
447.255759
 31
0.0
  0
LINE
  5
348
102
{ACAD_REACTORS
330
46A
102
}
330
1F
100
AcDbEntity
  8
LC-004-005-----0
 62
     7
370
    25
100
AcDbLine
 10
625.118566
 20
460.79055
 30
0.0
 11
627.618566
 21
463.29055
 31
0.0
  0
LINE
  5
349
102
{ACAD_REACTORS
330
46A
102
}
330
1F
100
AcDbEntity
  8
LC-004-005-----0
 62
     7
370
    25
100
AcDbLine
 10
630.749316
 20
466.4213
 30
0.0
 11
631.118566
 21
466.79055
 31
0.0
  0
LINE
  5
34A
102
{ACAD_REACTORS
330
46A
102
}
330
1F
100
AcDbEntity
  8
LC-004-005-----0
 62
     7
370
    25
100
AcDbLine
 10
607.658213
 20
446.158624
 30
0.0
 11
609.808213
 21
448.308624
 31
0.0
  0
LINE
  5
34B
102
{ACAD_REACTORS
330
46A
102
}
330
1F
100
AcDbEntity
  8
LC-004-005-----0
 62
     7
370
    25
100
AcDbLine
 10
623.019466
 20
461.519877
 30
0.0
 11
624.790139
 21
463.29055
 31
0.0
  0
LINE
  5
34C
102
{ACAD_REACTORS
330
46A
102
}
330
1F
100
AcDbEntity
  8
LC-004-005-----0
 62
     7
370
    25
100
AcDbLine
 10
604.829786
 20
446.158624
 30
0.0
 11
606.979786
 21
448.308624
 31
0.0
  0
LINE
  5
34D
102
{ACAD_REACTORS
330
46A
102
}
330
1F
100
AcDbEntity
  8
LC-004-005-----0
 62
     7
370
    25
100
AcDbLine
 10
621.605253
 20
462.934091
 30
0.0
 11
623.748794
 21
465.077632
 31
0.0
  0
LINE
  5
34E
102
{ACAD_REACTORS
330
46A
102
}
330
1F
100
AcDbEntity
  8
LC-004-005-----0
 62
     7
370
    25
100
AcDbLine
 10
599.651359
 20
443.808624
 30
0.0
 11
604.151359
 21
448.308624
 31
0.0
  0
LINE
  5
34F
102
{ACAD_REACTORS
330
46A
102
}
330
1F
100
AcDbEntity
  8
LC-004-005-----0
 62
     7
370
    25
100
AcDbLine
 10
619.601395
 20
463.75866
 30
0.0
 11
622.633285
 21
466.79055
 31
0.0
  0
LINE
  5
350
102
{ACAD_REACTORS
330
46A
102
}
330
1F
100
AcDbEntity
  8
LC-004-005-----0
 62
     7
370
    25
100
AcDbLine
 10
596.822932
 20
443.808624
 30
0.0
 11
598.322932
 21
445.308624
 31
0.0
  0
LINE
  5
351
102
{ACAD_REACTORS
330
46A
102
}
330
1F
100
AcDbEntity
  8
LC-004-005-----0
 62
     7
370
    25
100
AcDbLine
 10
617.435344
 20
464.421037
 30
0.0
 11
620.260143
 21
467.245836
 31
0.0
  0
LINE
  5
352
102
{ACAD_REACTORS
330
46A
102
}
330
1F
100
AcDbEntity
  8
LC-004-005-----0
 62
     7
370
    25
100
AcDbLine
 10
615.269294
 20
465.083413
 30
0.0
 11
618.093979
 21
467.908099
 31
0.0
  0
LINE
  5
353
102
{ACAD_REACTORS
330
46A
102
}
330
1F
100
AcDbEntity
  8
LC-004-005-----0
 62
     7
370
    25
100
AcDbLine
 10
613.103243
 20
465.74579
 30
0.0
 11
615.927815
 21
468.570361
 31
0.0
  0
LINE
  5
354
102
{ACAD_REACTORS
330
46A
102
}
330
1F
100
AcDbEntity
  8
LC-004-005-----0
 62
     7
370
    25
100
AcDbLine
 10
610.937193
 20
466.408166
 30
0.0
 11
613.761651
 21
469.232624
 31
0.0
  0
LINE
  5
355
102
{ACAD_REACTORS
330
46A
102
}
330
1F
100
AcDbEntity
  8
LC-004-005-----0
 62
     7
370
    25
100
AcDbLine
 10
608.771142
 20
467.070543
 30
0.0
 11
611.595486
 21
469.894887
 31
0.0
  0
LINE
  5
356
102
{ACAD_REACTORS
330
46A
102
}
330
1F
100
AcDbEntity
  8
LC-004-005-----0
 62
     7
370
    25
100
AcDbLine
 10
606.605092
 20
467.73292
 30
0.0
 11
609.429322
 21
470.55715
 31
0.0
  0
LINE
  5
357
102
{ACAD_REACTORS
330
46A
102
}
330
1F
100
AcDbEntity
  8
LC-004-005-----0
 62
     7
370
    25
100
AcDbLine
 10
604.439041
 20
468.395296
 30
0.0
 11
607.263158
 21
471.219413
 31
0.0
  0
LINE
  5
358
102
{ACAD_REACTORS
330
46A
102
}
330
1F
100
AcDbEntity
  8
LC-004-005-----0
 62
     7
370
    25
100
AcDbLine
 10
602.27299
 20
469.057673
 30
0.0
 11
605.096993
 21
471.881676
 31
0.0
  0
LINE
  5
359
102
{ACAD_REACTORS
330
46A
102
}
330
1F
100
AcDbEntity
  8
LC-004-005-----0
 62
     7
370
    25
100
AcDbLine
 10
599.844681
 20
469.45779
 30
0.0
 11
602.930829
 21
472.543939
 31
0.0
  0
LINE
  5
35A
102
{ACAD_REACTORS
330
46A
102
}
330
1F
100
AcDbEntity
  8
LC-004-005-----0
 62
     7
370
    25
100
AcDbLine
 10
597.119907
 20
469.561444
 30
0.0
 11
600.58005
 21
473.021586
 31
0.0
  0
LINE
  5
35B
102
{ACAD_REACTORS
330
46A
102
}
330
1F
100
AcDbEntity
  8
LC-004-005-----0
 62
     7
370
    25
100
AcDbLine
 10
594.395134
 20
469.665098
 30
0.0
 11
597.842363
 21
473.112327
 31
0.0
  0
LINE
  5
35C
102
{ACAD_REACTORS
330
46A
102
}
330
1F
100
AcDbEntity
  8
LC-004-005-----0
 62
     7
370
    25
100
AcDbLine
 10
591.749316
 20
469.847706
 30
0.0
 11
595.104676
 21
473.203067
 31
0.0
  0
LINE
  5
35D
330
1F
100
AcDbEntity
  8
LC-001-002-----0
  6
ByBlock
 62
     7
370
    50
100
AcDbLine
 10
821.749316
 20
469.765748
 30
0.0
 11
821.749316
 21
471.246892
 31
0.0
  0
LINE
  5
35E
102
{ACAD_REACTORS
330
469
102
}
330
1F
100
AcDbEntity
  8
LC-004-005-----0
 62
     7
370
    25
100
AcDbLine
 10
808.454966
 20
443.308624
 30
0.0
 11
808.848623
 21
443.702281
 31
0.0
  0
LINE
  5
35F
102
{ACAD_REACTORS
330
469
102
}
330
1F
100
AcDbEntity
  8
LC-004-005-----0
 62
     7
370
    25
100
AcDbLine
 10
805.626539
 20
443.308624
 30
0.0
 11
808.020384
 21
445.702469
 31
0.0
  0
LINE
  5
360
102
{ACAD_REACTORS
330
469
102
}
330
1F
100
AcDbEntity
  8
LC-004-005-----0
 62
     7
370
    25
100
AcDbLine
 10
802.798112
 20
443.308624
 30
0.0
 11
806.293309
 21
446.803822
 31
0.0
  0
LINE
  5
361
102
{ACAD_REACTORS
330
469
102
}
330
1F
100
AcDbEntity
  8
LC-004-005-----0
 62
     7
370
    25
100
AcDbLine
 10
799.969685
 20
443.308624
 30
0.0
 11
804.460834
 21
447.799774
 31
0.0
  0
LINE
  5
362
102
{ACAD_REACTORS
330
469
102
}
330
1F
100
AcDbEntity
  8
LC-004-005-----0
 62
     7
370
    25
100
AcDbLine
 10
797.141258
 20
443.308624
 30
0.0
 11
800.141258
 21
446.308624
 31
0.0
  0
LINE
  5
363
102
{ACAD_REACTORS
330
469
102
}
330
1F
100
AcDbEntity
  8
LC-004-005-----0
 62
     7
370
    25
100
AcDbLine
 10
801.848623
 20
448.01599
 30
0.0
 11
802.516114
 21
448.68348
 31
0.0
  0
LINE
  5
364
102
{ACAD_REACTORS
330
469
102
}
330
1F
100
AcDbEntity
  8
LC-004-005-----0
 62
     7
370
    25
100
AcDbLine
 10
794.312831
 20
443.308624
 30
0.0
 11
797.477627
 21
446.47342
 31
0.0
  0
LINE
  5
365
102
{ACAD_REACTORS
330
469
102
}
330
1F
100
AcDbEntity
  8
LC-004-005-----0
 62
     7
370
    25
100
AcDbLine
 10
791.484404
 20
443.308624
 30
0.0
 11
797.348623
 21
449.172844
 31
0.0
  0
LINE
  5
366
102
{ACAD_REACTORS
330
469
102
}
330
1F
100
AcDbEntity
  8
LC-004-005-----0
 62
     7
370
    25
100
AcDbLine
 10
817.790946
 20
469.615167
 30
0.0
 11
820.990744
 21
472.814965
 31
0.0
  0
LINE
  5
367
102
{ACAD_REACTORS
330
469
102
}
330
1F
100
AcDbEntity
  8
LC-004-005-----0
 62
     7
370
    25
100
AcDbLine
 10
788.655976
 20
443.308624
 30
0.0
 11
795.892965
 21
450.545613
 31
0.0
  0
LINE
  5
368
102
{ACAD_REACTORS
330
469
102
}
330
1F
100
AcDbEntity
  8
LC-004-005-----0
 62
     7
370
    25
100
AcDbLine
 10
814.850667
 20
469.503315
 30
0.0
 11
818.555783
 21
473.208431
 31
0.0
  0
LINE
  5
369
102
{ACAD_REACTORS
330
469
102
}
330
1F
100
AcDbEntity
  8
LC-004-005-----0
 62
     7
370
    25
100
AcDbLine
 10
785.827549
 20
443.308624
 30
0.0
 11
793.355925
 21
450.837
 31
0.0
  0
LINE
  5
36A
102
{ACAD_REACTORS
330
469
102
}
330
1F
100
AcDbEntity
  8
LC-004-005-----0
 62
     7
370
    25
100
AcDbLine
 10
811.731196
 20
469.212271
 30
0.0
 11
815.630394
 21
473.111469
 31
0.0
  0
LINE
  5
36B
102
{ACAD_REACTORS
330
469
102
}
330
1F
100
AcDbEntity
  8
LC-004-005-----0
 62
     7
370
    25
100
AcDbLine
 10
782.999122
 20
443.308624
 30
0.0
 11
790.59528
 21
450.904782
 31
0.0
  0
LINE
  5
36C
102
{ACAD_REACTORS
330
469
102
}
330
1F
100
AcDbEntity
  8
LC-004-005-----0
 62
     7
370
    25
100
AcDbLine
 10
807.656831
 20
467.966334
 30
0.0
 11
812.705005
 21
473.014508
 31
0.0
  0
DIMENSION
  5
36D
330
1F
100
AcDbEntity
  8
LC-010-003-----0
 62
     7
370
    25
100
AcDbDimension
  2
*D14
 10
821.750653
 20
501.194
 30
0.0
 11
695.194391
 21
531.994
 31
0.0
 70
   160
  1
%%c<>
 71
     5
 42
230.001337
  3
LC-DIM-L-0140-02-02
100
AcDbAlignedDimension
 13
591.749316
 23
472.275804
 33
0.0
 14
821.750653
 24
472.276213
 34
0.0
100
AcDbRotatedDimension
  0
LINE
  5
37A
102
{ACAD_REACTORS
330
469
102
}
330
1F
100
AcDbEntity
  8
LC-004-005-----0
 62
     7
370
    25
100
AcDbLine
 10
780.170695
 20
443.308624
 30
0.0
 11
787.540828
 21
450.678757
 31
0.0
  0
LINE
  5
37B
102
{ACAD_REACTORS
330
469
102
}
330
1F
100
AcDbEntity
  8
LC-004-005-----0
 62
     7
370
    25
100
AcDbLine
 10
803.582467
 20
466.720396
 30
0.0
 11
808.894399
 21
472.032328
 31
0.0
  0
LINE
  5
37C
102
{ACAD_REACTORS
330
469
102
}
330
1F
100
AcDbEntity
  8
LC-004-005-----0
 62
     7
370
    25
100
AcDbLine
 10
777.342268
 20
443.308624
 30
0.0
 11
784.059073
 21
450.02543
 31
0.0
  0
LINE
  5
37D
102
{ACAD_REACTORS
330
469
102
}
330
1F
100
AcDbEntity
  8
LC-004-005-----0
 62
     7
370
    25
100
AcDbLine
 10
799.508102
 20
465.474458
 30
0.0
 11
804.820436
 21
470.786792
 31
0.0
  0
LINE
  5
37E
102
{ACAD_REACTORS
330
469
102
}
330
1F
100
AcDbEntity
  8
LC-004-005-----0
 62
     7
370
    25
100
AcDbLine
 10
774.513841
 20
443.308624
 30
0.0
 11
779.822996
 21
448.617779
 31
0.0
  0
LINE
  5
37F
102
{ACAD_REACTORS
330
469
102
}
330
1F
100
AcDbEntity
  8
LC-004-005-----0
 62
     7
370
    25
100
AcDbLine
 10
795.433737
 20
464.228521
 30
0.0
 11
800.746474
 21
469.541257
 31
0.0
  0
LINE
  5
380
102
{ACAD_REACTORS
330
469
102
}
330
1F
100
AcDbEntity
  8
LC-004-005-----0
 62
     7
370
    25
100
AcDbLine
 10
771.685414
 20
443.308624
 30
0.0
 11
775.848623
 21
447.471834
 31
0.0
  0
LINE
  5
381
102
{ACAD_REACTORS
330
469
102
}
330
1F
100
AcDbEntity
  8
LC-004-005-----0
 62
     7
370
    25
100
AcDbLine
 10
779.666649
 20
451.28986
 30
0.0
 11
782.249837
 21
453.873048
 31
0.0
  0
LINE
  5
382
102
{ACAD_REACTORS
330
469
102
}
330
1F
100
AcDbEntity
  8
LC-004-005-----0
 62
     7
370
    25
100
AcDbLine
 10
789.167339
 20
460.79055
 30
0.0
 11
796.672511
 21
468.295722
 31
0.0
  0
LINE
  5
383
102
{ACAD_REACTORS
330
469
102
}
330
1F
100
AcDbEntity
  8
LC-004-005-----0
 62
     7
370
    25
100
AcDbLine
 10
768.856987
 20
443.308624
 30
0.0
 11
771.856987
 21
446.308624
 31
0.0
  0
LINE
  5
384
102
{ACAD_REACTORS
330
469
102
}
330
1F
100
AcDbEntity
  8
LC-004-005-----0
 62
     7
370
    25
100
AcDbLine
 10
773.348623
 20
447.800261
 30
0.0
 11
774.168491
 21
448.620129
 31
0.0
  0
LINE
  5
385
102
{ACAD_REACTORS
330
469
102
}
330
1F
100
AcDbEntity
  8
LC-004-005-----0
 62
     7
370
    25
100
AcDbLine
 10
776.838222
 20
451.28986
 30
0.0
 11
778.838222
 21
453.28986
 31
0.0
  0
LINE
  5
386
102
{ACAD_REACTORS
330
469
102
}
330
1F
100
AcDbEntity
  8
LC-004-005-----0
 62
     7
370
    25
100
AcDbLine
 10
779.249891
 20
453.701529
 30
0.0
 11
782.249837
 21
456.701475
 31
0.0
  0
LINE
  5
387
102
{ACAD_REACTORS
330
469
102
}
330
1F
100
AcDbEntity
  8
LC-004-005-----0
 62
     7
370
    25
100
AcDbLine
 10
786.338912
 20
460.79055
 30
0.0
 11
788.838912
 21
463.29055
 31
0.0
  0
LINE
  5
388
102
{ACAD_REACTORS
330
469
102
}
330
1F
100
AcDbEntity
  8
LC-004-005-----0
 62
     7
370
    25
100
AcDbLine
 10
789.749924
 20
464.201561
 30
0.0
 11
792.598549
 21
467.050187
 31
0.0
  0
LINE
  5
389
102
{ACAD_REACTORS
330
469
102
}
330
1F
100
AcDbEntity
  8
LC-004-005-----0
 62
     7
370
    25
100
AcDbLine
 10
766.02856
 20
443.308624
 30
0.0
 11
769.02856
 21
446.308624
 31
0.0
  0
LINE
  5
38A
102
{ACAD_REACTORS
330
469
102
}
330
1F
100
AcDbEntity
  8
LC-004-005-----0
 62
     7
370
    25
100
AcDbLine
 10
774.009795
 20
451.28986
 30
0.0
 11
776.009795
 21
453.28986
 31
0.0
  0
LINE
  5
38B
102
{ACAD_REACTORS
330
469
102
}
330
1F
100
AcDbEntity
  8
LC-004-005-----0
 62
     7
370
    25
100
AcDbLine
 10
779.249891
 20
456.529956
 30
0.0
 11
782.249837
 21
459.529902
 31
0.0
  0
LINE
  5
38C
102
{ACAD_REACTORS
330
469
102
}
330
1F
100
AcDbEntity
  8
LC-004-005-----0
 62
     7
370
    25
100
AcDbLine
 10
783.510485
 20
460.79055
 30
0.0
 11
786.010485
 21
463.29055
 31
0.0
  0
LINE
  5
38D
102
{ACAD_REACTORS
330
469
102
}
330
1F
100
AcDbEntity
  8
LC-004-005-----0
 62
     7
370
    25
100
AcDbLine
 10
763.200132
 20
443.308624
 30
0.0
 11
766.200132
 21
446.308624
 31
0.0
  0
LINE
  5
38E
102
{ACAD_REACTORS
330
469
102
}
330
1F
100
AcDbEntity
  8
LC-004-005-----0
 62
     7
370
    25
100
AcDbLine
 10
771.181368
 20
451.28986
 30
0.0
 11
774.249891
 21
454.358383
 31
0.0
  0
LINE
  5
38F
102
{ACAD_REACTORS
330
469
102
}
330
1F
100
AcDbEntity
  8
LC-004-005-----0
 62
     7
370
    25
100
AcDbLine
 10
779.249891
 20
459.358383
 30
0.0
 11
783.182058
 21
463.29055
 31
0.0
  0
LINE
  5
390
102
{ACAD_REACTORS
330
469
102
}
330
1F
100
AcDbEntity
  8
LC-004-005-----0
 62
     7
370
    25
100
AcDbLine
 10
760.371705
 20
443.308624
 30
0.0
 11
763.371705
 21
446.308624
 31
0.0
  0
LINE
  5
391
102
{ACAD_REACTORS
330
469
102
}
330
1F
100
AcDbEntity
  8
LC-004-005-----0
 62
     7
370
    25
100
AcDbLine
 10
768.35294
 20
451.28986
 30
0.0
 11
774.249891
 21
457.18681
 31
0.0
  0
LINE
  5
392
102
{ACAD_REACTORS
330
469
102
}
330
1F
100
AcDbEntity
  8
LC-004-005-----0
 62
     7
370
    25
100
AcDbLine
 10
779.249891
 20
462.18681
 30
0.0
 11
782.749402
 21
465.686321
 31
0.0
  0
LINE
  5
393
102
{ACAD_REACTORS
330
469
102
}
330
1F
100
AcDbEntity
  8
LC-004-005-----0
 62
     7
370
    25
100
AcDbLine
 10
758.749316
 20
444.514662
 30
0.0
 11
761.430633
 21
447.195979
 31
0.0
  0
LINE
  5
394
102
{ACAD_REACTORS
330
469
102
}
330
1F
100
AcDbEntity
  8
LC-004-005-----0
 62
     7
370
    25
100
AcDbLine
 10
765.524513
 20
451.28986
 30
0.0
 11
774.249891
 21
460.015237
 31
0.0
  0
LINE
  5
395
102
{ACAD_REACTORS
330
469
102
}
330
1F
100
AcDbEntity
  8
LC-004-005-----0
 62
     7
370
    25
100
AcDbLine
 10
779.249891
 20
465.015237
 30
0.0
 11
781.025204
 21
466.79055
 31
0.0
  0
LINE
  5
396
102
{ACAD_REACTORS
330
469
102
}
330
1F
100
AcDbEntity
  8
LC-004-005-----0
 62
     7
370
    25
100
AcDbLine
 10
758.749316
 20
447.343089
 30
0.0
 11
761.430633
 21
450.024406
 31
0.0
  0
LINE
  5
397
102
{ACAD_REACTORS
330
469
102
}
330
1F
100
AcDbEntity
  8
LC-004-005-----0
 62
     7
370
    25
100
AcDbLine
 10
762.696086
 20
451.28986
 30
0.0
 11
774.249891
 21
462.843665
 31
0.0
  0
LINE
  5
398
102
{ACAD_REACTORS
330
469
102
}
330
1F
100
AcDbEntity
  8
LC-004-005-----0
 62
     7
370
    25
100
AcDbLine
 10
758.749316
 20
450.171516
 30
0.0
 11
764.367659
 21
455.78986
 31
0.0
  0
LINE
  5
399
102
{ACAD_REACTORS
330
469
102
}
330
1F
100
AcDbEntity
  8
LC-004-005-----0
 62
     7
370
    25
100
AcDbLine
 10
766.749428
 20
458.171628
 30
0.0
 11
774.249891
 21
465.672092
 31
0.0
  0
LINE
  5
39A
102
{ACAD_REACTORS
330
469
102
}
330
1F
100
AcDbEntity
  8
LC-004-005-----0
 62
     7
370
    25
100
AcDbLine
 10
758.749316
 20
452.999943
 30
0.0
 11
761.539232
 21
455.78986
 31
0.0
  0
LINE
  5
39B
102
{ACAD_REACTORS
330
469
102
}
330
1F
100
AcDbEntity
  8
LC-004-005-----0
 62
     7
370
    25
100
AcDbLine
 10
766.749428
 20
461.000055
 30
0.0
 11
772.539922
 21
466.79055
 31
0.0
  0
LINE
  5
39C
102
{ACAD_REACTORS
330
469
102
}
330
1F
100
AcDbEntity
  8
LC-004-005-----0
 62
     7
370
    25
100
AcDbLine
 10
756.710805
 20
453.78986
 30
0.0
 11
758.710805
 21
455.78986
 31
0.0
  0
LINE
  5
39D
102
{ACAD_REACTORS
330
469
102
}
330
1F
100
AcDbEntity
  8
LC-004-005-----0
 62
     7
370
    25
100
AcDbLine
 10
766.749428
 20
463.828483
 30
0.0
 11
770.749402
 21
467.828457
 31
0.0
  0
LINE
  5
39E
102
{ACAD_REACTORS
330
469
102
}
330
1F
100
AcDbEntity
  8
LC-004-005-----0
 62
     7
370
    25
100
AcDbLine
 10
747.249316
 20
447.156798
 30
0.0
 11
749.249316
 21
449.156798
 31
0.0
  0
LINE
  5
39F
102
{ACAD_REACTORS
330
469
102
}
330
1F
100
AcDbEntity
  8
LC-004-005-----0
 62
     7
370
    25
100
AcDbLine
 10
753.882378
 20
453.78986
 30
0.0
 11
755.853652
 21
455.761134
 31
0.0
  0
LINE
  5
3A0
102
{ACAD_REACTORS
330
469
102
}
330
1F
100
AcDbEntity
  8
LC-004-005-----0
 62
     7
370
    25
100
AcDbLine
 10
766.749428
 20
466.65691
 30
0.0
 11
768.383068
 21
468.29055
 31
0.0
  0
LINE
  5
3A1
102
{ACAD_REACTORS
330
469
102
}
330
1F
100
AcDbEntity
  8
LC-004-005-----0
 62
     7
370
    25
100
AcDbLine
 10
747.249316
 20
449.985225
 30
0.0
 11
749.249316
 21
451.985225
 31
0.0
  0
LINE
  5
3A2
102
{ACAD_REACTORS
330
469
102
}
330
1F
100
AcDbEntity
  8
LC-004-005-----0
 62
     7
370
    25
100
AcDbLine
 10
751.053951
 20
453.78986
 30
0.0
 11
752.974978
 21
455.710887
 31
0.0
  0
LINE
  5
3A3
102
{ACAD_REACTORS
330
469
102
}
330
1F
100
AcDbEntity
  8
LC-004-005-----0
 62
     7
370
    25
100
AcDbLine
 10
747.249316
 20
452.813652
 30
0.0
 11
750.096303
 21
455.660639
 31
0.0
  0
DIMENSION
  5
3A4
330
1F
100
AcDbEntity
  8
LC-010-003-----0
 62
     7
370
    25
100
AcDbDimension
  2
*D15
 10
584.933041
 20
400.908624
 30
0.0
 11
554.133041
 21
349.138
 31
0.0
 70
   160
  1
DN40
 71
     5
 42
40.8
 53
90.0
  3
LC-DIM-L-0140-02-02
100
AcDbAlignedDimension
 13
611.693495
 23
441.708624
 33
0.0
 14
611.241482
 24
400.908624
 34
0.0
 50
90.0
100
AcDbRotatedDimension
  0
DIMENSION
  5
3B2
330
1F
100
AcDbEntity
  8
LC-010-003-----0
 62
     7
370
    25
100
AcDbDimension
  2
*D16
 10
932.933041
 20
396.308624
 30
0.0
 11
902.133041
 21
435.268
 31
0.0
 70
   160
  1
DN50
 71
     5
 42
50.0
 53
90.0
  3
LC-DIM-L-0140-02-02
100
AcDbAlignedDimension
 13
894.249316
 23
446.308624
 33
0.0
 14
894.249316
 24
396.308624
 34
0.0
 50
90.0
100
AcDbRotatedDimension
  0
DIMENSION
  5
3C1
330
1F
100
AcDbEntity
  8
LC-010-003-----0
 62
     7
370
    25
100
AcDbDimension
  2
*D17
 10
897.749316
 20
293.994
 30
0.0
 11
704.978834
 21
324.794
 31
0.0
 70
   160
  1
300
 71
     5
 42
301.007834
  3
LC-DIM-L-0140-02-02
100
AcDbAlignedDimension
 13
596.741482
 23
398.808624
 33
0.0
 14
897.749316
 24
398.558624
 34
0.0
100
AcDbRotatedDimension
  0
DIMENSION
  5
3CE
330
1F
100
AcDbEntity
  8
LC-010-003-----0
 62
     7
370
    25
100
AcDbDimension
  2
*D18
 10
897.749316
 20
333.194
 30
0.0
 11
829.749316
 21
363.994
 31
0.0
 70
   160
 71
     5
 42
136.0
  3
LC-DIM-L-0140-02-02
100
AcDbAlignedDimension
 13
761.749316
 23
394.820129
 33
0.0
 14
897.749316
 24
398.558624
 34
0.0
100
AcDbRotatedDimension
  0
LINE
  5
3DB
330
1F
100
AcDbEntity
  8
LC-001-002-----0
  6
ByBlock
 62
     7
370
    50
100
AcDbLine
 10
810.342363
 20
444.058624
 30
0.0
 11
810.342363
 21
398.558624
 31
0.0
  0
LINE
  5
3DC
330
1F
100
AcDbEntity
  8
LC-001-002-----0
  6
ByBlock
 62
     7
370
    50
100
AcDbLine
 10
591.749316
 20
469.765748
 30
0.0
 11
591.749316
 21
471.246892
 31
0.0
  0
LINE
  5
3DD
330
1F
100
AcDbEntity
  8
LC-001-002-----0
  6
ByBlock
 62
     7
370
    50
100
AcDbLine
 10
601.123665
 20
469.409136
 30
0.0
 11
591.749316
 21
469.765748
 31
0.0
  0
DIMENSION
  5
3DE
330
1F
100
AcDbEntity
  8
LC-010-003-----0
 62
     7
370
    25
100
AcDbDimension
  2
*D19
 10
506.533041
 20
391.320129
 30
0.0
 11
475.733041
 21
430.364632
 31
0.0
 70
   160
  1
78
 71
     5
 42
78.089007
 53
90.0
  3
LC-DIM-L-0140-02-02
100
AcDbAlignedDimension
 13
601.123665
 23
469.409136
 33
0.0
 14
655.249316
 24
391.320129
 34
0.0
 50
90.0
100
AcDbRotatedDimension
  0
LINE
  5
3EB
330
1F
100
AcDbEntity
  8
LC-001-002-----0
  6
ByBlock
 62
     7
370
    50
100
AcDbLine
 10
812.374967
 20
469.409136
 30
0.0
 11
821.749316
 21
469.765748
 31
0.0
  0
CIRCLE
  5
3EC
330
1F
100
AcDbEntity
  8
LC-001-002-----0
  6
DASHED
 62
     7
370
    25
100
AcDbCircle
 10
706.749316
 20
421.308624
 30
0.0
 40
20.4000000000143
  0
CIRCLE
  5
3ED
330
1F
100
AcDbEntity
  8
LC-001-002-----0
  6
DASHED
 62
     7
370
    25
100
AcDbCircle
 10
706.749316
 20
421.308624
 30
0.0
 40
21.95000000001426
  0
CIRCLE
  5
3EE
330
1F
100
AcDbEntity
  8
LC-001-002-----0
  6
DASHED
 62
     7
370
    25
100
AcDbCircle
 10
706.749316
 20
421.308624
 30
0.0
 40
24.00000000001444
  0
CIRCLE
  5
3EF
330
1F
100
AcDbEntity
  8
LC-001-002-----0
  6
DASHED
 62
     7
370
    25
100
AcDbCircle
 10
706.749316
 20
421.308624
 30
0.0
 40
27.00000000001444
  0
ARC
  5
3F0
330
1F
100
AcDbEntity
  8
LC-002-002-RND-0
 62
     7
370
    50
100
AcDbCircle
 10
630.248794
 20
459.79055
 30
0.0
 40
1.0
100
AcDbArc
 50
360.0
 51
90.0
  0
LINE
  5
3F1
330
1F
100
AcDbEntity
  8
LC-001-002-----0
  6
ByBlock
 62
     7
370
    50
100
AcDbLine
 10
601.464386
 20
472.992275
 30
0.0
 11
593.749352
 21
473.247989
 31
0.0
  0
LINE
  5
3F2
330
1F
100
AcDbEntity
  8
LC-001-002-----0
  6
ByBlock
 62
     7
370
    50
100
AcDbLine
 10
621.749316
 20
466.79055
 30
0.0
 11
601.464386
 21
472.992275
 31
0.0
  0
LINE
  5
3F3
330
1F
100
AcDbEntity
  8
LC-001-002-----0
  6
ByBlock
 62
     7
370
    50
100
AcDbLine
 10
621.300167
 20
463.239177
 30
0.0
 11
601.123665
 21
469.409136
 31
0.0
  0
LINE
  5
3F4
330
1F
100
AcDbEntity
  8
LC-001-002-----0
  6
ByBlock
 62
     7
370
    50
100
AcDbLine
 10
792.198588
 20
463.239215
 30
0.0
 11
812.374967
 21
469.409136
 31
0.0
  0
LINE
  5
3F5
330
1F
100
AcDbEntity
  8
LC-001-002-----0
  6
ByBlock
 62
     7
370
    50
100
AcDbLine
 10
791.749316
 20
466.79055
 30
0.0
 11
812.034245
 21
472.992275
 31
0.0
  0
LINE
  5
3F6
330
1F
100
AcDbEntity
  8
LC-001-002-----0
  6
ByBlock
 62
     7
370
    50
100
AcDbLine
 10
646.74929
 20
468.28986
 30
0.0
 11
706.749316
 21
468.28986
 31
0.0
  0
LINE
  5
3F7
330
1F
100
AcDbEntity
  8
LC-001-002-----0
  6
ByBlock
 62
     7
370
    50
100
AcDbLine
 10
646.74929
 20
468.28986
 30
0.0
 11
646.74929
 21
455.78986
 31
0.0
  0
LINE
  5
3F8
330
1F
100
AcDbEntity
  8
LC-001-002-----0
  6
ByBlock
 62
     7
370
    50
100
AcDbLine
 10
766.749428
 20
468.28986
 30
0.0
 11
766.749428
 21
455.78986
 31
0.0
  0
LINE
  5
3F9
330
1F
100
AcDbEntity
  8
LC-001-002-----0
  6
ByBlock
 62
     7
370
    50
100
AcDbLine
 10
706.749316
 20
468.28986
 30
0.0
 11
766.749428
 21
468.28986
 31
0.0
  0
LINE
  5
3FA
330
1F
100
AcDbEntity
  8
LC-001-002-----0
  6
ByBlock
 62
     7
370
    50
100
AcDbLine
 10
631.248794
 20
459.79055
 30
0.0
 11
631.248794
 21
452.28986
 31
0.0
  0
LINE
  5
3FB
102
{ACAD_REACTORS
330
466
102
}
330
1F
100
AcDbEntity
  8
LC-001-002-----0
  6
ByBlock
 62
     7
370
    50
100
AcDbLine
 10
611.241482
 20
441.708624
 30
0.0
 11
611.241482
 21
444.133766
 31
0.0
  0
LINE
  5
3FC
102
{ACAD_REACTORS
330
468
102
}
330
1F
100
AcDbEntity
  8
LC-001-002-----0
  6
ByBlock
 62
     7
370
    50
100
AcDbLine
 10
594.741482
 20
447.308624
 30
0.0
 11
594.741482
 21
395.308624
 31
0.0
  0
LINE
  5
3FD
102
{ACAD_REACTORS
330
468
102
}
330
1F
100
AcDbEntity
  8
LC-001-002-----0
  6
ByBlock
 62
     7
370
    50
100
AcDbLine
 10
594.741482
 20
395.308624
 30
0.0
 11
596.741482
 21
395.308624
 31
0.0
  0
LINE
  5
3FE
102
{ACAD_REACTORS
330
468
102
}
330
1F
100
AcDbEntity
  8
LC-001-002-----0
  6
ByBlock
 62
     7
370
    50
100
AcDbLine
 10
596.741482
 20
395.308624
 30
0.0
 11
596.741482
 21
401.308624
 31
0.0
  0
LINE
  5
3FF
102
{ACAD_REACTORS
330
468
102
}
330
1F
100
AcDbEntity
  8
LC-001-002-----0
  6
ByBlock
 62
     7
370
    50
100
AcDbLine
 10
596.741482
 20
401.308624
 30
0.0
 11
618.741482
 21
401.308624
 31
0.0
  0
LINE
  5
400
102
{ACAD_REACTORS
330
468
102
}
330
1F
100
AcDbEntity
  8
LC-001-002-----0
  6
ByBlock
 62
     7
370
    50
100
AcDbLine
 10
621.741482
 20
402.112472
 30
0.0
 11
621.741482
 21
440.504777
 31
0.0
  0
LINE
  5
401
102
{ACAD_REACTORS
330
468
102
}
330
1F
100
AcDbEntity
  8
LC-001-002-----0
  6
ByBlock
 62
     7
370
    50
100
AcDbLine
 10
618.741482
 20
441.308624
 30
0.0
 11
596.741482
 21
441.308624
 31
0.0
  0
LINE
  5
402
102
{ACAD_REACTORS
330
468
102
}
330
1F
100
AcDbEntity
  8
LC-001-002-----0
  6
ByBlock
 62
     7
370
    50
100
AcDbLine
 10
596.741482
 20
441.308624
 30
0.0
 11
596.741482
 21
447.308624
 31
0.0
  0
LINE
  5
403
102
{ACAD_REACTORS
330
468
102
}
330
1F
100
AcDbEntity
  8
LC-001-002-----0
  6
ByBlock
 62
     7
370
    50
100
AcDbLine
 10
596.741482
 20
447.308624
 30
0.0
 11
594.741482
 21
447.308624
 31
0.0
  0
LINE
  5
404
102
{ACAD_REACTORS
330
468
102
}
330
1F
100
AcDbEntity
  8
LC-001-002-----0
  6
ByBlock
 62
     7
370
    50
100
AcDbLine
 10
619.741482
 20
404.308624
 30
0.0
 11
619.741482
 21
438.308624
 31
0.0
  0
LINE
  5
405
102
{ACAD_REACTORS
330
468
102
}
330
1F
100
AcDbEntity
  8
LC-001-002-----0
  6
ByBlock
 62
     7
370
    50
100
AcDbLine
 10
618.741482
 20
439.308624
 30
0.0
 11
594.741482
 21
439.308624
 31
0.0
  0
LINE
  5
406
102
{ACAD_REACTORS
330
468
102
}
330
1F
100
AcDbEntity
  8
LC-001-002-----0
  6
ByBlock
 62
     7
370
    50
100
AcDbLine
 10
594.741482
 20
403.308624
 30
0.0
 11
618.741482
 21
403.308624
 31
0.0
  0
LINE
  5
407
102
{ACAD_REACTORS
330
468
102
}
330
1F
100
AcDbEntity
  8
LC-001-002-----0
  6
ByBlock
 62
     7
370
    50
100
AcDbLine
 10
621.741482
 20
440.504777
 30
0.0
 11
618.741482
 21
441.308624
 31
0.0
  0
LINE
  5
408
102
{ACAD_REACTORS
330
468
102
}
330
1F
100
AcDbEntity
  8
LC-001-002-----0
  6
ByBlock
 62
     7
370
    50
100
AcDbLine
 10
621.741482
 20
402.112472
 30
0.0
 11
618.741482
 21
401.308624
 31
0.0
  0
ARC
  5
409
102
{ACAD_REACTORS
330
468
102
}
330
1F
100
AcDbEntity
  8
LC-002-002-RND-0
 62
     7
370
    50
100
AcDbCircle
 10
618.741482
 20
438.308624
 30
0.0
 40
1.0
100
AcDbArc
 50
0.0
 51
90.0
  0
ARC
  5
40A
102
{ACAD_REACTORS
330
468
102
}
330
1F
100
AcDbEntity
  8
LC-002-002-RND-0
 62
     7
370
    50
100
AcDbCircle
 10
618.741482
 20
404.308624
 30
0.0
 40
1.0
100
AcDbArc
 50
270.0
 51
0.0
  0
INSERT
  5
432
102
{ACAD_REACTORS
330
468
102
}
330
1F
100
AcDbEntity
  8
LC-004-005-----0
 62
     7
370
    25
100
AcDbBlockReference
  2
*X1220
 10
0.0
 20
0.0
 30
0.0
  0
LINE
  5
433
102
{ACAD_REACTORS
330
467
102
}
330
1F
100
AcDbEntity
  8
LC-008-207-----0
  6
DASHED
 62
     7
370
    25
100
AcDbLine
 10
884.220429
 20
370.508655
 30
0.0
 11
887.843895
 21
370.508655
 31
0.0
  0
ARC
  5
434
102
{ACAD_REACTORS
330
467
102
}
330
1F
100
AcDbEntity
  8
LC-008-207-----0
 62
     7
370
    50
100
AcDbCircle
 10
791.200973
 20
421.315047
 30
0.0
 40
29.70000000000012
100
AcDbArc
 50
54.721682
 51
89.141305
  0
ARC
  5
435
102
{ACAD_REACTORS
330
467
102
}
330
1F
100
AcDbEntity
  8
LC-008-207-----0
  6
DASHED
 62
     7
370
    25
100
AcDbCircle
 10
776.251143
 20
394.50101
 30
0.0
 40
0.9999999999999475
100
AcDbArc
 50
60.858695
 51
165.0
  0
LINE
  5
436
102
{ACAD_REACTORS
330
467
102
}
330
1F
100
AcDbEntity
  8
LC-008-207-----0
  6
DASHED
 62
     7
370
    25
100
AcDbLine
 10
775.285217
 20
394.75983
 30
0.0
 11
774.707966
 21
392.605498
 31
0.0
  0
LINE
  5
437
102
{ACAD_REACTORS
330
467
102
}
330
1F
100
AcDbEntity
  8
LC-008-207-----0
  6
DASHED
 62
     7
370
    25
100
AcDbLine
 10
887.843895
 20
370.508655
 30
0.0
 11
888.183512
 21
371.776121
 31
0.0
  0
LINE
  5
438
102
{ACAD_REACTORS
330
467
102
}
330
1F
100
AcDbEntity
  8
LC-008-207-----0
  6
DASHED
 62
     7
370
    25
100
AcDbLine
 10
888.183512
 20
371.776121
 30
0.0
 11
899.959778
 21
415.725746
 31
0.0
  0
LINE
  5
439
102
{ACAD_REACTORS
330
467
102
}
330
1F
100
AcDbEntity
  8
LC-008-207-----0
  6
DASHED
 62
     7
370
    25
100
AcDbLine
 10
899.959778
 20
415.725746
 30
0.0
 11
900.299395
 21
416.993213
 31
0.0
  0
LINE
  5
43A
102
{ACAD_REACTORS
330
467
102
}
330
1F
100
AcDbEntity
  8
LC-001-002-----0
 62
     7
370
    25
100
AcDbLine
 10
894.071645
 20
393.750934
 30
0.0
 11
764.524684
 21
428.462937
 31
0.0
  0
LINE
  5
43B
102
{ACAD_REACTORS
330
467
102
}
330
1F
100
AcDbEntity
  8
LC-008-207-----0
  6
DASHED
 62
     7
370
    25
100
AcDbLine
 10
897.161381
 20
418.804946
 30
0.0
 11
900.299395
 21
416.993213
 31
0.0
  0
ARC
  5
43C
102
{ACAD_REACTORS
330
467
102
}
330
1F
100
AcDbEntity
  8
LC-008-207-----0
  6
DASHED
 62
     7
370
    25
100
AcDbCircle
 10
791.661059
 20
452.011599
 30
0.0
 40
1.000000000000016
100
AcDbArc
 50
165.0
 51
269.141305
  0
LINE
  5
43D
102
{ACAD_REACTORS
330
467
102
}
330
1F
100
AcDbEntity
  8
LC-008-207-----0
  6
DASHED
 62
     7
370
    25
100
AcDbLine
 10
817.061967
 20
440.26752
 30
0.0
 11
897.161381
 21
418.804946
 31
0.0
  0
LINE
  5
43E
102
{ACAD_REACTORS
330
467
102
}
330
1F
100
AcDbEntity
  8
LC-008-207-----0
  6
DASHED
 62
     7
370
    25
100
AcDbLine
 10
804.121014
 20
391.971228
 30
0.0
 11
884.220429
 21
370.508655
 31
0.0
  0
LINE
  5
43F
102
{ACAD_REACTORS
330
467
102
}
330
1F
100
AcDbEntity
  8
LC-008-207-----0
  6
DASHED
 62
     7
370
    25
100
AcDbLine
 10
815.531145
 20
438.34833
 30
0.0
 11
899.959778
 21
415.725746
 31
0.0
  0
LINE
  5
440
102
{ACAD_REACTORS
330
467
102
}
330
1F
100
AcDbEntity
  8
LC-008-207-----0
  6
DASHED
 62
     7
370
    25
100
AcDbLine
 10
803.754879
 20
394.398705
 30
0.0
 11
888.183512
 21
371.776121
 31
0.0
  0
LINE
  5
441
102
{ACAD_REACTORS
330
467
102
}
330
1F
100
AcDbEntity
  8
LC-008-207-----0
  6
DASHED
 62
     7
370
    25
100
AcDbLine
 10
790.695133
 20
452.270419
 30
0.0
 11
791.272384
 21
454.42475
 31
0.0
  0
LINE
  5
442
102
{ACAD_REACTORS
330
467
102
}
330
1F
100
AcDbEntity
  8
LC-008-207-----0
  6
DASHED
 62
     7
370
    25
100
AcDbLine
 10
791.272384
 20
454.42475
 30
0.0
 11
799.482754
 21
452.224789
 31
0.0
  0
LINE
  5
443
102
{ACAD_REACTORS
330
467
102
}
330
1F
100
AcDbEntity
  8
LC-008-207-----0
  6
DASHED
 62
     7
370
    25
100
AcDbLine
 10
774.707966
 20
392.605498
 30
0.0
 11
783.014928
 21
390.379654
 31
0.0
  0
ARC
  5
444
102
{ACAD_REACTORS
330
467
102
}
330
1F
100
AcDbEntity
  8
LC-008-207-----0
  6
DASHED
 62
     7
370
    25
100
AcDbCircle
 10
791.297137
 20
421.28928
 30
0.0
 40
32.00000000000085
100
AcDbArc
 50
36.375167
 51
75.17905
  0
ARC
  5
445
102
{ACAD_REACTORS
330
467
102
}
330
1F
100
AcDbEntity
  8
LC-008-207-----0
  6
DASHED
 62
     7
370
    25
100
AcDbCircle
 10
791.297137
 20
421.28928
 30
0.0
 40
32.00000000000129
100
AcDbArc
 50
255.0
 51
293.624833
  0
ARC
  5
446
102
{ACAD_REACTORS
330
467
102
}
330
1F
100
AcDbEntity
  8
LC-008-207-----0
  6
DASHED
 62
     7
370
    25
100
AcDbCircle
 10
791.200973
 20
421.315047
 30
0.0
 40
29.70000000000026
100
AcDbArc
 50
34.995438
 51
54.721682
  0
ARC
  5
447
102
{ACAD_REACTORS
330
467
102
}
330
1F
100
AcDbEntity
  8
LC-008-207-----0
  6
DASHED
 62
     7
370
    25
100
AcDbCircle
 10
791.200973
 20
421.315047
 30
0.0
 40
29.70000000000017
100
AcDbArc
 50
240.858695
 51
295.004562
  0
INSERT
  5
465
330
1F
100
AcDbEntity
  8
LC-010-003-----0
 62
     7
370
    25
100
AcDbBlockReference
  2
LCDIM1
 10
0.0
 20
0.0
 30
0.0
  0
ENDSEC
  0
SECTION
  2
OBJECTS
  0
DICTIONARY
  5
C
330
0
100
AcDbDictionary
281
     1
  3
ACAD_GROUP
350
D
  3
ACAD_LAYOUT
350
1A
  3
ACAD_MLINESTYLE
350
17
  3
ACAD_PLOTSETTINGS
350
19
  3
ACAD_PLOTSTYLENAME
350
E
  0
DICTIONARY
  5
D
102
{ACAD_REACTORS
330
C
102
}
330
C
100
AcDbDictionary
281
     1
  3
LCGROUP199
350
469
  3
LCGROUP200
350
46A
  3
LCGROUP259
350
46C
  3
LCGROUP3940
350
468
  3
LCGROUP3941
350
467
  3
LCGROUP470
350
46B
  3
LCGROUP643
350
466
  0
DICTIONARY
  5
1A
102
{ACAD_REACTORS
330
C
102
}
330
C
100
AcDbDictionary
281
     1
  3
Layout1
350
1E
  3
Layout2
350
26
  3
Model
350
22
  0
DICTIONARY
  5
17
102
{ACAD_REACTORS
330
C
102
}
330
C
100
AcDbDictionary
281
     1
  3
Standard
350
18
  0
DICTIONARY
  5
19
102
{ACAD_REACTORS
330
C
102
}
330
C
100
AcDbDictionary
281
     1
  0
ACDBDICTIONARYWDFLT
  5
E
102
{ACAD_REACTORS
330
C
102
}
330
C
100
AcDbDictionary
281
     1
  3
Normal
350
F
100
AcDbDictionaryWithDefault
340
F
  0
GROUP
  5
469
102
{ACAD_REACTORS
330
D
102
}
330
D
100
AcDbGroup
300
GRP199
 70
     1
 71
     1
340
35E
340
35F
340
360
340
361
340
362
340
363
340
364
340
365
340
366
340
367
340
368
340
369
340
36A
340
36B
340
36C
340
37A
340
37B
340
37C
340
37D
340
37E
340
37F
340
380
340
381
340
382
340
383
340
384
340
385
340
386
340
387
340
388
340
389
340
38A
340
38B
340
38C
340
38D
340
38E
340
38F
340
390
340
391
340
392
340
393
340
394
340
395
340
396
340
397
340
398
340
399
340
39A
340
39B
340
39C
340
39D
340
39E
340
39F
340
3A0
340
3A1
340
3A2
340
3A3
  0
GROUP
  5
46A
102
{ACAD_REACTORS
330
D
102
}
330
D
100
AcDbGroup
300
GRP200
 70
     1
 71
     1
340
50
340
1A3
340
1A5
340
1AA
340
1AB
340
1AF
340
246
340
247
340
248
340
249
340
24A
340
24B
340
24C
340
24D
340
24E
340
24F
340
250
340
273
340
274
340
278
340
279
340
27D
340
27E
340
2B2
340
32E
340
32F
340
330
340
331
340
333
340
334
340
335
340
338
340
339
340
33A
340
33B
340
33C
340
33D
340
33E
340
33F
340
340
340
342
340
343
340
344
340
345
340
346
340
347
340
348
340
349
340
34A
340
34B
340
34C
340
34D
340
34E
340
34F
340
350
340
351
340
352
340
353
340
354
340
355
340
356
340
357
340
358
340
359
340
35A
340
35B
340
35C
  0
GROUP
  5
46C
102
{ACAD_REACTORS
330
D
102
}
330
D
100
AcDbGroup
300
GRP259
 70
     1
 71
     1
340
1B3
340
1B5
340
1C5
340
1C6
340
1C7
340
1C8
340
1C9
340
1CA
340
1CE
340
1D0
340
1D1
340
1D3
340
1D4
340
1D5
340
205
340
22F
340
230
340
231
340
232
340
233
340
234
340
242
340
243
  0
GROUP
  5
468
102
{ACAD_REACTORS
330
D
102
}
330
D
100
AcDbGroup
300
GRP3940
 70
     1
 71
     1
340
3FC
340
3FD
340
3FE
340
3FF
340
400
340
401
340
402
340
403
340
404
340
405
340
406
340
407
340
408
340
409
340
40A
340
432
  0
GROUP
  5
467
102
{ACAD_REACTORS
330
D
102
}
330
D
100
AcDbGroup
300
GRP3941
 70
     1
 71
     1
340
433
340
434
340
435
340
436
340
437
340
438
340
439
340
43A
340
43B
340
43C
340
43D
340
43E
340
43F
340
440
340
441
340
442
340
443
340
444
340
445
340
446
340
447
  0
GROUP
  5
46B
102
{ACAD_REACTORS
330
D
102
}
330
D
100
AcDbGroup
300
ablaufschn
 70
     1
 71
     1
340
41
340
5A
340
13E
340
140
340
158
340
1AC
340
1CB
340
1CC
340
1CD
340
245
340
27F
340
280
340
281
340
282
340
283
340
284
340
286
340
29C
340
29D
340
2D9
340
2DA
340
2DB
340
2DC
340
2DE
340
2DF
340
2E0
340
2E1
340
2E2
340
2E4
340
2E5
340
2E6
340
2E7
340
2E8
340
2E9
340
2EA
340
2EB
340
2EC
340
2ED
340
2EE
340
2EF
340
2F0
340
2F1
340
2F2
  0
GROUP
  5
466
102
{ACAD_REACTORS
330
D
102
}
330
D
100
AcDbGroup
300
GRP643
 70
     1
 71
     1
340
143
340
1AE
340
285
340
297
340
298
340
299
340
29A
340
29B
340
29F
340
2B6
340
2BA
340
2BB
340
2BC
340
2BD
340
2D6
340
2D7
340
2DD
340
2E3
340
2F3
340
2F4
340
2F5
340
2F6
340
30B
340
30C
340
30D
340
30E
340
30F
340
310
340
311
340
312
340
313
340
314
340
315
340
316
340
317
340
318
340
319
340
31A
340
31B
340
31C
340
31D
340
31E
340
31F
340
320
340
321
340
322
340
323
340
324
340
325
340
326
340
327
340
328
340
329
340
32A
340
32B
340
32C
340
32D
340
332
340
336
340
337
340
341
340
3FB
  0
LAYOUT
  5
1E
102
{ACAD_REACTORS
330
1A
102
}
330
1A
100
AcDbPlotSettings
  1

  2

  4

  6

 40
0.0
 41
0.0
 42
0.0
 43
0.0
 44
0.0
 45
0.0
 46
0.0
 47
0.0
 48
0.0
 49
0.0
140
0.0
141
0.0
142
1.0
143
1.0
 70
   688
 72
     0
 73
     0
 74
     5
  7

 75
    16
147
1.0
148
0.0
149
0.0
100
AcDbLayout
  1
Layout1
 70
     1
 71
     1
 10
300.546594
 20
31.942
 11
1140.546594
 21
625.942
 12
0.0
 22
0.0
 32
0.0
 14
300.546594
 24
31.942
 34
0.0
 15
1140.546594
 25
625.942
 35
0.0
146
0.0
 13
0.0
 23
0.0
 33
0.0
 16
1.0
 26
0.0
 36
0.0
 17
0.0
 27
1.0
 37
0.0
 76
     0
330
1B
  0
LAYOUT
  5
26
102
{ACAD_REACTORS
330
1A
102
}
330
1A
100
AcDbPlotSettings
  1

  2

  4

  6

 40
0.0
 41
0.0
 42
0.0
 43
0.0
 44
0.0
 45
0.0
 46
0.0
 47
0.0
 48
0.0
 49
0.0
140
0.0
141
0.0
142
1.0
143
1.0
 70
   688
 72
     0
 73
     0
 74
     5
  7

 75
    16
147
1.0
148
0.0
149
0.0
100
AcDbLayout
  1
Layout2
 70
     1
 71
     2
 10
0.0
 20
0.0
 11
0.0
 21
0.0
 12
0.0
 22
0.0
 32
0.0
 14
0.0
 24
0.0
 34
0.0
 15
0.0
 25
0.0
 35
0.0
146
0.0
 13
0.0
 23
0.0
 33
0.0
 16
1.0
 26
0.0
 36
0.0
 17
0.0
 27
1.0
 37
0.0
 76
     0
330
23
  0
LAYOUT
  5
22
102
{ACAD_REACTORS
330
1A
102
}
330
1A
100
AcDbPlotSettings
  1

  2

  4

  6

 40
0.0
 41
0.0
 42
0.0
 43
0.0
 44
0.0
 45
0.0
 46
0.0
 47
0.0
 48
0.0
 49
0.0
140
0.0
141
0.0
142
1.0
143
1.0
 70
  1776
 72
     0
 73
     0
 74
     0
  7

 75
     0
147
1.0
148
0.0
149
0.0
100
AcDbLayout
  1
Model
 70
     1
 71
     0
 10
300.546594
 20
31.942
 11
1140.546594
 21
625.942
 12
300.546594
 22
31.942
 32
0.0
 14
300.546594
 24
31.942
 34
0.0
 15
1140.546594
 25
625.942
 35
0.0
146
0.0
 13
0.0
 23
0.0
 33
0.0
 16
1.0
 26
0.0
 36
0.0
 17
0.0
 27
1.0
 37
0.0
 76
     0
330
1F
  0
MLINESTYLE
  5
18
102
{ACAD_REACTORS
330
17
102
}
330
17
100
AcDbMlineStyle
  2
Standard
 70
     0
  3

 62
   256
 51
90.0
 52
90.0
 71
     2
 49
0.5
 62
   256
  6
BYLAYER
 49
-0.5
 62
   256
  6
BYLAYER
  0
ACDBPLACEHOLDER
  5
F
102
{ACAD_REACTORS
330
E
102
}
330
E
  0
ENDSEC
  0
EOF
