  0
SECTION
  2
HEADER
  9
$ACADVER
  1
AC1009
  9
$INSBASE
 10
0.0
 20
0.0
 30
0.0
  9
$EXTMIN
 10
0.0
 20
0.0
 30
0.0
  9
$EXTMAX
 10
840.0
 20
594.0
 30
0.0
  9
$LIMMIN
 10
0.0
 20
0.0
  9
$LIMMAX
 10
840.0
 20
594.0
  9
$ORTHOMODE
 70
     0
  9
$REGENMODE
 70
     1
  9
$FILLMODE
 70
     1
  9
$QTEXTMODE
 70
     0
  9
$MIRRTEXT
 70
     1
  9
$DRAGMODE
 70
     2
  9
$LTSCALE
 40
2.0
  9
$OSMODE
 70
     0
  9
$ATTMODE
 70
     1
  9
$TEXTSIZE
 40
0.2
  9
$TRACEWID
 40
0.05
  9
$TEXTSTYLE
  7
STANDARD
  9
$CLAYER
  8
0
  9
$CELTYPE
  6
BYLAYER
  9
$CECOLOR
 62
     7
  9
$DIMSCALE
 40
2.0
  9
$DIMASZ
 40
3.5
  9
$DIMEXO
 40
0.0625
  9
$DIMDLI
 40
0.38
  9
$DIMRND
 40
0.0
  9
$DIMDLE
 40
0.0
  9
$DIMEXE
 40
0.18
  9
$DIMTP
 40
0.0
  9
$DIMTM
 40
0.0
  9
$DIMTXT
 40
3.5
  9
$DIMCEN
 40
0.09
  9
$DIMTSZ
 40
0.0
  9
$DIMTOL
 70
     0
  9
$DIMLIM
 70
     0
  9
$DIMTIH
 70
     1
  9
$DIMTOH
 70
     1
  9
$DIMSE1
 70
     0
  9
$DIMSE2
 70
     0
  9
$DIMTAD
 70
     1
  9
$DIMZIN
 70
     0
  9
$DIMBLK
  1

  9
$DIMASO
 70
     1
  9
$DIMSHO
 70
     1
  9
$DIMPOST
  1

  9
$DIMAPOST
  1

  9
$DIMALT
 70
     0
  9
$DIMALTD
 70
     2
  9
$DIMALTF
 40
25.4
  9
$DIMLFAC
 40
1.0
  9
$DIMTOFL
 70
     0
  9
$DIMTVP
 40
0.0
  9
$DIMTIX
 70
     0
  9
$DIMSOXD
 70
     0
  9
$DIMSAH
 70
     0
  9
$DIMBLK1
  1

  9
$DIMBLK2
  1

  9
$DIMSTYLE
  2
STANDARD
  9
$DIMCLRD
 70
     0
  9
$DIMCLRE
 70
     0
  9
$DIMCLRT
 70
     0
  9
$DIMTFAC
 40
1.0
  9
$DIMGAP
 40
0.09
  9
$LUNITS
 70
     2
  9
$LUPREC
 70
     2
  9
$AXISMODE
 70
     0
  9
$AXISUNIT
 10
0.0
 20
0.0
  9
$SKETCHINC
 40
0.1
  9
$FILLETRAD
 40
0.0
  9
$AUNITS
 70
     0
  9
$AUPREC
 70
     0
  9
$MENU
  1
acad
  9
$ELEVATION
 40
0.0
  9
$PELEVATION
 40
0.0
  9
$THICKNESS
 40
0.0
  9
$LIMCHECK
 70
     0
  9
$BLIPMODE
 70
     1
  9
$CHAMFERA
 40
0.0
  9
$CHAMFERB
 40
0.0
  9
$SKPOLY
 70
     0
  9
$TDCREATE
 40
0.000000000
  9
$TDUPDATE
 40
0.000000000
  9
$TDINDWG
 40
0.0000000000
  9
$TDUSRTIMER
 40
0.0000000000
  9
$USRTIMER
 70
     1
  9
$ANGBASE
 50
0.0
  9
$ANGDIR
 70
     0
  9
$PDMODE
 70
     0
  9
$PDSIZE
 40
0.0
  9
$PLINEWID
 40
0.0
  9
$COORDS
 70
     0
  9
$SPLFRAME
 70
     0
  9
$SPLINETYPE
 70
     6
  9
$SPLINESEGS
 70
     8
  9
$ATTDIA
 70
     0
  9
$ATTREQ
 70
     1
  9
$HANDLING
 70
     1
  9
$HANDSEED
  5
3B7
  9
$SURFTAB1
 70
     6
  9
$SURFTAB2
 70
     6
  9
$SURFTYPE
 70
     6
  9
$SURFU
 70
     6
  9
$SURFV
 70
     6
  9
$UCSNAME
  2

  9
$UCSORG
 10
0.0
 20
0.0
 30
0.0
  9
$UCSXDIR
 10
1.0
 20
0.0
 30
0.0
  9
$UCSYDIR
 10
0.0
 20
1.0
 30
0.0
  9
$PUCSNAME
  2

  9
$PUCSORG
 10
0.0
 20
0.0
 30
0.0
  9
$PUCSXDIR
 10
1.0
 20
0.0
 30
0.0
  9
$PUCSYDIR
 10
0.0
 20
1.0
 30
0.0
  9
$USERI1
 70
     0
  9
$USERI2
 70
     0
  9
$USERI3
 70
     0
  9
$USERI4
 70
     0
  9
$USERI5
 70
     0
  9
$USERR1
 40
0.0
  9
$USERR2
 40
0.0
  9
$USERR3
 40
0.0
  9
$USERR4
 40
0.0
  9
$USERR5
 40
0.0
  9
$WORLDVIEW
 70
     1
  9
$SHADEDGE
 70
     3
  9
$SHADEDIF
 70
    70
  9
$TILEMODE
 70
     1
  9
$MAXACTVP
 70
    16
  9
$PINSBASE
 10
0.0
 20
0.0
 30
0.0
  9
$PLIMCHECK
 70
     0
  9
$PEXTMIN
 10
1.000000E+20
 20
1.000000E+20
 30
1.000000E+20
  9
$PEXTMAX
 10
-1.000000E+20
 20
-1.000000E+20
 30
-1.000000E+20
  9
$PLIMMIN
 10
0.0
 20
0.0
  9
$PLIMMAX
 10
840.0
 20
594.0
  9
$UNITMODE
 70
     0
  9
$VISRETAIN
 70
     0
  9
$PLINEGEN
 70
     1
  9
$PSLTSCALE
 70
     0
  9
$TREEDEPTH
 70
  3020
  9
$DWGCODEPAGE
  3
dos850
  0
ENDSEC
  0
SECTION
  2
TABLES
  0
TABLE
  2
VPORT
 70
     1
  0
VPORT
  2
*ACTIVE
 70
     0
 10
0.0
 20
0.0
 11
1.0
 21
1.0
 12
420.0
 22
297.0
 13
0.0
 23
0.0
 14
1.0
 24
1.0
 15
0.0
 25
0.0
 16
0.0
 26
0.0
 36
1.0
 17
0.0
 27
0.0
 37
0.0
 40
594.0
 41
1.604229
 42
50.0
 43
0.0
 44
0.0
 50
0.0
 51
0.0
 71
     0
 72
   100
 73
     1
 74
     1
 75
     0
 76
     0
 77
     0
 78
     0
  0
ENDTAB
  0
TABLE
  2
LTYPE
 70
     3
  0
LTYPE
  2
CONTINUOUS
 70
    64
  3
Solid line
 72
    65
 73
     0
 40
0.0
  0
LTYPE
  2
DASHED
 70
    64
  3
__ __ __ __ __
 72
    65
 73
     2
 40
4.0
 49
2.0
 49
-2.0
  0
LTYPE
  2
DASHDOT
 70
    64
  3
__ . __ . __ . __ . __
 72
    65
 73
     4
 40
4.0
 49
2.0
 49
-0.9
 49
0.2
 49
-0.9
  0
ENDTAB
  0
TABLE
  2
LAYER
 70
    12
  0
LAYER
  2
0
 70
     0
 62
     7
  6
CONTINUOUS
  0
LAYER
  2
LC-INFO-1-2-MM-A3-0
 70
     1
 62
    -1
  6
CONTINUOUS
  0
LAYER
  2
LC-002-005-----0
 70
     0
 62
     2
  6
CONTINUOUS
  0
LAYER
  2
LC-007-003-MTH-0
 70
     0
 62
     2
  6
CONTINUOUS
  0
LAYER
  2
LC-008-003-MTG-0
 70
     0
 62
     2
  6
CONTINUOUS
  0
LAYER
  2
LC-006-003-----0
 70
     0
 62
     2
  6
CONTINUOUS
  0
LAYER
  2
LC-004-000-----0
 70
     0
 62
     7
  6
CONTINUOUS
  0
LAYER
  2
LC-009-000-----0
 70
     0
 62
     7
  6
CONTINUOUS
  0
LAYER
  2
LC-001-002-----0
 70
     0
 62
     1
  6
CONTINUOUS
  0
LAYER
  2
LC-003-002-RND-0
 70
     0
 62
     1
  6
CONTINUOUS
  0
LAYER
  2
LC-005-001-----0
 70
     0
 62
     1
  6
CONTINUOUS
  0
LAYER
  2
LC-000
 70
     0
 62
     7
  6
CONTINUOUS
  0
ENDTAB
  0
TABLE
  2
STYLE
 70
     4
  0
STYLE
  2
STANDARD
 70
     0
 40
0.0
 41
1.0
 50
0.0
 71
     0
 42
0.0
  3
txt
  4

  0
STYLE
  2
LC-STANDARD
 70
    64
 40
0.0
 41
1.0
 50
0.0
 71
     0
 42
3.5
  3
MONOTXT
  4

  0
STYLE
  2
LC-TXTSTYLE-150-400-0-0-D2
 70
    64
 40
0.0
 41
1.0
 50
15.0
 71
     0
 42
3.5
  3
MONOTXT
  4

  0
STYLE
  2
LC-TXTSTYLE-150-400-0-0-D3
 70
    64
 40
0.0
 41
1.0
 50
15.0
 71
     0
 42
3.5
  3
LC-STANDARD
  4

  0
ENDTAB
  0
TABLE
  2
VIEW
 70
     0
  0
ENDTAB
  0
TABLE
  2
UCS
 70
     0
  0
ENDTAB
  0
TABLE
  2
APPID
 70
     1
  0
APPID
  2
ACAD
 70
     0
  0
ENDTAB
  0
TABLE
  2
DIMSTYLE
 70
     3
  0
DIMSTYLE
  2
STANDARD
 70
     0
  3

  4

  5

  6

  7

 40
1.0
 41
0.18
 42
0.0625
 43
0.38
 44
0.18
 45
0.0
 46
0.0
 47
0.0
 48
0.0
 71
     0
 72
     0
 73
     1
 74
     1
 75
     0
 76
     0
 77
     0
 78
     0
140
0.18
141
0.09
142
0.0
143
25.4
144
1.0
145
0.0
146
1.0
147
0.09
170
     0
171
     2
172
     0
173
     0
174
     0
175
     0
176
     0
177
     0
178
     0
  0
DIMSTYLE
  2
LC-STANDARD
 70
     0
  3

  4

  5

  6

  7

 40
1.0
 41
3.5
 42
0.0
 43
7.5
 44
1.8
 45
0.0
 46
0.0
 47
0.0
 48
0.0
 71
     0
 72
     0
 73
     0
 74
     0
 75
     0
 76
     0
 77
     1
 78
     8
140
3.5
141
0.0
142
0.0
143
25.4
144
1.0
145
0.0
146
0.71
147
1.5
170
     0
171
     2
172
     1
173
     0
174
     0
175
     0
176
     0
177
     0
178
     3
  0
DIMSTYLE
  2
LC-DIM-L-0090-02-02
 70
     0
  3

  4

  5

  6

  7

 40
2.0
 41
3.5
 42
0.0
 43
7.5
 44
1.8
 45
0.0
 46
0.0
 47
0.0
 48
0.0
 71
     0
 72
     0
 73
     0
 74
     0
 75
     0
 76
     0
 77
     1
 78
     8
140
9.0
141
0.0
142
0.0
143
25.4
144
1.0
145
0.0
146
0.71
147
1.5
170
     0
171
     2
172
     0
173
     0
174
     0
175
     0
176
     2
177
     2
178
     6
  0
ENDTAB
  0
ENDSEC
  0
SECTION
  2
BLOCKS
  0
BLOCK
  8
0
  5
23
  2
BLK1
 70
    64
 10
0.0
 20
0.0
 30
0.0
  3
BLK1
  0
ENDBLK
  8
0
  5
24
  0
BLOCK
  8
0
  5
26
  2
*X1
 70
    65
 10
522.818497
 20
325.423093
 30
0.0
  3
*X1
  0
LINE
  8
LC-002-005-----0
  6
CONTINUOUS
  5
28
 10
523.412993
 20
325.423094
 30
0.0
 11
524.818537
 21
326.828638
 31
0.0
  0
LINE
  8
LC-002-005-----0
  6
CONTINUOUS
  5
29
 10
522.818536
 20
327.657064
 30
0.0
 11
524.818533
 21
329.657062
 31
0.0
  0
LINE
  8
LC-002-005-----0
  6
CONTINUOUS
  5
2A
 10
522.818532
 20
330.485488
 30
0.0
 11
524.81853
 21
332.485485
 31
0.0
  0
LINE
  8
LC-002-005-----0
  6
CONTINUOUS
  5
2B
 10
522.818529
 20
333.313911
 30
0.0
 11
524.427713
 21
334.923096
 31
0.0
  0
LINE
  8
LC-002-005-----0
  6
CONTINUOUS
  5
2C
 10
523.285576
 20
347.923094
 30
0.0
 11
524.818508
 21
349.456026
 31
0.0
  0
LINE
  8
LC-002-005-----0
  6
CONTINUOUS
  5
2D
 10
522.818506
 20
350.284452
 30
0.0
 11
524.818504
 21
352.284449
 31
0.0
  0
LINE
  8
LC-002-005-----0
  6
CONTINUOUS
  5
2E
 10
522.818503
 20
353.112875
 30
0.0
 11
524.8185
 21
355.112873
 31
0.0
  0
LINE
  8
LC-002-005-----0
  6
CONTINUOUS
  5
2F
 10
522.818499
 20
355.941299
 30
0.0
 11
524.300296
 21
357.423095
 31
0.0
  0
ENDBLK
  8
0
  5
30
  0
BLOCK
  8
0
  5
32
  2
*X2
 70
    65
 10
522.818408
 20
393.423093
 30
0.0
  3
*X2
  0
LINE
  8
LC-002-005-----0
  6
CONTINUOUS
  5
33
 10
523.530742
 20
393.423094
 30
0.0
 11
524.818448
 21
394.710801
 31
0.0
  0
LINE
  8
LC-002-005-----0
  6
CONTINUOUS
  5
34
 10
522.818447
 20
395.539227
 30
0.0
 11
524.818445
 21
397.539224
 31
0.0
  0
LINE
  8
LC-002-005-----0
  6
CONTINUOUS
  5
35
 10
522.818444
 20
398.36765
 30
0.0
 11
524.818441
 21
400.367647
 31
0.0
  0
LINE
  8
LC-002-005-----0
  6
CONTINUOUS
  5
36
 10
522.81844
 20
401.196074
 30
0.0
 11
524.545462
 21
402.923096
 31
0.0
  0
LINE
  8
LC-002-005-----0
  6
CONTINUOUS
  5
37
 10
523.403325
 20
415.923094
 30
0.0
 11
524.818419
 21
417.338188
 31
0.0
  0
LINE
  8
LC-002-005-----0
  6
CONTINUOUS
  5
38
 10
522.818418
 20
418.166614
 30
0.0
 11
524.818415
 21
420.166611
 31
0.0
  0
LINE
  8
LC-002-005-----0
  6
CONTINUOUS
  5
39
 10
522.818414
 20
420.995038
 30
0.0
 11
524.818411
 21
422.995035
 31
0.0
  0
LINE
  8
LC-002-005-----0
  6
CONTINUOUS
  5
3A
 10
522.81841
 20
423.823461
 30
0.0
 11
524.418045
 21
425.423096
 31
0.0
  0
ENDBLK
  8
0
  5
3B
  0
BLOCK
  8
0
  5
3D
  2
*X3
 70
    65
 10
438.996079
 20
213.308556
 30
0.0
  3
*X3
  0
LINE
  8
LC-002-005-----0
  6
CONTINUOUS
  5
3E
 10
556.384171
 20
330.110001
 30
0.0
 11
566.433566
 21
340.159396
 31
0.0
  0
LINE
  8
LC-002-005-----0
  6
CONTINUOUS
  5
3F
 10
549.619641
 20
326.173898
 30
0.0
 11
556.966658
 21
333.520915
 31
0.0
  0
LINE
  8
LC-002-005-----0
  6
CONTINUOUS
  5
40
 10
563.957842
 20
340.512099
 30
0.0
 11
566.385799
 21
342.940056
 31
0.0
  0
LINE
  8
LC-002-005-----0
  6
CONTINUOUS
  5
41
 10
544.31412
 20
323.696804
 30
0.0
 11
549.610215
 21
328.992899
 31
0.0
  0
LINE
  8
LC-002-005-----0
  6
CONTINUOUS
  5
42
 10
563.742816
 20
343.1255
 30
0.0
 11
565.627428
 21
345.010113
 31
0.0
  0
LINE
  8
LC-002-005-----0
  6
CONTINUOUS
  5
43
 10
539.729091
 20
321.940203
 30
0.0
 11
544.121748
 21
326.33286
 31
0.0
  0
LINE
  8
LC-002-005-----0
  6
CONTINUOUS
  5
44
 10
562.661292
 20
344.872403
 30
0.0
 11
564.429026
 21
346.640137
 31
0.0
  0
LINE
  8
LC-002-005-----0
  6
CONTINUOUS
  5
45
 10
535.601098
 20
320.640636
 30
0.0
 11
539.452494
 21
324.492032
 31
0.0
  0
LINE
  8
LC-002-005-----0
  6
CONTINUOUS
  5
46
 10
561.138783
 20
346.178321
 30
0.0
 11
562.915413
 21
347.954951
 31
0.0
  0
LINE
  8
LC-002-005-----0
  6
CONTINUOUS
  5
47
 10
534.818542
 20
322.686508
 30
0.0
 11
535.281063
 21
323.149029
 31
0.0
  0
LINE
  8
LC-002-005-----0
  6
CONTINUOUS
  5
48
 10
559.557973
 20
347.425938
 30
0.0
 11
561.340163
 21
349.208129
 31
0.0
  0
LINE
  8
LC-002-005-----0
  6
CONTINUOUS
  5
49
 10
557.937607
 20
348.634
 30
0.0
 11
559.726726
 21
350.423119
 31
0.0
  0
LINE
  8
LC-002-005-----0
  6
CONTINUOUS
  5
4A
 10
556.277207
 20
349.802026
 30
0.0
 11
558.074669
 21
351.599489
 31
0.0
  0
LINE
  8
LC-002-005-----0
  6
CONTINUOUS
  5
4B
 10
554.576188
 20
350.929435
 30
0.0
 11
556.383467
 21
352.736714
 31
0.0
  0
LINE
  8
LC-002-005-----0
  6
CONTINUOUS
  5
4C
 10
552.833857
 20
352.015532
 30
0.0
 11
554.652498
 21
353.834172
 31
0.0
  0
LINE
  8
LC-002-005-----0
  6
CONTINUOUS
  5
4D
 10
551.049402
 20
353.059503
 30
0.0
 11
552.881032
 21
354.891133
 31
0.0
  0
LINE
  8
LC-002-005-----0
  6
CONTINUOUS
  5
4E
 10
549.221878
 20
354.060407
 30
0.0
 11
551.068225
 21
355.906754
 31
0.0
  0
LINE
  8
LC-002-005-----0
  6
CONTINUOUS
  5
4F
 10
547.3502
 20
355.017155
 30
0.0
 11
549.21311
 21
356.880065
 31
0.0
  0
LINE
  8
LC-002-005-----0
  6
CONTINUOUS
  5
50
 10
545.433121
 20
355.928503
 30
0.0
 11
547.314577
 21
357.809959
 31
0.0
  0
LINE
  8
LC-002-005-----0
  6
CONTINUOUS
  5
51
 10
543.469216
 20
356.793026
 30
0.0
 11
545.371364
 21
358.695174
 31
0.0
  0
LINE
  8
LC-002-005-----0
  6
CONTINUOUS
  5
52
 10
541.456861
 20
357.609098
 30
0.0
 11
543.382039
 21
359.534275
 31
0.0
  0
LINE
  8
LC-002-005-----0
  6
CONTINUOUS
  5
53
 10
539.394199
 20
358.374863
 30
0.0
 11
541.344968
 21
360.325632
 31
0.0
  0
LINE
  8
LC-002-005-----0
  6
CONTINUOUS
  5
54
 10
537.279109
 20
359.0882
 30
0.0
 11
539.258299
 21
361.06739
 31
0.0
  0
LINE
  8
LC-002-005-----0
  6
CONTINUOUS
  5
55
 10
535.109163
 20
359.746681
 30
0.0
 11
537.119921
 21
361.757439
 31
0.0
  0
LINE
  8
LC-002-005-----0
  6
CONTINUOUS
  5
56
 10
534.818491
 20
362.284436
 30
0.0
 11
534.927424
 21
362.393369
 31
0.0
  0
ENDBLK
  8
0
  5
57
  0
BLOCK
  8
0
  5
59
  2
*X4
 70
    65
 10
438.99599
 20
281.308556
 30
0.0
  3
*X4
  0
LINE
  8
LC-002-005-----0
  6
CONTINUOUS
  5
5A
 10
556.727632
 20
398.335713
 30
0.0
 11
566.407436
 21
408.015517
 31
0.0
  0
LINE
  8
LC-002-005-----0
  6
CONTINUOUS
  5
5B
 10
549.863557
 20
394.300065
 30
0.0
 11
557.365799
 21
401.802307
 31
0.0
  0
LINE
  8
LC-002-005-----0
  6
CONTINUOUS
  5
5C
 10
563.928125
 20
408.364633
 30
0.0
 11
566.405315
 21
410.841823
 31
0.0
  0
LINE
  8
LC-002-005-----0
  6
CONTINUOUS
  5
5D
 10
544.518051
 20
391.782986
 30
0.0
 11
549.866089
 21
397.131024
 31
0.0
  0
LINE
  8
LC-002-005-----0
  6
CONTINUOUS
  5
5E
 10
563.773386
 20
411.038322
 30
0.0
 11
565.668514
 21
412.933449
 31
0.0
  0
LINE
  8
LC-002-005-----0
  6
CONTINUOUS
  5
5F
 10
539.909699
 20
390.003061
 30
0.0
 11
544.330653
 21
394.424015
 31
0.0
  0
LINE
  8
LC-002-005-----0
  6
CONTINUOUS
  5
60
 10
562.718209
 20
412.811572
 30
0.0
 11
564.486577
 21
414.57994
 31
0.0
  0
LINE
  8
LC-002-005-----0
  6
CONTINUOUS
  5
61
 10
535.765809
 20
388.687599
 30
0.0
 11
539.635591
 21
392.557381
 31
0.0
  0
LINE
  8
LC-002-005-----0
  6
CONTINUOUS
  5
62
 10
561.203701
 20
414.125491
 30
0.0
 11
562.980129
 21
415.901918
 31
0.0
  0
LINE
  8
LC-002-005-----0
  6
CONTINUOUS
  5
63
 10
534.818454
 20
390.56867
 30
0.0
 11
535.447078
 21
391.197295
 31
0.0
  0
LINE
  8
LC-002-005-----0
  6
CONTINUOUS
  5
64
 10
559.62453
 20
415.374747
 30
0.0
 11
561.406462
 21
417.156679
 31
0.0
  0
LINE
  8
LC-002-005-----0
  6
CONTINUOUS
  5
65
 10
558.005821
 20
416.584465
 30
0.0
 11
559.794624
 21
418.373267
 31
0.0
  0
LINE
  8
LC-002-005-----0
  6
CONTINUOUS
  5
66
 10
556.3471
 20
417.754171
 30
0.0
 11
558.144185
 21
419.551256
 31
0.0
  0
LINE
  8
LC-002-005-----0
  6
CONTINUOUS
  5
67
 10
554.647786
 20
418.883284
 30
0.0
 11
556.454626
 21
420.690124
 31
0.0
  0
LINE
  8
LC-002-005-----0
  6
CONTINUOUS
  5
68
 10
552.907192
 20
419.971118
 30
0.0
 11
554.725327
 21
421.789253
 31
0.0
  0
LINE
  8
LC-002-005-----0
  6
CONTINUOUS
  5
69
 10
551.12451
 20
421.016862
 30
0.0
 11
552.955565
 21
422.847917
 31
0.0
  0
LINE
  8
LC-002-005-----0
  6
CONTINUOUS
  5
6A
 10
549.298801
 20
422.019581
 30
0.0
 11
551.144499
 21
423.865278
 31
0.0
  0
LINE
  8
LC-002-005-----0
  6
CONTINUOUS
  5
6B
 10
547.428986
 20
422.978193
 30
0.0
 11
549.291167
 21
424.840374
 31
0.0
  0
LINE
  8
LC-002-005-----0
  6
CONTINUOUS
  5
6C
 10
545.513825
 20
423.891459
 30
0.0
 11
547.394467
 21
425.772101
 31
0.0
  0
LINE
  8
LC-002-005-----0
  6
CONTINUOUS
  5
6D
 10
543.551903
 20
424.757964
 30
0.0
 11
545.453144
 21
426.659204
 31
0.0
  0
LINE
  8
LC-002-005-----0
  6
CONTINUOUS
  5
6E
 10
541.541602
 20
425.576089
 30
0.0
 11
543.46577
 21
427.500258
 31
0.0
  0
LINE
  8
LC-002-005-----0
  6
CONTINUOUS
  5
6F
 10
539.481076
 20
426.343991
 30
0.0
 11
541.430724
 21
428.293639
 31
0.0
  0
LINE
  8
LC-002-005-----0
  6
CONTINUOUS
  5
70
 10
537.368216
 20
427.059558
 30
0.0
 11
539.346162
 21
429.037504
 31
0.0
  0
LINE
  8
LC-002-005-----0
  6
CONTINUOUS
  5
71
 10
535.200608
 20
427.720377
 30
0.0
 11
537.209984
 21
429.729753
 31
0.0
  0
LINE
  8
LC-002-005-----0
  6
CONTINUOUS
  5
72
 10
534.818402
 20
430.166598
 30
0.0
 11
535.019794
 21
430.36799
 31
0.0
  0
ENDBLK
  8
0
  5
73
  0
BLOCK
  8
0
  5
75
  2
BLK2
 70
    64
 10
0.0
 20
0.0
 30
0.0
  3
BLK2
  0
ENDBLK
  8
0
  5
76
  0
BLOCK
  8
0
  5
78
  2
BLK3
 70
    64
 10
0.0
 20
0.0
 30
0.0
  3
BLK3
  0
ENDBLK
  8
0
  5
79
  0
BLOCK
  8
0
  5
7B
  2
*X7
 70
    65
 10
451.768394
 20
312.398033
 30
0.0
  3
*X7
  0
LINE
  8
LC-002-005-----0
  6
CONTINUOUS
  5
7C
 10
469.737291
 20
329.293372
 30
0.0
 11
469.178734
 21
329.851929
 31
0.0
  0
LINE
  8
LC-002-005-----0
  6
DASHED
  5
7E
 10
469.808394
 20
326.393841
 30
0.0
 11
467.752197
 21
328.450039
 31
0.0
  0
LINE
  8
LC-002-005-----0
  6
DASHED
  5
7F
 10
469.808394
 20
324.979628
 30
0.0
 11
467.615743
 21
327.172279
 31
0.0
  0
LINE
  8
LC-002-005-----0
  6
CONTINUOUS
  5
80
 10
469.808394
 20
322.151201
 30
0.0
 11
467.342835
 21
324.61676
 31
0.0
  0
LINE
  8
LC-002-005-----0
  6
CONTINUOUS
  5
81
 10
457.715428
 20
334.244167
 30
0.0
 11
457.089529
 21
334.870066
 31
0.0
  0
LINE
  8
LC-002-005-----0
  6
CONTINUOUS
  5
82
 10
469.808394
 20
320.736987
 30
0.0
 11
467.206381
 21
323.339
 31
0.0
  0
LINE
  8
LC-002-005-----0
  6
CONTINUOUS
  5
83
 10
457.865371
 20
332.68001
 30
0.0
 11
455.992045
 21
334.553336
 31
0.0
  0
LINE
  8
LC-002-005-----0
  6
DASHED
  5
84
 10
469.808394
 20
317.90856
 30
0.0
 11
466.933474
 21
320.78348
 31
0.0
  0
LINE
  8
LC-002-005-----0
  6
DASHED
  5
85
 10
458.097066
 20
329.619888
 30
0.0
 11
455.768394
 21
331.94856
 31
0.0
  0
LINE
  8
LC-002-005-----0
  6
DASHED
  5
86
 10
469.808394
 20
316.494346
 30
0.0
 11
466.79702
 21
319.505721
 31
0.0
  0
LINE
  8
LC-002-005-----0
  6
DASHED
  5
87
 10
458.212914
 20
328.089827
 30
0.0
 11
455.768394
 21
330.534346
 31
0.0
  0
LINE
  8
LC-002-005-----0
  6
CONTINUOUS
  5
88
 10
469.120775
 20
314.353539
 30
0.0
 11
466.524113
 21
316.950201
 31
0.0
  0
LINE
  8
LC-002-005-----0
  6
CONTINUOUS
  5
89
 10
458.444609
 20
325.029704
 30
0.0
 11
455.768394
 21
327.705919
 31
0.0
  0
LINE
  8
LC-002-005-----0
  6
CONTINUOUS
  5
8A
 10
468.413668
 20
313.646432
 30
0.0
 11
466.007613
 21
316.052487
 31
0.0
  0
LINE
  8
LC-002-005-----0
  6
CONTINUOUS
  5
8B
 10
458.560457
 20
323.499643
 30
0.0
 11
455.768394
 21
326.291706
 31
0.0
  0
LINE
  8
LC-002-005-----0
  6
DASHED
  5
8C
 10
466.83364
 20
312.398033
 30
0.0
 11
463.30864
 21
315.923033
 31
0.0
  0
LINE
  8
LC-002-005-----0
  6
DASHED
  5
8D
 10
458.792152
 20
320.439521
 30
0.0
 11
455.768394
 21
323.463279
 31
0.0
  0
LINE
  8
LC-002-005-----0
  6
DASHED
  5
8E
 10
465.419427
 20
312.398033
 30
0.0
 11
461.894427
 21
315.923033
 31
0.0
  0
LINE
  8
LC-002-005-----0
  6
DASHED
  5
8F
 10
458.908
 20
318.909459
 30
0.0
 11
455.768394
 21
322.049065
 31
0.0
  0
LINE
  8
LC-002-005-----0
  6
CONTINUOUS
  5
90
 10
462.591
 20
312.398033
 30
0.0
 11
455.768394
 21
319.220638
 31
0.0
  0
LINE
  8
LC-002-005-----0
  6
CONTINUOUS
  5
91
 10
461.176786
 20
312.398033
 30
0.0
 11
455.768394
 21
317.806424
 31
0.0
  0
LINE
  8
LC-002-005-----0
  6
DASHED
  5
92
 10
458.348359
 20
312.398033
 30
0.0
 11
455.768394
 21
314.977997
 31
0.0
  0
LINE
  8
LC-002-005-----0
  6
DASHED
  5
93
 10
456.934145
 20
312.398033
 30
0.0
 11
454.434145
 21
314.898033
 31
0.0
  0
LINE
  8
LC-002-005-----0
  6
CONTINUOUS
  5
94
 10
454.105718
 20
312.398033
 30
0.0
 11
451.768394
 21
314.735357
 31
0.0
  0
LINE
  8
LC-002-005-----0
  6
CONTINUOUS
  5
95
 10
452.691505
 20
312.398033
 30
0.0
 11
451.768394
 21
313.321143
 31
0.0
  0
ENDBLK
  8
0
  5
96
  0
BLOCK
  8
0
  5
98
  2
*X8
 70
    65
 10
451.768394
 20
415.923033
 30
0.0
  3
*X8
  0
LINE
  8
LC-002-005-----0
  6
CONTINUOUS
  5
99
 10
469.808394
 20
435.288286
 30
0.0
 11
466.648647
 21
438.448033
 31
0.0
  0
LINE
  8
LC-002-005-----0
  6
DASHED
  5
9A
 10
469.808394
 20
432.459859
 30
0.0
 11
463.82022
 21
438.448033
 31
0.0
  0
LINE
  8
LC-002-005-----0
  6
DASHED
  5
9B
 10
469.808394
 20
431.045645
 30
0.0
 11
462.406007
 21
438.448033
 31
0.0
  0
LINE
  8
LC-002-005-----0
  6
CONTINUOUS
  5
9C
 10
469.808394
 20
428.217218
 30
0.0
 11
466.810381
 21
431.215231
 31
0.0
  0
LINE
  8
LC-002-005-----0
  6
CONTINUOUS
  5
9D
 10
463.102579
 20
434.923033
 30
0.0
 11
459.577579
 21
438.448033
 31
0.0
  0
LINE
  8
LC-002-005-----0
  6
CONTINUOUS
  5
9E
 10
469.808394
 20
426.803004
 30
0.0
 11
466.979464
 21
429.631935
 31
0.0
  0
LINE
  8
LC-002-005-----0
  6
CONTINUOUS
  5
9F
 10
461.688366
 20
434.923033
 30
0.0
 11
458.163366
 21
438.448033
 31
0.0
  0
LINE
  8
LC-002-005-----0
  6
DASHED
  5
A0
 10
469.808394
 20
423.974577
 30
0.0
 11
467.317628
 21
426.465343
 31
0.0
  0
LINE
  8
LC-002-005-----0
  6
DASHED
  5
A1
 10
459.260696
 20
434.522275
 30
0.0
 11
455.334939
 21
438.448033
 31
0.0
  0
LINE
  8
LC-002-005-----0
  6
DASHED
  5
A2
 10
469.808394
 20
422.560364
 30
0.0
 11
467.486711
 21
424.882047
 31
0.0
  0
LINE
  8
LC-002-005-----0
  6
DASHED
  5
A3
 10
459.015278
 20
433.35348
 30
0.0
 11
453.920725
 21
438.448033
 31
0.0
  0
LINE
  8
LC-002-005-----0
  6
CONTINUOUS
  5
A4
 10
468.594058
 20
420.946273
 30
0.0
 11
467.831634
 21
421.708696
 31
0.0
  0
LINE
  8
LC-002-005-----0
  6
CONTINUOUS
  5
A5
 10
458.816198
 20
430.724132
 30
0.0
 11
455.768394
 21
433.771936
 31
0.0
  0
LINE
  8
LC-002-005-----0
  6
CONTINUOUS
  5
A6
 10
453.592298
 20
435.948033
 30
0.0
 11
451.768394
 21
437.771936
 31
0.0
  0
LINE
  8
LC-002-005-----0
  6
CONTINUOUS
  5
A7
 10
458.716659
 20
429.409459
 30
0.0
 11
455.768394
 21
432.357723
 31
0.0
  0
LINE
  8
LC-002-005-----0
  6
CONTINUOUS
  5
A8
 10
452.178085
 20
435.948033
 30
0.0
 11
451.768394
 21
436.357723
 31
0.0
  0
LINE
  8
LC-002-005-----0
  6
DASHED
  5
A9
 10
458.517579
 20
426.780111
 30
0.0
 11
455.768394
 21
429.529296
 31
0.0
  0
LINE
  8
LC-002-005-----0
  6
DASHED
  5
AA
 10
458.418039
 20
425.465437
 30
0.0
 11
455.768394
 21
428.115082
 31
0.0
  0
LINE
  8
LC-002-005-----0
  6
CONTINUOUS
  5
AB
 10
458.21896
 20
422.836089
 30
0.0
 11
455.768394
 21
425.286655
 31
0.0
  0
LINE
  8
LC-002-005-----0
  6
CONTINUOUS
  5
AC
 10
458.11942
 20
421.521416
 30
0.0
 11
455.768394
 21
423.872442
 31
0.0
  0
LINE
  8
LC-002-005-----0
  6
DASHED
  5
AD
 10
457.920341
 20
418.892068
 30
0.0
 11
455.768394
 21
421.044014
 31
0.0
  0
LINE
  8
LC-002-005-----0
  6
DASHED
  5
AE
 10
457.820801
 20
417.577394
 30
0.0
 11
455.768394
 21
419.629801
 31
0.0
  0
LINE
  8
LC-002-005-----0
  6
CONTINUOUS
  5
AF
 10
456.638227
 20
415.931541
 30
0.0
 11
455.776902
 21
416.792866
 31
0.0
  0
ENDBLK
  8
0
  5
B0
  0
BLOCK
  8
0
  5
B2
  2
*X9
 70
    65
 10
296.318452
 20
311.426079
 30
0.0
  3
*X9
  0
LINE
  8
LC-002-005-----0
  6
CONTINUOUS
  5
B3
 10
475.474852
 20
311.426079
 30
0.0
 11
476.318394
 21
312.269621
 31
0.0
  0
LINE
  8
LC-002-005-----0
  6
CONTINUOUS
  5
B4
 10
472.646425
 20
311.426079
 30
0.0
 11
475.547886
 21
314.32754
 31
0.0
  0
LINE
  8
LC-002-005-----0
  6
CONTINUOUS
  5
B5
 10
469.817998
 20
311.426079
 30
0.0
 11
474.133672
 21
315.741754
 31
0.0
  0
LINE
  8
LC-002-005-----0
  6
CONTINUOUS
  5
B6
 10
466.989571
 20
311.426079
 30
0.0
 11
469.120525
 21
313.557033
 31
0.0
  0
LINE
  8
LC-002-005-----0
  6
CONTINUOUS
  5
B7
 10
464.161144
 20
311.426079
 30
0.0
 11
466.292097
 21
313.557033
 31
0.0
  0
LINE
  8
LC-002-005-----0
  6
CONTINUOUS
  5
B8
 10
461.332717
 20
311.426079
 30
0.0
 11
463.46367
 21
313.557033
 31
0.0
  0
LINE
  8
LC-002-005-----0
  6
CONTINUOUS
  5
B9
 10
458.504289
 20
311.426079
 30
0.0
 11
460.635243
 21
313.557033
 31
0.0
  0
LINE
  8
LC-002-005-----0
  6
CONTINUOUS
  5
BA
 10
455.675862
 20
311.426079
 30
0.0
 11
457.806816
 21
313.557033
 31
0.0
  0
LINE
  8
LC-002-005-----0
  6
CONTINUOUS
  5
BB
 10
452.847435
 20
311.426079
 30
0.0
 11
454.978389
 21
313.557033
 31
0.0
  0
LINE
  8
LC-002-005-----0
  6
CONTINUOUS
  5
BC
 10
450.287005
 20
311.694076
 30
0.0
 11
452.149962
 21
313.557033
 31
0.0
  0
LINE
  8
LC-002-005-----0
  6
CONTINUOUS
  5
BD
 10
449.313394
 20
313.548892
 30
0.0
 11
451.768394
 21
316.003892
 31
0.0
  0
LINE
  8
LC-002-005-----0
  6
CONTINUOUS
  5
BE
 10
447.966108
 20
315.030033
 30
0.0
 11
450.421108
 21
317.485033
 31
0.0
  0
LINE
  8
LC-002-005-----0
  6
CONTINUOUS
  5
BF
 10
445.13768
 20
315.030033
 30
0.0
 11
447.59268
 21
317.485033
 31
0.0
  0
LINE
  8
LC-002-005-----0
  6
CONTINUOUS
  5
C0
 10
442.309253
 20
315.030033
 30
0.0
 11
444.764253
 21
317.485033
 31
0.0
  0
LINE
  8
LC-002-005-----0
  6
CONTINUOUS
  5
C1
 10
439.480826
 20
315.030033
 30
0.0
 11
441.935826
 21
317.485033
 31
0.0
  0
LINE
  8
LC-002-005-----0
  6
CONTINUOUS
  5
C2
 10
436.652399
 20
315.030033
 30
0.0
 11
439.107399
 21
317.485033
 31
0.0
  0
LINE
  8
LC-002-005-----0
  6
CONTINUOUS
  5
C3
 10
433.823972
 20
315.030033
 30
0.0
 11
436.278972
 21
317.485033
 31
0.0
  0
LINE
  8
LC-002-005-----0
  6
CONTINUOUS
  5
C4
 10
431.128722
 20
315.16321
 30
0.0
 11
433.450545
 21
317.485033
 31
0.0
  0
LINE
  8
LC-002-005-----0
  6
CONTINUOUS
  5
C5
 10
429.279154
 20
316.142069
 30
0.0
 11
431.009874
 21
317.872789
 31
0.0
  0
LINE
  8
LC-002-005-----0
  6
CONTINUOUS
  5
C6
 10
428.114011
 20
317.805353
 30
0.0
 11
430.107234
 21
319.798576
 31
0.0
  0
LINE
  8
LC-002-005-----0
  6
CONTINUOUS
  5
C7
 10
427.611541
 20
320.13131
 30
0.0
 11
429.683264
 21
322.203033
 31
0.0
  0
LINE
  8
LC-002-005-----0
  6
CONTINUOUS
  5
C8
 10
427.18757
 20
322.535766
 30
0.0
 11
429.259293
 21
324.60749
 31
0.0
  0
LINE
  8
LC-002-005-----0
  6
CONTINUOUS
  5
C9
 10
426.763599
 20
324.940223
 30
0.0
 11
428.799452
 21
326.976076
 31
0.0
  0
LINE
  8
LC-002-005-----0
  6
CONTINUOUS
  5
CA
 10
426.181459
 20
327.186509
 30
0.0
 11
427.933217
 21
328.938268
 31
0.0
  0
LINE
  8
LC-002-005-----0
  6
CONTINUOUS
  5
CB
 10
424.976659
 20
328.810136
 30
0.0
 11
426.664464
 21
330.497942
 31
0.0
  0
LINE
  8
LC-002-005-----0
  6
CONTINUOUS
  5
CC
 10
423.227259
 20
329.889164
 30
0.0
 11
425.026503
 21
331.688408
 31
0.0
  0
LINE
  8
LC-002-005-----0
  6
CONTINUOUS
  5
CD
 10
420.747401
 20
330.237733
 30
0.0
 11
422.966269
 21
332.456601
 31
0.0
  0
LINE
  8
LC-002-005-----0
  6
CONTINUOUS
  5
CE
 10
417.918973
 20
330.237733
 30
0.0
 11
420.318226
 21
332.636985
 31
0.0
  0
LINE
  8
LC-002-005-----0
  6
CONTINUOUS
  5
CF
 10
415.090546
 20
330.237732
 30
0.0
 11
417.489798
 21
332.636984
 31
0.0
  0
LINE
  8
LC-002-005-----0
  6
CONTINUOUS
  5
D0
 10
412.262118
 20
330.237731
 30
0.0
 11
414.66137
 21
332.636984
 31
0.0
  0
LINE
  8
LC-002-005-----0
  6
CONTINUOUS
  5
D1
 10
409.43369
 20
330.23773
 30
0.0
 11
411.832942
 21
332.636983
 31
0.0
  0
LINE
  8
LC-002-005-----0
  6
CONTINUOUS
  5
D2
 10
406.605262
 20
330.237729
 30
0.0
 11
409.004514
 21
332.636982
 31
0.0
  0
LINE
  8
LC-002-005-----0
  6
CONTINUOUS
  5
D3
 10
403.776834
 20
330.237729
 30
0.0
 11
406.176087
 21
332.636981
 31
0.0
  0
LINE
  8
LC-002-005-----0
  6
CONTINUOUS
  5
D4
 10
400.948406
 20
330.237728
 30
0.0
 11
403.347659
 21
332.636981
 31
0.0
  0
LINE
  8
LC-002-005-----0
  6
CONTINUOUS
  5
D5
 10
398.119978
 20
330.237727
 30
0.0
 11
400.519231
 21
332.63698
 31
0.0
  0
LINE
  8
LC-002-005-----0
  6
CONTINUOUS
  5
D6
 10
395.29155
 20
330.237726
 30
0.0
 11
397.690803
 21
332.636979
 31
0.0
  0
LINE
  8
LC-002-005-----0
  6
CONTINUOUS
  5
D7
 10
392.463122
 20
330.237726
 30
0.0
 11
394.862375
 21
332.636978
 31
0.0
  0
LINE
  8
LC-002-005-----0
  6
CONTINUOUS
  5
D8
 10
389.634694
 20
330.237725
 30
0.0
 11
392.033947
 21
332.636978
 31
0.0
  0
LINE
  8
LC-002-005-----0
  6
CONTINUOUS
  5
D9
 10
386.806267
 20
330.237724
 30
0.0
 11
389.205519
 21
332.636977
 31
0.0
  0
LINE
  8
LC-002-005-----0
  6
CONTINUOUS
  5
DA
 10
383.977839
 20
330.237723
 30
0.0
 11
386.377091
 21
332.636976
 31
0.0
  0
LINE
  8
LC-002-005-----0
  6
CONTINUOUS
  5
DB
 10
381.149411
 20
330.237722
 30
0.0
 11
383.548664
 21
332.636975
 31
0.0
  0
LINE
  8
LC-002-005-----0
  6
CONTINUOUS
  5
DC
 10
378.320983
 20
330.237722
 30
0.0
 11
380.720236
 21
332.636975
 31
0.0
  0
LINE
  8
LC-002-005-----0
  6
CONTINUOUS
  5
DD
 10
375.492555
 20
330.237721
 30
0.0
 11
377.891808
 21
332.636974
 31
0.0
  0
LINE
  8
LC-002-005-----0
  6
CONTINUOUS
  5
DE
 10
372.664127
 20
330.23772
 30
0.0
 11
375.06338
 21
332.636973
 31
0.0
  0
LINE
  8
LC-002-005-----0
  6
CONTINUOUS
  5
DF
 10
369.835699
 20
330.237719
 30
0.0
 11
372.234952
 21
332.636972
 31
0.0
  0
LINE
  8
LC-002-005-----0
  6
CONTINUOUS
  5
E0
 10
367.007271
 20
330.237719
 30
0.0
 11
369.406524
 21
332.636971
 31
0.0
  0
LINE
  8
LC-002-005-----0
  6
CONTINUOUS
  5
E1
 10
364.178843
 20
330.237718
 30
0.0
 11
366.578096
 21
332.636971
 31
0.0
  0
LINE
  8
LC-002-005-----0
  6
CONTINUOUS
  5
E2
 10
361.350415
 20
330.237717
 30
0.0
 11
363.749668
 21
332.63697
 31
0.0
  0
LINE
  8
LC-002-005-----0
  6
CONTINUOUS
  5
E3
 10
358.521987
 20
330.237716
 30
0.0
 11
360.92124
 21
332.636969
 31
0.0
  0
LINE
  8
LC-002-005-----0
  6
CONTINUOUS
  5
E4
 10
355.69356
 20
330.237715
 30
0.0
 11
358.092813
 21
332.636968
 31
0.0
  0
LINE
  8
LC-002-005-----0
  6
CONTINUOUS
  5
E5
 10
352.865132
 20
330.237715
 30
0.0
 11
355.264385
 21
332.636968
 31
0.0
  0
LINE
  8
LC-002-005-----0
  6
CONTINUOUS
  5
E6
 10
350.036704
 20
330.237714
 30
0.0
 11
352.435957
 21
332.636967
 31
0.0
  0
LINE
  8
LC-002-005-----0
  6
CONTINUOUS
  5
E7
 10
347.208276
 20
330.237713
 30
0.0
 11
349.607529
 21
332.636966
 31
0.0
  0
LINE
  8
LC-002-005-----0
  6
CONTINUOUS
  5
E8
 10
344.379848
 20
330.237712
 30
0.0
 11
346.779101
 21
332.636965
 31
0.0
  0
LINE
  8
LC-002-005-----0
  6
CONTINUOUS
  5
E9
 10
341.55142
 20
330.237712
 30
0.0
 11
343.950673
 21
332.636965
 31
0.0
  0
LINE
  8
LC-002-005-----0
  6
CONTINUOUS
  5
EA
 10
338.722992
 20
330.237711
 30
0.0
 11
341.122245
 21
332.636964
 31
0.0
  0
LINE
  8
LC-002-005-----0
  6
CONTINUOUS
  5
EB
 10
335.894564
 20
330.23771
 30
0.0
 11
338.293817
 21
332.636963
 31
0.0
  0
LINE
  8
LC-002-005-----0
  6
CONTINUOUS
  5
EC
 10
333.066136
 20
330.237709
 30
0.0
 11
335.46539
 21
332.636962
 31
0.0
  0
LINE
  8
LC-002-005-----0
  6
CONTINUOUS
  5
ED
 10
330.237708
 20
330.237708
 30
0.0
 11
332.636962
 21
332.636962
 31
0.0
  0
LINE
  8
LC-002-005-----0
  6
CONTINUOUS
  5
EE
 10
327.40928
 20
330.237708
 30
0.0
 11
329.808534
 21
332.636961
 31
0.0
  0
LINE
  8
LC-002-005-----0
  6
CONTINUOUS
  5
EF
 10
324.580853
 20
330.237707
 30
0.0
 11
326.980106
 21
332.63696
 31
0.0
  0
LINE
  8
LC-002-005-----0
  6
CONTINUOUS
  5
F0
 10
321.752425
 20
330.237706
 30
0.0
 11
324.151678
 21
332.636959
 31
0.0
  0
LINE
  8
LC-002-005-----0
  6
CONTINUOUS
  5
F1
 10
318.923997
 20
330.237705
 30
0.0
 11
321.32325
 21
332.636959
 31
0.0
  0
LINE
  8
LC-002-005-----0
  6
CONTINUOUS
  5
F2
 10
316.095569
 20
330.237704
 30
0.0
 11
318.494822
 21
332.636958
 31
0.0
  0
LINE
  8
LC-002-005-----0
  6
CONTINUOUS
  5
F3
 10
313.267141
 20
330.237704
 30
0.0
 11
315.666394
 21
332.636957
 31
0.0
  0
LINE
  8
LC-002-005-----0
  6
CONTINUOUS
  5
F4
 10
310.438713
 20
330.237703
 30
0.0
 11
312.837967
 21
332.636956
 31
0.0
  0
LINE
  8
LC-002-005-----0
  6
CONTINUOUS
  5
F5
 10
307.610285
 20
330.237702
 30
0.0
 11
310.009539
 21
332.636956
 31
0.0
  0
LINE
  8
LC-002-005-----0
  6
CONTINUOUS
  5
F6
 10
304.781857
 20
330.237701
 30
0.0
 11
307.181111
 21
332.636955
 31
0.0
  0
LINE
  8
LC-002-005-----0
  6
CONTINUOUS
  5
F7
 10
301.953429
 20
330.237701
 30
0.0
 11
304.352683
 21
332.636954
 31
0.0
  0
LINE
  8
LC-002-005-----0
  6
CONTINUOUS
  5
F8
 10
299.376891
 20
330.489589
 30
0.0
 11
301.524255
 21
332.636953
 31
0.0
  0
LINE
  8
LC-002-005-----0
  6
CONTINUOUS
  5
F9
 10
297.146194
 20
331.08732
 30
0.0
 11
298.695827
 21
332.636953
 31
0.0
  0
ENDBLK
  8
0
  5
FA
  0
BLOCK
  8
0
  5
FC
  2
*X10
 70
    65
 10
496.318417
 20
415.423059
 30
0.0
  3
*X10
  0
LINE
  8
LC-002-005-----0
  6
CONTINUOUS
  5
FD
 10
511.589601
 20
415.423079
 30
0.0
 11
512.81842
 21
416.651897
 31
0.0
  0
LINE
  8
LC-002-005-----0
  6
CONTINUOUS
  5
FE
 10
508.76117
 20
415.423075
 30
0.0
 11
512.818416
 21
419.480321
 31
0.0
  0
LINE
  8
LC-002-005-----0
  6
CONTINUOUS
  5
FF
 10
505.932739
 20
415.423071
 30
0.0
 11
512.818412
 21
422.308744
 31
0.0
  0
LINE
  8
LC-002-005-----0
  6
CONTINUOUS
  5
100
 10
503.104309
 20
415.423068
 30
0.0
 11
506.104312
 21
418.423072
 31
0.0
  0
LINE
  8
LC-002-005-----0
  6
CONTINUOUS
  5
101
 10
508.318414
 20
420.637174
 30
0.0
 11
512.818409
 21
425.137168
 31
0.0
  0
LINE
  8
LC-002-005-----0
  6
CONTINUOUS
  5
102
 10
500.275878
 20
415.423064
 30
0.0
 11
503.275882
 21
418.423068
 31
0.0
  0
LINE
  8
LC-002-005-----0
  6
CONTINUOUS
  5
103
 10
508.318411
 20
423.465597
 30
0.0
 11
511.614058
 21
426.761244
 31
0.0
  0
LINE
  8
LC-002-005-----0
  6
CONTINUOUS
  5
104
 10
497.447447
 20
415.42306
 30
0.0
 11
500.447451
 21
418.423064
 31
0.0
  0
LINE
  8
LC-002-005-----0
  6
CONTINUOUS
  5
105
 10
496.318419
 20
417.12246
 30
0.0
 11
497.61902
 21
418.423061
 31
0.0
  0
ENDBLK
  8
0
  5
106
  0
BLOCK
  8
0
  5
108
  2
*X11
 70
    65
 10
496.318437
 20
390.923077
 30
0.0
  3
*X11
  0
LINE
  8
LC-002-005-----0
  6
CONTINUOUS
  5
109
 10
510.165141
 20
391.371201
 30
0.0
 11
512.818449
 21
394.02451
 31
0.0
  0
LINE
  8
LC-002-005-----0
  6
CONTINUOUS
  5
10A
 10
508.825358
 20
392.859845
 30
0.0
 11
512.818446
 21
396.852933
 31
0.0
  0
LINE
  8
LC-002-005-----0
  6
CONTINUOUS
  5
10B
 10
508.318448
 20
395.181363
 30
0.0
 11
512.818442
 21
399.681357
 31
0.0
  0
LINE
  8
LC-002-005-----0
  6
CONTINUOUS
  5
10C
 10
508.318444
 20
398.009786
 30
0.0
 11
512.818438
 21
402.50978
 31
0.0
  0
LINE
  8
LC-002-005-----0
  6
CONTINUOUS
  5
10D
 10
507.903305
 20
400.423074
 30
0.0
 11
510.903309
 21
403.423078
 31
0.0
  0
LINE
  8
LC-002-005-----0
  6
CONTINUOUS
  5
10E
 10
505.074874
 20
400.42307
 30
0.0
 11
508.074878
 21
403.423074
 31
0.0
  0
LINE
  8
LC-002-005-----0
  6
CONTINUOUS
  5
10F
 10
502.246443
 20
400.423067
 30
0.0
 11
505.246447
 21
403.42307
 31
0.0
  0
LINE
  8
LC-002-005-----0
  6
CONTINUOUS
  5
110
 10
499.418012
 20
400.423063
 30
0.0
 11
502.418016
 21
403.423067
 31
0.0
  0
LINE
  8
LC-002-005-----0
  6
CONTINUOUS
  5
111
 10
496.589581
 20
400.423059
 30
0.0
 11
499.589585
 21
403.423063
 31
0.0
  0
LINE
  8
LC-002-005-----0
  6
CONTINUOUS
  5
112
 10
496.318438
 20
402.980342
 30
0.0
 11
496.761155
 21
403.423059
 31
0.0
  0
ENDBLK
  8
0
  5
113
  0
BLOCK
  8
0
  5
115
  2
*X12
 70
    65
 10
496.318506
 20
347.423059
 30
0.0
  3
*X12
  0
LINE
  8
LC-002-005-----0
  6
CONTINUOUS
  5
116
 10
511.471852
 20
347.423079
 30
0.0
 11
512.818508
 21
348.769735
 31
0.0
  0
LINE
  8
LC-002-005-----0
  6
CONTINUOUS
  5
117
 10
508.643421
 20
347.423075
 30
0.0
 11
512.818505
 21
351.598159
 31
0.0
  0
LINE
  8
LC-002-005-----0
  6
CONTINUOUS
  5
118
 10
505.81499
 20
347.423071
 30
0.0
 11
512.818501
 21
354.426582
 31
0.0
  0
LINE
  8
LC-002-005-----0
  6
CONTINUOUS
  5
119
 10
502.986559
 20
347.423068
 30
0.0
 11
505.986563
 21
350.423071
 31
0.0
  0
LINE
  8
LC-002-005-----0
  6
CONTINUOUS
  5
11A
 10
508.318503
 20
352.755011
 30
0.0
 11
512.818497
 21
357.255005
 31
0.0
  0
LINE
  8
LC-002-005-----0
  6
CONTINUOUS
  5
11B
 10
500.158129
 20
347.423064
 30
0.0
 11
503.158132
 21
350.423068
 31
0.0
  0
LINE
  8
LC-002-005-----0
  6
CONTINUOUS
  5
11C
 10
508.318499
 20
355.583435
 30
0.0
 11
511.558329
 21
358.823264
 31
0.0
  0
LINE
  8
LC-002-005-----0
  6
CONTINUOUS
  5
11D
 10
497.329698
 20
347.42306
 30
0.0
 11
500.329702
 21
350.423064
 31
0.0
  0
LINE
  8
LC-002-005-----0
  6
CONTINUOUS
  5
11E
 10
496.318508
 20
349.240297
 30
0.0
 11
497.501271
 21
350.42306
 31
0.0
  0
ENDBLK
  8
0
  5
11F
  0
BLOCK
  8
0
  5
121
  2
*X13
 70
    65
 10
496.318526
 20
322.923077
 30
0.0
  3
*X13
  0
LINE
  8
LC-002-005-----0
  6
CONTINUOUS
  5
122
 10
510.109412
 20
323.433221
 30
0.0
 11
512.818538
 21
326.142348
 31
0.0
  0
LINE
  8
LC-002-005-----0
  6
CONTINUOUS
  5
123
 10
508.769628
 20
324.921865
 30
0.0
 11
512.818534
 21
328.970771
 31
0.0
  0
LINE
  8
LC-002-005-----0
  6
CONTINUOUS
  5
124
 10
508.318536
 20
327.2992
 30
0.0
 11
512.818531
 21
331.799195
 31
0.0
  0
LINE
  8
LC-002-005-----0
  6
CONTINUOUS
  5
125
 10
508.318533
 20
330.127624
 30
0.0
 11
512.818527
 21
334.627618
 31
0.0
  0
LINE
  8
LC-002-005-----0
  6
CONTINUOUS
  5
126
 10
507.785556
 20
332.423074
 30
0.0
 11
510.785559
 21
335.423078
 31
0.0
  0
LINE
  8
LC-002-005-----0
  6
CONTINUOUS
  5
127
 10
504.957125
 20
332.42307
 30
0.0
 11
507.957129
 21
335.423074
 31
0.0
  0
LINE
  8
LC-002-005-----0
  6
CONTINUOUS
  5
128
 10
502.128694
 20
332.423066
 30
0.0
 11
505.128698
 21
335.42307
 31
0.0
  0
LINE
  8
LC-002-005-----0
  6
CONTINUOUS
  5
129
 10
499.300263
 20
332.423063
 30
0.0
 11
502.300267
 21
335.423067
 31
0.0
  0
LINE
  8
LC-002-005-----0
  6
CONTINUOUS
  5
12A
 10
496.471832
 20
332.423059
 30
0.0
 11
499.471836
 21
335.423063
 31
0.0
  0
LINE
  8
LC-002-005-----0
  6
CONTINUOUS
  5
12B
 10
496.318526
 20
335.09818
 30
0.0
 11
496.643405
 21
335.423059
 31
0.0
  0
ENDBLK
  8
0
  5
12C
  0
BLOCK
  8
0
  5
12E
  2
*D14
 70
    65
 10
0.0
 20
0.0
 30
0.0
  3
*D14
  0
LINE
  8
LC-007-003-MTH-0
  6
CONTINUOUS
  5
130
 10
315.316877
 20
330.237698
 30
0.0
 11
257.2
 21
330.237698
 31
0.0
  0
LINE
  8
LC-007-003-MTH-0
  6
CONTINUOUS
  5
131
 10
315.317119
 20
420.608365
 30
0.0
 11
257.2
 21
420.608365
 31
0.0
  0
LINE
  8
LC-008-003-MTG-0
  6
CONTINUOUS
  5
133
 10
268.0
 20
330.237698
 30
0.0
 11
268.0
 21
420.608365
 31
0.0
  0
LINE
  8
LC-006-003-----0
  6
CONTINUOUS
  5
135
 10
265.650529
 20
348.083705
 30
0.0
 11
268.0
 21
330.237698
 31
0.0
  0
LINE
  8
LC-006-003-----0
  6
CONTINUOUS
  5
136
 10
268.0
 20
330.237698
 30
0.0
 11
270.349471
 21
348.083705
 31
0.0
  0
LINE
  8
LC-006-003-----0
  6
CONTINUOUS
  5
137
 10
270.349471
 20
348.083705
 30
0.0
 11
265.650529
 21
348.083705
 31
0.0
  0
LINE
  8
LC-006-003-----0
  6
CONTINUOUS
  5
138
 10
266.261391
 20
348.123743
 30
0.0
 11
268.0
 21
334.917698
 31
0.0
  0
LINE
  8
LC-006-003-----0
  6
CONTINUOUS
  5
139
 10
268.0
 20
334.917698
 30
0.0
 11
269.738609
 21
348.123743
 31
0.0
  0
LINE
  8
LC-006-003-----0
  6
CONTINUOUS
  5
13A
 10
266.872254
 20
348.163781
 30
0.0
 11
268.0
 21
339.597698
 31
0.0
  0
LINE
  8
LC-006-003-----0
  6
CONTINUOUS
  5
13B
 10
268.0
 20
339.597698
 30
0.0
 11
269.127746
 21
348.163781
 31
0.0
  0
LINE
  8
LC-006-003-----0
  6
CONTINUOUS
  5
13C
 10
267.483116
 20
348.20382
 30
0.0
 11
268.0
 21
344.277698
 31
0.0
  0
LINE
  8
LC-006-003-----0
  6
CONTINUOUS
  5
13D
 10
268.0
 20
344.277698
 30
0.0
 11
268.516884
 21
348.20382
 31
0.0
  0
LINE
  8
LC-006-003-----0
  6
CONTINUOUS
  5
13E
 10
270.349471
 20
402.762358
 30
0.0
 11
268.0
 21
420.608365
 31
0.0
  0
LINE
  8
LC-006-003-----0
  6
CONTINUOUS
  5
13F
 10
268.0
 20
420.608365
 30
0.0
 11
265.650529
 21
402.762358
 31
0.0
  0
LINE
  8
LC-006-003-----0
  6
CONTINUOUS
  5
140
 10
265.650529
 20
402.762358
 30
0.0
 11
270.349471
 21
402.762358
 31
0.0
  0
LINE
  8
LC-006-003-----0
  6
CONTINUOUS
  5
141
 10
269.738609
 20
402.72232
 30
0.0
 11
268.0
 21
415.928365
 31
0.0
  0
LINE
  8
LC-006-003-----0
  6
CONTINUOUS
  5
142
 10
268.0
 20
415.928365
 30
0.0
 11
266.261391
 21
402.72232
 31
0.0
  0
LINE
  8
LC-006-003-----0
  6
CONTINUOUS
  5
143
 10
269.127746
 20
402.682281
 30
0.0
 11
268.0
 21
411.248365
 31
0.0
  0
LINE
  8
LC-006-003-----0
  6
CONTINUOUS
  5
144
 10
268.0
 20
411.248365
 30
0.0
 11
266.872254
 21
402.682281
 31
0.0
  0
LINE
  8
LC-006-003-----0
  6
CONTINUOUS
  5
145
 10
268.516884
 20
402.642243
 30
0.0
 11
268.0
 21
406.568365
 31
0.0
  0
LINE
  8
LC-006-003-----0
  6
CONTINUOUS
  5
146
 10
268.0
 20
406.568365
 30
0.0
 11
267.483116
 21
402.642243
 31
0.0
  0
TEXT
  8
LC-006-003-----0
  6
CONTINUOUS
 62
     6
  5
148
 10
257.568001
 20
346.452521
 30
0.0
 40
18.0
  1
DN90
 50
90.0
 41
0.9
 51
15.0
  7
LC-TXTSTYLE-150-400-0-0-D0
 72
     1
 11
257.568001
 21
372.857246
 31
0.0
  0
ENDBLK
  8
0
  5
149
  0
BLOCK
  8
0
  5
14B
  2
*D15
 70
    65
 10
0.0
 20
0.0
 30
0.0
  3
*D15
  0
LINE
  8
LC-007-003-MTH-0
  6
CONTINUOUS
  5
14C
 10
296.318452
 20
418.209113
 30
0.0
 11
296.318452
 21
462.8
 31
0.0
  0
LINE
  8
LC-007-003-MTH-0
  6
CONTINUOUS
  5
14D
 10
476.318394
 20
439.419986
 30
0.0
 11
476.318394
 21
462.8
 31
0.0
  0
LINE
  8
LC-008-003-MTG-0
  6
CONTINUOUS
  5
14E
 10
296.318452
 20
452.0
 30
0.0
 11
476.318394
 21
452.0
 31
0.0
  0
LINE
  8
LC-006-003-----0
  6
CONTINUOUS
  5
14F
 10
314.164459
 20
454.349471
 30
0.0
 11
296.318452
 21
452.0
 31
0.0
  0
LINE
  8
LC-006-003-----0
  6
CONTINUOUS
  5
150
 10
296.318452
 20
452.0
 30
0.0
 11
314.164459
 21
449.650529
 31
0.0
  0
LINE
  8
LC-006-003-----0
  6
CONTINUOUS
  5
151
 10
314.164459
 20
449.650529
 30
0.0
 11
314.164459
 21
454.349471
 31
0.0
  0
LINE
  8
LC-006-003-----0
  6
CONTINUOUS
  5
152
 10
314.204497
 20
453.738609
 30
0.0
 11
300.998452
 21
452.0
 31
0.0
  0
LINE
  8
LC-006-003-----0
  6
CONTINUOUS
  5
153
 10
300.998452
 20
452.0
 30
0.0
 11
314.204497
 21
450.261391
 31
0.0
  0
LINE
  8
LC-006-003-----0
  6
CONTINUOUS
  5
154
 10
314.244535
 20
453.127746
 30
0.0
 11
305.678452
 21
452.0
 31
0.0
  0
LINE
  8
LC-006-003-----0
  6
CONTINUOUS
  5
155
 10
305.678452
 20
452.0
 30
0.0
 11
314.244535
 21
450.872254
 31
0.0
  0
LINE
  8
LC-006-003-----0
  6
CONTINUOUS
  5
156
 10
314.284573
 20
452.516884
 30
0.0
 11
310.358452
 21
452.0
 31
0.0
  0
LINE
  8
LC-006-003-----0
  6
CONTINUOUS
  5
157
 10
310.358452
 20
452.0
 30
0.0
 11
314.284573
 21
451.483116
 31
0.0
  0
LINE
  8
LC-006-003-----0
  6
CONTINUOUS
  5
158
 10
458.472387
 20
449.650529
 30
0.0
 11
476.318394
 21
452.0
 31
0.0
  0
LINE
  8
LC-006-003-----0
  6
CONTINUOUS
  5
159
 10
476.318394
 20
452.0
 30
0.0
 11
458.472387
 21
454.349471
 31
0.0
  0
LINE
  8
LC-006-003-----0
  6
CONTINUOUS
  5
15A
 10
458.472387
 20
454.349471
 30
0.0
 11
458.472387
 21
449.650529
 31
0.0
  0
LINE
  8
LC-006-003-----0
  6
CONTINUOUS
  5
15B
 10
458.432349
 20
450.261391
 30
0.0
 11
471.638394
 21
452.0
 31
0.0
  0
LINE
  8
LC-006-003-----0
  6
CONTINUOUS
  5
15C
 10
471.638394
 20
452.0
 30
0.0
 11
458.432349
 21
453.738609
 31
0.0
  0
LINE
  8
LC-006-003-----0
  6
CONTINUOUS
  5
15D
 10
458.392311
 20
450.872254
 30
0.0
 11
466.958394
 21
452.0
 31
0.0
  0
LINE
  8
LC-006-003-----0
  6
CONTINUOUS
  5
15E
 10
466.958394
 20
452.0
 30
0.0
 11
458.392311
 21
453.127746
 31
0.0
  0
LINE
  8
LC-006-003-----0
  6
CONTINUOUS
  5
15F
 10
458.352273
 20
451.483116
 30
0.0
 11
462.278394
 21
452.0
 31
0.0
  0
LINE
  8
LC-006-003-----0
  6
CONTINUOUS
  5
160
 10
462.278394
 20
452.0
 30
0.0
 11
458.352273
 21
452.516884
 31
0.0
  0
TEXT
  8
LC-006-003-----0
  6
CONTINUOUS
 62
     6
  5
161
 10
364.865597
 20
462.431999
 30
0.0
 40
18.0
  1
180
 51
15.0
  7
LC-TXTSTYLE-150-400-0-0-D0
 72
     1
 11
383.999456
 21
462.431999
 31
0.0
  0
ENDBLK
  8
0
  5
162
  0
BLOCK
  8
0
  5
164
  2
*X16
 70
    65
 10
296.318452
 20
418.20908
 30
0.0
  3
*X16
  0
LINE
  8
LC-002-005-----0
  6
CONTINUOUS
  5
165
 10
471.75149
 20
434.981938
 30
0.0
 11
476.189539
 21
439.419986
 31
0.0
  0
LINE
  8
LC-002-005-----0
  6
CONTINUOUS
  5
166
 10
470.337276
 20
436.396151
 30
0.0
 11
473.361112
 21
439.419986
 31
0.0
  0
LINE
  8
LC-002-005-----0
  6
CONTINUOUS
  5
167
 10
468.401731
 20
437.289033
 30
0.0
 11
470.532685
 21
439.419986
 31
0.0
  0
LINE
  8
LC-002-005-----0
  6
CONTINUOUS
  5
168
 10
465.573304
 20
437.289033
 30
0.0
 11
467.704258
 21
439.419986
 31
0.0
  0
LINE
  8
LC-002-005-----0
  6
CONTINUOUS
  5
169
 10
462.744877
 20
437.289033
 30
0.0
 11
464.875831
 21
439.419986
 31
0.0
  0
LINE
  8
LC-002-005-----0
  6
CONTINUOUS
  5
16A
 10
459.91645
 20
437.289033
 30
0.0
 11
462.047403
 21
439.419986
 31
0.0
  0
LINE
  8
LC-002-005-----0
  6
CONTINUOUS
  5
16B
 10
457.088023
 20
437.289033
 30
0.0
 11
459.218976
 21
439.419986
 31
0.0
  0
LINE
  8
LC-002-005-----0
  6
CONTINUOUS
  5
16C
 10
450.331595
 20
433.361033
 30
0.0
 11
451.768394
 21
434.797832
 31
0.0
  0
LINE
  8
LC-002-005-----0
  6
CONTINUOUS
  5
16D
 10
454.259595
 20
437.289033
 30
0.0
 11
456.390549
 21
439.419986
 31
0.0
  0
LINE
  8
LC-002-005-----0
  6
CONTINUOUS
  5
16E
 10
447.503168
 20
433.361033
 30
0.0
 11
453.562122
 21
439.419986
 31
0.0
  0
LINE
  8
LC-002-005-----0
  6
CONTINUOUS
  5
16F
 10
444.674741
 20
433.361033
 30
0.0
 11
447.129741
 21
435.816033
 31
0.0
  0
LINE
  8
LC-002-005-----0
  6
CONTINUOUS
  5
170
 10
449.426461
 20
438.112752
 30
0.0
 11
450.620628
 21
439.30692
 31
0.0
  0
LINE
  8
LC-002-005-----0
  6
CONTINUOUS
  5
171
 10
441.846314
 20
433.361033
 30
0.0
 11
444.301314
 21
435.816033
 31
0.0
  0
LINE
  8
LC-002-005-----0
  6
CONTINUOUS
  5
172
 10
424.598318
 20
418.941464
 30
0.0
 11
428.366115
 21
422.709261
 31
0.0
  0
LINE
  8
LC-002-005-----0
  6
CONTINUOUS
  5
173
 10
439.017887
 20
433.361033
 30
0.0
 11
441.472887
 21
435.816033
 31
0.0
  0
LINE
  8
LC-002-005-----0
  6
CONTINUOUS
  5
174
 10
421.037507
 20
418.20908
 30
0.0
 11
424.407106
 21
421.578679
 31
0.0
  0
LINE
  8
LC-002-005-----0
  6
CONTINUOUS
  5
175
 10
425.749051
 20
422.920624
 30
0.0
 11
429.300458
 21
426.47203
 31
0.0
  0
LINE
  8
LC-002-005-----0
  6
CONTINUOUS
  5
176
 10
436.18946
 20
433.361033
 30
0.0
 11
438.64446
 21
435.816033
 31
0.0
  0
LINE
  8
LC-002-005-----0
  6
CONTINUOUS
  5
177
 10
418.209081
 20
418.209081
 30
0.0
 11
420.608332
 21
420.608332
 31
0.0
  0
LINE
  8
LC-002-005-----0
  6
CONTINUOUS
  5
178
 10
426.947223
 20
426.947223
 30
0.0
 11
429.90595
 21
429.90595
 31
0.0
  0
LINE
  8
LC-002-005-----0
  6
CONTINUOUS
  5
179
 10
433.361033
 20
433.361033
 30
0.0
 11
435.816033
 21
435.816033
 31
0.0
  0
LINE
  8
LC-002-005-----0
  6
CONTINUOUS
  5
17A
 10
415.380654
 20
418.209082
 30
0.0
 11
417.779906
 21
420.608333
 31
0.0
  0
LINE
  8
LC-002-005-----0
  6
CONTINUOUS
  5
17B
 10
427.552716
 20
430.381143
 30
0.0
 11
432.987606
 21
435.816033
 31
0.0
  0
LINE
  8
LC-002-005-----0
  6
CONTINUOUS
  5
17C
 10
412.552228
 20
418.209082
 30
0.0
 11
414.951479
 21
420.608334
 31
0.0
  0
LINE
  8
LC-002-005-----0
  6
CONTINUOUS
  5
17D
 10
409.723802
 20
418.209083
 30
0.0
 11
412.123053
 21
420.608334
 31
0.0
  0
LINE
  8
LC-002-005-----0
  6
CONTINUOUS
  5
17E
 10
406.895375
 20
418.209084
 30
0.0
 11
409.294627
 21
420.608335
 31
0.0
  0
LINE
  8
LC-002-005-----0
  6
CONTINUOUS
  5
17F
 10
404.066949
 20
418.209085
 30
0.0
 11
406.4662
 21
420.608336
 31
0.0
  0
LINE
  8
LC-002-005-----0
  6
CONTINUOUS
  5
180
 10
401.238523
 20
418.209085
 30
0.0
 11
403.637774
 21
420.608337
 31
0.0
  0
LINE
  8
LC-002-005-----0
  6
CONTINUOUS
  5
181
 10
398.410096
 20
418.209086
 30
0.0
 11
400.809348
 21
420.608337
 31
0.0
  0
LINE
  8
LC-002-005-----0
  6
CONTINUOUS
  5
182
 10
395.58167
 20
418.209087
 30
0.0
 11
397.980921
 21
420.608338
 31
0.0
  0
LINE
  8
LC-002-005-----0
  6
CONTINUOUS
  5
183
 10
392.753243
 20
418.209088
 30
0.0
 11
395.152495
 21
420.608339
 31
0.0
  0
LINE
  8
LC-002-005-----0
  6
CONTINUOUS
  5
184
 10
389.924817
 20
418.209088
 30
0.0
 11
392.324069
 21
420.60834
 31
0.0
  0
LINE
  8
LC-002-005-----0
  6
CONTINUOUS
  5
185
 10
387.096391
 20
418.209089
 30
0.0
 11
389.495642
 21
420.608341
 31
0.0
  0
LINE
  8
LC-002-005-----0
  6
CONTINUOUS
  5
186
 10
384.267964
 20
418.20909
 30
0.0
 11
386.667216
 21
420.608341
 31
0.0
  0
LINE
  8
LC-002-005-----0
  6
CONTINUOUS
  5
187
 10
381.439538
 20
418.209091
 30
0.0
 11
383.83879
 21
420.608342
 31
0.0
  0
LINE
  8
LC-002-005-----0
  6
CONTINUOUS
  5
188
 10
378.611112
 20
418.209091
 30
0.0
 11
381.010363
 21
420.608343
 31
0.0
  0
LINE
  8
LC-002-005-----0
  6
CONTINUOUS
  5
189
 10
375.782685
 20
418.209092
 30
0.0
 11
378.181937
 21
420.608344
 31
0.0
  0
LINE
  8
LC-002-005-----0
  6
CONTINUOUS
  5
18A
 10
372.954259
 20
418.209093
 30
0.0
 11
375.35351
 21
420.608344
 31
0.0
  0
LINE
  8
LC-002-005-----0
  6
CONTINUOUS
  5
18B
 10
370.125833
 20
418.209094
 30
0.0
 11
372.525084
 21
420.608345
 31
0.0
  0
LINE
  8
LC-002-005-----0
  6
CONTINUOUS
  5
18C
 10
367.297406
 20
418.209094
 30
0.0
 11
369.696658
 21
420.608346
 31
0.0
  0
LINE
  8
LC-002-005-----0
  6
CONTINUOUS
  5
18D
 10
364.46898
 20
418.209095
 30
0.0
 11
366.868231
 21
420.608347
 31
0.0
  0
LINE
  8
LC-002-005-----0
  6
CONTINUOUS
  5
18E
 10
361.640553
 20
418.209096
 30
0.0
 11
364.039805
 21
420.608348
 31
0.0
  0
LINE
  8
LC-002-005-----0
  6
CONTINUOUS
  5
18F
 10
358.812127
 20
418.209097
 30
0.0
 11
361.211379
 21
420.608348
 31
0.0
  0
LINE
  8
LC-002-005-----0
  6
CONTINUOUS
  5
190
 10
355.983701
 20
418.209097
 30
0.0
 11
358.382952
 21
420.608349
 31
0.0
  0
LINE
  8
LC-002-005-----0
  6
CONTINUOUS
  5
191
 10
353.155274
 20
418.209098
 30
0.0
 11
355.554526
 21
420.60835
 31
0.0
  0
LINE
  8
LC-002-005-----0
  6
CONTINUOUS
  5
192
 10
350.326848
 20
418.209099
 30
0.0
 11
352.7261
 21
420.608351
 31
0.0
  0
LINE
  8
LC-002-005-----0
  6
CONTINUOUS
  5
193
 10
347.498422
 20
418.2091
 30
0.0
 11
349.897673
 21
420.608351
 31
0.0
  0
LINE
  8
LC-002-005-----0
  6
CONTINUOUS
  5
194
 10
344.669995
 20
418.2091
 30
0.0
 11
347.069247
 21
420.608352
 31
0.0
  0
LINE
  8
LC-002-005-----0
  6
CONTINUOUS
  5
195
 10
341.841569
 20
418.209101
 30
0.0
 11
344.240821
 21
420.608353
 31
0.0
  0
LINE
  8
LC-002-005-----0
  6
CONTINUOUS
  5
196
 10
339.013142
 20
418.209102
 30
0.0
 11
341.412394
 21
420.608354
 31
0.0
  0
LINE
  8
LC-002-005-----0
  6
CONTINUOUS
  5
197
 10
336.184716
 20
418.209103
 30
0.0
 11
338.583968
 21
420.608355
 31
0.0
  0
LINE
  8
LC-002-005-----0
  6
CONTINUOUS
  5
198
 10
333.35629
 20
418.209103
 30
0.0
 11
335.755542
 21
420.608355
 31
0.0
  0
LINE
  8
LC-002-005-----0
  6
CONTINUOUS
  5
199
 10
330.527863
 20
418.209104
 30
0.0
 11
332.927115
 21
420.608356
 31
0.0
  0
LINE
  8
LC-002-005-----0
  6
CONTINUOUS
  5
19A
 10
327.699437
 20
418.209105
 30
0.0
 11
330.098689
 21
420.608357
 31
0.0
  0
LINE
  8
LC-002-005-----0
  6
CONTINUOUS
  5
19B
 10
324.871011
 20
418.209106
 30
0.0
 11
327.270263
 21
420.608358
 31
0.0
  0
LINE
  8
LC-002-005-----0
  6
CONTINUOUS
  5
19C
 10
322.042584
 20
418.209106
 30
0.0
 11
324.441836
 21
420.608359
 31
0.0
  0
LINE
  8
LC-002-005-----0
  6
CONTINUOUS
  5
19D
 10
319.214158
 20
418.209107
 30
0.0
 11
321.61341
 21
420.608359
 31
0.0
  0
LINE
  8
LC-002-005-----0
  6
CONTINUOUS
  5
19E
 10
316.385731
 20
418.209108
 30
0.0
 11
318.784984
 21
420.60836
 31
0.0
  0
LINE
  8
LC-002-005-----0
  6
CONTINUOUS
  5
19F
 10
313.557305
 20
418.209109
 30
0.0
 11
315.956557
 21
420.608361
 31
0.0
  0
LINE
  8
LC-002-005-----0
  6
CONTINUOUS
  5
1A0
 10
310.728879
 20
418.209109
 30
0.0
 11
313.128131
 21
420.608362
 31
0.0
  0
LINE
  8
LC-002-005-----0
  6
CONTINUOUS
  5
1A1
 10
307.900452
 20
418.20911
 30
0.0
 11
310.299705
 21
420.608362
 31
0.0
  0
LINE
  8
LC-002-005-----0
  6
CONTINUOUS
  5
1A2
 10
305.072026
 20
418.209111
 30
0.0
 11
307.471278
 21
420.608363
 31
0.0
  0
LINE
  8
LC-002-005-----0
  6
CONTINUOUS
  5
1A3
 10
302.2436
 20
418.209112
 30
0.0
 11
304.642852
 21
420.608364
 31
0.0
  0
LINE
  8
LC-002-005-----0
  6
CONTINUOUS
  5
1A4
 10
299.415173
 20
418.209112
 30
0.0
 11
301.814426
 21
420.608365
 31
0.0
  0
LINE
  8
LC-002-005-----0
  6
CONTINUOUS
  5
1A5
 10
296.586747
 20
418.209113
 30
0.0
 11
298.498827
 21
420.121193
 31
0.0
  0
ENDBLK
  8
0
  5
1A6
  0
BLOCK
  8
0
  5
1A8
  2
*X17
 70
    65
 10
495.318452
 20
235.289019
 30
0.0
  3
*X17
  0
LINE
  8
LC-002-005-----0
  6
CONTINUOUS
  5
1A9
 10
515.387564
 20
235.373278
 30
0.0
 11
516.495673
 21
236.481388
 31
0.0
  0
LINE
  8
LC-002-005-----0
  6
CONTINUOUS
  5
1AA
 10
515.307623
 20
238.121764
 30
0.0
 11
517.101166
 21
239.915307
 31
0.0
  0
LINE
  8
LC-002-005-----0
  6
CONTINUOUS
  5
1AB
 10
518.489552
 20
241.303694
 30
0.0
 11
520.318452
 21
243.132593
 31
0.0
  0
LINE
  8
LC-002-005-----0
  6
CONTINUOUS
  5
1AC
 10
510.174651
 20
235.81722
 30
0.0
 11
511.406198
 21
237.048767
 31
0.0
  0
LINE
  8
LC-002-005-----0
  6
CONTINUOUS
  5
1AD
 10
515.227682
 20
240.870251
 30
0.0
 11
520.318452
 21
245.961021
 31
0.0
  0
LINE
  8
LC-002-005-----0
  6
CONTINUOUS
  5
1AE
 10
510.09471
 20
238.565706
 30
0.0
 11
512.085462
 21
240.556458
 31
0.0
  0
LINE
  8
LC-002-005-----0
  6
CONTINUOUS
  5
1AF
 10
512.797531
 20
241.268527
 30
0.0
 11
515.816602
 21
244.287598
 31
0.0
  0
LINE
  8
LC-002-005-----0
  6
CONTINUOUS
  5
1B0
 10
517.066526
 20
245.537522
 30
0.0
 11
518.416602
 21
246.887598
 31
0.0
  0
LINE
  8
LC-002-005-----0
  6
CONTINUOUS
  5
1B1
 10
504.573044
 20
235.872468
 30
0.0
 11
505.819852
 21
237.119275
 31
0.0
  0
LINE
  8
LC-002-005-----0
  6
CONTINUOUS
  5
1B2
 10
509.891906
 20
241.191329
 30
0.0
 11
512.988175
 21
244.287598
 31
0.0
  0
LINE
  8
LC-002-005-----0
  6
CONTINUOUS
  5
1B3
 10
504.493104
 20
238.620954
 30
0.0
 11
506.499116
 21
240.626966
 31
0.0
  0
LINE
  8
LC-002-005-----0
  6
CONTINUOUS
  5
1B4
 10
507.14449
 20
241.272341
 30
0.0
 11
510.159748
 21
244.287598
 31
0.0
  0
LINE
  8
LC-002-005-----0
  6
CONTINUOUS
  5
1B5
 10
498.971438
 20
235.927715
 30
0.0
 11
500.233505
 21
237.189783
 31
0.0
  0
LINE
  8
LC-002-005-----0
  6
CONTINUOUS
  5
1B6
 10
504.23668
 20
241.192958
 30
0.0
 11
507.331321
 21
244.287598
 31
0.0
  0
LINE
  8
LC-002-005-----0
  6
CONTINUOUS
  5
1B7
 10
498.891497
 20
238.676201
 30
0.0
 11
500.91277
 21
240.697475
 31
0.0
  0
LINE
  8
LC-002-005-----0
  6
CONTINUOUS
  5
1B8
 10
501.489264
 20
241.273969
 30
0.0
 11
504.728292
 21
244.512997
 31
0.0
  0
LINE
  8
LC-002-005-----0
  6
CONTINUOUS
  5
1B9
 10
498.581244
 20
241.194375
 30
0.0
 11
501.674466
 21
244.287598
 31
0.0
  0
LINE
  8
LC-002-005-----0
  6
CONTINUOUS
  5
1BA
 10
495.831384
 20
241.272943
 30
0.0
 11
498.846039
 21
244.287598
 31
0.0
  0
LINE
  8
LC-002-005-----0
  6
CONTINUOUS
  5
1BB
 10
495.318452
 20
243.588438
 30
0.0
 11
496.017612
 21
244.287598
 31
0.0
  0
ENDBLK
  8
0
  5
1BC
  0
BLOCK
  8
0
  5
1BE
  2
BLK4
 70
    64
 10
0.0
 20
0.0
 30
0.0
  3
BLK4
  0
ENDBLK
  8
0
  5
1BF
  0
BLOCK
  8
0
  5
1C1
  2
*X19
 70
    65
 10
459.788394
 20
316.423033
 30
0.0
  3
*X19
  0
LINE
  8
LC-002-005-----0
  6
CONTINUOUS
  5
1C2
 10
464.915457
 20
316.423033
 30
0.0
 11
465.788394
 21
317.29597
 31
0.0
  0
LINE
  8
LC-002-005-----0
  6
CONTINUOUS
  5
1C3
 10
463.501243
 20
316.423033
 30
0.0
 11
464.501243
 21
317.423033
 31
0.0
  0
LINE
  8
LC-002-005-----0
  6
CONTINUOUS
  5
1C4
 10
462.08703
 20
316.423033
 30
0.0
 11
463.08703
 21
317.423033
 31
0.0
  0
LINE
  8
LC-002-005-----0
  6
CONTINUOUS
  5
1C5
 10
460.672816
 20
316.423033
 30
0.0
 11
461.672816
 21
317.423033
 31
0.0
  0
LINE
  8
LC-002-005-----0
  6
CONTINUOUS
  5
1C6
 10
459.788394
 20
316.952824
 30
0.0
 11
460.258602
 21
317.423033
 31
0.0
  0
ENDBLK
  8
0
  5
1C7
  0
BLOCK
  8
0
  5
1C9
  2
*X20
 70
    65
 10
459.788394
 20
433.423033
 30
0.0
  3
*X20
  0
LINE
  8
LC-002-005-----0
  6
CONTINUOUS
  5
1CA
 10
464.535731
 20
433.423033
 30
0.0
 11
465.535731
 21
434.423033
 31
0.0
  0
LINE
  8
LC-002-005-----0
  6
CONTINUOUS
  5
1CB
 10
463.121517
 20
433.423033
 30
0.0
 11
464.121517
 21
434.423033
 31
0.0
  0
LINE
  8
LC-002-005-----0
  6
CONTINUOUS
  5
1CC
 10
461.707304
 20
433.423033
 30
0.0
 11
462.707304
 21
434.423033
 31
0.0
  0
LINE
  8
LC-002-005-----0
  6
CONTINUOUS
  5
1CD
 10
460.29309
 20
433.423033
 30
0.0
 11
461.29309
 21
434.423033
 31
0.0
  0
LINE
  8
LC-002-005-----0
  6
CONTINUOUS
  5
1CE
 10
459.788394
 20
434.33255
 30
0.0
 11
459.878877
 21
434.423033
 31
0.0
  0
ENDBLK
  8
0
  5
1CF
  0
BLOCK
  8
0
  5
1D1
  2
*X21
 70
    65
 10
296.318452
 20
285.087598
 30
0.0
  3
*X21
  0
LINE
  8
LC-002-005-----0
  6
CONTINUOUS
  5
1D2
 10
474.592215
 20
285.087598
 30
0.0
 11
476.294725
 21
286.790108
 31
0.0
  0
LINE
  8
LC-002-005-----0
  6
CONTINUOUS
  5
1D3
 10
471.763788
 20
285.087598
 30
0.0
 11
474.064015
 21
287.387825
 31
0.0
  0
LINE
  8
LC-002-005-----0
  6
CONTINUOUS
  5
1D4
 10
468.935361
 20
285.087598
 30
0.0
 11
471.435361
 21
287.587598
 31
0.0
  0
LINE
  8
LC-002-005-----0
  6
CONTINUOUS
  5
1D5
 10
466.106934
 20
285.087598
 30
0.0
 11
468.606934
 21
287.587598
 31
0.0
  0
LINE
  8
LC-002-005-----0
  6
CONTINUOUS
  5
1D6
 10
463.278507
 20
285.087598
 30
0.0
 11
465.778507
 21
287.587598
 31
0.0
  0
LINE
  8
LC-002-005-----0
  6
CONTINUOUS
  5
1D7
 10
460.45008
 20
285.087598
 30
0.0
 11
462.95008
 21
287.587598
 31
0.0
  0
LINE
  8
LC-002-005-----0
  6
CONTINUOUS
  5
1D8
 10
457.621653
 20
285.087598
 30
0.0
 11
460.121653
 21
287.587598
 31
0.0
  0
LINE
  8
LC-002-005-----0
  6
CONTINUOUS
  5
1D9
 10
454.793225
 20
285.087598
 30
0.0
 11
458.318452
 21
288.612824
 31
0.0
  0
LINE
  8
LC-002-005-----0
  6
CONTINUOUS
  5
1DA
 10
451.964798
 20
285.087598
 30
0.0
 11
454.464798
 21
287.587598
 31
0.0
  0
LINE
  8
LC-002-005-----0
  6
CONTINUOUS
  5
1DB
 10
456.318452
 20
289.441251
 30
0.0
 11
457.463662
 21
290.586462
 31
0.0
  0
LINE
  8
LC-002-005-----0
  6
CONTINUOUS
  5
1DC
 10
449.136371
 20
285.087598
 30
0.0
 11
451.636371
 21
287.587598
 31
0.0
  0
LINE
  8
LC-002-005-----0
  6
CONTINUOUS
  5
1DD
 10
446.307944
 20
285.087598
 30
0.0
 11
448.807944
 21
287.587598
 31
0.0
  0
LINE
  8
LC-002-005-----0
  6
CONTINUOUS
  5
1DE
 10
443.479517
 20
285.087598
 30
0.0
 11
445.979517
 21
287.587598
 31
0.0
  0
LINE
  8
LC-002-005-----0
  6
CONTINUOUS
  5
1DF
 10
440.65109
 20
285.087598
 30
0.0
 11
443.15109
 21
287.587598
 31
0.0
  0
LINE
  8
LC-002-005-----0
  6
CONTINUOUS
  5
1E0
 10
437.822663
 20
285.087598
 30
0.0
 11
440.322663
 21
287.587598
 31
0.0
  0
LINE
  8
LC-002-005-----0
  6
CONTINUOUS
  5
1E1
 10
434.994236
 20
285.087598
 30
0.0
 11
437.494236
 21
287.587598
 31
0.0
  0
LINE
  8
LC-002-005-----0
  6
CONTINUOUS
  5
1E2
 10
432.165808
 20
285.087598
 30
0.0
 11
434.665808
 21
287.587598
 31
0.0
  0
LINE
  8
LC-002-005-----0
  6
CONTINUOUS
  5
1E3
 10
429.337381
 20
285.087598
 30
0.0
 11
431.837381
 21
287.587598
 31
0.0
  0
LINE
  8
LC-002-005-----0
  6
CONTINUOUS
  5
1E4
 10
426.508954
 20
285.087598
 30
0.0
 11
429.008954
 21
287.587598
 31
0.0
  0
LINE
  8
LC-002-005-----0
  6
CONTINUOUS
  5
1E5
 10
423.680527
 20
285.087598
 30
0.0
 11
426.180527
 21
287.587598
 31
0.0
  0
LINE
  8
LC-002-005-----0
  6
CONTINUOUS
  5
1E6
 10
420.8521
 20
285.087598
 30
0.0
 11
423.3521
 21
287.587598
 31
0.0
  0
LINE
  8
LC-002-005-----0
  6
CONTINUOUS
  5
1E7
 10
418.023673
 20
285.087598
 30
0.0
 11
420.523673
 21
287.587598
 31
0.0
  0
LINE
  8
LC-002-005-----0
  6
CONTINUOUS
  5
1E8
 10
415.195246
 20
285.087598
 30
0.0
 11
417.695246
 21
287.587598
 31
0.0
  0
LINE
  8
LC-002-005-----0
  6
CONTINUOUS
  5
1E9
 10
412.366819
 20
285.087598
 30
0.0
 11
414.866819
 21
287.587598
 31
0.0
  0
LINE
  8
LC-002-005-----0
  6
CONTINUOUS
  5
1EA
 10
409.538391
 20
285.087598
 30
0.0
 11
412.038391
 21
287.587598
 31
0.0
  0
LINE
  8
LC-002-005-----0
  6
CONTINUOUS
  5
1EB
 10
406.709964
 20
285.087598
 30
0.0
 11
409.209964
 21
287.587598
 31
0.0
  0
LINE
  8
LC-002-005-----0
  6
CONTINUOUS
  5
1EC
 10
403.881537
 20
285.087598
 30
0.0
 11
406.381537
 21
287.587598
 31
0.0
  0
LINE
  8
LC-002-005-----0
  6
CONTINUOUS
  5
1ED
 10
401.05311
 20
285.087598
 30
0.0
 11
403.55311
 21
287.587598
 31
0.0
  0
LINE
  8
LC-002-005-----0
  6
CONTINUOUS
  5
1EE
 10
398.224683
 20
285.087598
 30
0.0
 11
400.724683
 21
287.587598
 31
0.0
  0
LINE
  8
LC-002-005-----0
  6
CONTINUOUS
  5
1EF
 10
395.396256
 20
285.087598
 30
0.0
 11
397.896256
 21
287.587598
 31
0.0
  0
LINE
  8
LC-002-005-----0
  6
CONTINUOUS
  5
1F0
 10
392.567829
 20
285.087598
 30
0.0
 11
395.067829
 21
287.587598
 31
0.0
  0
LINE
  8
LC-002-005-----0
  6
CONTINUOUS
  5
1F1
 10
389.739402
 20
285.087598
 30
0.0
 11
392.239402
 21
287.587598
 31
0.0
  0
LINE
  8
LC-002-005-----0
  6
CONTINUOUS
  5
1F2
 10
386.910974
 20
285.087598
 30
0.0
 11
389.410974
 21
287.587598
 31
0.0
  0
LINE
  8
LC-002-005-----0
  6
CONTINUOUS
  5
1F3
 10
384.082547
 20
285.087598
 30
0.0
 11
386.582547
 21
287.587598
 31
0.0
  0
LINE
  8
LC-002-005-----0
  6
CONTINUOUS
  5
1F4
 10
381.25412
 20
285.087598
 30
0.0
 11
383.75412
 21
287.587598
 31
0.0
  0
LINE
  8
LC-002-005-----0
  6
CONTINUOUS
  5
1F5
 10
378.425693
 20
285.087598
 30
0.0
 11
380.925693
 21
287.587598
 31
0.0
  0
LINE
  8
LC-002-005-----0
  6
CONTINUOUS
  5
1F6
 10
375.597266
 20
285.087598
 30
0.0
 11
378.097266
 21
287.587598
 31
0.0
  0
LINE
  8
LC-002-005-----0
  6
CONTINUOUS
  5
1F7
 10
372.768839
 20
285.087598
 30
0.0
 11
375.268839
 21
287.587598
 31
0.0
  0
LINE
  8
LC-002-005-----0
  6
CONTINUOUS
  5
1F8
 10
369.940412
 20
285.087598
 30
0.0
 11
372.440412
 21
287.587598
 31
0.0
  0
LINE
  8
LC-002-005-----0
  6
CONTINUOUS
  5
1F9
 10
367.111985
 20
285.087598
 30
0.0
 11
369.611985
 21
287.587598
 31
0.0
  0
LINE
  8
LC-002-005-----0
  6
CONTINUOUS
  5
1FA
 10
364.283557
 20
285.087598
 30
0.0
 11
366.783557
 21
287.587598
 31
0.0
  0
LINE
  8
LC-002-005-----0
  6
CONTINUOUS
  5
1FB
 10
361.45513
 20
285.087598
 30
0.0
 11
363.95513
 21
287.587598
 31
0.0
  0
LINE
  8
LC-002-005-----0
  6
CONTINUOUS
  5
1FC
 10
358.626703
 20
285.087598
 30
0.0
 11
361.126703
 21
287.587598
 31
0.0
  0
LINE
  8
LC-002-005-----0
  6
CONTINUOUS
  5
1FD
 10
355.798276
 20
285.087598
 30
0.0
 11
358.298276
 21
287.587598
 31
0.0
  0
LINE
  8
LC-002-005-----0
  6
CONTINUOUS
  5
1FE
 10
352.969849
 20
285.087598
 30
0.0
 11
355.469849
 21
287.587598
 31
0.0
  0
LINE
  8
LC-002-005-----0
  6
CONTINUOUS
  5
1FF
 10
350.141422
 20
285.087598
 30
0.0
 11
352.641422
 21
287.587598
 31
0.0
  0
LINE
  8
LC-002-005-----0
  6
CONTINUOUS
  5
200
 10
347.312995
 20
285.087598
 30
0.0
 11
349.812995
 21
287.587598
 31
0.0
  0
LINE
  8
LC-002-005-----0
  6
CONTINUOUS
  5
201
 10
344.484568
 20
285.087598
 30
0.0
 11
346.984568
 21
287.587598
 31
0.0
  0
LINE
  8
LC-002-005-----0
  6
CONTINUOUS
  5
202
 10
341.65614
 20
285.087598
 30
0.0
 11
344.15614
 21
287.587598
 31
0.0
  0
LINE
  8
LC-002-005-----0
  6
CONTINUOUS
  5
203
 10
338.827713
 20
285.087598
 30
0.0
 11
341.327713
 21
287.587598
 31
0.0
  0
LINE
  8
LC-002-005-----0
  6
CONTINUOUS
  5
204
 10
335.999286
 20
285.087598
 30
0.0
 11
338.499286
 21
287.587598
 31
0.0
  0
LINE
  8
LC-002-005-----0
  6
CONTINUOUS
  5
205
 10
333.170859
 20
285.087598
 30
0.0
 11
335.670859
 21
287.587598
 31
0.0
  0
LINE
  8
LC-002-005-----0
  6
CONTINUOUS
  5
206
 10
330.342432
 20
285.087598
 30
0.0
 11
332.842432
 21
287.587598
 31
0.0
  0
LINE
  8
LC-002-005-----0
  6
CONTINUOUS
  5
207
 10
327.514005
 20
285.087598
 30
0.0
 11
330.014005
 21
287.587598
 31
0.0
  0
LINE
  8
LC-002-005-----0
  6
CONTINUOUS
  5
208
 10
324.685578
 20
285.087598
 30
0.0
 11
327.185578
 21
287.587598
 31
0.0
  0
LINE
  8
LC-002-005-----0
  6
CONTINUOUS
  5
209
 10
321.857151
 20
285.087598
 30
0.0
 11
324.357151
 21
287.587598
 31
0.0
  0
LINE
  8
LC-002-005-----0
  6
CONTINUOUS
  5
20A
 10
319.028723
 20
285.087598
 30
0.0
 11
321.528723
 21
287.587598
 31
0.0
  0
LINE
  8
LC-002-005-----0
  6
CONTINUOUS
  5
20B
 10
316.200296
 20
285.087598
 30
0.0
 11
318.700296
 21
287.587598
 31
0.0
  0
LINE
  8
LC-002-005-----0
  6
CONTINUOUS
  5
20C
 10
313.371869
 20
285.087598
 30
0.0
 11
315.871869
 21
287.587598
 31
0.0
  0
LINE
  8
LC-002-005-----0
  6
CONTINUOUS
  5
20D
 10
310.543442
 20
285.087598
 30
0.0
 11
313.043442
 21
287.587598
 31
0.0
  0
LINE
  8
LC-002-005-----0
  6
CONTINUOUS
  5
20E
 10
307.715015
 20
285.087598
 30
0.0
 11
310.215015
 21
287.587598
 31
0.0
  0
LINE
  8
LC-002-005-----0
  6
CONTINUOUS
  5
20F
 10
304.886588
 20
285.087598
 30
0.0
 11
307.386588
 21
287.587598
 31
0.0
  0
LINE
  8
LC-002-005-----0
  6
CONTINUOUS
  5
210
 10
302.058161
 20
285.087598
 30
0.0
 11
304.558161
 21
287.587598
 31
0.0
  0
LINE
  8
LC-002-005-----0
  6
CONTINUOUS
  5
211
 10
299.229734
 20
285.087598
 30
0.0
 11
301.729734
 21
287.587598
 31
0.0
  0
LINE
  8
LC-002-005-----0
  6
CONTINUOUS
  5
212
 10
296.401306
 20
285.087598
 30
0.0
 11
298.748621
 21
287.434912
 31
0.0
  0
ENDBLK
  8
0
  5
213
  0
BLOCK
  8
0
  5
215
  2
*X22
 70
    65
 10
296.318452
 20
239.587598
 30
0.0
  3
*X22
  0
LINE
  8
LC-002-005-----0
  6
CONTINUOUS
  5
216
 10
474.957915
 20
243.026891
 30
0.0
 11
476.318452
 21
244.387427
 31
0.0
  0
LINE
  8
LC-002-005-----0
  6
CONTINUOUS
  5
217
 10
471.690195
 20
242.587598
 30
0.0
 11
474.190195
 21
245.087598
 31
0.0
  0
LINE
  8
LC-002-005-----0
  6
CONTINUOUS
  5
218
 10
468.861768
 20
242.587598
 30
0.0
 11
471.361768
 21
245.087598
 31
0.0
  0
LINE
  8
LC-002-005-----0
  6
CONTINUOUS
  5
219
 10
466.033341
 20
242.587598
 30
0.0
 11
468.533341
 21
245.087598
 31
0.0
  0
LINE
  8
LC-002-005-----0
  6
CONTINUOUS
  5
21A
 10
463.204914
 20
242.587598
 30
0.0
 11
465.704914
 21
245.087598
 31
0.0
  0
LINE
  8
LC-002-005-----0
  6
CONTINUOUS
  5
21B
 10
457.376487
 20
239.587598
 30
0.0
 11
458.318452
 21
240.529563
 31
0.0
  0
LINE
  8
LC-002-005-----0
  6
CONTINUOUS
  5
21C
 10
460.376487
 20
242.587598
 30
0.0
 11
462.876487
 21
245.087598
 31
0.0
  0
LINE
  8
LC-002-005-----0
  6
CONTINUOUS
  5
21D
 10
456.318452
 20
241.35799
 30
0.0
 11
460.048059
 21
245.087598
 31
0.0
  0
LINE
  8
LC-002-005-----0
  6
CONTINUOUS
  5
21E
 10
454.719632
 20
242.587598
 30
0.0
 11
457.219632
 21
245.087598
 31
0.0
  0
LINE
  8
LC-002-005-----0
  6
CONTINUOUS
  5
21F
 10
451.891205
 20
242.587598
 30
0.0
 11
454.391205
 21
245.087598
 31
0.0
  0
LINE
  8
LC-002-005-----0
  6
CONTINUOUS
  5
220
 10
449.062778
 20
242.587598
 30
0.0
 11
451.562778
 21
245.087598
 31
0.0
  0
LINE
  8
LC-002-005-----0
  6
CONTINUOUS
  5
221
 10
446.234351
 20
242.587598
 30
0.0
 11
448.734351
 21
245.087598
 31
0.0
  0
LINE
  8
LC-002-005-----0
  6
CONTINUOUS
  5
222
 10
443.405924
 20
242.587598
 30
0.0
 11
445.905924
 21
245.087598
 31
0.0
  0
LINE
  8
LC-002-005-----0
  6
CONTINUOUS
  5
223
 10
440.577497
 20
242.587598
 30
0.0
 11
443.077497
 21
245.087598
 31
0.0
  0
LINE
  8
LC-002-005-----0
  6
CONTINUOUS
  5
224
 10
437.74907
 20
242.587598
 30
0.0
 11
440.24907
 21
245.087598
 31
0.0
  0
LINE
  8
LC-002-005-----0
  6
CONTINUOUS
  5
225
 10
434.920642
 20
242.587598
 30
0.0
 11
437.420642
 21
245.087598
 31
0.0
  0
LINE
  8
LC-002-005-----0
  6
CONTINUOUS
  5
226
 10
432.092215
 20
242.587598
 30
0.0
 11
434.592215
 21
245.087598
 31
0.0
  0
LINE
  8
LC-002-005-----0
  6
CONTINUOUS
  5
227
 10
429.263788
 20
242.587598
 30
0.0
 11
431.763788
 21
245.087598
 31
0.0
  0
LINE
  8
LC-002-005-----0
  6
CONTINUOUS
  5
228
 10
426.435361
 20
242.587598
 30
0.0
 11
428.935361
 21
245.087598
 31
0.0
  0
LINE
  8
LC-002-005-----0
  6
CONTINUOUS
  5
229
 10
423.606934
 20
242.587598
 30
0.0
 11
426.106934
 21
245.087598
 31
0.0
  0
LINE
  8
LC-002-005-----0
  6
CONTINUOUS
  5
22A
 10
420.778507
 20
242.587598
 30
0.0
 11
423.278507
 21
245.087598
 31
0.0
  0
LINE
  8
LC-002-005-----0
  6
CONTINUOUS
  5
22B
 10
417.95008
 20
242.587598
 30
0.0
 11
420.45008
 21
245.087598
 31
0.0
  0
LINE
  8
LC-002-005-----0
  6
CONTINUOUS
  5
22C
 10
415.121653
 20
242.587598
 30
0.0
 11
417.621653
 21
245.087598
 31
0.0
  0
LINE
  8
LC-002-005-----0
  6
CONTINUOUS
  5
22D
 10
412.293225
 20
242.587598
 30
0.0
 11
414.793225
 21
245.087598
 31
0.0
  0
LINE
  8
LC-002-005-----0
  6
CONTINUOUS
  5
22E
 10
409.464798
 20
242.587598
 30
0.0
 11
411.964798
 21
245.087598
 31
0.0
  0
LINE
  8
LC-002-005-----0
  6
CONTINUOUS
  5
22F
 10
406.636371
 20
242.587598
 30
0.0
 11
409.136371
 21
245.087598
 31
0.0
  0
LINE
  8
LC-002-005-----0
  6
CONTINUOUS
  5
230
 10
403.807944
 20
242.587598
 30
0.0
 11
406.307944
 21
245.087598
 31
0.0
  0
LINE
  8
LC-002-005-----0
  6
CONTINUOUS
  5
231
 10
400.979517
 20
242.587598
 30
0.0
 11
403.479517
 21
245.087598
 31
0.0
  0
LINE
  8
LC-002-005-----0
  6
CONTINUOUS
  5
232
 10
398.15109
 20
242.587598
 30
0.0
 11
400.65109
 21
245.087598
 31
0.0
  0
LINE
  8
LC-002-005-----0
  6
CONTINUOUS
  5
233
 10
395.322663
 20
242.587598
 30
0.0
 11
397.822663
 21
245.087598
 31
0.0
  0
LINE
  8
LC-002-005-----0
  6
CONTINUOUS
  5
234
 10
392.494236
 20
242.587598
 30
0.0
 11
394.994236
 21
245.087598
 31
0.0
  0
LINE
  8
LC-002-005-----0
  6
CONTINUOUS
  5
235
 10
389.665808
 20
242.587598
 30
0.0
 11
392.165808
 21
245.087598
 31
0.0
  0
LINE
  8
LC-002-005-----0
  6
CONTINUOUS
  5
236
 10
386.837381
 20
242.587598
 30
0.0
 11
389.337381
 21
245.087598
 31
0.0
  0
LINE
  8
LC-002-005-----0
  6
CONTINUOUS
  5
237
 10
384.008954
 20
242.587598
 30
0.0
 11
386.508954
 21
245.087598
 31
0.0
  0
LINE
  8
LC-002-005-----0
  6
CONTINUOUS
  5
238
 10
381.180527
 20
242.587598
 30
0.0
 11
383.680527
 21
245.087598
 31
0.0
  0
LINE
  8
LC-002-005-----0
  6
CONTINUOUS
  5
239
 10
378.3521
 20
242.587598
 30
0.0
 11
380.8521
 21
245.087598
 31
0.0
  0
LINE
  8
LC-002-005-----0
  6
CONTINUOUS
  5
23A
 10
375.523673
 20
242.587598
 30
0.0
 11
378.023673
 21
245.087598
 31
0.0
  0
LINE
  8
LC-002-005-----0
  6
CONTINUOUS
  5
23B
 10
372.695246
 20
242.587598
 30
0.0
 11
375.195246
 21
245.087598
 31
0.0
  0
LINE
  8
LC-002-005-----0
  6
CONTINUOUS
  5
23C
 10
369.866819
 20
242.587598
 30
0.0
 11
372.366819
 21
245.087598
 31
0.0
  0
LINE
  8
LC-002-005-----0
  6
CONTINUOUS
  5
23D
 10
367.038391
 20
242.587598
 30
0.0
 11
369.538391
 21
245.087598
 31
0.0
  0
LINE
  8
LC-002-005-----0
  6
CONTINUOUS
  5
23E
 10
364.209964
 20
242.587598
 30
0.0
 11
366.709964
 21
245.087598
 31
0.0
  0
LINE
  8
LC-002-005-----0
  6
CONTINUOUS
  5
23F
 10
361.381537
 20
242.587598
 30
0.0
 11
363.881537
 21
245.087598
 31
0.0
  0
LINE
  8
LC-002-005-----0
  6
CONTINUOUS
  5
240
 10
358.55311
 20
242.587598
 30
0.0
 11
361.05311
 21
245.087598
 31
0.0
  0
LINE
  8
LC-002-005-----0
  6
CONTINUOUS
  5
241
 10
355.724683
 20
242.587598
 30
0.0
 11
358.224683
 21
245.087598
 31
0.0
  0
LINE
  8
LC-002-005-----0
  6
CONTINUOUS
  5
242
 10
352.896256
 20
242.587598
 30
0.0
 11
355.396256
 21
245.087598
 31
0.0
  0
LINE
  8
LC-002-005-----0
  6
CONTINUOUS
  5
243
 10
350.067829
 20
242.587598
 30
0.0
 11
352.567829
 21
245.087598
 31
0.0
  0
LINE
  8
LC-002-005-----0
  6
CONTINUOUS
  5
244
 10
347.239402
 20
242.587598
 30
0.0
 11
349.739402
 21
245.087598
 31
0.0
  0
LINE
  8
LC-002-005-----0
  6
CONTINUOUS
  5
245
 10
344.410974
 20
242.587598
 30
0.0
 11
346.910974
 21
245.087598
 31
0.0
  0
LINE
  8
LC-002-005-----0
  6
CONTINUOUS
  5
246
 10
341.582547
 20
242.587598
 30
0.0
 11
344.082547
 21
245.087598
 31
0.0
  0
LINE
  8
LC-002-005-----0
  6
CONTINUOUS
  5
247
 10
338.75412
 20
242.587598
 30
0.0
 11
341.25412
 21
245.087598
 31
0.0
  0
LINE
  8
LC-002-005-----0
  6
CONTINUOUS
  5
248
 10
335.925693
 20
242.587598
 30
0.0
 11
338.425693
 21
245.087598
 31
0.0
  0
LINE
  8
LC-002-005-----0
  6
CONTINUOUS
  5
249
 10
333.097266
 20
242.587598
 30
0.0
 11
335.597266
 21
245.087598
 31
0.0
  0
LINE
  8
LC-002-005-----0
  6
CONTINUOUS
  5
24A
 10
330.268839
 20
242.587598
 30
0.0
 11
332.768839
 21
245.087598
 31
0.0
  0
LINE
  8
LC-002-005-----0
  6
CONTINUOUS
  5
24B
 10
327.440412
 20
242.587598
 30
0.0
 11
329.940412
 21
245.087598
 31
0.0
  0
LINE
  8
LC-002-005-----0
  6
CONTINUOUS
  5
24C
 10
324.611985
 20
242.587598
 30
0.0
 11
327.111985
 21
245.087598
 31
0.0
  0
LINE
  8
LC-002-005-----0
  6
CONTINUOUS
  5
24D
 10
321.783557
 20
242.587598
 30
0.0
 11
324.283557
 21
245.087598
 31
0.0
  0
LINE
  8
LC-002-005-----0
  6
CONTINUOUS
  5
24E
 10
318.95513
 20
242.587598
 30
0.0
 11
321.45513
 21
245.087598
 31
0.0
  0
LINE
  8
LC-002-005-----0
  6
CONTINUOUS
  5
24F
 10
316.126703
 20
242.587598
 30
0.0
 11
318.626703
 21
245.087598
 31
0.0
  0
LINE
  8
LC-002-005-----0
  6
CONTINUOUS
  5
250
 10
313.298276
 20
242.587598
 30
0.0
 11
315.798276
 21
245.087598
 31
0.0
  0
LINE
  8
LC-002-005-----0
  6
CONTINUOUS
  5
251
 10
310.469849
 20
242.587598
 30
0.0
 11
312.969849
 21
245.087598
 31
0.0
  0
LINE
  8
LC-002-005-----0
  6
CONTINUOUS
  5
252
 10
307.641422
 20
242.587598
 30
0.0
 11
310.141422
 21
245.087598
 31
0.0
  0
LINE
  8
LC-002-005-----0
  6
CONTINUOUS
  5
253
 10
304.812995
 20
242.587598
 30
0.0
 11
307.312995
 21
245.087598
 31
0.0
  0
LINE
  8
LC-002-005-----0
  6
CONTINUOUS
  5
254
 10
301.984568
 20
242.587598
 30
0.0
 11
304.484568
 21
245.087598
 31
0.0
  0
LINE
  8
LC-002-005-----0
  6
CONTINUOUS
  5
255
 10
299.190441
 20
242.621898
 30
0.0
 11
301.65614
 21
245.087598
 31
0.0
  0
LINE
  8
LC-002-005-----0
  6
CONTINUOUS
  5
256
 10
296.959731
 20
243.219615
 30
0.0
 11
298.827713
 21
245.087598
 31
0.0
  0
ENDBLK
  8
0
  5
257
  0
ENDSEC
  0
SECTION
  2
ENTITIES
  0
VIEWPORT
  8
LC-000
  5
3AF
 67
     1
 68
     1
 10
420.0
 20
297.0
 30
0.0
 40
840.0
 41
594.0
 69
     1
1001
ACAD
1000
MVIEW
1002
{
1070
    16
1010
0.0
1020
0.0
1030
0.0
1010
0.0
1020
0.0
1030
1.0
1040
0.0
1040
594.0
1040
420.0
1040
297.0
1040
50.0
1040
0.0
1040
0.0
1070
     0
1070
   100
1070
     1
1070
     1
1070
     0
1070
     0
1070
     0
1070
     0
1040
0.0
1040
0.0
1040
0.0
1040
1.0
1040
1.0
1040
0.0
1040
0.0
1070
     0
1002
{
1002
}
1002
}
  0
VIEWPORT
  8
0
  5
3B0
 67
     1
 68
     1
 10
0.0
 20
0.0
 30
0.0
 40
0.0
 41
0.0
 69
     1
1001
ACAD
1000
MVIEW
1002
{
1070
    16
1010
0.0
1020
0.0
1030
0.0
1010
0.0
1020
0.0
1030
1.0
1040
0.0
1040
594.0
1040
0.0
1040
0.0
1040
50.0
1040
0.0
1040
0.0
1070
     0
1070
   100
1070
     0
1070
     1
1070
     0
1070
     0
1070
     0
1070
     0
1040
0.0
1040
0.0
1040
0.0
1040
0.5
1040
0.5
1040
0.5
1040
0.5
1070
     0
1002
{
1002
}
1002
}
  0
INSERT
  8
0
  5
259
  2
BLK1
 10
0.0
 20
0.0
 30
0.0
  0
INSERT
  8
0
  5
25A
  2
*X1
 10
522.818497
 20
325.423093
 30
0.0
  0
INSERT
  8
0
  5
25B
  2
*X2
 10
522.818408
 20
393.423093
 30
0.0
  0
INSERT
  8
0
  5
25C
  2
*X3
 10
438.996079
 20
213.308556
 30
0.0
  0
INSERT
  8
0
  5
25D
  2
*X4
 10
438.99599
 20
281.308556
 30
0.0
  0
INSERT
  8
0
  5
25E
  2
BLK2
 10
0.0
 20
0.0
 30
0.0
  0
INSERT
  8
0
  5
25F
  2
BLK3
 10
0.0
 20
0.0
 30
0.0
  0
INSERT
  8
0
  5
260
  2
*X7
 10
451.768394
 20
312.398033
 30
0.0
  0
INSERT
  8
0
  5
261
  2
*X8
 10
451.768394
 20
415.923033
 30
0.0
  0
INSERT
  8
0
  5
262
  2
*X9
 10
296.318452
 20
311.426079
 30
0.0
  0
INSERT
  8
0
  5
263
  2
*X10
 10
496.318417
 20
415.423059
 30
0.0
  0
INSERT
  8
0
  5
264
  2
*X11
 10
496.318437
 20
390.923077
 30
0.0
  0
INSERT
  8
0
  5
265
  2
*X12
 10
496.318506
 20
347.423059
 30
0.0
  0
INSERT
  8
0
  5
266
  2
*X13
 10
496.318526
 20
322.923077
 30
0.0
  0
DIMENSION
  8
0
  5
267
  2
*D14
 10
268.0
 20
370.062
 30
0.0
 11
268.0
 21
370.062
 31
0.0
  1
DN90
 13
315.316877
 23
330.237698
 33
0.0
 14
315.317119
 24
420.608365
 34
0.0
 50
90.0
  3
LC-DIM-L-0090-02-02
  0
DIMENSION
  8
0
  5
268
  2
*D15
 10
381.20421
 20
452.0
 30
0.0
 11
381.20421
 21
452.0
 31
0.0
  1
180
 13
296.318452
 23
418.209113
 33
0.0
 14
476.318394
 24
439.419986
 34
0.0
  3
LC-DIM-L-0090-02-02
  0
INSERT
  8
0
  5
269
  2
*X16
 10
296.318452
 20
418.20908
 30
0.0
  0
INSERT
  8
0
  5
26A
  2
*X17
 10
495.318452
 20
235.289019
 30
0.0
  0
INSERT
  8
0
  5
26C
  2
BLK4
 10
0.0
 20
0.0
 30
0.0
  0
INSERT
  8
0
  5
26D
  2
*X19
 10
459.788394
 20
316.423033
 30
0.0
  0
INSERT
  8
0
  5
26E
  2
*X20
 10
459.788394
 20
433.423033
 30
0.0
  0
INSERT
  8
0
  5
26F
  2
*X21
 10
296.318452
 20
285.087598
 30
0.0
  0
INSERT
  8
0
  5
270
  2
*X22
 10
296.318452
 20
239.587598
 30
0.0
  0
LINE
  8
LC-001-002-----0
  6
CONTINUOUS
  5
272
 10
476.318452
 20
286.78375
 30
0.0
 11
476.318452
 21
243.391446
 31
0.0
  0
LINE
  8
LC-002-005-----0
  6
CONTINUOUS
  5
273
 10
504.472426
 20
292.340392
 30
0.0
 11
505.717337
 21
293.585303
 31
0.0
  0
LINE
  8
LC-001-002-----0
  6
CONTINUOUS
  5
274
 10
520.318452
 20
241.287598
 30
0.0
 11
517.594867
 21
241.287598
 31
0.0
  0
LINE
  8
LC-001-002-----0
  6
CONTINUOUS
  5
275
 10
520.318452
 20
288.838598
 30
0.0
 11
520.318452
 21
241.287598
 31
0.0
  0
LINE
  8
LC-001-002-----0
  6
CONTINUOUS
  5
276
 10
495.318452
 20
244.287598
 30
0.0
 11
495.318452
 21
241.287598
 31
0.0
  0
LINE
  8
LC-001-002-----0
  6
CONTINUOUS
  5
277
 10
520.318452
 20
246.887598
 30
0.0
 11
517.118452
 21
246.887598
 31
0.0
  0
LINE
  8
LC-001-002-----0
  6
CONTINUOUS
  5
278
 10
517.118452
 20
246.887598
 30
0.0
 11
517.118452
 21
244.387598
 31
0.0
  0
LINE
  8
LC-001-002-----0
  6
CONTINUOUS
  5
279
 10
517.018452
 20
244.287598
 30
0.0
 11
513.818452
 21
244.287598
 31
0.0
  0
LINE
  8
LC-001-002-----0
  6
CONTINUOUS
  5
27A
 10
498.818452
 20
241.187598
 30
0.0
 11
498.818452
 21
235.389019
 31
0.0
  0
ARC
  8
LC-003-002-RND-0
  6
CONTINUOUS
  5
27C
 10
498.918452
 20
235.389019
 30
0.0
 40
0.1
 50
180.0
 51
315.0
  0
ARC
  8
LC-003-002-RND-0
  6
CONTINUOUS
  5
27D
 10
501.027047
 20
241.187598
 30
0.0
 40
0.1
 50
90.0
 51
170.0
  0
LINE
  8
LC-001-002-----0
  6
CONTINUOUS
  5
27E
 10
498.989162
 20
235.318309
 30
0.0
 11
500.061268
 21
236.390414
 31
0.0
  0
LINE
  8
LC-001-002-----0
  6
CONTINUOUS
  5
27F
 10
498.718452
 20
241.287598
 30
0.0
 11
495.318452
 21
241.287598
 31
0.0
  0
LINE
  8
LC-001-002-----0
  6
CONTINUOUS
  5
280
 10
500.928567
 20
241.204963
 30
0.0
 11
500.089038
 21
236.44376
 31
0.0
  0
LINE
  8
LC-001-002-----0
  6
CONTINUOUS
  5
281
 10
504.418452
 20
241.187598
 30
0.0
 11
504.418452
 21
235.389019
 31
0.0
  0
ARC
  8
LC-003-002-RND-0
  6
CONTINUOUS
  5
282
 10
504.518452
 20
235.389019
 30
0.0
 40
0.1
 50
180.0
 51
315.0
  0
ARC
  8
LC-003-002-RND-0
  6
CONTINUOUS
  5
283
 10
499.990557
 20
236.461125
 30
0.0
 40
0.1
 50
315.0
 51
350.0
  0
LINE
  8
LC-001-002-----0
  6
CONTINUOUS
  5
284
 10
504.589162
 20
235.318309
 30
0.0
 11
505.661268
 21
236.390414
 31
0.0
  0
LINE
  8
LC-001-002-----0
  6
CONTINUOUS
  5
285
 10
506.528567
 20
241.204963
 30
0.0
 11
505.689038
 21
236.44376
 31
0.0
  0
ARC
  8
LC-003-002-RND-0
  6
CONTINUOUS
  5
286
 10
505.590557
 20
236.461125
 30
0.0
 40
0.1
 50
315.0
 51
350.0
  0
LINE
  8
LC-001-002-----0
  6
CONTINUOUS
  5
287
 10
510.018452
 20
241.187598
 30
0.0
 11
510.018452
 21
235.389019
 31
0.0
  0
ARC
  8
LC-003-002-RND-0
  6
CONTINUOUS
  5
288
 10
510.118452
 20
235.389019
 30
0.0
 40
0.1
 50
180.0
 51
315.0
  0
LINE
  8
LC-001-002-----0
  6
CONTINUOUS
  5
289
 10
510.189162
 20
235.318309
 30
0.0
 11
511.261268
 21
236.390414
 31
0.0
  0
LINE
  8
LC-001-002-----0
  6
CONTINUOUS
  5
28A
 10
512.128567
 20
241.204963
 30
0.0
 11
511.289038
 21
236.44376
 31
0.0
  0
ARC
  8
LC-003-002-RND-0
  6
CONTINUOUS
  5
28B
 10
511.190557
 20
236.461125
 30
0.0
 40
0.1
 50
315.0
 51
350.0
  0
LINE
  8
LC-001-002-----0
  6
CONTINUOUS
  5
28C
 10
515.218452
 20
241.187598
 30
0.0
 11
515.218452
 21
235.389019
 31
0.0
  0
ARC
  8
LC-003-002-RND-0
  6
CONTINUOUS
  5
28D
 10
515.318452
 20
235.389019
 30
0.0
 40
0.1
 50
180.0
 51
315.0
  0
LINE
  8
LC-001-002-----0
  6
CONTINUOUS
  5
28E
 10
515.389162
 20
235.318309
 30
0.0
 11
516.461268
 21
236.390414
 31
0.0
  0
LINE
  8
LC-001-002-----0
  6
CONTINUOUS
  5
28F
 10
517.299425
 20
241.039692
 30
0.0
 11
516.489038
 21
236.44376
 31
0.0
  0
ARC
  8
LC-003-002-RND-0
  6
CONTINUOUS
  5
290
 10
516.390557
 20
236.461125
 30
0.0
 40
0.1
 50
315.0
 51
350.0
  0
LINE
  8
LC-001-002-----0
  6
CONTINUOUS
  5
291
 10
515.118452
 20
241.287598
 30
0.0
 11
512.227047
 21
241.287598
 31
0.0
  0
LINE
  8
LC-001-002-----0
  6
CONTINUOUS
  5
292
 10
509.918452
 20
241.287598
 30
0.0
 11
506.627047
 21
241.287598
 31
0.0
  0
LINE
  8
LC-001-002-----0
  6
CONTINUOUS
  5
293
 10
504.318452
 20
241.287598
 30
0.0
 11
501.027047
 21
241.287598
 31
0.0
  0
ARC
  8
LC-003-002-RND-0
  6
CONTINUOUS
  5
294
 10
498.718452
 20
241.187598
 30
0.0
 40
0.1
 50
0.0
 51
90.0
  0
ARC
  8
LC-003-002-RND-0
  6
CONTINUOUS
  5
295
 10
504.318452
 20
241.187598
 30
0.0
 40
0.1
 50
0.0
 51
90.0
  0
ARC
  8
LC-003-002-RND-0
  6
CONTINUOUS
  5
296
 10
506.627047
 20
241.187598
 30
0.0
 40
0.1
 50
90.0
 51
170.0
  0
ARC
  8
LC-003-002-RND-0
  6
CONTINUOUS
  5
297
 10
509.918452
 20
241.187598
 30
0.0
 40
0.1
 50
0.0
 51
90.0
  0
LINE
  8
LC-001-002-----0
  6
CONTINUOUS
  5
298
 10
496.318417
 20
418.423059
 30
0.0
 11
496.318441
 21
400.423059
 31
0.0
  0
LINE
  8
LC-001-002-----0
  6
CONTINUOUS
  5
299
 10
496.318441
 20
400.423059
 30
0.0
 11
508.318441
 21
400.423074
 31
0.0
  0
LINE
  8
LC-001-002-----0
  6
CONTINUOUS
  5
29A
 10
508.318417
 20
418.423074
 30
0.0
 11
496.318417
 21
418.423059
 31
0.0
  0
LINE
  8
LC-001-002-----0
  6
CONTINUOUS
  5
29B
 10
512.818408
 20
425.42308
 30
0.0
 11
512.81845
 21
393.42308
 31
0.0
  0
LINE
  8
LC-001-002-----0
  6
CONTINUOUS
  5
29C
 10
508.31845
 20
393.423074
 30
0.0
 11
508.318441
 21
400.423074
 31
0.0
  0
LINE
  8
LC-001-002-----0
  6
CONTINUOUS
  5
29D
 10
508.318417
 20
418.423074
 30
0.0
 11
508.318408
 21
425.423074
 31
0.0
  0
LINE
  8
LC-001-002-----0
  6
CONTINUOUS
  5
29E
 10
496.318421
 20
415.423059
 30
0.0
 11
512.818421
 21
415.42308
 31
0.0
  0
LINE
  8
LC-001-002-----0
  6
CONTINUOUS
  5
29F
 10
496.318437
 20
403.423059
 30
0.0
 11
512.818437
 21
403.42308
 31
0.0
  0
LINE
  8
LC-001-002-----0
  6
CONTINUOUS
  5
2A0
 10
508.31845
 20
393.423074
 30
0.0
 11
510.568453
 21
390.923077
 31
0.0
  0
LINE
  8
LC-001-002-----0
  6
CONTINUOUS
  5
2A1
 10
510.568453
 20
390.923077
 30
0.0
 11
512.81845
 21
393.42308
 31
0.0
  0
LINE
  8
LC-001-002-----0
  6
CONTINUOUS
  5
2A2
 10
508.318408
 20
425.423074
 30
0.0
 11
510.568405
 21
427.923077
 31
0.0
  0
LINE
  8
LC-001-002-----0
  6
CONTINUOUS
  5
2A3
 10
510.568405
 20
427.923077
 30
0.0
 11
512.818408
 21
425.42308
 31
0.0
  0
LINE
  8
LC-001-002-----0
  6
CONTINUOUS
  5
2A4
 10
522.81845
 20
393.423093
 30
0.0
 11
524.81845
 21
393.423096
 31
0.0
  0
LINE
  8
LC-001-002-----0
  6
CONTINUOUS
  5
2A5
 10
524.81845
 20
393.423096
 30
0.0
 11
524.818408
 21
425.423096
 31
0.0
  0
LINE
  8
LC-001-002-----0
  6
CONTINUOUS
  5
2A6
 10
524.818408
 20
425.423096
 30
0.0
 11
522.818408
 21
425.423093
 31
0.0
  0
LINE
  8
LC-001-002-----0
  6
CONTINUOUS
  5
2A7
 10
522.818421
 20
415.923093
 30
0.0
 11
524.818421
 21
415.923096
 31
0.0
  0
LINE
  8
LC-001-002-----0
  6
CONTINUOUS
  5
2A8
 10
522.818438
 20
402.923093
 30
0.0
 11
524.818438
 21
402.923096
 31
0.0
  0
LINE
  8
LC-001-002-----0
  6
CONTINUOUS
  5
2A9
 10
496.318506
 20
350.423059
 30
0.0
 11
496.31853
 21
332.423059
 31
0.0
  0
LINE
  8
LC-001-002-----0
  6
CONTINUOUS
  5
2AA
 10
496.31853
 20
332.423059
 30
0.0
 11
508.31853
 21
332.423074
 31
0.0
  0
LINE
  8
LC-001-002-----0
  6
CONTINUOUS
  5
2AB
 10
508.318506
 20
350.423074
 30
0.0
 11
496.318506
 21
350.423059
 31
0.0
  0
LINE
  8
LC-001-002-----0
  6
CONTINUOUS
  5
2AC
 10
512.818497
 20
357.42308
 30
0.0
 11
512.818539
 21
325.42308
 31
0.0
  0
LINE
  8
LC-001-002-----0
  6
CONTINUOUS
  5
2AD
 10
508.318539
 20
325.423074
 30
0.0
 11
508.31853
 21
332.423074
 31
0.0
  0
LINE
  8
LC-001-002-----0
  6
CONTINUOUS
  5
2AE
 10
508.318506
 20
350.423074
 30
0.0
 11
508.318497
 21
357.423074
 31
0.0
  0
LINE
  8
LC-001-002-----0
  6
CONTINUOUS
  5
2AF
 10
496.31851
 20
347.423059
 30
0.0
 11
512.81851
 21
347.42308
 31
0.0
  0
LINE
  8
LC-001-002-----0
  6
CONTINUOUS
  5
2B0
 10
496.318526
 20
335.423059
 30
0.0
 11
512.818526
 21
335.42308
 31
0.0
  0
LINE
  8
LC-001-002-----0
  6
CONTINUOUS
  5
2B1
 10
508.318539
 20
325.423074
 30
0.0
 11
510.568542
 21
322.923077
 31
0.0
  0
LINE
  8
LC-001-002-----0
  6
CONTINUOUS
  5
2B2
 10
510.568542
 20
322.923077
 30
0.0
 11
512.818539
 21
325.42308
 31
0.0
  0
LINE
  8
LC-001-002-----0
  6
CONTINUOUS
  5
2B3
 10
508.318497
 20
357.423074
 30
0.0
 11
510.568494
 21
359.923077
 31
0.0
  0
LINE
  8
LC-001-002-----0
  6
CONTINUOUS
  5
2B4
 10
510.568494
 20
359.923077
 30
0.0
 11
512.818497
 21
357.42308
 31
0.0
  0
LINE
  8
LC-001-002-----0
  6
CONTINUOUS
  5
2B5
 10
522.818497
 20
357.423093
 30
0.0
 11
522.818539
 21
325.423093
 31
0.0
  0
LINE
  8
LC-001-002-----0
  6
CONTINUOUS
  5
2B6
 10
522.818539
 20
325.423093
 30
0.0
 11
524.818539
 21
325.423096
 31
0.0
  0
LINE
  8
LC-001-002-----0
  6
CONTINUOUS
  5
2B7
 10
524.818539
 20
325.423096
 30
0.0
 11
524.818497
 21
357.423096
 31
0.0
  0
LINE
  8
LC-001-002-----0
  6
CONTINUOUS
  5
2B8
 10
524.818497
 20
357.423096
 30
0.0
 11
522.818497
 21
357.423093
 31
0.0
  0
LINE
  8
LC-001-002-----0
  6
CONTINUOUS
  5
2B9
 10
522.81851
 20
347.923093
 30
0.0
 11
524.81851
 21
347.923096
 31
0.0
  0
LINE
  8
LC-001-002-----0
  6
CONTINUOUS
  5
2BA
 10
522.818527
 20
334.923093
 30
0.0
 11
524.818527
 21
334.923096
 31
0.0
  0
LINE
  8
LC-001-002-----0
  6
CONTINUOUS
  5
2BB
 10
296.318452
 20
419.536939
 30
0.0
 11
296.318452
 21
331.309119
 31
0.0
  0
ARC
  8
LC-001-002-----0
  6
CONTINUOUS
  5
2BC
 10
514.885649
 20
357.198079
 30
0.0
 40
75.889523
 50
49.786264
 51
74.772349
  0
ARC
  8
LC-001-002-----0
  6
CONTINUOUS
  5
2BD
 10
559.040714
 20
409.423141
 30
0.0
 40
7.5
 50
310.213886
 51
49.786264
  0
ARC
  8
LC-001-002-----0
  6
CONTINUOUS
  5
2BE
 10
514.885513
 20
461.648087
 30
0.0
 40
75.889523
 50
285.227801
 51
310.213886
  0
ARC
  8
LC-001-002-----0
  6
CONTINUOUS
  5
2BF
 10
514.885649
 20
357.198079
 30
0.0
 40
73.39
 50
49.785791
 51
74.240476
  0
ARC
  8
LC-001-002-----0
  6
CONTINUOUS
  5
2C0
 10
514.885513
 20
461.648087
 30
0.0
 40
73.39
 50
285.759674
 51
310.214359
  0
ARC
  8
LC-001-002-----0
  6
CONTINUOUS
  5
2C1
 10
559.041453
 20
409.423141
 30
0.0
 40
5.0
 50
310.214359
 51
49.785791
  0
LINE
  8
LC-001-002-----0
  6
CONTINUOUS
  5
2C2
 10
534.818453
 20
391.016862
 30
0.0
 11
534.818457
 21
388.423109
 31
0.0
  0
LINE
  8
LC-001-002-----0
  6
CONTINUOUS
  5
2C3
 10
534.818402
 20
430.423109
 30
0.0
 11
534.818453
 21
391.016862
 31
0.0
  0
ARC
  8
LC-001-002-----0
  6
CONTINUOUS
  5
2C4
 10
514.885602
 20
393.648087
 30
0.0
 40
75.889523
 50
285.227801
 51
310.213886
  0
ARC
  8
LC-001-002-----0
  6
CONTINUOUS
  5
2C5
 10
514.885602
 20
393.648087
 30
0.0
 40
73.39
 50
285.759674
 51
310.214359
  0
LINE
  8
LC-001-002-----0
  6
CONTINUOUS
  5
2C6
 10
534.818542
 20
323.016862
 30
0.0
 11
534.818545
 21
320.423109
 31
0.0
  0
LINE
  8
LC-001-002-----0
  6
CONTINUOUS
  5
2C7
 10
534.818491
 20
362.423109
 30
0.0
 11
534.818542
 21
323.016862
 31
0.0
  0
ARC
  8
LC-001-002-----0
  6
CONTINUOUS
  5
2C8
 10
559.041542
 20
341.423141
 30
0.0
 40
5.0
 50
310.214359
 51
49.785791
  0
ARC
  8
LC-001-002-----0
  6
CONTINUOUS
  5
2C9
 10
559.040803
 20
341.423141
 30
0.0
 40
7.5
 50
310.213886
 51
49.786264
  0
ARC
  8
LC-001-002-----0
  6
CONTINUOUS
  5
2CA
 10
514.885738
 20
289.198079
 30
0.0
 40
73.39
 50
49.785791
 51
74.240476
  0
ARC
  8
LC-001-002-----0
  6
CONTINUOUS
  5
2CB
 10
514.885738
 20
289.198079
 30
0.0
 40
75.889523
 50
49.786264
 51
74.772349
  0
LINE
  8
LC-001-002-----0
  6
CONTINUOUS
  5
2CC
 10
522.818408
 20
425.423093
 30
0.0
 11
522.81845
 21
393.423093
 31
0.0
  0
LINE
  8
LC-001-002-----0
  6
CONTINUOUS
  5
2CD
 10
299.318452
 20
287.587598
 30
0.0
 11
456.318452
 21
287.587598
 31
0.0
  0
LINE
  8
LC-001-002-----0
  6
CONTINUOUS
  5
2CE
 10
296.318452
 20
285.087598
 30
0.0
 11
476.318452
 21
285.087598
 31
0.0
  0
LINE
  8
LC-001-002-----0
  6
CONTINUOUS
  5
2CF
 10
476.318452
 20
245.087598
 30
0.0
 11
296.318452
 21
245.087598
 31
0.0
  0
LINE
  8
LC-001-002-----0
  6
CONTINUOUS
  5
2D0
 10
473.318452
 20
242.587598
 30
0.0
 11
458.318452
 21
242.587598
 31
0.0
  0
LINE
  8
LC-001-002-----0
  6
CONTINUOUS
  5
2D1
 10
466.509871
 20
316.816845
 30
0.0
 11
467.814048
 21
329.02922
 31
0.0
  0
LINE
  8
LC-001-002-----0
  6
CONTINUOUS
  5
2D2
 10
428.98
 20
424.654624
 30
0.0
 11
430.223758
 21
431.708329
 31
0.0
  0
LINE
  8
LC-001-002-----0
  6
CONTINUOUS
  5
2D3
 10
473.169014
 20
316.503033
 30
0.0
 11
473.169014
 21
434.343033
 31
0.0
  0
LINE
  8
LC-001-002-----0
  6
CONTINUOUS
  5
2D4
 10
472.593774
 20
316.503033
 30
0.0
 11
472.593774
 21
434.343033
 31
0.0
  0
ARC
  8
LC-001-002-----0
  6
CONTINUOUS
  5
2D5
 10
468.808394
 20
421.923033
 30
0.0
 40
1.0
 50
186.094124
 51
0.001472
  0
LINE
  8
LC-001-002-----0
  6
CONTINUOUS
  5
2D6
 10
469.808394
 20
328.923007
 30
0.0
 11
469.808394
 21
435.804907
 31
0.0
  0
ARC
  8
LC-003-002-RND-0
  6
CONTINUOUS
  5
2D7
 10
460.061263
 20
316.923033
 30
0.0
 40
1.0
 50
185.0
 51
270.0
  0
LINE
  8
LC-001-002-----0
  6
CONTINUOUS
  5
2D8
 10
459.064117
 20
316.847534
 30
0.0
 11
457.76554
 21
333.998531
 31
0.0
  0
ARC
  8
LC-003-002-RND-0
  6
CONTINUOUS
  5
2D9
 10
456.768394
 20
333.923033
 30
0.0
 40
1.0
 50
5.0
 51
180.0
  0
LINE
  8
LC-001-002-----0
  6
CONTINUOUS
  5
2DA
 10
455.768394
 20
333.923033
 30
0.0
 11
455.768394
 21
419.081014
 31
0.0
  0
LINE
  8
LC-001-002-----0
  6
CONTINUOUS
  5
2DB
 10
466.509871
 20
434.02922
 30
0.0
 11
467.814048
 21
421.816845
 31
0.0
  0
LINE
  8
LC-001-002-----0
  6
CONTINUOUS
  5
2DC
 10
426.535362
 20
424.611446
 30
0.0
 11
427.869918
 21
432.180085
 31
0.0
  0
LINE
  8
LC-001-002-----0
  6
CONTINUOUS
  5
2DD
 10
460.061263
 20
434.923033
 30
0.0
 11
465.515525
 21
434.923033
 31
0.0
  0
ARC
  8
LC-003-002-RND-0
  6
CONTINUOUS
  5
2DE
 10
465.515525
 20
433.923033
 30
0.0
 40
1.0
 50
5.0
 51
90.0
  0
LINE
  8
LC-001-002-----0
  6
CONTINUOUS
  5
2DF
 10
467.814048
 20
421.816845
 30
0.0
 11
467.814048
 21
375.423033
 31
0.0
  0
LINE
  8
LC-001-002-----0
  6
CONTINUOUS
  5
2E0
 10
459.064117
 20
433.998531
 30
0.0
 11
457.76554
 21
416.847534
 31
0.0
  0
ARC
  8
LC-003-002-RND-0
  6
CONTINUOUS
  5
2E1
 10
456.768394
 20
416.923033
 30
0.0
 40
1.0
 50
180.0
 51
355.0
  0
LINE
  8
LC-001-002-----0
  6
CONTINUOUS
  5
2E2
 10
457.764589
 20
333.998531
 30
0.0
 11
457.764589
 21
416.847534
 31
0.0
  0
LINE
  8
LC-001-002-----0
  6
CONTINUOUS
 62
     2
  5
2E3
 10
459.065069
 20
316.835877
 30
0.0
 11
459.065069
 21
433.923033
 31
0.0
  0
LINE
  8
LC-001-002-----0
  6
CONTINUOUS
 62
     2
  5
2E4
 10
466.51172
 20
434.010188
 30
0.0
 11
466.51172
 21
316.835877
 31
0.0
  0
LINE
  8
LC-001-002-----0
  6
CONTINUOUS
  5
2E5
 10
467.814048
 20
329.02922
 30
0.0
 11
467.814048
 21
375.423033
 31
0.0
  0
LINE
  8
LC-001-002-----0
  6
CONTINUOUS
  5
2E6
 10
455.768394
 20
314.898033
 30
0.0
 11
455.768394
 21
333.923033
 31
0.0
  0
LINE
  8
LC-001-002-----0
  6
CONTINUOUS
  5
2E7
 10
451.768394
 20
314.898033
 30
0.0
 11
455.768394
 21
314.898033
 31
0.0
  0
ARC
  8
LC-001-002-----0
  6
CONTINUOUS
  5
2E8
 10
468.808394
 20
328.923033
 30
0.0
 40
1.0
 50
359.998528
 51
173.905876
  0
LINE
  8
LC-001-002-----0
  6
CONTINUOUS
  5
2E9
 10
451.768394
 20
435.948033
 30
0.0
 11
455.768394
 21
435.948033
 31
0.0
  0
LINE
  8
LC-001-002-----0
  6
CONTINUOUS
  5
2EA
 10
455.768394
 20
435.948033
 30
0.0
 11
455.768394
 21
416.923033
 31
0.0
  0
ARC
  8
LC-003-002-RND-0
  6
CONTINUOUS
  5
2EB
 10
460.061263
 20
433.923033
 30
0.0
 40
1.0
 50
90.0
 51
175.0
  0
ARC
  8
LC-003-002-RND-0
  6
CONTINUOUS
  5
2EC
 10
432.203072
 20
431.416033
 30
0.0
 40
4.4
 50
90.0
 51
170.0
  0
LINE
  8
LC-005-001-----0
  6
CONTINUOUS
  5
2EE
 10
448.331394
 20
435.816033
 30
0.0
 11
432.203072
 21
435.816033
 31
0.0
  0
ARC
  8
LC-003-002-RND-0
  6
CONTINUOUS
  5
2EF
 10
432.193374
 20
431.361033
 30
0.0
 40
2.0
 50
90.0
 51
170.0
  0
LINE
  8
LC-005-001-----0
  6
CONTINUOUS
  5
2F0
 10
451.768394
 20
433.361033
 30
0.0
 11
432.193374
 21
433.361033
 31
0.0
  0
ARC
  8
LC-003-002-RND-0
  6
CONTINUOUS
  5
2F1
 10
421.298499
 20
426.00908
 30
0.0
 40
7.8
 50
269.999985
 51
350.0
  0
LINE
  8
LC-001-002-----0
  6
CONTINUOUS
  5
2F2
 10
451.768394
 20
438.448033
 30
0.0
 11
467.165269
 21
438.448033
 31
0.0
  0
LINE
  8
LC-005-001-----0
  6
CONTINUOUS
  5
2F3
 10
300.317176
 20
330.2377
 30
0.0
 11
421.318394
 21
330.237734
 31
0.0
  0
ARC
  8
LC-003-002-RND-0
  6
CONTINUOUS
  5
2F4
 10
421.298499
 20
324.836985
 30
0.0
 40
7.8
 50
10.0
 51
90.000015
  0
LINE
  8
LC-005-001-----0
  6
CONTINUOUS
  5
2F5
 10
476.318394
 20
320.267749
 30
0.0
 11
476.318394
 21
315.142563
 31
0.0
  0
ARC
  8
LC-005-001-----0
  6
CONTINUOUS
  5
2F6
 10
421.318398
 20
324.836734
 30
0.0
 40
5.401
 50
15.000046
 51
90.0
  0
LINE
  8
LC-001-002-----0
  6
CONTINUOUS
  5
2F7
 10
426.535362
 20
326.234619
 30
0.0
 11
427.869918
 21
318.665981
 31
0.0
  0
LINE
  8
LC-001-002-----0
  6
CONTINUOUS
  5
2F8
 10
428.98
 20
326.191441
 30
0.0
 11
430.223758
 21
319.137736
 31
0.0
  0
ARC
  8
LC-003-002-RND-0
  6
CONTINUOUS
  5
2F9
 10
432.203072
 20
319.430033
 30
0.0
 40
4.4
 50
190.0
 51
270.0
  0
ARC
  8
LC-003-002-RND-0
  6
CONTINUOUS
  5
2FA
 10
432.193374
 20
319.485033
 30
0.0
 40
2.0
 50
190.0
 51
270.0
  0
LINE
  8
LC-005-001-----0
  6
CONTINUOUS
  5
2FB
 10
448.331394
 20
315.030033
 30
0.0
 11
432.203072
 21
315.030033
 31
0.0
  0
LINE
  8
LC-001-002-----0
  6
CONTINUOUS
 62
     2
  5
2FC
 10
430.223758
 20
319.137736
 30
0.0
 11
430.223758
 21
431.708329
 31
0.0
  0
LINE
  8
LC-005-001-----0
  6
CONTINUOUS
  5
2FD
 10
296.318452
 20
419.536939
 30
0.0
 11
300.317176
 21
420.608365
 31
0.0
  0
LINE
  8
LC-005-001-----0
  6
CONTINUOUS
  5
2FE
 10
476.318394
 20
439.419986
 30
0.0
 11
476.318394
 21
435.703501
 31
0.0
  0
LINE
  8
LC-005-001-----0
  6
CONTINUOUS
  5
2FF
 10
296.318452
 20
331.309119
 30
0.0
 11
300.317176
 21
330.237633
 31
0.0
  0
LINE
  8
LC-005-001-----0
  6
CONTINUOUS
  5
300
 10
476.318394
 20
311.426079
 30
0.0
 11
476.318394
 21
313.557033
 31
0.0
  0
LINE
  8
LC-005-001-----0
  6
CONTINUOUS
  5
301
 10
476.318394
 20
313.557033
 30
0.0
 11
476.318394
 21
435.703501
 31
0.0
  0
ARC
  8
LC-005-001-----0
  6
CONTINUOUS
  5
302
 10
421.318398
 20
426.009332
 30
0.0
 40
5.401
 50
270.0
 51
344.999954
  0
LINE
  8
LC-001-002-----0
  6
CONTINUOUS
  5
303
 10
451.768394
 20
312.398033
 30
0.0
 11
451.768394
 21
317.485033
 31
0.0
  0
LINE
  8
LC-001-002-----0
  6
CONTINUOUS
  5
304
 10
451.277394
 20
439.419986
 30
0.0
 11
476.318394
 21
439.419986
 31
0.0
  0
ARC
  8
LC-003-002-RND-0
  6
CONTINUOUS
  5
305
 10
451.277394
 20
437.455986
 30
0.0
 40
1.964
 50
90.0
 51
180.0
  0
LINE
  8
LC-001-002-----0
  6
CONTINUOUS
  5
306
 10
451.277394
 20
311.426079
 30
0.0
 11
476.318394
 21
311.426079
 31
0.0
  0
ARC
  8
LC-003-002-RND-0
  6
CONTINUOUS
  5
307
 10
451.277394
 20
313.390079
 30
0.0
 40
1.964
 50
180.0
 51
270.0
  0
ARC
  8
LC-005-001-----0
  6
CONTINUOUS
  5
308
 10
448.331394
 20
436.798033
 30
0.0
 40
0.982
 50
270.0
 51
0.0
  0
LINE
  8
LC-005-001-----0
  6
CONTINUOUS
  5
309
 10
449.313394
 20
437.455986
 30
0.0
 11
449.313394
 21
436.798033
 31
0.0
  0
ARC
  8
LC-005-001-----0
  6
CONTINUOUS
  5
30A
 10
448.331394
 20
314.048033
 30
0.0
 40
0.982
 50
0.000015
 51
90.000008
  0
LINE
  8
LC-005-001-----0
  6
CONTINUOUS
  5
30B
 10
449.313394
 20
313.390079
 30
0.0
 11
449.313394
 21
314.048033
 31
0.0
  0
ARC
  8
LC-005-001-----0
  6
CONTINUOUS
  5
30C
 10
472.593774
 20
434.834033
 30
0.0
 40
0.491
 50
225.000092
 51
270.000092
  0
LINE
  8
LC-005-001-----0
  6
CONTINUOUS
  5
30D
 10
469.444394
 20
437.289033
 30
0.0
 11
472.246584
 21
434.486843
 31
0.0
  0
ARC
  8
LC-005-001-----0
  6
CONTINUOUS
  5
30E
 10
473.169014
 20
434.834033
 30
0.0
 40
0.491
 50
269.999908
 51
314.999924
  0
LINE
  8
LC-005-001-----0
  6
CONTINUOUS
  5
30F
 10
472.593774
 20
434.343033
 30
0.0
 11
473.169014
 21
434.343033
 31
0.0
  0
LINE
  8
LC-005-001-----0
  6
CONTINUOUS
  5
310
 10
476.318394
 20
437.289033
 30
0.0
 11
473.516204
 21
434.486843
 31
0.0
  0
LINE
  8
LC-005-001-----0
  6
CONTINUOUS
  5
311
 10
469.444394
 20
437.289033
 30
0.0
 11
451.768394
 21
437.289033
 31
0.0
  0
ARC
  8
LC-005-001-----0
  6
CONTINUOUS
  5
312
 10
472.593774
 20
316.012033
 30
0.0
 40
0.491
 50
89.999916
 51
134.99992
  0
LINE
  8
LC-005-001-----0
  6
CONTINUOUS
  5
313
 10
469.444394
 20
313.557033
 30
0.0
 11
472.246584
 21
316.359222
 31
0.0
  0
ARC
  8
LC-005-001-----0
  6
CONTINUOUS
  5
314
 10
473.169014
 20
316.012033
 30
0.0
 40
0.491
 50
45.000076
 51
90.000076
  0
LINE
  8
LC-005-001-----0
  6
CONTINUOUS
  5
315
 10
472.593774
 20
316.503033
 30
0.0
 11
473.169014
 21
316.503033
 31
0.0
  0
LINE
  8
LC-005-001-----0
  6
CONTINUOUS
  5
316
 10
476.318394
 20
313.557033
 30
0.0
 11
473.516204
 21
316.359222
 31
0.0
  0
LINE
  8
LC-005-001-----0
  6
CONTINUOUS
  5
317
 10
469.444394
 20
313.557033
 30
0.0
 11
451.768394
 21
313.557033
 31
0.0
  0
LINE
  8
LC-005-001-----0
  6
CONTINUOUS
  5
318
 10
451.768394
 20
317.485033
 30
0.0
 11
451.768394
 21
438.448033
 31
0.0
  0
LINE
  8
LC-005-001-----0
  6
CONTINUOUS
  5
319
 10
451.768394
 20
317.485033
 30
0.0
 11
432.193374
 21
317.485033
 31
0.0
  0
LINE
  8
LC-001-002-----0
  6
CONTINUOUS
  5
31A
 10
460.061263
 20
315.923033
 30
0.0
 11
465.515525
 21
315.923033
 31
0.0
  0
ARC
  8
LC-003-002-RND-0
  6
CONTINUOUS
  5
31B
 10
465.515525
 20
316.923033
 30
0.0
 40
1.0
 50
270.0
 51
355.0
  0
LINE
  8
LC-001-002-----0
  6
CONTINUOUS
  5
31C
 10
469.808394
 20
315.041158
 30
0.0
 11
466.693719
 21
311.926483
 31
0.0
  0
LINE
  8
LC-001-002-----0
  6
CONTINUOUS
  5
31D
 10
469.808394
 20
435.804907
 30
0.0
 11
467.165269
 21
438.448033
 31
0.0
  0
LINE
  8
LC-001-002-----0
  6
CONTINUOUS
  5
31E
 10
469.808394
 20
315.041158
 30
0.0
 11
469.808394
 21
328.923033
 31
0.0
  0
ARC
  8
LC-003-002-RND-0
  6
CONTINUOUS
  5
31F
 10
512.227047
 20
241.187598
 30
0.0
 40
0.1
 50
90.0
 51
170.0
  0
LINE
  8
LC-001-002-----0
  6
CONTINUOUS
  5
320
 10
296.318452
 20
286.559661
 30
0.0
 11
296.318452
 21
243.391446
 31
0.0
  0
ARC
  8
LC-003-002-RND-0
  6
CONTINUOUS
  5
321
 10
515.118452
 20
241.187598
 30
0.0
 40
0.1
 50
0.0
 51
90.0
  0
LINE
  8
LC-001-002-----0
  6
CONTINUOUS
  5
322
 10
456.318452
 20
289.587598
 30
0.0
 11
456.318452
 21
287.587598
 31
0.0
  0
LINE
  8
LC-005-001-----0
  6
CONTINUOUS
  5
323
 10
296.318452
 20
418.209113
 30
0.0
 11
421.298497
 21
418.20908
 31
0.0
  0
LINE
  8
LC-005-001-----0
  6
CONTINUOUS
  5
324
 10
300.317176
 20
420.608365
 30
0.0
 11
421.318394
 21
420.608332
 31
0.0
  0
LINE
  8
LC-001-002-----0
  6
CONTINUOUS
  5
325
 10
458.318452
 20
289.687598
 30
0.0
 11
458.318452
 21
287.587598
 31
0.0
  0
LINE
  8
LC-005-001-----0
  6
CONTINUOUS
  5
326
 10
296.318452
 20
332.636952
 30
0.0
 11
421.298497
 21
332.636985
 31
0.0
  0
LINE
  8
LC-001-002-----0
  6
CONTINUOUS
  5
327
 10
451.768394
 20
312.398033
 30
0.0
 11
467.165269
 21
312.398033
 31
0.0
  0
LINE
  8
LC-002-005-----0
  6
CONTINUOUS
  5
328
 10
518.047049
 20
283.287598
 30
0.0
 11
520.318452
 21
285.559
 31
0.0
  0
LINE
  8
LC-002-005-----0
  6
CONTINUOUS
  5
329
 10
517.048088
 20
285.117063
 30
0.0
 11
520.318452
 21
288.387427
 31
0.0
  0
LINE
  8
LC-002-005-----0
  6
CONTINUOUS
  5
32A
 10
514.990195
 20
285.887598
 30
0.0
 11
517.983208
 21
288.880611
 31
0.0
  0
ARC
  8
LC-003-002-RND-0
  6
CONTINUOUS
  5
32B
 10
517.594867
 20
240.987598
 30
0.0
 40
0.3
 50
90.0
 51
170.0
  0
ARC
  8
LC-003-002-RND-0
  6
CONTINUOUS
  5
32C
 10
517.018452
 20
244.387598
 30
0.0
 40
0.1
 50
270.0
 51
0.0
  0
LINE
  8
LC-001-002-----0
  6
CONTINUOUS
  5
32D
 10
499.818452
 20
244.537598
 30
0.0
 11
499.818452
 21
244.287598
 31
0.0
  0
LINE
  8
LC-001-002-----0
  6
CONTINUOUS
  5
32E
 10
500.318452
 20
244.537598
 30
0.0
 11
500.318452
 21
244.287598
 31
0.0
  0
LINE
  8
LC-001-002-----0
  6
CONTINUOUS
  5
32F
 10
500.068452
 20
244.787598
 30
0.0
 11
500.068452
 21
244.787598
 31
0.0
  0
LINE
  8
LC-001-002-----0
  6
CONTINUOUS
  5
330
 10
499.818452
 20
244.287598
 30
0.0
 11
495.318452
 21
244.287598
 31
0.0
  0
ARC
  8
LC-003-002-RND-0
  6
CONTINUOUS
  5
331
 10
500.068452
 20
244.537598
 30
0.0
 40
0.25
 50
0.0
 51
90.0
  0
ARC
  8
LC-003-002-RND-0
  6
CONTINUOUS
  5
332
 10
500.068452
 20
244.537598
 30
0.0
 40
0.25
 50
90.0
 51
180.0
  0
LINE
  8
LC-001-002-----0
  6
CONTINUOUS
  5
333
 10
504.318452
 20
244.587598
 30
0.0
 11
504.318452
 21
244.287598
 31
0.0
  0
LINE
  8
LC-001-002-----0
  6
CONTINUOUS
  5
334
 10
504.818452
 20
244.587598
 30
0.0
 11
504.818452
 21
244.287598
 31
0.0
  0
LINE
  8
LC-001-002-----0
  6
CONTINUOUS
  5
335
 10
504.618452
 20
244.787598
 30
0.0
 11
504.518452
 21
244.787598
 31
0.0
  0
ARC
  8
LC-003-002-RND-0
  6
CONTINUOUS
  5
336
 10
504.618452
 20
244.587598
 30
0.0
 40
0.2
 50
0.0
 51
90.0
  0
ARC
  8
LC-003-002-RND-0
  6
CONTINUOUS
  5
337
 10
504.518452
 20
244.587598
 30
0.0
 40
0.2
 50
90.0
 51
180.0
  0
LINE
  8
LC-001-002-----0
  6
CONTINUOUS
  5
338
 10
508.818452
 20
244.587598
 30
0.0
 11
508.818452
 21
244.287598
 31
0.0
  0
LINE
  8
LC-001-002-----0
  6
CONTINUOUS
  5
339
 10
509.318452
 20
244.587598
 30
0.0
 11
509.318452
 21
244.287598
 31
0.0
  0
LINE
  8
LC-001-002-----0
  6
CONTINUOUS
  5
33A
 10
509.118452
 20
244.787598
 30
0.0
 11
509.018452
 21
244.787598
 31
0.0
  0
ARC
  8
LC-003-002-RND-0
  6
CONTINUOUS
  5
33B
 10
509.118452
 20
244.587598
 30
0.0
 40
0.2
 50
0.0
 51
90.0
  0
ARC
  8
LC-003-002-RND-0
  6
CONTINUOUS
  5
33C
 10
509.018452
 20
244.587598
 30
0.0
 40
0.2
 50
90.0
 51
180.0
  0
LINE
  8
LC-001-002-----0
  6
CONTINUOUS
  5
33D
 10
513.318452
 20
244.587598
 30
0.0
 11
513.318452
 21
244.287598
 31
0.0
  0
LINE
  8
LC-001-002-----0
  6
CONTINUOUS
  5
33E
 10
513.818452
 20
244.587598
 30
0.0
 11
513.818452
 21
244.287598
 31
0.0
  0
LINE
  8
LC-001-002-----0
  6
CONTINUOUS
  5
33F
 10
513.618452
 20
244.787598
 30
0.0
 11
513.518452
 21
244.787598
 31
0.0
  0
ARC
  8
LC-003-002-RND-0
  6
CONTINUOUS
  5
340
 10
513.618452
 20
244.587598
 30
0.0
 40
0.2
 50
0.0
 51
90.0
  0
ARC
  8
LC-003-002-RND-0
  6
CONTINUOUS
  5
341
 10
513.518452
 20
244.587598
 30
0.0
 40
0.2
 50
90.0
 51
180.0
  0
LINE
  8
LC-001-002-----0
  6
CONTINUOUS
  5
342
 10
504.318452
 20
244.287598
 30
0.0
 11
500.318452
 21
244.287598
 31
0.0
  0
LINE
  8
LC-001-002-----0
  6
CONTINUOUS
  5
343
 10
508.818452
 20
244.287598
 30
0.0
 11
504.818452
 21
244.287598
 31
0.0
  0
LINE
  8
LC-001-002-----0
  6
CONTINUOUS
  5
344
 10
513.318452
 20
244.287598
 30
0.0
 11
509.318452
 21
244.287598
 31
0.0
  0
LINE
  8
LC-001-002-----0
  6
CONTINUOUS
  5
345
 10
520.318452
 20
288.887598
 30
0.0
 11
517.594867
 21
288.887598
 31
0.0
  0
LINE
  8
LC-001-002-----0
  6
CONTINUOUS
  5
346
 10
495.318452
 20
285.887598
 30
0.0
 11
495.318452
 21
288.887598
 31
0.0
  0
LINE
  8
LC-001-002-----0
  6
CONTINUOUS
  5
347
 10
520.318452
 20
283.287598
 30
0.0
 11
517.118452
 21
283.287598
 31
0.0
  0
LINE
  8
LC-001-002-----0
  6
CONTINUOUS
  5
348
 10
517.118452
 20
283.287598
 30
0.0
 11
517.118452
 21
285.787598
 31
0.0
  0
LINE
  8
LC-001-002-----0
  6
CONTINUOUS
  5
349
 10
517.018452
 20
285.887598
 30
0.0
 11
513.818452
 21
285.887598
 31
0.0
  0
LINE
  8
LC-001-002-----0
  6
CONTINUOUS
  5
34A
 10
498.818452
 20
288.987598
 30
0.0
 11
498.818452
 21
294.786177
 31
0.0
  0
ARC
  8
LC-003-002-RND-0
  6
CONTINUOUS
  5
34B
 10
498.918452
 20
294.786177
 30
0.0
 40
0.1
 50
45.0
 51
180.0
  0
ARC
  8
LC-003-002-RND-0
  6
CONTINUOUS
  5
34C
 10
501.027047
 20
288.987598
 30
0.0
 40
0.1
 50
190.0
 51
270.0
  0
LINE
  8
LC-001-002-----0
  6
CONTINUOUS
  5
34D
 10
498.989162
 20
294.856887
 30
0.0
 11
500.061268
 21
293.784782
 31
0.0
  0
LINE
  8
LC-001-002-----0
  6
CONTINUOUS
  5
34E
 10
498.718452
 20
288.887598
 30
0.0
 11
495.318452
 21
288.887598
 31
0.0
  0
LINE
  8
LC-001-002-----0
  6
CONTINUOUS
  5
34F
 10
500.928567
 20
288.970233
 30
0.0
 11
500.089038
 21
293.731436
 31
0.0
  0
LINE
  8
LC-001-002-----0
  6
CONTINUOUS
  5
350
 10
504.418452
 20
288.987598
 30
0.0
 11
504.418452
 21
294.786177
 31
0.0
  0
ARC
  8
LC-003-002-RND-0
  6
CONTINUOUS
  5
351
 10
504.518452
 20
294.786177
 30
0.0
 40
0.1
 50
45.0
 51
180.0
  0
ARC
  8
LC-003-002-RND-0
  6
CONTINUOUS
  5
352
 10
499.990557
 20
293.714071
 30
0.0
 40
0.1
 50
10.0
 51
45.0
  0
LINE
  8
LC-001-002-----0
  6
CONTINUOUS
  5
353
 10
504.589162
 20
294.856887
 30
0.0
 11
505.661268
 21
293.784782
 31
0.0
  0
LINE
  8
LC-001-002-----0
  6
CONTINUOUS
  5
354
 10
506.528567
 20
288.970233
 30
0.0
 11
505.689038
 21
293.731436
 31
0.0
  0
ARC
  8
LC-003-002-RND-0
  6
CONTINUOUS
  5
355
 10
505.590557
 20
293.714071
 30
0.0
 40
0.1
 50
10.0
 51
45.0
  0
LINE
  8
LC-001-002-----0
  6
CONTINUOUS
  5
356
 10
510.018452
 20
288.987598
 30
0.0
 11
510.018452
 21
294.786177
 31
0.0
  0
ARC
  8
LC-003-002-RND-0
  6
CONTINUOUS
  5
357
 10
510.118452
 20
294.786177
 30
0.0
 40
0.1
 50
45.0
 51
180.0
  0
LINE
  8
LC-001-002-----0
  6
CONTINUOUS
  5
358
 10
510.189162
 20
294.856887
 30
0.0
 11
511.261268
 21
293.784782
 31
0.0
  0
LINE
  8
LC-001-002-----0
  6
CONTINUOUS
  5
359
 10
512.128567
 20
288.970233
 30
0.0
 11
511.289038
 21
293.731436
 31
0.0
  0
ARC
  8
LC-003-002-RND-0
  6
CONTINUOUS
  5
35A
 10
511.190557
 20
293.714071
 30
0.0
 40
0.1
 50
10.0
 51
45.0
  0
LINE
  8
LC-001-002-----0
  6
CONTINUOUS
  5
35B
 10
515.218452
 20
288.987598
 30
0.0
 11
515.218452
 21
294.786177
 31
0.0
  0
ARC
  8
LC-003-002-RND-0
  6
CONTINUOUS
  5
35C
 10
515.318452
 20
294.786177
 30
0.0
 40
0.1
 50
45.0
 51
180.0
  0
LINE
  8
LC-001-002-----0
  6
CONTINUOUS
  5
35D
 10
515.389162
 20
294.856887
 30
0.0
 11
516.461268
 21
293.784782
 31
0.0
  0
LINE
  8
LC-001-002-----0
  6
CONTINUOUS
  5
35E
 10
517.299425
 20
289.135504
 30
0.0
 11
516.489038
 21
293.731436
 31
0.0
  0
ARC
  8
LC-003-002-RND-0
  6
CONTINUOUS
  5
35F
 10
457.418452
 20
289.687598
 30
0.0
 40
0.9
 50
0.0
 51
90.0
  0
LINE
  8
LC-001-002-----0
  6
CONTINUOUS
  5
360
 10
515.118452
 20
288.887598
 30
0.0
 11
512.227047
 21
288.887598
 31
0.0
  0
LINE
  8
LC-001-002-----0
  6
CONTINUOUS
  5
361
 10
509.918452
 20
288.887598
 30
0.0
 11
506.627047
 21
288.887598
 31
0.0
  0
LINE
  8
LC-001-002-----0
  6
CONTINUOUS
  5
362
 10
504.318452
 20
288.887598
 30
0.0
 11
501.027047
 21
288.887598
 31
0.0
  0
ARC
  8
LC-003-002-RND-0
  6
CONTINUOUS
  5
363
 10
498.718452
 20
288.987598
 30
0.0
 40
0.1
 50
270.0
 51
0.0
  0
ARC
  8
LC-003-002-RND-0
  6
CONTINUOUS
  5
364
 10
504.318452
 20
288.987598
 30
0.0
 40
0.1
 50
270.0
 51
0.0
  0
ARC
  8
LC-003-002-RND-0
  6
CONTINUOUS
  5
365
 10
506.627047
 20
288.987598
 30
0.0
 40
0.1
 50
190.0
 51
270.0
  0
ARC
  8
LC-003-002-RND-0
  6
CONTINUOUS
  5
366
 10
509.918452
 20
288.987598
 30
0.0
 40
0.1
 50
270.0
 51
0.0
  0
ARC
  8
LC-003-002-RND-0
  6
CONTINUOUS
  5
367
 10
512.227047
 20
288.987598
 30
0.0
 40
0.1
 50
190.0
 51
270.0
  0
ARC
  8
LC-003-002-RND-0
  6
CONTINUOUS
  5
368
 10
515.118452
 20
288.987598
 30
0.0
 40
0.1
 50
270.0
 51
0.0
  0
ARC
  8
LC-003-002-RND-0
  6
CONTINUOUS
  5
369
 10
517.594867
 20
289.187598
 30
0.0
 40
0.3
 50
190.0
 51
270.0
  0
ARC
  8
LC-003-002-RND-0
  6
CONTINUOUS
  5
36A
 10
517.018452
 20
285.787598
 30
0.0
 40
0.1
 50
0.0
 51
90.0
  0
LINE
  8
LC-001-002-----0
  6
CONTINUOUS
  5
36B
 10
499.818452
 20
285.637598
 30
0.0
 11
499.818452
 21
285.887598
 31
0.0
  0
LINE
  8
LC-001-002-----0
  6
CONTINUOUS
  5
36C
 10
500.318452
 20
285.637598
 30
0.0
 11
500.318452
 21
285.887598
 31
0.0
  0
LINE
  8
LC-001-002-----0
  6
CONTINUOUS
  5
36D
 10
500.068452
 20
285.387598
 30
0.0
 11
500.068452
 21
285.387598
 31
0.0
  0
LINE
  8
LC-001-002-----0
  6
CONTINUOUS
  5
36E
 10
499.818452
 20
285.887598
 30
0.0
 11
495.318452
 21
285.887598
 31
0.0
  0
ARC
  8
LC-003-002-RND-0
  6
CONTINUOUS
  5
36F
 10
500.068452
 20
285.637598
 30
0.0
 40
0.25
 50
270.0
 51
0.0
  0
ARC
  8
LC-003-002-RND-0
  6
CONTINUOUS
  5
370
 10
500.068452
 20
285.637598
 30
0.0
 40
0.25
 50
180.0
 51
270.0
  0
LINE
  8
LC-001-002-----0
  6
CONTINUOUS
  5
371
 10
504.318452
 20
285.587598
 30
0.0
 11
504.318452
 21
285.887598
 31
0.0
  0
LINE
  8
LC-001-002-----0
  6
CONTINUOUS
  5
372
 10
504.818452
 20
285.587598
 30
0.0
 11
504.818452
 21
285.887598
 31
0.0
  0
LINE
  8
LC-001-002-----0
  6
CONTINUOUS
  5
373
 10
504.618452
 20
285.387598
 30
0.0
 11
504.518452
 21
285.387598
 31
0.0
  0
ARC
  8
LC-003-002-RND-0
  6
CONTINUOUS
  5
374
 10
504.618452
 20
285.587598
 30
0.0
 40
0.2
 50
270.0
 51
0.0
  0
ARC
  8
LC-003-002-RND-0
  6
CONTINUOUS
  5
375
 10
504.518452
 20
285.587598
 30
0.0
 40
0.2
 50
180.0
 51
270.0
  0
LINE
  8
LC-001-002-----0
  6
CONTINUOUS
  5
376
 10
508.818452
 20
285.587598
 30
0.0
 11
508.818452
 21
285.887598
 31
0.0
  0
LINE
  8
LC-001-002-----0
  6
CONTINUOUS
  5
377
 10
509.318452
 20
285.587598
 30
0.0
 11
509.318452
 21
285.887598
 31
0.0
  0
LINE
  8
LC-001-002-----0
  6
CONTINUOUS
  5
378
 10
509.118452
 20
285.387598
 30
0.0
 11
509.018452
 21
285.387598
 31
0.0
  0
ARC
  8
LC-003-002-RND-0
  6
CONTINUOUS
  5
379
 10
509.118452
 20
285.587598
 30
0.0
 40
0.2
 50
270.0
 51
0.0
  0
ARC
  8
LC-003-002-RND-0
  6
CONTINUOUS
  5
37A
 10
509.018452
 20
285.587598
 30
0.0
 40
0.2
 50
180.0
 51
270.0
  0
LINE
  8
LC-001-002-----0
  6
CONTINUOUS
  5
37B
 10
513.318452
 20
285.587598
 30
0.0
 11
513.318452
 21
285.887598
 31
0.0
  0
LINE
  8
LC-001-002-----0
  6
CONTINUOUS
  5
37C
 10
513.818452
 20
285.587598
 30
0.0
 11
513.818452
 21
285.887598
 31
0.0
  0
LINE
  8
LC-001-002-----0
  6
CONTINUOUS
  5
37D
 10
513.618452
 20
285.387598
 30
0.0
 11
513.518452
 21
285.387598
 31
0.0
  0
ARC
  8
LC-003-002-RND-0
  6
CONTINUOUS
  5
37E
 10
513.618452
 20
285.587598
 30
0.0
 40
0.2
 50
270.0
 51
0.0
  0
ARC
  8
LC-003-002-RND-0
  6
CONTINUOUS
  5
37F
 10
513.518452
 20
285.587598
 30
0.0
 40
0.2
 50
180.0
 51
270.0
  0
LINE
  8
LC-001-002-----0
  6
CONTINUOUS
  5
380
 10
504.318452
 20
285.887598
 30
0.0
 11
500.318452
 21
285.887598
 31
0.0
  0
LINE
  8
LC-001-002-----0
  6
CONTINUOUS
  5
381
 10
508.818452
 20
285.887598
 30
0.0
 11
504.818452
 21
285.887598
 31
0.0
  0
LINE
  8
LC-001-002-----0
  6
CONTINUOUS
  5
382
 10
513.318452
 20
285.887598
 30
0.0
 11
509.318452
 21
285.887598
 31
0.0
  0
ARC
  8
LC-003-002-RND-0
  6
CONTINUOUS
  5
383
 10
516.390557
 20
293.714071
 30
0.0
 40
0.1
 50
10.0
 51
45.0
  0
LINE
  8
LC-002-005-----0
  6
CONTINUOUS
  5
384
 10
512.161768
 20
285.887598
 30
0.0
 11
517.016158
 21
290.741988
 31
0.0
  0
LINE
  8
LC-001-002-----0
  6
CONTINUOUS
  5
385
 10
495.318452
 20
285.887598
 30
0.0
 11
495.318452
 21
244.287598
 31
0.0
  0
LINE
  8
LC-001-002-----0
  6
CONTINUOUS
  5
386
 10
517.118452
 20
283.287598
 30
0.0
 11
517.118452
 21
246.887598
 31
0.0
  0
LINE
  8
LC-002-005-----0
  6
CONTINUOUS
  5
387
 10
508.884671
 20
285.438928
 30
0.0
 11
512.337017
 21
288.891274
 31
0.0
  0
LINE
  8
LC-002-005-----0
  6
CONTINUOUS
  5
388
 10
515.301884
 20
291.856142
 30
0.0
 11
516.592188
 21
293.146445
 31
0.0
  0
LINE
  8
LC-002-005-----0
  6
CONTINUOUS
  5
389
 10
506.504914
 20
285.887598
 30
0.0
 11
509.59235
 21
288.975034
 31
0.0
  0
LINE
  8
LC-002-005-----0
  6
CONTINUOUS
  5
38A
 10
510.03084
 20
289.413524
 30
0.0
 11
511.785426
 21
291.16811
 31
0.0
  0
LINE
  8
LC-002-005-----0
  6
CONTINUOUS
  5
38B
 10
515.386615
 20
294.769299
 30
0.0
 11
515.431194
 21
294.813878
 31
0.0
  0
LINE
  8
LC-002-005-----0
  6
CONTINUOUS
  5
38C
 10
503.676487
 20
285.887598
 30
0.0
 11
506.677989
 21
288.8891
 31
0.0
  0
LINE
  8
LC-002-005-----0
  6
CONTINUOUS
  5
38D
 10
510.11557
 20
292.326682
 30
0.0
 11
511.326561
 21
293.537672
 31
0.0
  0
LINE
  8
LC-002-005-----0
  6
CONTINUOUS
  5
38E
 10
500.848059
 20
285.887598
 30
0.0
 11
503.933768
 21
288.973306
 31
0.0
  0
LINE
  8
LC-002-005-----0
  6
CONTINUOUS
  5
38F
 10
504.432543
 20
289.472082
 30
0.0
 11
506.176202
 21
291.215741
 31
0.0
  0
LINE
  8
LC-002-005-----0
  6
CONTINUOUS
  5
390
 10
498.019632
 20
285.887598
 30
0.0
 11
500.954604
 21
288.822569
 31
0.0
  0
LINE
  8
LC-002-005-----0
  6
CONTINUOUS
  5
391
 10
495.318452
 20
286.014844
 30
0.0
 11
498.275698
 21
288.972091
 31
0.0
  0
LINE
  8
LC-002-005-----0
  6
CONTINUOUS
  5
392
 10
498.834246
 20
289.530639
 30
0.0
 11
500.566979
 21
291.263372
 31
0.0
  0
LINE
  8
LC-002-005-----0
  6
CONTINUOUS
  5
393
 10
495.318452
 20
288.843272
 30
0.0
 11
495.364082
 21
288.888902
 31
0.0
  0
LINE
  8
LC-002-005-----0
  6
CONTINUOUS
  5
394
 10
498.918977
 20
292.443797
 30
0.0
 11
500.108113
 21
293.632933
 31
0.0
  0
LINE
  8
LC-001-002-----0
  6
CONTINUOUS
  5
395
 10
457.318452
 20
290.587598
 30
0.0
 11
457.418452
 21
290.587598
 31
0.0
  0
LINE
  8
LC-001-002-----0
  6
CONTINUOUS
  5
396
 10
457.318452
 20
239.587598
 30
0.0
 11
457.418452
 21
239.587598
 31
0.0
  0
LINE
  8
LC-001-002-----0
  6
CONTINUOUS
  5
397
 10
458.318452
 20
287.587598
 30
0.0
 11
473.318452
 21
287.587598
 31
0.0
  0
LINE
  8
LC-001-002-----0
  6
CONTINUOUS
  5
398
 10
456.318452
 20
242.587598
 30
0.0
 11
298.820506
 21
242.587598
 31
0.0
  0
LINE
  8
LC-001-002-----0
  6
CONTINUOUS
  5
399
 10
465.788394
 20
316.423033
 30
0.0
 11
459.788394
 21
316.423033
 31
0.0
  0
LINE
  8
LC-001-002-----0
  6
CONTINUOUS
  5
39A
 10
459.788394
 20
316.423033
 30
0.0
 11
459.788394
 21
434.423033
 31
0.0
  0
LINE
  8
LC-001-002-----0
  6
CONTINUOUS
  5
39B
 10
459.788394
 20
434.423033
 30
0.0
 11
465.788394
 21
434.423033
 31
0.0
  0
LINE
  8
LC-001-002-----0
  6
CONTINUOUS
  5
39C
 10
465.788394
 20
434.423033
 30
0.0
 11
465.788394
 21
316.423033
 31
0.0
  0
LINE
  8
LC-001-002-----0
  6
CONTINUOUS
  5
39D
 10
459.788394
 20
317.423033
 30
0.0
 11
465.788394
 21
317.423033
 31
0.0
  0
LINE
  8
LC-001-002-----0
  6
CONTINUOUS
  5
39E
 10
459.788394
 20
433.423033
 30
0.0
 11
465.788394
 21
433.423033
 31
0.0
  0
LINE
  8
LC-001-002-----0
  6
CONTINUOUS
  5
39F
 10
456.318452
 20
242.587598
 30
0.0
 11
456.318452
 21
240.587598
 31
0.0
  0
LINE
  8
LC-001-002-----0
  6
CONTINUOUS
  5
3A0
 10
458.318452
 20
242.587598
 30
0.0
 11
458.318452
 21
240.487598
 31
0.0
  0
ARC
  8
LC-003-002-RND-0
  6
CONTINUOUS
  5
3A1
 10
457.418452
 20
240.487598
 30
0.0
 40
0.9
 50
270.0
 51
0.0
  0
ARC
  8
LC-003-002-RND-0
  6
CONTINUOUS
  5
3A2
 10
457.318452
 20
289.587598
 30
0.0
 40
1.0
 50
90.0
 51
180.0
  0
ARC
  8
LC-003-002-RND-0
  6
CONTINUOUS
  5
3A3
 10
457.318452
 20
240.587598
 30
0.0
 40
1.0
 50
180.0
 51
270.0
  0
LINE
  8
LC-001-002-----0
  6
CONTINUOUS
  5
3A4
 10
473.318452
 20
242.587598
 30
0.0
 11
476.318452
 21
243.391446
 31
0.0
  0
LINE
  8
LC-001-002-----0
  6
CONTINUOUS
  5
3A5
 10
473.318452
 20
287.587598
 30
0.0
 11
476.318452
 21
286.78375
 31
0.0
  0
LINE
  8
LC-001-002-----0
  6
CONTINUOUS
  5
3A6
 10
299.318452
 20
287.587598
 30
0.0
 11
296.318452
 21
286.78375
 31
0.0
  0
LINE
  8
LC-001-002-----0
  6
CONTINUOUS
  5
3A7
 10
299.318452
 20
242.587598
 30
0.0
 11
296.318452
 21
243.391446
 31
0.0
  0
LINE
  8
LC-001-002-----0
  6
DASHDOT
 62
     2
  5
3A9
 10
476.318394
 20
375.423033
 30
0.0
 11
296.318452
 21
375.423033
 31
0.0
  0
LINE
  8
LC-001-002-----0
  6
DASHDOT
 62
     2
  5
3AA
 10
520.318452
 20
265.087598
 30
0.0
 11
495.318452
 21
265.087598
 31
0.0
  0
LINE
  8
LC-001-002-----0
  6
DASHDOT
 62
     2
  5
3AB
 10
496.318518
 20
341.423059
 30
0.0
 11
566.540803
 21
341.423151
 31
0.0
  0
LINE
  8
LC-001-002-----0
  6
DASHDOT
 62
     2
  5
3AC
 10
496.318429
 20
409.423059
 30
0.0
 11
566.540714
 21
409.423151
 31
0.0
  0
LINE
  8
LC-001-002-----0
  6
DASHDOT
 62
     2
  5
3AD
 10
476.318452
 20
265.087598
 30
0.0
 11
296.318452
 21
265.087598
 31
0.0
  0
ENDSEC
  0
EOF
