  0
SECTION
  2
HEADER
  9
$ACADVER
  1
AC1015
  9
$ACADMAINTVER
 70
     6
  9
$DWGCODEPAGE
  3
ANSI_1252
  9
$INSBASE
 10
0.0
 20
0.0
 30
0.0
  9
$EXTMIN
 10
-118.782642
 20
-86.201609
 30
0.0
  9
$EXTMAX
 10
721.217358
 20
507.798391
 30
0.0
  9
$LIMMIN
 10
-118.782642
 20
-86.201609
  9
$LIMMAX
 10
721.217358
 20
507.798391
  9
$ORTHOMODE
 70
     0
  9
$REGENMODE
 70
     1
  9
$FILLMODE
 70
     1
  9
$QTEXTMODE
 70
     0
  9
$MIRRTEXT
 70
     1
  9
$LTSCALE
 40
2.0
  9
$ATTMODE
 70
     1
  9
$TEXTSIZE
 40
2.5
  9
$TRACEWID
 40
1.0
  9
$TEXTSTYLE
  7
Standard
  9
$CLAYER
  8
0
  9
$CELTYPE
  6
ByLayer
  9
$CECOLOR
 62
     7
  9
$CELTSCALE
 40
1.0
  9
$DISPSILH
 70
     0
  9
$DIMSCALE
 40
2.0
  9
$DIMASZ
 40
3.5
  9
$DIMEXO
 40
0.625
  9
$DIMDLI
 40
3.75
  9
$DIMRND
 40
0.0
  9
$DIMDLE
 40
0.0
  9
$DIMEXE
 40
1.25
  9
$DIMTP
 40
0.0
  9
$DIMTM
 40
0.0
  9
$DIMTXT
 40
3.5
  9
$DIMCEN
 40
2.5
  9
$DIMTSZ
 40
0.0
  9
$DIMTOL
 70
     0
  9
$DIMLIM
 70
     0
  9
$DIMTIH
 70
     0
  9
$DIMTOH
 70
     0
  9
$DIMSE1
 70
     0
  9
$DIMSE2
 70
     0
  9
$DIMTAD
 70
     1
  9
$DIMZIN
 70
     8
  9
$DIMBLK
  1

  9
$DIMASO
 70
     1
  9
$DIMSHO
 70
     1
  9
$DIMPOST
  1

  9
$DIMAPOST
  1

  9
$DIMALT
 70
     0
  9
$DIMALTD
 70
     3
  9
$DIMALTF
 40
0.03937
  9
$DIMLFAC
 40
1.0
  9
$DIMTOFL
 70
     1
  9
$DIMTVP
 40
0.0
  9
$DIMTIX
 70
     0
  9
$DIMSOXD
 70
     0
  9
$DIMSAH
 70
     0
  9
$DIMBLK1
  1

  9
$DIMBLK2
  1

  9
$DIMSTYLE
  2
ISO-25
  9
$DIMCLRD
 70
     0
  9
$DIMCLRE
 70
     0
  9
$DIMCLRT
 70
     0
  9
$DIMTFAC
 40
1.0
  9
$DIMGAP
 40
0.625
  9
$DIMJUST
 70
     0
  9
$DIMSD1
 70
     0
  9
$DIMSD2
 70
     0
  9
$DIMTOLJ
 70
     0
  9
$DIMTZIN
 70
     8
  9
$DIMALTZ
 70
     0
  9
$DIMALTTZ
 70
     0
  9
$DIMUPT
 70
     0
  9
$DIMDEC
 70
     2
  9
$DIMTDEC
 70
     2
  9
$DIMALTU
 70
     2
  9
$DIMALTTD
 70
     3
  9
$DIMTXSTY
  7
Standard
  9
$DIMAUNIT
 70
     0
  9
$DIMADEC
 70
     0
  9
$DIMALTRND
 40
0.0
  9
$DIMAZIN
 70
     0
  9
$DIMDSEP
 70
    44
  9
$DIMATFIT
 70
     3
  9
$DIMFRAC
 70
     0
  9
$DIMLDRBLK
  1

  9
$DIMLUNIT
 70
     2
  9
$DIMLWD
 70
    -2
  9
$DIMLWE
 70
    -2
  9
$DIMTMOVE
 70
     0
  9
$LUNITS
 70
     2
  9
$LUPREC
 70
     4
  9
$SKETCHINC
 40
1.0
  9
$FILLETRAD
 40
10.0
  9
$AUNITS
 70
     0
  9
$AUPREC
 70
     0
  9
$MENU
  1
.
  9
$ELEVATION
 40
0.0
  9
$PELEVATION
 40
0.0
  9
$THICKNESS
 40
0.0
  9
$LIMCHECK
 70
     0
  9
$CHAMFERA
 40
10.0
  9
$CHAMFERB
 40
10.0
  9
$CHAMFERC
 40
20.0
  9
$CHAMFERD
 40
0.0
  9
$SKPOLY
 70
     0
  9
$TDCREATE
 40
2455701.258829121
  9
$TDUCREATE
 40
2455701.175495787
  9
$TDUPDATE
 40
2455701.258829132
  9
$TDUUPDATE
 40
2455701.175495799
  9
$TDINDWG
 40
0.0000000116
  9
$TDUSRTIMER
 40
0.0000000116
  9
$USRTIMER
 70
     1
  9
$ANGBASE
 50
0.0
  9
$ANGDIR
 70
     0
  9
$PDMODE
 70
     0
  9
$PDSIZE
 40
0.0
  9
$PLINEWID
 40
0.0
  9
$SPLFRAME
 70
     0
  9
$SPLINETYPE
 70
     6
  9
$SPLINESEGS
 70
     8
  9
$HANDSEED
  5
3C5
  9
$SURFTAB1
 70
     6
  9
$SURFTAB2
 70
     6
  9
$SURFTYPE
 70
     6
  9
$SURFU
 70
     6
  9
$SURFV
 70
     6
  9
$UCSBASE
  2

  9
$UCSNAME
  2

  9
$UCSORG
 10
0.0
 20
0.0
 30
0.0
  9
$UCSXDIR
 10
1.0
 20
0.0
 30
0.0
  9
$UCSYDIR
 10
0.0
 20
1.0
 30
0.0
  9
$UCSORTHOREF
  2

  9
$UCSORTHOVIEW
 70
     0
  9
$UCSORGTOP
 10
0.0
 20
0.0
 30
0.0
  9
$UCSORGBOTTOM
 10
0.0
 20
0.0
 30
0.0
  9
$UCSORGLEFT
 10
0.0
 20
0.0
 30
0.0
  9
$UCSORGRIGHT
 10
0.0
 20
0.0
 30
0.0
  9
$UCSORGFRONT
 10
0.0
 20
0.0
 30
0.0
  9
$UCSORGBACK
 10
0.0
 20
0.0
 30
0.0
  9
$PUCSBASE
  2

  9
$PUCSNAME
  2

  9
$PUCSORG
 10
0.0
 20
0.0
 30
0.0
  9
$PUCSXDIR
 10
1.0
 20
0.0
 30
0.0
  9
$PUCSYDIR
 10
0.0
 20
1.0
 30
0.0
  9
$PUCSORTHOREF
  2

  9
$PUCSORTHOVIEW
 70
     0
  9
$PUCSORGTOP
 10
0.0
 20
0.0
 30
0.0
  9
$PUCSORGBOTTOM
 10
0.0
 20
0.0
 30
0.0
  9
$PUCSORGLEFT
 10
0.0
 20
0.0
 30
0.0
  9
$PUCSORGRIGHT
 10
0.0
 20
0.0
 30
0.0
  9
$PUCSORGFRONT
 10
0.0
 20
0.0
 30
0.0
  9
$PUCSORGBACK
 10
0.0
 20
0.0
 30
0.0
  9
$USERI1
 70
     0
  9
$USERI2
 70
     0
  9
$USERI3
 70
     0
  9
$USERI4
 70
     0
  9
$USERI5
 70
     0
  9
$USERR1
 40
0.0
  9
$USERR2
 40
0.0
  9
$USERR3
 40
0.0
  9
$USERR4
 40
0.0
  9
$USERR5
 40
0.0
  9
$WORLDVIEW
 70
     1
  9
$SHADEDGE
 70
     3
  9
$SHADEDIF
 70
    70
  9
$TILEMODE
 70
     1
  9
$MAXACTVP
 70
    64
  9
$PINSBASE
 10
0.0
 20
0.0
 30
0.0
  9
$PLIMCHECK
 70
     0
  9
$PEXTMIN
 10
-118.782642
 20
-86.201609
 30
0.0
  9
$PEXTMAX
 10
721.217358
 20
507.798391
 30
0.0
  9
$PLIMMIN
 10
-118.782642
 20
-86.201609
  9
$PLIMMAX
 10
721.217358
 20
507.798391
  9
$UNITMODE
 70
     0
  9
$VISRETAIN
 70
     1
  9
$PLINEGEN
 70
     0
  9
$PSLTSCALE
 70
     1
  9
$TREEDEPTH
 70
  3020
  9
$CMLSTYLE
  2
Standard
  9
$CMLJUST
 70
     0
  9
$CMLSCALE
 40
20.0
  9
$PROXYGRAPHICS
 70
     1
  9
$MEASUREMENT
 70
     1
  9
$CELWEIGHT
370
    -1
  9
$ENDCAPS
280
     0
  9
$JOINSTYLE
280
     0
  9
$LWDISPLAY
290
     0
  9
$INSUNITS
 70
     4
  9
$HYPERLINKBASE
  1

  9
$STYLESHEET
  1

  9
$XEDIT
290
     1
  9
$CEPSNTYPE
380
     0
  9
$PSTYLEMODE
290
     1
  9
$FINGERPRINTGUID
  2
{FAEB1C30-E019-11D5-929B-00C0DF256EC4}
  9
$VERSIONGUID
  2
{FAEB1C32-E019-11D5-929B-00C0DF256EC4}
  9
$EXTNAMES
290
     1
  9
$PSVPSCALE
 40
0.0
  9
$OLESTARTUP
290
     0
  0
ENDSEC
  0
SECTION
  2
CLASSES
  0
CLASS
  1
ACDBDICTIONARYWDFLT
  2
AcDbDictionaryWithDefault
  3
ObjectDBX Classes
 90
        0
280
     0
281
     0
  0
CLASS
  1
ACDBPLACEHOLDER
  2
AcDbPlaceHolder
  3
ObjectDBX Classes
 90
        0
280
     0
281
     0
  0
CLASS
  1
LAYOUT
  2
AcDbLayout
  3
ObjectDBX Classes
 90
        0
280
     0
281
     0
  0
ENDSEC
  0
SECTION
  2
TABLES
  0
TABLE
  2
VPORT
  5
8
330
0
100
AcDbSymbolTable
 70
     2
  0
VPORT
  5
29
330
8
100
AcDbSymbolTableRecord
100
AcDbViewportTableRecord
  2
*ACTIVE
 70
     0
 10
0.0
 20
0.0
 11
1.0
 21
1.0
 12
301.217358
 22
210.798391
 13
0.0
 23
0.0
 14
1.0
 24
1.0
 15
0.0
 25
0.0
 16
0.0
 26
0.0
 36
1.0
 17
0.0
 27
0.0
 37
0.0
 40
594.0
 41
1.414141
 42
50.0
 43
0.0
 44
0.0
 50
0.0
 51
0.0
 71
    16
 72
   100
 73
     1
 74
     0
 75
     0
 76
     0
 77
     0
 78
     0
281
     0
 65
     0
110
0.0
120
0.0
130
0.0
111
1.0
121
0.0
131
0.0
112
0.0
122
1.0
132
0.0
 79
     0
146
0.0
  0
ENDTAB
  0
TABLE
  2
LTYPE
  5
5
330
0
100
AcDbSymbolTable
 70
     3
  0
LTYPE
  5
14
330
5
100
AcDbSymbolTableRecord
100
AcDbLinetypeTableRecord
  2
ByBlock
 70
     0
  3

 72
    65
 73
     0
 40
0.0
  0
LTYPE
  5
15
330
5
100
AcDbSymbolTableRecord
100
AcDbLinetypeTableRecord
  2
ByLayer
 70
     0
  3

 72
    65
 73
     0
 40
0.0
  0
LTYPE
  5
16
330
5
100
AcDbSymbolTableRecord
100
AcDbLinetypeTableRecord
  2
Continuous
 70
     0
  3
Solid line
 72
    65
 73
     0
 40
0.0
  0
LTYPE
  5
2A
330
5
100
AcDbSymbolTableRecord
100
AcDbLinetypeTableRecord
  2
DASHED
 70
     0
  3
__ __ __ __ __
 72
    65
 73
     2
 40
6.25
 49
5.0
 74
     4
 75
     0
340
0
 46
1.0
 50
0.0
 44
0.0
 45
0.0
 49
-1.25
 74
     4
 75
     0
340
0
 46
1.0
 50
0.0
 44
0.0
 45
0.0
  0
LTYPE
  5
2B9
330
5
100
AcDbSymbolTableRecord
100
AcDbLinetypeTableRecord
  2
DASHDOT
 70
     0
  3
__ . __ . __ . __ . __
 72
    65
 73
     4
 40
7.5
 49
5.0
 74
     4
 75
     0
340
0
 46
1.0
 50
0.0
 44
0.0
 45
0.0
 49
-1.25
 74
     4
 75
     0
340
0
 46
1.0
 50
0.0
 44
0.0
 45
0.0
 49
0.0
 74
     4
 75
     0
340
0
 46
1.0
 50
0.0
 44
0.0
 45
0.0
 49
-1.25
 74
     4
 75
     0
340
0
 46
1.0
 50
0.0
 44
0.0
 45
0.0
  0
ENDTAB
  0
TABLE
  2
LAYER
  5
2
330
0
100
AcDbSymbolTable
 70
    14
  0
LAYER
  5
10
330
2
100
AcDbSymbolTableRecord
100
AcDbLayerTableRecord
  2
0
 70
     0
 62
     7
  6
Continuous
370
    -3
390
F
  0
LAYER
  5
2B
330
2
100
AcDbSymbolTableRecord
100
AcDbLayerTableRecord
  2
LC-INFO-1-2-mm-A3-0
 70
     1
 62
     7
  6
ByBlock
370
    -3
390
F
  0
LAYER
  5
2C
330
2
100
AcDbSymbolTableRecord
100
AcDbLayerTableRecord
  2
LC-CUT-HIDDEN
 70
     0
 62
     7
  6
DASHED
370
    -3
390
F
  0
LAYER
  5
2D
330
2
100
AcDbSymbolTableRecord
100
AcDbLayerTableRecord
  2
LC-VIEWPORT
 70
     0
 62
     7
  6
ByBlock
370
    -3
390
F
  0
LAYER
  5
2E
330
2
100
AcDbSymbolTableRecord
100
AcDbLayerTableRecord
  2
LC-3D-HIDDEN
 70
     0
 62
     9
  6
DASHED
370
    -3
390
F
  0
LAYER
  5
30
330
2
100
AcDbSymbolTableRecord
100
AcDbLayerTableRecord
  2
LC-001-002-----0
 70
     0
 62
     2
  6
ByBlock
370
    -3
390
F
  0
LAYER
  5
33
330
2
100
AcDbSymbolTableRecord
100
AcDbLayerTableRecord
  2
LC-002-100-D00-0
 70
     0
 62
     1
  6
ByBlock
370
    -3
390
F
  0
LAYER
  5
2BE
330
2
100
AcDbSymbolTableRecord
100
AcDbLayerTableRecord
  2
LC-003-003-----0
 70
     0
 62
     2
  6
ByBlock
370
    -3
390
F
  0
LAYER
  5
2C0
330
2
100
AcDbSymbolTableRecord
100
AcDbLayerTableRecord
  2
Defpoints
 70
     0
 62
     7
  6
Continuous
290
     0
370
    -3
390
F
  0
LAYER
  5
318
330
2
100
AcDbSymbolTableRecord
100
AcDbLayerTableRecord
  2
LC-004-003-MTG-0
 70
     0
 62
     2
  6
ByBlock
370
    -3
390
F
  0
LAYER
  5
31C
330
2
100
AcDbSymbolTableRecord
100
AcDbLayerTableRecord
  2
LC-005-003-MTH-0
 70
     0
 62
     2
  6
ByBlock
370
    -3
390
F
  0
LAYER
  5
321
330
2
100
AcDbSymbolTableRecord
100
AcDbLayerTableRecord
  2
LC-006-103-D00-0
 70
     0
 62
     7
  6
ByBlock
370
    -3
390
F
  0
LAYER
  5
326
330
2
100
AcDbSymbolTableRecord
100
AcDbLayerTableRecord
  2
LC-007-002-RND-0
 70
     0
 62
     1
  6
ByBlock
370
    -3
390
F
  0
LAYER
  5
341
330
2
100
AcDbSymbolTableRecord
100
AcDbLayerTableRecord
  2
LC-008-005-----0
 70
     0
 62
     2
  6
ByBlock
370
    -3
390
F
  0
ENDTAB
  0
TABLE
  2
STYLE
  5
3
330
0
100
AcDbSymbolTable
 70
     3
  0
STYLE
  5
11
330
3
100
AcDbSymbolTableRecord
100
AcDbTextStyleTableRecord
  2
Standard
 70
     0
 40
0.0
 41
1.0
 50
0.0
 71
     0
 42
2.5
  3
txt
  4

  0
STYLE
  5
2F
330
3
100
AcDbSymbolTableRecord
100
AcDbTextStyleTableRecord
  2
LCTX15-400-0-0-Arial
 70
     0
 40
0.0
 41
0.8
 50
0.0
 71
     0
 42
3.5
  3
ARIAL.TTF
  4

1001
ACAD
1000
Arial
1071
 16777218
  0
STYLE
  5
2BC
330
3
100
AcDbSymbolTableRecord
100
AcDbTextStyleTableRecord
  2
LCTX15-400-0-0pDIN-Schrift
 70
     0
 40
2.5
 41
0.8
 50
15.0
 71
     0
 42
3.5
  3
STANDARD
  4

  0
ENDTAB
  0
TABLE
  2
VIEW
  5
6
330
0
100
AcDbSymbolTable
 70
     0
  0
ENDTAB
  0
TABLE
  2
UCS
  5
7
330
0
100
AcDbSymbolTable
 70
     0
  0
ENDTAB
  0
TABLE
  2
APPID
  5
9
330
0
100
AcDbSymbolTable
 70
     1
  0
APPID
  5
12
330
9
100
AcDbSymbolTableRecord
100
AcDbRegAppTableRecord
  2
ACAD
 70
     0
  0
ENDTAB
  0
TABLE
  2
DIMSTYLE
  5
A
330
0
100
AcDbSymbolTable
 70
     3
100
AcDbDimStyleTable
  0
DIMSTYLE
105
27
330
A
100
AcDbSymbolTableRecord
100
AcDbDimStyleTableRecord
  2
ISO-25
 70
     0
 41
2.5
 42
0.625
 43
3.75
 44
1.25
 73
     0
 74
     0
 77
     1
 78
     8
140
2.5
141
2.5
143
0.03937
147
0.625
171
     3
172
     1
271
     2
272
     2
274
     3
278
    44
283
     0
284
     8
340
11
  0
DIMSTYLE
105
2BD
102
{ACAD_REACTORS
330
2BF
330
2CE
330
2DB
330
2E8
330
2F5
330
399
330
3A6
330
3B5
102
}
330
A
100
AcDbSymbolTableRecord
100
AcDbDimStyleTableRecord
  2
LC-DIM-L-0140-02-02
 70
     0
 40
2.0
 41
14.0
 42
0.0
 43
7.5
 44
1.8
 73
     0
 74
     0
 77
     1
 78
     8
 79
     2
140
14.0
141
0.0
146
0.71
147
1.5
176
     2
177
     2
178
     2
179
     2
271
     2
278
    44
289
     1
340
2BC
  0
DIMSTYLE
105
303
330
A
100
AcDbSymbolTableRecord
100
AcDbDimStyleTableRecord
  2
LC-DIM-W-0140-02-02
 70
     0
 40
2.0
 41
14.0
 42
0.0
 43
7.5
 44
1.8
 73
     0
 74
     0
 77
     1
 78
     8
 79
     2
140
14.0
141
0.0
146
0.71
147
1.5
176
     2
177
     2
178
     2
179
     2
271
     2
278
    44
289
     1
340
2BC
  0
ENDTAB
  0
TABLE
  2
BLOCK_RECORD
  5
1
330
0
100
AcDbSymbolTable
 70
    31
  0
BLOCK_RECORD
  5
1F
330
1
100
AcDbSymbolTableRecord
100
AcDbBlockTableRecord
  2
*Model_Space
340
22
  0
BLOCK_RECORD
  5
1B
330
1
100
AcDbSymbolTableRecord
100
AcDbBlockTableRecord
  2
*Paper_Space
340
1E
  0
BLOCK_RECORD
  5
23
330
1
100
AcDbSymbolTableRecord
100
AcDbBlockTableRecord
  2
*Paper_Space0
340
26
  0
BLOCK_RECORD
  5
99
330
1
100
AcDbSymbolTableRecord
100
AcDbBlockTableRecord
  2
POLY1
340
0
102
{BLKREFS
331
BE
102
}
  0
BLOCK_RECORD
  5
BF
330
1
100
AcDbSymbolTableRecord
100
AcDbBlockTableRecord
  2
POLY2
340
0
102
{BLKREFS
331
D0
102
}
  0
BLOCK_RECORD
  5
109
330
1
100
AcDbSymbolTableRecord
100
AcDbBlockTableRecord
  2
KLON1
340
0
102
{BLKREFS
331
10E
102
}
  0
BLOCK_RECORD
  5
10F
330
1
100
AcDbSymbolTableRecord
100
AcDbBlockTableRecord
  2
KLON2
340
0
102
{BLKREFS
331
114
102
}
  0
BLOCK_RECORD
  5
162
330
1
100
AcDbSymbolTableRecord
100
AcDbBlockTableRecord
  2
POLY3
340
0
102
{BLKREFS
331
16D
102
}
  0
BLOCK_RECORD
  5
170
330
1
100
AcDbSymbolTableRecord
100
AcDbBlockTableRecord
  2
POLY4
340
0
102
{BLKREFS
331
17B
102
}
  0
BLOCK_RECORD
  5
1AC
330
1
100
AcDbSymbolTableRecord
100
AcDbBlockTableRecord
  2
KLON3
340
0
102
{BLKREFS
331
1B4
102
}
  0
BLOCK_RECORD
  5
1B5
330
1
100
AcDbSymbolTableRecord
100
AcDbBlockTableRecord
  2
KLON4
340
0
102
{BLKREFS
331
1BD
102
}
  0
BLOCK_RECORD
  5
1BE
330
1
100
AcDbSymbolTableRecord
100
AcDbBlockTableRecord
  2
KLON5
340
0
102
{BLKREFS
331
1F1
102
}
  0
BLOCK_RECORD
  5
1F2
330
1
100
AcDbSymbolTableRecord
100
AcDbBlockTableRecord
  2
KLON6
340
0
102
{BLKREFS
331
1FF
102
}
  0
BLOCK_RECORD
  5
200
330
1
100
AcDbSymbolTableRecord
100
AcDbBlockTableRecord
  2
KLON7
340
0
102
{BLKREFS
331
213
102
}
  0
BLOCK_RECORD
  5
215
330
1
100
AcDbSymbolTableRecord
100
AcDbBlockTableRecord
  2
KLON8
340
0
102
{BLKREFS
331
226
102
}
  0
BLOCK_RECORD
  5
227
330
1
100
AcDbSymbolTableRecord
100
AcDbBlockTableRecord
  2
KLON9
340
0
102
{BLKREFS
331
261
102
}
  0
BLOCK_RECORD
  5
262
330
1
100
AcDbSymbolTableRecord
100
AcDbBlockTableRecord
  2
KLON10
340
0
102
{BLKREFS
331
278
102
}
  0
BLOCK_RECORD
  5
279
330
1
100
AcDbSymbolTableRecord
100
AcDbBlockTableRecord
  2
KLON11
340
0
102
{BLKREFS
331
28D
102
}
  0
BLOCK_RECORD
  5
291
330
1
100
AcDbSymbolTableRecord
100
AcDbBlockTableRecord
  2
KLON12
340
0
102
{BLKREFS
331
296
102
}
  0
BLOCK_RECORD
  5
297
330
1
100
AcDbSymbolTableRecord
100
AcDbBlockTableRecord
  2
KLON13
340
0
102
{BLKREFS
331
2A7
102
}
  0
BLOCK_RECORD
  5
2A8
330
1
100
AcDbSymbolTableRecord
100
AcDbBlockTableRecord
  2
KLON14
340
0
102
{BLKREFS
331
2B8
102
}
  0
BLOCK_RECORD
  5
2C1
330
1
100
AcDbSymbolTableRecord
100
AcDbBlockTableRecord
  2
*D19
340
0
  0
BLOCK_RECORD
  5
2CF
330
1
100
AcDbSymbolTableRecord
100
AcDbBlockTableRecord
  2
*D20
340
0
  0
BLOCK_RECORD
  5
2DC
330
1
100
AcDbSymbolTableRecord
100
AcDbBlockTableRecord
  2
*D21
340
0
  0
BLOCK_RECORD
  5
2E9
330
1
100
AcDbSymbolTableRecord
100
AcDbBlockTableRecord
  2
*D22
340
0
  0
BLOCK_RECORD
  5
2F6
330
1
100
AcDbSymbolTableRecord
100
AcDbBlockTableRecord
  2
*D23
340
0
  0
BLOCK_RECORD
  5
304
330
1
100
AcDbSymbolTableRecord
100
AcDbBlockTableRecord
  2
LCDIM1
340
0
102
{BLKREFS
331
320
102
}
  0
BLOCK_RECORD
  5
33E
330
1
100
AcDbSymbolTableRecord
100
AcDbBlockTableRecord
  2
*X125
340
0
102
{BLKREFS
331
361
102
}
  0
BLOCK_RECORD
  5
362
330
1
100
AcDbSymbolTableRecord
100
AcDbBlockTableRecord
  2
*X226
340
0
102
{BLKREFS
331
37F
102
}
  0
BLOCK_RECORD
  5
38E
330
1
100
AcDbSymbolTableRecord
100
AcDbBlockTableRecord
  2
*X327
340
0
102
{BLKREFS
331
397
102
}
  0
BLOCK_RECORD
  5
39A
330
1
100
AcDbSymbolTableRecord
100
AcDbBlockTableRecord
  2
*D28
340
0
  0
BLOCK_RECORD
  5
3A7
330
1
100
AcDbSymbolTableRecord
100
AcDbBlockTableRecord
  2
*D29
340
0
  0
BLOCK_RECORD
  5
3B6
330
1
100
AcDbSymbolTableRecord
100
AcDbBlockTableRecord
  2
*D30
340
0
  0
ENDTAB
  0
ENDSEC
  0
SECTION
  2
BLOCKS
  0
BLOCK
  5
20
330
1F
100
AcDbEntity
  8
0
100
AcDbBlockBegin
  2
*Model_Space
 70
     0
 71
     0
 10
0.0
 20
0.0
 30
0.0
  3
*Model_Space
  1

  0
ENDBLK
  5
21
330
1F
100
AcDbEntity
  8
0
100
AcDbBlockEnd
  0
BLOCK
  5
1C
330
1B
100
AcDbEntity
 67
     1
  8
0
100
AcDbBlockBegin
  2
*Paper_Space
 70
     0
 71
     0
 10
0.0
 20
0.0
 30
0.0
  3
*Paper_Space
  1

  0
ENDBLK
  5
1D
330
1B
100
AcDbEntity
 67
     1
  8
0
100
AcDbBlockEnd
  0
BLOCK
  5
24
330
23
100
AcDbEntity
  8
0
100
AcDbBlockBegin
  2
*Paper_Space0
 70
     0
 71
     0
 10
0.0
 20
0.0
 30
0.0
  3
*Paper_Space0
  1

  0
ENDBLK
  5
25
330
23
100
AcDbEntity
  8
0
100
AcDbBlockEnd
  0
BLOCK
  5
9A
330
99
100
AcDbEntity
  8
0
100
AcDbBlockBegin
  2
POLY1
 70
     0
 71
     0
 10
0.0
 20
0.0
 30
0.0
  3
POLY1
  1

  4
POLY1
  0
LINE
  5
9C
330
99
100
AcDbEntity
  8
LC-002-100-D00-0
 62
     7
370
    50
100
AcDbLine
 10
147.255306
 20
311.217866
 30
0.0
 11
147.255306
 21
311.217866
 31
0.0
  0
LINE
  5
9D
330
99
100
AcDbEntity
  8
LC-002-100-D00-0
 62
     7
370
    50
100
AcDbLine
 10
147.255306
 20
311.217866
 30
0.0
 11
147.223552
 21
311.147922
 31
0.0
  0
LINE
  5
9E
330
99
100
AcDbEntity
  8
LC-002-100-D00-0
 62
     7
370
    50
100
AcDbLine
 10
147.223552
 20
311.147922
 30
0.0
 11
147.223552
 21
311.147922
 31
0.0
  0
LINE
  5
9F
330
99
100
AcDbEntity
  8
LC-002-100-D00-0
 62
     7
370
    50
100
AcDbLine
 10
147.223552
 20
311.147922
 30
0.0
 11
147.16467
 21
311.018224
 31
0.0
  0
LINE
  5
A0
330
99
100
AcDbEntity
  8
LC-002-100-D00-0
 62
     7
370
    50
100
AcDbLine
 10
147.16467
 20
311.018224
 30
0.0
 11
147.16467
 21
311.018224
 31
0.0
  0
LINE
  5
A1
330
99
100
AcDbEntity
  8
LC-002-100-D00-0
 62
     7
370
    50
100
AcDbLine
 10
147.16467
 20
311.018224
 30
0.0
 11
146.734989
 21
310.047997
 31
0.0
  0
LINE
  5
A2
330
99
100
AcDbEntity
  8
LC-002-100-D00-0
 62
     7
370
    50
100
AcDbLine
 10
146.734989
 20
310.047997
 30
0.0
 11
146.734989
 21
310.047997
 31
0.0
  0
LINE
  5
A3
330
99
100
AcDbEntity
  8
LC-002-100-D00-0
 62
     7
370
    50
100
AcDbLine
 10
146.734989
 20
310.047997
 30
0.0
 11
146.143311
 21
308.652119
 31
0.0
  0
LINE
  5
A4
330
99
100
AcDbEntity
  8
LC-002-100-D00-0
 62
     7
370
    50
100
AcDbLine
 10
146.143311
 20
308.652119
 30
0.0
 11
146.143311
 21
308.652119
 31
0.0
  0
LINE
  5
A5
330
99
100
AcDbEntity
  8
LC-002-100-D00-0
 62
     7
370
    50
100
AcDbLine
 10
146.143311
 20
308.652119
 30
0.0
 11
145.381042
 21
306.729265
 31
0.0
  0
LINE
  5
A6
330
99
100
AcDbEntity
  8
LC-002-100-D00-0
 62
     7
370
    50
100
AcDbLine
 10
145.381042
 20
306.729265
 30
0.0
 11
145.381042
 21
306.729265
 31
0.0
  0
LINE
  5
A7
330
99
100
AcDbEntity
  8
LC-002-100-D00-0
 62
     7
370
    50
100
AcDbLine
 10
145.381042
 20
306.729265
 30
0.0
 11
144.506728
 21
304.290545
 31
0.0
  0
LINE
  5
A8
330
99
100
AcDbEntity
  8
LC-002-100-D00-0
 62
     7
370
    50
100
AcDbLine
 10
144.506728
 20
304.290545
 30
0.0
 11
144.506728
 21
304.290545
 31
0.0
  0
LINE
  5
A9
330
99
100
AcDbEntity
  8
LC-002-100-D00-0
 62
     7
370
    50
100
AcDbLine
 10
144.506728
 20
304.290545
 30
0.0
 11
143.591666
 21
301.330111
 31
0.0
  0
LINE
  5
AA
330
99
100
AcDbEntity
  8
LC-002-100-D00-0
 62
     7
370
    50
100
AcDbLine
 10
143.591666
 20
301.330111
 30
0.0
 11
143.591666
 21
301.330111
 31
0.0
  0
LINE
  5
AB
330
99
100
AcDbEntity
  8
LC-002-100-D00-0
 62
     7
370
    50
100
AcDbLine
 10
143.591666
 20
301.330111
 30
0.0
 11
142.75282
 21
297.920857
 31
0.0
  0
LINE
  5
AC
330
99
100
AcDbEntity
  8
LC-002-100-D00-0
 62
     7
370
    50
100
AcDbLine
 10
142.75282
 20
297.920857
 30
0.0
 11
142.75282
 21
297.920857
 31
0.0
  0
LINE
  5
AD
330
99
100
AcDbEntity
  8
LC-002-100-D00-0
 62
     7
370
    50
100
AcDbLine
 10
142.75282
 20
297.920857
 30
0.0
 11
142.105091
 21
294.148588
 31
0.0
  0
LINE
  5
AE
330
99
100
AcDbEntity
  8
LC-002-100-D00-0
 62
     7
370
    50
100
AcDbLine
 10
142.105091
 20
294.148588
 30
0.0
 11
142.105091
 21
294.148588
 31
0.0
  0
LINE
  5
AF
330
99
100
AcDbEntity
  8
LC-002-100-D00-0
 62
     7
370
    50
100
AcDbLine
 10
142.105091
 20
294.148588
 30
0.0
 11
141.816719
 21
290.861319
 31
0.0
  0
LINE
  5
B0
330
99
100
AcDbEntity
  8
LC-002-100-D00-0
 62
     7
370
    50
100
AcDbLine
 10
141.816719
 20
290.861319
 30
0.0
 11
141.816719
 21
290.861319
 31
0.0
  0
LINE
  5
B1
330
99
100
AcDbEntity
  8
LC-002-100-D00-0
 62
     7
370
    50
100
AcDbLine
 10
141.816719
 20
290.861319
 30
0.0
 11
141.749197
 21
287.658387
 31
0.0
  0
LINE
  5
B2
330
99
100
AcDbEntity
  8
LC-002-100-D00-0
 62
     7
370
    50
100
AcDbLine
 10
141.749197
 20
287.658387
 30
0.0
 11
141.749197
 21
287.658387
 31
0.0
  0
LINE
  5
B3
330
99
100
AcDbEntity
  8
LC-002-100-D00-0
 62
     7
370
    50
100
AcDbLine
 10
141.749197
 20
287.658387
 30
0.0
 11
141.871872
 21
284.581728
 31
0.0
  0
LINE
  5
B4
330
99
100
AcDbEntity
  8
LC-002-100-D00-0
 62
     7
370
    50
100
AcDbLine
 10
141.871872
 20
284.581728
 30
0.0
 11
141.871872
 21
284.581728
 31
0.0
  0
LINE
  5
B5
330
99
100
AcDbEntity
  8
LC-002-100-D00-0
 62
     7
370
    50
100
AcDbLine
 10
141.871872
 20
284.581728
 30
0.0
 11
142.292416
 21
281.056525
 31
0.0
  0
LINE
  5
B6
330
99
100
AcDbEntity
  8
LC-002-100-D00-0
 62
     7
370
    50
100
AcDbLine
 10
142.292416
 20
281.056525
 30
0.0
 11
142.292416
 21
281.056525
 31
0.0
  0
LINE
  5
B7
330
99
100
AcDbEntity
  8
LC-002-100-D00-0
 62
     7
370
    50
100
AcDbLine
 10
142.292416
 20
281.056525
 30
0.0
 11
142.935291
 21
277.721169
 31
0.0
  0
LINE
  5
B8
330
99
100
AcDbEntity
  8
LC-002-100-D00-0
 62
     7
370
    50
100
AcDbLine
 10
142.935291
 20
277.721169
 30
0.0
 11
142.935291
 21
277.721169
 31
0.0
  0
LINE
  5
B9
330
99
100
AcDbEntity
  8
LC-002-100-D00-0
 62
     7
370
    50
100
AcDbLine
 10
142.935291
 20
277.721169
 30
0.0
 11
143.808629
 21
274.314337
 31
0.0
  0
LINE
  5
BA
330
99
100
AcDbEntity
  8
LC-002-100-D00-0
 62
     7
370
    50
100
AcDbLine
 10
143.808629
 20
274.314337
 30
0.0
 11
143.808629
 21
274.314337
 31
0.0
  0
LINE
  5
BB
330
99
100
AcDbEntity
  8
LC-002-100-D00-0
 62
     7
370
    50
100
AcDbLine
 10
143.808629
 20
274.314337
 30
0.0
 11
144.472756
 21
272.331252
 31
0.0
  0
LINE
  5
BC
330
99
100
AcDbEntity
  8
LC-002-100-D00-0
 62
     7
370
    50
100
AcDbLine
 10
144.472756
 20
272.331252
 30
0.0
 11
144.472756
 21
272.331252
 31
0.0
  0
LINE
  5
BD
330
99
100
AcDbEntity
  8
LC-002-100-D00-0
 62
     7
370
    50
100
AcDbLine
 10
144.472756
 20
272.331252
 30
0.0
 11
144.849968
 21
271.204896
 31
0.0
  0
ENDBLK
  5
9B
330
99
100
AcDbEntity
  8
0
100
AcDbBlockEnd
  0
BLOCK
  5
C0
330
BF
100
AcDbEntity
  8
0
100
AcDbBlockBegin
  2
POLY2
 70
     0
 71
     0
 10
0.0
 20
0.0
 30
0.0
  3
POLY2
  1

  4
POLY2
  0
LINE
  5
C2
330
BF
100
AcDbEntity
  8
LC-002-100-D00-0
 62
     7
370
    50
100
AcDbLine
 10
144.849968
 20
271.204896
 30
0.0
 11
144.849968
 21
271.204896
 31
0.0
  0
LINE
  5
C3
330
BF
100
AcDbEntity
  8
LC-002-100-D00-0
 62
     7
370
    50
100
AcDbLine
 10
144.849968
 20
271.204896
 30
0.0
 11
145.070586
 21
270.593203
 31
0.0
  0
LINE
  5
C4
330
BF
100
AcDbEntity
  8
LC-002-100-D00-0
 62
     7
370
    50
100
AcDbLine
 10
145.070586
 20
270.593203
 30
0.0
 11
145.070586
 21
270.593203
 31
0.0
  0
LINE
  5
C5
330
BF
100
AcDbEntity
  8
LC-002-100-D00-0
 62
     7
370
    50
100
AcDbLine
 10
145.070586
 20
270.593203
 30
0.0
 11
145.595232
 21
269.138558
 31
0.0
  0
LINE
  5
C6
330
BF
100
AcDbEntity
  8
LC-002-100-D00-0
 62
     7
370
    50
100
AcDbLine
 10
145.595232
 20
269.138558
 30
0.0
 11
145.595232
 21
269.138558
 31
0.0
  0
LINE
  5
C7
330
BF
100
AcDbEntity
  8
LC-002-100-D00-0
 62
     7
370
    50
100
AcDbLine
 10
145.595232
 20
269.138558
 30
0.0
 11
146.33622
 21
267.319693
 31
0.0
  0
LINE
  5
C8
330
BF
100
AcDbEntity
  8
LC-002-100-D00-0
 62
     7
370
    50
100
AcDbLine
 10
146.33622
 20
267.319693
 30
0.0
 11
146.33622
 21
267.319693
 31
0.0
  0
LINE
  5
C9
330
BF
100
AcDbEntity
  8
LC-002-100-D00-0
 62
     7
370
    50
100
AcDbLine
 10
146.33622
 20
267.319693
 30
0.0
 11
146.889416
 21
266.035259
 31
0.0
  0
LINE
  5
CA
330
BF
100
AcDbEntity
  8
LC-002-100-D00-0
 62
     7
370
    50
100
AcDbLine
 10
146.889416
 20
266.035259
 30
0.0
 11
146.889416
 21
266.035259
 31
0.0
  0
LINE
  5
CB
330
BF
100
AcDbEntity
  8
LC-002-100-D00-0
 62
     7
370
    50
100
AcDbLine
 10
146.889416
 20
266.035259
 30
0.0
 11
147.201625
 21
265.336619
 31
0.0
  0
LINE
  5
CC
330
BF
100
AcDbEntity
  8
LC-002-100-D00-0
 62
     7
370
    50
100
AcDbLine
 10
147.201625
 20
265.336619
 30
0.0
 11
147.201625
 21
265.336619
 31
0.0
  0
LINE
  5
CD
330
BF
100
AcDbEntity
  8
LC-002-100-D00-0
 62
     7
370
    50
100
AcDbLine
 10
147.201625
 20
265.336619
 30
0.0
 11
147.23729
 21
265.25772
 31
0.0
  0
LINE
  5
CE
330
BF
100
AcDbEntity
  8
LC-002-100-D00-0
 62
     7
370
    50
100
AcDbLine
 10
147.23729
 20
265.25772
 30
0.0
 11
147.23729
 21
265.25772
 31
0.0
  0
LINE
  5
CF
330
BF
100
AcDbEntity
  8
LC-002-100-D00-0
 62
     7
370
    50
100
AcDbLine
 10
147.23729
 20
265.25772
 30
0.0
 11
147.255306
 21
265.217864
 31
0.0
  0
ENDBLK
  5
C1
330
BF
100
AcDbEntity
  8
0
100
AcDbBlockEnd
  0
BLOCK
  5
10A
330
109
100
AcDbEntity
  8
0
100
AcDbBlockBegin
  2
KLON1
 70
     0
 71
     0
 10
0.0
 20
0.0
 30
0.0
  3
KLON1
  1

  4
KLON1
  0
LINE
  5
10C
330
109
100
AcDbEntity
  8
LC-002-100-D00-0
 62
     7
370
    15
100
AcDbLine
 10
127.005306
 20
267.883827
 30
0.0
 11
126.866068
 21
267.902159
 31
0.0
  0
LINE
  5
10D
330
109
100
AcDbEntity
  8
LC-002-100-D00-0
 62
     7
370
    15
100
AcDbLine
 10
126.866068
 20
267.902159
 30
0.0
 11
126.755306
 21
267.916742
 31
0.0
  0
ENDBLK
  5
10B
330
109
100
AcDbEntity
  8
0
100
AcDbBlockEnd
  0
BLOCK
  5
110
330
10F
100
AcDbEntity
  8
0
100
AcDbBlockBegin
  2
KLON2
 70
     0
 71
     0
 10
0.0
 20
0.0
 30
0.0
  3
KLON2
  1

  4
KLON2
  0
LINE
  5
112
330
10F
100
AcDbEntity
  8
LC-002-100-D00-0
 62
     7
370
    15
100
AcDbLine
 10
65.755305
 20
275.947544
 30
0.0
 11
65.644544
 21
275.962125
 31
0.0
  0
LINE
  5
113
330
10F
100
AcDbEntity
  8
LC-002-100-D00-0
 62
     7
370
    15
100
AcDbLine
 10
65.644544
 20
275.962125
 30
0.0
 11
65.505308
 21
275.980457
 31
0.0
  0
ENDBLK
  5
111
330
10F
100
AcDbEntity
  8
0
100
AcDbBlockEnd
  0
BLOCK
  5
163
330
162
100
AcDbEntity
  8
0
100
AcDbBlockBegin
  2
POLY3
 70
     0
 71
     0
 10
0.0
 20
0.0
 30
0.0
  3
POLY3
  1

  4
POLY3
  0
LINE
  5
165
330
162
100
AcDbEntity
  8
LC-002-100-D00-0
 62
     7
370
    50
100
AcDbLine
 10
132.130088
 20
328.603884
 30
0.0
 11
132.130088
 21
328.603884
 31
0.0
  0
LINE
  5
166
330
162
100
AcDbEntity
  8
LC-002-100-D00-0
 62
     7
370
    50
100
AcDbLine
 10
132.130088
 20
328.603884
 30
0.0
 11
130.464902
 21
325.250453
 31
0.0
  0
LINE
  5
167
330
162
100
AcDbEntity
  8
LC-002-100-D00-0
 62
     7
370
    50
100
AcDbLine
 10
130.464902
 20
325.250453
 30
0.0
 11
130.464902
 21
325.250453
 31
0.0
  0
LINE
  5
168
330
162
100
AcDbEntity
  8
LC-002-100-D00-0
 62
     7
370
    50
100
AcDbLine
 10
130.464902
 20
325.250453
 30
0.0
 11
128.295291
 21
320.881185
 31
0.0
  0
LINE
  5
169
330
162
100
AcDbEntity
  8
LC-002-100-D00-0
 62
     7
370
    50
100
AcDbLine
 10
128.295291
 20
320.881185
 30
0.0
 11
128.295291
 21
320.881185
 31
0.0
  0
LINE
  5
16A
330
162
100
AcDbEntity
  8
LC-002-100-D00-0
 62
     7
370
    50
100
AcDbLine
 10
128.295291
 20
320.881185
 30
0.0
 11
126.123351
 21
316.513075
 31
0.0
  0
LINE
  5
16B
330
162
100
AcDbEntity
  8
LC-002-100-D00-0
 62
     7
370
    50
100
AcDbLine
 10
126.123351
 20
316.513075
 30
0.0
 11
126.123351
 21
316.513075
 31
0.0
  0
LINE
  5
16C
330
162
100
AcDbEntity
  8
LC-002-100-D00-0
 62
     7
370
    50
100
AcDbLine
 10
126.123351
 20
316.513075
 30
0.0
 11
125.618384
 21
315.497508
 31
0.0
  0
ENDBLK
  5
164
330
162
100
AcDbEntity
  8
0
100
AcDbBlockEnd
  0
BLOCK
  5
171
330
170
100
AcDbEntity
  8
0
100
AcDbBlockBegin
  2
POLY4
 70
     0
 71
     0
 10
0.0
 20
0.0
 30
0.0
  3
POLY4
  1

  4
POLY4
  0
LINE
  5
173
330
170
100
AcDbEntity
  8
LC-002-100-D00-0
 62
     7
370
    50
100
AcDbLine
 10
66.892229
 20
315.497508
 30
0.0
 11
66.892229
 21
315.497508
 31
0.0
  0
LINE
  5
174
330
170
100
AcDbEntity
  8
LC-002-100-D00-0
 62
     7
370
    50
100
AcDbLine
 10
66.892229
 20
315.497508
 30
0.0
 11
66.387262
 21
316.513075
 31
0.0
  0
LINE
  5
175
330
170
100
AcDbEntity
  8
LC-002-100-D00-0
 62
     7
370
    50
100
AcDbLine
 10
66.387262
 20
316.513075
 30
0.0
 11
66.387262
 21
316.513075
 31
0.0
  0
LINE
  5
176
330
170
100
AcDbEntity
  8
LC-002-100-D00-0
 62
     7
370
    50
100
AcDbLine
 10
66.387262
 20
316.513075
 30
0.0
 11
64.215319
 21
320.881185
 31
0.0
  0
LINE
  5
177
330
170
100
AcDbEntity
  8
LC-002-100-D00-0
 62
     7
370
    50
100
AcDbLine
 10
64.215319
 20
320.881185
 30
0.0
 11
64.215319
 21
320.881185
 31
0.0
  0
LINE
  5
178
330
170
100
AcDbEntity
  8
LC-002-100-D00-0
 62
     7
370
    50
100
AcDbLine
 10
64.215319
 20
320.881185
 30
0.0
 11
62.045708
 21
325.250453
 31
0.0
  0
LINE
  5
179
330
170
100
AcDbEntity
  8
LC-002-100-D00-0
 62
     7
370
    50
100
AcDbLine
 10
62.045708
 20
325.250453
 30
0.0
 11
62.045708
 21
325.250453
 31
0.0
  0
LINE
  5
17A
330
170
100
AcDbEntity
  8
LC-002-100-D00-0
 62
     7
370
    50
100
AcDbLine
 10
62.045708
 20
325.250453
 30
0.0
 11
60.380523
 21
328.603884
 31
0.0
  0
ENDBLK
  5
172
330
170
100
AcDbEntity
  8
0
100
AcDbBlockEnd
  0
BLOCK
  5
1AD
330
1AC
100
AcDbEntity
  8
0
100
AcDbBlockBegin
  2
KLON3
 70
     0
 71
     0
 10
0.0
 20
0.0
 30
0.0
  3
KLON3
  1

  4
KLON3
  0
LINE
  5
1AF
330
1AC
100
AcDbEntity
  8
LC-002-100-D00-0
 62
     7
370
    25
100
AcDbLine
 10
138.155306
 20
322.250555
 30
0.0
 11
142.122616
 21
326.217865
 31
0.0
  0
LINE
  5
1B0
330
1AC
100
AcDbEntity
  8
LC-002-100-D00-0
 62
     7
370
    25
100
AcDbLine
 10
138.155306
 20
317.760425
 30
0.0
 11
141.755306
 21
321.360425
 31
0.0
  0
LINE
  5
1B1
330
1AC
100
AcDbEntity
  8
LC-002-100-D00-0
 62
     7
370
    25
100
AcDbLine
 10
143.612746
 20
323.217865
 30
0.0
 11
148.612746
 21
328.217865
 31
0.0
  0
LINE
  5
1B2
330
1AC
100
AcDbEntity
  8
LC-002-100-D00-0
 62
     7
370
    25
100
AcDbLine
 10
138.155306
 20
313.270285
 30
0.0
 11
141.755306
 21
316.870285
 31
0.0
  0
LINE
  5
1B3
330
1AC
100
AcDbEntity
  8
LC-002-100-D00-0
 62
     7
370
    25
100
AcDbLine
 10
145.598322
 20
320.713301
 30
0.0
 11
150.255306
 21
325.370285
 31
0.0
  0
ENDBLK
  5
1AE
330
1AC
100
AcDbEntity
  8
0
100
AcDbBlockEnd
  0
BLOCK
  5
1B6
330
1B5
100
AcDbEntity
  8
0
100
AcDbBlockBegin
  2
KLON4
 70
     0
 71
     0
 10
0.0
 20
0.0
 30
0.0
  3
KLON4
  1

  4
KLON4
  0
LINE
  5
1B8
330
1B5
100
AcDbEntity
  8
LC-002-100-D00-0
 62
     7
370
    25
100
AcDbLine
 10
50.755306
 20
320.16299
 30
0.0
 11
54.355306
 21
323.76299
 31
0.0
  0
LINE
  5
1B9
330
1B5
100
AcDbEntity
  8
LC-002-100-D00-0
 62
     7
370
    25
100
AcDbLine
 10
50.755306
 20
315.67286
 30
0.0
 11
54.355306
 21
319.27286
 31
0.0
  0
LINE
  5
1BA
330
1B5
100
AcDbEntity
  8
LC-002-100-D00-0
 62
     7
370
    25
100
AcDbLine
 10
50.790441
 20
311.217865
 30
0.0
 11
54.355306
 21
314.78273
 31
0.0
  0
LINE
  5
1BB
330
1B5
100
AcDbEntity
  8
LC-002-100-D00-0
 62
     7
370
    25
100
AcDbLine
 10
37.755306
 20
320.633358
 30
0.0
 11
41.339813
 21
324.217865
 31
0.0
  0
LINE
  5
1BC
330
1B5
100
AcDbEntity
  8
LC-002-100-D00-0
 62
     7
370
    25
100
AcDbLine
 10
42.255306
 20
325.133358
 30
0.0
 11
45.339813
 21
328.217865
 31
0.0
  0
ENDBLK
  5
1B7
330
1B5
100
AcDbEntity
  8
0
100
AcDbBlockEnd
  0
BLOCK
  5
1BF
330
1BE
100
AcDbEntity
  8
0
100
AcDbBlockBegin
  2
KLON5
 70
     0
 71
     0
 10
0.0
 20
0.0
 30
0.0
  3
KLON5
  1

  4
KLON5
  0
LINE
  5
1C1
330
1BE
100
AcDbEntity
  8
LC-002-100-D00-0
 62
     7
370
    25
100
AcDbLine
 10
122.968872
 20
255.268605
 30
0.0
 11
124.590585
 21
256.890318
 31
0.0
  0
LINE
  5
1C2
330
1BE
100
AcDbEntity
  8
LC-002-100-D00-0
 62
     7
370
    25
100
AcDbLine
 10
116.314023
 20
253.103884
 30
0.0
 11
117.890116
 21
254.679977
 31
0.0
  0
LINE
  5
1C3
330
1BE
100
AcDbEntity
  8
LC-002-100-D00-0
 62
     7
370
    25
100
AcDbLine
 10
125.179213
 20
261.969074
 30
0.0
 11
126.755306
 21
263.545167
 31
0.0
  0
LINE
  5
1C4
330
1BE
100
AcDbEntity
  8
LC-002-100-D00-0
 62
     7
370
    25
100
AcDbLine
 10
111.823895
 20
253.103884
 30
0.0
 11
113.323895
 21
254.603884
 31
0.0
  0
LINE
  5
1C5
330
1BE
100
AcDbEntity
  8
LC-002-100-D00-0
 62
     7
370
    25
100
AcDbLine
 10
125.255306
 20
266.535295
 30
0.0
 11
126.755306
 21
268.035295
 31
0.0
  0
LINE
  5
1C6
330
1BE
100
AcDbEntity
  8
LC-002-100-D00-0
 62
     7
370
    25
100
AcDbLine
 10
107.333767
 20
253.103884
 30
0.0
 11
108.833767
 21
254.603884
 31
0.0
  0
LINE
  5
1C7
330
1BE
100
AcDbEntity
  8
LC-002-100-D00-0
 62
     7
370
    25
100
AcDbLine
 10
125.255306
 20
271.025423
 30
0.0
 11
126.755306
 21
272.525423
 31
0.0
  0
LINE
  5
1C8
330
1BE
100
AcDbEntity
  8
LC-002-100-D00-0
 62
     7
370
    25
100
AcDbLine
 10
102.843639
 20
253.103884
 30
0.0
 11
104.343639
 21
254.603884
 31
0.0
  0
LINE
  5
1C9
330
1BE
100
AcDbEntity
  8
LC-002-100-D00-0
 62
     7
370
    25
100
AcDbLine
 10
125.255306
 20
275.515551
 30
0.0
 11
126.755306
 21
277.015551
 31
0.0
  0
LINE
  5
1CA
330
1BE
100
AcDbEntity
  8
LC-002-100-D00-0
 62
     7
370
    25
100
AcDbLine
 10
98.353511
 20
253.103884
 30
0.0
 11
99.853511
 21
254.603884
 31
0.0
  0
LINE
  5
1CB
330
1BE
100
AcDbEntity
  8
LC-002-100-D00-0
 62
     7
370
    25
100
AcDbLine
 10
125.255306
 20
280.005679
 30
0.0
 11
126.755306
 21
281.505679
 31
0.0
  0
LINE
  5
1CC
330
1BE
100
AcDbEntity
  8
LC-002-100-D00-0
 62
     7
370
    25
100
AcDbLine
 10
93.863383
 20
253.103884
 30
0.0
 11
95.363383
 21
254.603884
 31
0.0
  0
LINE
  5
1CD
330
1BE
100
AcDbEntity
  8
LC-002-100-D00-0
 62
     7
370
    25
100
AcDbLine
 10
125.255306
 20
284.495807
 30
0.0
 11
126.755306
 21
285.995807
 31
0.0
  0
LINE
  5
1CE
330
1BE
100
AcDbEntity
  8
LC-002-100-D00-0
 62
     7
370
    25
100
AcDbLine
 10
89.373255
 20
253.103884
 30
0.0
 11
90.873255
 21
254.603884
 31
0.0
  0
LINE
  5
1CF
330
1BE
100
AcDbEntity
  8
LC-002-100-D00-0
 62
     7
370
    25
100
AcDbLine
 10
125.255306
 20
288.985936
 30
0.0
 11
126.755306
 21
290.485936
 31
0.0
  0
LINE
  5
1D0
330
1BE
100
AcDbEntity
  8
LC-002-100-D00-0
 62
     7
370
    25
100
AcDbLine
 10
84.883126
 20
253.103884
 30
0.0
 11
86.383126
 21
254.603884
 31
0.0
  0
LINE
  5
1D1
330
1BE
100
AcDbEntity
  8
LC-002-100-D00-0
 62
     7
370
    25
100
AcDbLine
 10
125.255306
 20
293.476064
 30
0.0
 11
126.755306
 21
294.976064
 31
0.0
  0
LINE
  5
1D2
330
1BE
100
AcDbEntity
  8
LC-002-100-D00-0
 62
     7
370
    25
100
AcDbLine
 10
80.392998
 20
253.103884
 30
0.0
 11
81.892998
 21
254.603884
 31
0.0
  0
LINE
  5
1D3
330
1BE
100
AcDbEntity
  8
LC-002-100-D00-0
 62
     7
370
    25
100
AcDbLine
 10
125.255306
 20
297.966192
 30
0.0
 11
126.755306
 21
299.466192
 31
0.0
  0
LINE
  5
1D4
330
1BE
100
AcDbEntity
  8
LC-002-100-D00-0
 62
     7
370
    25
100
AcDbLine
 10
75.90287
 20
253.103884
 30
0.0
 11
77.40287
 21
254.603884
 31
0.0
  0
LINE
  5
1D5
330
1BE
100
AcDbEntity
  8
LC-002-100-D00-0
 62
     7
370
    25
100
AcDbLine
 10
125.255306
 20
302.45632
 30
0.0
 11
126.755306
 21
303.95632
 31
0.0
  0
LINE
  5
1D6
330
1BE
100
AcDbEntity
  8
LC-002-100-D00-0
 62
     7
370
    25
100
AcDbLine
 10
72.10341
 20
253.794552
 30
0.0
 11
73.280878
 21
254.97202
 31
0.0
  0
LINE
  5
1D7
330
1BE
100
AcDbEntity
  8
LC-002-100-D00-0
 62
     7
370
    25
100
AcDbLine
 10
125.255306
 20
306.946448
 30
0.0
 11
126.755306
 21
308.446448
 31
0.0
  0
LINE
  5
1D8
330
1BE
100
AcDbEntity
  8
LC-002-100-D00-0
 62
     7
370
    25
100
AcDbLine
 10
69.292021
 20
255.473291
 30
0.0
 11
70.356958
 21
256.538228
 31
0.0
  0
LINE
  5
1D9
330
1BE
100
AcDbEntity
  8
LC-002-100-D00-0
 62
     7
370
    25
100
AcDbLine
 10
125.255306
 20
311.436576
 30
0.0
 11
126.755306
 21
312.936576
 31
0.0
  0
LINE
  5
1DA
330
1BE
100
AcDbEntity
  8
LC-002-100-D00-0
 62
     7
370
    25
100
AcDbLine
 10
67.22078
 20
257.892178
 30
0.0
 11
68.317676
 21
258.989074
 31
0.0
  0
LINE
  5
1DB
330
1BE
100
AcDbEntity
  8
LC-002-100-D00-0
 62
     7
370
    25
100
AcDbLine
 10
126.69664
 20
317.368038
 30
0.0
 11
130.00876
 21
320.680158
 31
0.0
  0
LINE
  5
1DC
330
1BE
100
AcDbEntity
  8
LC-002-100-D00-0
 62
     7
370
    25
100
AcDbLine
 10
65.954813
 20
261.116339
 30
0.0
 11
67.281069
 21
262.442595
 31
0.0
  0
LINE
  5
1DD
330
1BE
100
AcDbEntity
  8
LC-002-100-D00-0
 62
     7
370
    25
100
AcDbLine
 10
131.093034
 20
326.25456
 30
0.0
 11
133.755306
 21
328.916832
 31
0.0
  0
LINE
  5
1DE
330
1BE
100
AcDbEntity
  8
LC-002-100-D00-0
 62
     7
370
    25
100
AcDbLine
 10
135.442358
 20
330.603884
 30
0.0
 11
136.005306
 21
331.166832
 31
0.0
  0
LINE
  5
1DF
330
1BE
100
AcDbEntity
  8
LC-002-100-D00-0
 62
     7
370
    25
100
AcDbLine
 10
65.755306
 20
265.40696
 30
0.0
 11
67.255306
 21
266.90696
 31
0.0
  0
LINE
  5
1E0
330
1BE
100
AcDbEntity
  8
LC-002-100-D00-0
 62
     7
370
    25
100
AcDbLine
 10
132.255306
 20
331.90696
 30
0.0
 11
132.45223
 21
332.103884
 31
0.0
  0
LINE
  5
1E1
330
1BE
100
AcDbEntity
  8
LC-002-100-D00-0
 62
     7
370
    25
100
AcDbLine
 10
65.755306
 20
269.897088
 30
0.0
 11
67.255306
 21
271.397088
 31
0.0
  0
LINE
  5
1E2
330
1BE
100
AcDbEntity
  8
LC-002-100-D00-0
 62
     7
370
    25
100
AcDbLine
 10
65.755306
 20
274.387216
 30
0.0
 11
67.255306
 21
275.887216
 31
0.0
  0
LINE
  5
1E3
330
1BE
100
AcDbEntity
  8
LC-002-100-D00-0
 62
     7
370
    25
100
AcDbLine
 10
65.755306
 20
278.877344
 30
0.0
 11
67.255306
 21
280.377344
 31
0.0
  0
LINE
  5
1E4
330
1BE
100
AcDbEntity
  8
LC-002-100-D00-0
 62
     7
370
    25
100
AcDbLine
 10
65.755306
 20
283.367472
 30
0.0
 11
67.255306
 21
284.867472
 31
0.0
  0
LINE
  5
1E5
330
1BE
100
AcDbEntity
  8
LC-002-100-D00-0
 62
     7
370
    25
100
AcDbLine
 10
65.755306
 20
287.8576
 30
0.0
 11
67.255306
 21
289.3576
 31
0.0
  0
LINE
  5
1E6
330
1BE
100
AcDbEntity
  8
LC-002-100-D00-0
 62
     7
370
    25
100
AcDbLine
 10
65.755306
 20
292.347728
 30
0.0
 11
67.255306
 21
293.847728
 31
0.0
  0
LINE
  5
1E7
330
1BE
100
AcDbEntity
  8
LC-002-100-D00-0
 62
     7
370
    25
100
AcDbLine
 10
65.755306
 20
296.837856
 30
0.0
 11
67.255306
 21
298.337856
 31
0.0
  0
LINE
  5
1E8
330
1BE
100
AcDbEntity
  8
LC-002-100-D00-0
 62
     7
370
    25
100
AcDbLine
 10
65.755306
 20
301.327984
 30
0.0
 11
67.255306
 21
302.827984
 31
0.0
  0
LINE
  5
1E9
330
1BE
100
AcDbEntity
  8
LC-002-100-D00-0
 62
     7
370
    25
100
AcDbLine
 10
65.755306
 20
305.818113
 30
0.0
 11
67.255306
 21
307.318113
 31
0.0
  0
LINE
  5
1EA
330
1BE
100
AcDbEntity
  8
LC-002-100-D00-0
 62
     7
370
    25
100
AcDbLine
 10
65.755306
 20
310.308241
 30
0.0
 11
67.255306
 21
311.808241
 31
0.0
  0
LINE
  5
1EB
330
1BE
100
AcDbEntity
  8
LC-002-100-D00-0
 62
     7
370
    25
100
AcDbLine
 10
65.525445
 20
314.568507
 30
0.0
 11
66.645067
 21
315.688129
 31
0.0
  0
LINE
  5
1EC
330
1BE
100
AcDbEntity
  8
LC-002-100-D00-0
 62
     7
370
    25
100
AcDbLine
 10
64.039297
 20
317.572488
 30
0.0
 11
65.158919
 21
318.69211
 31
0.0
  0
LINE
  5
1ED
330
1BE
100
AcDbEntity
  8
LC-002-100-D00-0
 62
     7
370
    25
100
AcDbLine
 10
62.55315
 20
320.576469
 30
0.0
 11
63.672772
 21
321.69609
 31
0.0
  0
LINE
  5
1EE
330
1BE
100
AcDbEntity
  8
LC-002-100-D00-0
 62
     7
370
    25
100
AcDbLine
 10
61.067002
 20
323.580449
 30
0.0
 11
62.186624
 21
324.700071
 31
0.0
  0
LINE
  5
1EF
330
1BE
100
AcDbEntity
  8
LC-002-100-D00-0
 62
     7
370
    25
100
AcDbLine
 10
59.580855
 20
326.58443
 30
0.0
 11
60.700477
 21
327.704052
 31
0.0
  0
LINE
  5
1F0
330
1BE
100
AcDbEntity
  8
LC-002-100-D00-0
 62
     7
370
    25
100
AcDbLine
 10
58.755306
 20
330.249009
 30
0.0
 11
60.255306
 21
331.749009
 31
0.0
  0
ENDBLK
  5
1C0
330
1BE
100
AcDbEntity
  8
0
100
AcDbBlockEnd
  0
BLOCK
  5
1F3
330
1F2
100
AcDbEntity
  8
0
100
AcDbBlockBegin
  2
KLON6
 70
     0
 71
     0
 10
0.0
 20
0.0
 30
0.0
  3
KLON6
  1

  4
KLON6
  0
LINE
  5
1F5
330
1F2
100
AcDbEntity
  8
LC-002-100-D00-0
 62
     7
370
    25
100
AcDbLine
 10
78.255306
 20
301.00147
 30
0.0
 11
77.255306
 21
302.00147
 31
0.0
  0
LINE
  5
1F6
330
1F2
100
AcDbEntity
  8
LC-002-100-D00-0
 62
     7
370
    25
100
AcDbLine
 10
78.255306
 20
274.060702
 30
0.0
 11
77.255306
 21
275.060702
 31
0.0
  0
LINE
  5
1F7
330
1F2
100
AcDbEntity
  8
LC-002-100-D00-0
 62
     7
370
    25
100
AcDbLine
 10
78.255306
 20
305.4916
 30
0.0
 11
77.255306
 21
306.4916
 31
0.0
  0
LINE
  5
1F8
330
1F2
100
AcDbEntity
  8
LC-002-100-D00-0
 62
     7
370
    25
100
AcDbLine
 10
78.255306
 20
278.550832
 30
0.0
 11
77.255306
 21
279.550832
 31
0.0
  0
LINE
  5
1F9
330
1F2
100
AcDbEntity
  8
LC-002-100-D00-0
 62
     7
370
    25
100
AcDbLine
 10
78.255306
 20
309.98173
 30
0.0
 11
77.255306
 21
310.98173
 31
0.0
  0
LINE
  5
1FA
330
1F2
100
AcDbEntity
  8
LC-002-100-D00-0
 62
     7
370
    25
100
AcDbLine
 10
78.255306
 20
283.040962
 30
0.0
 11
77.255306
 21
284.040962
 31
0.0
  0
LINE
  5
1FB
330
1F2
100
AcDbEntity
  8
LC-002-100-D00-0
 62
     7
370
    25
100
AcDbLine
 10
78.255306
 20
314.47187
 30
0.0
 11
77.255306
 21
315.47187
 31
0.0
  0
LINE
  5
1FC
330
1F2
100
AcDbEntity
  8
LC-002-100-D00-0
 62
     7
370
    25
100
AcDbLine
 10
64.123292
 20
328.603884
 30
0.0
 11
60.755306
 21
331.97187
 31
0.0
  0
LINE
  5
1FD
330
1F2
100
AcDbEntity
  8
LC-002-100-D00-0
 62
     7
370
    25
100
AcDbLine
 10
60.623292
 20
332.103884
 30
0.0
 11
58.255306
 21
334.47187
 31
0.0
  0
LINE
  5
1FE
330
1F2
100
AcDbEntity
  8
LC-002-100-D00-0
 62
     7
370
    25
100
AcDbLine
 10
78.255306
 20
287.531102
 30
0.0
 11
77.255306
 21
288.531102
 31
0.0
  0
ENDBLK
  5
1F4
330
1F2
100
AcDbEntity
  8
0
100
AcDbBlockEnd
  0
BLOCK
  5
201
330
200
100
AcDbEntity
  8
0
100
AcDbBlockBegin
  2
KLON7
 70
     0
 71
     0
 10
0.0
 20
0.0
 30
0.0
  3
KLON7
  1

  4
KLON7
  0
LINE
  5
203
330
200
100
AcDbEntity
  8
LC-002-100-D00-0
 62
     7
370
    25
100
AcDbLine
 10
131.475197
 20
328.603884
 30
0.0
 11
129.723889
 21
330.355193
 31
0.0
  0
LINE
  5
204
330
200
100
AcDbEntity
  8
LC-002-100-D00-0
 62
     7
370
    25
100
AcDbLine
 10
115.258761
 20
317.879552
 30
0.0
 11
114.317201
 21
318.821112
 31
0.0
  0
LINE
  5
205
330
200
100
AcDbEntity
  8
LC-002-100-D00-0
 62
     7
370
    25
100
AcDbLine
 10
115.255306
 20
290.942239
 30
0.0
 11
114.255306
 21
291.942239
 31
0.0
  0
LINE
  5
206
330
200
100
AcDbEntity
  8
LC-002-100-D00-0
 62
     7
370
    25
100
AcDbLine
 10
132.465327
 20
332.103884
 30
0.0
 11
129.755306
 21
334.813905
 31
0.0
  0
LINE
  5
207
330
200
100
AcDbEntity
  8
LC-002-100-D00-0
 62
     7
370
    25
100
AcDbLine
 10
116.01291
 20
321.615533
 30
0.0
 11
115.247249
 21
322.381194
 31
0.0
  0
LINE
  5
208
330
200
100
AcDbEntity
  8
LC-002-100-D00-0
 62
     7
370
    25
100
AcDbLine
 10
115.255306
 20
295.432369
 30
0.0
 11
114.255306
 21
296.432369
 31
0.0
  0
LINE
  5
209
330
200
100
AcDbEntity
  8
LC-002-100-D00-0
 62
     7
370
    25
100
AcDbLine
 10
115.255306
 20
268.4916
 30
0.0
 11
114.255306
 21
269.4916
 31
0.0
  0
LINE
  5
20A
330
200
100
AcDbEntity
  8
LC-002-100-D00-0
 62
     7
370
    25
100
AcDbLine
 10
135.755306
 20
333.304035
 30
0.0
 11
135.255457
 21
333.803884
 31
0.0
  0
LINE
  5
20B
330
200
100
AcDbEntity
  8
LC-002-100-D00-0
 62
     7
370
    25
100
AcDbLine
 10
134.255306
 20
334.804035
 30
0.0
 11
130.735182
 21
338.324159
 31
0.0
  0
LINE
  5
20C
330
200
100
AcDbEntity
  8
LC-002-100-D00-0
 62
     7
370
    25
100
AcDbLine
 10
117.655666
 20
324.462907
 30
0.0
 11
116.944466
 21
325.174107
 31
0.0
  0
LINE
  5
20D
330
200
100
AcDbEntity
  8
LC-002-100-D00-0
 62
     7
370
    25
100
AcDbLine
 10
115.255306
 20
299.922499
 30
0.0
 11
114.255306
 21
300.922499
 31
0.0
  0
LINE
  5
20E
330
200
100
AcDbEntity
  8
LC-002-100-D00-0
 62
     7
370
    25
100
AcDbLine
 10
115.255306
 20
272.98173
 30
0.0
 11
114.255306
 21
273.98173
 31
0.0
  0
LINE
  5
20F
330
200
100
AcDbEntity
  8
LC-002-100-D00-0
 62
     7
370
    25
100
AcDbLine
 10
136.005306
 20
337.544175
 30
0.0
 11
134.945597
 21
338.603884
 31
0.0
  0
LINE
  5
210
330
200
100
AcDbEntity
  8
LC-002-100-D00-0
 62
     7
370
    25
100
AcDbLine
 10
119.974348
 20
326.634364
 30
0.0
 11
119.256894
 21
327.351819
 31
0.0
  0
LINE
  5
211
330
200
100
AcDbEntity
  8
LC-002-100-D00-0
 62
     7
370
    25
100
AcDbLine
 10
115.255306
 20
304.412639
 30
0.0
 11
114.255306
 21
305.412639
 31
0.0
  0
LINE
  5
212
330
200
100
AcDbEntity
  8
LC-002-100-D00-0
 62
     7
370
    25
100
AcDbLine
 10
115.255306
 20
277.47187
 30
0.0
 11
114.255306
 21
278.47187
 31
0.0
  0
ENDBLK
  5
202
330
200
100
AcDbEntity
  8
0
100
AcDbBlockEnd
  0
BLOCK
  5
216
330
215
100
AcDbEntity
  8
0
100
AcDbBlockBegin
  2
KLON8
 70
     0
 71
     0
 10
0.0
 20
0.0
 30
0.0
  3
KLON8
  1

  4
KLON8
  0
LINE
  5
218
330
215
100
AcDbEntity
  8
LC-002-100-D00-0
 62
     7
370
    25
100
AcDbLine
 10
194.474535
 20
311.217865
 30
0.0
 11
197.967887
 21
314.711217
 31
0.0
  0
LINE
  5
219
330
215
100
AcDbEntity
  8
LC-002-100-D00-0
 62
     7
370
    25
100
AcDbLine
 10
189.984407
 20
311.217865
 30
0.0
 11
192.134407
 21
313.367865
 31
0.0
  0
LINE
  5
21A
330
215
100
AcDbEntity
  8
LC-002-100-D00-0
 62
     7
370
    25
100
AcDbLine
 10
185.494279
 20
311.217865
 30
0.0
 11
190.755306
 21
316.478892
 31
0.0
  0
LINE
  5
21B
330
215
100
AcDbEntity
  8
LC-002-100-D00-0
 62
     7
370
    25
100
AcDbLine
 10
181.004151
 20
311.217865
 30
0.0
 11
187.515841
 21
317.729555
 31
0.0
  0
LINE
  5
21C
330
215
100
AcDbEntity
  8
LC-002-100-D00-0
 62
     7
370
    25
100
AcDbLine
 10
176.514023
 20
311.217865
 30
0.0
 11
183.124478
 21
317.82832
 31
0.0
  0
LINE
  5
21D
330
215
100
AcDbEntity
  8
LC-002-100-D00-0
 62
     7
370
    25
100
AcDbLine
 10
172.023895
 20
311.217865
 30
0.0
 11
177.892287
 21
317.086257
 31
0.0
  0
LINE
  5
21E
330
215
100
AcDbEntity
  8
LC-002-100-D00-0
 62
     7
370
    25
100
AcDbLine
 10
167.533767
 20
311.217865
 30
0.0
 11
176.255306
 21
319.939404
 31
0.0
  0
LINE
  5
21F
330
215
100
AcDbEntity
  8
LC-002-100-D00-0
 62
     7
370
    25
100
AcDbLine
 10
163.043639
 20
311.217865
 30
0.0
 11
166.043639
 21
314.217865
 31
0.0
  0
LINE
  5
220
330
215
100
AcDbEntity
  8
LC-002-100-D00-0
 62
     7
370
    25
100
AcDbLine
 10
166.755306
 20
314.929532
 30
0.0
 11
169.74236
 21
317.916586
 31
0.0
  0
LINE
  5
221
330
215
100
AcDbEntity
  8
LC-002-100-D00-0
 62
     7
370
    25
100
AcDbLine
 10
158.553511
 20
311.217865
 30
0.0
 11
161.553511
 21
314.217865
 31
0.0
  0
LINE
  5
222
330
215
100
AcDbEntity
  8
LC-002-100-D00-0
 62
     7
370
    25
100
AcDbLine
 10
154.063383
 20
311.217865
 30
0.0
 11
157.063383
 21
314.217865
 31
0.0
  0
LINE
  5
223
330
215
100
AcDbEntity
  8
LC-002-100-D00-0
 62
     7
370
    25
100
AcDbLine
 10
149.573255
 20
311.217865
 30
0.0
 11
152.573255
 21
314.217865
 31
0.0
  0
LINE
  5
224
330
215
100
AcDbEntity
  8
LC-002-100-D00-0
 62
     7
370
    25
100
AcDbLine
 10
147.255306
 20
313.390044
 30
0.0
 11
150.255306
 21
316.390044
 31
0.0
  0
LINE
  5
225
330
215
100
AcDbEntity
  8
LC-002-100-D00-0
 62
     7
370
    25
100
AcDbLine
 10
147.82715
 20
318.452017
 30
0.0
 11
150.237344
 21
320.86221
 31
0.0
  0
ENDBLK
  5
217
330
215
100
AcDbEntity
  8
0
100
AcDbBlockEnd
  0
BLOCK
  5
228
330
227
100
AcDbEntity
  8
0
100
AcDbBlockBegin
  2
KLON9
 70
     0
 71
     0
 10
0.0
 20
0.0
 30
0.0
  3
KLON9
  1

  4
KLON9
  0
LINE
  5
22A
330
227
100
AcDbEntity
  8
LC-002-100-D00-0
 62
     7
370
    25
100
AcDbLine
 10
199.96355
 20
262.825343
 30
0.0
 11
200.206549
 21
263.068342
 31
0.0
  0
LINE
  5
22B
330
227
100
AcDbEntity
  8
LC-002-100-D00-0
 62
     7
370
    25
100
AcDbLine
 10
195.253866
 20
262.605787
 30
0.0
 11
197.187456
 21
264.539377
 31
0.0
  0
LINE
  5
22C
330
227
100
AcDbEntity
  8
LC-002-100-D00-0
 62
     7
370
    25
100
AcDbLine
 10
186.803757
 20
258.645806
 30
0.0
 11
190.756232
 21
262.598281
 31
0.0
  0
LINE
  5
22D
330
227
100
AcDbEntity
  8
LC-002-100-D00-0
 62
     7
370
    25
100
AcDbLine
 10
191.22489
 20
263.066939
 30
0.0
 11
193.375816
 21
265.217865
 31
0.0
  0
LINE
  5
22E
330
227
100
AcDbEntity
  8
LC-002-100-D00-0
 62
     7
370
    25
100
AcDbLine
 10
182.327228
 20
258.659405
 30
0.0
 11
188.885688
 21
265.217865
 31
0.0
  0
LINE
  5
22F
330
227
100
AcDbEntity
  8
LC-002-100-D00-0
 62
     7
370
    25
100
AcDbLine
 10
178.410625
 20
259.23293
 30
0.0
 11
184.39556
 21
265.217865
 31
0.0
  0
LINE
  5
230
330
227
100
AcDbEntity
  8
LC-002-100-D00-0
 62
     7
370
    25
100
AcDbLine
 10
174.904605
 20
260.217038
 30
0.0
 11
179.905432
 21
265.217865
 31
0.0
  0
LINE
  5
231
330
227
100
AcDbEntity
  8
LC-002-100-D00-0
 62
     7
370
    25
100
AcDbLine
 10
171.730587
 20
261.533148
 30
0.0
 11
175.415304
 21
265.217865
 31
0.0
  0
LINE
  5
232
330
227
100
AcDbEntity
  8
LC-002-100-D00-0
 62
     7
370
    25
100
AcDbLine
 10
166.755306
 20
261.047995
 30
0.0
 11
170.925176
 21
265.217865
 31
0.0
  0
LINE
  5
233
330
227
100
AcDbEntity
  8
LC-002-100-D00-0
 62
     7
370
    25
100
AcDbLine
 10
163.435048
 20
262.217865
 30
0.0
 11
166.435048
 21
265.217865
 31
0.0
  0
LINE
  5
234
330
227
100
AcDbEntity
  8
LC-002-100-D00-0
 62
     7
370
    25
100
AcDbLine
 10
158.94492
 20
262.217865
 30
0.0
 11
161.94492
 21
265.217865
 31
0.0
  0
LINE
  5
235
330
227
100
AcDbEntity
  8
LC-002-100-D00-0
 62
     7
370
    25
100
AcDbLine
 10
154.454791
 20
262.217865
 30
0.0
 11
157.454791
 21
265.217865
 31
0.0
  0
LINE
  5
236
330
227
100
AcDbEntity
  8
LC-002-100-D00-0
 62
     7
370
    25
100
AcDbLine
 10
149.964663
 20
262.217865
 30
0.0
 11
152.964663
 21
265.217865
 31
0.0
  0
LINE
  5
237
330
227
100
AcDbEntity
  8
LC-002-100-D00-0
 62
     7
370
    25
100
AcDbLine
 10
145.658829
 20
262.402158
 30
0.0
 11
148.474535
 21
265.217865
 31
0.0
  0
LINE
  5
238
330
227
100
AcDbEntity
  8
LC-002-100-D00-0
 62
     7
370
    25
100
AcDbLine
 10
141.691066
 20
262.924524
 30
0.0
 11
144.364932
 21
265.59839
 31
0.0
  0
LINE
  5
239
330
227
100
AcDbEntity
  8
LC-002-100-D00-0
 62
     7
370
    25
100
AcDbLine
 10
125.009982
 20
250.733568
 30
0.0
 11
126.989603
 21
252.713189
 31
0.0
  0
LINE
  5
23A
330
227
100
AcDbEntity
  8
LC-002-100-D00-0
 62
     7
370
    25
100
AcDbLine
 10
137.723304
 20
263.44689
 30
0.0
 11
140.39717
 21
266.120756
 31
0.0
  0
LINE
  5
23B
330
227
100
AcDbEntity
  8
LC-002-100-D00-0
 62
     7
370
    25
100
AcDbLine
 10
117.544183
 20
247.757897
 30
0.0
 11
122.151334
 21
252.365048
 31
0.0
  0
LINE
  5
23C
330
227
100
AcDbEntity
  8
LC-002-100-D00-0
 62
     7
370
    25
100
AcDbLine
 10
125.358123
 20
255.571837
 30
0.0
 11
129.965274
 21
260.178988
 31
0.0
  0
LINE
  5
23D
330
227
100
AcDbEntity
  8
LC-002-100-D00-0
 62
     7
370
    25
100
AcDbLine
 10
133.755542
 20
263.969256
 30
0.0
 11
136.429408
 21
266.643121
 31
0.0
  0
LINE
  5
23E
330
227
100
AcDbEntity
  8
LC-002-100-D00-0
 62
     7
370
    25
100
AcDbLine
 10
113.014023
 20
247.717865
 30
0.0
 11
116.014023
 21
250.717865
 31
0.0
  0
LINE
  5
23F
330
227
100
AcDbEntity
  8
LC-002-100-D00-0
 62
     7
370
    25
100
AcDbLine
 10
127.005306
 20
261.709148
 30
0.0
 11
132.461645
 21
267.165487
 31
0.0
  0
LINE
  5
240
330
227
100
AcDbEntity
  8
LC-002-100-D00-0
 62
     7
370
    25
100
AcDbLine
 10
108.523895
 20
247.717865
 30
0.0
 11
111.523895
 21
250.717865
 31
0.0
  0
LINE
  5
241
330
227
100
AcDbEntity
  8
LC-002-100-D00-0
 62
     7
370
    25
100
AcDbLine
 10
127.005306
 20
266.199276
 30
0.0
 11
128.493883
 21
267.687853
 31
0.0
  0
LINE
  5
242
330
227
100
AcDbEntity
  8
LC-002-100-D00-0
 62
     7
370
    25
100
AcDbLine
 10
104.033767
 20
247.717865
 30
0.0
 11
107.033767
 21
250.717865
 31
0.0
  0
LINE
  5
243
330
227
100
AcDbEntity
  8
LC-002-100-D00-0
 62
     7
370
    25
100
AcDbLine
 10
99.543639
 20
247.717865
 30
0.0
 11
102.543639
 21
250.717865
 31
0.0
  0
LINE
  5
244
330
227
100
AcDbEntity
  8
LC-002-100-D00-0
 62
     7
370
    25
100
AcDbLine
 10
95.053511
 20
247.717865
 30
0.0
 11
98.053511
 21
250.717865
 31
0.0
  0
LINE
  5
245
330
227
100
AcDbEntity
  8
LC-002-100-D00-0
 62
     7
370
    25
100
AcDbLine
 10
90.563383
 20
247.717865
 30
0.0
 11
93.563383
 21
250.717865
 31
0.0
  0
LINE
  5
246
330
227
100
AcDbEntity
  8
LC-002-100-D00-0
 62
     7
370
    25
100
AcDbLine
 10
86.073255
 20
247.717865
 30
0.0
 11
89.073255
 21
250.717865
 31
0.0
  0
LINE
  5
247
330
227
100
AcDbEntity
  8
LC-002-100-D00-0
 62
     7
370
    25
100
AcDbLine
 10
81.583127
 20
247.717865
 30
0.0
 11
84.583127
 21
250.717865
 31
0.0
  0
LINE
  5
248
330
227
100
AcDbEntity
  8
LC-002-100-D00-0
 62
     7
370
    25
100
AcDbLine
 10
77.092999
 20
247.717865
 30
0.0
 11
80.092999
 21
250.717865
 31
0.0
  0
LINE
  5
249
330
227
100
AcDbEntity
  8
LC-002-100-D00-0
 62
     7
370
    25
100
AcDbLine
 10
72.952558
 20
248.067552
 30
0.0
 11
75.610303
 21
250.725297
 31
0.0
  0
LINE
  5
24A
330
227
100
AcDbEntity
  8
LC-002-100-D00-0
 62
     7
370
    25
100
AcDbLine
 10
69.684104
 20
249.289227
 30
0.0
 11
71.934131
 21
251.539253
 31
0.0
  0
LINE
  5
24B
330
227
100
AcDbEntity
  8
LC-002-100-D00-0
 62
     7
370
    25
100
AcDbLine
 10
67.03438
 20
251.12963
 30
0.0
 11
69.160386
 21
253.255637
 31
0.0
  0
LINE
  5
24C
330
227
100
AcDbEntity
  8
LC-002-100-D00-0
 62
     7
370
    25
100
AcDbLine
 10
64.923098
 20
253.508477
 30
0.0
 11
67.088335
 21
255.673713
 31
0.0
  0
LINE
  5
24D
330
227
100
AcDbEntity
  8
LC-002-100-D00-0
 62
     7
370
    25
100
AcDbLine
 10
63.375067
 20
256.450574
 30
0.0
 11
65.775538
 21
258.851044
 31
0.0
  0
LINE
  5
24E
330
227
100
AcDbEntity
  8
LC-002-100-D00-0
 62
     7
370
    25
100
AcDbLine
 10
62.550349
 20
260.115984
 30
0.0
 11
65.505306
 21
263.070941
 31
0.0
  0
LINE
  5
24F
330
227
100
AcDbEntity
  8
LC-002-100-D00-0
 62
     7
370
    25
100
AcDbLine
 10
62.505306
 20
264.561069
 30
0.0
 11
65.505306
 21
267.561069
 31
0.0
  0
LINE
  5
250
330
227
100
AcDbEntity
  8
LC-002-100-D00-0
 62
     7
370
    25
100
AcDbLine
 10
62.505306
 20
269.051197
 30
0.0
 11
65.505306
 21
272.051197
 31
0.0
  0
LINE
  5
251
330
227
100
AcDbEntity
  8
LC-002-100-D00-0
 62
     7
370
    25
100
AcDbLine
 10
62.335821
 20
273.37184
 30
0.0
 11
65.009687
 21
276.045706
 31
0.0
  0
LINE
  5
252
330
227
100
AcDbEntity
  8
LC-002-100-D00-0
 62
     7
370
    25
100
AcDbLine
 10
58.368059
 20
273.894206
 30
0.0
 11
61.041925
 21
276.568072
 31
0.0
  0
LINE
  5
253
330
227
100
AcDbEntity
  8
LC-002-100-D00-0
 62
     7
370
    25
100
AcDbLine
 10
54.400297
 20
274.416572
 30
0.0
 11
57.074163
 21
277.090438
 31
0.0
  0
LINE
  5
254
330
227
100
AcDbEntity
  8
LC-002-100-D00-0
 62
     7
370
    25
100
AcDbLine
 10
50.432535
 20
274.938938
 30
0.0
 11
53.1064
 21
277.612803
 31
0.0
  0
LINE
  5
255
330
227
100
AcDbEntity
  8
LC-002-100-D00-0
 62
     7
370
    25
100
AcDbLine
 10
46.813162
 20
275.809693
 30
0.0
 11
49.15691
 21
278.153441
 31
0.0
  0
LINE
  5
256
330
227
100
AcDbEntity
  8
LC-002-100-D00-0
 62
     7
370
    25
100
AcDbLine
 10
44.254291
 20
277.74095
 30
0.0
 11
46.382342
 21
279.869001
 31
0.0
  0
LINE
  5
257
330
227
100
AcDbEntity
  8
LC-002-100-D00-0
 62
     7
370
    25
100
AcDbLine
 10
42.631173
 20
280.60796
 30
0.0
 11
45.255306
 21
283.232093
 31
0.0
  0
LINE
  5
258
330
227
100
AcDbEntity
  8
LC-002-100-D00-0
 62
     7
370
    25
100
AcDbLine
 10
42.255306
 20
284.722221
 30
0.0
 11
45.255306
 21
287.722221
 31
0.0
  0
LINE
  5
259
330
227
100
AcDbEntity
  8
LC-002-100-D00-0
 62
     7
370
    25
100
AcDbLine
 10
42.255306
 20
289.212349
 30
0.0
 11
45.255306
 21
292.212349
 31
0.0
  0
LINE
  5
25A
330
227
100
AcDbEntity
  8
LC-002-100-D00-0
 62
     7
370
    25
100
AcDbLine
 10
42.255306
 20
293.702477
 30
0.0
 11
45.255306
 21
296.702477
 31
0.0
  0
LINE
  5
25B
330
227
100
AcDbEntity
  8
LC-002-100-D00-0
 62
     7
370
    25
100
AcDbLine
 10
42.255306
 20
298.192606
 30
0.0
 11
45.255306
 21
301.192606
 31
0.0
  0
LINE
  5
25C
330
227
100
AcDbEntity
  8
LC-002-100-D00-0
 62
     7
370
    25
100
AcDbLine
 10
42.255306
 20
302.682734
 30
0.0
 11
45.255306
 21
305.682734
 31
0.0
  0
LINE
  5
25D
330
227
100
AcDbEntity
  8
LC-002-100-D00-0
 62
     7
370
    25
100
AcDbLine
 10
42.255306
 20
307.172862
 30
0.0
 11
45.255306
 21
310.172862
 31
0.0
  0
LINE
  5
25E
330
227
100
AcDbEntity
  8
LC-002-100-D00-0
 62
     7
370
    25
100
AcDbLine
 10
42.255306
 20
311.66299
 30
0.0
 11
45.255306
 21
314.66299
 31
0.0
  0
LINE
  5
25F
330
227
100
AcDbEntity
  8
LC-002-100-D00-0
 62
     7
370
    25
100
AcDbLine
 10
42.255306
 20
316.153118
 30
0.0
 11
44.656147
 21
318.553958
 31
0.0
  0
LINE
  5
260
330
227
100
AcDbEntity
  8
LC-002-100-D00-0
 62
     7
370
    25
100
AcDbLine
 10
42.255306
 20
320.643246
 30
0.0
 11
42.748844
 21
321.136784
 31
0.0
  0
ENDBLK
  5
229
330
227
100
AcDbEntity
  8
0
100
AcDbBlockEnd
  0
BLOCK
  5
263
330
262
100
AcDbEntity
  8
0
100
AcDbBlockBegin
  2
KLON10
 70
     0
 71
     0
 10
0.0
 20
0.0
 30
0.0
  3
KLON10
  1

  4
KLON10
  0
LINE
  5
265
330
262
100
AcDbEntity
  8
LC-002-100-D00-0
 62
     7
370
    25
100
AcDbLine
 10
275.597502
 20
263.217865
 30
0.0
 11
273.347502
 21
265.467865
 31
0.0
  0
LINE
  5
266
330
262
100
AcDbEntity
  8
LC-002-100-D00-0
 62
     7
370
    25
100
AcDbLine
 10
248.656734
 20
263.217865
 30
0.0
 11
246.406734
 21
265.467865
 31
0.0
  0
LINE
  5
267
330
262
100
AcDbEntity
  8
LC-002-100-D00-0
 62
     7
370
    25
100
AcDbLine
 10
221.715966
 20
263.217865
 30
0.0
 11
219.465966
 21
265.467865
 31
0.0
  0
LINE
  5
268
330
262
100
AcDbEntity
  8
LC-002-100-D00-0
 62
     7
370
    25
100
AcDbLine
 10
198.617045
 20
259.376017
 30
0.0
 11
196.733793
 21
261.25927
 31
0.0
  0
LINE
  5
269
330
262
100
AcDbEntity
  8
LC-002-100-D00-0
 62
     7
370
    25
100
AcDbLine
 10
280.087632
 20
263.217865
 30
0.0
 11
277.837632
 21
265.467865
 31
0.0
  0
LINE
  5
26A
330
262
100
AcDbEntity
  8
LC-002-100-D00-0
 62
     7
370
    25
100
AcDbLine
 10
253.146864
 20
263.217865
 30
0.0
 11
250.896864
 21
265.467865
 31
0.0
  0
LINE
  5
26B
330
262
100
AcDbEntity
  8
LC-002-100-D00-0
 62
     7
370
    25
100
AcDbLine
 10
226.206096
 20
263.217865
 30
0.0
 11
223.956096
 21
265.467865
 31
0.0
  0
LINE
  5
26C
330
262
100
AcDbEntity
  8
LC-002-100-D00-0
 62
     7
370
    25
100
AcDbLine
 10
201.521452
 20
260.96174
 30
0.0
 11
199.699796
 21
262.783396
 31
0.0
  0
LINE
  5
26D
330
262
100
AcDbEntity
  8
LC-002-100-D00-0
 62
     7
370
    25
100
AcDbLine
 10
179.324559
 20
256.217865
 30
0.0
 11
176.38883
 21
259.153593
 31
0.0
  0
LINE
  5
26E
330
262
100
AcDbEntity
  8
LC-002-100-D00-0
 62
     7
370
    25
100
AcDbLine
 10
284.577762
 20
263.217865
 30
0.0
 11
282.327762
 21
265.467865
 31
0.0
  0
LINE
  5
26F
330
262
100
AcDbEntity
  8
LC-002-100-D00-0
 62
     7
370
    25
100
AcDbLine
 10
257.636994
 20
263.217865
 30
0.0
 11
255.386994
 21
265.467865
 31
0.0
  0
LINE
  5
270
330
262
100
AcDbEntity
  8
LC-002-100-D00-0
 62
     7
370
    25
100
AcDbLine
 10
230.696226
 20
263.217865
 30
0.0
 11
228.446226
 21
265.467865
 31
0.0
  0
LINE
  5
271
330
262
100
AcDbEntity
  8
LC-002-100-D00-0
 62
     7
370
    25
100
AcDbLine
 10
204.183053
 20
262.790269
 30
0.0
 11
202.398188
 21
264.575134
 31
0.0
  0
LINE
  5
272
330
262
100
AcDbEntity
  8
LC-002-100-D00-0
 62
     7
370
    25
100
AcDbLine
 10
183.814689
 20
256.217865
 30
0.0
 11
181.085542
 21
258.947012
 31
0.0
  0
LINE
  5
273
330
262
100
AcDbEntity
  8
LC-002-100-D00-0
 62
     7
370
    25
100
AcDbLine
 10
288.790518
 20
263.495249
 30
0.0
 11
286.817902
 21
265.467865
 31
0.0
  0
LINE
  5
274
330
262
100
AcDbEntity
  8
LC-002-100-D00-0
 62
     7
370
    25
100
AcDbLine
 10
262.127134
 20
263.217865
 30
0.0
 11
259.877134
 21
265.467865
 31
0.0
  0
LINE
  5
275
330
262
100
AcDbEntity
  8
LC-002-100-D00-0
 62
     7
370
    25
100
AcDbLine
 10
235.186366
 20
263.217865
 30
0.0
 11
232.936366
 21
265.467865
 31
0.0
  0
LINE
  5
276
330
262
100
AcDbEntity
  8
LC-002-100-D00-0
 62
     7
370
    25
100
AcDbLine
 10
208.245597
 20
263.217865
 30
0.0
 11
205.995597
 21
265.467865
 31
0.0
  0
LINE
  5
277
330
262
100
AcDbEntity
  8
LC-002-100-D00-0
 62
     7
370
    25
100
AcDbLine
 10
188.126732
 20
256.395962
 30
0.0
 11
185.78679
 21
258.735904
 31
0.0
  0
ENDBLK
  5
264
330
262
100
AcDbEntity
  8
0
100
AcDbBlockEnd
  0
BLOCK
  5
27A
330
279
100
AcDbEntity
  8
0
100
AcDbBlockBegin
  2
KLON11
 70
     0
 71
     0
 10
0.0
 20
0.0
 30
0.0
  3
KLON11
  1

  4
KLON11
  0
LINE
  5
27C
330
279
100
AcDbEntity
  8
LC-002-100-D00-0
 62
     7
370
    25
100
AcDbLine
 10
281.729039
 20
310.967865
 30
0.0
 11
279.479039
 21
313.217865
 31
0.0
  0
LINE
  5
27D
330
279
100
AcDbEntity
  8
LC-002-100-D00-0
 62
     7
370
    25
100
AcDbLine
 10
254.788271
 20
310.967865
 30
0.0
 11
252.538271
 21
313.217865
 31
0.0
  0
LINE
  5
27E
330
279
100
AcDbEntity
  8
LC-002-100-D00-0
 62
     7
370
    25
100
AcDbLine
 10
227.847502
 20
310.967865
 30
0.0
 11
225.597502
 21
313.217865
 31
0.0
  0
LINE
  5
27F
330
279
100
AcDbEntity
  8
LC-002-100-D00-0
 62
     7
370
    25
100
AcDbLine
 10
196.669792
 20
315.204806
 30
0.0
 11
192.644458
 21
319.230141
 31
0.0
  0
LINE
  5
280
330
279
100
AcDbEntity
  8
LC-002-100-D00-0
 62
     7
370
    25
100
AcDbLine
 10
286.219169
 20
310.967865
 30
0.0
 11
283.969169
 21
313.217865
 31
0.0
  0
LINE
  5
281
330
279
100
AcDbEntity
  8
LC-002-100-D00-0
 62
     7
370
    25
100
AcDbLine
 10
259.278401
 20
310.967865
 30
0.0
 11
257.028401
 21
313.217865
 31
0.0
  0
LINE
  5
282
330
279
100
AcDbEntity
  8
LC-002-100-D00-0
 62
     7
370
    25
100
AcDbLine
 10
232.337632
 20
310.967865
 30
0.0
 11
230.087632
 21
313.217865
 31
0.0
  0
LINE
  5
283
330
279
100
AcDbEntity
  8
LC-002-100-D00-0
 62
     7
370
    25
100
AcDbLine
 10
205.396864
 20
310.967865
 30
0.0
 11
200.025108
 21
316.339621
 31
0.0
  0
LINE
  5
284
330
279
100
AcDbEntity
  8
LC-002-100-D00-0
 62
     7
370
    25
100
AcDbLine
 10
290.709299
 20
310.967865
 30
0.0
 11
288.716978
 21
312.960186
 31
0.0
  0
LINE
  5
285
330
279
100
AcDbEntity
  8
LC-002-100-D00-0
 62
     7
370
    25
100
AcDbLine
 10
263.768531
 20
310.967865
 30
0.0
 11
261.518531
 21
313.217865
 31
0.0
  0
LINE
  5
286
330
279
100
AcDbEntity
  8
LC-002-100-D00-0
 62
     7
370
    25
100
AcDbLine
 10
236.827762
 20
310.967865
 30
0.0
 11
234.577762
 21
313.217865
 31
0.0
  0
LINE
  5
287
330
279
100
AcDbEntity
  8
LC-002-100-D00-0
 62
     7
370
    25
100
AcDbLine
 10
209.886994
 20
310.967865
 30
0.0
 11
207.636994
 21
313.217865
 31
0.0
  0
LINE
  5
288
330
279
100
AcDbEntity
  8
LC-002-100-D00-0
 62
     7
370
    25
100
AcDbLine
 10
177.124088
 20
316.790002
 30
0.0
 11
176.263953
 21
317.650138
 31
0.0
  0
LINE
  5
289
330
279
100
AcDbEntity
  8
LC-002-100-D00-0
 62
     7
370
    25
100
AcDbLine
 10
268.258671
 20
310.967865
 30
0.0
 11
266.008671
 21
313.217865
 31
0.0
  0
LINE
  5
28A
330
279
100
AcDbEntity
  8
LC-002-100-D00-0
 62
     7
370
    25
100
AcDbLine
 10
241.317902
 20
310.967865
 30
0.0
 11
239.067902
 21
313.217865
 31
0.0
  0
LINE
  5
28B
330
279
100
AcDbEntity
  8
LC-002-100-D00-0
 62
     7
370
    25
100
AcDbLine
 10
214.377134
 20
310.967865
 30
0.0
 11
212.127134
 21
313.217865
 31
0.0
  0
LINE
  5
28C
330
279
100
AcDbEntity
  8
LC-002-100-D00-0
 62
     7
370
    25
100
AcDbLine
 10
180.934805
 20
317.469425
 30
0.0
 11
178.186366
 21
320.217865
 31
0.0
  0
ENDBLK
  5
27B
330
279
100
AcDbEntity
  8
0
100
AcDbBlockEnd
  0
BLOCK
  5
292
330
291
100
AcDbEntity
  8
0
100
AcDbBlockBegin
  2
KLON12
 70
     0
 71
     0
 10
0.0
 20
0.0
 30
0.0
  3
KLON12
  1

  4
KLON12
  0
LINE
  5
294
330
291
100
AcDbEntity
  8
LC-002-100-D00-0
 62
     7
370
    25
100
AcDbLine
 10
152.255306
 20
332.678524
 30
0.0
 11
150.985636
 21
333.948195
 31
0.0
  0
LINE
  5
295
330
291
100
AcDbEntity
  8
LC-002-100-D00-0
 62
     7
370
    25
100
AcDbLine
 10
144.745597
 20
326.717865
 30
0.0
 11
143.255306
 21
328.208156
 31
0.0
  0
ENDBLK
  5
293
330
291
100
AcDbEntity
  8
0
100
AcDbBlockEnd
  0
BLOCK
  5
298
330
297
100
AcDbEntity
  8
0
100
AcDbBlockBegin
  2
KLON13
 70
     0
 71
     0
 10
0.0
 20
0.0
 30
0.0
  3
KLON13
  1

  4
KLON13
  0
LINE
  5
29A
330
297
100
AcDbEntity
  8
LC-002-100-D00-0
 62
     7
370
    25
100
AcDbLine
 10
54.248192
 20
294.310998
 30
0.0
 11
56.255306
 21
296.318113
 31
0.0
  0
LINE
  5
29B
330
297
100
AcDbEntity
  8
LC-002-100-D00-0
 62
     7
370
    25
100
AcDbLine
 10
53.255306
 20
297.808241
 30
0.0
 11
56.255306
 21
300.808241
 31
0.0
  0
LINE
  5
29C
330
297
100
AcDbEntity
  8
LC-002-100-D00-0
 62
     7
370
    25
100
AcDbLine
 10
53.255306
 20
302.298369
 30
0.0
 11
56.255306
 21
305.298369
 31
0.0
  0
LINE
  5
29D
330
297
100
AcDbEntity
  8
LC-002-100-D00-0
 62
     7
370
    25
100
AcDbLine
 10
53.255306
 20
306.788497
 30
0.0
 11
56.255306
 21
309.788497
 31
0.0
  0
LINE
  5
29E
330
297
100
AcDbEntity
  8
LC-002-100-D00-0
 62
     7
370
    25
100
AcDbLine
 10
53.255306
 20
311.278625
 30
0.0
 11
56.255306
 21
314.278625
 31
0.0
  0
LINE
  5
29F
330
297
100
AcDbEntity
  8
LC-002-100-D00-0
 62
     7
370
    25
100
AcDbLine
 10
53.255306
 20
315.768753
 30
0.0
 11
56.255306
 21
318.768753
 31
0.0
  0
LINE
  5
2A0
330
297
100
AcDbEntity
  8
LC-002-100-D00-0
 62
     7
370
    25
100
AcDbLine
 10
53.255306
 20
320.258881
 30
0.0
 11
56.255306
 21
323.258881
 31
0.0
  0
LINE
  5
2A1
330
297
100
AcDbEntity
  8
LC-002-100-D00-0
 62
     7
370
    25
100
AcDbLine
 10
53.255306
 20
324.749009
 30
0.0
 11
56.255306
 21
327.749009
 31
0.0
  0
LINE
  5
2A2
330
297
100
AcDbEntity
  8
LC-002-100-D00-0
 62
     7
370
    25
100
AcDbLine
 10
53.255306
 20
329.239137
 30
0.0
 11
56.255306
 21
332.239137
 31
0.0
  0
LINE
  5
2A3
330
297
100
AcDbEntity
  8
LC-002-100-D00-0
 62
     7
370
    25
100
AcDbLine
 10
53.255306
 20
333.729265
 30
0.0
 11
56.255306
 21
336.729265
 31
0.0
  0
LINE
  5
2A4
330
297
100
AcDbEntity
  8
LC-002-100-D00-0
 62
     7
370
    25
100
AcDbLine
 10
51.339791
 20
336.303878
 30
0.0
 11
53.839797
 21
338.803884
 31
0.0
  0
LINE
  5
2A5
330
297
100
AcDbEntity
  8
LC-002-100-D00-0
 62
     7
370
    25
100
AcDbLine
 10
46.849663
 20
336.303878
 30
0.0
 11
49.148226
 21
338.602441
 31
0.0
  0
LINE
  5
2A6
330
297
100
AcDbEntity
  8
LC-002-100-D00-0
 62
     7
370
    25
100
AcDbLine
 10
42.359535
 20
336.303878
 30
0.0
 11
43.904103
 21
337.848446
 31
0.0
  0
ENDBLK
  5
299
330
297
100
AcDbEntity
  8
0
100
AcDbBlockEnd
  0
BLOCK
  5
2A9
330
2A8
100
AcDbEntity
  8
0
100
AcDbBlockBegin
  2
KLON14
 70
     0
 71
     0
 10
0.0
 20
0.0
 30
0.0
  3
KLON14
  1

  4
KLON14
  0
LINE
  5
2AB
330
2A8
100
AcDbEntity
  8
LC-002-100-D00-0
 62
     7
370
    25
100
AcDbLine
 10
136.255306
 20
295.495807
 30
0.0
 11
139.255306
 21
298.495807
 31
0.0
  0
LINE
  5
2AC
330
2A8
100
AcDbEntity
  8
LC-002-100-D00-0
 62
     7
370
    25
100
AcDbLine
 10
136.255306
 20
299.985936
 30
0.0
 11
139.255306
 21
302.985936
 31
0.0
  0
LINE
  5
2AD
330
2A8
100
AcDbEntity
  8
LC-002-100-D00-0
 62
     7
370
    25
100
AcDbLine
 10
136.255306
 20
304.476064
 30
0.0
 11
139.255306
 21
307.476064
 31
0.0
  0
LINE
  5
2AE
330
2A8
100
AcDbEntity
  8
LC-002-100-D00-0
 62
     7
370
    25
100
AcDbLine
 10
136.255306
 20
308.966192
 30
0.0
 11
139.255306
 21
311.966192
 31
0.0
  0
LINE
  5
2AF
330
2A8
100
AcDbEntity
  8
LC-002-100-D00-0
 62
     7
370
    25
100
AcDbLine
 10
136.255306
 20
313.45632
 30
0.0
 11
139.255306
 21
316.45632
 31
0.0
  0
LINE
  5
2B0
330
2A8
100
AcDbEntity
  8
LC-002-100-D00-0
 62
     7
370
    25
100
AcDbLine
 10
136.255306
 20
317.946448
 30
0.0
 11
139.255306
 21
320.946448
 31
0.0
  0
LINE
  5
2B1
330
2A8
100
AcDbEntity
  8
LC-002-100-D00-0
 62
     7
370
    25
100
AcDbLine
 10
136.255306
 20
322.436576
 30
0.0
 11
139.255306
 21
325.436576
 31
0.0
  0
LINE
  5
2B2
330
2A8
100
AcDbEntity
  8
LC-002-100-D00-0
 62
     7
370
    25
100
AcDbLine
 10
150.122608
 20
336.303878
 30
0.0
 11
151.104794
 21
337.286064
 31
0.0
  0
LINE
  5
2B3
330
2A8
100
AcDbEntity
  8
LC-002-100-D00-0
 62
     7
370
    25
100
AcDbLine
 10
136.255306
 20
326.926704
 30
0.0
 11
139.255306
 21
329.926704
 31
0.0
  0
LINE
  5
2B4
330
2A8
100
AcDbEntity
  8
LC-002-100-D00-0
 62
     7
370
    25
100
AcDbLine
 10
145.63248
 20
336.303878
 30
0.0
 11
147.400856
 21
338.072254
 31
0.0
  0
LINE
  5
2B5
330
2A8
100
AcDbEntity
  8
LC-002-100-D00-0
 62
     7
370
    25
100
AcDbLine
 10
136.255306
 20
331.416832
 30
0.0
 11
139.255306
 21
334.416832
 31
0.0
  0
LINE
  5
2B6
330
2A8
100
AcDbEntity
  8
LC-002-100-D00-0
 62
     7
370
    25
100
AcDbLine
 10
141.142352
 20
336.303878
 30
0.0
 11
143.43438
 21
338.595906
 31
0.0
  0
LINE
  5
2B7
330
2A8
100
AcDbEntity
  8
LC-002-100-D00-0
 62
     7
370
    25
100
AcDbLine
 10
136.255306
 20
335.90696
 30
0.0
 11
139.151486
 21
338.80314
 31
0.0
  0
ENDBLK
  5
2AA
330
2A8
100
AcDbEntity
  8
0
100
AcDbBlockEnd
  0
BLOCK
  5
2CC
330
2C1
100
AcDbEntity
  8
0
100
AcDbBlockBegin
  2
*D19
 70
     1
 71
     0
 10
0.0
 20
0.0
 30
0.0
  3
*D19
  1

  0
LINE
  5
2C2
330
2C1
100
AcDbEntity
  8
LC-003-003-----0
 62
     2
370
    -2
100
AcDbLine
 10
62.550349
 20
260.115984
 30
0.0
 11
62.599363
 21
207.670895
 31
0.0
  0
LINE
  5
2C3
330
2C1
100
AcDbEntity
  8
LC-003-003-----0
 62
     2
370
    -2
100
AcDbLine
 10
129.965274
 20
260.178988
 30
0.0
 11
130.014287
 21
207.733899
 31
0.0
  0
LINE
  5
2C4
330
2C1
100
AcDbEntity
  8
LC-003-003-----0
 62
     2
370
    -2
100
AcDbLine
 10
90.595986
 20
211.297062
 30
0.0
 11
102.010935
 21
211.30773
 31
0.0
  0
LINE
  5
2C5
330
2C1
100
AcDbEntity
  8
LC-003-003-----0
 62
     2
370
    -2
100
AcDbLine
 10
130.010923
 20
211.333897
 30
0.0
 11
230.815069
 21
211.428105
 31
0.0
  0
SOLID
  5
2C6
330
2C1
100
AcDbEntity
  8
LC-003-003-----0
 62
     2
100
AcDbTrace
 10
90.591625
 20
215.963726
 30
0.0
 11
90.600347
 21
206.630397
 31
0.0
 12
62.595998
 22
211.270894
 32
0.0
 13
62.595998
 23
211.270894
 33
0.0
  0
SOLID
  5
2C7
330
2C1
100
AcDbEntity
  8
LC-003-003-----0
 62
     2
100
AcDbTrace
 10
102.015296
 20
206.641065
 30
0.0
 11
102.006574
 21
215.974394
 31
0.0
 12
130.010923
 22
211.333897
 32
0.0
 13
130.010923
 23
211.333897
 33
0.0
  0
MTEXT
  5
2C8
330
2C1
100
AcDbEntity
  8
LC-003-003-----0
 62
     2
100
AcDbMText
 10
192.57091
 20
242.192377
 30
0.0
 40
28.0
 41
0.0
 71
     5
 72
     1
  1
\A1;%%c67,5
  7
LCTX15-400-0-0pDIN-Schrift
 11
0.9999995632950791
 21
0.000934563882839415
 31
0.0
 73
     1
 44
1.0
  0
POINT
  5
2C9
330
2C1
100
AcDbEntity
  8
Defpoints
 62
     0
100
AcDbPoint
 10
62.550349
 20
260.115984
 30
0.0
  0
POINT
  5
2CA
330
2C1
100
AcDbEntity
  8
Defpoints
 62
     0
100
AcDbPoint
 10
129.965274
 20
260.178988
 30
0.0
  0
POINT
  5
2CB
330
2C1
100
AcDbEntity
  8
Defpoints
 62
     0
100
AcDbPoint
 10
130.010923
 20
211.333897
 30
0.0
  0
ENDBLK
  5
2CD
330
2C1
100
AcDbEntity
  8
0
100
AcDbBlockEnd
  0
BLOCK
  5
2D9
330
2CF
100
AcDbEntity
  8
0
100
AcDbBlockBegin
  2
*D20
 70
     1
 71
     0
 10
0.0
 20
0.0
 30
0.0
  3
*D20
  1

  0
LINE
  5
2D0
330
2CF
100
AcDbEntity
  8
LC-003-003-----0
 62
     2
370
    -2
100
AcDbLine
 10
42.255306
 20
283.031302
 30
0.0
 11
42.255306
 21
147.798391
 31
0.0
  0
LINE
  5
2D1
330
2CF
100
AcDbEntity
  8
LC-003-003-----0
 62
     2
370
    -2
100
AcDbLine
 10
150.255306
 20
314.217865
 30
0.0
 11
150.255306
 21
147.798391
 31
0.0
  0
LINE
  5
2D2
330
2CF
100
AcDbEntity
  8
LC-003-003-----0
 62
     2
370
    -2
100
AcDbLine
 10
70.255306
 20
151.398391
 30
0.0
 11
122.255306
 21
151.398391
 31
0.0
  0
SOLID
  5
2D3
330
2CF
100
AcDbEntity
  8
LC-003-003-----0
 62
     2
100
AcDbTrace
 10
70.255306
 20
156.065057
 30
0.0
 11
70.255306
 21
146.731724
 31
0.0
 12
42.255306
 22
151.398391
 32
0.0
 13
42.255306
 23
151.398391
 33
0.0
  0
SOLID
  5
2D4
330
2CF
100
AcDbEntity
  8
LC-003-003-----0
 62
     2
100
AcDbTrace
 10
122.255306
 20
146.731724
 30
0.0
 11
122.255306
 21
156.065057
 31
0.0
 12
150.255306
 22
151.398391
 32
0.0
 13
150.255306
 23
151.398391
 33
0.0
  0
MTEXT
  5
2D5
330
2CF
100
AcDbEntity
  8
LC-003-003-----0
 62
     2
100
AcDbMText
 10
93.565943
 20
182.198391
 30
0.0
 40
28.0
 41
0.0
 71
     5
 72
     1
  1
%%c\A1;108
  7
LCTX15-400-0-0pDIN-Schrift
 73
     1
 44
1.0
  0
POINT
  5
2D6
330
2CF
100
AcDbEntity
  8
Defpoints
 62
     0
100
AcDbPoint
 10
42.255306
 20
283.031302
 30
0.0
  0
POINT
  5
2D7
330
2CF
100
AcDbEntity
  8
Defpoints
 62
     0
100
AcDbPoint
 10
150.255306
 20
314.217865
 30
0.0
  0
POINT
  5
2D8
330
2CF
100
AcDbEntity
  8
Defpoints
 62
     0
100
AcDbPoint
 10
150.255306
 20
151.398391
 30
0.0
  0
ENDBLK
  5
2DA
330
2CF
100
AcDbEntity
  8
0
100
AcDbBlockEnd
  0
BLOCK
  5
2E6
330
2DC
100
AcDbEntity
  8
0
100
AcDbBlockBegin
  2
*D21
 70
     1
 71
     0
 10
0.0
 20
0.0
 30
0.0
  3
*D21
  1

  0
LINE
  5
2DD
330
2DC
100
AcDbEntity
  8
LC-003-003-----0
 62
     2
370
    -2
100
AcDbLine
 10
37.755307
 20
319.717868
 30
0.0
 11
37.755307
 21
96.714391
 31
0.0
  0
LINE
  5
2DE
330
2DC
100
AcDbEntity
  8
LC-003-003-----0
 62
     2
370
    -2
100
AcDbLine
 10
154.755306
 20
319.717868
 30
0.0
 11
154.755306
 21
96.714391
 31
0.0
  0
LINE
  5
2DF
330
2DC
100
AcDbEntity
  8
LC-003-003-----0
 62
     2
370
    -2
100
AcDbLine
 10
65.755307
 20
100.314391
 30
0.0
 11
126.755306
 21
100.314391
 31
0.0
  0
SOLID
  5
2E0
330
2DC
100
AcDbEntity
  8
LC-003-003-----0
 62
     2
100
AcDbTrace
 10
65.755307
 20
104.981057
 30
0.0
 11
65.755307
 21
95.647724
 31
0.0
 12
37.755307
 22
100.314391
 32
0.0
 13
37.755307
 23
100.314391
 33
0.0
  0
SOLID
  5
2E1
330
2DC
100
AcDbEntity
  8
LC-003-003-----0
 62
     2
100
AcDbTrace
 10
126.755306
 20
95.647724
 30
0.0
 11
126.755306
 21
104.981057
 31
0.0
 12
154.755306
 22
100.314391
 32
0.0
 13
154.755306
 23
100.314391
 33
0.0
  0
MTEXT
  5
2E2
330
2DC
100
AcDbEntity
  8
LC-003-003-----0
 62
     2
100
AcDbMText
 10
97.825459
 20
131.114391
 30
0.0
 40
28.0
 41
0.0
 71
     5
 72
     1
  1
%%c\A1;117
  7
LCTX15-400-0-0pDIN-Schrift
 73
     1
 44
1.0
  0
POINT
  5
2E3
330
2DC
100
AcDbEntity
  8
Defpoints
 62
     0
100
AcDbPoint
 10
37.755307
 20
319.717868
 30
0.0
  0
POINT
  5
2E4
330
2DC
100
AcDbEntity
  8
Defpoints
 62
     0
100
AcDbPoint
 10
154.755306
 20
319.717868
 30
0.0
  0
POINT
  5
2E5
330
2DC
100
AcDbEntity
  8
Defpoints
 62
     0
100
AcDbPoint
 10
154.755306
 20
100.314391
 30
0.0
  0
ENDBLK
  5
2E7
330
2DC
100
AcDbEntity
  8
0
100
AcDbBlockEnd
  0
BLOCK
  5
2F3
330
2E9
100
AcDbEntity
  8
0
100
AcDbBlockBegin
  2
*D22
 70
     1
 71
     0
 10
0.0
 20
0.0
 30
0.0
  3
*D22
  1

  0
LINE
  5
2EA
330
2E9
100
AcDbEntity
  8
LC-003-003-----0
 62
     2
370
    -2
100
AcDbLine
 10
96.255306
 20
245.720981
 30
0.0
 11
96.255306
 21
53.946391
 31
0.0
  0
LINE
  5
2EB
330
2E9
100
AcDbEntity
  8
LC-003-003-----0
 62
     2
370
    -2
100
AcDbLine
 10
291.2553
 20
288.217865
 30
0.0
 11
291.2553
 21
53.946391
 31
0.0
  0
LINE
  5
2EC
330
2E9
100
AcDbEntity
  8
LC-003-003-----0
 62
     2
370
    -2
100
AcDbLine
 10
124.255306
 20
57.546391
 30
0.0
 11
263.2553
 21
57.546391
 31
0.0
  0
SOLID
  5
2ED
330
2E9
100
AcDbEntity
  8
LC-003-003-----0
 62
     2
100
AcDbTrace
 10
124.255306
 20
62.213057
 30
0.0
 11
124.255306
 21
52.879724
 31
0.0
 12
96.255306
 22
57.546391
 32
0.0
 13
96.255306
 23
57.546391
 33
0.0
  0
SOLID
  5
2EE
330
2E9
100
AcDbEntity
  8
LC-003-003-----0
 62
     2
100
AcDbTrace
 10
263.2553
 20
52.879724
 30
0.0
 11
263.2553
 21
62.213057
 31
0.0
 12
291.2553
 22
57.546391
 32
0.0
 13
291.2553
 23
57.546391
 33
0.0
  0
MTEXT
  5
2EF
330
2E9
100
AcDbEntity
  8
LC-003-003-----0
 62
     2
100
AcDbMText
 10
193.664574
 20
88.346391
 30
0.0
 40
28.0
 41
0.0
 71
     5
 72
     1
  1
\A1;195
  7
LCTX15-400-0-0pDIN-Schrift
 73
     1
 44
1.0
  0
POINT
  5
2F0
330
2E9
100
AcDbEntity
  8
Defpoints
 62
     0
100
AcDbPoint
 10
96.255306
 20
245.720981
 30
0.0
  0
POINT
  5
2F1
330
2E9
100
AcDbEntity
  8
Defpoints
 62
     0
100
AcDbPoint
 10
291.2553
 20
288.217865
 30
0.0
  0
POINT
  5
2F2
330
2E9
100
AcDbEntity
  8
Defpoints
 62
     0
100
AcDbPoint
 10
291.2553
 20
57.546391
 30
0.0
  0
ENDBLK
  5
2F4
330
2E9
100
AcDbEntity
  8
0
100
AcDbBlockEnd
  0
BLOCK
  5
301
330
2F6
100
AcDbEntity
  8
0
100
AcDbBlockBegin
  2
*D23
 70
     1
 71
     0
 10
0.0
 20
0.0
 30
0.0
  3
*D23
  1

  0
LINE
  5
2F7
330
2F6
100
AcDbEntity
  8
LC-003-003-----0
 62
     2
370
    -2
100
AcDbLine
 10
283.969169
 20
313.217865
 30
0.0
 11
424.083812
 21
313.217865
 31
0.0
  0
LINE
  5
2F8
330
2F6
100
AcDbEntity
  8
LC-003-003-----0
 62
     2
370
    -2
100
AcDbLine
 10
287.7553
 20
263.217866
 30
0.0
 11
424.083812
 21
263.217866
 31
0.0
  0
LINE
  5
2F9
330
2F6
100
AcDbEntity
  8
LC-003-003-----0
 62
     2
370
    -2
100
AcDbLine
 10
420.483812
 20
341.217865
 30
0.0
 11
420.483812
 21
369.217865
 31
0.0
  0
LINE
  5
2FA
330
2F6
100
AcDbEntity
  8
LC-003-003-----0
 62
     2
370
    -2
100
AcDbLine
 10
420.483812
 20
235.217866
 30
0.0
 11
420.483812
 21
149.911633
 31
0.0
  0
SOLID
  5
2FB
330
2F6
100
AcDbEntity
  8
LC-003-003-----0
 62
     2
100
AcDbTrace
 10
415.817146
 20
341.217865
 30
0.0
 11
425.150479
 21
341.217865
 31
0.0
 12
420.483812
 22
313.217865
 32
0.0
 13
420.483812
 23
313.217865
 33
0.0
  0
SOLID
  5
2FC
330
2F6
100
AcDbEntity
  8
LC-003-003-----0
 62
     2
100
AcDbTrace
 10
425.150479
 20
235.217866
 30
0.0
 11
415.817146
 21
235.217866
 31
0.0
 12
420.483812
 22
263.217866
 32
0.0
 13
420.483812
 23
263.217866
 33
0.0
  0
MTEXT
  5
2FD
330
2F6
100
AcDbEntity
  8
LC-003-003-----0
 62
     2
100
AcDbMText
 10
389.683812
 20
195.948391
 30
0.0
 40
28.0
 41
0.0
 71
     5
 72
     1
  1
\A1;DN50
  7
LCTX15-400-0-0pDIN-Schrift
 11
6.123031769111886E-17
 21
1.0
 31
0.0
 73
     1
 44
1.0
  0
POINT
  5
2FE
330
2F6
100
AcDbEntity
  8
Defpoints
 62
     0
100
AcDbPoint
 10
283.969169
 20
313.217865
 30
0.0
  0
POINT
  5
2FF
330
2F6
100
AcDbEntity
  8
Defpoints
 62
     0
100
AcDbPoint
 10
287.7553
 20
263.217866
 30
0.0
  0
POINT
  5
300
330
2F6
100
AcDbEntity
  8
Defpoints
 62
     0
100
AcDbPoint
 10
420.483812
 20
263.217866
 30
0.0
  0
ENDBLK
  5
302
330
2F6
100
AcDbEntity
  8
0
100
AcDbBlockEnd
  0
BLOCK
  5
305
330
304
100
AcDbEntity
  8
0
100
AcDbBlockBegin
  2
LCDIM1
 70
     0
 71
     0
 10
0.0
 20
0.0
 30
0.0
  3
LCDIM1
  1

  4
LCDIM1
  0
TEXT
  5
307
330
304
100
AcDbEntity
  8
LC-003-003-----0
 62
     7
370
   140
100
AcDbText
 10
327.860624
 20
183.991552
 30
0.0
 40
28.0
  1
 15%%d
 50
61.641144
 41
0.8
 51
15.0
  7
LCTX15-400-0-0-Arial
 72
     1
 11
341.181692
 21
208.670693
 31
0.0
100
AcDbText
  0
LINE
  5
308
330
304
100
AcDbEntity
  8
LC-003-003-----0
 62
     7
370
    25
100
AcDbLine
 10
364.208505
 20
211.167772
 30
0.0
 11
368.191232
 21
230.440658
 31
0.0
  0
LINE
  5
309
330
304
100
AcDbEntity
  8
LC-003-003-----0
 62
     7
370
    25
100
AcDbLine
 10
358.802982
 20
213.047612
 30
0.0
 11
364.208505
 21
211.167772
 31
0.0
  0
LINE
  5
30A
330
304
100
AcDbEntity
  8
LC-003-003-----0
 62
     7
370
    25
100
AcDbLine
 10
363.290541
 20
211.421066
 30
0.0
 11
366.619001
 21
227.52788
 31
0.0
  0
LINE
  5
30B
330
304
100
AcDbEntity
  8
LC-003-003-----0
 62
     7
370
    25
100
AcDbLine
 10
362.372576
 20
211.67436
 30
0.0
 11
365.04677
 21
224.615102
 31
0.0
  0
LINE
  5
30C
330
304
100
AcDbEntity
  8
LC-003-003-----0
 62
     7
370
    25
100
AcDbLine
 10
364.101495
 20
222.863848
 30
0.0
 11
359.058702
 21
212.826802
 31
0.0
  0
LINE
  5
30D
330
304
100
AcDbEntity
  8
LC-003-003-----0
 62
     7
370
    25
100
AcDbLine
 10
361.454611
 20
211.927654
 30
0.0
 11
362.701231
 21
217.960194
 31
0.0
  0
LINE
  5
30E
330
304
100
AcDbEntity
  8
LC-003-003-----0
 62
     7
370
    25
100
AcDbLine
 10
362.701231
 20
217.960194
 30
0.0
 11
359.935752
 21
212.455857
 31
0.0
  0
LINE
  5
30F
330
304
100
AcDbEntity
  8
LC-003-003-----0
 62
     7
370
    25
100
AcDbLine
 10
370.742347
 20
315.638502
 30
0.0
 11
376.4088
 21
288.217865
 31
0.0
  0
LINE
  5
310
330
304
100
AcDbEntity
  8
LC-003-003-----0
 62
     7
370
    25
100
AcDbLine
 10
376.4088
 20
288.217865
 30
0.0
 11
378.03241
 21
316.170752
 31
0.0
  0
LINE
  5
311
330
304
100
AcDbEntity
  8
LC-003-003-----0
 62
     7
370
    25
100
AcDbLine
 10
378.03241
 20
316.170752
 30
0.0
 11
370.742347
 21
315.638502
 31
0.0
  0
LINE
  5
312
330
304
100
AcDbEntity
  8
LC-003-003-----0
 62
     7
370
    25
100
AcDbLine
 10
371.68552
 20
315.76981
 30
0.0
 11
375.878696
 21
295.478539
 31
0.0
  0
LINE
  5
313
330
304
100
AcDbEntity
  8
LC-003-003-----0
 62
     7
370
    25
100
AcDbLine
 10
375.878696
 20
295.478539
 30
0.0
 11
377.080167
 21
316.163675
 31
0.0
  0
LINE
  5
314
330
304
100
AcDbEntity
  8
LC-003-003-----0
 62
     7
370
    25
100
AcDbLine
 10
372.628693
 20
315.901119
 30
0.0
 11
375.348591
 21
302.739213
 31
0.0
  0
LINE
  5
315
330
304
100
AcDbEntity
  8
LC-003-003-----0
 62
     7
370
    25
100
AcDbLine
 10
375.348591
 20
302.739213
 30
0.0
 11
376.127924
 21
316.156599
 31
0.0
  0
LINE
  5
316
330
304
100
AcDbEntity
  8
LC-003-003-----0
 62
     7
370
    25
100
AcDbLine
 10
373.571866
 20
316.032427
 30
0.0
 11
374.818486
 21
309.999887
 31
0.0
  0
LINE
  5
317
330
304
100
AcDbEntity
  8
LC-003-003-----0
 62
     7
370
    25
100
AcDbLine
 10
374.818486
 20
309.999887
 30
0.0
 11
375.17568
 21
316.149522
 31
0.0
  0
ARC
  5
319
330
304
100
AcDbEntity
  8
LC-004-003-MTG-0
 62
     7
370
    25
100
AcDbCircle
 10
184.655306
 20
288.217865
 30
0.0
 40
191.7534942878551
100
AcDbArc
 50
320.81981
 51
321.7225
  0
ARC
  5
31A
330
304
100
AcDbEntity
  8
LC-004-003-MTG-0
 62
     7
370
    25
100
AcDbCircle
 10
184.655306
 20
288.217865
 30
0.0
 40
191.7534942878551
100
AcDbArc
 50
321.837785
 51
341.444502
  0
ARC
  5
31B
330
304
100
AcDbEntity
  8
LC-004-003-MTG-0
 62
     7
370
    25
100
AcDbCircle
 10
184.655306
 20
288.217865
 30
0.0
 40
191.7534942878551
100
AcDbArc
 50
345.9906
 51
11.553734
  0
LINE
  5
31D
330
304
100
AcDbEntity
  8
LC-005-003-MTH-0
 62
     7
370
    25
100
AcDbLine
 10
322.137418
 20
251.379644
 30
0.0
 11
322.209644
 21
251.360291
 31
0.0
  0
LINE
  5
31E
330
304
100
AcDbEntity
  8
LC-005-003-MTH-0
 62
     7
370
    25
100
AcDbLine
 10
372.246192
 20
237.953039
 30
0.0
 11
373.738662
 21
237.553132
 31
0.0
  0
LINE
  5
31F
330
304
100
AcDbEntity
  8
LC-005-003-MTH-0
 62
     7
370
    25
100
AcDbLine
 10
293.255306
 20
288.217865
 30
0.0
 11
380.4088
 21
288.217865
 31
0.0
  0
ENDBLK
  5
306
330
304
100
AcDbEntity
  8
0
100
AcDbBlockEnd
  0
BLOCK
  5
33F
330
33E
100
AcDbEntity
  8
0
100
AcDbBlockBegin
  2
*X125
 70
     1
 71
     0
 10
0.0
 20
0.0
 30
0.0
  3
*X125
  1

  4
*X1
  0
LINE
  5
342
330
33E
100
AcDbEntity
  8
LC-008-005-----0
 62
     7
370
    25
100
AcDbLine
 10
142.20985
 20
330.13748
 30
0.0
 11
142.732732
 21
329.614598
 31
0.0
  0
LINE
  5
343
330
33E
100
AcDbEntity
  8
LC-008-005-----0
 62
     7
370
    25
100
AcDbLine
 10
143.427807
 20
331.74795
 30
0.0
 11
144.525883
 21
330.649874
 31
0.0
  0
LINE
  5
344
330
33E
100
AcDbEntity
  8
LC-008-005-----0
 62
     7
370
    25
100
AcDbLine
 10
145.220958
 20
332.783226
 30
0.0
 11
146.319034
 21
331.68515
 31
0.0
  0
LINE
  5
345
330
33E
100
AcDbEntity
  8
LC-008-005-----0
 62
     7
370
    25
100
AcDbLine
 10
147.014109
 20
333.818502
 30
0.0
 11
148.112185
 21
332.720426
 31
0.0
  0
LINE
  5
346
330
33E
100
AcDbEntity
  8
LC-008-005-----0
 62
     7
370
    25
100
AcDbLine
 10
148.80726
 20
334.853779
 30
0.0
 11
149.905336
 21
333.755702
 31
0.0
  0
LINE
  5
347
330
33E
100
AcDbEntity
  8
LC-008-005-----0
 62
     7
370
    25
100
AcDbLine
 10
150.600411
 20
335.889055
 30
0.0
 11
151.698487
 21
334.790979
 31
0.0
  0
LINE
  5
348
330
33E
100
AcDbEntity
  8
LC-008-005-----0
 62
     7
370
    25
100
AcDbLine
 10
152.606332
 20
336.71156
 30
0.0
 11
154.096791
 21
335.221102
 31
0.0
  0
LINE
  5
349
330
33E
100
AcDbEntity
  8
LC-008-005-----0
 62
     7
370
    25
100
AcDbLine
 10
155.425218
 20
336.721102
 30
0.0
 11
156.925218
 21
335.221102
 31
0.0
  0
LINE
  5
34A
330
33E
100
AcDbEntity
  8
LC-008-005-----0
 62
     7
370
    25
100
AcDbLine
 10
158.253645
 20
336.721102
 30
0.0
 11
159.753645
 21
335.221102
 31
0.0
  0
LINE
  5
34B
330
33E
100
AcDbEntity
  8
LC-008-005-----0
 62
     7
370
    25
100
AcDbLine
 10
161.082072
 20
336.721102
 30
0.0
 11
162.582072
 21
335.221102
 31
0.0
  0
LINE
  5
34C
330
33E
100
AcDbEntity
  8
LC-008-005-----0
 62
     7
370
    25
100
AcDbLine
 10
163.9105
 20
336.721102
 30
0.0
 11
165.4105
 21
335.221102
 31
0.0
  0
LINE
  5
34D
330
33E
100
AcDbEntity
  8
LC-008-005-----0
 62
     7
370
    25
100
AcDbLine
 10
166.738927
 20
336.721102
 30
0.0
 11
168.238927
 21
335.221102
 31
0.0
  0
LINE
  5
34E
330
33E
100
AcDbEntity
  8
LC-008-005-----0
 62
     7
370
    25
100
AcDbLine
 10
169.567354
 20
336.721102
 30
0.0
 11
171.067354
 21
335.221102
 31
0.0
  0
LINE
  5
34F
330
33E
100
AcDbEntity
  8
LC-008-005-----0
 62
     7
370
    25
100
AcDbLine
 10
172.395781
 20
336.721102
 30
0.0
 11
173.895781
 21
335.221102
 31
0.0
  0
LINE
  5
350
330
33E
100
AcDbEntity
  8
LC-008-005-----0
 62
     7
370
    25
100
AcDbLine
 10
175.224208
 20
336.721102
 30
0.0
 11
176.724208
 21
335.221102
 31
0.0
  0
LINE
  5
351
330
33E
100
AcDbEntity
  8
LC-008-005-----0
 62
     7
370
    25
100
AcDbLine
 10
178.052635
 20
336.721102
 30
0.0
 11
179.552635
 21
335.221102
 31
0.0
  0
LINE
  5
352
330
33E
100
AcDbEntity
  8
LC-008-005-----0
 62
     7
370
    25
100
AcDbLine
 10
180.881062
 20
336.721102
 30
0.0
 11
182.381062
 21
335.221102
 31
0.0
  0
LINE
  5
353
330
33E
100
AcDbEntity
  8
LC-008-005-----0
 62
     7
370
    25
100
AcDbLine
 10
183.709489
 20
336.721102
 30
0.0
 11
185.209489
 21
335.221102
 31
0.0
  0
LINE
  5
354
330
33E
100
AcDbEntity
  8
LC-008-005-----0
 62
     7
370
    25
100
AcDbLine
 10
186.537917
 20
336.721102
 30
0.0
 11
188.037917
 21
335.221102
 31
0.0
  0
LINE
  5
355
330
33E
100
AcDbEntity
  8
LC-008-005-----0
 62
     7
370
    25
100
AcDbLine
 10
189.366344
 20
336.721102
 30
0.0
 11
190.866344
 21
335.221102
 31
0.0
  0
LINE
  5
356
330
33E
100
AcDbEntity
  8
LC-008-005-----0
 62
     7
370
    25
100
AcDbLine
 10
192.194771
 20
336.721102
 30
0.0
 11
193.694771
 21
335.221102
 31
0.0
  0
LINE
  5
357
330
33E
100
AcDbEntity
  8
LC-008-005-----0
 62
     7
370
    25
100
AcDbLine
 10
195.023198
 20
336.721102
 30
0.0
 11
196.523198
 21
335.221102
 31
0.0
  0
LINE
  5
358
330
33E
100
AcDbEntity
  8
LC-008-005-----0
 62
     7
370
    25
100
AcDbLine
 10
197.851625
 20
336.721102
 30
0.0
 11
199.351625
 21
335.221102
 31
0.0
  0
LINE
  5
359
330
33E
100
AcDbEntity
  8
LC-008-005-----0
 62
     7
370
    25
100
AcDbLine
 10
200.680052
 20
336.721102
 30
0.0
 11
203.080582
 21
334.320571
 31
0.0
  0
LINE
  5
35A
330
33E
100
AcDbEntity
  8
LC-008-005-----0
 62
     7
370
    25
100
AcDbLine
 10
203.665241
 20
336.56434
 30
0.0
 11
205.008479
 21
335.221102
 31
0.0
  0
LINE
  5
35B
330
33E
100
AcDbEntity
  8
LC-008-005-----0
 62
     7
370
    25
100
AcDbLine
 10
206.336906
 20
336.721102
 30
0.0
 11
207.836906
 21
335.221102
 31
0.0
  0
LINE
  5
35C
330
33E
100
AcDbEntity
  8
LC-008-005-----0
 62
     7
370
    25
100
AcDbLine
 10
209.165334
 20
336.721102
 30
0.0
 11
210.665334
 21
335.221102
 31
0.0
  0
LINE
  5
35D
330
33E
100
AcDbEntity
  8
LC-008-005-----0
 62
     7
370
    25
100
AcDbLine
 10
211.993761
 20
336.721102
 30
0.0
 11
213.493761
 21
335.221102
 31
0.0
  0
LINE
  5
35E
330
33E
100
AcDbEntity
  8
LC-008-005-----0
 62
     7
370
    25
100
AcDbLine
 10
214.822188
 20
336.721102
 30
0.0
 11
216.322188
 21
335.221102
 31
0.0
  0
LINE
  5
35F
330
33E
100
AcDbEntity
  8
LC-008-005-----0
 62
     7
370
    25
100
AcDbLine
 10
217.650615
 20
336.721102
 30
0.0
 11
219.150615
 21
335.221102
 31
0.0
  0
LINE
  5
360
330
33E
100
AcDbEntity
  8
LC-008-005-----0
 62
     7
370
    25
100
AcDbLine
 10
220.479042
 20
336.721102
 30
0.0
 11
221.979042
 21
335.221102
 31
0.0
  0
ENDBLK
  5
340
330
33E
100
AcDbEntity
  8
0
100
AcDbBlockEnd
  0
BLOCK
  5
363
330
362
100
AcDbEntity
  8
0
100
AcDbBlockBegin
  2
*X226
 70
     1
 71
     0
 10
0.0
 20
0.0
 30
0.0
  3
*X226
  1

  4
*X2
  0
LINE
  5
365
330
362
100
AcDbEntity
  8
LC-008-005-----0
 62
     7
370
    25
100
AcDbLine
 10
-28.422545
 20
336.721102
 30
0.0
 11
-26.922545
 21
335.221102
 31
0.0
  0
LINE
  5
366
330
362
100
AcDbEntity
  8
LC-008-005-----0
 62
     7
370
    25
100
AcDbLine
 10
-25.594118
 20
336.721102
 30
0.0
 11
-24.094118
 21
335.221102
 31
0.0
  0
LINE
  5
367
330
362
100
AcDbEntity
  8
LC-008-005-----0
 62
     7
370
    25
100
AcDbLine
 10
-22.765691
 20
336.721102
 30
0.0
 11
-21.265691
 21
335.221102
 31
0.0
  0
LINE
  5
368
330
362
100
AcDbEntity
  8
LC-008-005-----0
 62
     7
370
    25
100
AcDbLine
 10
-19.937264
 20
336.721102
 30
0.0
 11
-18.437264
 21
335.221102
 31
0.0
  0
LINE
  5
369
330
362
100
AcDbEntity
  8
LC-008-005-----0
 62
     7
370
    25
100
AcDbLine
 10
-17.108836
 20
336.721102
 30
0.0
 11
-15.608836
 21
335.221102
 31
0.0
  0
LINE
  5
36A
330
362
100
AcDbEntity
  8
LC-008-005-----0
 62
     7
370
    25
100
AcDbLine
 10
-14.280409
 20
336.721102
 30
0.0
 11
-12.780409
 21
335.221102
 31
0.0
  0
LINE
  5
36B
330
362
100
AcDbEntity
  8
LC-008-005-----0
 62
     7
370
    25
100
AcDbLine
 10
-11.451982
 20
336.721102
 30
0.0
 11
-9.025165
 21
334.294285
 31
0.0
  0
LINE
  5
36C
330
362
100
AcDbEntity
  8
LC-008-005-----0
 62
     7
370
    25
100
AcDbLine
 10
-8.380257
 20
336.477803
 30
0.0
 11
-7.123555
 21
335.221102
 31
0.0
  0
LINE
  5
36D
330
362
100
AcDbEntity
  8
LC-008-005-----0
 62
     7
370
    25
100
AcDbLine
 10
-5.795128
 20
336.721102
 30
0.0
 11
-4.295128
 21
335.221102
 31
0.0
  0
LINE
  5
36E
330
362
100
AcDbEntity
  8
LC-008-005-----0
 62
     7
370
    25
100
AcDbLine
 10
-2.966701
 20
336.721102
 30
0.0
 11
-1.466701
 21
335.221102
 31
0.0
  0
LINE
  5
36F
330
362
100
AcDbEntity
  8
LC-008-005-----0
 62
     7
370
    25
100
AcDbLine
 10
-0.138274
 20
336.721102
 30
0.0
 11
1.361726
 21
335.221102
 31
0.0
  0
LINE
  5
370
330
362
100
AcDbEntity
  8
LC-008-005-----0
 62
     7
370
    25
100
AcDbLine
 10
2.690153
 20
336.721102
 30
0.0
 11
4.190153
 21
335.221102
 31
0.0
  0
LINE
  5
371
330
362
100
AcDbEntity
  8
LC-008-005-----0
 62
     7
370
    25
100
AcDbLine
 10
5.518581
 20
336.721102
 30
0.0
 11
7.018581
 21
335.221102
 31
0.0
  0
LINE
  5
372
330
362
100
AcDbEntity
  8
LC-008-005-----0
 62
     7
370
    25
100
AcDbLine
 10
8.347008
 20
336.721102
 30
0.0
 11
9.847008
 21
335.221102
 31
0.0
  0
LINE
  5
373
330
362
100
AcDbEntity
  8
LC-008-005-----0
 62
     7
370
    25
100
AcDbLine
 10
11.175435
 20
336.721102
 30
0.0
 11
12.675435
 21
335.221102
 31
0.0
  0
LINE
  5
374
330
362
100
AcDbEntity
  8
LC-008-005-----0
 62
     7
370
    25
100
AcDbLine
 10
14.003862
 20
336.721102
 30
0.0
 11
15.503862
 21
335.221102
 31
0.0
  0
LINE
  5
375
330
362
100
AcDbEntity
  8
LC-008-005-----0
 62
     7
370
    25
100
AcDbLine
 10
16.832289
 20
336.721102
 30
0.0
 11
18.332289
 21
335.221102
 31
0.0
  0
LINE
  5
376
330
362
100
AcDbEntity
  8
LC-008-005-----0
 62
     7
370
    25
100
AcDbLine
 10
19.660716
 20
336.721102
 30
0.0
 11
21.160716
 21
335.221102
 31
0.0
  0
LINE
  5
377
330
362
100
AcDbEntity
  8
LC-008-005-----0
 62
     7
370
    25
100
AcDbLine
 10
22.489143
 20
336.721102
 30
0.0
 11
23.989143
 21
335.221102
 31
0.0
  0
LINE
  5
378
330
362
100
AcDbEntity
  8
LC-008-005-----0
 62
     7
370
    25
100
AcDbLine
 10
25.31757
 20
336.721102
 30
0.0
 11
26.81757
 21
335.221102
 31
0.0
  0
LINE
  5
379
330
362
100
AcDbEntity
  8
LC-008-005-----0
 62
     7
370
    25
100
AcDbLine
 10
28.145998
 20
336.721102
 30
0.0
 11
29.645998
 21
335.221102
 31
0.0
  0
LINE
  5
37A
330
362
100
AcDbEntity
  8
LC-008-005-----0
 62
     7
370
    25
100
AcDbLine
 10
30.974425
 20
336.721102
 30
0.0
 11
32.474425
 21
335.221102
 31
0.0
  0
LINE
  5
37B
330
362
100
AcDbEntity
  8
LC-008-005-----0
 62
     7
370
    25
100
AcDbLine
 10
33.802852
 20
336.721102
 30
0.0
 11
35.302852
 21
335.221102
 31
0.0
  0
LINE
  5
37C
330
362
100
AcDbEntity
  8
LC-008-005-----0
 62
     7
370
    25
100
AcDbLine
 10
36.631279
 20
336.721102
 30
0.0
 11
38.131279
 21
335.221102
 31
0.0
  0
LINE
  5
37D
330
362
100
AcDbEntity
  8
LC-008-005-----0
 62
     7
370
    25
100
AcDbLine
 10
39.459706
 20
336.721102
 30
0.0
 11
42.010477
 21
334.170331
 31
0.0
  0
LINE
  5
37E
330
362
100
AcDbEntity
  8
LC-008-005-----0
 62
     7
370
    25
100
AcDbLine
 10
44.604531
 20
334.404704
 30
0.0
 11
48.702607
 21
330.306627
 31
0.0
  0
ENDBLK
  5
364
330
362
100
AcDbEntity
  8
0
100
AcDbBlockEnd
  0
BLOCK
  5
38F
330
38E
100
AcDbEntity
  8
0
100
AcDbBlockBegin
  2
*X327
 70
     1
 71
     0
 10
0.0
 20
0.0
 30
0.0
  3
*X327
  1

  4
*X3
  0
LINE
  5
391
330
38E
100
AcDbEntity
  8
LC-008-005-----0
 62
     7
370
    25
100
AcDbLine
 10
147.317441
 20
333.993631
 30
0.0
 11
149.62769
 21
336.30388
 31
0.0
  0
LINE
  5
392
330
38E
100
AcDbEntity
  8
LC-008-005-----0
 62
     7
370
    25
100
AcDbLine
 10
141.816985
 20
332.735816
 30
0.0
 11
145.385049
 21
336.30388
 31
0.0
  0
LINE
  5
393
330
38E
100
AcDbEntity
  8
LC-008-005-----0
 62
     7
370
    25
100
AcDbLine
 10
50.808535
 20
330.82282
 30
0.0
 11
50.816985
 21
330.831271
 31
0.0
  0
LINE
  5
394
330
38E
100
AcDbEntity
  8
LC-008-005-----0
 62
     7
370
    25
100
AcDbLine
 10
48.316985
 20
332.573911
 30
0.0
 11
50.816985
 21
335.073911
 31
0.0
  0
LINE
  5
395
330
38E
100
AcDbEntity
  8
LC-008-005-----0
 62
     7
370
    25
100
AcDbLine
 10
45.429082
 20
333.928649
 30
0.0
 11
47.804313
 21
336.30388
 31
0.0
  0
LINE
  5
396
330
38E
100
AcDbEntity
  8
LC-008-005-----0
 62
     7
370
    25
100
AcDbLine
 10
42.739356
 20
335.481563
 30
0.0
 11
43.561672
 21
336.30388
 31
0.0
  0
ENDBLK
  5
390
330
38E
100
AcDbEntity
  8
0
100
AcDbBlockEnd
  0
BLOCK
  5
3A4
330
39A
100
AcDbEntity
  8
0
100
AcDbBlockBegin
  2
*D28
 70
     1
 71
     0
 10
0.0
 20
0.0
 30
0.0
  3
*D28
  1

  0
LINE
  5
39B
330
39A
100
AcDbEntity
  8
LC-003-003-----0
 62
     2
370
    -2
100
AcDbLine
 10
77.092999
 20
247.717865
 30
0.0
 11
-44.819809
 21
247.717865
 31
0.0
  0
LINE
  5
39C
330
39A
100
AcDbEntity
  8
LC-003-003-----0
 62
     2
370
    -2
100
AcDbLine
 10
-29.683015
 20
336.721102
 30
0.0
 11
-44.819809
 21
336.721102
 31
0.0
  0
LINE
  5
39D
330
39A
100
AcDbEntity
  8
LC-003-003-----0
 62
     2
370
    -2
100
AcDbLine
 10
-41.219809
 20
275.717865
 30
0.0
 11
-41.219809
 21
308.721102
 31
0.0
  0
SOLID
  5
39E
330
39A
100
AcDbEntity
  8
LC-003-003-----0
 62
     2
100
AcDbTrace
 10
-45.886476
 20
275.717865
 30
0.0
 11
-36.553143
 21
275.717865
 31
0.0
 12
-41.219809
 22
247.717865
 32
0.0
 13
-41.219809
 23
247.717865
 33
0.0
  0
SOLID
  5
39F
330
39A
100
AcDbEntity
  8
LC-003-003-----0
 62
     2
100
AcDbTrace
 10
-36.553143
 20
308.721102
 30
0.0
 11
-45.886476
 21
308.721102
 31
0.0
 12
-41.219809
 22
336.721102
 32
0.0
 13
-41.219809
 23
336.721102
 33
0.0
  0
MTEXT
  5
3A0
330
39A
100
AcDbEntity
  8
LC-003-003-----0
 62
     2
100
AcDbMText
 10
-72.019809
 20
288.928662
 30
0.0
 40
28.0
 41
0.0
 71
     5
 72
     1
  1
\A1;90
  7
LCTX15-400-0-0pDIN-Schrift
 11
6.123031769111886E-17
 21
1.0
 31
0.0
 73
     1
 44
1.0
  0
POINT
  5
3A1
330
39A
100
AcDbEntity
  8
Defpoints
 62
     0
100
AcDbPoint
 10
77.092999
 20
247.717865
 30
0.0
  0
POINT
  5
3A2
330
39A
100
AcDbEntity
  8
Defpoints
 62
     0
100
AcDbPoint
 10
-29.683015
 20
336.721102
 30
0.0
  0
POINT
  5
3A3
330
39A
100
AcDbEntity
  8
Defpoints
 62
     0
100
AcDbPoint
 10
-41.219809
 20
336.721102
 30
0.0
  0
ENDBLK
  5
3A5
330
39A
100
AcDbEntity
  8
0
100
AcDbBlockEnd
  0
BLOCK
  5
3B3
330
3A7
100
AcDbEntity
  8
0
100
AcDbBlockBegin
  2
*D29
 70
     1
 71
     0
 10
0.0
 20
0.0
 30
0.0
  3
*D29
  1

  0
LINE
  5
3A8
330
3A7
100
AcDbEntity
  8
LC-003-003-----0
 62
     2
370
    -2
100
AcDbLine
 10
77.255305
 20
266.603885
 30
0.0
 11
16.554619
 21
266.603885
 31
0.0
  0
LINE
  5
3A9
330
3A7
100
AcDbEntity
  8
LC-003-003-----0
 62
     2
370
    -2
100
AcDbLine
 10
66.387262
 20
316.513075
 30
0.0
 11
16.554619
 21
316.513075
 31
0.0
  0
LINE
  5
3AA
330
3A7
100
AcDbEntity
  8
LC-003-003-----0
 62
     2
370
    -2
100
AcDbLine
 10
20.154619
 20
238.603885
 30
0.0
 11
20.154619
 21
210.603885
 31
0.0
  0
LINE
  5
3AB
330
3A7
100
AcDbEntity
  8
LC-003-003-----0
 62
     2
370
    -2
100
AcDbLine
 10
20.154619
 20
344.513075
 30
0.0
 11
20.154619
 21
372.513075
 31
0.0
  0
LINE
  5
3AC
330
3A7
100
AcDbEntity
  8
LC-003-003-----0
 62
     2
370
    -2
100
AcDbLine
 10
20.154619
 20
266.603885
 30
0.0
 11
20.154619
 21
316.513075
 31
0.0
  0
SOLID
  5
3AD
330
3A7
100
AcDbEntity
  8
LC-003-003-----0
 62
     2
100
AcDbTrace
 10
24.821286
 20
238.603885
 30
0.0
 11
15.487952
 21
238.603885
 31
0.0
 12
20.154619
 22
266.603885
 32
0.0
 13
20.154619
 23
266.603885
 33
0.0
  0
SOLID
  5
3AE
330
3A7
100
AcDbEntity
  8
LC-003-003-----0
 62
     2
100
AcDbTrace
 10
15.487952
 20
344.513075
 30
0.0
 11
24.821286
 21
344.513075
 31
0.0
 12
20.154619
 22
316.513075
 32
0.0
 13
20.154619
 23
316.513075
 33
0.0
  0
MTEXT
  5
3AF
330
3A7
100
AcDbEntity
  8
LC-003-003-----0
 62
     2
100
AcDbMText
 10
-10.645381
 20
301.288548
 30
0.0
 40
28.0
 41
0.0
 71
     5
 72
     1
  1
\A1;50
  7
LCTX15-400-0-0pDIN-Schrift
 11
6.123031769111886E-17
 21
1.0
 31
0.0
 73
     1
 44
1.0
  0
POINT
  5
3B0
330
3A7
100
AcDbEntity
  8
Defpoints
 62
     0
100
AcDbPoint
 10
77.255305
 20
266.603885
 30
0.0
  0
POINT
  5
3B1
330
3A7
100
AcDbEntity
  8
Defpoints
 62
     0
100
AcDbPoint
 10
66.387262
 20
316.513075
 30
0.0
  0
POINT
  5
3B2
330
3A7
100
AcDbEntity
  8
Defpoints
 62
     0
100
AcDbPoint
 10
20.154619
 20
316.513075
 30
0.0
  0
ENDBLK
  5
3B4
330
3A7
100
AcDbEntity
  8
0
100
AcDbBlockEnd
  0
BLOCK
  5
3C0
330
3B6
100
AcDbEntity
  8
0
100
AcDbBlockBegin
  2
*D30
 70
     1
 71
     0
 10
0.0
 20
0.0
 30
0.0
  3
*D30
  1

  0
LINE
  5
3B7
330
3B6
100
AcDbEntity
  8
LC-003-003-----0
 62
     2
370
    -2
100
AcDbLine
 10
-29.683015
 20
336.721102
 30
0.0
 11
-29.683015
 21
364.680391
 31
0.0
  0
LINE
  5
3B8
330
3B6
100
AcDbEntity
  8
LC-003-003-----0
 62
     2
370
    -2
100
AcDbLine
 10
222.316985
 20
336.721102
 30
0.0
 11
222.316985
 21
364.680391
 31
0.0
  0
LINE
  5
3B9
330
3B6
100
AcDbEntity
  8
LC-003-003-----0
 62
     2
370
    -2
100
AcDbLine
 10
-1.683015
 20
361.080391
 30
0.0
 11
194.316985
 21
361.080391
 31
0.0
  0
SOLID
  5
3BA
330
3B6
100
AcDbEntity
  8
LC-003-003-----0
 62
     2
100
AcDbTrace
 10
-1.683015
 20
365.747057
 30
0.0
 11
-1.683015
 21
356.413724
 31
0.0
 12
-29.683015
 22
361.080391
 32
0.0
 13
-29.683015
 23
361.080391
 33
0.0
  0
SOLID
  5
3BB
330
3B6
100
AcDbEntity
  8
LC-003-003-----0
 62
     2
100
AcDbTrace
 10
194.316985
 20
356.413724
 30
0.0
 11
194.316985
 21
365.747057
 31
0.0
 12
222.316985
 22
361.080391
 32
0.0
 13
222.316985
 23
361.080391
 33
0.0
  0
MTEXT
  5
3BC
330
3B6
100
AcDbEntity
  8
LC-003-003-----0
 62
     2
100
AcDbMText
 10
95.695701
 20
391.880391
 30
0.0
 40
28.0
 41
0.0
 71
     5
 72
     1
  1
%%c\A1;252
  7
LCTX15-400-0-0pDIN-Schrift
 73
     1
 44
1.0
  0
POINT
  5
3BD
330
3B6
100
AcDbEntity
  8
Defpoints
 62
     0
100
AcDbPoint
 10
-29.683015
 20
336.721102
 30
0.0
  0
POINT
  5
3BE
330
3B6
100
AcDbEntity
  8
Defpoints
 62
     0
100
AcDbPoint
 10
222.316985
 20
336.721102
 30
0.0
  0
POINT
  5
3BF
330
3B6
100
AcDbEntity
  8
Defpoints
 62
     0
100
AcDbPoint
 10
222.316985
 20
361.080391
 30
0.0
  0
ENDBLK
  5
3C1
330
3B6
100
AcDbEntity
  8
0
100
AcDbBlockEnd
  0
ENDSEC
  0
SECTION
  2
ENTITIES
  0
LINE
  5
31
330
1F
100
AcDbEntity
  8
LC-001-002-----0
 62
     7
370
    25
100
AcDbLine
 10
184.655306
 20
288.217865
 30
0.0
 11
322.137418
 21
251.379644
 31
0.0
  0
LINE
  5
32
102
{ACAD_REACTORS
330
3C2
102
}
330
1F
100
AcDbEntity
  8
LC-001-002-----0
 62
     7
370
    50
100
AcDbLine
 10
129.755306
 20
330.603884
 30
0.0
 11
129.755306
 21
336.603884
 31
0.0
  0
LINE
  5
34
330
1F
100
AcDbEntity
  8
LC-002-100-D00-0
 62
     7
370
    50
100
AcDbLine
 10
195.255306
 20
261.217864
 30
0.0
 11
195.255306
 21
261.263969
 31
0.0
  0
LINE
  5
35
330
1F
100
AcDbEntity
  8
LC-002-100-D00-0
 62
     7
370
    50
100
AcDbLine
 10
195.255306
 20
315.171763
 30
0.0
 11
195.255306
 21
315.217867
 31
0.0
  0
LINE
  5
36
330
1F
100
AcDbEntity
  8
LC-002-100-D00-0
 62
     7
370
    50
100
AcDbLine
 10
191.255306
 20
315.217867
 30
0.0
 11
191.255306
 21
313.367865
 31
0.0
  0
LINE
  5
37
330
1F
100
AcDbEntity
  8
LC-002-100-D00-0
 62
     7
370
    50
100
AcDbLine
 10
191.255306
 20
263.067865
 30
0.0
 11
191.255306
 21
261.217864
 31
0.0
  0
LINE
  5
38
102
{ACAD_REACTORS
330
3C2
102
}
330
1F
100
AcDbEntity
  8
LC-002-100-D00-0
 62
     7
370
    50
100
AcDbLine
 10
57.005305
 20
334.103887
 30
0.0
 11
58.255304
 21
334.103887
 31
0.0
  0
LINE
  5
39
102
{ACAD_REACTORS
330
3C2
102
}
330
1F
100
AcDbEntity
  8
LC-002-100-D00-0
 62
     7
370
    50
100
AcDbLine
 10
134.255306
 20
334.103887
 30
0.0
 11
135.505306
 21
334.103887
 31
0.0
  0
ARC
  5
3A
102
{ACAD_REACTORS
330
3C2
102
}
330
1F
100
AcDbEntity
  8
LC-002-100-D00-0
 62
     7
370
    50
100
AcDbCircle
 10
53.655306
 20
288.803884
 30
0.0
 40
50.0
100
AcDbArc
 50
90.0
 51
99.792097
  0
LINE
  5
3B
102
{ACAD_REACTORS
330
3C2
102
}
330
1F
100
AcDbEntity
  8
LC-002-100-D00-0
 62
     7
370
    50
100
AcDbLine
 10
151.25723
 20
336.30388
 30
0.0
 11
151.25723
 21
337.247369
 31
0.0
  0
LINE
  5
3C
102
{ACAD_REACTORS
330
3C2
102
}
330
1F
100
AcDbEntity
  8
LC-002-100-D00-0
 62
     7
370
    50
100
AcDbLine
 10
41.253385
 20
337.247369
 30
0.0
 11
41.253385
 21
336.30388
 31
0.0
  0
ARC
  5
3D
102
{ACAD_REACTORS
330
3C2
102
}
330
1F
100
AcDbEntity
  8
LC-002-100-D00-0
 62
     7
370
    50
100
AcDbCircle
 10
138.878665
 20
288.803884
 30
0.0
 40
49.99999999999992
100
AcDbArc
 50
75.66616
 51
90.0
  0
ARC
  5
3E
102
{ACAD_REACTORS
330
3C2
102
}
330
1F
100
AcDbEntity
  8
LC-002-100-D00-0
 62
     7
370
    50
100
AcDbCircle
 10
53.631946
 20
288.803884
 30
0.0
 40
49.99999999999994
100
AcDbArc
 50
90.0
 51
104.33384
  0
LINE
  5
3F
102
{ACAD_REACTORS
330
3C2
102
}
330
1F
100
AcDbEntity
  8
LC-002-100-D00-0
 62
     7
370
    50
100
AcDbLine
 10
139.255306
 20
295.303882
 30
0.0
 11
139.255306
 21
336.30388
 31
0.0
  0
LINE
  5
40
102
{ACAD_REACTORS
330
3C2
102
}
330
1F
100
AcDbEntity
  8
LC-002-100-D00-0
 62
     7
370
    50
100
AcDbLine
 10
53.255309
 20
336.30388
 30
0.0
 11
53.255309
 21
295.303882
 31
0.0
  0
LINE
  5
41
102
{ACAD_REACTORS
330
3C2
102
}
330
1F
100
AcDbEntity
  8
LC-002-100-D00-0
 62
     7
370
    50
100
AcDbLine
 10
54.755304
 20
293.803883
 30
0.0
 11
53.255309
 21
295.303882
 31
0.0
  0
LINE
  5
42
102
{ACAD_REACTORS
330
3C2
102
}
330
1F
100
AcDbEntity
  8
LC-002-100-D00-0
 62
     7
370
    50
100
AcDbLine
 10
139.255306
 20
295.303882
 30
0.0
 11
137.755306
 21
293.803883
 31
0.0
  0
ARC
  5
43
102
{ACAD_REACTORS
330
3C2
102
}
330
1F
100
AcDbEntity
  8
LC-002-100-D00-0
 62
     7
370
    50
100
AcDbCircle
 10
137.255306
 20
337.803884
 30
0.0
 40
1.0
100
AcDbArc
 50
90.0
 51
180.0
  0
ARC
  5
44
102
{ACAD_REACTORS
330
3C2
102
}
330
1F
100
AcDbEntity
  8
LC-002-100-D00-0
 62
     7
370
    50
100
AcDbCircle
 10
55.255306
 20
337.803884
 30
0.0
 40
1.0
100
AcDbArc
 50
0.0
 51
90.0
  0
LINE
  5
45
102
{ACAD_REACTORS
330
3C2
102
}
330
1F
100
AcDbEntity
  8
LC-002-100-D00-0
 62
     7
370
    50
100
AcDbLine
 10
136.255306
 20
337.803883
 30
0.0
 11
136.255306
 21
293.803883
 31
0.0
  0
LINE
  5
46
102
{ACAD_REACTORS
330
3C2
102
}
330
1F
100
AcDbEntity
  8
LC-002-100-D00-0
 62
     7
370
    50
100
AcDbLine
 10
116.82718
 20
323.27049
 30
0.0
 11
116.82718
 21
316.603882
 31
0.0
  0
LINE
  5
47
102
{ACAD_REACTORS
330
3C2
102
}
330
1F
100
AcDbEntity
  8
LC-002-100-D00-0
 62
     7
370
    50
100
AcDbLine
 10
60.505491
 20
328.603884
 30
0.0
 11
60.505491
 21
328.3523
 31
0.0
  0
LINE
  5
48
102
{ACAD_REACTORS
330
3C2
102
}
330
1F
100
AcDbEntity
  8
LC-002-100-D00-0
 62
     7
370
    50
100
AcDbLine
 10
60.505491
 20
324.715441
 30
0.0
 11
60.505491
 21
293.803883
 31
0.0
  0
LINE
  5
49
102
{ACAD_REACTORS
330
3C2
102
}
330
1F
100
AcDbEntity
  8
LC-002-100-D00-0
 62
     7
370
    50
100
AcDbLine
 10
56.255307
 20
293.803883
 30
0.0
 11
56.255307
 21
337.803883
 31
0.0
  0
LINE
  5
4A
102
{ACAD_REACTORS
330
3C2
102
}
330
1F
100
AcDbEntity
  8
LC-002-100-D00-0
 62
     7
370
    50
100
AcDbLine
 10
56.255307
 20
293.803883
 30
0.0
 11
60.505491
 21
293.803883
 31
0.0
  0
LINE
  5
4B
102
{ACAD_REACTORS
330
3C2
102
}
330
1F
100
AcDbEntity
  8
LC-002-100-D00-0
 62
     7
370
    50
100
AcDbLine
 10
64.116899
 20
293.803883
 30
0.0
 11
65.755304
 21
293.803883
 31
0.0
  0
LINE
  5
4C
102
{ACAD_REACTORS
330
3C2
102
}
330
1F
100
AcDbEntity
  8
LC-002-100-D00-0
 62
     7
370
    50
100
AcDbLine
 10
126.755306
 20
293.803883
 30
0.0
 11
136.255306
 21
293.803883
 31
0.0
  0
LINE
  5
4D
102
{ACAD_REACTORS
330
3C2
102
}
330
1F
100
AcDbEntity
  8
LC-002-100-D00-0
 62
     7
370
    50
100
AcDbLine
 10
54.755304
 20
293.803883
 30
0.0
 11
56.255307
 21
293.803883
 31
0.0
  0
LINE
  5
4E
102
{ACAD_REACTORS
330
3C2
102
}
330
1F
100
AcDbEntity
  8
LC-002-100-D00-0
 62
     7
370
    50
100
AcDbLine
 10
55.255305
 20
338.803885
 30
0.0
 11
53.631943
 21
338.803885
 31
0.0
  0
LINE
  5
4F
102
{ACAD_REACTORS
330
3C2
102
}
330
1F
100
AcDbEntity
  8
LC-002-100-D00-0
 62
     7
370
    50
100
AcDbLine
 10
41.253385
 20
336.30388
 30
0.0
 11
53.255309
 21
336.30388
 31
0.0
  0
LINE
  5
50
102
{ACAD_REACTORS
330
3C2
102
}
330
1F
100
AcDbEntity
  8
LC-002-100-D00-0
 62
     7
370
    50
100
AcDbLine
 10
136.255306
 20
293.803883
 30
0.0
 11
137.755306
 21
293.803883
 31
0.0
  0
LINE
  5
51
102
{ACAD_REACTORS
330
3C2
102
}
330
1F
100
AcDbEntity
  8
LC-002-100-D00-0
 62
     7
370
    50
100
AcDbLine
 10
138.878666
 20
338.803885
 30
0.0
 11
137.255306
 21
338.803885
 31
0.0
  0
LINE
  5
52
102
{ACAD_REACTORS
330
3C2
102
}
330
1F
100
AcDbEntity
  8
LC-002-100-D00-0
 62
     7
370
    50
100
AcDbLine
 10
139.255306
 20
336.30388
 30
0.0
 11
151.25723
 21
336.30388
 31
0.0
  0
LINE
  5
53
102
{ACAD_REACTORS
330
3C2
102
}
330
1F
100
AcDbEntity
  8
LC-002-100-D00-0
 62
     7
370
    50
100
AcDbLine
 10
62.671576
 20
328.603884
 30
0.0
 11
62.671576
 21
323.991632
 31
0.0
  0
LINE
  5
54
102
{ACAD_REACTORS
330
3C2
102
}
330
1F
100
AcDbEntity
  8
LC-002-100-D00-0
 62
     7
370
    50
100
AcDbLine
 10
62.671576
 20
320.337092
 30
0.0
 11
62.671576
 21
293.803883
 31
0.0
  0
LINE
  5
55
102
{ACAD_REACTORS
330
3C2
102
}
330
1F
100
AcDbEntity
  8
LC-002-100-D00-0
 62
     7
370
    50
100
AcDbLine
 10
64.116899
 20
328.603884
 30
0.0
 11
64.116899
 21
321.081964
 31
0.0
  0
LINE
  5
56
102
{ACAD_REACTORS
330
3C2
102
}
330
1F
100
AcDbEntity
  8
LC-002-100-D00-0
 62
     7
370
    50
100
AcDbLine
 10
64.116899
 20
317.41563
 30
0.0
 11
64.116899
 21
293.803883
 31
0.0
  0
LINE
  5
57
102
{ACAD_REACTORS
330
3C2
102
}
330
1F
100
AcDbEntity
  8
LC-002-100-D00-0
 62
     7
370
    50
100
AcDbLine
 10
64.116899
 20
293.803883
 30
0.0
 11
62.671576
 21
293.803883
 31
0.0
  0
LINE
  5
58
102
{ACAD_REACTORS
330
3C2
102
}
330
1F
100
AcDbEntity
  8
LC-002-100-D00-0
 62
     7
370
    50
100
AcDbLine
 10
62.671576
 20
293.803883
 30
0.0
 11
60.505491
 21
293.803883
 31
0.0
  0
LINE
  5
59
102
{ACAD_REACTORS
330
3C2
102
}
330
1F
100
AcDbEntity
  8
LC-002-100-D00-0
 62
     7
370
    50
100
AcDbLine
 10
115.636298
 20
320.473847
 30
0.0
 11
115.636298
 21
316.603882
 31
0.0
  0
LINE
  5
5A
330
1F
100
AcDbEntity
  8
LC-002-100-D00-0
 62
     7
370
    50
100
AcDbLine
 10
40.255305
 20
335.217863
 30
0.0
 11
44.755307
 21
330.717868
 31
0.0
  0
LINE
  5
5B
330
1F
100
AcDbEntity
  8
LC-002-100-D00-0
 62
     7
370
    50
100
AcDbLine
 10
147.755307
 20
330.717868
 30
0.0
 11
152.255307
 21
335.217863
 31
0.0
  0
LINE
  5
5C
330
1F
100
AcDbEntity
  8
LC-002-100-D00-0
 62
     7
370
    50
100
AcDbLine
 10
40.255305
 20
324.217863
 30
0.0
 11
40.255305
 21
335.217863
 31
0.0
  0
LINE
  5
5D
330
1F
100
AcDbEntity
  8
LC-002-100-D00-0
 62
     7
370
    50
100
AcDbLine
 10
152.255307
 20
335.217863
 30
0.0
 11
152.255307
 21
324.217863
 31
0.0
  0
LINE
  5
5E
330
1F
100
AcDbEntity
  8
LC-002-100-D00-0
 62
     7
370
    50
100
AcDbLine
 10
42.255309
 20
328.217863
 30
0.0
 11
42.255309
 21
324.217863
 31
0.0
  0
LINE
  5
5F
330
1F
100
AcDbEntity
  8
LC-002-100-D00-0
 62
     7
370
    50
100
AcDbLine
 10
150.255306
 20
324.217863
 30
0.0
 11
150.255306
 21
328.217863
 31
0.0
  0
LINE
  5
60
330
1F
100
AcDbEntity
  8
LC-002-100-D00-0
 62
     7
370
    50
100
AcDbLine
 10
146.142059
 20
331.717863
 30
0.0
 11
146.719408
 21
330.717868
 31
0.0
  0
LINE
  5
61
330
1F
100
AcDbEntity
  8
LC-002-100-D00-0
 62
     7
370
    50
100
AcDbLine
 10
45.791206
 20
330.717868
 30
0.0
 11
46.368551
 21
331.717863
 31
0.0
  0
LINE
  5
62
330
1F
100
AcDbEntity
  8
LC-002-100-D00-0
 62
     7
370
    50
100
AcDbLine
 10
46.368551
 20
331.717863
 30
0.0
 11
46.945904
 21
330.717868
 31
0.0
  0
LINE
  5
63
330
1F
100
AcDbEntity
  8
LC-002-100-D00-0
 62
     7
370
    50
100
AcDbLine
 10
145.564708
 20
330.717868
 30
0.0
 11
146.142059
 21
331.717863
 31
0.0
  0
LINE
  5
64
330
1F
100
AcDbEntity
  8
LC-002-100-D00-0
 62
     7
370
    50
100
AcDbLine
 10
46.755303
 20
326.717868
 30
0.0
 11
46.755303
 21
328.217863
 31
0.0
  0
LINE
  5
65
330
1F
100
AcDbEntity
  8
LC-002-100-D00-0
 62
     7
370
    50
100
AcDbLine
 10
145.755307
 20
328.217863
 30
0.0
 11
145.755307
 21
326.717868
 31
0.0
  0
LINE
  5
66
330
1F
100
AcDbEntity
  8
LC-002-100-D00-0
 62
     7
370
    50
100
AcDbLine
 10
144.987357
 20
331.717863
 30
0.0
 11
145.564708
 21
330.717868
 31
0.0
  0
LINE
  5
67
330
1F
100
AcDbEntity
  8
LC-002-100-D00-0
 62
     7
370
    50
100
AcDbLine
 10
46.945904
 20
330.717868
 30
0.0
 11
47.523257
 21
331.717863
 31
0.0
  0
LINE
  5
68
330
1F
100
AcDbEntity
  8
LC-002-100-D00-0
 62
     7
370
    50
100
AcDbLine
 10
47.523257
 20
331.717863
 30
0.0
 11
48.100603
 21
330.717868
 31
0.0
  0
LINE
  5
69
330
1F
100
AcDbEntity
  8
LC-002-100-D00-0
 62
     7
370
    50
100
AcDbLine
 10
144.410007
 20
330.717868
 30
0.0
 11
144.987357
 21
331.717863
 31
0.0
  0
LINE
  5
6A
330
1F
100
AcDbEntity
  8
LC-002-100-D00-0
 62
     7
370
    50
100
AcDbLine
 10
143.832656
 20
331.717863
 30
0.0
 11
144.410007
 21
330.717868
 31
0.0
  0
LINE
  5
6B
330
1F
100
AcDbEntity
  8
LC-002-100-D00-0
 62
     7
370
    50
100
AcDbLine
 10
48.100603
 20
330.717868
 30
0.0
 11
48.677955
 21
331.717863
 31
0.0
  0
LINE
  5
6C
330
1F
100
AcDbEntity
  8
LC-002-100-D00-0
 62
     7
370
    50
100
AcDbLine
 10
48.677955
 20
331.717863
 30
0.0
 11
49.255308
 21
330.717868
 31
0.0
  0
LINE
  5
6D
330
1F
100
AcDbEntity
  8
LC-002-100-D00-0
 62
     7
370
    50
100
AcDbLine
 10
143.255305
 20
330.717868
 30
0.0
 11
143.832656
 21
331.717863
 31
0.0
  0
LINE
  5
6E
330
1F
100
AcDbEntity
  8
LC-002-100-D00-0
 62
     7
370
    50
100
AcDbLine
 10
49.255308
 20
330.717868
 30
0.0
 11
49.255308
 21
326.717868
 31
0.0
  0
LINE
  5
6F
330
1F
100
AcDbEntity
  8
LC-002-100-D00-0
 62
     7
370
    50
100
AcDbLine
 10
143.255305
 20
326.717868
 30
0.0
 11
143.255305
 21
330.717868
 31
0.0
  0
LINE
  5
70
330
1F
100
AcDbEntity
  8
LC-002-100-D00-0
 62
     7
370
    50
100
AcDbLine
 10
143.255305
 20
326.717868
 30
0.0
 11
139.255306
 21
326.717868
 31
0.0
  0
LINE
  5
71
330
1F
100
AcDbEntity
  8
LC-002-100-D00-0
 62
     7
370
    50
100
AcDbLine
 10
53.255309
 20
326.717868
 30
0.0
 11
49.255308
 21
326.717868
 31
0.0
  0
LINE
  5
72
330
1F
100
AcDbEntity
  8
LC-002-100-D00-0
 62
     7
370
    50
100
AcDbLine
 10
49.255308
 20
326.717868
 30
0.0
 11
46.755303
 21
326.717868
 31
0.0
  0
LINE
  5
73
330
1F
100
AcDbEntity
  8
LC-002-100-D00-0
 62
     7
370
    50
100
AcDbLine
 10
44.755307
 20
330.717868
 30
0.0
 11
45.791206
 21
330.717868
 31
0.0
  0
LINE
  5
74
330
1F
100
AcDbEntity
  8
LC-002-100-D00-0
 62
     7
370
    50
100
AcDbLine
 10
46.755303
 20
328.217863
 30
0.0
 11
42.255309
 21
328.217863
 31
0.0
  0
LINE
  5
75
330
1F
100
AcDbEntity
  8
LC-002-100-D00-0
 62
     7
370
    50
100
AcDbLine
 10
42.255309
 20
324.217863
 30
0.0
 11
40.255305
 21
324.217863
 31
0.0
  0
LINE
  5
76
330
1F
100
AcDbEntity
  8
LC-002-100-D00-0
 62
     7
370
    50
100
AcDbLine
 10
145.755307
 20
326.717868
 30
0.0
 11
143.255305
 21
326.717868
 31
0.0
  0
LINE
  5
77
330
1F
100
AcDbEntity
  8
LC-002-100-D00-0
 62
     7
370
    50
100
AcDbLine
 10
146.719408
 20
330.717868
 30
0.0
 11
147.755307
 21
330.717868
 31
0.0
  0
LINE
  5
78
330
1F
100
AcDbEntity
  8
LC-002-100-D00-0
 62
     7
370
    50
100
AcDbLine
 10
150.255306
 20
328.217863
 30
0.0
 11
145.755307
 21
328.217863
 31
0.0
  0
LINE
  5
79
330
1F
100
AcDbEntity
  8
LC-002-100-D00-0
 62
     7
370
    50
100
AcDbLine
 10
152.255307
 20
324.217863
 30
0.0
 11
150.255306
 21
324.217863
 31
0.0
  0
CIRCLE
  5
7A
330
1F
100
AcDbEntity
  8
LC-002-100-D00-0
 62
     7
370
    50
100
AcDbCircle
 10
193.255306
 20
315.217865
 30
0.0
 40
2.0
  0
CIRCLE
  5
7B
330
1F
100
AcDbEntity
  8
LC-002-100-D00-0
 62
     7
370
    50
100
AcDbCircle
 10
193.255306
 20
261.217865
 30
0.0
 40
2.0
  0
ARC
  5
7C
330
1F
100
AcDbEntity
  8
LC-002-100-D00-0
 62
     7
370
    50
100
AcDbCircle
 10
184.755306
 20
288.217865
 30
0.0
 40
32.0
100
AcDbArc
 50
270.0
 51
308.624833
  0
ARC
  5
7D
330
1F
100
AcDbEntity
  8
LC-002-100-D00-0
 62
     7
370
    50
100
AcDbCircle
 10
184.755306
 20
288.217865
 30
0.0
 40
32.00000000000002
100
AcDbArc
 50
51.375167
 51
90.0
  0
LINE
  5
7E
330
1F
100
AcDbEntity
  8
LC-002-100-D00-0
 62
     7
370
    50
100
AcDbLine
 10
176.255305
 20
256.217865
 30
0.0
 11
184.755307
 21
256.217865
 31
0.0
  0
LINE
  5
7F
330
1F
100
AcDbEntity
  8
LC-002-100-D00-0
 62
     7
370
    50
100
AcDbLine
 10
184.755307
 20
320.217862
 30
0.0
 11
176.255305
 21
320.217862
 31
0.0
  0
ARC
  5
80
330
1F
100
AcDbEntity
  8
LC-002-100-D00-0
 62
     7
370
    50
100
AcDbCircle
 10
177.255306
 20
258.654374
 30
0.0
 40
0.999999999999994
100
AcDbArc
 50
75.764876
 51
180.0
  0
ARC
  5
81
330
1F
100
AcDbEntity
  8
LC-002-100-D00-0
 62
     7
370
    50
100
AcDbCircle
 10
177.255306
 20
317.781356
 30
0.0
 40
1.000000000000028
100
AcDbArc
 50
180.0
 51
284.235124
  0
LINE
  5
82
330
1F
100
AcDbEntity
  8
LC-002-100-D00-0
 62
     7
370
    50
100
AcDbLine
 10
176.255305
 20
259.782631
 30
0.0
 11
176.255305
 21
258.654374
 31
0.0
  0
ARC
  5
83
330
1F
100
AcDbEntity
  8
LC-002-100-D00-0
 62
     7
370
    50
100
AcDbCircle
 10
184.755306
 20
288.217865
 30
0.0
 40
29.50000000000005
100
AcDbArc
 50
50.46055
 51
104.235124
  0
LINE
  5
84
330
1F
100
AcDbEntity
  8
LC-002-100-D00-0
 62
     7
370
    50
100
AcDbLine
 10
203.535285
 20
310.967862
 30
0.0
 11
203.535285
 21
265.467865
 31
0.0
  0
ARC
  5
85
330
1F
100
AcDbEntity
  8
LC-002-100-D00-0
 62
     7
370
    50
100
AcDbCircle
 10
184.755306
 20
288.217865
 30
0.0
 40
29.50000000000001
100
AcDbArc
 50
255.764876
 51
309.53945
  0
LINE
  5
86
330
1F
100
AcDbEntity
  8
LC-002-100-D00-0
 62
     7
370
    50
100
AcDbLine
 10
204.730292
 20
263.217866
 30
0.0
 11
287.7553
 21
263.217866
 31
0.0
  0
LINE
  5
87
330
1F
100
AcDbEntity
  8
LC-002-100-D00-0
 62
     7
370
    50
100
AcDbLine
 10
287.7553
 20
313.217863
 30
0.0
 11
204.730292
 21
313.217863
 31
0.0
  0
LINE
  5
88
330
1F
100
AcDbEntity
  8
LC-002-100-D00-0
 62
     7
370
    50
100
AcDbLine
 10
287.7553
 20
263.217866
 30
0.0
 11
291.2553
 21
264.155687
 31
0.0
  0
LINE
  5
89
330
1F
100
AcDbEntity
  8
LC-002-100-D00-0
 62
     7
370
    50
100
AcDbLine
 10
291.2553
 20
312.280043
 30
0.0
 11
287.7553
 21
313.217863
 31
0.0
  0
LINE
  5
8A
330
1F
100
AcDbEntity
  8
LC-002-100-D00-0
 62
     7
370
    50
100
AcDbLine
 10
291.2553
 20
265.467865
 30
0.0
 11
203.535285
 21
265.467865
 31
0.0
  0
LINE
  5
8B
330
1F
100
AcDbEntity
  8
LC-002-100-D00-0
 62
     7
370
    50
100
AcDbLine
 10
203.535285
 20
310.967862
 30
0.0
 11
291.2553
 21
310.967862
 31
0.0
  0
LINE
  5
8C
330
1F
100
AcDbEntity
  8
LC-002-100-D00-0
 62
     7
370
    50
100
AcDbLine
 10
291.2553
 20
310.967862
 30
0.0
 11
291.2553
 21
265.467865
 31
0.0
  0
LINE
  5
8D
330
1F
100
AcDbEntity
  8
LC-002-100-D00-0
 62
     7
370
    50
100
AcDbLine
 10
291.2553
 20
310.967862
 30
0.0
 11
291.2553
 21
312.280043
 31
0.0
  0
LINE
  5
8E
330
1F
100
AcDbEntity
  8
LC-002-100-D00-0
 62
     7
370
    50
100
AcDbLine
 10
176.255305
 20
320.217862
 30
0.0
 11
176.255305
 21
317.781358
 31
0.0
  0
LINE
  5
8F
330
1F
100
AcDbEntity
  8
LC-002-100-D00-0
 62
     7
370
    50
100
AcDbLine
 10
291.2553
 20
264.155687
 30
0.0
 11
291.2553
 21
265.467865
 31
0.0
  0
LINE
  5
90
330
1F
100
AcDbEntity
  8
LC-002-100-D00-0
 62
     7
370
    50
100
AcDbLine
 10
176.255305
 20
258.654374
 30
0.0
 11
176.255305
 21
256.217865
 31
0.0
  0
LINE
  5
91
330
1F
100
AcDbEntity
  8
LC-002-100-D00-0
 62
     7
370
    50
100
AcDbLine
 10
150.255306
 20
314.217865
 30
0.0
 11
166.755304
 21
314.217865
 31
0.0
  0
LINE
  5
92
330
1F
100
AcDbEntity
  8
LC-002-100-D00-0
 62
     7
370
    50
100
AcDbLine
 10
166.755304
 20
262.217865
 30
0.0
 11
147.058676
 21
262.217865
 31
0.0
  0
LINE
  5
93
330
1F
100
AcDbEntity
  8
LC-002-100-D00-0
 62
     7
370
    50
100
AcDbLine
 10
42.255309
 20
283.031303
 30
0.0
 11
42.255309
 21
320.851839
 31
0.0
  0
LINE
  5
94
330
1F
100
AcDbEntity
  8
LC-002-100-D00-0
 62
     7
370
    50
100
AcDbLine
 10
150.255306
 20
320.851839
 30
0.0
 11
150.255306
 21
314.217865
 31
0.0
  0
LINE
  5
95
330
1F
100
AcDbEntity
  8
LC-002-100-D00-0
 62
     7
370
    50
100
AcDbLine
 10
45.255308
 20
316.317863
 30
0.0
 11
45.255308
 21
283.031303
 31
0.0
  0
LINE
  5
96
330
1F
100
AcDbEntity
  8
LC-002-100-D00-0
 62
     7
370
    50
100
AcDbLine
 10
147.255306
 20
316.317863
 30
0.0
 11
147.232101
 21
316.317863
 31
0.0
  0
LINE
  5
97
330
1F
100
AcDbEntity
  8
LC-002-100-D00-0
 62
     7
370
    50
100
AcDbLine
 10
45.278509
 20
316.317863
 30
0.0
 11
45.255308
 21
316.317863
 31
0.0
  0
LINE
  5
98
330
1F
100
AcDbEntity
  8
LC-002-100-D00-0
 62
     7
370
    50
100
AcDbLine
 10
147.255306
 20
311.217866
 30
0.0
 11
147.255306
 21
316.317863
 31
0.0
  0
INSERT
  5
BE
330
1F
100
AcDbEntity
  8
LC-002-100-D00-0
 62
     7
370
    50
100
AcDbBlockReference
  2
POLY1
 10
0.0
 20
0.0
 30
0.0
  0
INSERT
  5
D0
330
1F
100
AcDbEntity
  8
LC-002-100-D00-0
 62
     7
370
    50
100
AcDbBlockReference
  2
POLY2
 10
0.0
 20
0.0
 30
0.0
  0
LINE
  5
D1
330
1F
100
AcDbEntity
  8
LC-002-100-D00-0
 62
     7
370
    50
100
AcDbLine
 10
147.255306
 20
311.217866
 30
0.0
 11
194.655304
 21
311.217866
 31
0.0
  0
LINE
  5
D2
330
1F
100
AcDbEntity
  8
LC-002-100-D00-0
 62
     7
370
    50
100
AcDbLine
 10
194.655304
 20
311.217866
 30
0.0
 11
194.655304
 21
265.217864
 31
0.0
  0
LINE
  5
D3
330
1F
100
AcDbEntity
  8
LC-002-100-D00-0
 62
     7
370
    50
100
AcDbLine
 10
194.655304
 20
265.217864
 30
0.0
 11
147.255306
 21
265.217864
 31
0.0
  0
LINE
  5
D4
330
1F
100
AcDbEntity
  8
LC-002-100-D00-0
 62
     7
370
    50
100
AcDbLine
 10
148.755305
 20
321.717865
 30
0.0
 11
150.255306
 21
320.851839
 31
0.0
  0
LINE
  5
D5
330
1F
100
AcDbEntity
  8
LC-002-100-D00-0
 62
     7
370
    50
100
AcDbLine
 10
42.255309
 20
320.851839
 30
0.0
 11
43.755305
 21
321.717865
 31
0.0
  0
ARC
  5
D6
330
1F
100
AcDbEntity
  8
LC-002-100-D00-0
 62
     7
370
    50
100
AcDbCircle
 10
199.755306
 20
263.283702
 30
0.0
 40
0.4999999999999935
100
AcDbArc
 50
301.19888
 51
0.0
  0
ARC
  5
D7
330
1F
100
AcDbEntity
  8
LC-002-100-D00-0
 62
     7
370
    50
100
AcDbCircle
 10
199.755306
 20
313.152028
 30
0.0
 40
0.5
100
AcDbArc
 50
0.0
 51
58.80112
  0
LINE
  5
D8
330
1F
100
AcDbEntity
  8
LC-002-100-D00-0
 62
     7
370
    50
100
AcDbLine
 10
191.255306
 20
263.067865
 30
0.0
 11
194.755305
 21
263.067865
 31
0.0
  0
LINE
  5
D9
330
1F
100
AcDbEntity
  8
LC-002-100-D00-0
 62
     7
370
    50
100
AcDbLine
 10
194.755305
 20
313.367865
 30
0.0
 11
191.255306
 21
313.367865
 31
0.0
  0
ARC
  5
DA
330
1F
100
AcDbEntity
  8
LC-002-100-D00-0
 62
     7
370
    50
100
AcDbCircle
 10
76.005306
 20
261.217865
 30
0.0
 40
10.50000000000003
100
AcDbArc
 50
180.0
 51
270.0
  0
ARC
  5
DB
330
1F
100
AcDbEntity
  8
LC-002-100-D00-0
 62
     7
370
    50
100
AcDbCircle
 10
116.505306
 20
261.217865
 30
0.0
 40
10.50000000000003
100
AcDbArc
 50
270.0
 51
0.0
  0
ARC
  5
DC
330
1F
100
AcDbEntity
  8
LC-002-100-D00-0
 62
     7
370
    50
100
AcDbCircle
 10
184.655306
 20
288.217865
 30
0.0
 40
29.64999999999996
100
AcDbArc
 50
292.382565
 51
301.19888
  0
ARC
  5
DD
330
1F
100
AcDbEntity
  8
LC-002-100-D00-0
 62
     7
370
    50
100
AcDbCircle
 10
184.655306
 20
288.217865
 30
0.0
 40
29.64999999999997
100
AcDbArc
 50
58.80112
 51
67.617435
  0
LINE
  5
DE
330
1F
100
AcDbEntity
  8
LC-002-100-D00-0
 62
     7
370
    50
100
AcDbLine
 10
62.505305
 20
261.217864
 30
0.0
 11
62.505305
 21
273.349527
 31
0.0
  0
LINE
  5
DF
330
1F
100
AcDbEntity
  8
LC-002-100-D00-0
 62
     7
370
    50
100
AcDbLine
 10
130.005306
 20
264.462984
 30
0.0
 11
130.005306
 21
261.217864
 31
0.0
  0
LINE
  5
E0
330
1F
100
AcDbEntity
  8
LC-002-100-D00-0
 62
     7
370
    50
100
AcDbLine
 10
166.755304
 20
262.217865
 30
0.0
 11
166.755304
 21
260.217865
 31
0.0
  0
LINE
  5
E1
330
1F
100
AcDbEntity
  8
LC-002-100-D00-0
 62
     7
370
    50
100
AcDbLine
 10
130.005306
 20
264.462984
 30
0.0
 11
147.058676
 21
262.217865
 31
0.0
  0
ARC
  5
E2
330
1F
100
AcDbEntity
  8
LC-002-100-D00-0
 62
     7
370
    50
100
AcDbCircle
 10
116.505306
 20
261.217865
 30
0.0
 40
13.50000000000003
100
AcDbArc
 50
270.0
 51
0.0
  0
LINE
  5
E3
330
1F
100
AcDbEntity
  8
LC-002-100-D00-0
 62
     7
370
    50
100
AcDbLine
 10
116.505306
 20
247.717865
 30
0.0
 11
76.005307
 21
247.717865
 31
0.0
  0
ARC
  5
E4
330
1F
100
AcDbEntity
  8
LC-002-100-D00-0
 62
     7
370
    50
100
AcDbCircle
 10
76.005306
 20
261.217865
 30
0.0
 40
13.50000000000001
100
AcDbArc
 50
180.0
 51
270.0
  0
LINE
  5
E5
330
1F
100
AcDbEntity
  8
LC-002-100-D00-0
 62
     7
370
    50
100
AcDbLine
 10
49.211097
 20
275.099742
 30
0.0
 11
62.505305
 21
273.349527
 31
0.0
  0
ARC
  5
E6
330
1F
100
AcDbEntity
  8
LC-002-100-D00-0
 62
     7
370
    50
100
AcDbCircle
 10
50.255306
 20
283.031302
 30
0.0
 40
8.000000000000028
100
AcDbArc
 50
180.0
 51
262.5
  0
LINE
  5
E7
330
1F
100
AcDbEntity
  8
LC-002-100-D00-0
 62
     7
370
    50
100
AcDbLine
 10
43.808383
 20
321.717865
 30
0.0
 11
45.255308
 21
316.317863
 31
0.0
  0
ARC
  5
E8
330
1F
100
AcDbEntity
  8
LC-002-100-D00-0
 62
     7
370
    50
100
AcDbCircle
 10
50.255306
 20
283.031302
 30
0.0
 40
5.000000000000021
100
AcDbArc
 50
180.0
 51
262.5
  0
LINE
  5
E9
330
1F
100
AcDbEntity
  8
LC-002-100-D00-0
 62
     7
370
    50
100
AcDbLine
 10
65.505308
 20
275.980457
 30
0.0
 11
49.602677
 21
278.074078
 31
0.0
  0
LINE
  5
EA
330
1F
100
AcDbEntity
  8
LC-002-100-D00-0
 62
     7
370
    50
100
AcDbLine
 10
65.505308
 20
261.217864
 30
0.0
 11
65.505308
 21
275.980457
 31
0.0
  0
LINE
  5
EB
330
1F
100
AcDbEntity
  8
LC-002-100-D00-0
 62
     7
370
    50
100
AcDbLine
 10
127.005306
 20
267.883827
 30
0.0
 11
127.005306
 21
261.217864
 31
0.0
  0
LINE
  5
EC
330
1F
100
AcDbEntity
  8
LC-002-100-D00-0
 62
     7
370
    50
100
AcDbLine
 10
147.255306
 20
265.217864
 30
0.0
 11
127.005306
 21
267.883827
 31
0.0
  0
LINE
  5
ED
330
1F
100
AcDbEntity
  8
LC-002-100-D00-0
 62
     7
370
    50
100
AcDbLine
 10
200.255309
 20
263.717349
 30
0.0
 11
194.655304
 21
265.217864
 31
0.0
  0
LINE
  5
EE
330
1F
100
AcDbEntity
  8
LC-002-100-D00-0
 62
     7
370
    50
100
AcDbLine
 10
200.255309
 20
263.283701
 30
0.0
 11
200.255309
 21
263.717349
 31
0.0
  0
ARC
  5
EF
330
1F
100
AcDbEntity
  8
LC-002-100-D00-0
 62
     7
370
    50
100
AcDbCircle
 10
195.755306
 20
261.263969
 30
0.0
 40
0.5
100
AcDbArc
 50
180.0
 51
292.382565
  0
LINE
  5
F0
330
1F
100
AcDbEntity
  8
LC-002-100-D00-0
 62
     7
370
    50
100
AcDbLine
 10
195.255306
 20
262.567865
 30
0.0
 11
195.255306
 21
261.263969
 31
0.0
  0
ARC
  5
F1
330
1F
100
AcDbEntity
  8
LC-002-100-D00-0
 62
     7
370
    50
100
AcDbCircle
 10
194.755306
 20
262.567865
 30
0.0
 40
0.5
100
AcDbArc
 50
0.0
 51
90.0
  0
ARC
  5
F2
330
1F
100
AcDbEntity
  8
LC-002-100-D00-0
 62
     7
370
    50
100
AcDbCircle
 10
191.255306
 20
262.567865
 30
0.0
 40
0.5
100
AcDbArc
 50
90.0
 51
180.0
  0
LINE
  5
F3
330
1F
100
AcDbEntity
  8
LC-002-100-D00-0
 62
     7
370
    50
100
AcDbLine
 10
190.755305
 20
259.610829
 30
0.0
 11
190.755305
 21
262.567865
 31
0.0
  0
ARC
  5
F4
330
1F
100
AcDbEntity
  8
LC-002-100-D00-0
 62
     7
370
    50
100
AcDbCircle
 10
190.255306
 20
259.610829
 30
0.0
 40
0.49999999999998
100
AcDbArc
 50
281.075934
 51
0.0
  0
ARC
  5
F5
330
1F
100
AcDbEntity
  8
LC-002-100-D00-0
 62
     7
370
    50
100
AcDbCircle
 10
184.655306
 20
288.217865
 30
0.0
 40
29.65000000000005
100
AcDbArc
 50
241.270302
 51
281.075934
  0
LINE
  5
F6
330
1F
100
AcDbEntity
  8
LC-002-100-D00-0
 62
     7
370
    50
100
AcDbLine
 10
169.255306
 20
262.217865
 30
0.0
 11
170.403202
 21
262.217865
 31
0.0
  0
LINE
  5
F7
330
1F
100
AcDbEntity
  8
LC-002-100-D00-0
 62
     7
370
    50
100
AcDbLine
 10
169.255306
 20
260.217865
 30
0.0
 11
169.255306
 21
262.217865
 31
0.0
  0
LINE
  5
F8
330
1F
100
AcDbEntity
  8
LC-002-100-D00-0
 62
     7
370
    50
100
AcDbLine
 10
166.755304
 20
260.217865
 30
0.0
 11
169.255306
 21
260.217865
 31
0.0
  0
LINE
  5
F9
330
1F
100
AcDbEntity
  8
LC-002-100-D00-0
 62
     7
370
    50
100
AcDbLine
 10
76.005307
 20
250.717865
 30
0.0
 11
116.505306
 21
250.717865
 31
0.0
  0
LINE
  5
FA
330
1F
100
AcDbEntity
  8
LC-002-100-D00-0
 62
     7
370
    50
100
AcDbLine
 10
43.755305
 20
321.717865
 30
0.0
 11
43.808383
 21
321.717865
 31
0.0
  0
ARC
  5
FB
330
1F
100
AcDbEntity
  8
LC-002-100-D00-0
 62
     7
370
    50
100
AcDbCircle
 10
194.755306
 20
313.867865
 30
0.0
 40
0.5
100
AcDbArc
 50
270.0
 51
0.0
  0
ARC
  5
FC
330
1F
100
AcDbEntity
  8
LC-002-100-D00-0
 62
     7
370
    50
100
AcDbCircle
 10
191.255306
 20
313.867865
 30
0.0
 40
0.5
100
AcDbArc
 50
180.0
 51
270.0
  0
LINE
  5
FD
330
1F
100
AcDbEntity
  8
LC-002-100-D00-0
 62
     7
370
    50
100
AcDbLine
 10
195.255306
 20
315.171763
 30
0.0
 11
195.255306
 21
313.867866
 31
0.0
  0
ARC
  5
FE
330
1F
100
AcDbEntity
  8
LC-002-100-D00-0
 62
     7
370
    50
100
AcDbCircle
 10
195.755306
 20
315.171761
 30
0.0
 40
0.4999999999999731
100
AcDbArc
 50
67.617435
 51
180.0
  0
LINE
  5
FF
330
1F
100
AcDbEntity
  8
LC-002-100-D00-0
 62
     7
370
    50
100
AcDbLine
 10
200.255309
 20
312.718383
 30
0.0
 11
200.255309
 21
313.152029
 31
0.0
  0
LINE
  5
100
330
1F
100
AcDbEntity
  8
LC-002-100-D00-0
 62
     7
370
    50
100
AcDbLine
 10
194.655304
 20
311.217866
 30
0.0
 11
200.255309
 21
312.718383
 31
0.0
  0
LINE
  5
101
330
1F
100
AcDbEntity
  8
LC-002-100-D00-0
 62
     7
370
    50
100
AcDbLine
 10
147.255306
 20
316.317863
 30
0.0
 11
148.702231
 21
321.717865
 31
0.0
  0
LINE
  5
102
330
1F
100
AcDbEntity
  8
LC-002-100-D00-0
 62
     7
370
    50
100
AcDbLine
 10
166.755304
 20
316.217861
 30
0.0
 11
166.755304
 21
314.217865
 31
0.0
  0
ARC
  5
103
330
1F
100
AcDbEntity
  8
LC-002-100-D00-0
 62
     7
370
    50
100
AcDbCircle
 10
184.655306
 20
288.217865
 30
0.0
 40
33.2326646539214
100
AcDbArc
 50
104.641094
 51
122.5902
  0
LINE
  5
104
330
1F
100
AcDbEntity
  8
LC-002-100-D00-0
 62
     7
370
    50
100
AcDbLine
 10
176.255305
 20
316.653102
 30
0.0
 11
176.255305
 21
320.371404
 31
0.0
  0
ARC
  5
105
330
1F
100
AcDbEntity
  8
LC-002-100-D00-0
 62
     7
370
    50
100
AcDbCircle
 10
184.655306
 20
288.217865
 30
0.0
 40
29.65000000000001
100
AcDbArc
 50
78.924066
 51
106.45757
  0
ARC
  5
106
330
1F
100
AcDbEntity
  8
LC-002-100-D00-0
 62
     7
370
    50
100
AcDbCircle
 10
190.255306
 20
316.824901
 30
0.0
 40
0.5
100
AcDbArc
 50
0.0
 51
78.924066
  0
LINE
  5
107
330
1F
100
AcDbEntity
  8
LC-002-100-D00-0
 62
     7
370
    50
100
AcDbLine
 10
190.755305
 20
313.867866
 30
0.0
 11
190.755305
 21
316.824897
 31
0.0
  0
LINE
  5
108
330
1F
100
AcDbEntity
  8
LC-002-100-D00-0
 62
     7
370
    50
100
AcDbLine
 10
148.702231
 20
321.717865
 30
0.0
 11
148.755305
 21
321.717865
 31
0.0
  0
INSERT
  5
10E
330
1F
100
AcDbEntity
  8
LC-002-100-D00-0
 62
     7
370
    50
100
AcDbBlockReference
  2
KLON1
 10
0.0
 20
0.0
 30
0.0
  0
INSERT
  5
114
330
1F
100
AcDbEntity
  8
LC-002-100-D00-0
 62
     7
370
    50
100
AcDbBlockReference
  2
KLON2
 10
0.0
 20
0.0
 30
0.0
  0
ARC
  5
115
330
1F
100
AcDbEntity
  8
LC-002-100-D00-0
 62
     7
370
    50
100
AcDbCircle
 10
139.932584
 20
271.140056
 30
0.0
 40
4.917811009355504
100
AcDbArc
 50
264.171251
 51
0.755449
  0
LINE
  5
116
330
1F
100
AcDbEntity
  8
LC-002-100-D00-0
 62
     7
370
    50
100
AcDbLine
 10
200.255309
 20
312.718383
 30
0.0
 11
200.255309
 21
263.717349
 31
0.0
  0
LINE
  5
117
330
1F
100
AcDbEntity
  8
LC-002-100-D00-0
 62
     7
370
    50
100
AcDbLine
 10
43.808383
 20
321.717865
 30
0.0
 11
43.831584
 21
321.717865
 31
0.0
  0
CIRCLE
  5
118
102
{ACAD_REACTORS
330
3C2
102
}
330
1F
100
AcDbEntity
  8
LC-002-100-D00-0
 62
     7
370
    50
100
AcDbCircle
 10
135.505306
 20
335.353884
 30
0.0
 40
1.25
  0
CIRCLE
  5
119
102
{ACAD_REACTORS
330
3C2
102
}
330
1F
100
AcDbEntity
  8
LC-002-100-D00-0
 62
     7
370
    50
100
AcDbCircle
 10
57.005306
 20
335.353884
 30
0.0
 40
1.249999999999993
  0
LINE
  5
11A
102
{ACAD_REACTORS
330
3C2
102
}
330
1F
100
AcDbEntity
  8
LC-002-100-D00-0
 62
     7
370
    50
100
AcDbLine
 10
56.505304
 20
336.603885
 30
0.0
 11
56.505304
 21
338.603882
 31
0.0
  0
LINE
  5
11B
102
{ACAD_REACTORS
330
3C2
102
}
330
1F
100
AcDbEntity
  8
LC-002-100-D00-0
 62
     7
370
    50
100
AcDbLine
 10
136.005306
 20
338.603882
 30
0.0
 11
136.005306
 21
336.603885
 31
0.0
  0
LINE
  5
11C
102
{ACAD_REACTORS
330
3C2
102
}
330
1F
100
AcDbEntity
  8
LC-002-100-D00-0
 62
     7
370
    50
100
AcDbLine
 10
56.755308
 20
332.103883
 30
0.0
 11
56.755308
 21
333.803882
 31
0.0
  0
LINE
  5
11D
102
{ACAD_REACTORS
330
3C2
102
}
330
1F
100
AcDbEntity
  8
LC-002-100-D00-0
 62
     7
370
    50
100
AcDbLine
 10
135.755306
 20
333.803882
 30
0.0
 11
135.755306
 21
332.103883
 31
0.0
  0
LINE
  5
11E
102
{ACAD_REACTORS
330
3C2
102
}
330
1F
100
AcDbEntity
  8
LC-002-100-D00-0
 62
     7
370
    50
100
AcDbLine
 10
58.255304
 20
333.803882
 30
0.0
 11
58.255304
 21
336.603885
 31
0.0
  0
LINE
  5
11F
102
{ACAD_REACTORS
330
3C2
102
}
330
1F
100
AcDbEntity
  8
LC-002-100-D00-0
 62
     7
370
    50
100
AcDbLine
 10
134.255306
 20
336.603885
 30
0.0
 11
134.255306
 21
333.803882
 31
0.0
  0
LINE
  5
120
102
{ACAD_REACTORS
330
3C2
102
}
330
1F
100
AcDbEntity
  8
LC-002-100-D00-0
 62
     7
370
    50
100
AcDbLine
 10
60.755305
 20
328.603884
 30
0.0
 11
60.755305
 21
332.103883
 31
0.0
  0
LINE
  5
121
102
{ACAD_REACTORS
330
3C2
102
}
330
1F
100
AcDbEntity
  8
LC-002-100-D00-0
 62
     7
370
    50
100
AcDbLine
 10
131.755306
 20
332.103883
 30
0.0
 11
131.755306
 21
328.603884
 31
0.0
  0
ARC
  5
122
102
{ACAD_REACTORS
330
3C2
102
}
330
1F
100
AcDbEntity
  8
LC-002-100-D00-0
 62
     7
370
    50
100
AcDbCircle
 10
60.755306
 20
336.603884
 30
0.0
 40
2.0
100
AcDbArc
 50
0.0
 51
90.0
  0
ARC
  5
123
102
{ACAD_REACTORS
330
3C2
102
}
330
1F
100
AcDbEntity
  8
LC-002-100-D00-0
 62
     7
370
    50
100
AcDbCircle
 10
131.755306
 20
336.603884
 30
0.0
 40
2.0
100
AcDbArc
 50
90.0
 51
180.0
  0
LINE
  5
124
102
{ACAD_REACTORS
330
3C2
102
}
330
1F
100
AcDbEntity
  8
LC-002-100-D00-0
 62
     7
370
    50
100
AcDbLine
 10
131.755306
 20
338.603882
 30
0.0
 11
130.255306
 21
338.603882
 31
0.0
  0
ARC
  5
125
102
{ACAD_REACTORS
330
3C2
102
}
330
1F
100
AcDbEntity
  8
LC-002-100-D00-0
 62
     7
370
    50
100
AcDbCircle
 10
63.755306
 20
330.603884
 30
0.0
 40
1.0
100
AcDbArc
 50
180.0
 51
270.0
  0
ARC
  5
126
102
{ACAD_REACTORS
330
3C2
102
}
330
1F
100
AcDbEntity
  8
LC-002-100-D00-0
 62
     7
370
    50
100
AcDbCircle
 10
128.755306
 20
330.603884
 30
0.0
 40
1.0
100
AcDbArc
 50
270.0
 51
0.0
  0
LINE
  5
127
102
{ACAD_REACTORS
330
3C2
102
}
330
1F
100
AcDbEntity
  8
LC-002-100-D00-0
 62
     7
370
    50
100
AcDbLine
 10
62.755306
 20
336.603885
 30
0.0
 11
62.755306
 21
330.603888
 31
0.0
  0
ARC
  5
128
102
{ACAD_REACTORS
330
3C2
102
}
330
1F
100
AcDbEntity
  8
LC-002-100-D00-0
 62
     7
370
    50
100
AcDbCircle
 10
66.255306
 20
317.603884
 30
0.0
 40
11.0
100
AcDbArc
 50
0.0
 51
90.0
  0
ARC
  5
129
102
{ACAD_REACTORS
330
3C2
102
}
330
1F
100
AcDbEntity
  8
LC-002-100-D00-0
 62
     7
370
    50
100
AcDbCircle
 10
126.255306
 20
317.603884
 30
0.0
 40
11.0
100
AcDbArc
 50
90.0
 51
180.0
  0
ARC
  5
12A
102
{ACAD_REACTORS
330
3C2
102
}
330
1F
100
AcDbEntity
  8
LC-002-100-D00-0
 62
     7
370
    50
100
AcDbCircle
 10
66.255306
 20
317.603884
 30
0.0
 40
12.00000000000001
100
AcDbArc
 50
0.0
 51
90.0
  0
ARC
  5
12B
102
{ACAD_REACTORS
330
3C2
102
}
330
1F
100
AcDbEntity
  8
LC-002-100-D00-0
 62
     7
370
    50
100
AcDbCircle
 10
126.255306
 20
317.603884
 30
0.0
 40
12.0
100
AcDbArc
 50
90.0
 51
180.0
  0
LINE
  5
12C
102
{ACAD_REACTORS
330
3C2
102
}
330
1F
100
AcDbEntity
  8
LC-002-100-D00-0
 62
     7
370
    50
100
AcDbLine
 10
126.255306
 20
329.603886
 30
0.0
 11
66.255305
 21
329.603886
 31
0.0
  0
LINE
  5
12D
102
{ACAD_REACTORS
330
3C2
102
}
330
1F
100
AcDbEntity
  8
LC-002-100-D00-0
 62
     7
370
    50
100
AcDbLine
 10
77.255305
 20
266.603885
 30
0.0
 11
77.255305
 21
317.603884
 31
0.0
  0
LINE
  5
12E
102
{ACAD_REACTORS
330
3C2
102
}
330
1F
100
AcDbEntity
  8
LC-002-100-D00-0
 62
     7
370
    50
100
AcDbLine
 10
115.255306
 20
317.603884
 30
0.0
 11
115.255306
 21
266.603885
 31
0.0
  0
LINE
  5
12F
102
{ACAD_REACTORS
330
3C2
102
}
330
1F
100
AcDbEntity
  8
LC-002-100-D00-0
 62
     7
370
    50
100
AcDbLine
 10
78.255307
 20
317.603884
 30
0.0
 11
78.255307
 21
266.603885
 31
0.0
  0
LINE
  5
130
102
{ACAD_REACTORS
330
3C2
102
}
330
1F
100
AcDbEntity
  8
LC-002-100-D00-0
 62
     7
370
    50
100
AcDbLine
 10
114.255306
 20
266.603885
 30
0.0
 11
114.255306
 21
317.603884
 31
0.0
  0
LINE
  5
131
102
{ACAD_REACTORS
330
3C2
102
}
330
1F
100
AcDbEntity
  8
LC-002-100-D00-0
 62
     7
370
    50
100
AcDbLine
 10
114.255306
 20
266.603885
 30
0.0
 11
78.255307
 21
266.603885
 31
0.0
  0
LINE
  5
132
102
{ACAD_REACTORS
330
3C2
102
}
330
1F
100
AcDbEntity
  8
LC-002-100-D00-0
 62
     7
370
    50
100
AcDbLine
 10
78.255307
 20
266.603885
 30
0.0
 11
77.255305
 21
266.603885
 31
0.0
  0
LINE
  5
133
102
{ACAD_REACTORS
330
3C2
102
}
330
1F
100
AcDbEntity
  8
LC-002-100-D00-0
 62
     7
370
    50
100
AcDbLine
 10
63.755304
 20
329.603886
 30
0.0
 11
66.255305
 21
329.603886
 31
0.0
  0
LINE
  5
134
102
{ACAD_REACTORS
330
3C2
102
}
330
1F
100
AcDbEntity
  8
LC-002-100-D00-0
 62
     7
370
    50
100
AcDbLine
 10
66.255305
 20
328.603884
 30
0.0
 11
60.755305
 21
328.603884
 31
0.0
  0
LINE
  5
135
102
{ACAD_REACTORS
330
3C2
102
}
330
1F
100
AcDbEntity
  8
LC-002-100-D00-0
 62
     7
370
    50
100
AcDbLine
 10
60.755305
 20
332.103883
 30
0.0
 11
56.755308
 21
332.103883
 31
0.0
  0
LINE
  5
136
102
{ACAD_REACTORS
330
3C2
102
}
330
1F
100
AcDbEntity
  8
LC-002-100-D00-0
 62
     7
370
    50
100
AcDbLine
 10
56.755308
 20
333.803882
 30
0.0
 11
58.255304
 21
333.803882
 31
0.0
  0
LINE
  5
137
102
{ACAD_REACTORS
330
3C2
102
}
330
1F
100
AcDbEntity
  8
LC-002-100-D00-0
 62
     7
370
    50
100
AcDbLine
 10
56.505304
 20
338.603882
 30
0.0
 11
130.255306
 21
338.603882
 31
0.0
  0
LINE
  5
138
102
{ACAD_REACTORS
330
3C2
102
}
330
1F
100
AcDbEntity
  8
LC-002-100-D00-0
 62
     7
370
    50
100
AcDbLine
 10
58.255304
 20
336.603885
 30
0.0
 11
56.505304
 21
336.603885
 31
0.0
  0
LINE
  5
139
102
{ACAD_REACTORS
330
3C2
102
}
330
1F
100
AcDbEntity
  8
LC-002-100-D00-0
 62
     7
370
    50
100
AcDbLine
 10
115.255306
 20
266.603885
 30
0.0
 11
114.255306
 21
266.603885
 31
0.0
  0
LINE
  5
13A
102
{ACAD_REACTORS
330
3C2
102
}
330
1F
100
AcDbEntity
  8
LC-002-100-D00-0
 62
     7
370
    50
100
AcDbLine
 10
126.255306
 20
329.603886
 30
0.0
 11
128.755306
 21
329.603886
 31
0.0
  0
LINE
  5
13B
102
{ACAD_REACTORS
330
3C2
102
}
330
1F
100
AcDbEntity
  8
LC-002-100-D00-0
 62
     7
370
    50
100
AcDbLine
 10
131.755306
 20
328.603884
 30
0.0
 11
126.255306
 21
328.603884
 31
0.0
  0
LINE
  5
13C
102
{ACAD_REACTORS
330
3C2
102
}
330
1F
100
AcDbEntity
  8
LC-002-100-D00-0
 62
     7
370
    50
100
AcDbLine
 10
135.755306
 20
332.103883
 30
0.0
 11
131.755306
 21
332.103883
 31
0.0
  0
LINE
  5
13D
102
{ACAD_REACTORS
330
3C2
102
}
330
1F
100
AcDbEntity
  8
LC-002-100-D00-0
 62
     7
370
    50
100
AcDbLine
 10
134.255306
 20
333.803882
 30
0.0
 11
135.755306
 21
333.803882
 31
0.0
  0
LINE
  5
13E
102
{ACAD_REACTORS
330
3C2
102
}
330
1F
100
AcDbEntity
  8
LC-002-100-D00-0
 62
     7
370
    50
100
AcDbLine
 10
131.755306
 20
338.603882
 30
0.0
 11
136.005306
 21
338.603882
 31
0.0
  0
LINE
  5
13F
102
{ACAD_REACTORS
330
3C2
102
}
330
1F
100
AcDbEntity
  8
LC-002-100-D00-0
 62
     7
370
    50
100
AcDbLine
 10
136.005306
 20
336.603885
 30
0.0
 11
134.255306
 21
336.603885
 31
0.0
  0
LINE
  5
140
102
{ACAD_REACTORS
330
3C2
102
}
330
1F
100
AcDbEntity
  8
LC-002-100-D00-0
 62
     7
370
    50
100
AcDbLine
 10
126.755306
 20
263.103884
 30
0.0
 11
126.755306
 21
314.103884
 31
0.0
  0
LINE
  5
141
102
{ACAD_REACTORS
330
3C2
102
}
330
1F
100
AcDbEntity
  8
LC-002-100-D00-0
 62
     7
370
    50
100
AcDbLine
 10
65.755304
 20
314.103884
 30
0.0
 11
65.755304
 21
263.103884
 31
0.0
  0
ARC
  5
142
102
{ACAD_REACTORS
330
3C2
102
}
330
1F
100
AcDbEntity
  8
LC-002-100-D00-0
 62
     7
370
    50
100
AcDbCircle
 10
60.255306
 20
328.603884
 30
0.0
 40
1.500000000000014
100
AcDbArc
 50
180.0
 51
206.322803
  0
ARC
  5
143
102
{ACAD_REACTORS
330
3C2
102
}
330
1F
100
AcDbEntity
  8
LC-002-100-D00-0
 62
     7
370
    50
100
AcDbCircle
 10
132.255306
 20
328.603884
 30
0.0
 40
1.499999999999991
100
AcDbArc
 50
333.677197
 51
0.0
  0
ARC
  5
144
102
{ACAD_REACTORS
330
3C2
102
}
330
1F
100
AcDbEntity
  8
LC-002-100-D00-0
 62
     7
370
    50
100
AcDbCircle
 10
75.755306
 20
263.103884
 30
0.0
 40
10.00000000000003
100
AcDbArc
 50
180.0
 51
270.0
  0
LINE
  5
145
102
{ACAD_REACTORS
330
3C2
102
}
330
1F
100
AcDbEntity
  8
LC-002-100-D00-0
 62
     7
370
    50
100
AcDbLine
 10
58.910843
 20
327.93874
 30
0.0
 11
65.755304
 21
314.103884
 31
0.0
  0
LINE
  5
146
102
{ACAD_REACTORS
330
3C2
102
}
330
1F
100
AcDbEntity
  8
LC-002-100-D00-0
 62
     7
370
    50
100
AcDbLine
 10
58.755305
 20
330.603888
 30
0.0
 11
58.755305
 21
328.603884
 31
0.0
  0
LINE
  5
147
102
{ACAD_REACTORS
330
3C2
102
}
330
1F
100
AcDbEntity
  8
LC-002-100-D00-0
 62
     7
370
    50
100
AcDbLine
 10
56.505304
 20
330.603888
 30
0.0
 11
58.755305
 21
330.603888
 31
0.0
  0
LINE
  5
148
102
{ACAD_REACTORS
330
3C2
102
}
330
1F
100
AcDbEntity
  8
LC-002-100-D00-0
 62
     7
370
    50
100
AcDbLine
 10
56.505304
 20
332.103883
 30
0.0
 11
56.505304
 21
330.603888
 31
0.0
  0
LINE
  5
149
102
{ACAD_REACTORS
330
3C2
102
}
330
1F
100
AcDbEntity
  8
LC-002-100-D00-0
 62
     7
370
    50
100
AcDbLine
 10
60.255304
 20
332.103883
 30
0.0
 11
56.505304
 21
332.103883
 31
0.0
  0
LINE
  5
14A
102
{ACAD_REACTORS
330
3C2
102
}
330
1F
100
AcDbEntity
  8
LC-002-100-D00-0
 62
     7
370
    50
100
AcDbLine
 10
60.255304
 20
328.603884
 30
0.0
 11
60.255304
 21
332.103883
 31
0.0
  0
LINE
  5
14B
102
{ACAD_REACTORS
330
3C2
102
}
330
1F
100
AcDbEntity
  8
LC-002-100-D00-0
 62
     7
370
    50
100
AcDbLine
 10
66.739373
 20
315.497508
 30
0.0
 11
60.255304
 21
328.603884
 31
0.0
  0
LINE
  5
14C
102
{ACAD_REACTORS
330
3C2
102
}
330
1F
100
AcDbEntity
  8
LC-002-100-D00-0
 62
     7
370
    50
100
AcDbLine
 10
66.739373
 20
315.497508
 30
0.0
 11
67.255307
 21
314.603885
 31
0.0
  0
LINE
  5
14D
102
{ACAD_REACTORS
330
3C2
102
}
330
1F
100
AcDbEntity
  8
LC-002-100-D00-0
 62
     7
370
    25
100
AcDbLine
 10
67.255307
 20
263.103884
 30
0.0
 11
67.255307
 21
314.603885
 31
0.0
  0
ARC
  5
14E
102
{ACAD_REACTORS
330
3C2
102
}
330
1F
100
AcDbEntity
  8
LC-002-100-D00-0
 62
     7
370
    50
100
AcDbCircle
 10
75.755306
 20
263.103884
 30
0.0
 40
8.500000000000028
100
AcDbArc
 50
180.0
 51
270.0
  0
LINE
  5
14F
102
{ACAD_REACTORS
330
3C2
102
}
330
1F
100
AcDbEntity
  8
LC-002-100-D00-0
 62
     7
370
    50
100
AcDbLine
 10
116.755306
 20
254.603884
 30
0.0
 11
75.755306
 21
254.603884
 31
0.0
  0
ARC
  5
150
102
{ACAD_REACTORS
330
3C2
102
}
330
1F
100
AcDbEntity
  8
LC-002-100-D00-0
 62
     7
370
    50
100
AcDbCircle
 10
116.755306
 20
263.103884
 30
0.0
 40
8.500000000000057
100
AcDbArc
 50
270.0
 51
0.0
  0
LINE
  5
151
102
{ACAD_REACTORS
330
3C2
102
}
330
1F
100
AcDbEntity
  8
LC-002-100-D00-0
 62
     7
370
    50
100
AcDbLine
 10
125.255306
 20
314.603885
 30
0.0
 11
125.255306
 21
263.103884
 31
0.0
  0
LINE
  5
152
102
{ACAD_REACTORS
330
3C2
102
}
330
1F
100
AcDbEntity
  8
LC-002-100-D00-0
 62
     7
370
    50
100
AcDbLine
 10
125.255306
 20
314.603885
 30
0.0
 11
125.77124
 21
315.497508
 31
0.0
  0
LINE
  5
153
102
{ACAD_REACTORS
330
3C2
102
}
330
1F
100
AcDbEntity
  8
LC-002-100-D00-0
 62
     7
370
    50
100
AcDbLine
 10
132.255306
 20
328.603884
 30
0.0
 11
125.77124
 21
315.497508
 31
0.0
  0
LINE
  5
154
102
{ACAD_REACTORS
330
3C2
102
}
330
1F
100
AcDbEntity
  8
LC-002-100-D00-0
 62
     7
370
    50
100
AcDbLine
 10
132.255306
 20
332.103883
 30
0.0
 11
132.255306
 21
328.603884
 31
0.0
  0
LINE
  5
155
102
{ACAD_REACTORS
330
3C2
102
}
330
1F
100
AcDbEntity
  8
LC-002-100-D00-0
 62
     7
370
    50
100
AcDbLine
 10
136.005306
 20
332.103883
 30
0.0
 11
132.255306
 21
332.103883
 31
0.0
  0
LINE
  5
156
102
{ACAD_REACTORS
330
3C2
102
}
330
1F
100
AcDbEntity
  8
LC-002-100-D00-0
 62
     7
370
    50
100
AcDbLine
 10
136.005306
 20
330.603888
 30
0.0
 11
136.005306
 21
332.103883
 31
0.0
  0
LINE
  5
157
102
{ACAD_REACTORS
330
3C2
102
}
330
1F
100
AcDbEntity
  8
LC-002-100-D00-0
 62
     7
370
    50
100
AcDbLine
 10
133.755306
 20
330.603888
 30
0.0
 11
136.005306
 21
330.603888
 31
0.0
  0
LINE
  5
158
102
{ACAD_REACTORS
330
3C2
102
}
330
1F
100
AcDbEntity
  8
LC-002-100-D00-0
 62
     7
370
    50
100
AcDbLine
 10
133.755306
 20
328.603884
 30
0.0
 11
133.755306
 21
330.603888
 31
0.0
  0
LINE
  5
159
102
{ACAD_REACTORS
330
3C2
102
}
330
1F
100
AcDbEntity
  8
LC-002-100-D00-0
 62
     7
370
    50
100
AcDbLine
 10
126.755306
 20
314.103884
 30
0.0
 11
133.599771
 21
327.93874
 31
0.0
  0
ARC
  5
15A
102
{ACAD_REACTORS
330
3C2
102
}
330
1F
100
AcDbEntity
  8
LC-002-100-D00-0
 62
     7
370
    50
100
AcDbCircle
 10
116.755306
 20
263.103884
 30
0.0
 40
10.00000000000006
100
AcDbArc
 50
270.0
 51
0.0
  0
LINE
  5
15B
102
{ACAD_REACTORS
330
3C2
102
}
330
1F
100
AcDbEntity
  8
LC-002-100-D00-0
 62
     7
370
    50
100
AcDbLine
 10
75.755306
 20
253.103884
 30
0.0
 11
116.755306
 21
253.103884
 31
0.0
  0
LINE
  5
15C
102
{ACAD_REACTORS
330
3C2
102
}
330
1F
100
AcDbEntity
  8
LC-002-100-D00-0
 62
     7
370
    50
100
AcDbLine
 10
125.255306
 20
314.603885
 30
0.0
 11
115.255306
 21
314.603885
 31
0.0
  0
LINE
  5
15D
102
{ACAD_REACTORS
330
3C2
102
}
330
1F
100
AcDbEntity
  8
LC-002-100-D00-0
 62
     7
370
    50
100
AcDbLine
 10
77.255305
 20
314.603885
 30
0.0
 11
67.255307
 21
314.603885
 31
0.0
  0
LINE
  5
15E
102
{ACAD_REACTORS
330
3C2
102
}
330
1F
100
AcDbEntity
  8
LC-002-100-D00-0
 62
     7
370
    50
100
AcDbLine
 10
66.739373
 20
315.497508
 30
0.0
 11
66.892229
 21
315.497508
 31
0.0
  0
LINE
  5
15F
102
{ACAD_REACTORS
330
3C2
102
}
330
1F
100
AcDbEntity
  8
LC-002-100-D00-0
 62
     7
370
    50
100
AcDbLine
 10
66.250205
 20
316.603882
 30
0.0
 11
77.255305
 21
316.603882
 31
0.0
  0
LINE
  5
160
102
{ACAD_REACTORS
330
3C2
102
}
330
1F
100
AcDbEntity
  8
LC-002-100-D00-0
 62
     7
370
    50
100
AcDbLine
 10
115.255306
 20
316.603882
 30
0.0
 11
126.260405
 21
316.603882
 31
0.0
  0
LINE
  5
161
102
{ACAD_REACTORS
330
3C2
102
}
330
1F
100
AcDbEntity
  8
LC-002-100-D00-0
 62
     7
370
    50
100
AcDbLine
 10
125.618384
 20
315.497508
 30
0.0
 11
125.77124
 21
315.497508
 31
0.0
  0
INSERT
  5
16D
102
{ACAD_REACTORS
330
3C2
102
}
330
1F
100
AcDbEntity
  8
LC-002-100-D00-0
 62
     7
370
    50
100
AcDbBlockReference
  2
POLY3
 10
0.0
 20
0.0
 30
0.0
  0
LINE
  5
16E
102
{ACAD_REACTORS
330
3C2
102
}
330
1F
100
AcDbEntity
  8
LC-002-100-D00-0
 62
     7
370
    50
100
AcDbLine
 10
132.130088
 20
328.603884
 30
0.0
 11
132.255306
 21
328.603884
 31
0.0
  0
LINE
  5
16F
102
{ACAD_REACTORS
330
3C2
102
}
330
1F
100
AcDbEntity
  8
LC-002-100-D00-0
 62
     7
370
    50
100
AcDbLine
 10
60.255304
 20
328.603884
 30
0.0
 11
60.380523
 21
328.603884
 31
0.0
  0
INSERT
  5
17B
102
{ACAD_REACTORS
330
3C2
102
}
330
1F
100
AcDbEntity
  8
LC-002-100-D00-0
 62
     7
370
    50
100
AcDbBlockReference
  2
POLY4
 10
0.0
 20
0.0
 30
0.0
  0
LINE
  5
17C
102
{ACAD_REACTORS
330
3C2
102
}
330
1F
100
AcDbEntity
  8
LC-002-100-D00-0
 62
     7
370
    50
100
AcDbLine
 10
132.130088
 20
328.603884
 30
0.0
 11
131.755306
 21
328.603884
 31
0.0
  0
LINE
  5
17D
102
{ACAD_REACTORS
330
3C2
102
}
330
1F
100
AcDbEntity
  8
LC-002-100-D00-0
 62
     7
370
    50
100
AcDbLine
 10
60.755305
 20
328.603884
 30
0.0
 11
60.380523
 21
328.603884
 31
0.0
  0
LINE
  5
17E
330
1F
100
AcDbEntity
  8
LC-002-100-D00-0
 62
     7
370
    50
100
AcDbLine
 10
139.155307
 20
326.217867
 30
0.0
 11
145.755307
 21
326.217867
 31
0.0
  0
LINE
  5
17F
330
1F
100
AcDbEntity
  8
LC-002-100-D00-0
 62
     7
370
    50
100
AcDbLine
 10
145.755307
 20
326.217867
 30
0.0
 11
145.755307
 21
328.217863
 31
0.0
  0
LINE
  5
180
330
1F
100
AcDbEntity
  8
LC-002-100-D00-0
 62
     7
370
    50
100
AcDbLine
 10
150.255306
 20
324.217863
 30
0.0
 11
154.755306
 21
324.217863
 31
0.0
  0
LINE
  5
181
330
1F
100
AcDbEntity
  8
LC-002-100-D00-0
 62
     7
370
    50
100
AcDbLine
 10
154.755306
 20
324.217863
 30
0.0
 11
154.755306
 21
319.717868
 31
0.0
  0
LINE
  5
182
330
1F
100
AcDbEntity
  8
LC-002-100-D00-0
 62
     7
370
    50
100
AcDbLine
 10
154.755306
 20
319.717868
 30
0.0
 11
151.005306
 21
319.717868
 31
0.0
  0
LINE
  5
183
330
1F
100
AcDbEntity
  8
LC-002-100-D00-0
 62
     7
370
    50
100
AcDbLine
 10
151.005306
 20
319.717868
 30
0.0
 11
151.005306
 21
320.42919
 31
0.0
  0
LINE
  5
184
330
1F
100
AcDbEntity
  8
LC-002-100-D00-0
 62
     7
370
    50
100
AcDbLine
 10
151.005306
 20
320.42919
 30
0.0
 11
148.691651
 21
321.764983
 31
0.0
  0
LINE
  5
185
330
1F
100
AcDbEntity
  8
LC-002-100-D00-0
 62
     7
370
    50
100
AcDbLine
 10
148.691651
 20
321.764983
 30
0.0
 11
147.205307
 21
316.217861
 31
0.0
  0
LINE
  5
186
330
1F
100
AcDbEntity
  8
LC-002-100-D00-0
 62
     7
370
    50
100
AcDbLine
 10
147.205307
 20
316.217861
 30
0.0
 11
145.755307
 21
316.217861
 31
0.0
  0
LINE
  5
187
330
1F
100
AcDbEntity
  8
LC-002-100-D00-0
 62
     7
370
    50
100
AcDbLine
 10
145.755307
 20
316.217861
 30
0.0
 11
145.534453
 21
322.542294
 31
0.0
  0
ARC
  5
188
330
1F
100
AcDbEntity
  8
LC-002-100-D00-0
 62
     7
370
    50
100
AcDbCircle
 10
144.834879
 20
322.517865
 30
0.0
 40
0.7000000000000066
100
AcDbArc
 50
2.0
 51
90.0
  0
LINE
  5
189
330
1F
100
AcDbEntity
  8
LC-002-100-D00-0
 62
     7
370
    50
100
AcDbLine
 10
144.834879
 20
323.217868
 30
0.0
 11
142.455307
 21
323.217868
 31
0.0
  0
ARC
  5
18A
330
1F
100
AcDbEntity
  8
LC-002-100-D00-0
 62
     7
370
    50
100
AcDbCircle
 10
142.455306
 20
322.517865
 30
0.0
 40
0.7000000000000455
100
AcDbArc
 50
90.0
 51
180.0
  0
LINE
  5
18B
330
1F
100
AcDbEntity
  8
LC-002-100-D00-0
 62
     7
370
    50
100
AcDbLine
 10
141.755306
 20
322.517864
 30
0.0
 11
141.755306
 21
311.217866
 31
0.0
  0
LINE
  5
18C
330
1F
100
AcDbEntity
  8
LC-002-100-D00-0
 62
     7
370
    50
100
AcDbLine
 10
141.755306
 20
311.217866
 30
0.0
 11
139.155307
 21
311.217866
 31
0.0
  0
LINE
  5
18D
330
1F
100
AcDbEntity
  8
LC-002-100-D00-0
 62
     7
370
    50
100
AcDbLine
 10
139.155307
 20
311.217866
 30
0.0
 11
138.155306
 21
312.217868
 31
0.0
  0
LINE
  5
18E
330
1F
100
AcDbEntity
  8
LC-002-100-D00-0
 62
     7
370
    50
100
AcDbLine
 10
138.155306
 20
312.217868
 30
0.0
 11
138.155306
 21
325.217865
 31
0.0
  0
LINE
  5
18F
330
1F
100
AcDbEntity
  8
LC-002-100-D00-0
 62
     7
370
    50
100
AcDbLine
 10
138.155306
 20
325.217865
 30
0.0
 11
139.155307
 21
326.217867
 31
0.0
  0
LINE
  5
190
330
1F
100
AcDbEntity
  8
LC-002-100-D00-0
 62
     7
370
    50
100
AcDbLine
 10
50.755304
 20
311.217866
 30
0.0
 11
50.755304
 21
322.517864
 31
0.0
  0
LINE
  5
191
330
1F
100
AcDbEntity
  8
LC-002-100-D00-0
 62
     7
370
    50
100
AcDbLine
 10
54.355305
 20
325.217865
 30
0.0
 11
54.355305
 21
312.217868
 31
0.0
  0
LINE
  5
192
330
1F
100
AcDbEntity
  8
LC-002-100-D00-0
 62
     7
370
    50
100
AcDbLine
 10
54.355305
 20
312.217868
 30
0.0
 11
53.355303
 21
311.217866
 31
0.0
  0
LINE
  5
193
330
1F
100
AcDbEntity
  8
LC-002-100-D00-0
 62
     7
370
    50
100
AcDbLine
 10
53.355303
 20
311.217866
 30
0.0
 11
50.755304
 21
311.217866
 31
0.0
  0
ARC
  5
194
330
1F
100
AcDbEntity
  8
LC-002-100-D00-0
 62
     7
370
    50
100
AcDbCircle
 10
50.055306
 20
322.517865
 30
0.0
 40
0.7000000000000028
100
AcDbArc
 50
0.0
 51
90.0
  0
ARC
  5
195
330
1F
100
AcDbEntity
  8
LC-002-100-D00-0
 62
     7
370
    50
100
AcDbCircle
 10
47.675734
 20
322.517865
 30
0.0
 40
0.6999999999999886
100
AcDbArc
 50
90.0
 51
178.0
  0
LINE
  5
196
330
1F
100
AcDbEntity
  8
LC-002-100-D00-0
 62
     7
370
    50
100
AcDbLine
 10
46.976161
 20
322.542294
 30
0.0
 11
46.755303
 21
316.217861
 31
0.0
  0
LINE
  5
197
330
1F
100
AcDbEntity
  8
LC-002-100-D00-0
 62
     7
370
    50
100
AcDbLine
 10
46.755303
 20
316.217861
 30
0.0
 11
45.305309
 21
316.217861
 31
0.0
  0
LINE
  5
198
330
1F
100
AcDbEntity
  8
LC-002-100-D00-0
 62
     7
370
    50
100
AcDbLine
 10
45.305309
 20
316.217861
 30
0.0
 11
43.818962
 21
321.764983
 31
0.0
  0
LINE
  5
199
330
1F
100
AcDbEntity
  8
LC-002-100-D00-0
 62
     7
370
    50
100
AcDbLine
 10
43.818962
 20
321.764983
 30
0.0
 11
41.505304
 21
320.42919
 31
0.0
  0
LINE
  5
19A
330
1F
100
AcDbEntity
  8
LC-002-100-D00-0
 62
     7
370
    50
100
AcDbLine
 10
41.505304
 20
320.42919
 30
0.0
 11
41.505304
 21
319.717868
 31
0.0
  0
LINE
  5
19B
330
1F
100
AcDbEntity
  8
LC-002-100-D00-0
 62
     7
370
    50
100
AcDbLine
 10
41.505304
 20
319.717868
 30
0.0
 11
37.755307
 21
319.717868
 31
0.0
  0
LINE
  5
19C
330
1F
100
AcDbEntity
  8
LC-002-100-D00-0
 62
     7
370
    50
100
AcDbLine
 10
37.755307
 20
319.717868
 30
0.0
 11
37.755307
 21
324.217863
 31
0.0
  0
LINE
  5
19D
330
1F
100
AcDbEntity
  8
LC-002-100-D00-0
 62
     7
370
    50
100
AcDbLine
 10
37.755307
 20
324.217863
 30
0.0
 11
42.255309
 21
324.217863
 31
0.0
  0
LINE
  5
19E
330
1F
100
AcDbEntity
  8
LC-002-100-D00-0
 62
     7
370
    50
100
AcDbLine
 10
46.755303
 20
328.217863
 30
0.0
 11
46.755303
 21
326.217867
 31
0.0
  0
LINE
  5
19F
330
1F
100
AcDbEntity
  8
LC-002-100-D00-0
 62
     7
370
    50
100
AcDbLine
 10
46.755303
 20
326.217867
 30
0.0
 11
53.355303
 21
326.217867
 31
0.0
  0
LINE
  5
1A0
330
1F
100
AcDbEntity
  8
LC-002-100-D00-0
 62
     7
370
    50
100
AcDbLine
 10
53.355303
 20
326.217867
 30
0.0
 11
54.355305
 21
325.217865
 31
0.0
  0
LINE
  5
1A1
330
1F
100
AcDbEntity
  8
LC-002-100-D00-0
 62
     7
370
    50
100
AcDbLine
 10
50.055307
 20
323.217868
 30
0.0
 11
47.675733
 21
323.217868
 31
0.0
  0
LINE
  5
1A2
330
1F
100
AcDbEntity
  8
LC-002-100-D00-0
 62
     7
370
    50
100
AcDbLine
 10
145.755307
 20
316.217861
 30
0.0
 11
141.755306
 21
316.217861
 31
0.0
  0
LINE
  5
1A3
330
1F
100
AcDbEntity
  8
LC-002-100-D00-0
 62
     7
370
    50
100
AcDbLine
 10
50.755304
 20
316.217861
 30
0.0
 11
46.755303
 21
316.217861
 31
0.0
  0
LINE
  5
1A4
330
1F
100
AcDbEntity
  8
LC-002-100-D00-0
 62
     7
370
    50
100
AcDbLine
 10
151.005306
 20
320.42919
 30
0.0
 11
150.255306
 21
320.42919
 31
0.0
  0
LINE
  5
1A5
330
1F
100
AcDbEntity
  8
LC-002-100-D00-0
 62
     7
370
    50
100
AcDbLine
 10
42.255309
 20
320.42919
 30
0.0
 11
41.505304
 21
320.42919
 31
0.0
  0
LINE
  5
1A6
330
1F
100
AcDbEntity
  8
LC-002-100-D00-0
 62
     7
370
    50
100
AcDbLine
 10
151.005306
 20
319.717868
 30
0.0
 11
150.255306
 21
319.717868
 31
0.0
  0
LINE
  5
1A7
330
1F
100
AcDbEntity
  8
LC-002-100-D00-0
 62
     7
370
    50
100
AcDbLine
 10
42.255309
 20
319.717868
 30
0.0
 11
41.505304
 21
319.717868
 31
0.0
  0
LINE
  5
1A8
102
{ACAD_REACTORS
330
3C2
102
}
330
1F
100
AcDbEntity
  8
LC-002-100-D00-0
 62
     7
370
    50
100
AcDbLine
 10
136.255306
 20
337.803883
 30
0.0
 11
136.005306
 21
337.803883
 31
0.0
  0
LINE
  5
1A9
102
{ACAD_REACTORS
330
3C2
102
}
330
1F
100
AcDbEntity
  8
LC-002-100-D00-0
 62
     7
370
    50
100
AcDbLine
 10
56.505304
 20
337.803883
 30
0.0
 11
56.255307
 21
337.803883
 31
0.0
  0
LINE
  5
1AA
330
1F
100
AcDbEntity
  8
LC-002-100-D00-0
 62
     7
370
    50
100
AcDbLine
 10
65.505308
 20
261.217864
 30
0.0
 11
65.755305
 21
261.217864
 31
0.0
  0
LINE
  5
1AB
330
1F
100
AcDbEntity
  8
LC-002-100-D00-0
 62
     7
370
    50
100
AcDbLine
 10
126.755306
 20
261.217864
 30
0.0
 11
127.005306
 21
261.217864
 31
0.0
  0
INSERT
  5
1B4
330
1F
100
AcDbEntity
  8
LC-002-100-D00-0
 62
     7
370
    25
100
AcDbBlockReference
  2
KLON3
 10
0.0
 20
0.0
 30
0.0
  0
INSERT
  5
1BD
330
1F
100
AcDbEntity
  8
LC-002-100-D00-0
 62
     7
370
    25
100
AcDbBlockReference
  2
KLON4
 10
0.0
 20
0.0
 30
0.0
  0
INSERT
  5
1F1
102
{ACAD_REACTORS
330
3C2
102
}
330
1F
100
AcDbEntity
  8
LC-002-100-D00-0
 62
     7
370
    25
100
AcDbBlockReference
  2
KLON5
 10
0.0
 20
0.0
 30
0.0
  0
INSERT
  5
1FF
102
{ACAD_REACTORS
330
3C2
102
}
330
1F
100
AcDbEntity
  8
LC-002-100-D00-0
 62
     7
370
    25
100
AcDbBlockReference
  2
KLON6
 10
0.0
 20
0.0
 30
0.0
  0
INSERT
  5
213
102
{ACAD_REACTORS
330
3C2
102
}
330
1F
100
AcDbEntity
  8
LC-002-100-D00-0
 62
     7
370
    25
100
AcDbBlockReference
  2
KLON7
 10
0.0
 20
0.0
 30
0.0
  0
LINE
  5
214
102
{ACAD_REACTORS
330
3C2
102
}
330
1F
100
AcDbEntity
  8
LC-002-100-D00-0
 62
     7
370
    50
100
AcDbLine
 10
134.725386
 20
334.37704
 30
0.0
 11
136.48215
 21
336.133804
 31
0.0
  0
INSERT
  5
226
330
1F
100
AcDbEntity
  8
LC-002-100-D00-0
 62
     7
370
    25
100
AcDbBlockReference
  2
KLON8
 10
0.0
 20
0.0
 30
0.0
  0
INSERT
  5
261
330
1F
100
AcDbEntity
  8
LC-002-100-D00-0
 62
     7
370
    25
100
AcDbBlockReference
  2
KLON9
 10
0.0
 20
0.0
 30
0.0
  0
INSERT
  5
278
330
1F
100
AcDbEntity
  8
LC-002-100-D00-0
 62
     7
370
    25
100
AcDbBlockReference
  2
KLON10
 10
0.0
 20
0.0
 30
0.0
  0
INSERT
  5
28D
330
1F
100
AcDbEntity
  8
LC-002-100-D00-0
 62
     7
370
    25
100
AcDbBlockReference
  2
KLON11
 10
0.0
 20
0.0
 30
0.0
  0
LINE
  5
28E
330
1F
100
AcDbEntity
  8
LC-002-100-D00-0
 62
     7
370
    25
100
AcDbLine
 10
192.179773
 20
259.531678
 30
0.0
 11
194.941493
 21
262.293398
 31
0.0
  0
LINE
  5
28F
330
1F
100
AcDbEntity
  8
LC-002-100-D00-0
 62
     7
370
    25
100
AcDbLine
 10
192.253447
 20
313.486889
 30
0.0
 11
194.986282
 21
316.219724
 31
0.0
  0
LINE
  5
290
330
1F
100
AcDbEntity
  8
LC-002-100-D00-0
 62
     7
370
    25
100
AcDbLine
 10
49.255306
 20
327.915451
 30
0.0
 11
46.033399
 21
331.137358
 31
0.0
  0
INSERT
  5
296
330
1F
100
AcDbEntity
  8
LC-002-100-D00-0
 62
     7
370
    25
100
AcDbBlockReference
  2
KLON12
 10
0.0
 20
0.0
 30
0.0
  0
INSERT
  5
2A7
102
{ACAD_REACTORS
330
3C2
102
}
330
1F
100
AcDbEntity
  8
LC-002-100-D00-0
 62
     7
370
    25
100
AcDbBlockReference
  2
KLON13
 10
0.0
 20
0.0
 30
0.0
  0
INSERT
  5
2B8
102
{ACAD_REACTORS
330
3C2
102
}
330
1F
100
AcDbEntity
  8
LC-002-100-D00-0
 62
     7
370
    25
100
AcDbBlockReference
  2
KLON14
 10
0.0
 20
0.0
 30
0.0
  0
LINE
  5
2BA
330
1F
100
AcDbEntity
  8
LC-002-100-D00-0
  6
DASHDOT
 62
     7
370
    25
100
AcDbLine
 10
293.255306
 20
288.217865
 30
0.0
 11
139.97238
 21
288.217865
 31
0.0
  0
LINE
  5
2BB
102
{ACAD_REACTORS
330
3C2
102
}
330
1F
100
AcDbEntity
  8
LC-002-100-D00-0
  6
DASHDOT
 62
     7
370
    25
100
AcDbLine
 10
96.255306
 20
338.603882
 30
0.0
 11
96.255306
 21
199.389894
 31
0.0
  0
DIMENSION
  5
2BF
330
1F
100
AcDbEntity
  8
LC-003-003-----0
 62
     7
370
    25
100
AcDbDimension
  2
*D19
 10
130.010923
 20
211.333897
 30
0.0
 11
192.57091
 21
242.192377
 31
0.0
 70
   160
  1
%%c67,5
 71
     5
 42
67.414954
 53
0.053547
  3
LC-DIM-L-0140-02-02
100
AcDbAlignedDimension
 13
62.550349
 23
260.115984
 33
0.0
 14
129.965274
 24
260.178988
 34
0.0
 50
0.053547
100
AcDbRotatedDimension
  0
DIMENSION
  5
2CE
330
1F
100
AcDbEntity
  8
LC-003-003-----0
 62
     7
370
    25
100
AcDbDimension
  2
*D20
 10
150.255306
 20
151.398391
 30
0.0
 11
93.565943
 21
182.198391
 31
0.0
 70
   160
  1
%%c<>
 71
     5
 42
108.0
  3
LC-DIM-L-0140-02-02
100
AcDbAlignedDimension
 13
42.255306
 23
283.031302
 33
0.0
 14
150.255306
 24
314.217865
 34
0.0
100
AcDbRotatedDimension
  0
DIMENSION
  5
2DB
330
1F
100
AcDbEntity
  8
LC-003-003-----0
 62
     7
370
    25
100
AcDbDimension
  2
*D21
 10
154.755306
 20
100.314391
 30
0.0
 11
97.825459
 21
131.114391
 31
0.0
 70
   160
  1
%%c<>
 71
     5
 42
116.999999
  3
LC-DIM-L-0140-02-02
100
AcDbAlignedDimension
 13
37.755307
 23
319.717868
 33
0.0
 14
154.755306
 24
319.717868
 34
0.0
100
AcDbRotatedDimension
  0
DIMENSION
  5
2E8
330
1F
100
AcDbEntity
  8
LC-003-003-----0
 62
     7
370
    25
100
AcDbDimension
  2
*D22
 10
291.2553
 20
57.546391
 30
0.0
 11
193.664574
 21
88.346391
 31
0.0
 70
   160
 71
     5
 42
194.999994
  3
LC-DIM-L-0140-02-02
100
AcDbAlignedDimension
 13
96.255306
 23
245.720981
 33
0.0
 14
291.2553
 24
288.217865
 34
0.0
100
AcDbRotatedDimension
  0
DIMENSION
  5
2F5
330
1F
100
AcDbEntity
  8
LC-003-003-----0
 62
     7
370
    25
100
AcDbDimension
  2
*D23
 10
420.483812
 20
263.217866
 30
0.0
 11
389.683812
 21
195.948391
 31
0.0
 70
   160
  1
DN50
 71
     5
 42
49.999999
 53
90.0
  3
LC-DIM-L-0140-02-02
100
AcDbAlignedDimension
 13
283.969169
 23
313.217865
 33
0.0
 14
287.7553
 24
263.217866
 34
0.0
 50
90.0
100
AcDbRotatedDimension
  0
INSERT
  5
320
330
1F
100
AcDbEntity
  8
LC-003-003-----0
 62
     7
370
    25
100
AcDbBlockReference
  2
LCDIM1
 10
0.0
 20
0.0
 30
0.0
  0
LINE
  5
322
330
1F
100
AcDbEntity
  8
LC-006-103-D00-0
 62
     7
370
    -2
100
AcDbLine
 10
176.373875
 20
491.654244
 30
0.0
 11
176.373875
 21
491.677542
 31
0.0
  0
LINE
  5
323
102
{ACAD_REACTORS
330
3C4
102
}
330
1F
100
AcDbEntity
  8
LC-001-002-----0
 62
     7
370
    50
100
AcDbLine
 10
202.316985
 20
334.221764
 30
0.0
 11
152.255307
 21
334.221764
 31
0.0
  0
LINE
  5
324
102
{ACAD_REACTORS
330
3C4
102
}
330
1F
100
AcDbEntity
  8
LC-001-002-----0
 62
     7
370
    50
100
AcDbLine
 10
40.538565
 20
335.02014
 30
0.0
 11
50.066985
 21
329.518903
 31
0.0
  0
LINE
  5
325
102
{ACAD_REACTORS
330
3C4
102
}
330
1F
100
AcDbEntity
  8
LC-001-002-----0
 62
     7
370
    50
100
AcDbLine
 10
222.316985
 20
335.221102
 30
0.0
 11
222.316985
 21
336.721102
 31
0.0
  0
ARC
  5
327
102
{ACAD_REACTORS
330
3C4
102
}
330
1F
100
AcDbEntity
  8
LC-007-002-RND-0
 62
     7
370
    50
100
AcDbCircle
 10
152.845406
 20
333.721102
 30
0.0
 40
1.5
100
AcDbArc
 50
90.0
 51
120.0
  0
LINE
  5
328
102
{ACAD_REACTORS
330
3C4
102
}
330
1F
100
AcDbEntity
  8
LC-001-002-----0
 62
     7
370
    50
100
AcDbLine
 10
-29.683015
 20
335.221102
 30
0.0
 11
-29.683015
 21
336.721102
 31
0.0
  0
ARC
  5
329
102
{ACAD_REACTORS
330
3C4
102
}
330
1F
100
AcDbEntity
  8
LC-007-002-RND-0
 62
     7
370
    50
100
AcDbCircle
 10
39.788565
 20
333.721102
 30
0.0
 40
1.500000000000025
100
AcDbArc
 50
60.0
 51
90.0
  0
LINE
  5
32A
102
{ACAD_REACTORS
330
3C4
102
}
330
1F
100
AcDbEntity
  8
LC-001-002-----0
 62
     7
370
    50
100
AcDbLine
 10
41.288565
 20
336.319178
 30
0.0
 11
50.816985
 21
330.817942
 31
0.0
  0
LINE
  5
32B
102
{ACAD_REACTORS
330
3C4
102
}
330
1F
100
AcDbEntity
  8
LC-001-002-----0
 62
     7
370
    50
100
AcDbLine
 10
151.345406
 20
336.319178
 30
0.0
 11
141.816985
 21
330.817942
 31
0.0
  0
LINE
  5
32C
102
{ACAD_REACTORS
330
3C4
102
}
330
1F
100
AcDbEntity
  8
LC-001-002-----0
 62
     7
370
    50
100
AcDbLine
 10
50.816985
 20
330.817942
 30
0.0
 11
50.066985
 21
329.518903
 31
0.0
  0
LINE
  5
32D
102
{ACAD_REACTORS
330
3C4
102
}
330
1F
100
AcDbEntity
  8
LC-001-002-----0
 62
     7
370
    50
100
AcDbLine
 10
39.788565
 20
335.221102
 30
0.0
 11
-7.447125
 21
335.221102
 31
0.0
  0
LINE
  5
32E
102
{ACAD_REACTORS
330
3C4
102
}
330
1F
100
AcDbEntity
  8
LC-001-002-----0
 62
     7
370
    50
100
AcDbLine
 10
39.788565
 20
336.721102
 30
0.0
 11
-29.683015
 21
336.721102
 31
0.0
  0
LINE
  5
32F
102
{ACAD_REACTORS
330
3C4
102
}
330
1F
100
AcDbEntity
  8
LC-001-002-----0
 62
     7
370
    50
100
AcDbLine
 10
152.845406
 20
336.721102
 30
0.0
 11
200.903006
 21
336.721102
 31
0.0
  0
ARC
  5
330
102
{ACAD_REACTORS
330
3C4
102
}
330
1F
100
AcDbEntity
  8
LC-007-002-RND-0
 62
     7
370
    50
100
AcDbCircle
 10
39.788565
 20
333.721102
 30
0.0
 40
3.000000000000049
100
AcDbArc
 50
60.0
 51
90.0
  0
ARC
  5
331
102
{ACAD_REACTORS
330
3C4
102
}
330
1F
100
AcDbEntity
  8
LC-007-002-RND-0
 62
     7
370
    50
100
AcDbCircle
 10
152.845406
 20
333.721102
 30
0.0
 40
3.0
100
AcDbArc
 50
90.0
 51
120.0
  0
LINE
  5
332
102
{ACAD_REACTORS
330
3C4
102
}
330
1F
100
AcDbEntity
  8
LC-001-002-----0
 62
     7
370
    50
100
AcDbLine
 10
141.816985
 20
330.817942
 30
0.0
 11
142.566985
 21
329.518903
 31
0.0
  0
LINE
  5
333
102
{ACAD_REACTORS
330
3C4
102
}
330
1F
100
AcDbEntity
  8
LC-001-002-----0
 62
     7
370
    50
100
AcDbLine
 10
152.095406
 20
335.02014
 30
0.0
 11
142.566985
 21
329.518903
 31
0.0
  0
LINE
  5
334
102
{ACAD_REACTORS
330
3C4
102
}
330
1F
100
AcDbEntity
  8
LC-001-002-----0
 62
     7
370
    50
100
AcDbLine
 10
152.845406
 20
335.221102
 30
0.0
 11
200.08151
 21
335.221102
 31
0.0
  0
ARC
  5
335
102
{ACAD_REACTORS
330
3C4
102
}
330
1F
100
AcDbEntity
  8
LC-001-002-----0
 62
     7
370
    50
100
AcDbCircle
 10
-9.683051
 20
337.22126
 30
0.0
 40
2.999999999999997
100
AcDbArc
 50
221.814386
 51
318.185614
  0
ARC
  5
336
102
{ACAD_REACTORS
330
3C4
102
}
330
1F
100
AcDbEntity
  8
LC-001-002-----0
 62
     7
370
    50
100
AcDbCircle
 10
-9.683051
 20
337.22126
 30
0.0
 40
1.500000000000063
100
AcDbArc
 50
199.477658
 51
340.522342
  0
LINE
  5
337
102
{ACAD_REACTORS
330
3C4
102
}
330
1F
100
AcDbEntity
  8
LC-001-002-----0
 62
     7
370
    50
100
AcDbLine
 10
-11.918976
 20
335.221102
 30
0.0
 11
-29.683015
 21
335.221102
 31
0.0
  0
ARC
  5
338
102
{ACAD_REACTORS
330
3C4
102
}
330
1F
100
AcDbEntity
  8
LC-001-002-----0
 62
     7
370
    50
100
AcDbCircle
 10
202.316985
 20
337.221764
 30
0.0
 40
2.500021419200333
100
AcDbArc
 50
233.129896
 51
233.154767
  0
ARC
  5
339
102
{ACAD_REACTORS
330
3C4
102
}
330
1F
100
AcDbEntity
  8
LC-001-002-----0
 62
     7
370
    50
100
AcDbCircle
 10
202.316985
 20
337.221764
 30
0.0
 40
1.000000000000108
100
AcDbArc
 50
210.01076
 51
210.043851
  0
LINE
  5
33A
102
{ACAD_REACTORS
330
3C4
102
}
330
1F
100
AcDbEntity
  8
LC-001-002-----0
 62
     7
370
    50
100
AcDbLine
 10
204.55246
 20
335.221102
 30
0.0
 11
222.316985
 21
335.221102
 31
0.0
  0
ARC
  5
33B
102
{ACAD_REACTORS
330
3C4
102
}
330
1F
100
AcDbEntity
  8
LC-001-002-----0
 62
     7
370
    50
100
AcDbCircle
 10
202.316985
 20
337.221764
 30
0.0
 40
3.000000000000056
100
AcDbArc
 50
221.827297
 51
318.172703
  0
ARC
  5
33C
102
{ACAD_REACTORS
330
3C4
102
}
330
1F
100
AcDbEntity
  8
LC-001-002-----0
 62
     7
370
    50
100
AcDbCircle
 10
202.316985
 20
337.221764
 30
0.0
 40
1.500000000000344
100
AcDbArc
 50
199.49807
 51
340.50193
  0
LINE
  5
33D
102
{ACAD_REACTORS
330
3C4
102
}
330
1F
100
AcDbEntity
  8
LC-001-002-----0
 62
     7
370
    50
100
AcDbLine
 10
200.903006
 20
336.721102
 30
0.0
 11
222.316985
 21
336.721102
 31
0.0
  0
INSERT
  5
361
102
{ACAD_REACTORS
330
3C4
102
}
330
1F
100
AcDbEntity
  8
LC-008-005-----0
 62
     7
370
    25
100
AcDbBlockReference
  2
*X125
 10
0.0
 20
0.0
 30
0.0
  0
INSERT
  5
37F
102
{ACAD_REACTORS
330
3C4
102
}
330
1F
100
AcDbEntity
  8
LC-008-005-----0
 62
     7
370
    25
100
AcDbBlockReference
  2
*X226
 10
0.0
 20
0.0
 30
0.0
  0
LINE
  5
380
102
{ACAD_REACTORS
330
3C4
102
}
330
1F
100
AcDbEntity
  8
LC-001-002-----0
 62
     7
370
    50
100
AcDbLine
 10
40.255305
 20
334.221764
 30
0.0
 11
-9.683051
 21
334.221764
 31
0.0
  0
LINE
  5
381
102
{ACAD_REACTORS
330
3C3
102
}
330
1F
100
AcDbEntity
  8
LC-001-002-----0
 62
     7
370
    50
100
AcDbLine
 10
41.566985
 20
336.30388
 30
0.0
 11
41.566985
 21
336.158432
 31
0.0
  0
LINE
  5
382
102
{ACAD_REACTORS
330
3C3
102
}
330
1F
100
AcDbEntity
  8
LC-001-002-----0
 62
     7
370
    50
100
AcDbLine
 10
50.816985
 20
330.817942
 30
0.0
 11
50.816985
 21
336.30388
 31
0.0
  0
LINE
  5
383
102
{ACAD_REACTORS
330
3C3
102
}
330
1F
100
AcDbEntity
  8
LC-001-002-----0
 62
     7
370
    50
100
AcDbLine
 10
50.816985
 20
330.817942
 30
0.0
 11
48.316985
 21
332.261317
 31
0.0
  0
LINE
  5
384
102
{ACAD_REACTORS
330
3C3
102
}
330
1F
100
AcDbEntity
  8
LC-001-002-----0
 62
     7
370
    50
100
AcDbLine
 10
50.816985
 20
336.30388
 30
0.0
 11
41.566985
 21
336.30388
 31
0.0
  0
LINE
  5
385
102
{ACAD_REACTORS
330
3C3
102
}
330
1F
100
AcDbEntity
  8
LC-001-002-----0
 62
     7
370
    50
100
AcDbLine
 10
48.316985
 20
332.261317
 30
0.0
 11
48.316985
 21
333.80388
 31
0.0
  0
LINE
  5
386
102
{ACAD_REACTORS
330
3C3
102
}
330
1F
100
AcDbEntity
  8
LC-001-002-----0
 62
     7
370
    50
100
AcDbLine
 10
141.816985
 20
330.817942
 30
0.0
 11
141.816985
 21
336.30388
 31
0.0
  0
LINE
  5
387
102
{ACAD_REACTORS
330
3C3
102
}
330
1F
100
AcDbEntity
  8
LC-001-002-----0
 62
     7
370
    50
100
AcDbLine
 10
141.816985
 20
330.817942
 30
0.0
 11
144.316985
 21
332.261317
 31
0.0
  0
LINE
  5
388
102
{ACAD_REACTORS
330
3C3
102
}
330
1F
100
AcDbEntity
  8
LC-001-002-----0
 62
     7
370
    50
100
AcDbLine
 10
141.816985
 20
336.30388
 30
0.0
 11
151.066985
 21
336.30388
 31
0.0
  0
LINE
  5
389
102
{ACAD_REACTORS
330
3C3
102
}
330
1F
100
AcDbEntity
  8
LC-001-002-----0
 62
     7
370
    50
100
AcDbLine
 10
48.316985
 20
333.80388
 30
0.0
 11
45.645188
 21
333.80388
 31
0.0
  0
LINE
  5
38A
102
{ACAD_REACTORS
330
3C3
102
}
330
1F
100
AcDbEntity
  8
LC-001-002-----0
 62
     7
370
    50
100
AcDbLine
 10
45.645188
 20
333.80388
 30
0.0
 11
41.566985
 21
336.158432
 31
0.0
  0
LINE
  5
38B
102
{ACAD_REACTORS
330
3C3
102
}
330
1F
100
AcDbEntity
  8
LC-001-002-----0
 62
     7
370
    50
100
AcDbLine
 10
144.316985
 20
333.80388
 30
0.0
 11
146.988782
 21
333.80388
 31
0.0
  0
LINE
  5
38C
102
{ACAD_REACTORS
330
3C3
102
}
330
1F
100
AcDbEntity
  8
LC-001-002-----0
 62
     7
370
    50
100
AcDbLine
 10
144.316985
 20
332.261317
 30
0.0
 11
144.316985
 21
333.80388
 31
0.0
  0
LINE
  5
38D
102
{ACAD_REACTORS
330
3C3
102
}
330
1F
100
AcDbEntity
  8
LC-001-002-----0
 62
     7
370
    50
100
AcDbLine
 10
146.988782
 20
333.80388
 30
0.0
 11
151.066985
 21
336.158432
 31
0.0
  0
INSERT
  5
397
102
{ACAD_REACTORS
330
3C3
102
}
330
1F
100
AcDbEntity
  8
LC-008-005-----0
 62
     7
370
    25
100
AcDbBlockReference
  2
*X327
 10
0.0
 20
0.0
 30
0.0
  0
LINE
  5
398
102
{ACAD_REACTORS
330
3C3
102
}
330
1F
100
AcDbEntity
  8
LC-001-002-----0
 62
     7
370
    50
100
AcDbLine
 10
151.066985
 20
336.30388
 30
0.0
 11
151.066985
 21
336.158432
 31
0.0
  0
DIMENSION
  5
399
330
1F
100
AcDbEntity
  8
LC-003-003-----0
 62
     7
370
    25
100
AcDbDimension
  2
*D28
 10
-41.219809
 20
336.721102
 30
0.0
 11
-72.019809
 21
288.928662
 31
0.0
 70
   160
  1
90
 71
     5
 42
89.003237
 53
90.0
  3
LC-DIM-L-0140-02-02
100
AcDbAlignedDimension
 13
77.092999
 23
247.717865
 33
0.0
 14
-29.683015
 24
336.721102
 34
0.0
 50
90.0
100
AcDbRotatedDimension
  0
DIMENSION
  5
3A6
330
1F
100
AcDbEntity
  8
LC-003-003-----0
 62
     7
370
    25
100
AcDbDimension
  2
*D29
 10
20.154619
 20
316.513075
 30
0.0
 11
-10.645381
 21
301.288548
 31
0.0
 70
   160
  1
50
 71
     5
 42
49.909191
 53
90.0
  3
LC-DIM-L-0140-02-02
100
AcDbAlignedDimension
 13
77.255305
 23
266.603885
 33
0.0
 14
66.387262
 24
316.513075
 34
0.0
 50
90.0
100
AcDbRotatedDimension
  0
DIMENSION
  5
3B5
330
1F
100
AcDbEntity
  8
LC-003-003-----0
 62
     7
370
    25
100
AcDbDimension
  2
*D30
 10
222.316985
 20
361.080391
 30
0.0
 11
95.695701
 21
391.880391
 31
0.0
 70
   160
  1
%%c<>
 71
     5
 42
252.0
  3
LC-DIM-L-0140-02-02
100
AcDbAlignedDimension
 13
-29.683015
 23
336.721102
 33
0.0
 14
222.316985
 24
336.721102
 34
0.0
100
AcDbRotatedDimension
  0
ENDSEC
  0
SECTION
  2
OBJECTS
  0
DICTIONARY
  5
C
330
0
100
AcDbDictionary
281
     1
  3
ACAD_GROUP
350
D
  3
ACAD_LAYOUT
350
1A
  3
ACAD_MLINESTYLE
350
17
  3
ACAD_PLOTSETTINGS
350
19
  3
ACAD_PLOTSTYLENAME
350
E
  0
DICTIONARY
  5
D
102
{ACAD_REACTORS
330
C
102
}
330
C
100
AcDbDictionary
281
     1
  3
LCGROUP10
350
3C2
  3
LCGROUP1076
350
3C4
  3
LCGROUP1154
350
3C3
  0
DICTIONARY
  5
1A
102
{ACAD_REACTORS
330
C
102
}
330
C
100
AcDbDictionary
281
     1
  3
Layout1
350
1E
  3
Layout2
350
26
  3
Model
350
22
  0
DICTIONARY
  5
17
102
{ACAD_REACTORS
330
C
102
}
330
C
100
AcDbDictionary
281
     1
  3
Standard
350
18
  0
DICTIONARY
  5
19
102
{ACAD_REACTORS
330
C
102
}
330
C
100
AcDbDictionary
281
     1
  0
ACDBDICTIONARYWDFLT
  5
E
102
{ACAD_REACTORS
330
C
102
}
330
C
100
AcDbDictionary
281
     1
  3
Normal
350
F
100
AcDbDictionaryWithDefault
340
F
  0
GROUP
  5
3C2
102
{ACAD_REACTORS
330
D
102
}
330
D
100
AcDbGroup
300
Geruchverschluss
 70
     1
 71
     1
340
32
340
38
340
39
340
3A
340
3B
340
3C
340
3D
340
3E
340
3F
340
40
340
41
340
42
340
43
340
44
340
45
340
46
340
47
340
48
340
49
340
4A
340
4B
340
4C
340
4D
340
4E
340
4F
340
50
340
51
340
52
340
53
340
54
340
55
340
56
340
57
340
58
340
59
340
118
340
119
340
11A
340
11B
340
11C
340
11D
340
11E
340
11F
340
120
340
121
340
122
340
123
340
124
340
125
340
126
340
127
340
128
340
129
340
12A
340
12B
340
12C
340
12D
340
12E
340
12F
340
130
340
131
340
132
340
133
340
134
340
135
340
136
340
137
340
138
340
139
340
13A
340
13B
340
13C
340
13D
340
13E
340
13F
340
140
340
141
340
142
340
143
340
144
340
145
340
146
340
147
340
148
340
149
340
14A
340
14B
340
14C
340
14D
340
14E
340
14F
340
150
340
151
340
152
340
153
340
154
340
155
340
156
340
157
340
158
340
159
340
15A
340
15B
340
15C
340
15D
340
15E
340
15F
340
160
340
161
340
16D
340
16E
340
16F
340
17B
340
17C
340
17D
340
1A8
340
1A9
340
1F1
340
1FF
340
213
340
214
340
2A7
340
2B8
340
2BB
  0
GROUP
  5
3C4
102
{ACAD_REACTORS
330
D
102
}
330
D
100
AcDbGroup
300
Blech
 70
     1
 71
     1
340
323
340
324
340
325
340
327
340
328
340
329
340
32A
340
32B
340
32C
340
32D
340
32E
340
32F
340
330
340
331
340
332
340
333
340
334
340
335
340
336
340
337
340
338
340
339
340
33A
340
33B
340
33C
340
33D
340
361
340
37F
340
380
  0
GROUP
  5
3C3
102
{ACAD_REACTORS
330
D
102
}
330
D
100
AcDbGroup
300
Ring
 70
     1
 71
     1
340
381
340
382
340
383
340
384
340
385
340
386
340
387
340
388
340
389
340
38A
340
38B
340
38C
340
38D
340
397
340
398
  0
LAYOUT
  5
1E
102
{ACAD_REACTORS
330
1A
102
}
330
1A
100
AcDbPlotSettings
  1

  2

  4

  6

 40
0.0
 41
0.0
 42
0.0
 43
0.0
 44
0.0
 45
0.0
 46
0.0
 47
0.0
 48
0.0
 49
0.0
140
0.0
141
0.0
142
1.0
143
1.0
 70
   688
 72
     0
 73
     0
 74
     5
  7

 75
    16
147
1.0
148
0.0
149
0.0
100
AcDbLayout
  1
Layout1
 70
     1
 71
     1
 10
-118.782642
 20
-86.201609
 11
721.217358
 21
507.798391
 12
0.0
 22
0.0
 32
0.0
 14
-118.782642
 24
-86.201609
 34
0.0
 15
721.217358
 25
507.798391
 35
0.0
146
0.0
 13
0.0
 23
0.0
 33
0.0
 16
1.0
 26
0.0
 36
0.0
 17
0.0
 27
1.0
 37
0.0
 76
     0
330
1B
  0
LAYOUT
  5
26
102
{ACAD_REACTORS
330
1A
102
}
330
1A
100
AcDbPlotSettings
  1

  2

  4

  6

 40
0.0
 41
0.0
 42
0.0
 43
0.0
 44
0.0
 45
0.0
 46
0.0
 47
0.0
 48
0.0
 49
0.0
140
0.0
141
0.0
142
1.0
143
1.0
 70
   688
 72
     0
 73
     0
 74
     5
  7

 75
    16
147
1.0
148
0.0
149
0.0
100
AcDbLayout
  1
Layout2
 70
     1
 71
     2
 10
0.0
 20
0.0
 11
0.0
 21
0.0
 12
0.0
 22
0.0
 32
0.0
 14
0.0
 24
0.0
 34
0.0
 15
0.0
 25
0.0
 35
0.0
146
0.0
 13
0.0
 23
0.0
 33
0.0
 16
1.0
 26
0.0
 36
0.0
 17
0.0
 27
1.0
 37
0.0
 76
     0
330
23
  0
LAYOUT
  5
22
102
{ACAD_REACTORS
330
1A
102
}
330
1A
100
AcDbPlotSettings
  1

  2

  4

  6

 40
0.0
 41
0.0
 42
0.0
 43
0.0
 44
0.0
 45
0.0
 46
0.0
 47
0.0
 48
0.0
 49
0.0
140
0.0
141
0.0
142
1.0
143
1.0
 70
  1776
 72
     0
 73
     0
 74
     0
  7

 75
     0
147
1.0
148
0.0
149
0.0
100
AcDbLayout
  1
Model
 70
     1
 71
     0
 10
-118.782642
 20
-86.201609
 11
721.217358
 21
507.798391
 12
0.0
 22
0.0
 32
0.0
 14
-118.782642
 24
-86.201609
 34
0.0
 15
721.217358
 25
507.798391
 35
0.0
146
0.0
 13
0.0
 23
0.0
 33
0.0
 16
1.0
 26
0.0
 36
0.0
 17
0.0
 27
1.0
 37
0.0
 76
     0
330
1F
  0
MLINESTYLE
  5
18
102
{ACAD_REACTORS
330
17
102
}
330
17
100
AcDbMlineStyle
  2
Standard
 70
     0
  3

 62
   256
 51
90.0
 52
90.0
 71
     2
 49
0.5
 62
   256
  6
BYLAYER
 49
-0.5
 62
   256
  6
BYLAYER
  0
ACDBPLACEHOLDER
  5
F
102
{ACAD_REACTORS
330
E
102
}
330
E
  0
ENDSEC
  0
EOF
