  0
SECTION
  2
HEADER
  9
$ACADVER
  1
AC1009
  9
$INSBASE
 10
0.0
 20
0.0
 30
0.0
  9
$EXTMIN
 10
-123.0
 20
-87.0
 30
0.0
  9
$EXTMAX
 10
717.0
 20
507.0
 30
0.0
  9
$LIMMIN
 10
-123.0
 20
-87.0
  9
$LIMMAX
 10
717.0
 20
507.0
  9
$ORTHOMODE
 70
     0
  9
$REGENMODE
 70
     1
  9
$FILLMODE
 70
     1
  9
$QTEXTMODE
 70
     0
  9
$MIRRTEXT
 70
     1
  9
$DRAGMODE
 70
     2
  9
$LTSCALE
 40
2.0
  9
$OSMODE
 70
     0
  9
$ATTMODE
 70
     1
  9
$TEXTSIZE
 40
0.2
  9
$TRACEWID
 40
0.05
  9
$TEXTSTYLE
  7
STANDARD
  9
$CLAYER
  8
0
  9
$CELTYPE
  6
BYLAYER
  9
$CECOLOR
 62
     7
  9
$DIMSCALE
 40
2.0
  9
$DIMASZ
 40
3.5
  9
$DIMEXO
 40
0.0625
  9
$DIMDLI
 40
0.38
  9
$DIMRND
 40
0.0
  9
$DIMDLE
 40
0.0
  9
$DIMEXE
 40
0.18
  9
$DIMTP
 40
0.0
  9
$DIMTM
 40
0.0
  9
$DIMTXT
 40
3.5
  9
$DIMCEN
 40
0.09
  9
$DIMTSZ
 40
0.0
  9
$DIMTOL
 70
     0
  9
$DIMLIM
 70
     0
  9
$DIMTIH
 70
     1
  9
$DIMTOH
 70
     1
  9
$DIMSE1
 70
     0
  9
$DIMSE2
 70
     0
  9
$DIMTAD
 70
     1
  9
$DIMZIN
 70
     0
  9
$DIMBLK
  1

  9
$DIMASO
 70
     1
  9
$DIMSHO
 70
     1
  9
$DIMPOST
  1

  9
$DIMAPOST
  1

  9
$DIMALT
 70
     0
  9
$DIMALTD
 70
     2
  9
$DIMALTF
 40
25.4
  9
$DIMLFAC
 40
1.0
  9
$DIMTOFL
 70
     0
  9
$DIMTVP
 40
0.0
  9
$DIMTIX
 70
     0
  9
$DIMSOXD
 70
     0
  9
$DIMSAH
 70
     0
  9
$DIMBLK1
  1

  9
$DIMBLK2
  1

  9
$DIMSTYLE
  2
STANDARD
  9
$DIMCLRD
 70
     0
  9
$DIMCLRE
 70
     0
  9
$DIMCLRT
 70
     0
  9
$DIMTFAC
 40
1.0
  9
$DIMGAP
 40
0.09
  9
$LUNITS
 70
     2
  9
$LUPREC
 70
     2
  9
$AXISMODE
 70
     0
  9
$AXISUNIT
 10
0.0
 20
0.0
  9
$SKETCHINC
 40
0.1
  9
$FILLETRAD
 40
0.0
  9
$AUNITS
 70
     0
  9
$AUPREC
 70
     0
  9
$MENU
  1
acad
  9
$ELEVATION
 40
0.0
  9
$PELEVATION
 40
0.0
  9
$THICKNESS
 40
0.0
  9
$LIMCHECK
 70
     0
  9
$BLIPMODE
 70
     1
  9
$CHAMFERA
 40
0.0
  9
$CHAMFERB
 40
0.0
  9
$SKPOLY
 70
     0
  9
$TDCREATE
 40
0.000000000
  9
$TDUPDATE
 40
0.000000000
  9
$TDINDWG
 40
0.0000000000
  9
$TDUSRTIMER
 40
0.0000000000
  9
$USRTIMER
 70
     1
  9
$ANGBASE
 50
0.0
  9
$ANGDIR
 70
     0
  9
$PDMODE
 70
     0
  9
$PDSIZE
 40
0.0
  9
$PLINEWID
 40
0.0
  9
$COORDS
 70
     0
  9
$SPLFRAME
 70
     0
  9
$SPLINETYPE
 70
     6
  9
$SPLINESEGS
 70
     8
  9
$ATTDIA
 70
     0
  9
$ATTREQ
 70
     1
  9
$HANDLING
 70
     1
  9
$HANDSEED
  5
108
  9
$SURFTAB1
 70
     6
  9
$SURFTAB2
 70
     6
  9
$SURFTYPE
 70
     6
  9
$SURFU
 70
     6
  9
$SURFV
 70
     6
  9
$UCSNAME
  2

  9
$UCSORG
 10
0.0
 20
0.0
 30
0.0
  9
$UCSXDIR
 10
1.0
 20
0.0
 30
0.0
  9
$UCSYDIR
 10
0.0
 20
1.0
 30
0.0
  9
$PUCSNAME
  2

  9
$PUCSORG
 10
0.0
 20
0.0
 30
0.0
  9
$PUCSXDIR
 10
1.0
 20
0.0
 30
0.0
  9
$PUCSYDIR
 10
0.0
 20
1.0
 30
0.0
  9
$USERI1
 70
     0
  9
$USERI2
 70
     0
  9
$USERI3
 70
     0
  9
$USERI4
 70
     0
  9
$USERI5
 70
     0
  9
$USERR1
 40
0.0
  9
$USERR2
 40
0.0
  9
$USERR3
 40
0.0
  9
$USERR4
 40
0.0
  9
$USERR5
 40
0.0
  9
$WORLDVIEW
 70
     1
  9
$SHADEDGE
 70
     3
  9
$SHADEDIF
 70
    70
  9
$TILEMODE
 70
     1
  9
$MAXACTVP
 70
    16
  9
$PINSBASE
 10
0.0
 20
0.0
 30
0.0
  9
$PLIMCHECK
 70
     0
  9
$PEXTMIN
 10
1.000000E+20
 20
1.000000E+20
 30
1.000000E+20
  9
$PEXTMAX
 10
-1.000000E+20
 20
-1.000000E+20
 30
-1.000000E+20
  9
$PLIMMIN
 10
-123.0
 20
-87.0
  9
$PLIMMAX
 10
717.0
 20
507.0
  9
$UNITMODE
 70
     0
  9
$VISRETAIN
 70
     0
  9
$PLINEGEN
 70
     1
  9
$PSLTSCALE
 70
     0
  9
$TREEDEPTH
 70
  3020
  9
$DWGCODEPAGE
  3
dos850
  0
ENDSEC
  0
SECTION
  2
TABLES
  0
TABLE
  2
VPORT
 70
     1
  0
VPORT
  2
*ACTIVE
 70
     0
 10
0.0
 20
0.0
 11
1.0
 21
1.0
 12
420.0
 22
297.0
 13
0.0
 23
0.0
 14
1.0
 24
1.0
 15
0.0
 25
0.0
 16
0.0
 26
0.0
 36
1.0
 17
-123.0
 27
-87.0
 37
0.0
 40
594.0
 41
1.604229
 42
50.0
 43
0.0
 44
0.0
 50
0.0
 51
0.0
 71
     0
 72
   100
 73
     1
 74
     1
 75
     0
 76
     0
 77
     0
 78
     0
  0
ENDTAB
  0
TABLE
  2
LTYPE
 70
     3
  0
LTYPE
  2
CONTINUOUS
 70
    64
  3
Solid line
 72
    65
 73
     0
 40
0.0
  0
LTYPE
  2
DASHED
 70
    64
  3
__ __ __ __ __
 72
    65
 73
     2
 40
6.25
 49
5.0
 49
-1.25
  0
LTYPE
  2
DASHDOT
 70
    64
  3
__ . __ . __ . __ . __
 72
    65
 73
     4
 40
7.5
 49
5.0
 49
-1.25
 49
0.0
 49
-1.25
  0
ENDTAB
  0
TABLE
  2
LAYER
 70
     9
  0
LAYER
  2
0
 70
     0
 62
     7
  6
CONTINUOUS
  0
LAYER
  2
LC-INFO-1-2-MM-A3-0
 70
     1
 62
    -1
  6
CONTINUOUS
  0
LAYER
  2
LC-003-003-MTH-0
 70
     0
 62
     2
  6
CONTINUOUS
  0
LAYER
  2
LC-004-003-MTG-0
 70
     0
 62
     2
  6
CONTINUOUS
  0
LAYER
  2
LC-002-003-----0
 70
     0
 62
     2
  6
CONTINUOUS
  0
LAYER
  2
LC-006-000-----0
 70
     0
 62
     7
  6
CONTINUOUS
  0
LAYER
  2
LC-001-002-----0
 70
     0
 62
     2
  6
DASHED
  0
LAYER
  2
LC-005-002-RND-0
 70
     0
 62
     1
  6
CONTINUOUS
  0
LAYER
  2
LC-000
 70
     0
 62
     7
  6
CONTINUOUS
  0
ENDTAB
  0
TABLE
  2
STYLE
 70
     4
  0
STYLE
  2
STANDARD
 70
     0
 40
0.0
 41
1.0
 50
0.0
 71
     0
 42
0.0
  3
txt
  4

  0
STYLE
  2
LC-STANDARD
 70
    64
 40
0.0
 41
1.0
 50
0.0
 71
     0
 42
3.5
  3
MONOTXT
  4

  0
STYLE
  2
LC-TXTSTYLE-150-400-0-0-D2
 70
    64
 40
0.0
 41
1.0
 50
15.0
 71
     0
 42
3.5
  3
MONOTXT
  4

  0
STYLE
  2
LC-TXTSTYLE-150-400-0-0-D3
 70
    64
 40
0.0
 41
1.0
 50
15.0
 71
     0
 42
3.5
  3
LC-STANDARD
  4

  0
ENDTAB
  0
TABLE
  2
VIEW
 70
     0
  0
ENDTAB
  0
TABLE
  2
UCS
 70
     0
  0
ENDTAB
  0
TABLE
  2
APPID
 70
     1
  0
APPID
  2
ACAD
 70
     0
  0
ENDTAB
  0
TABLE
  2
DIMSTYLE
 70
     4
  0
DIMSTYLE
  2
STANDARD
 70
     0
  3

  4

  5

  6

  7

 40
1.0
 41
0.18
 42
0.0625
 43
0.38
 44
0.18
 45
0.0
 46
0.0
 47
0.0
 48
0.0
 71
     0
 72
     0
 73
     1
 74
     1
 75
     0
 76
     0
 77
     0
 78
     0
140
0.18
141
0.09
142
0.0
143
25.4
144
1.0
145
0.0
146
1.0
147
0.09
170
     0
171
     2
172
     0
173
     0
174
     0
175
     0
176
     0
177
     0
178
     0
  0
DIMSTYLE
  2
LC-STANDARD
 70
     0
  3

  4

  5

  6

  7

 40
1.0
 41
3.5
 42
0.0
 43
7.5
 44
1.8
 45
0.0
 46
0.0
 47
0.0
 48
0.0
 71
     0
 72
     0
 73
     0
 74
     0
 75
     0
 76
     0
 77
     1
 78
     8
140
3.5
141
0.0
142
0.0
143
25.4
144
1.0
145
0.0
146
0.71
147
1.5
170
     0
171
     2
172
     1
173
     0
174
     0
175
     0
176
     0
177
     0
178
     3
  0
DIMSTYLE
  2
LC-DIM-L-0090-02-02
 70
     0
  3

  4

  5

  6

  7

 40
2.0
 41
3.5
 42
0.0
 43
7.5
 44
1.8
 45
0.0
 46
0.0
 47
0.0
 48
0.0
 71
     0
 72
     0
 73
     0
 74
     0
 75
     0
 76
     0
 77
     1
 78
     8
140
9.0
141
0.0
142
0.0
143
25.4
144
1.0
145
0.0
146
0.71
147
1.5
170
     0
171
     2
172
     0
173
     0
174
     0
175
     0
176
     2
177
     2
178
     6
  0
DIMSTYLE
  2
LC-DIM-L-0090-01-02
 70
     0
  3

  4

  5

  6

  7

 40
2.0
 41
3.5
 42
0.0
 43
7.5
 44
1.8
 45
0.0
 46
0.0
 47
0.0
 48
0.0
 71
     0
 72
     0
 73
     0
 74
     0
 75
     0
 76
     0
 77
     1
 78
     8
140
9.0
141
0.0
142
0.0
143
25.4
144
1.0
145
0.0
146
0.71
147
1.5
170
     0
171
     2
172
     0
173
     0
174
     0
175
     0
176
     2
177
     2
178
     6
  0
ENDTAB
  0
ENDSEC
  0
SECTION
  2
BLOCKS
  0
BLOCK
  8
0
  5
24
  2
*D0
 70
    65
 10
0.0
 20
0.0
 30
0.0
  3
*D0
  0
LINE
  8
LC-003-003-MTH-0
  6
CONTINUOUS
  5
26
 10
148.872028
 20
106.057158
 30
0.0
 11
148.872028
 21
370.8
 31
0.0
  0
LINE
  8
LC-003-003-MTH-0
  6
CONTINUOUS
  5
27
 10
268.872028
 20
106.057158
 30
0.0
 11
268.872028
 21
370.8
 31
0.0
  0
LINE
  8
LC-004-003-MTG-0
  6
CONTINUOUS
  5
29
 10
148.872028
 20
360.0
 30
0.0
 11
268.872028
 21
360.0
 31
0.0
  0
LINE
  8
LC-002-003-----0
  6
CONTINUOUS
  5
2B
 10
166.718035
 20
362.349471
 30
0.0
 11
148.872028
 21
360.0
 31
0.0
  0
LINE
  8
LC-002-003-----0
  6
CONTINUOUS
  5
2C
 10
148.872028
 20
360.0
 30
0.0
 11
166.718035
 21
357.650529
 31
0.0
  0
LINE
  8
LC-002-003-----0
  6
CONTINUOUS
  5
2D
 10
166.718035
 20
357.650529
 30
0.0
 11
166.718035
 21
362.349471
 31
0.0
  0
LINE
  8
LC-002-003-----0
  6
CONTINUOUS
  5
2E
 10
166.758073
 20
361.738609
 30
0.0
 11
153.552028
 21
360.0
 31
0.0
  0
LINE
  8
LC-002-003-----0
  6
CONTINUOUS
  5
2F
 10
153.552028
 20
360.0
 30
0.0
 11
166.758073
 21
358.261391
 31
0.0
  0
LINE
  8
LC-002-003-----0
  6
CONTINUOUS
  5
30
 10
166.798111
 20
361.127746
 30
0.0
 11
158.232028
 21
360.0
 31
0.0
  0
LINE
  8
LC-002-003-----0
  6
CONTINUOUS
  5
31
 10
158.232028
 20
360.0
 30
0.0
 11
166.798111
 21
358.872254
 31
0.0
  0
LINE
  8
LC-002-003-----0
  6
CONTINUOUS
  5
32
 10
166.838149
 20
360.516884
 30
0.0
 11
162.912028
 21
360.0
 31
0.0
  0
LINE
  8
LC-002-003-----0
  6
CONTINUOUS
  5
33
 10
162.912028
 20
360.0
 30
0.0
 11
166.838149
 21
359.483116
 31
0.0
  0
LINE
  8
LC-002-003-----0
  6
CONTINUOUS
  5
34
 10
251.02602
 20
357.650529
 30
0.0
 11
268.872028
 21
360.0
 31
0.0
  0
LINE
  8
LC-002-003-----0
  6
CONTINUOUS
  5
35
 10
268.872028
 20
360.0
 30
0.0
 11
251.02602
 21
362.349471
 31
0.0
  0
LINE
  8
LC-002-003-----0
  6
CONTINUOUS
  5
36
 10
251.02602
 20
362.349471
 30
0.0
 11
251.02602
 21
357.650529
 31
0.0
  0
LINE
  8
LC-002-003-----0
  6
CONTINUOUS
  5
37
 10
250.985982
 20
358.261391
 30
0.0
 11
264.192028
 21
360.0
 31
0.0
  0
LINE
  8
LC-002-003-----0
  6
CONTINUOUS
  5
38
 10
264.192028
 20
360.0
 30
0.0
 11
250.985982
 21
361.738609
 31
0.0
  0
LINE
  8
LC-002-003-----0
  6
CONTINUOUS
  5
39
 10
250.945944
 20
358.872254
 30
0.0
 11
259.512028
 21
360.0
 31
0.0
  0
LINE
  8
LC-002-003-----0
  6
CONTINUOUS
  5
3A
 10
259.512028
 20
360.0
 30
0.0
 11
250.945944
 21
361.127746
 31
0.0
  0
LINE
  8
LC-002-003-----0
  6
CONTINUOUS
  5
3B
 10
250.905906
 20
359.483116
 30
0.0
 11
254.832028
 21
360.0
 31
0.0
  0
LINE
  8
LC-002-003-----0
  6
CONTINUOUS
  5
3C
 10
254.832028
 20
360.0
 30
0.0
 11
250.905906
 21
360.516884
 31
0.0
  0
TEXT
  8
LC-002-003-----0
  6
CONTINUOUS
 62
     6
  5
3E
 10
188.772584
 20
370.431999
 30
0.0
 40
18.0
  1
120
 41
0.9
 51
15.0
  7
LC-TXTSTYLE-150-400-0-0-D0
 72
     2
 11
227.0403
 21
370.431999
 31
0.0
  0
ENDBLK
  8
0
  5
3F
  0
BLOCK
  8
0
  5
41
  2
*D1
 70
    65
 10
0.0
 20
0.0
 30
0.0
  3
*D1
  0
LINE
  8
LC-003-003-MTH-0
  6
CONTINUOUS
  5
42
 10
268.857371
 20
153.514679
 30
0.0
 11
334.8
 21
153.514679
 31
0.0
  0
LINE
  8
LC-003-003-MTH-0
  6
CONTINUOUS
  5
43
 10
268.857371
 20
233.514679
 30
0.0
 11
334.8
 21
233.514679
 31
0.0
  0
LINE
  8
LC-004-003-MTG-0
  6
CONTINUOUS
  5
44
 10
324.0
 20
153.514679
 30
0.0
 11
324.0
 21
233.514679
 31
0.0
  0
LINE
  8
LC-002-003-----0
  6
CONTINUOUS
  5
45
 10
321.650529
 20
171.360686
 30
0.0
 11
324.0
 21
153.514679
 31
0.0
  0
LINE
  8
LC-002-003-----0
  6
CONTINUOUS
  5
46
 10
324.0
 20
153.514679
 30
0.0
 11
326.349471
 21
171.360686
 31
0.0
  0
LINE
  8
LC-002-003-----0
  6
CONTINUOUS
  5
47
 10
326.349471
 20
171.360686
 30
0.0
 11
321.650529
 21
171.360686
 31
0.0
  0
LINE
  8
LC-002-003-----0
  6
CONTINUOUS
  5
48
 10
322.261391
 20
171.400724
 30
0.0
 11
324.0
 21
158.194679
 31
0.0
  0
LINE
  8
LC-002-003-----0
  6
CONTINUOUS
  5
49
 10
324.0
 20
158.194679
 30
0.0
 11
325.738609
 21
171.400724
 31
0.0
  0
LINE
  8
LC-002-003-----0
  6
CONTINUOUS
  5
4A
 10
322.872254
 20
171.440762
 30
0.0
 11
324.0
 21
162.874679
 31
0.0
  0
LINE
  8
LC-002-003-----0
  6
CONTINUOUS
  5
4B
 10
324.0
 20
162.874679
 30
0.0
 11
325.127746
 21
171.440762
 31
0.0
  0
LINE
  8
LC-002-003-----0
  6
CONTINUOUS
  5
4C
 10
323.483116
 20
171.4808
 30
0.0
 11
324.0
 21
167.554679
 31
0.0
  0
LINE
  8
LC-002-003-----0
  6
CONTINUOUS
  5
4D
 10
324.0
 20
167.554679
 30
0.0
 11
324.516884
 21
171.4808
 31
0.0
  0
LINE
  8
LC-002-003-----0
  6
CONTINUOUS
  5
4E
 10
326.349471
 20
215.668671
 30
0.0
 11
324.0
 21
233.514679
 31
0.0
  0
LINE
  8
LC-002-003-----0
  6
CONTINUOUS
  5
4F
 10
324.0
 20
233.514679
 30
0.0
 11
321.650529
 21
215.668671
 31
0.0
  0
LINE
  8
LC-002-003-----0
  6
CONTINUOUS
  5
50
 10
321.650529
 20
215.668671
 30
0.0
 11
326.349471
 21
215.668671
 31
0.0
  0
LINE
  8
LC-002-003-----0
  6
CONTINUOUS
  5
51
 10
325.738609
 20
215.628633
 30
0.0
 11
324.0
 21
228.834679
 31
0.0
  0
LINE
  8
LC-002-003-----0
  6
CONTINUOUS
  5
52
 10
324.0
 20
228.834679
 30
0.0
 11
322.261391
 21
215.628633
 31
0.0
  0
LINE
  8
LC-002-003-----0
  6
CONTINUOUS
  5
53
 10
325.127746
 20
215.588595
 30
0.0
 11
324.0
 21
224.154679
 31
0.0
  0
LINE
  8
LC-002-003-----0
  6
CONTINUOUS
  5
54
 10
324.0
 20
224.154679
 30
0.0
 11
322.872254
 21
215.588595
 31
0.0
  0
LINE
  8
LC-002-003-----0
  6
CONTINUOUS
  5
55
 10
324.516884
 20
215.548557
 30
0.0
 11
324.0
 21
219.474679
 31
0.0
  0
LINE
  8
LC-002-003-----0
  6
CONTINUOUS
  5
56
 10
324.0
 20
219.474679
 30
0.0
 11
323.483116
 21
215.548557
 31
0.0
  0
TEXT
  8
LC-002-003-----0
  6
CONTINUOUS
 62
     6
  5
57
 10
313.568001
 20
184.446932
 30
0.0
 40
18.0
  1
80
 50
90.0
 51
15.0
  7
LC-TXTSTYLE-150-400-0-0-D0
 72
     1
 11
313.568001
 21
196.309924
 31
0.0
  0
ENDBLK
  8
0
  5
58
  0
BLOCK
  8
0
  5
5A
  2
*D2
 70
    65
 10
0.0
 20
0.0
 30
0.0
  3
*D2
  0
LINE
  8
LC-003-003-MTH-0
  6
CONTINUOUS
  5
5B
 10
208.872028
 20
283.557158
 30
0.0
 11
208.872028
 21
334.8
 31
0.0
  0
LINE
  8
LC-003-003-MTH-0
  6
CONTINUOUS
  5
5C
 10
238.864702
 20
290.690072
 30
0.0
 11
238.864702
 21
334.8
 31
0.0
  0
LINE
  8
LC-002-003-----0
  6
CONTINUOUS
  5
5D
 10
191.02602
 20
321.650529
 30
0.0
 11
208.872028
 21
324.0
 31
0.0
  0
LINE
  8
LC-002-003-----0
  6
CONTINUOUS
  5
5E
 10
208.872028
 20
324.0
 30
0.0
 11
191.02602
 21
326.349471
 31
0.0
  0
LINE
  8
LC-002-003-----0
  6
CONTINUOUS
  5
5F
 10
191.02602
 20
326.349471
 30
0.0
 11
191.02602
 21
321.650529
 31
0.0
  0
LINE
  8
LC-002-003-----0
  6
CONTINUOUS
  5
60
 10
190.985982
 20
322.261391
 30
0.0
 11
204.192028
 21
324.0
 31
0.0
  0
LINE
  8
LC-002-003-----0
  6
CONTINUOUS
  5
61
 10
204.192028
 20
324.0
 30
0.0
 11
190.985982
 21
325.738609
 31
0.0
  0
LINE
  8
LC-002-003-----0
  6
CONTINUOUS
  5
62
 10
190.945944
 20
322.872254
 30
0.0
 11
199.512028
 21
324.0
 31
0.0
  0
LINE
  8
LC-002-003-----0
  6
CONTINUOUS
  5
63
 10
199.512028
 20
324.0
 30
0.0
 11
190.945944
 21
325.127746
 31
0.0
  0
LINE
  8
LC-002-003-----0
  6
CONTINUOUS
  5
64
 10
190.905906
 20
323.483116
 30
0.0
 11
194.832028
 21
324.0
 31
0.0
  0
LINE
  8
LC-002-003-----0
  6
CONTINUOUS
  5
65
 10
194.832028
 20
324.0
 30
0.0
 11
190.905906
 21
324.516884
 31
0.0
  0
LINE
  8
LC-002-003-----0
  6
CONTINUOUS
  5
66
 10
256.710709
 20
326.349471
 30
0.0
 11
238.864702
 21
324.0
 31
0.0
  0
LINE
  8
LC-002-003-----0
  6
CONTINUOUS
  5
67
 10
238.864702
 20
324.0
 30
0.0
 11
256.710709
 21
321.650529
 31
0.0
  0
LINE
  8
LC-002-003-----0
  6
CONTINUOUS
  5
68
 10
256.710709
 20
321.650529
 30
0.0
 11
256.710709
 21
326.349471
 31
0.0
  0
LINE
  8
LC-002-003-----0
  6
CONTINUOUS
  5
69
 10
256.750747
 20
325.738609
 30
0.0
 11
243.544702
 21
324.0
 31
0.0
  0
LINE
  8
LC-002-003-----0
  6
CONTINUOUS
  5
6A
 10
243.544702
 20
324.0
 30
0.0
 11
256.750747
 21
322.261391
 31
0.0
  0
LINE
  8
LC-002-003-----0
  6
CONTINUOUS
  5
6B
 10
256.790785
 20
325.127746
 30
0.0
 11
248.224702
 21
324.0
 31
0.0
  0
LINE
  8
LC-002-003-----0
  6
CONTINUOUS
  5
6C
 10
248.224702
 20
324.0
 30
0.0
 11
256.790785
 21
322.872254
 31
0.0
  0
LINE
  8
LC-002-003-----0
  6
CONTINUOUS
  5
6D
 10
256.830823
 20
324.516884
 30
0.0
 11
252.904702
 21
324.0
 31
0.0
  0
LINE
  8
LC-002-003-----0
  6
CONTINUOUS
  5
6E
 10
252.904702
 20
324.0
 30
0.0
 11
256.830823
 21
323.483116
 31
0.0
  0
LINE
  8
LC-004-003-MTG-0
  6
CONTINUOUS
  5
6F
 10
150.869508
 20
324.0
 30
0.0
 11
264.064702
 21
324.0
 31
0.0
  0
TEXT
  8
LC-002-003-----0
  6
CONTINUOUS
 62
     6
  5
70
 10
163.461289
 20
334.431999
 30
0.0
 40
18.0
  1
30
 51
15.0
  7
LC-TXTSTYLE-150-400-0-0-D0
 72
     2
 11
187.187273
 21
334.431999
 31
0.0
  0
ENDBLK
  8
0
  5
71
  0
BLOCK
  8
0
  5
73
  2
*D3
 70
    65
 10
0.0
 20
0.0
 30
0.0
  3
*D3
  0
LINE
  8
LC-003-003-MTH-0
  6
CONTINUOUS
  5
74
 10
256.372028
 20
103.557158
 30
0.0
 11
370.8
 21
103.557158
 31
0.0
  0
LINE
  8
LC-003-003-MTH-0
  6
CONTINUOUS
  5
75
 10
256.372028
 20
283.557158
 30
0.0
 11
370.8
 21
283.557158
 31
0.0
  0
LINE
  8
LC-004-003-MTG-0
  6
CONTINUOUS
  5
76
 10
360.0
 20
103.557158
 30
0.0
 11
360.0
 21
283.557158
 31
0.0
  0
LINE
  8
LC-002-003-----0
  6
CONTINUOUS
  5
77
 10
357.650529
 20
121.403166
 30
0.0
 11
360.0
 21
103.557158
 31
0.0
  0
LINE
  8
LC-002-003-----0
  6
CONTINUOUS
  5
78
 10
360.0
 20
103.557158
 30
0.0
 11
362.349471
 21
121.403166
 31
0.0
  0
LINE
  8
LC-002-003-----0
  6
CONTINUOUS
  5
79
 10
362.349471
 20
121.403166
 30
0.0
 11
357.650529
 21
121.403166
 31
0.0
  0
LINE
  8
LC-002-003-----0
  6
CONTINUOUS
  5
7A
 10
358.261391
 20
121.443204
 30
0.0
 11
360.0
 21
108.237158
 31
0.0
  0
LINE
  8
LC-002-003-----0
  6
CONTINUOUS
  5
7B
 10
360.0
 20
108.237158
 30
0.0
 11
361.738609
 21
121.443204
 31
0.0
  0
LINE
  8
LC-002-003-----0
  6
CONTINUOUS
  5
7C
 10
358.872254
 20
121.483242
 30
0.0
 11
360.0
 21
112.917158
 31
0.0
  0
LINE
  8
LC-002-003-----0
  6
CONTINUOUS
  5
7D
 10
360.0
 20
112.917158
 30
0.0
 11
361.127746
 21
121.483242
 31
0.0
  0
LINE
  8
LC-002-003-----0
  6
CONTINUOUS
  5
7E
 10
359.483116
 20
121.52328
 30
0.0
 11
360.0
 21
117.597158
 31
0.0
  0
LINE
  8
LC-002-003-----0
  6
CONTINUOUS
  5
7F
 10
360.0
 20
117.597158
 30
0.0
 11
360.516884
 21
121.52328
 31
0.0
  0
LINE
  8
LC-002-003-----0
  6
CONTINUOUS
  5
80
 10
362.349471
 20
265.711151
 30
0.0
 11
360.0
 21
283.557158
 31
0.0
  0
LINE
  8
LC-002-003-----0
  6
CONTINUOUS
  5
81
 10
360.0
 20
283.557158
 30
0.0
 11
357.650529
 21
265.711151
 31
0.0
  0
LINE
  8
LC-002-003-----0
  6
CONTINUOUS
  5
82
 10
357.650529
 20
265.711151
 30
0.0
 11
362.349471
 21
265.711151
 31
0.0
  0
LINE
  8
LC-002-003-----0
  6
CONTINUOUS
  5
83
 10
361.738609
 20
265.671113
 30
0.0
 11
360.0
 21
278.877158
 31
0.0
  0
LINE
  8
LC-002-003-----0
  6
CONTINUOUS
  5
84
 10
360.0
 20
278.877158
 30
0.0
 11
358.261391
 21
265.671113
 31
0.0
  0
LINE
  8
LC-002-003-----0
  6
CONTINUOUS
  5
85
 10
361.127746
 20
265.631075
 30
0.0
 11
360.0
 21
274.197158
 31
0.0
  0
LINE
  8
LC-002-003-----0
  6
CONTINUOUS
  5
86
 10
360.0
 20
274.197158
 30
0.0
 11
358.872254
 21
265.631075
 31
0.0
  0
LINE
  8
LC-002-003-----0
  6
CONTINUOUS
  5
87
 10
360.516884
 20
265.591037
 30
0.0
 11
360.0
 21
269.517158
 31
0.0
  0
LINE
  8
LC-002-003-----0
  6
CONTINUOUS
  5
88
 10
360.0
 20
269.517158
 30
0.0
 11
359.483116
 21
265.591037
 31
0.0
  0
TEXT
  8
LC-002-003-----0
  6
CONTINUOUS
 62
     6
  5
89
 10
349.568001
 20
177.218546
 30
0.0
 40
18.0
  1
180
 50
90.0
 51
15.0
  7
LC-TXTSTYLE-150-400-0-0-D0
 72
     1
 11
349.568001
 21
196.352404
 31
0.0
  0
ENDBLK
  8
0
  5
8A
  0
BLOCK
  8
0
  5
8C
  2
BLK1
 70
    64
 10
0.0
 20
0.0
 30
0.0
  3
BLK1
  0
ENDBLK
  8
0
  5
8D
  0
BLOCK
  8
0
  5
8F
  2
BLK2
 70
    64
 10
0.0
 20
0.0
 30
0.0
  3
BLK2
  0
ENDBLK
  8
0
  5
90
  0
BLOCK
  8
0
  5
92
  2
BLK3
 70
    64
 10
0.0
 20
0.0
 30
0.0
  3
BLK3
  0
ENDBLK
  8
0
  5
93
  0
BLOCK
  8
0
  5
95
  2
BLK4
 70
    64
 10
0.0
 20
0.0
 30
0.0
  3
BLK4
  0
ENDBLK
  8
0
  5
96
  0
BLOCK
  8
0
  5
98
  2
*D8
 70
    65
 10
0.0
 20
0.0
 30
0.0
  3
*D8
  0
LINE
  8
LC-003-003-MTH-0
  6
CONTINUOUS
  5
99
 10
208.872028
 20
61.064
 30
0.0
 11
290.8
 21
61.064
 31
0.0
  0
LINE
  8
LC-003-003-MTH-0
  6
CONTINUOUS
  5
9A
 10
208.872028
 20
65.064
 30
0.0
 11
290.8
 21
65.064
 31
0.0
  0
LINE
  8
LC-002-003-----0
  6
CONTINUOUS
  5
9B
 10
282.349471
 20
43.217992
 30
0.0
 11
280.0
 21
61.064
 31
0.0
  0
LINE
  8
LC-002-003-----0
  6
CONTINUOUS
  5
9C
 10
280.0
 20
61.064
 30
0.0
 11
277.650529
 21
43.217992
 31
0.0
  0
LINE
  8
LC-002-003-----0
  6
CONTINUOUS
  5
9D
 10
277.650529
 20
43.217992
 30
0.0
 11
282.349471
 21
43.217992
 31
0.0
  0
LINE
  8
LC-002-003-----0
  6
CONTINUOUS
  5
9E
 10
281.738609
 20
43.177954
 30
0.0
 11
280.0
 21
56.384
 31
0.0
  0
LINE
  8
LC-002-003-----0
  6
CONTINUOUS
  5
9F
 10
280.0
 20
56.384
 30
0.0
 11
278.261391
 21
43.177954
 31
0.0
  0
LINE
  8
LC-002-003-----0
  6
CONTINUOUS
  5
A0
 10
281.127746
 20
43.137916
 30
0.0
 11
280.0
 21
51.704
 31
0.0
  0
LINE
  8
LC-002-003-----0
  6
CONTINUOUS
  5
A1
 10
280.0
 20
51.704
 30
0.0
 11
278.872254
 21
43.137916
 31
0.0
  0
LINE
  8
LC-002-003-----0
  6
CONTINUOUS
  5
A2
 10
280.516884
 20
43.097878
 30
0.0
 11
280.0
 21
47.024
 31
0.0
  0
LINE
  8
LC-002-003-----0
  6
CONTINUOUS
  5
A3
 10
280.0
 20
47.024
 30
0.0
 11
279.483116
 21
43.097878
 31
0.0
  0
LINE
  8
LC-002-003-----0
  6
CONTINUOUS
  5
A4
 10
277.650529
 20
82.910008
 30
0.0
 11
280.0
 21
65.064
 31
0.0
  0
LINE
  8
LC-002-003-----0
  6
CONTINUOUS
  5
A5
 10
280.0
 20
65.064
 30
0.0
 11
282.349471
 21
82.910008
 31
0.0
  0
LINE
  8
LC-002-003-----0
  6
CONTINUOUS
  5
A6
 10
282.349471
 20
82.910008
 30
0.0
 11
277.650529
 21
82.910008
 31
0.0
  0
LINE
  8
LC-002-003-----0
  6
CONTINUOUS
  5
A7
 10
278.261391
 20
82.950046
 30
0.0
 11
280.0
 21
69.744
 31
0.0
  0
LINE
  8
LC-002-003-----0
  6
CONTINUOUS
  5
A8
 10
280.0
 20
69.744
 30
0.0
 11
281.738609
 21
82.950046
 31
0.0
  0
LINE
  8
LC-002-003-----0
  6
CONTINUOUS
  5
A9
 10
278.872254
 20
82.990084
 30
0.0
 11
280.0
 21
74.424
 31
0.0
  0
LINE
  8
LC-002-003-----0
  6
CONTINUOUS
  5
AA
 10
280.0
 20
74.424
 30
0.0
 11
281.127746
 21
82.990084
 31
0.0
  0
LINE
  8
LC-002-003-----0
  6
CONTINUOUS
  5
AB
 10
279.483116
 20
83.030122
 30
0.0
 11
280.0
 21
79.104
 31
0.0
  0
LINE
  8
LC-002-003-----0
  6
CONTINUOUS
  5
AC
 10
280.0
 20
79.104
 30
0.0
 11
280.516884
 21
83.030122
 31
0.0
  0
LINE
  8
LC-004-003-MTG-0
  6
CONTINUOUS
  5
AD
 10
280.0
 20
19.26148
 30
0.0
 11
280.0
 21
90.264
 31
0.0
  0
TEXT
  8
LC-002-003-----0
  6
CONTINUOUS
 62
     6
  5
AE
 10
269.568001
 20
30.194994
 30
0.0
 40
18.0
  1
4
 50
90.0
 51
15.0
  7
LC-TXTSTYLE-150-400-0-0-D0
 72
     2
 11
269.568001
 21
39.379246
 31
0.0
  0
ENDBLK
  8
0
  5
AF
  0
ENDSEC
  0
SECTION
  2
ENTITIES
  0
VIEWPORT
  8
LC-000
  5
101
 67
     1
 68
     1
 10
420.0
 20
297.0
 30
0.0
 40
840.0
 41
594.0
 69
     1
1001
ACAD
1000
MVIEW
1002
{
1070
    16
1010
0.0
1020
0.0
1030
0.0
1010
0.0
1020
0.0
1030
1.0
1040
0.0
1040
594.0
1040
420.0
1040
297.0
1040
50.0
1040
0.0
1040
0.0
1070
     0
1070
   100
1070
     1
1070
     1
1070
     0
1070
     0
1070
     0
1070
     0
1040
0.0
1040
0.0
1040
0.0
1040
1.0
1040
1.0
1040
0.0
1040
0.0
1070
     0
1002
{
1002
}
1002
}
  0
VIEWPORT
  8
0
  5
102
 67
     1
 68
     1
 10
0.0
 20
0.0
 30
0.0
 40
0.0
 41
0.0
 69
     1
1001
ACAD
1000
MVIEW
1002
{
1070
    16
1010
0.0
1020
0.0
1030
0.0
1010
0.0
1020
0.0
1030
1.0
1040
0.0
1040
594.0
1040
0.0
1040
0.0
1040
50.0
1040
0.0
1040
0.0
1070
     0
1070
   100
1070
     0
1070
     1
1070
     0
1070
     0
1070
     0
1070
     0
1040
0.0
1040
0.0
1040
0.0
1040
0.5
1040
0.5
1040
0.5
1040
0.5
1070
     0
1002
{
1002
}
1002
}
  0
DIMENSION
  8
0
  5
B0
  2
*D0
 10
230.725055
 20
360.0
 30
0.0
 11
230.725055
 21
360.0
 31
0.0
 13
268.872028
 23
106.057158
 33
0.0
 14
148.872028
 24
106.057158
 34
0.0
  3
LC-DIM-L-0090-02-02
  0
DIMENSION
  8
0
  5
B1
  2
*D1
 10
324.0
 20
193.514679
 30
0.0
 11
324.0
 21
193.514679
 31
0.0
 13
268.857371
 23
233.514679
 33
0.0
 14
268.857371
 24
153.514679
 34
0.0
 50
90.0
  3
LC-DIM-L-0090-02-02
  0
DIMENSION
  8
0
  5
B2
  2
*D2
 10
214.754253
 20
324.0
 30
0.0
 11
214.754253
 21
324.0
 31
0.0
 13
208.872028
 23
283.557158
 33
0.0
 14
238.864702
 24
290.690072
 34
0.0
  3
LC-DIM-L-0090-01-02
  0
DIMENSION
  8
0
  5
B3
  2
*D3
 10
360.0
 20
193.557158
 30
0.0
 11
360.0
 21
193.557158
 31
0.0
 13
256.372028
 23
103.557158
 33
0.0
 14
256.372028
 24
283.557158
 34
0.0
 50
90.0
  3
LC-DIM-L-0090-02-02
  0
INSERT
  8
0
  5
B5
  2
BLK1
 10
0.0
 20
0.0
 30
0.0
  0
INSERT
  8
0
  5
B6
  2
BLK2
 10
0.0
 20
0.0
 30
0.0
  0
INSERT
  8
0
  5
B7
  2
BLK3
 10
0.0
 20
0.0
 30
0.0
  0
INSERT
  8
0
  5
B8
  2
BLK4
 10
0.0
 20
0.0
 30
0.0
  0
DIMENSION
  8
0
  5
B9
  2
*D8
 10
280.0
 20
59.300251
 30
0.0
 11
280.0
 21
59.300251
 31
0.0
 13
208.872028
 23
61.064
 33
0.0
 14
208.872028
 24
65.064
 34
0.0
 50
90.0
  3
LC-DIM-L-0090-01-02
  0
ARC
  8
LC-001-002-----0
  5
BC
 10
238.886684
 20
233.514679
 30
0.0
 40
17.5
 50
270.0
 51
90.0
  0
ARC
  8
LC-001-002-----0
  6
CONTINUOUS
 62
     1
  5
BD
 10
238.886684
 20
233.514679
 30
0.0
 40
19.0
 50
270.0
 51
90.0
  0
ARC
  8
LC-001-002-----0
  5
BE
 10
238.886684
 20
233.514679
 30
0.0
 40
20.1
 50
270.0
 51
90.0
  0
LINE
  8
LC-001-002-----0
  6
DASHDOT
  5
C0
 10
191.372028
 20
153.514679
 30
0.0
 11
268.857371
 21
153.514679
 31
0.0
  0
CIRCLE
  8
LC-001-002-----0
  6
CONTINUOUS
 62
     1
  5
C1
 10
238.886684
 20
233.514679
 30
0.0
 40
12.5
  0
CIRCLE
  8
LC-001-002-----0
  6
CONTINUOUS
 62
     1
  5
C2
 10
208.872028
 20
153.514679
 30
0.0
 40
17.5
  0
LINE
  8
LC-001-002-----0
  6
DASHDOT
  5
C3
 10
208.872028
 20
103.514679
 30
0.0
 11
208.872028
 21
283.557158
 31
0.0
  0
LINE
  8
LC-001-002-----0
  6
DASHDOT
  5
C4
 10
158.757371
 20
233.514679
 30
0.0
 11
268.857371
 21
233.514679
 31
0.0
  0
LINE
  8
LC-001-002-----0
  6
DASHDOT
  5
C5
 10
238.886684
 20
221.014679
 30
0.0
 11
238.864702
 21
290.690072
 31
0.0
  0
LINE
  8
LC-001-002-----0
  5
C6
 10
178.857371
 20
213.414679
 30
0.0
 11
238.857371
 21
213.414679
 31
0.0
  0
LINE
  8
LC-001-002-----0
  5
C7
 10
238.857371
 20
253.614679
 30
0.0
 11
178.857371
 21
253.614679
 31
0.0
  0
ARC
  8
LC-001-002-----0
  6
CONTINUOUS
 62
     1
  5
C8
 10
208.857371
 20
-224.610321
 30
0.0
 40
333.125
 50
80.060519
 51
99.939481
  0
ARC
  8
LC-001-002-----0
  6
CONTINUOUS
 62
     1
  5
C9
 10
208.857371
 20
611.639679
 30
0.0
 40
333.125
 50
260.060519
 51
279.939481
  0
LINE
  8
LC-001-002-----0
  6
CONTINUOUS
 62
     1
  5
CA
 10
266.357371
 20
283.514679
 30
0.0
 11
151.357371
 21
283.514679
 31
0.0
  0
LINE
  8
LC-001-002-----0
  6
CONTINUOUS
 62
     1
  5
CB
 10
148.857371
 20
106.014679
 30
0.0
 11
148.857371
 21
281.014679
 31
0.0
  0
LINE
  8
LC-001-002-----0
  6
CONTINUOUS
 62
     1
  5
CC
 10
268.857371
 20
106.014679
 30
0.0
 11
268.857371
 21
281.014679
 31
0.0
  0
LINE
  8
LC-001-002-----0
  6
CONTINUOUS
 62
     1
  5
CD
 10
266.357371
 20
103.514679
 30
0.0
 11
151.357371
 21
103.514679
 31
0.0
  0
ARC
  8
LC-005-002-RND-0
  6
CONTINUOUS
  5
CF
 10
266.357371
 20
106.014679
 30
0.0
 40
2.5
 50
270.0
 51
0.0
  0
ARC
  8
LC-005-002-RND-0
  6
CONTINUOUS
  5
D0
 10
151.357371
 20
106.014679
 30
0.0
 40
2.5
 50
180.0
 51
270.0
  0
ARC
  8
LC-005-002-RND-0
  6
CONTINUOUS
  5
D1
 10
151.357371
 20
281.014679
 30
0.0
 40
2.5
 50
90.0
 51
180.0
  0
ARC
  8
LC-005-002-RND-0
  6
CONTINUOUS
  5
D2
 10
266.357371
 20
281.014679
 30
0.0
 40
2.5
 50
0.0
 51
90.0
  0
ARC
  8
LC-001-002-----0
  5
D3
 10
178.857371
 20
233.514679
 30
0.0
 40
20.1
 50
90.0
 51
270.0
  0
LINE
  8
LC-001-002-----0
  6
CONTINUOUS
 62
     1
  5
D4
 10
178.857371
 20
215.514679
 30
0.0
 11
178.857371
 21
215.514679
 31
0.0
  0
LINE
  8
LC-001-002-----0
  5
D5
 10
181.857371
 20
214.414679
 30
0.0
 11
181.857371
 21
213.414679
 31
0.0
  0
LINE
  8
LC-001-002-----0
  5
D6
 10
178.857371
 20
214.414679
 30
0.0
 11
178.857371
 21
213.414679
 31
0.0
  0
LINE
  8
LC-001-002-----0
  5
D7
 10
181.857371
 20
252.614679
 30
0.0
 11
181.857371
 21
253.614679
 31
0.0
  0
LINE
  8
LC-001-002-----0
  5
D8
 10
178.857371
 20
252.614679
 30
0.0
 11
178.857371
 21
253.614679
 31
0.0
  0
LINE
  8
LC-001-002-----0
  6
CONTINUOUS
 62
     1
  5
D9
 10
178.857371
 20
251.514679
 30
0.0
 11
178.857371
 21
251.514679
 31
0.0
  0
LINE
  8
LC-001-002-----0
  5
DA
 10
178.857371
 20
252.514679
 30
0.0
 11
178.857371
 21
251.014679
 31
0.0
  0
LINE
  8
LC-001-002-----0
  6
CONTINUOUS
 62
     1
  5
DB
 10
178.857371
 20
252.514679
 30
0.0
 11
238.857371
 21
252.514679
 31
0.0
  0
LINE
  8
LC-001-002-----0
  6
CONTINUOUS
 62
     1
  5
DC
 10
238.857371
 20
214.514679
 30
0.0
 11
178.857371
 21
214.514679
 31
0.0
  0
ARC
  8
LC-001-002-----0
  6
CONTINUOUS
 62
     1
  5
DD
 10
178.857371
 20
233.514679
 30
0.0
 40
19.0
 50
90.0
 51
270.0
  0
LINE
  8
LC-001-002-----0
  5
DE
 10
238.857371
 20
251.014679
 30
0.0
 11
178.857371
 21
251.014679
 31
0.0
  0
ARC
  8
LC-001-002-----0
  5
DF
 10
178.857371
 20
233.514679
 30
0.0
 40
17.5
 50
90.0
 51
270.0
  0
LINE
  8
LC-001-002-----0
  6
CONTINUOUS
 62
     1
  5
E0
 10
179.357371
 20
253.014679
 30
0.0
 11
181.357371
 21
253.014679
 31
0.0
  0
LINE
  8
LC-001-002-----0
  5
E1
 10
178.857371
 20
216.014679
 30
0.0
 11
238.857371
 21
216.014679
 31
0.0
  0
LINE
  8
LC-001-002-----0
  5
E2
 10
181.857371
 20
252.514679
 30
0.0
 11
181.857371
 21
251.014679
 31
0.0
  0
LINE
  8
LC-001-002-----0
  5
E3
 10
178.857371
 20
252.214679
 30
0.0
 11
178.857371
 21
252.214679
 31
0.0
  0
LINE
  8
LC-001-002-----0
  5
E4
 10
179.357371
 20
252.514679
 30
0.0
 11
179.357371
 21
252.214679
 31
0.0
  0
LINE
  8
LC-001-002-----0
  5
E5
 10
181.357371
 20
252.514679
 30
0.0
 11
181.357371
 21
252.214679
 31
0.0
  0
LINE
  8
LC-001-002-----0
  6
CONTINUOUS
 62
     1
  5
E6
 10
179.357371
 20
214.014679
 30
0.0
 11
181.357371
 21
214.014679
 31
0.0
  0
LINE
  8
LC-001-002-----0
  5
E7
 10
178.857371
 20
214.514679
 30
0.0
 11
178.857371
 21
216.014679
 31
0.0
  0
LINE
  8
LC-001-002-----0
  5
E8
 10
181.857371
 20
214.514679
 30
0.0
 11
181.857371
 21
216.014679
 31
0.0
  0
LINE
  8
LC-001-002-----0
  5
E9
 10
178.857371
 20
214.814679
 30
0.0
 11
178.857371
 21
214.814679
 31
0.0
  0
LINE
  8
LC-001-002-----0
  5
EA
 10
179.357371
 20
214.514679
 30
0.0
 11
179.357371
 21
214.814679
 31
0.0
  0
LINE
  8
LC-001-002-----0
  5
EB
 10
181.357371
 20
214.514679
 30
0.0
 11
181.357371
 21
214.814679
 31
0.0
  0
LINE
  8
LC-001-002-----0
  6
CONTINUOUS
 62
     1
  5
EC
 10
181.357371
 20
214.014679
 30
0.0
 11
181.357371
 21
214.514679
 31
0.0
  0
LINE
  8
LC-001-002-----0
  6
CONTINUOUS
 62
     1
  5
ED
 10
179.357371
 20
214.014679
 30
0.0
 11
179.357371
 21
214.514679
 31
0.0
  0
LINE
  8
LC-001-002-----0
  6
CONTINUOUS
 62
     1
  5
EE
 10
179.357371
 20
252.514679
 30
0.0
 11
179.357371
 21
253.014679
 31
0.0
  0
LINE
  8
LC-001-002-----0
  6
CONTINUOUS
 62
     1
  5
EF
 10
181.357371
 20
252.514679
 30
0.0
 11
181.357371
 21
253.014679
 31
0.0
  0
LINE
  8
LC-001-002-----0
  5
F0
 10
179.357371
 20
214.814679
 30
0.0
 11
181.357371
 21
214.814679
 31
0.0
  0
LINE
  8
LC-001-002-----0
  5
F1
 10
179.357371
 20
252.214679
 30
0.0
 11
181.357371
 21
252.214679
 31
0.0
  0
LINE
  8
LC-001-002-----0
  6
CONTINUOUS
 62
     1
  5
F2
 10
148.872028
 20
65.064
 30
0.0
 11
268.872028
 21
65.064
 31
0.0
  0
ARC
  8
LC-001-002-----0
  6
CONTINUOUS
 62
     1
  5
F3
 10
208.872028
 20
668.713003
 30
0.0
 40
607.649003
 50
264.418844
 51
267.149222
  0
LINE
  8
LC-001-002-----0
  6
CONTINUOUS
  5
F4
 10
151.220332
 20
63.944597
 30
0.0
 11
265.4216
 21
63.944597
 31
0.0
  0
LINE
  8
LC-001-002-----0
  6
CONTINUOUS
 62
     1
  5
F5
 10
148.872028
 20
65.064
 30
0.0
 11
148.872028
 21
64.939856
 31
0.0
  0
LINE
  8
LC-001-002-----0
  6
CONTINUOUS
 62
     1
  5
F6
 10
268.872028
 20
65.064
 30
0.0
 11
268.872028
 21
64.939856
 31
0.0
  0
LINE
  8
LC-001-002-----0
  6
CONTINUOUS
 62
     1
  5
F7
 10
181.570519
 20
61.064
 30
0.0
 11
236.17253
 21
61.064
 31
0.0
  0
ARC
  8
LC-005-002-RND-0
  6
CONTINUOUS
  5
F8
 10
267.872028
 20
64.939856
 30
0.0
 40
1.0
 50
277.517003
 51
0.0
  0
ARC
  8
LC-005-002-RND-0
  6
CONTINUOUS
  5
F9
 10
149.872028
 20
64.939856
 30
0.0
 40
1.0
 50
180.0
 51
262.482997
  0
ARC
  8
LC-005-002-RND-0
  6
CONTINUOUS
  5
FA
 10
236.17253
 20
63.064
 30
0.0
 40
2.0
 50
270.0
 51
296.912833
  0
ARC
  8
LC-005-002-RND-0
  6
CONTINUOUS
  5
FB
 10
239.340971
 20
56.822127
 30
0.0
 40
5.0
 50
92.850674
 51
116.912833
  0
ARC
  8
LC-005-002-RND-0
  6
CONTINUOUS
  5
FC
 10
181.570519
 20
63.064
 30
0.0
 40
2.0
 50
243.086162
 51
270.0
  0
ARC
  8
LC-005-002-RND-0
  6
CONTINUOUS
  5
FD
 10
178.401968
 20
56.822182
 30
0.0
 40
5.0
 50
63.086162
 51
87.149222
  0
ARC
  8
LC-001-002-----0
  6
CONTINUOUS
 62
     1
  5
FE
 10
208.872028
 20
668.713003
 30
0.0
 40
607.649003
 50
272.850674
 51
275.581156
  0
ARC
  8
LC-001-002-----0
  6
CONTINUOUS
 62
     1
  5
FF
 10
208.872028
 20
668.713003
 30
0.0
 40
607.649003
 50
267.149222
 51
272.850674
  0
ENDSEC
  0
EOF
