  0
SECTION
  2
HEADER
  9
$ACADVER
  1
AC1009
  9
$DWGCODEPAGE
  3
dos850
  9
$INSBASE
 10
0.0
 20
0.0
 30
0.0
  9
$EXTMIN
 10
0.0
 20
0.0
 30
0.0
  9
$EXTMAX
 10
840.0
 20
594.0
 30
0.0
  9
$LIMMIN
 10
0.0
 20
0.0
  9
$LIMMAX
 10
840.0
 20
594.0
  9
$ORTHOMODE
 70
     0
  9
$REGENMODE
 70
     1
  9
$FILLMODE
 70
     1
  9
$QTEXTMODE
 70
     0
  9
$MIRRTEXT
 70
     1
  9
$DRAGMODE
 70
     2
  9
$LTSCALE
 40
2.0
  9
$OSMODE
 70
     0
  9
$ATTMODE
 70
     1
  9
$TEXTSIZE
 40
0.2
  9
$TRACEWID
 40
0.05
  9
$TEXTSTYLE
  7
STANDARD
  9
$CLAYER
  8
0
  9
$CELTYPE
  6
BYBLOCK
  9
$CECOLOR
 62
     7
  9
$DIMSCALE
 40
2.0
  9
$DIMASZ
 40
3.5
  9
$DIMEXO
 40
0.0625
  9
$DIMDLI
 40
0.38
  9
$DIMRND
 40
0.0
  9
$DIMDLE
 40
0.0
  9
$DIMEXE
 40
0.18
  9
$DIMTP
 40
0.0
  9
$DIMTM
 40
0.0
  9
$DIMTXT
 40
3.5
  9
$DIMCEN
 40
0.09
  9
$DIMTSZ
 40
0.0
  9
$DIMTOL
 70
     0
  9
$DIMLIM
 70
     0
  9
$DIMTIH
 70
     1
  9
$DIMTOH
 70
     1
  9
$DIMSE1
 70
     0
  9
$DIMSE2
 70
     0
  9
$DIMTAD
 70
     1
  9
$DIMZIN
 70
     0
  9
$DIMBLK
  1

  9
$DIMASO
 70
     1
  9
$DIMSHO
 70
     1
  9
$DIMPOST
  1

  9
$DIMAPOST
  1

  9
$DIMALT
 70
     0
  9
$DIMALTD
 70
     2
  9
$DIMALTF
 40
25.4
  9
$DIMLFAC
 40
1.0
  9
$DIMTOFL
 70
     0
  9
$DIMTVP
 40
0.0
  9
$DIMTIX
 70
     0
  9
$DIMSOXD
 70
     0
  9
$DIMSAH
 70
     0
  9
$DIMBLK1
  1

  9
$DIMBLK2
  1

  9
$DIMSTYLE
  2
STANDARD
  9
$DIMCLRD
 70
     0
  9
$DIMCLRE
 70
     0
  9
$DIMCLRT
 70
     0
  9
$DIMTFAC
 40
1.0
  9
$DIMGAP
 40
0.09
  9
$LUNITS
 70
     2
  9
$LUPREC
 70
     6
  9
$AXISMODE
 70
     0
  9
$AXISUNIT
 10
0.0
 20
0.0
  9
$SKETCHINC
 40
0.1
  9
$FILLETRAD
 40
0.0
  9
$AUNITS
 70
     0
  9
$AUPREC
 70
     0
  9
$MENU
  1
acad
  9
$ELEVATION
 40
0.0
  9
$PELEVATION
 40
0.0
  9
$THICKNESS
 40
0.0
  9
$LIMCHECK
 70
     0
  9
$BLIPMODE
 70
     1
  9
$CHAMFERA
 40
0.0
  9
$CHAMFERB
 40
0.0
  9
$SKPOLY
 70
     0
  9
$TDCREATE
 40
0.000000000
  9
$TDUPDATE
 40
0.000000000
  9
$TDINDWG
 40
0.0000000000
  9
$TDUSRTIMER
 40
0.0000000000
  9
$USRTIMER
 70
     1
  9
$ANGBASE
 50
0.0
  9
$ANGDIR
 70
     0
  9
$PDMODE
 70
     0
  9
$PDSIZE
 40
0.0
  9
$PLINEWID
 40
0.0
  9
$COORDS
 70
     0
  9
$SPLFRAME
 70
     0
  9
$SPLINETYPE
 70
     6
  9
$SPLINESEGS
 70
     8
  9
$ATTDIA
 70
     0
  9
$ATTREQ
 70
     1
  9
$HANDLING
 70
     1
  9
$HANDSEED
  5
130
  9
$SURFTAB1
 70
     6
  9
$SURFTAB2
 70
     6
  9
$SURFTYPE
 70
     6
  9
$SURFU
 70
     6
  9
$SURFV
 70
     6
  9
$UCSNAME
  2

  9
$UCSORG
 10
0.0
 20
0.0
 30
0.0
  9
$UCSXDIR
 10
1.0
 20
0.0
 30
0.0
  9
$UCSYDIR
 10
0.0
 20
1.0
 30
0.0
  9
$PUCSNAME
  2

  9
$PUCSORG
 10
0.0
 20
0.0
 30
0.0
  9
$PUCSXDIR
 10
1.0
 20
0.0
 30
0.0
  9
$PUCSYDIR
 10
0.0
 20
1.0
 30
0.0
  9
$USERI1
 70
     0
  9
$USERI2
 70
     0
  9
$USERI3
 70
     0
  9
$USERI4
 70
     0
  9
$USERI5
 70
     0
  9
$USERR1
 40
0.0
  9
$USERR2
 40
0.0
  9
$USERR3
 40
0.0
  9
$USERR4
 40
0.0
  9
$USERR5
 40
0.0
  9
$WORLDVIEW
 70
     1
  9
$SHADEDGE
 70
     3
  9
$SHADEDIF
 70
    70
  9
$TILEMODE
 70
     1
  9
$MAXACTVP
 70
    16
  9
$PINSBASE
 10
0.0
 20
0.0
 30
0.0
  9
$PLIMCHECK
 70
     0
  9
$PEXTMIN
 10
0.0
 20
0.0
 30
0.0
  9
$PEXTMAX
 10
840.0
 20
594.0
 30
0.0
  9
$PLIMMIN
 10
0.0
 20
0.0
  9
$PLIMMAX
 10
840.0
 20
594.0
  9
$UNITMODE
 70
     0
  9
$VISRETAIN
 70
     0
  9
$PLINEGEN
 70
     1
  9
$PSLTSCALE
 70
     0
  9
$TREEDEPTH
 70
  3020
  0
ENDSEC
  0
SECTION
  2
TABLES
  0
TABLE
  2
VPORT
 70
     1
  0
VPORT
  2
*ACTIVE
 70
     0
 10
0.0
 20
0.0
 11
1.0
 21
1.0
 12
420.0
 22
297.0
 13
0.0
 23
0.0
 14
1.0
 24
1.0
 15
0.0
 25
0.0
 16
0.0
 26
0.0
 36
1.0
 17
0.0
 27
0.0
 37
0.0
 40
594.0
 41
1.604229
 42
50.0
 43
0.0
 44
0.0
 50
0.0
 51
0.0
 71
     0
 72
   100
 73
     1
 74
     1
 75
     0
 76
     0
 77
     0
 78
     0
  0
ENDTAB
  0
TABLE
  2
LTYPE
 70
     3
  0
LTYPE
  2
CONTINUOUS
 70
    64
  3
Solid line
 72
    65
 73
     0
 40
0.0
  0
LTYPE
  2
DASHED
 70
    64
  3
__ __ __ __ __
 72
    65
 73
     2
 40
6.25
 49
5.0
 49
-1.25
  0
LTYPE
  2
DASHDOT
 70
    64
  3
__ . __ . __ . __ . __
 72
    65
 73
     4
 40
7.5
 49
5.0
 49
-1.25
 49
0.0
 49
-1.25
  0
ENDTAB
  0
TABLE
  2
LAYER
 70
     9
  0
LAYER
  2
0
 70
     0
 62
     7
  6
CONTINUOUS
  0
LAYER
  2
LC-INFO-1-2-MM-A3-0
 70
     1
 62
   255
  6
BYBLOCK
  0
LAYER
  2
LC-3D-HIDDEN
 70
     0
 62
     9
  6
DASHED
  0
LAYER
  2
LC-CUT-HIDDEN
 70
     0
 62
     9
  6
DASHED
  0
LAYER
  2
LC-VIEWPORT
 70
     0
 62
     7
  6
BYBLOCK
  0
LAYER
  2
LC-001-002-----0
 70
     0
 62
     1
  6
BYBLOCK
  0
LAYER
  2
LC-002-003-MTH-0
 70
     0
 62
     2
  6
BYBLOCK
  0
LAYER
  2
LC-003-003-----0
 70
     0
 62
     2
  6
BYBLOCK
  0
LAYER
  2
LC-004-003-MTG-0
 70
     0
 62
     2
  6
BYBLOCK
  0
ENDTAB
  0
TABLE
  2
STYLE
 70
     3
  0
STYLE
  2
STANDARD
 70
     0
 40
0.0
 41
1.0
 50
0.0
 71
     0
 42
0.0
  3
txt
  4

  0
STYLE
  2
LCTX15-400-0-0-ARIAL
 70
    64
 40
3.5
 41
1.0
 50
0.0
 71
     0
 42
0.0
  3
Arial
  4

  0
STYLE
  2
LCTX15-400-0-0-DIN-SCHRIFTP
 70
    64
 40
0.0
 41
1.0
 50
1.5
 71
     0
 42
3.5
  3
STANDARD
  4

  0
ENDTAB
  0
TABLE
  2
VIEW
 70
     0
  0
ENDTAB
  0
TABLE
  2
UCS
 70
     0
  0
ENDTAB
  0
TABLE
  2
APPID
 70
     1
  0
APPID
  2
ACAD
 70
     0
  0
ENDTAB
  0
TABLE
  2
DIMSTYLE
 70
     2
  0
DIMSTYLE
  2
STANDARD
 70
     0
  3

  4

  5

  6

  7

 40
1.0
 41
0.18
 42
0.0625
 43
0.38
 44
0.18
 45
0.0
 46
0.0
 47
0.0
 48
0.0
 71
     0
 72
     0
 73
     1
 74
     1
 75
     0
 76
     0
 77
     0
 78
     0
140
0.18
141
0.09
142
0.0
143
25.4
144
1.0
145
0.0
146
1.0
147
0.09
170
     0
171
     2
172
     0
173
     0
174
     0
175
     0
176
     0
177
     0
178
     0
  0
DIMSTYLE
  2
LC-DIM-L-0140-02-02
 70
     0
  3

  4

  5

  6

  7

 40
2.0
 41
3.5
 42
0.0
 43
7.5
 44
1.8
 45
0.0
 46
0.0
 47
0.0
 48
0.0
 71
     0
 72
     0
 73
     0
 74
     0
 75
     0
 76
     0
 77
     1
 78
     8
140
14.0
141
0.0
142
0.0
143
25.4
144
1.0
145
0.0
146
0.71
147
1.5
170
     0
171
     2
172
     0
173
     0
174
     0
175
     0
176
     2
177
     2
178
     2
  0
ENDTAB
  0
ENDSEC
  0
SECTION
  2
BLOCKS
  0
BLOCK
  8
0
  5
B7
  2
*D0
 70
    65
 10
0.0
 20
0.0
 30
0.0
  3
*D0
  0
LINE
  8
LC-002-003-MTH-0
 62
     2
  5
B9
 10
252.920904
 20
346.199507
 30
0.0
 11
252.920904
 21
408.8
 31
0.0
  0
LINE
  8
LC-002-003-MTH-0
 62
     2
  5
BA
 10
289.920904
 20
346.199507
 30
0.0
 11
289.920904
 21
408.8
 31
0.0
  0
LINE
  8
LC-003-003-----0
 62
     2
  5
BC
 10
225.160448
 20
388.345267
 30
0.0
 11
252.920904
 21
392.0
 31
0.0
  0
LINE
  8
LC-003-003-----0
 62
     2
  5
BD
 10
252.920904
 20
392.0
 30
0.0
 11
225.160448
 21
395.654733
 31
0.0
  0
LINE
  8
LC-003-003-----0
 62
     2
  5
BE
 10
225.160448
 20
395.654733
 30
0.0
 11
225.160448
 21
388.345267
 31
0.0
  0
LINE
  8
LC-003-003-----0
 62
     2
  5
BF
 10
225.098167
 20
389.295497
 30
0.0
 11
245.640904
 21
392.0
 31
0.0
  0
LINE
  8
LC-003-003-----0
 62
     2
  5
C0
 10
245.640904
 20
392.0
 30
0.0
 11
225.098167
 21
394.704503
 31
0.0
  0
LINE
  8
LC-003-003-----0
 62
     2
  5
C1
 10
225.035885
 20
390.245728
 30
0.0
 11
238.360904
 21
392.0
 31
0.0
  0
LINE
  8
LC-003-003-----0
 62
     2
  5
C2
 10
238.360904
 20
392.0
 30
0.0
 11
225.035885
 21
393.754272
 31
0.0
  0
LINE
  8
LC-003-003-----0
 62
     2
  5
C3
 10
224.973604
 20
391.195959
 30
0.0
 11
231.080904
 21
392.0
 31
0.0
  0
LINE
  8
LC-003-003-----0
 62
     2
  5
C4
 10
231.080904
 20
392.0
 30
0.0
 11
224.973604
 21
392.804041
 31
0.0
  0
LINE
  8
LC-003-003-----0
 62
     2
  5
C5
 10
317.68136
 20
395.654733
 30
0.0
 11
289.920904
 21
392.0
 31
0.0
  0
LINE
  8
LC-003-003-----0
 62
     2
  5
C6
 10
289.920904
 20
392.0
 30
0.0
 11
317.68136
 21
388.345267
 31
0.0
  0
LINE
  8
LC-003-003-----0
 62
     2
  5
C7
 10
317.68136
 20
388.345267
 30
0.0
 11
317.68136
 21
395.654733
 31
0.0
  0
LINE
  8
LC-003-003-----0
 62
     2
  5
C8
 10
317.743642
 20
394.704503
 30
0.0
 11
297.200904
 21
392.0
 31
0.0
  0
LINE
  8
LC-003-003-----0
 62
     2
  5
C9
 10
297.200904
 20
392.0
 30
0.0
 11
317.743642
 21
389.295497
 31
0.0
  0
LINE
  8
LC-003-003-----0
 62
     2
  5
CA
 10
317.805923
 20
393.754272
 30
0.0
 11
304.480904
 21
392.0
 31
0.0
  0
LINE
  8
LC-003-003-----0
 62
     2
  5
CB
 10
304.480904
 20
392.0
 30
0.0
 11
317.805923
 21
390.245728
 31
0.0
  0
LINE
  8
LC-003-003-----0
 62
     2
  5
CC
 10
317.868205
 20
392.804041
 30
0.0
 11
311.760904
 21
392.0
 31
0.0
  0
LINE
  8
LC-003-003-----0
 62
     2
  5
CD
 10
311.760904
 20
392.0
 30
0.0
 11
317.868205
 21
391.195959
 31
0.0
  0
LINE
  8
LC-004-003-MTG-0
 62
     2
  5
CF
 10
173.456904
 20
392.0
 30
0.0
 11
329.120904
 21
392.0
 31
0.0
  0
TEXT
  8
LC-003-003-----0
 62
     7
  5
D0
 10
189.005064
 20
399.827554
 30
0.0
 40
28.0
  1
1"
 41
0.9
 51
15.0
  7
LCTX15-400-0-0-ARIAL
 72
     2
 11
218.069064
 21
399.827554
 31
0.0
  0
ENDBLK
  8
0
  5
D1
  0
BLOCK
  8
0
  5
DB
  2
*D1
 70
    65
 10
0.0
 20
0.0
 30
0.0
  3
*D1
  0
LINE
  8
LC-002-003-MTH-0
 62
     2
  5
DC
 10
341.920904
 20
259.949507
 30
0.0
 11
341.920904
 21
218.4
 31
0.0
  0
LINE
  8
LC-002-003-MTH-0
 62
     2
  5
DD
 10
358.420904
 20
259.949507
 30
0.0
 11
358.420904
 21
218.4
 31
0.0
  0
LINE
  8
LC-003-003-----0
 62
     2
  5
DE
 10
314.160448
 20
231.545267
 30
0.0
 11
341.920904
 21
235.2
 31
0.0
  0
LINE
  8
LC-003-003-----0
 62
     2
  5
DF
 10
341.920904
 20
235.2
 30
0.0
 11
314.160448
 21
238.854733
 31
0.0
  0
LINE
  8
LC-003-003-----0
 62
     2
  5
E0
 10
314.160448
 20
238.854733
 30
0.0
 11
314.160448
 21
231.545267
 31
0.0
  0
LINE
  8
LC-003-003-----0
 62
     2
  5
E1
 10
314.098167
 20
232.495497
 30
0.0
 11
334.640904
 21
235.2
 31
0.0
  0
LINE
  8
LC-003-003-----0
 62
     2
  5
E2
 10
334.640904
 20
235.2
 30
0.0
 11
314.098167
 21
237.904503
 31
0.0
  0
LINE
  8
LC-003-003-----0
 62
     2
  5
E3
 10
314.035885
 20
233.445728
 30
0.0
 11
327.360904
 21
235.2
 31
0.0
  0
LINE
  8
LC-003-003-----0
 62
     2
  5
E4
 10
327.360904
 20
235.2
 30
0.0
 11
314.035885
 21
236.954272
 31
0.0
  0
LINE
  8
LC-003-003-----0
 62
     2
  5
E5
 10
313.973604
 20
234.395959
 30
0.0
 11
320.080904
 21
235.2
 31
0.0
  0
LINE
  8
LC-003-003-----0
 62
     2
  5
E6
 10
320.080904
 20
235.2
 30
0.0
 11
313.973604
 21
236.004041
 31
0.0
  0
LINE
  8
LC-003-003-----0
 62
     2
  5
E7
 10
386.18136
 20
238.854733
 30
0.0
 11
358.420904
 21
235.2
 31
0.0
  0
LINE
  8
LC-003-003-----0
 62
     2
  5
E8
 10
358.420904
 20
235.2
 30
0.0
 11
386.18136
 21
231.545267
 31
0.0
  0
LINE
  8
LC-003-003-----0
 62
     2
  5
E9
 10
386.18136
 20
231.545267
 30
0.0
 11
386.18136
 21
238.854733
 31
0.0
  0
LINE
  8
LC-003-003-----0
 62
     2
  5
EA
 10
386.243642
 20
237.904503
 30
0.0
 11
365.700904
 21
235.2
 31
0.0
  0
LINE
  8
LC-003-003-----0
 62
     2
  5
EB
 10
365.700904
 20
235.2
 30
0.0
 11
386.243642
 21
232.495497
 31
0.0
  0
LINE
  8
LC-003-003-----0
 62
     2
  5
EC
 10
386.305923
 20
236.954272
 30
0.0
 11
372.980904
 21
235.2
 31
0.0
  0
LINE
  8
LC-003-003-----0
 62
     2
  5
ED
 10
372.980904
 20
235.2
 30
0.0
 11
386.305923
 21
233.445728
 31
0.0
  0
LINE
  8
LC-003-003-----0
 62
     2
  5
EE
 10
386.368205
 20
236.004041
 30
0.0
 11
380.260904
 21
235.2
 31
0.0
  0
LINE
  8
LC-003-003-----0
 62
     2
  5
EF
 10
380.260904
 20
235.2
 30
0.0
 11
386.368205
 21
234.395959
 31
0.0
  0
LINE
  8
LC-004-003-MTG-0
 62
     2
  5
F0
 10
302.720904
 20
235.2
 30
0.0
 11
515.332904
 21
235.2
 31
0.0
  0
TEXT
  8
LC-003-003-----0
 62
     7
  5
F1
 10
401.969064
 20
243.027554
 30
0.0
 40
28.0
  1
%%c17-23
 41
0.9
 51
15.0
  7
LCTX15-400-0-0-ARIAL
  0
ENDBLK
  8
0
  5
F2
  0
BLOCK
  8
0
  5
F5
  2
*D2
 70
    65
 10
0.0
 20
0.0
 30
0.0
  3
*D2
  0
LINE
  8
LC-002-003-MTH-0
 62
     2
  5
F6
 10
345.670906
 20
312.699507
 30
0.0
 11
408.8
 21
312.699507
 31
0.0
  0
LINE
  8
LC-002-003-MTH-0
 62
     2
  5
F7
 10
291.920904
 20
348.699507
 30
0.0
 11
408.8
 21
348.699507
 31
0.0
  0
LINE
  8
LC-003-003-----0
 62
     2
  5
F8
 10
395.654733
 20
284.93905
 30
0.0
 11
392.0
 21
312.699507
 31
0.0
  0
LINE
  8
LC-003-003-----0
 62
     2
  5
F9
 10
392.0
 20
312.699507
 30
0.0
 11
388.345267
 21
284.93905
 31
0.0
  0
LINE
  8
LC-003-003-----0
 62
     2
  5
FA
 10
388.345267
 20
284.93905
 30
0.0
 11
395.654733
 21
284.93905
 31
0.0
  0
LINE
  8
LC-003-003-----0
 62
     2
  5
FB
 10
394.704503
 20
284.876769
 30
0.0
 11
392.0
 21
305.419507
 31
0.0
  0
LINE
  8
LC-003-003-----0
 62
     2
  5
FC
 10
392.0
 20
305.419507
 30
0.0
 11
389.295497
 21
284.876769
 31
0.0
  0
LINE
  8
LC-003-003-----0
 62
     2
  5
FD
 10
393.754272
 20
284.814488
 30
0.0
 11
392.0
 21
298.139507
 31
0.0
  0
LINE
  8
LC-003-003-----0
 62
     2
  5
FE
 10
392.0
 20
298.139507
 30
0.0
 11
390.245728
 21
284.814488
 31
0.0
  0
LINE
  8
LC-003-003-----0
 62
     2
  5
FF
 10
392.804041
 20
284.752206
 30
0.0
 11
392.0
 21
290.859507
 31
0.0
  0
LINE
  8
LC-003-003-----0
 62
     2
  5
100
 10
392.0
 20
290.859507
 30
0.0
 11
391.195959
 21
284.752206
 31
0.0
  0
LINE
  8
LC-003-003-----0
 62
     2
  5
101
 10
388.345267
 20
376.459963
 30
0.0
 11
392.0
 21
348.699507
 31
0.0
  0
LINE
  8
LC-003-003-----0
 62
     2
  5
102
 10
392.0
 20
348.699507
 30
0.0
 11
395.654733
 21
376.459963
 31
0.0
  0
LINE
  8
LC-003-003-----0
 62
     2
  5
103
 10
395.654733
 20
376.459963
 30
0.0
 11
388.345267
 21
376.459963
 31
0.0
  0
LINE
  8
LC-003-003-----0
 62
     2
  5
104
 10
389.295497
 20
376.522244
 30
0.0
 11
392.0
 21
355.979507
 31
0.0
  0
LINE
  8
LC-003-003-----0
 62
     2
  5
105
 10
392.0
 20
355.979507
 30
0.0
 11
394.704503
 21
376.522244
 31
0.0
  0
LINE
  8
LC-003-003-----0
 62
     2
  5
106
 10
390.245728
 20
376.584525
 30
0.0
 11
392.0
 21
363.259507
 31
0.0
  0
LINE
  8
LC-003-003-----0
 62
     2
  5
107
 10
392.0
 20
363.259507
 30
0.0
 11
393.754272
 21
376.584525
 31
0.0
  0
LINE
  8
LC-003-003-----0
 62
     2
  5
108
 10
391.195959
 20
376.646807
 30
0.0
 11
392.0
 21
370.539507
 31
0.0
  0
LINE
  8
LC-003-003-----0
 62
     2
  5
109
 10
392.0
 20
370.539507
 30
0.0
 11
392.804041
 21
376.646807
 31
0.0
  0
LINE
  8
LC-004-003-MTG-0
 62
     2
  5
10A
 10
392.0
 20
273.499507
 30
0.0
 11
392.0
 21
434.603507
 31
0.0
  0
TEXT
  8
LC-003-003-----0
 62
     7
  5
10B
 10
384.172446
 20
392.247666
 30
0.0
 40
28.0
  1
35
 50
90.0
 41
0.9
 51
15.0
  7
LCTX15-400-0-0-ARIAL
  0
ENDBLK
  8
0
  5
10C
  0
BLOCK
  8
0
  5
10F
  2
*D3
 70
    65
 10
0.0
 20
0.0
 30
0.0
  3
*D3
  0
LINE
  8
LC-002-003-MTH-0
 62
     2
  5
110
 10
193.670904
 20
259.949507
 30
0.0
 11
193.670904
 21
179.2
 31
0.0
  0
LINE
  8
LC-002-003-MTH-0
 62
     2
  5
111
 10
350.170904
 20
259.949507
 30
0.0
 11
350.170904
 21
179.2
 31
0.0
  0
LINE
  8
LC-004-003-MTG-0
 62
     2
  5
112
 10
193.670904
 20
196.0
 30
0.0
 11
350.170904
 21
196.0
 31
0.0
  0
LINE
  8
LC-003-003-----0
 62
     2
  5
113
 10
221.43136
 20
199.654733
 30
0.0
 11
193.670904
 21
196.0
 31
0.0
  0
LINE
  8
LC-003-003-----0
 62
     2
  5
114
 10
193.670904
 20
196.0
 30
0.0
 11
221.43136
 21
192.345267
 31
0.0
  0
LINE
  8
LC-003-003-----0
 62
     2
  5
115
 10
221.43136
 20
192.345267
 30
0.0
 11
221.43136
 21
199.654733
 31
0.0
  0
LINE
  8
LC-003-003-----0
 62
     2
  5
116
 10
221.493642
 20
198.704503
 30
0.0
 11
200.950904
 21
196.0
 31
0.0
  0
LINE
  8
LC-003-003-----0
 62
     2
  5
117
 10
200.950904
 20
196.0
 30
0.0
 11
221.493642
 21
193.295497
 31
0.0
  0
LINE
  8
LC-003-003-----0
 62
     2
  5
118
 10
221.555923
 20
197.754272
 30
0.0
 11
208.230904
 21
196.0
 31
0.0
  0
LINE
  8
LC-003-003-----0
 62
     2
  5
119
 10
208.230904
 20
196.0
 30
0.0
 11
221.555923
 21
194.245728
 31
0.0
  0
LINE
  8
LC-003-003-----0
 62
     2
  5
11A
 10
221.618205
 20
196.804041
 30
0.0
 11
215.510904
 21
196.0
 31
0.0
  0
LINE
  8
LC-003-003-----0
 62
     2
  5
11B
 10
215.510904
 20
196.0
 30
0.0
 11
221.618205
 21
195.195959
 31
0.0
  0
LINE
  8
LC-003-003-----0
 62
     2
  5
11C
 10
322.410448
 20
192.345267
 30
0.0
 11
350.170904
 21
196.0
 31
0.0
  0
LINE
  8
LC-003-003-----0
 62
     2
  5
11D
 10
350.170904
 20
196.0
 30
0.0
 11
322.410448
 21
199.654733
 31
0.0
  0
LINE
  8
LC-003-003-----0
 62
     2
  5
11E
 10
322.410448
 20
199.654733
 30
0.0
 11
322.410448
 21
192.345267
 31
0.0
  0
LINE
  8
LC-003-003-----0
 62
     2
  5
11F
 10
322.348167
 20
193.295497
 30
0.0
 11
342.890904
 21
196.0
 31
0.0
  0
LINE
  8
LC-003-003-----0
 62
     2
  5
120
 10
342.890904
 20
196.0
 30
0.0
 11
322.348167
 21
198.704503
 31
0.0
  0
LINE
  8
LC-003-003-----0
 62
     2
  5
121
 10
322.285885
 20
194.245728
 30
0.0
 11
335.610904
 21
196.0
 31
0.0
  0
LINE
  8
LC-003-003-----0
 62
     2
  5
122
 10
335.610904
 20
196.0
 30
0.0
 11
322.285885
 21
197.754272
 31
0.0
  0
LINE
  8
LC-003-003-----0
 62
     2
  5
123
 10
322.223604
 20
195.195959
 30
0.0
 11
328.330904
 21
196.0
 31
0.0
  0
LINE
  8
LC-003-003-----0
 62
     2
  5
124
 10
328.330904
 20
196.0
 30
0.0
 11
322.223604
 21
196.804041
 31
0.0
  0
TEXT
  8
LC-003-003-----0
 62
     7
  5
125
 10
249.641064
 20
203.827554
 30
0.0
 40
28.0
  1
158
 41
0.9
 51
15.0
  7
LCTX15-400-0-0-ARIAL
 72
     1
 11
276.269064
 21
203.827554
 31
0.0
  0
ENDBLK
  8
0
  5
126
  0
ENDSEC
  0
SECTION
  2
ENTITIES
  0
VIEWPORT
  8
LC-VIEWPORT
  5
129
 67
     1
 68
     1
 10
420.0
 20
297.0
 30
0.0
 40
840.0
 41
594.0
 69
     1
1001
ACAD
1000
MVIEW
1002
{
1070
    16
1010
0.0
1020
0.0
1030
0.0
1010
0.0
1020
0.0
1030
1.0
1040
0.0
1040
594.0
1040
420.0
1040
297.0
1040
50.0
1040
0.0
1040
0.0
1070
     0
1070
   100
1070
     1
1070
     1
1070
     0
1070
     0
1070
     0
1070
     0
1040
0.0
1040
0.0
1040
0.0
1040
1.0
1040
1.0
1040
0.0
1040
0.0
1070
     0
1002
{
1002
}
1002
}
  0
LINE
  8
LC-001-002-----0
 62
     1
  5
25
 10
212.420904
 20
325.699507
 30
0.0
 11
212.420904
 21
299.699507
 31
0.0
  0
LINE
  8
LC-001-002-----0
 62
     1
  5
26
 10
212.420904
 20
328.699507
 30
0.0
 11
212.420904
 21
325.699507
 31
0.0
  0
LINE
  8
LC-001-002-----0
 62
     1
  5
27
 10
212.420904
 20
296.699507
 30
0.0
 11
212.420904
 21
299.699507
 31
0.0
  0
LINE
  8
LC-001-002-----0
 62
     1
  5
28
 10
229.420904
 20
332.699507
 30
0.0
 11
229.420904
 21
292.699507
 31
0.0
  0
LINE
  8
LC-001-002-----0
 62
     1
  5
29
 10
229.420904
 20
292.699507
 30
0.0
 11
226.920904
 21
292.699507
 31
0.0
  0
LINE
  8
LC-001-002-----0
 62
     1
  5
2A
 10
226.920904
 20
292.699507
 30
0.0
 11
226.920904
 21
332.699507
 31
0.0
  0
LINE
  8
LC-001-002-----0
 62
     1
  5
2B
 10
226.920904
 20
332.699507
 30
0.0
 11
229.420904
 21
332.699507
 31
0.0
  0
LINE
  8
LC-001-002-----0
 62
     1
  5
2C
 10
226.920904
 20
331.699507
 30
0.0
 11
216.920904
 21
331.699507
 31
0.0
  0
LINE
  8
LC-001-002-----0
 62
     1
  5
2D
 10
212.420904
 20
330.699507
 30
0.0
 11
212.420904
 21
328.699507
 31
0.0
  0
LINE
  8
LC-001-002-----0
 62
     1
  5
2E
 10
226.920904
 20
293.699507
 30
0.0
 11
216.920904
 21
293.699507
 31
0.0
  0
LINE
  8
LC-001-002-----0
 62
     1
  5
2F
 10
212.420904
 20
294.699507
 30
0.0
 11
212.420904
 21
296.699507
 31
0.0
  0
LINE
  8
LC-001-002-----0
 62
     1
  5
30
 10
216.920904
 20
331.699507
 30
0.0
 11
216.920904
 21
327.199507
 31
0.0
  0
LINE
  8
LC-001-002-----0
 62
     1
  5
31
 10
226.920904
 20
330.699507
 30
0.0
 11
212.420904
 21
330.699507
 31
0.0
  0
LINE
  8
LC-001-002-----0
 62
     1
  5
32
 10
226.920904
 20
294.699507
 30
0.0
 11
212.420904
 21
294.699507
 31
0.0
  0
LINE
  8
LC-001-002-----0
 62
     1
  5
33
 10
226.920904
 20
316.199507
 30
0.0
 11
216.920904
 21
316.199507
 31
0.0
  0
LINE
  8
LC-001-002-----0
 62
     1
  5
34
 10
226.920904
 20
309.199507
 30
0.0
 11
216.920904
 21
309.199507
 31
0.0
  0
LINE
  8
LC-001-002-----0
 62
     1
  5
35
 10
226.920904
 20
306.699507
 30
0.0
 11
216.920904
 21
306.699507
 31
0.0
  0
LINE
  8
LC-001-002-----0
 62
     1
  5
36
 10
226.920904
 20
318.699507
 30
0.0
 11
216.920904
 21
318.699507
 31
0.0
  0
LINE
  8
LC-001-002-----0
 62
     1
  5
37
 10
226.920904
 20
300.199507
 30
0.0
 11
216.920904
 21
300.199507
 31
0.0
  0
LINE
  8
LC-001-002-----0
 62
     1
  5
38
 10
226.920904
 20
325.199507
 30
0.0
 11
216.920904
 21
325.199507
 31
0.0
  0
LINE
  8
LC-001-002-----0
 62
     1
  5
39
 10
226.920904
 20
327.199507
 30
0.0
 11
216.920904
 21
327.199507
 31
0.0
  0
LINE
  8
LC-001-002-----0
 62
     1
  5
3A
 10
226.920904
 20
298.199507
 30
0.0
 11
216.920904
 21
298.199507
 31
0.0
  0
LINE
  8
LC-001-002-----0
 62
     1
  5
3B
 10
216.920904
 20
316.199507
 30
0.0
 11
216.920904
 21
309.199507
 31
0.0
  0
LINE
  8
LC-001-002-----0
 62
     1
  5
3C
 10
216.920904
 20
325.199507
 30
0.0
 11
216.920904
 21
318.699507
 31
0.0
  0
LINE
  8
LC-001-002-----0
 62
     1
  5
3D
 10
216.920904
 20
306.699507
 30
0.0
 11
216.920904
 21
300.199507
 31
0.0
  0
LINE
  8
LC-001-002-----0
 62
     1
  5
3E
 10
216.920904
 20
298.199507
 30
0.0
 11
216.920904
 21
293.699507
 31
0.0
  0
LINE
  8
LC-001-002-----0
 62
     1
  5
3F
 10
212.420904
 20
323.949507
 30
0.0
 11
210.420904
 21
323.949507
 31
0.0
  0
LINE
  8
LC-001-002-----0
 62
     1
  5
40
 10
210.420904
 20
323.949507
 30
0.0
 11
210.420904
 21
301.449507
 31
0.0
  0
LINE
  8
LC-001-002-----0
 62
     1
  5
41
 10
210.420904
 20
301.449507
 30
0.0
 11
212.420904
 21
301.449507
 31
0.0
  0
LINE
  8
LC-001-002-----0
 62
     1
  5
42
 10
210.420904
 20
323.949507
 30
0.0
 11
210.420904
 21
324.449507
 31
0.0
  0
LINE
  8
LC-001-002-----0
 62
     1
  5
43
 10
210.420904
 20
301.449507
 30
0.0
 11
210.420904
 21
300.949507
 31
0.0
  0
LINE
  8
LC-001-002-----0
 62
     1
  5
44
 10
210.420904
 20
300.949507
 30
0.0
 11
202.920904
 21
300.949507
 31
0.0
  0
LINE
  8
LC-001-002-----0
 62
     1
  5
45
 10
202.920904
 20
300.949507
 30
0.0
 11
202.920904
 21
294.949507
 31
0.0
  0
LINE
  8
LC-001-002-----0
 62
     1
  5
46
 10
202.920904
 20
294.949507
 30
0.0
 11
184.420904
 21
294.949507
 31
0.0
  0
LINE
  8
LC-001-002-----0
 62
     1
  5
47
 10
184.420904
 20
294.949507
 30
0.0
 11
181.920904
 21
294.949507
 31
0.0
  0
LINE
  8
LC-001-002-----0
 62
     1
  5
48
 10
202.920904
 20
294.949507
 30
0.0
 11
205.420904
 21
294.949507
 31
0.0
  0
LINE
  8
LC-001-002-----0
 62
     1
  5
49
 10
182.670904
 20
287.949507
 30
0.0
 11
204.670904
 21
287.949507
 31
0.0
  0
LINE
  8
LC-001-002-----0
 62
     1
  5
4A
 10
183.170904
 20
280.949507
 30
0.0
 11
204.170904
 21
280.949507
 31
0.0
  0
LINE
  8
LC-001-002-----0
 62
     1
  5
4B
 10
183.920904
 20
273.949507
 30
0.0
 11
203.420904
 21
273.949507
 31
0.0
  0
LINE
  8
LC-001-002-----0
 62
     1
  5
4C
 10
184.670904
 20
266.949507
 30
0.0
 11
202.670904
 21
266.949507
 31
0.0
  0
LINE
  8
LC-001-002-----0
 62
     1
  5
4D
 10
185.420904
 20
259.949507
 30
0.0
 11
201.920904
 21
259.949507
 31
0.0
  0
LINE
  8
LC-001-002-----0
 62
     1
  5
4E
 10
202.670904
 20
266.949507
 30
0.0
 11
201.920904
 21
259.949507
 31
0.0
  0
LINE
  8
LC-001-002-----0
 62
     1
  5
4F
 10
184.670904
 20
266.949507
 30
0.0
 11
185.420904
 21
259.949507
 31
0.0
  0
LINE
  8
LC-001-002-----0
 62
     1
  5
50
 10
205.420904
 20
294.949507
 30
0.0
 11
203.170904
 21
287.949507
 31
0.0
  0
LINE
  8
LC-001-002-----0
 62
     1
  5
51
 10
181.920904
 20
294.949507
 30
0.0
 11
184.170904
 21
287.949507
 31
0.0
  0
LINE
  8
LC-001-002-----0
 62
     1
  5
52
 10
204.670904
 20
287.949507
 30
0.0
 11
202.920904
 21
280.949507
 31
0.0
  0
LINE
  8
LC-001-002-----0
 62
     1
  5
53
 10
182.670904
 20
287.949507
 30
0.0
 11
184.420904
 21
280.949507
 31
0.0
  0
LINE
  8
LC-001-002-----0
 62
     1
  5
54
 10
183.170904
 20
280.949507
 30
0.0
 11
184.670904
 21
273.949507
 31
0.0
  0
LINE
  8
LC-001-002-----0
 62
     1
  5
55
 10
204.170904
 20
280.949507
 30
0.0
 11
202.670904
 21
273.949507
 31
0.0
  0
LINE
  8
LC-001-002-----0
 62
     1
  5
56
 10
203.420904
 20
273.949507
 30
0.0
 11
202.420904
 21
266.949507
 31
0.0
  0
LINE
  8
LC-001-002-----0
 62
     1
  5
57
 10
183.920904
 20
273.949507
 30
0.0
 11
184.920904
 21
266.949507
 31
0.0
  0
LINE
  8
LC-001-002-----0
 62
     1
  5
58
 10
184.420904
 20
309.449507
 30
0.0
 11
184.420904
 21
294.949507
 31
0.0
  0
ARC
  8
LC-001-002-----0
 62
     1
  5
59
 10
199.420904
 20
309.449507
 30
0.0
 40
15.0
 50
90.000019
 51
180.0
  0
LINE
  8
LC-001-002-----0
 62
     1
  5
5A
 10
210.420904
 20
324.449507
 30
0.0
 11
199.420904
 21
324.449507
 31
0.0
  0
LINE
  8
LC-001-002-----0
  6
DASHDOT
 62
     2
  5
5C
 10
193.670904
 20
308.199507
 30
0.0
 11
193.670904
 21
259.949507
 31
0.0
  0
ARC
  8
LC-001-002-----0
  6
DASHDOT
 62
     2
  5
5D
 10
198.170904
 20
308.199507
 30
0.0
 40
4.5
 50
90.000019
 51
180.0
  0
LINE
  8
LC-001-002-----0
 62
     1
  5
5E
 10
333.420904
 20
323.949507
 30
0.0
 11
333.420904
 21
301.449507
 31
0.0
  0
LINE
  8
LC-001-002-----0
 62
     2
  5
5F
 10
202.920904
 20
300.949507
 30
0.0
 11
184.420904
 21
309.449507
 31
0.0
  0
LINE
  8
LC-001-002-----0
  6
DASHDOT
 62
     2
  5
60
 10
271.920904
 20
348.699507
 30
0.0
 11
271.920904
 21
321.372823
 31
0.0
  0
LINE
  8
LC-001-002-----0
 62
     1
  5
61
 10
331.420904
 20
325.699507
 30
0.0
 11
331.420904
 21
299.699507
 31
0.0
  0
LINE
  8
LC-001-002-----0
 62
     1
  5
62
 10
331.420904
 20
328.699507
 30
0.0
 11
331.420904
 21
325.699507
 31
0.0
  0
LINE
  8
LC-001-002-----0
 62
     1
  5
63
 10
331.420904
 20
296.699507
 30
0.0
 11
331.420904
 21
299.699507
 31
0.0
  0
LINE
  8
LC-001-002-----0
 62
     1
  5
64
 10
314.420904
 20
332.699507
 30
0.0
 11
314.420904
 21
292.699507
 31
0.0
  0
LINE
  8
LC-001-002-----0
 62
     1
  5
65
 10
314.420904
 20
292.699507
 30
0.0
 11
316.920904
 21
292.699507
 31
0.0
  0
LINE
  8
LC-001-002-----0
 62
     1
  5
66
 10
316.920904
 20
292.699507
 30
0.0
 11
316.920904
 21
332.699507
 31
0.0
  0
LINE
  8
LC-001-002-----0
 62
     1
  5
67
 10
316.920904
 20
332.699507
 30
0.0
 11
314.420904
 21
332.699507
 31
0.0
  0
LINE
  8
LC-001-002-----0
 62
     1
  5
68
 10
316.920904
 20
331.699507
 30
0.0
 11
326.920904
 21
331.699507
 31
0.0
  0
LINE
  8
LC-001-002-----0
 62
     1
  5
69
 10
331.420904
 20
330.699507
 30
0.0
 11
331.420904
 21
328.699507
 31
0.0
  0
LINE
  8
LC-001-002-----0
 62
     1
  5
6A
 10
316.920904
 20
293.699507
 30
0.0
 11
326.920904
 21
293.699507
 31
0.0
  0
LINE
  8
LC-001-002-----0
 62
     1
  5
6B
 10
331.420904
 20
294.699507
 30
0.0
 11
331.420904
 21
296.699507
 31
0.0
  0
LINE
  8
LC-001-002-----0
 62
     1
  5
6C
 10
326.920904
 20
331.699507
 30
0.0
 11
326.920904
 21
327.199507
 31
0.0
  0
LINE
  8
LC-001-002-----0
 62
     1
  5
6D
 10
316.920904
 20
330.699507
 30
0.0
 11
331.420904
 21
330.699507
 31
0.0
  0
LINE
  8
LC-001-002-----0
 62
     1
  5
6E
 10
316.920904
 20
294.699507
 30
0.0
 11
331.420904
 21
294.699507
 31
0.0
  0
LINE
  8
LC-001-002-----0
 62
     1
  5
6F
 10
316.920904
 20
316.199507
 30
0.0
 11
326.920904
 21
316.199507
 31
0.0
  0
LINE
  8
LC-001-002-----0
 62
     1
  5
70
 10
316.920904
 20
309.199507
 30
0.0
 11
326.920904
 21
309.199507
 31
0.0
  0
LINE
  8
LC-001-002-----0
 62
     1
  5
71
 10
316.920904
 20
306.699507
 30
0.0
 11
326.920904
 21
306.699507
 31
0.0
  0
LINE
  8
LC-001-002-----0
 62
     1
  5
72
 10
316.920904
 20
318.699507
 30
0.0
 11
326.920904
 21
318.699507
 31
0.0
  0
LINE
  8
LC-001-002-----0
 62
     1
  5
73
 10
316.920904
 20
300.199507
 30
0.0
 11
326.920904
 21
300.199507
 31
0.0
  0
LINE
  8
LC-001-002-----0
 62
     1
  5
74
 10
316.920904
 20
325.199507
 30
0.0
 11
326.920904
 21
325.199507
 31
0.0
  0
LINE
  8
LC-001-002-----0
 62
     1
  5
75
 10
316.920904
 20
327.199507
 30
0.0
 11
326.920904
 21
327.199507
 31
0.0
  0
LINE
  8
LC-001-002-----0
 62
     1
  5
76
 10
316.920904
 20
298.199507
 30
0.0
 11
326.920904
 21
298.199507
 31
0.0
  0
LINE
  8
LC-001-002-----0
 62
     1
  5
77
 10
326.920904
 20
316.199507
 30
0.0
 11
326.920904
 21
309.199507
 31
0.0
  0
LINE
  8
LC-001-002-----0
 62
     1
  5
78
 10
326.920904
 20
325.199507
 30
0.0
 11
326.920904
 21
318.699507
 31
0.0
  0
LINE
  8
LC-001-002-----0
 62
     1
  5
79
 10
326.920904
 20
306.699507
 30
0.0
 11
326.920904
 21
300.199507
 31
0.0
  0
LINE
  8
LC-001-002-----0
 62
     1
  5
7A
 10
326.920904
 20
298.199507
 30
0.0
 11
326.920904
 21
293.699507
 31
0.0
  0
LINE
  8
LC-001-002-----0
 62
     1
  5
7B
 10
314.420904
 20
297.699507
 30
0.0
 11
271.920904
 21
297.699507
 31
0.0
  0
LINE
  8
LC-001-002-----0
 62
     1
  5
7C
 10
314.420904
 20
327.699507
 30
0.0
 11
282.920904
 21
327.699507
 31
0.0
  0
LINE
  8
LC-001-002-----0
 62
     1
  5
7D
 10
282.920904
 20
331.699507
 30
0.0
 11
282.920904
 21
327.699507
 31
0.0
  0
LINE
  8
LC-001-002-----0
 62
     1
  5
7E
 10
260.920904
 20
331.699507
 30
0.0
 11
260.920904
 21
327.699507
 31
0.0
  0
ARC
  8
LC-001-002-----0
 62
     1
  5
7F
 10
271.920904
 20
334.098838
 30
0.0
 40
12.726014
 50
210.18902
 51
329.81098
  0
LINE
  8
LC-001-002-----0
 62
     1
  5
80
 10
282.920904
 20
312.699507
 30
0.0
 11
282.920904
 21
312.699507
 31
0.0
  0
LINE
  8
LC-001-002-----0
 62
     1
  5
81
 10
260.920904
 20
327.699507
 30
0.0
 11
229.420904
 21
327.699507
 31
0.0
  0
LINE
  8
LC-001-002-----0
 62
     1
  5
82
 10
333.420904
 20
323.949507
 30
0.0
 11
333.420904
 21
324.449507
 31
0.0
  0
LINE
  8
LC-001-002-----0
 62
     1
  5
83
 10
284.920904
 20
331.699507
 30
0.0
 11
258.920904
 21
331.699507
 31
0.0
  0
LINE
  8
LC-001-002-----0
 62
     1
  5
84
 10
287.920904
 20
331.699507
 30
0.0
 11
284.920904
 21
331.699507
 31
0.0
  0
LINE
  8
LC-001-002-----0
 62
     1
  5
85
 10
255.920904
 20
331.699507
 30
0.0
 11
258.920904
 21
331.699507
 31
0.0
  0
LINE
  8
LC-001-002-----0
 62
     1
  5
86
 10
291.920904
 20
348.699507
 30
0.0
 11
251.920904
 21
348.699507
 31
0.0
  0
LINE
  8
LC-001-002-----0
 62
     1
  5
87
 10
251.920904
 20
348.699507
 30
0.0
 11
251.920904
 21
346.199507
 31
0.0
  0
LINE
  8
LC-001-002-----0
 62
     1
  5
88
 10
251.920904
 20
346.199507
 30
0.0
 11
291.920904
 21
346.199507
 31
0.0
  0
LINE
  8
LC-001-002-----0
 62
     1
  5
89
 10
291.920904
 20
346.199507
 30
0.0
 11
291.920904
 21
348.699507
 31
0.0
  0
LINE
  8
LC-001-002-----0
 62
     1
  5
8A
 10
290.920904
 20
346.199507
 30
0.0
 11
290.920904
 21
336.199507
 31
0.0
  0
LINE
  8
LC-001-002-----0
 62
     1
  5
8B
 10
289.920904
 20
331.699507
 30
0.0
 11
287.920904
 21
331.699507
 31
0.0
  0
LINE
  8
LC-001-002-----0
 62
     1
  5
8C
 10
252.920904
 20
346.199507
 30
0.0
 11
252.920904
 21
336.199507
 31
0.0
  0
LINE
  8
LC-001-002-----0
 62
     1
  5
8D
 10
253.920904
 20
331.699507
 30
0.0
 11
255.920904
 21
331.699507
 31
0.0
  0
LINE
  8
LC-001-002-----0
 62
     1
  5
8E
 10
290.920904
 20
336.199507
 30
0.0
 11
286.420904
 21
336.199507
 31
0.0
  0
LINE
  8
LC-001-002-----0
 62
     1
  5
8F
 10
289.920904
 20
346.199507
 30
0.0
 11
289.920904
 21
331.699507
 31
0.0
  0
LINE
  8
LC-001-002-----0
 62
     1
  5
90
 10
253.920904
 20
346.199507
 30
0.0
 11
253.920904
 21
331.699507
 31
0.0
  0
LINE
  8
LC-001-002-----0
 62
     1
  5
91
 10
275.420904
 20
346.199507
 30
0.0
 11
275.420904
 21
336.199507
 31
0.0
  0
LINE
  8
LC-001-002-----0
 62
     1
  5
92
 10
268.420904
 20
346.199507
 30
0.0
 11
268.420904
 21
336.199507
 31
0.0
  0
LINE
  8
LC-001-002-----0
 62
     1
  5
93
 10
265.920904
 20
346.199507
 30
0.0
 11
265.920904
 21
336.199507
 31
0.0
  0
LINE
  8
LC-001-002-----0
 62
     1
  5
94
 10
277.920904
 20
346.199507
 30
0.0
 11
277.920904
 21
336.199507
 31
0.0
  0
LINE
  8
LC-001-002-----0
 62
     1
  5
95
 10
259.420904
 20
346.199507
 30
0.0
 11
259.420904
 21
336.199507
 31
0.0
  0
LINE
  8
LC-001-002-----0
 62
     1
  5
96
 10
284.420904
 20
346.199507
 30
0.0
 11
284.420904
 21
336.199507
 31
0.0
  0
LINE
  8
LC-001-002-----0
 62
     1
  5
97
 10
286.420904
 20
346.199507
 30
0.0
 11
286.420904
 21
336.199507
 31
0.0
  0
LINE
  8
LC-001-002-----0
 62
     1
  5
98
 10
257.420904
 20
346.199507
 30
0.0
 11
257.420904
 21
336.199507
 31
0.0
  0
LINE
  8
LC-001-002-----0
 62
     1
  5
99
 10
275.420904
 20
336.199507
 30
0.0
 11
268.420904
 21
336.199507
 31
0.0
  0
LINE
  8
LC-001-002-----0
 62
     1
  5
9A
 10
284.420904
 20
336.199507
 30
0.0
 11
277.920904
 21
336.199507
 31
0.0
  0
LINE
  8
LC-001-002-----0
 62
     1
  5
9B
 10
265.920904
 20
336.199507
 30
0.0
 11
259.420904
 21
336.199507
 31
0.0
  0
LINE
  8
LC-001-002-----0
 62
     1
  5
9C
 10
257.420904
 20
336.199507
 30
0.0
 11
252.920904
 21
336.199507
 31
0.0
  0
LINE
  8
LC-001-002-----0
 62
     1
  5
9D
 10
333.420904
 20
301.449507
 30
0.0
 11
333.420904
 21
300.949507
 31
0.0
  0
LINE
  8
LC-001-002-----0
 62
     1
  5
9E
 10
333.420904
 20
300.949507
 30
0.0
 11
340.920904
 21
300.949507
 31
0.0
  0
LINE
  8
LC-001-002-----0
 62
     1
  5
9F
 10
340.920904
 20
300.949507
 30
0.0
 11
340.920904
 21
294.949507
 31
0.0
  0
LINE
  8
LC-001-002-----0
 62
     1
  5
A0
 10
340.920904
 20
294.949507
 30
0.0
 11
359.420904
 21
294.949507
 31
0.0
  0
LINE
  8
LC-001-002-----0
 62
     1
  5
A1
 10
359.420904
 20
294.949507
 30
0.0
 11
361.920904
 21
294.949507
 31
0.0
  0
LINE
  8
LC-001-002-----0
 62
     1
  5
A2
 10
340.920904
 20
294.949507
 30
0.0
 11
338.420904
 21
294.949507
 31
0.0
  0
LINE
  8
LC-001-002-----0
 62
     1
  5
A3
 10
361.170904
 20
287.949507
 30
0.0
 11
339.170904
 21
287.949507
 31
0.0
  0
LINE
  8
LC-001-002-----0
 62
     1
  5
A4
 10
360.670904
 20
280.949507
 30
0.0
 11
339.670904
 21
280.949507
 31
0.0
  0
LINE
  8
LC-001-002-----0
 62
     1
  5
A5
 10
359.920904
 20
273.949507
 30
0.0
 11
340.420904
 21
273.949507
 31
0.0
  0
LINE
  8
LC-001-002-----0
 62
     1
  5
A6
 10
359.170904
 20
266.949507
 30
0.0
 11
341.170904
 21
266.949507
 31
0.0
  0
LINE
  8
LC-001-002-----0
 62
     1
  5
A7
 10
358.420904
 20
259.949507
 30
0.0
 11
341.920904
 21
259.949507
 31
0.0
  0
LINE
  8
LC-001-002-----0
 62
     1
  5
A8
 10
341.170904
 20
266.949507
 30
0.0
 11
341.920904
 21
259.949507
 31
0.0
  0
LINE
  8
LC-001-002-----0
 62
     1
  5
A9
 10
359.170904
 20
266.949507
 30
0.0
 11
358.420904
 21
259.949507
 31
0.0
  0
LINE
  8
LC-001-002-----0
 62
     1
  5
AA
 10
338.420904
 20
294.949507
 30
0.0
 11
340.670904
 21
287.949507
 31
0.0
  0
LINE
  8
LC-001-002-----0
 62
     1
  5
AB
 10
361.920904
 20
294.949507
 30
0.0
 11
359.670904
 21
287.949507
 31
0.0
  0
LINE
  8
LC-001-002-----0
 62
     1
  5
AC
 10
339.170904
 20
287.949507
 30
0.0
 11
340.920904
 21
280.949507
 31
0.0
  0
LINE
  8
LC-001-002-----0
 62
     1
  5
AD
 10
361.170904
 20
287.949507
 30
0.0
 11
359.420904
 21
280.949507
 31
0.0
  0
LINE
  8
LC-001-002-----0
 62
     1
  5
AE
 10
360.670904
 20
280.949507
 30
0.0
 11
359.170904
 21
273.949507
 31
0.0
  0
LINE
  8
LC-001-002-----0
 62
     1
  5
AF
 10
339.670904
 20
280.949507
 30
0.0
 11
341.170904
 21
273.949507
 31
0.0
  0
LINE
  8
LC-001-002-----0
 62
     1
  5
B0
 10
340.420904
 20
273.949507
 30
0.0
 11
341.420904
 21
266.949507
 31
0.0
  0
LINE
  8
LC-001-002-----0
 62
     1
  5
B1
 10
359.920904
 20
273.949507
 30
0.0
 11
358.920904
 21
266.949507
 31
0.0
  0
LINE
  8
LC-001-002-----0
  6
DASHDOT
 62
     2
  5
B2
 10
345.670906
 20
312.699507
 30
0.0
 11
198.170904
 21
312.699507
 31
0.0
  0
LINE
  8
LC-001-002-----0
 62
     1
  5
B3
 10
359.420904
 20
309.449507
 30
0.0
 11
359.420904
 21
294.949507
 31
0.0
  0
DIMENSION
  8
LC-003-003-----0
 62
     2
  5
D2
  2
*D0
 10
224.83858
 20
392.0
 30
0.0
 11
224.83858
 21
392.0
 31
0.0
  1
1"
 13
289.920904
 23
346.199507
 33
0.0
 14
252.920904
 24
346.199507
 34
0.0
  3
LC-DIM-L-0140-02-02
  0
ARC
  8
LC-001-002-----0
 62
     1
  5
D3
 10
344.420904
 20
309.449507
 30
0.0
 40
15.0
 50
0.0
 51
89.999981
  0
LINE
  8
LC-001-002-----0
 62
     1
  5
D4
 10
333.420904
 20
324.449507
 30
0.0
 11
344.420904
 21
324.449507
 31
0.0
  0
LINE
  8
LC-001-002-----0
  6
DASHDOT
 62
     2
  5
D5
 10
350.170904
 20
308.199507
 30
0.0
 11
350.170904
 21
259.949507
 31
0.0
  0
ARC
  8
LC-001-002-----0
  6
DASHDOT
 62
     2
  5
D6
 10
345.670904
 20
308.199507
 30
0.0
 40
4.5
 50
0.0
 51
89.999981
  0
LINE
  8
LC-001-002-----0
 62
     2
  5
D7
 10
340.920904
 20
300.949507
 30
0.0
 11
359.420904
 21
309.449507
 31
0.0
  0
LINE
  8
LC-001-002-----0
 62
     1
  5
D8
 10
331.420904
 20
323.949507
 30
0.0
 11
333.420904
 21
323.949507
 31
0.0
  0
LINE
  8
LC-001-002-----0
 62
     1
  5
D9
 10
333.420904
 20
301.449507
 30
0.0
 11
331.420904
 21
301.449507
 31
0.0
  0
DIMENSION
  8
LC-003-003-----0
 62
     2
  5
F3
  2
*D1
 10
350.170904
 20
235.2
 30
0.0
 11
350.170904
 21
235.2
 31
0.0
  1
%%c17-23
 13
341.920904
 23
259.949507
 33
0.0
 14
358.420904
 24
259.949507
 34
0.0
  3
LC-DIM-L-0140-02-02
  0
DIMENSION
  8
LC-003-003-----0
 62
     2
  5
10D
  2
*D2
 10
392.0
 20
330.699507
 30
0.0
 11
392.0
 21
330.699507
 31
0.0
  1
35
 13
345.670906
 23
312.699507
 33
0.0
 14
291.920904
 24
348.699507
 34
0.0
 50
90.0
  3
LC-DIM-L-0140-02-02
  0
DIMENSION
  8
LC-003-003-----0
 62
     2
  5
127
  2
*D3
 10
271.920904
 20
196.0
 30
0.0
 11
271.920904
 21
196.0
 31
0.0
  1
158
 13
193.670904
 23
259.949507
 33
0.0
 14
350.170904
 24
259.949507
 34
0.0
  3
LC-DIM-L-0140-02-02
  0
LINE
  8
LC-001-002-----0
 62
     1
  5
128
 10
271.920904
 20
297.699507
 30
0.0
 11
229.420904
 21
297.699507
 31
0.0
  0
ENDSEC
  0
EOF
