  0
SECTION
  2
HEADER
  9
$ACADVER
  1
AC1009
  9
$INSBASE
 10
0.0
 20
0.0
 30
0.0
  9
$EXTMIN
 10
0.0
 20
0.0
 30
0.0
  9
$EXTMAX
 10
840.0
 20
594.0
 30
0.0
  9
$LIMMIN
 10
0.0
 20
0.0
  9
$LIMMAX
 10
840.0
 20
594.0
  9
$ORTHOMODE
 70
     0
  9
$REGENMODE
 70
     1
  9
$FILLMODE
 70
     1
  9
$QTEXTMODE
 70
     0
  9
$MIRRTEXT
 70
     1
  9
$DRAGMODE
 70
     2
  9
$LTSCALE
 40
2.0
  9
$OSMODE
 70
     0
  9
$ATTMODE
 70
     1
  9
$TEXTSIZE
 40
0.2
  9
$TRACEWID
 40
0.05
  9
$TEXTSTYLE
  7
STANDARD
  9
$CLAYER
  8
0
  9
$CELTYPE
  6
BYLAYER
  9
$CECOLOR
 62
     7
  9
$DIMSCALE
 40
2.0
  9
$DIMASZ
 40
3.5
  9
$DIMEXO
 40
0.0625
  9
$DIMDLI
 40
0.38
  9
$DIMRND
 40
0.0
  9
$DIMDLE
 40
0.0
  9
$DIMEXE
 40
0.18
  9
$DIMTP
 40
0.0
  9
$DIMTM
 40
0.0
  9
$DIMTXT
 40
3.5
  9
$DIMCEN
 40
0.09
  9
$DIMTSZ
 40
0.0
  9
$DIMTOL
 70
     0
  9
$DIMLIM
 70
     0
  9
$DIMTIH
 70
     1
  9
$DIMTOH
 70
     1
  9
$DIMSE1
 70
     0
  9
$DIMSE2
 70
     0
  9
$DIMTAD
 70
     1
  9
$DIMZIN
 70
     0
  9
$DIMBLK
  1

  9
$DIMASO
 70
     1
  9
$DIMSHO
 70
     1
  9
$DIMPOST
  1

  9
$DIMAPOST
  1

  9
$DIMALT
 70
     0
  9
$DIMALTD
 70
     2
  9
$DIMALTF
 40
25.4
  9
$DIMLFAC
 40
1.0
  9
$DIMTOFL
 70
     0
  9
$DIMTVP
 40
0.0
  9
$DIMTIX
 70
     0
  9
$DIMSOXD
 70
     0
  9
$DIMSAH
 70
     0
  9
$DIMBLK1
  1

  9
$DIMBLK2
  1

  9
$DIMSTYLE
  2
STANDARD
  9
$DIMCLRD
 70
     0
  9
$DIMCLRE
 70
     0
  9
$DIMCLRT
 70
     0
  9
$DIMTFAC
 40
1.0
  9
$DIMGAP
 40
0.09
  9
$LUNITS
 70
     2
  9
$LUPREC
 70
     2
  9
$AXISMODE
 70
     0
  9
$AXISUNIT
 10
0.0
 20
0.0
  9
$SKETCHINC
 40
0.1
  9
$FILLETRAD
 40
0.0
  9
$AUNITS
 70
     0
  9
$AUPREC
 70
     0
  9
$MENU
  1
acad
  9
$ELEVATION
 40
0.0
  9
$PELEVATION
 40
0.0
  9
$THICKNESS
 40
0.0
  9
$LIMCHECK
 70
     0
  9
$BLIPMODE
 70
     1
  9
$CHAMFERA
 40
0.0
  9
$CHAMFERB
 40
0.0
  9
$SKPOLY
 70
     0
  9
$TDCREATE
 40
0.000000000
  9
$TDUPDATE
 40
0.000000000
  9
$TDINDWG
 40
0.0000000000
  9
$TDUSRTIMER
 40
0.0000000000
  9
$USRTIMER
 70
     1
  9
$ANGBASE
 50
0.0
  9
$ANGDIR
 70
     0
  9
$PDMODE
 70
     0
  9
$PDSIZE
 40
0.0
  9
$PLINEWID
 40
0.0
  9
$COORDS
 70
     0
  9
$SPLFRAME
 70
     0
  9
$SPLINETYPE
 70
     6
  9
$SPLINESEGS
 70
     8
  9
$ATTDIA
 70
     0
  9
$ATTREQ
 70
     1
  9
$HANDLING
 70
     1
  9
$HANDSEED
  5
91
  9
$SURFTAB1
 70
     6
  9
$SURFTAB2
 70
     6
  9
$SURFTYPE
 70
     6
  9
$SURFU
 70
     6
  9
$SURFV
 70
     6
  9
$UCSNAME
  2

  9
$UCSORG
 10
0.0
 20
0.0
 30
0.0
  9
$UCSXDIR
 10
1.0
 20
0.0
 30
0.0
  9
$UCSYDIR
 10
0.0
 20
1.0
 30
0.0
  9
$PUCSNAME
  2

  9
$PUCSORG
 10
0.0
 20
0.0
 30
0.0
  9
$PUCSXDIR
 10
1.0
 20
0.0
 30
0.0
  9
$PUCSYDIR
 10
0.0
 20
1.0
 30
0.0
  9
$USERI1
 70
     0
  9
$USERI2
 70
     0
  9
$USERI3
 70
     0
  9
$USERI4
 70
     0
  9
$USERI5
 70
     0
  9
$USERR1
 40
0.0
  9
$USERR2
 40
0.0
  9
$USERR3
 40
0.0
  9
$USERR4
 40
0.0
  9
$USERR5
 40
0.0
  9
$WORLDVIEW
 70
     1
  9
$SHADEDGE
 70
     3
  9
$SHADEDIF
 70
    70
  9
$TILEMODE
 70
     1
  9
$MAXACTVP
 70
    16
  9
$PINSBASE
 10
0.0
 20
0.0
 30
0.0
  9
$PLIMCHECK
 70
     0
  9
$PEXTMIN
 10
1.000000E+20
 20
1.000000E+20
 30
1.000000E+20
  9
$PEXTMAX
 10
-1.000000E+20
 20
-1.000000E+20
 30
-1.000000E+20
  9
$PLIMMIN
 10
0.0
 20
0.0
  9
$PLIMMAX
 10
840.0
 20
594.0
  9
$UNITMODE
 70
     0
  9
$VISRETAIN
 70
     0
  9
$PLINEGEN
 70
     1
  9
$PSLTSCALE
 70
     0
  9
$TREEDEPTH
 70
  3020
  9
$DWGCODEPAGE
  3
dos850
  0
ENDSEC
  0
SECTION
  2
TABLES
  0
TABLE
  2
VPORT
 70
     1
  0
VPORT
  2
*ACTIVE
 70
     0
 10
0.0
 20
0.0
 11
1.0
 21
1.0
 12
420.0
 22
297.0
 13
0.0
 23
0.0
 14
1.0
 24
1.0
 15
0.0
 25
0.0
 16
0.0
 26
0.0
 36
1.0
 17
0.0
 27
0.0
 37
0.0
 40
594.0
 41
1.604229
 42
50.0
 43
0.0
 44
0.0
 50
0.0
 51
0.0
 71
     0
 72
   100
 73
     1
 74
     1
 75
     0
 76
     0
 77
     0
 78
     0
  0
ENDTAB
  0
TABLE
  2
LTYPE
 70
     2
  0
LTYPE
  2
CONTINUOUS
 70
    64
  3
Solid line
 72
    65
 73
     0
 40
0.0
  0
LTYPE
  2
DASHDOT
 70
    64
  3
__ . __ . __ . __ . __
 72
    65
 73
     4
 40
7.5
 49
5.0
 49
-1.25
 49
0.0
 49
-1.25
  0
ENDTAB
  0
TABLE
  2
LAYER
 70
     8
  0
LAYER
  2
0
 70
     0
 62
     7
  6
CONTINUOUS
  0
LAYER
  2
LC-INFO-1-2-MM-A3-0
 70
     1
 62
    -1
  6
CONTINUOUS
  0
LAYER
  2
LC-002-003-MTH-0
 70
     0
 62
     2
  6
CONTINUOUS
  0
LAYER
  2
LC-003-003-MTG-0
 70
     0
 62
     2
  6
CONTINUOUS
  0
LAYER
  2
LC-001-003-----0
 70
     0
 62
     2
  6
CONTINUOUS
  0
LAYER
  2
LC-004-002-----0
 70
     0
 62
     1
  6
CONTINUOUS
  0
LAYER
  2
LC-005-002-RND-0
 70
     0
 62
     1
  6
CONTINUOUS
  0
LAYER
  2
LC-000
 70
     0
 62
     7
  6
CONTINUOUS
  0
ENDTAB
  0
TABLE
  2
STYLE
 70
     4
  0
STYLE
  2
STANDARD
 70
     0
 40
0.0
 41
1.0
 50
0.0
 71
     0
 42
0.0
  3
txt
  4

  0
STYLE
  2
LC-STANDARD
 70
    64
 40
0.0
 41
1.0
 50
0.0
 71
     0
 42
3.5
  3
MONOTXT
  4

  0
STYLE
  2
LC-TXTSTYLE-150-400-0-0-D2
 70
    64
 40
0.0
 41
1.0
 50
15.0
 71
     0
 42
3.5
  3
MONOTXT
  4

  0
STYLE
  2
LC-TXTSTYLE-150-400-0-0-D3
 70
    64
 40
0.0
 41
1.0
 50
15.0
 71
     0
 42
3.5
  3
LC-STANDARD
  4

  0
ENDTAB
  0
TABLE
  2
VIEW
 70
     0
  0
ENDTAB
  0
TABLE
  2
UCS
 70
     0
  0
ENDTAB
  0
TABLE
  2
APPID
 70
     1
  0
APPID
  2
ACAD
 70
     0
  0
ENDTAB
  0
TABLE
  2
DIMSTYLE
 70
     3
  0
DIMSTYLE
  2
STANDARD
 70
     0
  3

  4

  5

  6

  7

 40
1.0
 41
0.18
 42
0.0625
 43
0.38
 44
0.18
 45
0.0
 46
0.0
 47
0.0
 48
0.0
 71
     0
 72
     0
 73
     1
 74
     1
 75
     0
 76
     0
 77
     0
 78
     0
140
0.18
141
0.09
142
0.0
143
25.4
144
1.0
145
0.0
146
1.0
147
0.09
170
     0
171
     2
172
     0
173
     0
174
     0
175
     0
176
     0
177
     0
178
     0
  0
DIMSTYLE
  2
LC-STANDARD
 70
     0
  3

  4

  5

  6

  7

 40
1.0
 41
3.5
 42
0.0
 43
7.5
 44
1.8
 45
0.0
 46
0.0
 47
0.0
 48
0.0
 71
     0
 72
     0
 73
     0
 74
     0
 75
     0
 76
     0
 77
     1
 78
     8
140
3.5
141
0.0
142
0.0
143
25.4
144
1.0
145
0.0
146
0.71
147
1.5
170
     0
171
     2
172
     1
173
     0
174
     0
175
     0
176
     0
177
     0
178
     3
  0
DIMSTYLE
  2
LC-DIM-L-0090-02-02
 70
     0
  3

  4

  5

  6

  7

 40
2.0
 41
3.5
 42
0.0
 43
7.5
 44
1.8
 45
0.0
 46
0.0
 47
0.0
 48
0.0
 71
     0
 72
     0
 73
     0
 74
     0
 75
     0
 76
     0
 77
     1
 78
     8
140
9.0
141
0.0
142
0.0
143
25.4
144
1.0
145
0.0
146
0.71
147
1.5
170
     0
171
     2
172
     0
173
     0
174
     0
175
     0
176
     2
177
     2
178
     6
  0
ENDTAB
  0
ENDSEC
  0
SECTION
  2
BLOCKS
  0
BLOCK
  8
0
  5
23
  2
*D0
 70
    65
 10
0.0
 20
0.0
 30
0.0
  3
*D0
  0
LINE
  8
LC-002-003-MTH-0
  6
CONTINUOUS
  5
25
 10
337.23806
 20
372.13761
 30
0.0
 11
337.23806
 21
416.8
 31
0.0
  0
LINE
  8
LC-002-003-MTH-0
  6
CONTINUOUS
  5
26
 10
535.23806
 20
333.333762
 30
0.0
 11
535.23806
 21
416.8
 31
0.0
  0
LINE
  8
LC-003-003-MTG-0
  6
CONTINUOUS
  5
28
 10
337.23806
 20
406.0
 30
0.0
 11
535.23806
 21
406.0
 31
0.0
  0
LINE
  8
LC-001-003-----0
  6
CONTINUOUS
  5
2A
 10
355.084067
 20
408.349471
 30
0.0
 11
337.23806
 21
406.0
 31
0.0
  0
LINE
  8
LC-001-003-----0
  6
CONTINUOUS
  5
2B
 10
337.23806
 20
406.0
 30
0.0
 11
355.084067
 21
403.650529
 31
0.0
  0
LINE
  8
LC-001-003-----0
  6
CONTINUOUS
  5
2C
 10
355.084067
 20
403.650529
 30
0.0
 11
355.084067
 21
408.349471
 31
0.0
  0
LINE
  8
LC-001-003-----0
  6
CONTINUOUS
  5
2D
 10
355.124105
 20
407.738609
 30
0.0
 11
341.91806
 21
406.0
 31
0.0
  0
LINE
  8
LC-001-003-----0
  6
CONTINUOUS
  5
2E
 10
341.91806
 20
406.0
 30
0.0
 11
355.124105
 21
404.261391
 31
0.0
  0
LINE
  8
LC-001-003-----0
  6
CONTINUOUS
  5
2F
 10
355.164143
 20
407.127746
 30
0.0
 11
346.59806
 21
406.0
 31
0.0
  0
LINE
  8
LC-001-003-----0
  6
CONTINUOUS
  5
30
 10
346.59806
 20
406.0
 30
0.0
 11
355.164143
 21
404.872254
 31
0.0
  0
LINE
  8
LC-001-003-----0
  6
CONTINUOUS
  5
31
 10
355.204182
 20
406.516884
 30
0.0
 11
351.27806
 21
406.0
 31
0.0
  0
LINE
  8
LC-001-003-----0
  6
CONTINUOUS
  5
32
 10
351.27806
 20
406.0
 30
0.0
 11
355.204182
 21
405.483116
 31
0.0
  0
LINE
  8
LC-001-003-----0
  6
CONTINUOUS
  5
33
 10
517.392052
 20
403.650529
 30
0.0
 11
535.23806
 21
406.0
 31
0.0
  0
LINE
  8
LC-001-003-----0
  6
CONTINUOUS
  5
34
 10
535.23806
 20
406.0
 30
0.0
 11
517.392052
 21
408.349471
 31
0.0
  0
LINE
  8
LC-001-003-----0
  6
CONTINUOUS
  5
35
 10
517.392052
 20
408.349471
 30
0.0
 11
517.392052
 21
403.650529
 31
0.0
  0
LINE
  8
LC-001-003-----0
  6
CONTINUOUS
  5
36
 10
517.352014
 20
404.261391
 30
0.0
 11
530.55806
 21
406.0
 31
0.0
  0
LINE
  8
LC-001-003-----0
  6
CONTINUOUS
  5
37
 10
530.55806
 20
406.0
 30
0.0
 11
517.352014
 21
407.738609
 31
0.0
  0
LINE
  8
LC-001-003-----0
  6
CONTINUOUS
  5
38
 10
517.311976
 20
404.872254
 30
0.0
 11
525.87806
 21
406.0
 31
0.0
  0
LINE
  8
LC-001-003-----0
  6
CONTINUOUS
  5
39
 10
525.87806
 20
406.0
 30
0.0
 11
517.311976
 21
407.127746
 31
0.0
  0
LINE
  8
LC-001-003-----0
  6
CONTINUOUS
  5
3A
 10
517.271938
 20
405.483116
 30
0.0
 11
521.19806
 21
406.0
 31
0.0
  0
LINE
  8
LC-001-003-----0
  6
CONTINUOUS
  5
3B
 10
521.19806
 20
406.0
 30
0.0
 11
517.271938
 21
406.516884
 31
0.0
  0
TEXT
  8
LC-001-003-----0
  6
CONTINUOUS
 62
     6
  5
3D
 10
419.899447
 20
416.431999
 30
0.0
 40
18.0
  1
200
 41
0.9
 51
15.0
  7
LC-TXTSTYLE-150-400-0-0-D0
 72
     1
 11
439.033306
 21
416.431999
 31
0.0
  0
ENDBLK
  8
0
  5
3E
  0
BLOCK
  8
0
  5
40
  2
*D1
 70
    65
 10
0.0
 20
0.0
 30
0.0
  3
*D1
  0
LINE
  8
LC-002-003-MTH-0
  6
CONTINUOUS
  5
41
 10
532.23806
 20
284.13761
 30
0.0
 11
610.8
 21
284.13761
 31
0.0
  0
LINE
  8
LC-002-003-MTH-0
  6
CONTINUOUS
  5
42
 10
532.23806
 20
334.13761
 30
0.0
 11
610.8
 21
334.13761
 31
0.0
  0
LINE
  8
LC-001-003-----0
  6
CONTINUOUS
  5
43
 10
602.349471
 20
266.291602
 30
0.0
 11
600.0
 21
284.13761
 31
0.0
  0
LINE
  8
LC-001-003-----0
  6
CONTINUOUS
  5
44
 10
600.0
 20
284.13761
 30
0.0
 11
597.650529
 21
266.291602
 31
0.0
  0
LINE
  8
LC-001-003-----0
  6
CONTINUOUS
  5
45
 10
597.650529
 20
266.291602
 30
0.0
 11
602.349471
 21
266.291602
 31
0.0
  0
LINE
  8
LC-001-003-----0
  6
CONTINUOUS
  5
46
 10
601.738609
 20
266.251564
 30
0.0
 11
600.0
 21
279.45761
 31
0.0
  0
LINE
  8
LC-001-003-----0
  6
CONTINUOUS
  5
47
 10
600.0
 20
279.45761
 30
0.0
 11
598.261391
 21
266.251564
 31
0.0
  0
LINE
  8
LC-001-003-----0
  6
CONTINUOUS
  5
48
 10
601.127746
 20
266.211526
 30
0.0
 11
600.0
 21
274.77761
 31
0.0
  0
LINE
  8
LC-001-003-----0
  6
CONTINUOUS
  5
49
 10
600.0
 20
274.77761
 30
0.0
 11
598.872254
 21
266.211526
 31
0.0
  0
LINE
  8
LC-001-003-----0
  6
CONTINUOUS
  5
4A
 10
600.516884
 20
266.171488
 30
0.0
 11
600.0
 21
270.09761
 31
0.0
  0
LINE
  8
LC-001-003-----0
  6
CONTINUOUS
  5
4B
 10
600.0
 20
270.09761
 30
0.0
 11
599.483116
 21
266.171488
 31
0.0
  0
LINE
  8
LC-001-003-----0
  6
CONTINUOUS
  5
4C
 10
597.650529
 20
351.983617
 30
0.0
 11
600.0
 21
334.13761
 31
0.0
  0
LINE
  8
LC-001-003-----0
  6
CONTINUOUS
  5
4D
 10
600.0
 20
334.13761
 30
0.0
 11
602.349471
 21
351.983617
 31
0.0
  0
LINE
  8
LC-001-003-----0
  6
CONTINUOUS
  5
4E
 10
602.349471
 20
351.983617
 30
0.0
 11
597.650529
 21
351.983617
 31
0.0
  0
LINE
  8
LC-001-003-----0
  6
CONTINUOUS
  5
4F
 10
598.261391
 20
352.023655
 30
0.0
 11
600.0
 21
338.81761
 31
0.0
  0
LINE
  8
LC-001-003-----0
  6
CONTINUOUS
  5
50
 10
600.0
 20
338.81761
 30
0.0
 11
601.738609
 21
352.023655
 31
0.0
  0
LINE
  8
LC-001-003-----0
  6
CONTINUOUS
  5
51
 10
598.872254
 20
352.063693
 30
0.0
 11
600.0
 21
343.49761
 31
0.0
  0
LINE
  8
LC-001-003-----0
  6
CONTINUOUS
  5
52
 10
600.0
 20
343.49761
 30
0.0
 11
601.127746
 21
352.063693
 31
0.0
  0
LINE
  8
LC-001-003-----0
  6
CONTINUOUS
  5
53
 10
599.483116
 20
352.103731
 30
0.0
 11
600.0
 21
348.17761
 31
0.0
  0
LINE
  8
LC-001-003-----0
  6
CONTINUOUS
  5
54
 10
600.0
 20
348.17761
 30
0.0
 11
600.516884
 21
352.103731
 31
0.0
  0
LINE
  8
LC-003-003-MTG-0
  6
CONTINUOUS
  5
55
 10
600.0
 20
258.93761
 30
0.0
 11
600.0
 21
424.540129
 31
0.0
  0
TEXT
  8
LC-001-003-----0
  6
CONTINUOUS
 62
     6
  5
56
 10
589.568001
 20
361.412855
 30
0.0
 40
18.0
  1
DN50
 50
90.0
 51
15.0
  7
LC-TXTSTYLE-150-400-0-0-D0
  0
ENDBLK
  8
0
  5
57
  0
ENDSEC
  0
SECTION
  2
ENTITIES
  0
VIEWPORT
  8
LC-000
  5
8D
 67
     1
 68
     1
 10
420.0
 20
297.0
 30
0.0
 40
840.0
 41
594.0
 69
     1
1001
ACAD
1000
MVIEW
1002
{
1070
    16
1010
0.0
1020
0.0
1030
0.0
1010
0.0
1020
0.0
1030
1.0
1040
0.0
1040
594.0
1040
420.0
1040
297.0
1040
50.0
1040
0.0
1040
0.0
1070
     0
1070
   100
1070
     1
1070
     1
1070
     0
1070
     0
1070
     0
1070
     0
1040
0.0
1040
0.0
1040
0.0
1040
1.0
1040
1.0
1040
0.0
1040
0.0
1070
     0
1002
{
1002
}
1002
}
  0
VIEWPORT
  8
0
  5
8E
 67
     1
 68
     1
 10
0.0
 20
0.0
 30
0.0
 40
0.0
 41
0.0
 69
     1
1001
ACAD
1000
MVIEW
1002
{
1070
    16
1010
0.0
1020
0.0
1030
0.0
1010
0.0
1020
0.0
1030
1.0
1040
0.0
1040
594.0
1040
0.0
1040
0.0
1040
50.0
1040
0.0
1040
0.0
1070
     0
1070
   100
1070
     0
1070
     1
1070
     0
1070
     0
1070
     0
1070
     0
1040
0.0
1040
0.0
1040
0.0
1040
0.5
1040
0.5
1040
0.5
1040
0.5
1070
     0
1002
{
1002
}
1002
}
  0
DIMENSION
  8
0
  5
58
  2
*D0
 10
436.23806
 20
406.0
 30
0.0
 11
436.23806
 21
406.0
 31
0.0
  1
200
 13
337.23806
 23
372.13761
 33
0.0
 14
535.23806
 24
333.333762
 34
0.0
  3
LC-DIM-L-0090-02-02
  0
DIMENSION
  8
0
  5
59
  2
*D1
 10
600.0
 20
325.512
 30
0.0
 11
600.0
 21
325.512
 31
0.0
  1
DN50
 13
532.23806
 23
284.13761
 33
0.0
 14
532.23806
 24
334.13761
 34
0.0
 50
90.0
  3
LC-DIM-L-0090-02-02
  0
LINE
  8
LC-004-002-----0
  6
CONTINUOUS
  5
5B
 10
532.23806
 20
334.13761
 30
0.0
 11
532.23806
 21
284.13761
 31
0.0
  0
LINE
  8
LC-004-002-----0
  6
DASHDOT
 62
     2
  5
5D
 10
337.23806
 20
372.13761
 30
0.0
 11
337.23806
 21
368.13761
 31
0.0
  0
LINE
  8
LC-004-002-----0
  6
DASHDOT
 62
     2
  5
5E
 10
337.23806
 20
353.13761
 30
0.0
 11
337.23806
 21
334.13761
 31
0.0
  0
LINE
  8
LC-004-002-----0
  6
CONTINUOUS
  5
5F
 10
362.23806
 20
284.13761
 30
0.0
 11
532.23806
 21
284.13761
 31
0.0
  0
LINE
  8
LC-004-002-----0
  6
CONTINUOUS
  5
60
 10
312.23806
 20
334.13761
 30
0.0
 11
532.23806
 21
334.13761
 31
0.0
  0
LINE
  8
LC-004-002-----0
  6
CONTINUOUS
  5
61
 10
310.23806
 20
352.13761
 30
0.0
 11
310.23806
 21
336.13761
 31
0.0
  0
LINE
  8
LC-004-002-----0
  6
CONTINUOUS
  5
62
 10
364.23806
 20
352.13761
 30
0.0
 11
364.23806
 21
336.13761
 31
0.0
  0
ARC
  8
LC-005-002-RND-0
  6
CONTINUOUS
  5
64
 10
362.23806
 20
334.13761
 30
0.0
 40
50.0
 50
180.0
 51
270.0
  0
LINE
  8
LC-004-002-----0
  6
CONTINUOUS
  5
65
 10
362.23806
 20
334.13761
 30
0.0
 11
344.56039
 21
316.45994
 31
0.0
  0
LINE
  8
LC-004-002-----0
  6
CONTINUOUS
  5
66
 10
312.23806
 20
334.13761
 30
0.0
 11
310.23806
 21
336.13761
 31
0.0
  0
LINE
  8
LC-004-002-----0
  6
CONTINUOUS
  5
67
 10
362.23806
 20
334.13761
 30
0.0
 11
364.23806
 21
336.13761
 31
0.0
  0
LINE
  8
LC-004-002-----0
  6
CONTINUOUS
  5
68
 10
310.23806
 20
336.13761
 30
0.0
 11
364.23806
 21
336.13761
 31
0.0
  0
LINE
  8
LC-004-002-----0
  6
CONTINUOUS
  5
69
 10
312.23806
 20
334.13761
 30
0.0
 11
312.23806
 21
334.13761
 31
0.0
  0
LINE
  8
LC-004-002-----0
  6
CONTINUOUS
  5
6A
 10
305.73806
 20
369.13761
 30
0.0
 11
305.73806
 21
353.13761
 31
0.0
  0
LINE
  8
LC-004-002-----0
  6
CONTINUOUS
  5
6B
 10
304.73806
 20
352.13761
 30
0.0
 11
369.73806
 21
352.13761
 31
0.0
  0
LINE
  8
LC-004-002-----0
  6
CONTINUOUS
  5
6C
 10
304.73806
 20
353.13761
 30
0.0
 11
369.73806
 21
353.13761
 31
0.0
  0
ARC
  8
LC-005-002-RND-0
  6
CONTINUOUS
  5
6D
 10
308.73806
 20
369.13761
 30
0.0
 40
3.0
 50
90.0
 51
180.0
  0
LINE
  8
LC-004-002-----0
  6
CONTINUOUS
  5
6E
 10
368.73806
 20
369.13761
 30
0.0
 11
368.73806
 21
353.13761
 31
0.0
  0
LINE
  8
LC-004-002-----0
  6
CONTINUOUS
  5
6F
 10
304.73806
 20
353.13761
 30
0.0
 11
304.73806
 21
352.13761
 31
0.0
  0
LINE
  8
LC-004-002-----0
  6
CONTINUOUS
  5
70
 10
369.73806
 20
353.13761
 30
0.0
 11
369.73806
 21
352.13761
 31
0.0
  0
ARC
  8
LC-005-002-RND-0
  6
CONTINUOUS
  5
71
 10
365.73806
 20
369.13761
 30
0.0
 40
3.0
 50
0.0
 51
90.0
  0
LINE
  8
LC-004-002-----0
  6
CONTINUOUS
  5
72
 10
308.73806
 20
372.13761
 30
0.0
 11
365.73806
 21
372.13761
 31
0.0
  0
LINE
  8
LC-004-002-----0
  6
CONTINUOUS
  5
73
 10
332.23806
 20
368.13761
 30
0.0
 11
332.23806
 21
353.13761
 31
0.0
  0
LINE
  8
LC-004-002-----0
  6
CONTINUOUS
  5
74
 10
342.23806
 20
368.13761
 30
0.0
 11
342.23806
 21
353.13761
 31
0.0
  0
LINE
  8
LC-004-002-----0
  6
CONTINUOUS
  5
75
 10
341.23806
 20
368.13761
 30
0.0
 11
341.23806
 21
353.13761
 31
0.0
  0
LINE
  8
LC-004-002-----0
  6
CONTINUOUS
  5
76
 10
340.23806
 20
368.13761
 30
0.0
 11
340.23806
 21
353.13761
 31
0.0
  0
LINE
  8
LC-004-002-----0
  6
CONTINUOUS
  5
77
 10
339.23806
 20
368.13761
 30
0.0
 11
339.23806
 21
353.13761
 31
0.0
  0
LINE
  8
LC-004-002-----0
  6
CONTINUOUS
  5
78
 10
338.23806
 20
368.13761
 30
0.0
 11
338.23806
 21
353.13761
 31
0.0
  0
LINE
  8
LC-004-002-----0
  6
CONTINUOUS
  5
79
 10
337.23806
 20
368.13761
 30
0.0
 11
337.23806
 21
353.13761
 31
0.0
  0
LINE
  8
LC-004-002-----0
  6
CONTINUOUS
  5
7A
 10
336.23806
 20
368.13761
 30
0.0
 11
336.23806
 21
353.13761
 31
0.0
  0
LINE
  8
LC-004-002-----0
  6
CONTINUOUS
  5
7B
 10
335.23806
 20
368.13761
 30
0.0
 11
335.23806
 21
353.13761
 31
0.0
  0
LINE
  8
LC-004-002-----0
  6
CONTINUOUS
  5
7C
 10
334.23806
 20
368.13761
 30
0.0
 11
334.23806
 21
353.13761
 31
0.0
  0
LINE
  8
LC-004-002-----0
  6
CONTINUOUS
  5
7D
 10
333.23806
 20
368.13761
 30
0.0
 11
333.23806
 21
353.13761
 31
0.0
  0
ARC
  8
LC-005-002-RND-0
  6
DASHDOT
 62
     2
  5
7E
 10
362.23806
 20
334.13761
 30
0.0
 40
25.0
 50
180.0
 51
270.0
  0
LINE
  8
LC-004-002-----0
  6
CONTINUOUS
  5
7F
 10
306.73806
 20
368.13761
 30
0.0
 11
306.73806
 21
353.13761
 31
0.0
  0
LINE
  8
LC-004-002-----0
  6
CONTINUOUS
  5
80
 10
307.73806
 20
368.13761
 30
0.0
 11
307.73806
 21
353.13761
 31
0.0
  0
LINE
  8
LC-004-002-----0
  6
CONTINUOUS
  5
81
 10
308.73806
 20
368.13761
 30
0.0
 11
308.73806
 21
353.13761
 31
0.0
  0
LINE
  8
LC-004-002-----0
  6
CONTINUOUS
  5
82
 10
309.73806
 20
368.13761
 30
0.0
 11
309.73806
 21
353.13761
 31
0.0
  0
LINE
  8
LC-004-002-----0
  6
CONTINUOUS
  5
83
 10
367.73806
 20
368.13761
 30
0.0
 11
367.73806
 21
353.13761
 31
0.0
  0
LINE
  8
LC-004-002-----0
  6
CONTINUOUS
  5
84
 10
366.73806
 20
368.13761
 30
0.0
 11
366.73806
 21
353.13761
 31
0.0
  0
LINE
  8
LC-004-002-----0
  6
CONTINUOUS
  5
85
 10
365.73806
 20
368.13761
 30
0.0
 11
365.73806
 21
353.13761
 31
0.0
  0
LINE
  8
LC-004-002-----0
  6
CONTINUOUS
  5
86
 10
364.73806
 20
368.13761
 30
0.0
 11
364.73806
 21
353.13761
 31
0.0
  0
LINE
  8
LC-004-002-----0
  6
CONTINUOUS
  5
87
 10
535.23806
 20
333.333762
 30
0.0
 11
535.23806
 21
284.941457
 31
0.0
  0
LINE
  8
LC-004-002-----0
  6
CONTINUOUS
  5
88
 10
532.23806
 20
334.13761
 30
0.0
 11
535.23806
 21
333.333762
 31
0.0
  0
LINE
  8
LC-004-002-----0
  6
CONTINUOUS
  5
89
 10
532.23806
 20
284.13761
 30
0.0
 11
535.23806
 21
284.941457
 31
0.0
  0
LINE
  8
LC-004-002-----0
  6
DASHDOT
 62
     2
  5
8A
 10
455.124514
 20
309.13761
 30
0.0
 11
535.23806
 21
309.13761
 31
0.0
  0
LINE
  8
LC-004-002-----0
  6
DASHDOT
 62
     2
  5
8B
 10
362.23806
 20
309.13761
 30
0.0
 11
455.124514
 21
309.13761
 31
0.0
  0
ENDSEC
  0
EOF
