  0
SECTION
  2
HEADER
  9
$ACADVER
  1
AC1009
  9
$INSBASE
 10
0.0
 20
0.0
 30
0.0
  9
$EXTMIN
 10
0.0
 20
0.0
 30
0.0
  9
$EXTMAX
 10
840.0
 20
594.0
 30
0.0
  9
$LIMMIN
 10
0.0
 20
0.0
  9
$LIMMAX
 10
840.0
 20
594.0
  9
$ORTHOMODE
 70
     0
  9
$REGENMODE
 70
     1
  9
$FILLMODE
 70
     1
  9
$QTEXTMODE
 70
     0
  9
$MIRRTEXT
 70
     1
  9
$DRAGMODE
 70
     2
  9
$LTSCALE
 40
2.0
  9
$OSMODE
 70
     0
  9
$ATTMODE
 70
     1
  9
$TEXTSIZE
 40
0.2
  9
$TRACEWID
 40
0.05
  9
$TEXTSTYLE
  7
STANDARD
  9
$CLAYER
  8
0
  9
$CELTYPE
  6
BYLAYER
  9
$CECOLOR
 62
     7
  9
$DIMSCALE
 40
2.0
  9
$DIMASZ
 40
3.5
  9
$DIMEXO
 40
0.0625
  9
$DIMDLI
 40
0.38
  9
$DIMRND
 40
0.0
  9
$DIMDLE
 40
0.0
  9
$DIMEXE
 40
0.18
  9
$DIMTP
 40
0.0
  9
$DIMTM
 40
0.0
  9
$DIMTXT
 40
3.5
  9
$DIMCEN
 40
0.09
  9
$DIMTSZ
 40
0.0
  9
$DIMTOL
 70
     0
  9
$DIMLIM
 70
     0
  9
$DIMTIH
 70
     1
  9
$DIMTOH
 70
     1
  9
$DIMSE1
 70
     0
  9
$DIMSE2
 70
     0
  9
$DIMTAD
 70
     1
  9
$DIMZIN
 70
     0
  9
$DIMBLK
  1

  9
$DIMASO
 70
     1
  9
$DIMSHO
 70
     1
  9
$DIMPOST
  1

  9
$DIMAPOST
  1

  9
$DIMALT
 70
     0
  9
$DIMALTD
 70
     2
  9
$DIMALTF
 40
25.4
  9
$DIMLFAC
 40
1.0
  9
$DIMTOFL
 70
     0
  9
$DIMTVP
 40
0.0
  9
$DIMTIX
 70
     0
  9
$DIMSOXD
 70
     0
  9
$DIMSAH
 70
     0
  9
$DIMBLK1
  1

  9
$DIMBLK2
  1

  9
$DIMSTYLE
  2
STANDARD
  9
$DIMCLRD
 70
     0
  9
$DIMCLRE
 70
     0
  9
$DIMCLRT
 70
     0
  9
$DIMTFAC
 40
1.0
  9
$DIMGAP
 40
0.09
  9
$LUNITS
 70
     2
  9
$LUPREC
 70
     2
  9
$AXISMODE
 70
     0
  9
$AXISUNIT
 10
0.0
 20
0.0
  9
$SKETCHINC
 40
0.1
  9
$FILLETRAD
 40
0.0
  9
$AUNITS
 70
     0
  9
$AUPREC
 70
     0
  9
$MENU
  1
acad
  9
$ELEVATION
 40
0.0
  9
$PELEVATION
 40
0.0
  9
$THICKNESS
 40
0.0
  9
$LIMCHECK
 70
     0
  9
$BLIPMODE
 70
     1
  9
$CHAMFERA
 40
0.0
  9
$CHAMFERB
 40
0.0
  9
$SKPOLY
 70
     0
  9
$TDCREATE
 40
0.000000000
  9
$TDUPDATE
 40
0.000000000
  9
$TDINDWG
 40
0.0000000000
  9
$TDUSRTIMER
 40
0.0000000000
  9
$USRTIMER
 70
     1
  9
$ANGBASE
 50
0.0
  9
$ANGDIR
 70
     0
  9
$PDMODE
 70
     0
  9
$PDSIZE
 40
0.0
  9
$PLINEWID
 40
0.0
  9
$COORDS
 70
     0
  9
$SPLFRAME
 70
     0
  9
$SPLINETYPE
 70
     6
  9
$SPLINESEGS
 70
     8
  9
$ATTDIA
 70
     0
  9
$ATTREQ
 70
     1
  9
$HANDLING
 70
     1
  9
$HANDSEED
  5
2BF
  9
$SURFTAB1
 70
     6
  9
$SURFTAB2
 70
     6
  9
$SURFTYPE
 70
     6
  9
$SURFU
 70
     6
  9
$SURFV
 70
     6
  9
$UCSNAME
  2

  9
$UCSORG
 10
0.0
 20
0.0
 30
0.0
  9
$UCSXDIR
 10
1.0
 20
0.0
 30
0.0
  9
$UCSYDIR
 10
0.0
 20
1.0
 30
0.0
  9
$PUCSNAME
  2

  9
$PUCSORG
 10
0.0
 20
0.0
 30
0.0
  9
$PUCSXDIR
 10
1.0
 20
0.0
 30
0.0
  9
$PUCSYDIR
 10
0.0
 20
1.0
 30
0.0
  9
$USERI1
 70
     0
  9
$USERI2
 70
     0
  9
$USERI3
 70
     0
  9
$USERI4
 70
     0
  9
$USERI5
 70
     0
  9
$USERR1
 40
0.0
  9
$USERR2
 40
0.0
  9
$USERR3
 40
0.0
  9
$USERR4
 40
0.0
  9
$USERR5
 40
0.0
  9
$WORLDVIEW
 70
     1
  9
$SHADEDGE
 70
     3
  9
$SHADEDIF
 70
    70
  9
$TILEMODE
 70
     1
  9
$MAXACTVP
 70
    16
  9
$PINSBASE
 10
0.0
 20
0.0
 30
0.0
  9
$PLIMCHECK
 70
     0
  9
$PEXTMIN
 10
1.000000E+20
 20
1.000000E+20
 30
1.000000E+20
  9
$PEXTMAX
 10
-1.000000E+20
 20
-1.000000E+20
 30
-1.000000E+20
  9
$PLIMMIN
 10
0.0
 20
0.0
  9
$PLIMMAX
 10
840.0
 20
594.0
  9
$UNITMODE
 70
     0
  9
$VISRETAIN
 70
     0
  9
$PLINEGEN
 70
     1
  9
$PSLTSCALE
 70
     0
  9
$TREEDEPTH
 70
  3020
  9
$DWGCODEPAGE
  3
dos850
  0
ENDSEC
  0
SECTION
  2
TABLES
  0
TABLE
  2
VPORT
 70
     1
  0
VPORT
  2
*ACTIVE
 70
     0
 10
0.0
 20
0.0
 11
1.0
 21
1.0
 12
420.0
 22
297.0
 13
0.0
 23
0.0
 14
1.0
 24
1.0
 15
0.0
 25
0.0
 16
0.0
 26
0.0
 36
1.0
 17
0.0
 27
0.0
 37
0.0
 40
594.0
 41
1.604229
 42
50.0
 43
0.0
 44
0.0
 50
0.0
 51
0.0
 71
     0
 72
   100
 73
     1
 74
     1
 75
     0
 76
     0
 77
     0
 78
     0
  0
ENDTAB
  0
TABLE
  2
LTYPE
 70
     2
  0
LTYPE
  2
CONTINUOUS
 70
    64
  3
Solid line
 72
    65
 73
     0
 40
0.0
  0
LTYPE
  2
DASHDOT
 70
    64
  3
__ . __ . __ . __ . __
 72
    65
 73
     4
 40
7.5
 49
5.0
 49
-1.25
 49
0.0
 49
-1.25
  0
ENDTAB
  0
TABLE
  2
LAYER
 70
    11
  0
LAYER
  2
0
 70
     0
 62
     7
  6
CONTINUOUS
  0
LAYER
  2
LC-INFO-1-2-MM-A3-0
 70
     1
 62
    -1
  6
CONTINUOUS
  0
LAYER
  2
LC-003-005-----0
 70
     0
 62
     2
  6
CONTINUOUS
  0
LAYER
  2
LC-005-003-MTH-0
 70
     0
 62
     2
  6
CONTINUOUS
  0
LAYER
  2
LC-006-003-MTG-0
 70
     0
 62
     2
  6
CONTINUOUS
  0
LAYER
  2
LC-004-003-----0
 70
     0
 62
     2
  6
CONTINUOUS
  0
LAYER
  2
LC-008-000-----0
 70
     0
 62
     7
  6
CONTINUOUS
  0
LAYER
  2
LC-001-002-----0
 70
     0
 62
     2
  6
DASHDOT
  0
LAYER
  2
LC-002-002-RND-0
 70
     0
 62
     1
  6
CONTINUOUS
  0
LAYER
  2
LC-007-001-----0
 70
     0
 62
     1
  6
CONTINUOUS
  0
LAYER
  2
LC-000
 70
     0
 62
     7
  6
CONTINUOUS
  0
ENDTAB
  0
TABLE
  2
STYLE
 70
     4
  0
STYLE
  2
STANDARD
 70
     0
 40
0.0
 41
1.0
 50
0.0
 71
     0
 42
0.0
  3
txt
  4

  0
STYLE
  2
LC-STANDARD
 70
    64
 40
0.0
 41
1.0
 50
0.0
 71
     0
 42
3.5
  3
MONOTXT
  4

  0
STYLE
  2
LC-TXTSTYLE-150-400-0-0-D2
 70
    64
 40
0.0
 41
1.0
 50
15.0
 71
     0
 42
3.5
  3
MONOTXT
  4

  0
STYLE
  2
LC-TXTSTYLE-150-400-0-0-D3
 70
    64
 40
0.0
 41
1.0
 50
15.0
 71
     0
 42
3.5
  3
LC-STANDARD
  4

  0
ENDTAB
  0
TABLE
  2
VIEW
 70
     0
  0
ENDTAB
  0
TABLE
  2
UCS
 70
     0
  0
ENDTAB
  0
TABLE
  2
APPID
 70
     1
  0
APPID
  2
ACAD
 70
     0
  0
ENDTAB
  0
TABLE
  2
DIMSTYLE
 70
     3
  0
DIMSTYLE
  2
STANDARD
 70
     0
  3

  4

  5

  6

  7

 40
1.0
 41
0.18
 42
0.0625
 43
0.38
 44
0.18
 45
0.0
 46
0.0
 47
0.0
 48
0.0
 71
     0
 72
     0
 73
     1
 74
     1
 75
     0
 76
     0
 77
     0
 78
     0
140
0.18
141
0.09
142
0.0
143
25.4
144
1.0
145
0.0
146
1.0
147
0.09
170
     0
171
     2
172
     0
173
     0
174
     0
175
     0
176
     0
177
     0
178
     0
  0
DIMSTYLE
  2
LC-STANDARD
 70
     0
  3

  4

  5

  6

  7

 40
1.0
 41
3.5
 42
0.0
 43
7.5
 44
1.8
 45
0.0
 46
0.0
 47
0.0
 48
0.0
 71
     0
 72
     0
 73
     0
 74
     0
 75
     0
 76
     0
 77
     1
 78
     8
140
3.5
141
0.0
142
0.0
143
25.4
144
1.0
145
0.0
146
0.71
147
1.5
170
     0
171
     2
172
     1
173
     0
174
     0
175
     0
176
     0
177
     0
178
     3
  0
DIMSTYLE
  2
LC-DIM-L-0090-02-02
 70
     0
  3

  4

  5

  6

  7

 40
2.0
 41
3.5
 42
0.0
 43
7.5
 44
1.8
 45
0.0
 46
0.0
 47
0.0
 48
0.0
 71
     0
 72
     0
 73
     0
 74
     0
 75
     0
 76
     0
 77
     1
 78
     8
140
9.0
141
0.0
142
0.0
143
25.4
144
1.0
145
0.0
146
0.71
147
1.5
170
     0
171
     2
172
     0
173
     0
174
     0
175
     0
176
     2
177
     2
178
     6
  0
ENDTAB
  0
ENDSEC
  0
SECTION
  2
BLOCKS
  0
BLOCK
  8
0
  5
23
  2
*X0
 70
    65
 10
284.0955
 20
146.089285
 30
0.0
  3
*X0
  0
LINE
  8
LC-003-005-----0
  6
CONTINUOUS
  5
25
 10
324.70837
 20
146.517461
 30
0.0
 11
325.136546
 21
146.945638
 31
0.0
  0
LINE
  8
LC-003-005-----0
  6
CONTINUOUS
  5
26
 10
323.294157
 20
147.931675
 30
0.0
 11
325.136546
 21
149.774065
 31
0.0
  0
LINE
  8
LC-003-005-----0
  6
CONTINUOUS
  5
27
 10
322.636546
 20
150.102492
 30
0.0
 11
325.136546
 21
152.602492
 31
0.0
  0
LINE
  8
LC-003-005-----0
  6
CONTINUOUS
  5
28
 10
322.636546
 20
152.930919
 30
0.0
 11
325.136546
 21
155.430919
 31
0.0
  0
LINE
  8
LC-003-005-----0
  6
CONTINUOUS
  5
29
 10
322.636546
 20
155.759346
 30
0.0
 11
325.136546
 21
158.259346
 31
0.0
  0
LINE
  8
LC-003-005-----0
  6
CONTINUOUS
  5
2A
 10
322.636546
 20
158.587773
 30
0.0
 11
325.136546
 21
161.087773
 31
0.0
  0
LINE
  8
LC-003-005-----0
  6
CONTINUOUS
  5
2B
 10
322.636546
 20
161.4162
 30
0.0
 11
325.136546
 21
163.9162
 31
0.0
  0
LINE
  8
LC-003-005-----0
  6
CONTINUOUS
  5
2C
 10
322.636546
 20
164.244627
 30
0.0
 11
325.136546
 21
166.744627
 31
0.0
  0
LINE
  8
LC-003-005-----0
  6
CONTINUOUS
  5
2D
 10
322.636546
 20
167.073055
 30
0.0
 11
325.136546
 21
169.573055
 31
0.0
  0
LINE
  8
LC-003-005-----0
  6
CONTINUOUS
  5
2E
 10
322.636546
 20
169.901482
 30
0.0
 11
325.136546
 21
172.401482
 31
0.0
  0
LINE
  8
LC-003-005-----0
  6
CONTINUOUS
  5
2F
 10
322.636546
 20
172.729909
 30
0.0
 11
325.136546
 21
175.229909
 31
0.0
  0
LINE
  8
LC-003-005-----0
  6
CONTINUOUS
  5
30
 10
322.636546
 20
175.558336
 30
0.0
 11
325.136546
 21
178.058336
 31
0.0
  0
LINE
  8
LC-003-005-----0
  6
CONTINUOUS
  5
31
 10
322.636546
 20
178.386763
 30
0.0
 11
325.136546
 21
180.886763
 31
0.0
  0
LINE
  8
LC-003-005-----0
  6
CONTINUOUS
  5
32
 10
322.636546
 20
181.21519
 30
0.0
 11
325.136546
 21
183.71519
 31
0.0
  0
LINE
  8
LC-003-005-----0
  6
CONTINUOUS
  5
33
 10
322.636546
 20
184.043617
 30
0.0
 11
325.136546
 21
186.543617
 31
0.0
  0
LINE
  8
LC-003-005-----0
  6
CONTINUOUS
  5
34
 10
322.636546
 20
186.872044
 30
0.0
 11
325.136546
 21
189.372044
 31
0.0
  0
LINE
  8
LC-003-005-----0
  6
CONTINUOUS
  5
35
 10
322.636546
 20
189.700472
 30
0.0
 11
325.136546
 21
192.200472
 31
0.0
  0
LINE
  8
LC-003-005-----0
  6
CONTINUOUS
  5
36
 10
322.636546
 20
192.528899
 30
0.0
 11
325.136546
 21
195.028899
 31
0.0
  0
LINE
  8
LC-003-005-----0
  6
CONTINUOUS
  5
37
 10
322.636546
 20
195.357326
 30
0.0
 11
325.136546
 21
197.857326
 31
0.0
  0
LINE
  8
LC-003-005-----0
  6
CONTINUOUS
  5
38
 10
322.636546
 20
198.185753
 30
0.0
 11
325.136546
 21
200.685753
 31
0.0
  0
LINE
  8
LC-003-005-----0
  6
CONTINUOUS
  5
39
 10
322.636546
 20
201.01418
 30
0.0
 11
325.136546
 21
203.51418
 31
0.0
  0
LINE
  8
LC-003-005-----0
  6
CONTINUOUS
  5
3A
 10
322.636546
 20
203.842607
 30
0.0
 11
325.136546
 21
206.342607
 31
0.0
  0
LINE
  8
LC-003-005-----0
  6
CONTINUOUS
  5
3B
 10
322.636546
 20
206.671034
 30
0.0
 11
325.136546
 21
209.171034
 31
0.0
  0
LINE
  8
LC-003-005-----0
  6
CONTINUOUS
  5
3C
 10
322.636546
 20
209.499461
 30
0.0
 11
325.136546
 21
211.999461
 31
0.0
  0
LINE
  8
LC-003-005-----0
  6
CONTINUOUS
  5
3D
 10
322.636546
 20
212.327889
 30
0.0
 11
325.136546
 21
214.827889
 31
0.0
  0
LINE
  8
LC-003-005-----0
  6
CONTINUOUS
  5
3E
 10
322.636546
 20
215.156316
 30
0.0
 11
325.136546
 21
217.656316
 31
0.0
  0
LINE
  8
LC-003-005-----0
  6
CONTINUOUS
  5
3F
 10
322.636546
 20
217.984743
 30
0.0
 11
325.136546
 21
220.484743
 31
0.0
  0
LINE
  8
LC-003-005-----0
  6
CONTINUOUS
  5
40
 10
322.636546
 20
220.81317
 30
0.0
 11
325.136546
 21
223.31317
 31
0.0
  0
LINE
  8
LC-003-005-----0
  6
CONTINUOUS
  5
41
 10
322.636546
 20
223.641597
 30
0.0
 11
325.136546
 21
226.141597
 31
0.0
  0
LINE
  8
LC-003-005-----0
  6
CONTINUOUS
  5
42
 10
322.636546
 20
226.470024
 30
0.0
 11
325.136546
 21
228.970024
 31
0.0
  0
LINE
  8
LC-003-005-----0
  6
CONTINUOUS
  5
43
 10
322.636546
 20
229.298451
 30
0.0
 11
325.136546
 21
231.798451
 31
0.0
  0
LINE
  8
LC-003-005-----0
  6
CONTINUOUS
  5
44
 10
322.636546
 20
232.126878
 30
0.0
 11
325.136546
 21
234.626878
 31
0.0
  0
LINE
  8
LC-003-005-----0
  6
CONTINUOUS
  5
45
 10
322.636546
 20
234.955306
 30
0.0
 11
325.136546
 21
237.455306
 31
0.0
  0
LINE
  8
LC-003-005-----0
  6
CONTINUOUS
  5
46
 10
322.636546
 20
237.783733
 30
0.0
 11
325.136546
 21
240.283733
 31
0.0
  0
LINE
  8
LC-003-005-----0
  6
CONTINUOUS
  5
47
 10
322.636546
 20
240.61216
 30
0.0
 11
325.136546
 21
243.11216
 31
0.0
  0
LINE
  8
LC-003-005-----0
  6
CONTINUOUS
  5
48
 10
322.636546
 20
243.440587
 30
0.0
 11
325.136546
 21
245.940587
 31
0.0
  0
LINE
  8
LC-003-005-----0
  6
CONTINUOUS
  5
49
 10
322.636546
 20
246.269014
 30
0.0
 11
325.136546
 21
248.769014
 31
0.0
  0
LINE
  8
LC-003-005-----0
  6
CONTINUOUS
  5
4A
 10
322.636546
 20
249.097441
 30
0.0
 11
325.136546
 21
251.597441
 31
0.0
  0
LINE
  8
LC-003-005-----0
  6
CONTINUOUS
  5
4B
 10
322.636546
 20
251.925868
 30
0.0
 11
325.136546
 21
254.425868
 31
0.0
  0
LINE
  8
LC-003-005-----0
  6
CONTINUOUS
  5
4C
 10
322.636546
 20
254.754295
 30
0.0
 11
325.136546
 21
257.254295
 31
0.0
  0
LINE
  8
LC-003-005-----0
  6
CONTINUOUS
  5
4D
 10
322.636546
 20
257.582723
 30
0.0
 11
325.136546
 21
260.082723
 31
0.0
  0
LINE
  8
LC-003-005-----0
  6
CONTINUOUS
  5
4E
 10
322.636546
 20
260.41115
 30
0.0
 11
325.136546
 21
262.91115
 31
0.0
  0
LINE
  8
LC-003-005-----0
  6
CONTINUOUS
  5
4F
 10
322.636546
 20
263.239577
 30
0.0
 11
325.136546
 21
265.739577
 31
0.0
  0
LINE
  8
LC-003-005-----0
  6
CONTINUOUS
  5
50
 10
322.636546
 20
266.068004
 30
0.0
 11
325.136546
 21
268.568004
 31
0.0
  0
LINE
  8
LC-003-005-----0
  6
CONTINUOUS
  5
51
 10
322.636546
 20
268.896431
 30
0.0
 11
325.136546
 21
271.396431
 31
0.0
  0
LINE
  8
LC-003-005-----0
  6
CONTINUOUS
  5
52
 10
322.636546
 20
271.724858
 30
0.0
 11
325.136546
 21
274.224858
 31
0.0
  0
LINE
  8
LC-003-005-----0
  6
CONTINUOUS
  5
53
 10
322.636546
 20
274.553285
 30
0.0
 11
325.136546
 21
277.053285
 31
0.0
  0
LINE
  8
LC-003-005-----0
  6
CONTINUOUS
  5
54
 10
321.889362
 20
276.634528
 30
0.0
 11
323.522355
 21
278.267521
 31
0.0
  0
LINE
  8
LC-003-005-----0
  6
CONTINUOUS
  5
55
 10
319.658653
 20
277.232246
 30
0.0
 11
321.291646
 21
278.865239
 31
0.0
  0
LINE
  8
LC-003-005-----0
  6
CONTINUOUS
  5
56
 10
317.427944
 20
277.829964
 30
0.0
 11
319.060937
 21
279.462957
 31
0.0
  0
LINE
  8
LC-003-005-----0
  6
CONTINUOUS
  5
57
 10
315.197235
 20
278.427683
 30
0.0
 11
316.830228
 21
280.060675
 31
0.0
  0
LINE
  8
LC-003-005-----0
  6
CONTINUOUS
  5
58
 10
312.966526
 20
279.025401
 30
0.0
 11
314.599519
 21
280.658393
 31
0.0
  0
LINE
  8
LC-003-005-----0
  6
CONTINUOUS
  5
59
 10
310.735817
 20
279.623119
 30
0.0
 11
312.36881
 21
281.256112
 31
0.0
  0
LINE
  8
LC-003-005-----0
  6
CONTINUOUS
  5
5A
 10
308.505109
 20
280.220837
 30
0.0
 11
310.138101
 21
281.85383
 31
0.0
  0
LINE
  8
LC-003-005-----0
  6
CONTINUOUS
  5
5B
 10
306.2744
 20
280.818556
 30
0.0
 11
307.907392
 21
282.451548
 31
0.0
  0
LINE
  8
LC-003-005-----0
  6
CONTINUOUS
  5
5C
 10
304.043691
 20
281.416274
 30
0.0
 11
305.676683
 21
283.049266
 31
0.0
  0
LINE
  8
LC-003-005-----0
  6
CONTINUOUS
  5
5D
 10
301.812982
 20
282.013992
 30
0.0
 11
303.445974
 21
283.646985
 31
0.0
  0
LINE
  8
LC-003-005-----0
  6
CONTINUOUS
  5
5E
 10
298.357529
 20
281.386966
 30
0.0
 11
301.215265
 21
284.244703
 31
0.0
  0
LINE
  8
LC-003-005-----0
  6
CONTINUOUS
  5
5F
 10
296.12682
 20
281.984684
 30
0.0
 11
298.984557
 21
284.842421
 31
0.0
  0
LINE
  8
LC-003-005-----0
  6
CONTINUOUS
  5
60
 10
293.896111
 20
282.582402
 30
0.0
 11
296.753848
 21
285.440139
 31
0.0
  0
LINE
  8
LC-003-005-----0
  6
CONTINUOUS
  5
61
 10
291.665402
 20
283.18012
 30
0.0
 11
294.523139
 21
286.037857
 31
0.0
  0
LINE
  8
LC-003-005-----0
  6
CONTINUOUS
  5
62
 10
289.434693
 20
283.777839
 30
0.0
 11
292.29243
 21
286.635576
 31
0.0
  0
LINE
  8
LC-003-005-----0
  6
CONTINUOUS
  5
63
 10
287.203984
 20
284.375557
 30
0.0
 11
290.061721
 21
287.233294
 31
0.0
  0
LINE
  8
LC-003-005-----0
  6
CONTINUOUS
  5
64
 10
284.973275
 20
284.973275
 30
0.0
 11
287.831012
 21
287.831012
 31
0.0
  0
LINE
  8
LC-003-005-----0
  6
CONTINUOUS
  5
65
 10
284.723401
 20
287.551828
 30
0.0
 11
285.600303
 21
288.42873
 31
0.0
  0
ENDBLK
  8
0
  5
66
  0
BLOCK
  8
0
  5
68
  2
*X1
 70
    65
 10
291.73068
 20
303.716907
 30
0.0
  3
*X1
  0
LINE
  8
LC-003-005-----0
  6
CONTINUOUS
  5
69
 10
323.858381
 20
304.059391
 30
0.0
 11
324.744698
 21
304.945708
 31
0.0
  0
LINE
  8
LC-003-005-----0
  6
CONTINUOUS
  5
6A
 10
321.627672
 20
304.65711
 30
0.0
 11
323.675431
 21
306.704868
 31
0.0
  0
LINE
  8
LC-003-005-----0
  6
CONTINUOUS
  5
6B
 10
324.077161
 20
307.106598
 30
0.0
 11
324.09591
 21
307.125347
 31
0.0
  0
LINE
  8
LC-003-005-----0
  6
CONTINUOUS
  5
6C
 10
319.396963
 20
305.254828
 30
0.0
 11
321.846452
 21
307.704317
 31
0.0
  0
LINE
  8
LC-003-005-----0
  6
CONTINUOUS
  5
6D
 10
322.057589
 20
307.915454
 30
0.0
 11
323.136546
 21
308.994411
 31
0.0
  0
LINE
  8
LC-003-005-----0
  6
CONTINUOUS
  5
6E
 10
317.166254
 20
305.852546
 30
0.0
 11
319.615743
 21
308.302035
 31
0.0
  0
LINE
  8
LC-003-005-----0
  6
CONTINUOUS
  5
6F
 10
320.636546
 20
309.322838
 30
0.0
 11
323.136546
 21
311.822838
 31
0.0
  0
LINE
  8
LC-003-005-----0
  6
CONTINUOUS
  5
70
 10
314.935546
 20
306.450264
 30
0.0
 11
317.385034
 21
308.899753
 31
0.0
  0
LINE
  8
LC-003-005-----0
  6
CONTINUOUS
  5
71
 10
320.636546
 20
312.151265
 30
0.0
 11
323.136546
 21
314.651265
 31
0.0
  0
LINE
  8
LC-003-005-----0
  6
CONTINUOUS
  5
72
 10
312.704837
 20
307.047982
 30
0.0
 11
315.154325
 21
309.497471
 31
0.0
  0
LINE
  8
LC-003-005-----0
  6
CONTINUOUS
  5
73
 10
319.636546
 20
313.979692
 30
0.0
 11
321.240854
 21
315.584
 31
0.0
  0
LINE
  8
LC-003-005-----0
  6
CONTINUOUS
  5
74
 10
310.474128
 20
307.645701
 30
0.0
 11
312.923617
 21
310.095189
 31
0.0
  0
LINE
  8
LC-003-005-----0
  6
CONTINUOUS
  5
75
 10
308.243419
 20
308.243419
 30
0.0
 11
310.692908
 21
310.692908
 31
0.0
  0
LINE
  8
LC-003-005-----0
  6
CONTINUOUS
  5
76
 10
306.01271
 20
308.841137
 30
0.0
 11
308.462199
 21
311.290626
 31
0.0
  0
LINE
  8
LC-003-005-----0
  6
CONTINUOUS
  5
77
 10
303.782001
 20
309.438855
 30
0.0
 11
307.456234
 21
313.113088
 31
0.0
  0
LINE
  8
LC-003-005-----0
  6
CONTINUOUS
  5
78
 10
301.551292
 20
310.036573
 30
0.0
 11
305.225525
 21
313.710807
 31
0.0
  0
LINE
  8
LC-003-005-----0
  6
CONTINUOUS
  5
79
 10
299.320583
 20
310.634292
 30
0.0
 11
302.994816
 21
314.308525
 31
0.0
  0
LINE
  8
LC-003-005-----0
  6
CONTINUOUS
  5
7A
 10
297.089874
 20
311.23201
 30
0.0
 11
300.764108
 21
314.906243
 31
0.0
  0
LINE
  8
LC-003-005-----0
  6
CONTINUOUS
  5
7B
 10
294.859165
 20
311.829728
 30
0.0
 11
298.533399
 21
315.503961
 31
0.0
  0
LINE
  8
LC-003-005-----0
  6
CONTINUOUS
  5
7C
 10
293.444953
 20
313.243943
 30
0.0
 11
296.30269
 21
316.10168
 31
0.0
  0
LINE
  8
LC-003-005-----0
  6
CONTINUOUS
  5
7D
 10
291.97036
 20
314.597777
 30
0.0
 11
294.071981
 21
316.699398
 31
0.0
  0
ENDBLK
  8
0
  5
7E
  0
BLOCK
  8
0
  5
80
  2
*X2
 70
    65
 10
315.136546
 20
310.372247
 30
0.0
  3
*X2
  0
LINE
  8
LC-003-005-----0
  6
CONTINUOUS
  5
81
 10
318.386546
 20
326.494838
 30
0.0
 11
317.009137
 21
327.872247
 31
0.0
  0
LINE
  8
LC-003-005-----0
  6
CONTINUOUS
  5
82
 10
318.386546
 20
323.666411
 30
0.0
 11
316.636546
 21
325.416411
 31
0.0
  0
LINE
  8
LC-003-005-----0
  6
CONTINUOUS
  5
83
 10
315.68071
 20
326.372247
 30
0.0
 11
315.136546
 21
326.916411
 31
0.0
  0
LINE
  8
LC-003-005-----0
  6
CONTINUOUS
  5
84
 10
318.386546
 20
320.837984
 30
0.0
 11
316.636546
 21
322.587984
 31
0.0
  0
LINE
  8
LC-003-005-----0
  6
CONTINUOUS
  5
85
 10
318.386546
 20
318.009557
 30
0.0
 11
316.636546
 21
319.759557
 31
0.0
  0
LINE
  8
LC-003-005-----0
  6
CONTINUOUS
  5
86
 10
318.386546
 20
315.18113
 30
0.0
 11
316.636546
 21
316.93113
 31
0.0
  0
LINE
  8
LC-003-005-----0
  6
CONTINUOUS
  5
87
 10
319.92025
 20
310.818999
 30
0.0
 11
318.617002
 21
312.122247
 31
0.0
  0
LINE
  8
LC-003-005-----0
  6
CONTINUOUS
  5
88
 10
318.386546
 20
312.352702
 30
0.0
 11
316.636546
 21
314.102702
 31
0.0
  0
ENDBLK
  8
0
  5
89
  0
BLOCK
  8
0
  5
8B
  2
*X3
 70
    65
 10
320.136546
 20
316.084
 30
0.0
  3
*X3
  0
LINE
  8
LC-003-005-----0
  6
CONTINUOUS
  5
8C
 10
324.136546
 20
317.916411
 30
0.0
 11
323.968957
 21
318.084
 31
0.0
  0
LINE
  8
LC-003-005-----0
  6
CONTINUOUS
  5
8D
 10
324.136546
 20
316.502197
 30
0.0
 11
322.554744
 21
318.084
 31
0.0
  0
LINE
  8
LC-003-005-----0
  6
CONTINUOUS
  5
8E
 10
323.14053
 20
316.084
 30
0.0
 11
321.14053
 21
318.084
 31
0.0
  0
LINE
  8
LC-003-005-----0
  6
CONTINUOUS
  5
8F
 10
321.726317
 20
316.084
 30
0.0
 11
320.136546
 21
317.67377
 31
0.0
  0
LINE
  8
LC-003-005-----0
  6
CONTINUOUS
  5
90
 10
320.312103
 20
316.084
 30
0.0
 11
320.136546
 21
316.259557
 31
0.0
  0
ENDBLK
  8
0
  5
91
  0
BLOCK
  8
0
  5
93
  2
*X4
 70
    65
 10
361.136546
 20
316.084
 30
0.0
  3
*X4
  0
LINE
  8
LC-003-005-----0
  6
CONTINUOUS
  5
94
 10
365.136546
 20
317.928604
 30
0.0
 11
364.981151
 21
318.084
 31
0.0
  0
LINE
  8
LC-003-005-----0
  6
CONTINUOUS
  5
95
 10
365.136546
 20
316.514391
 30
0.0
 11
363.566937
 21
318.084
 31
0.0
  0
LINE
  8
LC-003-005-----0
  6
CONTINUOUS
  5
96
 10
364.152724
 20
316.084
 30
0.0
 11
362.152724
 21
318.084
 31
0.0
  0
LINE
  8
LC-003-005-----0
  6
CONTINUOUS
  5
97
 10
362.73851
 20
316.084
 30
0.0
 11
361.136546
 21
317.685964
 31
0.0
  0
LINE
  8
LC-003-005-----0
  6
CONTINUOUS
  5
98
 10
361.324296
 20
316.084
 30
0.0
 11
361.136546
 21
316.27175
 31
0.0
  0
ENDBLK
  8
0
  5
99
  0
BLOCK
  8
0
  5
9B
  2
*X5
 70
    65
 10
364.636546
 20
310.372247
 30
0.0
  3
*X5
  0
LINE
  8
LC-003-005-----0
  6
CONTINUOUS
  5
9C
 10
369.420826
 20
326.372247
 30
0.0
 11
367.920826
 21
327.872247
 31
0.0
  0
LINE
  8
LC-003-005-----0
  6
CONTINUOUS
  5
9D
 10
368.636546
 20
324.328099
 30
0.0
 11
366.886546
 21
326.078099
 31
0.0
  0
LINE
  8
LC-003-005-----0
  6
CONTINUOUS
  5
9E
 10
368.636546
 20
321.499672
 30
0.0
 11
366.886546
 21
323.249672
 31
0.0
  0
LINE
  8
LC-003-005-----0
  6
CONTINUOUS
  5
9F
 10
368.636546
 20
318.671245
 30
0.0
 11
366.886546
 21
320.421245
 31
0.0
  0
LINE
  8
LC-003-005-----0
  6
CONTINUOUS
  5
A0
 10
368.636546
 20
315.842818
 30
0.0
 11
366.886546
 21
317.592818
 31
0.0
  0
LINE
  8
LC-003-005-----0
  6
CONTINUOUS
  5
A1
 10
368.636546
 20
313.014391
 30
0.0
 11
366.886546
 21
314.764391
 31
0.0
  0
LINE
  8
LC-003-005-----0
  6
CONTINUOUS
  5
A2
 10
367.954548
 20
310.867962
 30
0.0
 11
366.700263
 21
312.122247
 31
0.0
  0
ENDBLK
  8
0
  5
A3
  0
BLOCK
  8
0
  5
A5
  2
*X6
 70
    65
 10
360.136546
 20
303.716907
 30
0.0
  3
*X6
  0
LINE
  8
LC-003-005-----0
  6
CONTINUOUS
  5
A6
 10
383.522194
 20
309.983089
 30
0.0
 11
386.293944
 21
312.754838
 31
0.0
  0
LINE
  8
LC-003-005-----0
  6
CONTINUOUS
  5
A7
 10
379.658487
 20
308.947809
 30
0.0
 11
385.696225
 21
314.985547
 31
0.0
  0
LINE
  8
LC-003-005-----0
  6
CONTINUOUS
  5
A8
 10
375.79478
 20
307.912529
 30
0.0
 11
382.158748
 21
314.276497
 31
0.0
  0
LINE
  8
LC-003-005-----0
  6
CONTINUOUS
  5
A9
 10
371.931073
 20
306.877249
 30
0.0
 11
378.295041
 21
313.241218
 31
0.0
  0
LINE
  8
LC-003-005-----0
  6
CONTINUOUS
  5
AA
 10
368.067366
 20
305.841969
 30
0.0
 11
374.431334
 21
312.205938
 31
0.0
  0
LINE
  8
LC-003-005-----0
  6
CONTINUOUS
  5
AB
 10
364.203659
 20
304.80669
 30
0.0
 11
368.446305
 21
309.049335
 31
0.0
  0
LINE
  8
LC-003-005-----0
  6
CONTINUOUS
  5
AC
 10
370.241412
 20
310.844443
 30
0.0
 11
370.567627
 21
311.170658
 31
0.0
  0
LINE
  8
LC-003-005-----0
  6
CONTINUOUS
  5
AD
 10
360.339952
 20
303.77141
 30
0.0
 11
364.636546
 21
308.068004
 31
0.0
  0
LINE
  8
LC-003-005-----0
  6
CONTINUOUS
  5
AE
 10
362.136546
 20
308.396431
 30
0.0
 11
364.636546
 21
310.896431
 31
0.0
  0
LINE
  8
LC-003-005-----0
  6
CONTINUOUS
  5
AF
 10
362.136546
 20
311.224858
 30
0.0
 11
365.535895
 21
314.624207
 31
0.0
  0
LINE
  8
LC-003-005-----0
  6
CONTINUOUS
  5
B0
 10
362.136546
 20
314.053285
 30
0.0
 11
363.667261
 21
315.584
 31
0.0
  0
ENDBLK
  8
0
  5
B1
  0
BLOCK
  8
0
  5
B3
  2
*D7
 70
    65
 10
0.0
 20
0.0
 30
0.0
  3
*D7
  0
LINE
  8
LC-005-003-MTH-0
  6
CONTINUOUS
  5
B5
 10
360.136546
 20
146.089285
 30
0.0
 11
478.8
 21
146.089285
 31
0.0
  0
LINE
  8
LC-005-003-MTH-0
  6
CONTINUOUS
  5
B6
 10
370.136546
 20
327.872247
 30
0.0
 11
478.8
 21
327.872247
 31
0.0
  0
LINE
  8
LC-006-003-MTG-0
  6
CONTINUOUS
  5
B8
 10
468.0
 20
146.089285
 30
0.0
 11
468.0
 21
327.872247
 31
0.0
  0
LINE
  8
LC-004-003-----0
  6
CONTINUOUS
  5
BA
 10
465.650529
 20
163.935292
 30
0.0
 11
468.0
 21
146.089285
 31
0.0
  0
LINE
  8
LC-004-003-----0
  6
CONTINUOUS
  5
BB
 10
468.0
 20
146.089285
 30
0.0
 11
470.349471
 21
163.935292
 31
0.0
  0
LINE
  8
LC-004-003-----0
  6
CONTINUOUS
  5
BC
 10
470.349471
 20
163.935292
 30
0.0
 11
465.650529
 21
163.935292
 31
0.0
  0
LINE
  8
LC-004-003-----0
  6
CONTINUOUS
  5
BD
 10
466.261391
 20
163.97533
 30
0.0
 11
468.0
 21
150.769285
 31
0.0
  0
LINE
  8
LC-004-003-----0
  6
CONTINUOUS
  5
BE
 10
468.0
 20
150.769285
 30
0.0
 11
469.738609
 21
163.97533
 31
0.0
  0
LINE
  8
LC-004-003-----0
  6
CONTINUOUS
  5
BF
 10
466.872254
 20
164.015369
 30
0.0
 11
468.0
 21
155.449285
 31
0.0
  0
LINE
  8
LC-004-003-----0
  6
CONTINUOUS
  5
C0
 10
468.0
 20
155.449285
 30
0.0
 11
469.127746
 21
164.015369
 31
0.0
  0
LINE
  8
LC-004-003-----0
  6
CONTINUOUS
  5
C1
 10
467.483116
 20
164.055407
 30
0.0
 11
468.0
 21
160.129285
 31
0.0
  0
LINE
  8
LC-004-003-----0
  6
CONTINUOUS
  5
C2
 10
468.0
 20
160.129285
 30
0.0
 11
468.516884
 21
164.055407
 31
0.0
  0
LINE
  8
LC-004-003-----0
  6
CONTINUOUS
  5
C3
 10
470.349471
 20
310.026239
 30
0.0
 11
468.0
 21
327.872247
 31
0.0
  0
LINE
  8
LC-004-003-----0
  6
CONTINUOUS
  5
C4
 10
468.0
 20
327.872247
 30
0.0
 11
465.650529
 21
310.026239
 31
0.0
  0
LINE
  8
LC-004-003-----0
  6
CONTINUOUS
  5
C5
 10
465.650529
 20
310.026239
 30
0.0
 11
470.349471
 21
310.026239
 31
0.0
  0
LINE
  8
LC-004-003-----0
  6
CONTINUOUS
  5
C6
 10
469.738609
 20
309.986201
 30
0.0
 11
468.0
 21
323.192247
 31
0.0
  0
LINE
  8
LC-004-003-----0
  6
CONTINUOUS
  5
C7
 10
468.0
 20
323.192247
 30
0.0
 11
466.261391
 21
309.986201
 31
0.0
  0
LINE
  8
LC-004-003-----0
  6
CONTINUOUS
  5
C8
 10
469.127746
 20
309.946163
 30
0.0
 11
468.0
 21
318.512247
 31
0.0
  0
LINE
  8
LC-004-003-----0
  6
CONTINUOUS
  5
C9
 10
468.0
 20
318.512247
 30
0.0
 11
466.872254
 21
309.946163
 31
0.0
  0
LINE
  8
LC-004-003-----0
  6
CONTINUOUS
  5
CA
 10
468.516884
 20
309.906125
 30
0.0
 11
468.0
 21
313.832247
 31
0.0
  0
LINE
  8
LC-004-003-----0
  6
CONTINUOUS
  5
CB
 10
468.0
 20
313.832247
 30
0.0
 11
467.483116
 21
309.906125
 31
0.0
  0
TEXT
  8
LC-004-003-----0
  6
CONTINUOUS
 62
     6
  5
CD
 10
457.568001
 20
202.253387
 30
0.0
 40
18.0
  1
180
 50
90.0
 41
0.9
 51
15.0
  7
LC-TXTSTYLE-150-400-0-0-D0
 72
     1
 11
457.568001
 21
221.387246
 31
0.0
  0
ENDBLK
  8
0
  5
CE
  0
BLOCK
  8
0
  5
D0
  2
*D8
 70
    65
 10
0.0
 20
0.0
 30
0.0
  3
*D8
  0
LINE
  8
LC-005-003-MTH-0
  6
CONTINUOUS
  5
D1
 10
322.636546
 20
148.589285
 30
0.0
 11
322.636546
 21
101.2
 31
0.0
  0
LINE
  8
LC-005-003-MTH-0
  6
CONTINUOUS
  5
D2
 10
362.636546
 20
148.589285
 30
0.0
 11
362.636546
 21
101.2
 31
0.0
  0
LINE
  8
LC-004-003-----0
  6
CONTINUOUS
  5
D3
 10
304.790539
 20
109.650529
 30
0.0
 11
322.636546
 21
112.0
 31
0.0
  0
LINE
  8
LC-004-003-----0
  6
CONTINUOUS
  5
D4
 10
322.636546
 20
112.0
 30
0.0
 11
304.790539
 21
114.349471
 31
0.0
  0
LINE
  8
LC-004-003-----0
  6
CONTINUOUS
  5
D5
 10
304.790539
 20
114.349471
 30
0.0
 11
304.790539
 21
109.650529
 31
0.0
  0
LINE
  8
LC-004-003-----0
  6
CONTINUOUS
  5
D6
 10
304.750501
 20
110.261391
 30
0.0
 11
317.956546
 21
112.0
 31
0.0
  0
LINE
  8
LC-004-003-----0
  6
CONTINUOUS
  5
D7
 10
317.956546
 20
112.0
 30
0.0
 11
304.750501
 21
113.738609
 31
0.0
  0
LINE
  8
LC-004-003-----0
  6
CONTINUOUS
  5
D8
 10
304.710463
 20
110.872254
 30
0.0
 11
313.276546
 21
112.0
 31
0.0
  0
LINE
  8
LC-004-003-----0
  6
CONTINUOUS
  5
D9
 10
313.276546
 20
112.0
 30
0.0
 11
304.710463
 21
113.127746
 31
0.0
  0
LINE
  8
LC-004-003-----0
  6
CONTINUOUS
  5
DA
 10
304.670425
 20
111.483116
 30
0.0
 11
308.596546
 21
112.0
 31
0.0
  0
LINE
  8
LC-004-003-----0
  6
CONTINUOUS
  5
DB
 10
308.596546
 20
112.0
 30
0.0
 11
304.670425
 21
112.516884
 31
0.0
  0
LINE
  8
LC-004-003-----0
  6
CONTINUOUS
  5
DC
 10
380.482554
 20
114.349471
 30
0.0
 11
362.636546
 21
112.0
 31
0.0
  0
LINE
  8
LC-004-003-----0
  6
CONTINUOUS
  5
DD
 10
362.636546
 20
112.0
 30
0.0
 11
380.482554
 21
109.650529
 31
0.0
  0
LINE
  8
LC-004-003-----0
  6
CONTINUOUS
  5
DE
 10
380.482554
 20
109.650529
 30
0.0
 11
380.482554
 21
114.349471
 31
0.0
  0
LINE
  8
LC-004-003-----0
  6
CONTINUOUS
  5
DF
 10
380.522592
 20
113.738609
 30
0.0
 11
367.316546
 21
112.0
 31
0.0
  0
LINE
  8
LC-004-003-----0
  6
CONTINUOUS
  5
E0
 10
367.316546
 20
112.0
 30
0.0
 11
380.522592
 21
110.261391
 31
0.0
  0
LINE
  8
LC-004-003-----0
  6
CONTINUOUS
  5
E1
 10
380.56263
 20
113.127746
 30
0.0
 11
371.996546
 21
112.0
 31
0.0
  0
LINE
  8
LC-004-003-----0
  6
CONTINUOUS
  5
E2
 10
371.996546
 20
112.0
 30
0.0
 11
380.56263
 21
110.872254
 31
0.0
  0
LINE
  8
LC-004-003-----0
  6
CONTINUOUS
  5
E3
 10
380.602668
 20
112.516884
 30
0.0
 11
376.676546
 21
112.0
 31
0.0
  0
LINE
  8
LC-004-003-----0
  6
CONTINUOUS
  5
E4
 10
376.676546
 20
112.0
 30
0.0
 11
380.602668
 21
111.483116
 31
0.0
  0
LINE
  8
LC-006-003-MTG-0
  6
CONTINUOUS
  5
E5
 10
297.436546
 20
112.0
 30
0.0
 11
453.039066
 21
112.0
 31
0.0
  0
TEXT
  8
LC-004-003-----0
  6
CONTINUOUS
 62
     6
  5
E6
 10
389.911792
 20
122.431999
 30
0.0
 40
18.0
  1
DN40
 51
15.0
  7
LC-TXTSTYLE-150-400-0-0-D0
  0
ENDBLK
  8
0
  5
E7
  0
BLOCK
  8
0
  5
E9
  2
*X9
 70
    65
 10
360.136546
 20
146.089285
 30
0.0
  3
*X9
  0
LINE
  8
LC-003-005-----0
  6
CONTINUOUS
  5
EA
 10
360.136546
 20
148.004512
 30
0.0
 11
362.636546
 21
150.504512
 31
0.0
  0
LINE
  8
LC-003-005-----0
  6
CONTINUOUS
  5
EB
 10
360.136546
 20
150.832939
 30
0.0
 11
362.636546
 21
153.332939
 31
0.0
  0
LINE
  8
LC-003-005-----0
  6
CONTINUOUS
  5
EC
 10
360.136546
 20
153.661366
 30
0.0
 11
362.636546
 21
156.161366
 31
0.0
  0
LINE
  8
LC-003-005-----0
  6
CONTINUOUS
  5
ED
 10
360.136546
 20
156.489793
 30
0.0
 11
362.636546
 21
158.989793
 31
0.0
  0
LINE
  8
LC-003-005-----0
  6
CONTINUOUS
  5
EE
 10
360.136546
 20
159.318221
 30
0.0
 11
362.636546
 21
161.818221
 31
0.0
  0
LINE
  8
LC-003-005-----0
  6
CONTINUOUS
  5
EF
 10
360.136546
 20
162.146648
 30
0.0
 11
362.636546
 21
164.646648
 31
0.0
  0
LINE
  8
LC-003-005-----0
  6
CONTINUOUS
  5
F0
 10
360.136546
 20
164.975075
 30
0.0
 11
362.636546
 21
167.475075
 31
0.0
  0
LINE
  8
LC-003-005-----0
  6
CONTINUOUS
  5
F1
 10
360.136546
 20
167.803502
 30
0.0
 11
362.636546
 21
170.303502
 31
0.0
  0
LINE
  8
LC-003-005-----0
  6
CONTINUOUS
  5
F2
 10
360.136546
 20
170.631929
 30
0.0
 11
362.636546
 21
173.131929
 31
0.0
  0
LINE
  8
LC-003-005-----0
  6
CONTINUOUS
  5
F3
 10
360.136546
 20
173.460356
 30
0.0
 11
362.636546
 21
175.960356
 31
0.0
  0
LINE
  8
LC-003-005-----0
  6
CONTINUOUS
  5
F4
 10
360.136546
 20
176.288783
 30
0.0
 11
362.636546
 21
178.788783
 31
0.0
  0
LINE
  8
LC-003-005-----0
  6
CONTINUOUS
  5
F5
 10
360.136546
 20
179.11721
 30
0.0
 11
362.636546
 21
181.61721
 31
0.0
  0
LINE
  8
LC-003-005-----0
  6
CONTINUOUS
  5
F6
 10
360.136546
 20
181.945638
 30
0.0
 11
362.636546
 21
184.445638
 31
0.0
  0
LINE
  8
LC-003-005-----0
  6
CONTINUOUS
  5
F7
 10
360.136546
 20
184.774065
 30
0.0
 11
362.636546
 21
187.274065
 31
0.0
  0
LINE
  8
LC-003-005-----0
  6
CONTINUOUS
  5
F8
 10
360.136546
 20
187.602492
 30
0.0
 11
362.636546
 21
190.102492
 31
0.0
  0
LINE
  8
LC-003-005-----0
  6
CONTINUOUS
  5
F9
 10
360.136546
 20
190.430919
 30
0.0
 11
362.636546
 21
192.930919
 31
0.0
  0
LINE
  8
LC-003-005-----0
  6
CONTINUOUS
  5
FA
 10
360.136546
 20
193.259346
 30
0.0
 11
362.636546
 21
195.759346
 31
0.0
  0
LINE
  8
LC-003-005-----0
  6
CONTINUOUS
  5
FB
 10
360.136546
 20
196.087773
 30
0.0
 11
362.636546
 21
198.587773
 31
0.0
  0
LINE
  8
LC-003-005-----0
  6
CONTINUOUS
  5
FC
 10
360.136546
 20
198.9162
 30
0.0
 11
362.636546
 21
201.4162
 31
0.0
  0
LINE
  8
LC-003-005-----0
  6
CONTINUOUS
  5
FD
 10
360.136546
 20
201.744627
 30
0.0
 11
362.636546
 21
204.244627
 31
0.0
  0
LINE
  8
LC-003-005-----0
  6
CONTINUOUS
  5
FE
 10
360.136546
 20
204.573055
 30
0.0
 11
362.636546
 21
207.073055
 31
0.0
  0
LINE
  8
LC-003-005-----0
  6
CONTINUOUS
  5
FF
 10
360.136546
 20
207.401482
 30
0.0
 11
362.636546
 21
209.901482
 31
0.0
  0
LINE
  8
LC-003-005-----0
  6
CONTINUOUS
  5
100
 10
360.136546
 20
210.229909
 30
0.0
 11
362.636546
 21
212.729909
 31
0.0
  0
LINE
  8
LC-003-005-----0
  6
CONTINUOUS
  5
101
 10
360.136546
 20
213.058336
 30
0.0
 11
362.636546
 21
215.558336
 31
0.0
  0
LINE
  8
LC-003-005-----0
  6
CONTINUOUS
  5
102
 10
360.136546
 20
215.886763
 30
0.0
 11
362.636546
 21
218.386763
 31
0.0
  0
LINE
  8
LC-003-005-----0
  6
CONTINUOUS
  5
103
 10
360.136546
 20
218.71519
 30
0.0
 11
362.636546
 21
221.21519
 31
0.0
  0
LINE
  8
LC-003-005-----0
  6
CONTINUOUS
  5
104
 10
360.136546
 20
221.543617
 30
0.0
 11
362.636546
 21
224.043617
 31
0.0
  0
LINE
  8
LC-003-005-----0
  6
CONTINUOUS
  5
105
 10
360.136546
 20
224.372044
 30
0.0
 11
362.636546
 21
226.872044
 31
0.0
  0
LINE
  8
LC-003-005-----0
  6
CONTINUOUS
  5
106
 10
360.136546
 20
227.200472
 30
0.0
 11
362.636546
 21
229.700472
 31
0.0
  0
LINE
  8
LC-003-005-----0
  6
CONTINUOUS
  5
107
 10
360.136546
 20
230.028899
 30
0.0
 11
362.636546
 21
232.528899
 31
0.0
  0
LINE
  8
LC-003-005-----0
  6
CONTINUOUS
  5
108
 10
360.136546
 20
232.857326
 30
0.0
 11
362.636546
 21
235.357326
 31
0.0
  0
LINE
  8
LC-003-005-----0
  6
CONTINUOUS
  5
109
 10
360.136546
 20
235.685753
 30
0.0
 11
362.636546
 21
238.185753
 31
0.0
  0
LINE
  8
LC-003-005-----0
  6
CONTINUOUS
  5
10A
 10
360.136546
 20
238.51418
 30
0.0
 11
362.636546
 21
241.01418
 31
0.0
  0
LINE
  8
LC-003-005-----0
  6
CONTINUOUS
  5
10B
 10
360.136546
 20
241.342607
 30
0.0
 11
362.636546
 21
243.842607
 31
0.0
  0
LINE
  8
LC-003-005-----0
  6
CONTINUOUS
  5
10C
 10
360.136546
 20
244.171034
 30
0.0
 11
362.636546
 21
246.671034
 31
0.0
  0
LINE
  8
LC-003-005-----0
  6
CONTINUOUS
  5
10D
 10
360.136546
 20
246.999461
 30
0.0
 11
362.636546
 21
249.499461
 31
0.0
  0
LINE
  8
LC-003-005-----0
  6
CONTINUOUS
  5
10E
 10
360.136546
 20
249.827889
 30
0.0
 11
362.636546
 21
252.327889
 31
0.0
  0
LINE
  8
LC-003-005-----0
  6
CONTINUOUS
  5
10F
 10
393.445253
 20
283.136595
 30
0.0
 11
394.06428
 21
283.755622
 31
0.0
  0
LINE
  8
LC-003-005-----0
  6
CONTINUOUS
  5
110
 10
360.136546
 20
252.656316
 30
0.0
 11
362.636546
 21
255.156316
 31
0.0
  0
LINE
  8
LC-003-005-----0
  6
CONTINUOUS
  5
111
 10
389.581546
 20
282.101315
 30
0.0
 11
393.466562
 21
285.986331
 31
0.0
  0
LINE
  8
LC-003-005-----0
  6
CONTINUOUS
  5
112
 10
360.136546
 20
255.484743
 30
0.0
 11
362.636546
 21
257.984743
 31
0.0
  0
LINE
  8
LC-003-005-----0
  6
CONTINUOUS
  5
113
 10
385.717839
 20
281.066035
 30
0.0
 11
390.667592
 21
286.015789
 31
0.0
  0
LINE
  8
LC-003-005-----0
  6
CONTINUOUS
  5
114
 10
360.136546
 20
258.31317
 30
0.0
 11
362.636546
 21
260.81317
 31
0.0
  0
LINE
  8
LC-003-005-----0
  6
CONTINUOUS
  5
115
 10
381.854132
 20
280.030756
 30
0.0
 11
386.803885
 21
284.980509
 31
0.0
  0
LINE
  8
LC-003-005-----0
  6
CONTINUOUS
  5
116
 10
360.136546
 20
261.141597
 30
0.0
 11
362.636546
 21
263.641597
 31
0.0
  0
LINE
  8
LC-003-005-----0
  6
CONTINUOUS
  5
117
 10
378.609467
 20
279.614518
 30
0.0
 11
382.940178
 21
283.945229
 31
0.0
  0
LINE
  8
LC-003-005-----0
  6
CONTINUOUS
  5
118
 10
360.136546
 20
263.970024
 30
0.0
 11
362.636546
 21
266.470024
 31
0.0
  0
LINE
  8
LC-003-005-----0
  6
CONTINUOUS
  5
119
 10
376.248041
 20
280.081519
 30
0.0
 11
379.076471
 21
282.909949
 31
0.0
  0
LINE
  8
LC-003-005-----0
  6
CONTINUOUS
  5
11A
 10
360.136546
 20
266.798451
 30
0.0
 11
362.636546
 21
269.298451
 31
0.0
  0
LINE
  8
LC-003-005-----0
  6
CONTINUOUS
  5
11B
 10
372.384334
 20
279.046239
 30
0.0
 11
375.212764
 21
281.874669
 31
0.0
  0
LINE
  8
LC-003-005-----0
  6
CONTINUOUS
  5
11C
 10
360.136546
 20
269.626878
 30
0.0
 11
362.636546
 21
272.126878
 31
0.0
  0
LINE
  8
LC-003-005-----0
  6
CONTINUOUS
  5
11D
 10
368.520627
 20
278.010959
 30
0.0
 11
371.349057
 21
280.839389
 31
0.0
  0
LINE
  8
LC-003-005-----0
  6
CONTINUOUS
  5
11E
 10
360.136546
 20
272.455306
 30
0.0
 11
362.636546
 21
274.955306
 31
0.0
  0
LINE
  8
LC-003-005-----0
  6
CONTINUOUS
  5
11F
 10
364.65692
 20
276.975679
 30
0.0
 11
367.48535
 21
279.804109
 31
0.0
  0
LINE
  8
LC-003-005-----0
  6
CONTINUOUS
  5
120
 10
360.136546
 20
275.283733
 30
0.0
 11
363.621643
 21
278.768829
 31
0.0
  0
ENDBLK
  8
0
  5
121
  0
BLOCK
  8
0
  5
123
  2
*X10
 70
    65
 10
246.158221
 20
261.20959
 30
0.0
  3
*X10
  0
LINE
  8
LC-003-005-----0
  6
CONTINUOUS
  5
124
 10
246.385612
 20
263.355837
 30
0.0
 11
248.180328
 21
265.150551
 31
0.0
  0
LINE
  8
LC-003-005-----0
  6
CONTINUOUS
  5
125
 10
246.966786
 20
268.179648
 30
0.0
 11
247.218449
 21
268.43131
 31
0.0
  0
LINE
  8
LC-003-005-----0
  6
CONTINUOUS
  5
126
 10
247.428292
 20
268.641153
 30
0.0
 11
249.733246
 21
270.946104
 31
0.0
  0
LINE
  8
LC-003-005-----0
  6
CONTINUOUS
  5
127
 10
248.086071
 20
273.541569
 30
0.0
 11
251.286164
 21
276.741658
 31
0.0
  0
LINE
  8
LC-003-005-----0
  6
CONTINUOUS
  5
128
 10
287.146732
 20
312.602178
 30
0.0
 11
290.177062
 21
315.632505
 31
0.0
  0
LINE
  8
LC-003-005-----0
  6
CONTINUOUS
  5
129
 10
249.447211
 20
279.145345
 30
0.0
 11
252.839082
 21
282.537212
 31
0.0
  0
LINE
  8
LC-003-005-----0
  6
CONTINUOUS
  5
12A
 10
283.800667
 20
313.498756
 30
0.0
 11
285.433662
 21
315.131748
 31
0.0
  0
LINE
  8
LC-003-005-----0
  6
CONTINUOUS
  5
12B
 10
250.516476
 20
284.457247
 30
0.0
 11
254.392
 21
288.332766
 31
0.0
  0
LINE
  8
LC-003-005-----0
  6
CONTINUOUS
  5
12C
 10
280.454603
 20
314.395334
 30
0.0
 11
282.087597
 21
316.028326
 31
0.0
  0
LINE
  8
LC-003-005-----0
  6
CONTINUOUS
  5
12D
 10
252.022422
 20
290.205828
 30
0.0
 11
255.944918
 21
294.12832
 31
0.0
  0
LINE
  8
LC-003-005-----0
  6
CONTINUOUS
  5
12E
 10
277.108538
 20
315.291911
 30
0.0
 11
278.741532
 21
316.924903
 31
0.0
  0
LINE
  8
LC-003-005-----0
  6
CONTINUOUS
  5
12F
 10
252.249245
 20
294.675289
 30
0.0
 11
253.350045
 21
295.776088
 31
0.0
  0
LINE
  8
LC-003-005-----0
  6
CONTINUOUS
  5
130
 10
253.9623
 20
296.388342
 30
0.0
 11
257.497837
 21
299.923874
 31
0.0
  0
LINE
  8
LC-003-005-----0
  6
CONTINUOUS
  5
131
 10
273.72821
 20
316.154225
 30
0.0
 11
275.395468
 21
317.821481
 31
0.0
  0
LINE
  8
LC-003-005-----0
  6
CONTINUOUS
  5
132
 10
255.515218
 20
302.183896
 30
0.0
 11
259.050755
 21
305.719427
 31
0.0
  0
LINE
  8
LC-003-005-----0
  6
CONTINUOUS
  5
133
 10
269.532567
 20
316.201226
 30
0.0
 11
271.700398
 21
318.369054
 31
0.0
  0
LINE
  8
LC-003-005-----0
  6
CONTINUOUS
  5
134
 10
257.097243
 20
308.008556
 30
0.0
 11
266.727257
 21
317.638557
 31
0.0
  0
ENDBLK
  8
0
  5
135
  0
BLOCK
  8
0
  5
137
  2
*X11
 70
    65
 10
261.613233
 20
257.068475
 30
0.0
  3
*X11
  0
LINE
  8
LC-003-005-----0
  6
CONTINUOUS
  5
138
 10
261.628955
 20
257.38597
 30
0.0
 11
263.524457
 21
259.28147
 31
0.0
  0
LINE
  8
LC-003-005-----0
  6
CONTINUOUS
  5
139
 10
263.181873
 20
263.181524
 30
0.0
 11
265.868883
 21
265.86853
 31
0.0
  0
LINE
  8
LC-003-005-----0
  6
CONTINUOUS
  5
13A
 10
264.734791
 20
268.977078
 30
0.0
 11
267.409598
 21
271.651881
 31
0.0
  0
LINE
  8
LC-003-005-----0
  6
CONTINUOUS
  5
13B
 10
266.287709
 20
274.772632
 30
0.0
 11
269.99405
 21
278.478967
 31
0.0
  0
LINE
  8
LC-003-005-----0
  6
CONTINUOUS
  5
13C
 10
281.343308
 20
289.828211
 30
0.0
 11
282.976302
 21
291.461203
 31
0.0
  0
LINE
  8
LC-003-005-----0
  6
CONTINUOUS
  5
13D
 10
267.840627
 20
280.568186
 30
0.0
 11
271.564528
 21
284.292081
 31
0.0
  0
LINE
  8
LC-003-005-----0
  6
CONTINUOUS
  5
13E
 10
277.997244
 20
290.724788
 30
0.0
 11
279.630238
 21
292.35778
 31
0.0
  0
LINE
  8
LC-003-005-----0
  6
CONTINUOUS
  5
13F
 10
269.393545
 20
286.36374
 30
0.0
 11
273.426433
 21
290.396622
 31
0.0
  0
LINE
  8
LC-003-005-----0
  6
CONTINUOUS
  5
140
 10
274.651179
 20
291.621366
 30
0.0
 11
276.284173
 21
293.254358
 31
0.0
  0
LINE
  8
LC-003-005-----0
  6
CONTINUOUS
  5
141
 10
270.946463
 20
292.159293
 30
0.0
 11
272.938109
 21
294.150936
 31
0.0
  0
ENDBLK
  8
0
  5
142
  0
BLOCK
  8
0
  5
144
  2
*X12
 70
    65
 10
286.482794
 20
314.006627
 30
0.0
  3
*X12
  0
LINE
  8
LC-003-005-----0
  6
CONTINUOUS
  5
145
 10
286.610412
 20
315.844546
 30
0.0
 11
287.307729
 21
315.14723
 31
0.0
  0
LINE
  8
LC-003-005-----0
  6
CONTINUOUS
  5
146
 10
287.744664
 20
318.952934
 30
0.0
 11
288.846054
 21
317.851545
 31
0.0
  0
LINE
  8
LC-003-005-----0
  6
CONTINUOUS
  5
147
 10
291.120666
 20
319.819574
 30
0.0
 11
293.949101
 21
316.991142
 31
0.0
  0
LINE
  8
LC-003-005-----0
  6
CONTINUOUS
  5
148
 10
296.916233
 20
318.266653
 30
0.0
 11
299.744668
 21
315.438221
 31
0.0
  0
LINE
  8
LC-003-005-----0
  6
CONTINUOUS
  5
149
 10
302.7118
 20
316.713731
 30
0.0
 11
304.893657
 21
314.531877
 31
0.0
  0
ENDBLK
  8
0
  5
14A
  0
BLOCK
  8
0
  5
14C
  2
*X13
 70
    65
 10
278.876526
 20
278.831404
 30
0.0
  3
*X13
  0
LINE
  8
LC-003-005-----0
  6
CONTINUOUS
  5
14D
 10
279.429724
 20
284.841484
 30
0.0
 11
280.140682
 21
284.130526
 31
0.0
  0
LINE
  8
LC-003-005-----0
  6
CONTINUOUS
  5
14E
 10
279.439706
 20
289.074139
 30
0.0
 11
280.664455
 21
287.849392
 31
0.0
  0
LINE
  8
LC-003-005-----0
  6
CONTINUOUS
  5
14F
 10
283.372682
 20
285.141169
 30
0.0
 11
286.201092
 21
282.312763
 31
0.0
  0
LINE
  8
LC-003-005-----0
  6
CONTINUOUS
  5
150
 10
289.168204
 20
283.588292
 30
0.0
 11
291.996614
 21
280.759886
 31
0.0
  0
LINE
  8
LC-003-005-----0
  6
CONTINUOUS
  5
151
 10
294.963726
 20
282.035416
 30
0.0
 11
295.929812
 21
281.069331
 31
0.0
  0
ENDBLK
  8
0
  5
152
  0
BLOCK
  8
0
  5
154
  2
*X14
 70
    65
 10
289.634742
 20
282.374645
 30
0.0
  3
*X14
  0
LINE
  8
LC-003-005-----0
  6
CONTINUOUS
  5
155
 10
335.179519
 20
288.510058
 30
0.0
 11
336.592329
 21
289.922865
 31
0.0
  0
LINE
  8
LC-003-005-----0
  6
CONTINUOUS
  5
156
 10
335.837695
 20
293.410871
 30
0.0
 11
336.713126
 21
294.2863
 31
0.0
  0
LINE
  8
LC-003-005-----0
  6
CONTINUOUS
  5
157
 10
334.823167
 20
296.638982
 30
0.0
 11
335.558179
 21
297.373993
 31
0.0
  0
LINE
  8
LC-003-005-----0
  6
CONTINUOUS
  5
158
 10
332.964188
 20
299.022643
 30
0.0
 11
333.67196
 21
299.730414
 31
0.0
  0
LINE
  8
LC-003-005-----0
  6
CONTINUOUS
  5
159
 10
330.374713
 20
300.675809
 30
0.0
 11
331.132522
 21
301.433618
 31
0.0
  0
LINE
  8
LC-003-005-----0
  6
CONTINUOUS
  5
15A
 10
327.095384
 20
301.639122
 30
0.0
 11
327.911881
 21
302.455618
 31
0.0
  0
LINE
  8
LC-003-005-----0
  6
CONTINUOUS
  5
15B
 10
323.749319
 20
302.5357
 30
0.0
 11
324.565816
 21
303.352196
 31
0.0
  0
LINE
  8
LC-003-005-----0
  6
CONTINUOUS
  5
15C
 10
320.403254
 20
303.432278
 30
0.0
 11
321.219751
 21
304.248774
 31
0.0
  0
LINE
  8
LC-003-005-----0
  6
CONTINUOUS
  5
15D
 10
317.05719
 20
304.328855
 30
0.0
 11
317.873687
 21
305.145351
 31
0.0
  0
LINE
  8
LC-003-005-----0
  6
CONTINUOUS
  5
15E
 10
313.711125
 20
305.225433
 30
0.0
 11
314.527622
 21
306.041929
 31
0.0
  0
LINE
  8
LC-003-005-----0
  6
CONTINUOUS
  5
15F
 10
310.36506
 20
306.122011
 30
0.0
 11
311.181557
 21
306.938507
 31
0.0
  0
LINE
  8
LC-003-005-----0
  6
CONTINUOUS
  5
160
 10
307.018996
 20
307.018588
 30
0.0
 11
307.835493
 21
307.835084
 31
0.0
  0
LINE
  8
LC-003-005-----0
  6
CONTINUOUS
  5
161
 10
303.672931
 20
307.915166
 30
0.0
 11
304.489428
 21
308.731662
 31
0.0
  0
LINE
  8
LC-003-005-----0
  6
CONTINUOUS
  5
162
 10
300.326866
 20
308.811744
 30
0.0
 11
301.143364
 21
309.62824
 31
0.0
  0
LINE
  8
LC-003-005-----0
  6
CONTINUOUS
  5
163
 10
296.980802
 20
309.708321
 30
0.0
 11
297.797299
 21
310.524817
 31
0.0
  0
LINE
  8
LC-003-005-----0
  6
CONTINUOUS
  5
164
 10
293.634737
 20
310.604899
 30
0.0
 11
294.451234
 21
311.421395
 31
0.0
  0
LINE
  8
LC-003-005-----0
  6
CONTINUOUS
  5
165
 10
290.288672
 20
311.501477
 30
0.0
 11
291.10517
 21
312.317973
 31
0.0
  0
ENDBLK
  8
0
  5
166
  0
BLOCK
  8
0
  5
168
  2
*X15
 70
    65
 10
283.164251
 20
280.327591
 30
0.0
  3
*X15
  0
LINE
  8
LC-003-005-----0
  6
CONTINUOUS
  5
169
 10
315.008079
 20
281.066558
 30
0.0
 11
315.824576
 21
281.883054
 31
0.0
  0
LINE
  8
LC-003-005-----0
  6
CONTINUOUS
  5
16A
 10
311.662014
 20
281.963136
 30
0.0
 11
312.478511
 21
282.779632
 31
0.0
  0
LINE
  8
LC-003-005-----0
  6
CONTINUOUS
  5
16B
 10
308.31595
 20
282.859713
 30
0.0
 11
309.132447
 21
283.676209
 31
0.0
  0
LINE
  8
LC-003-005-----0
  6
CONTINUOUS
  5
16C
 10
304.969885
 20
283.756291
 30
0.0
 11
305.786382
 21
284.572787
 31
0.0
  0
LINE
  8
LC-003-005-----0
  6
CONTINUOUS
  5
16D
 10
301.62382
 20
284.652869
 30
0.0
 11
302.440317
 21
285.469365
 31
0.0
  0
LINE
  8
LC-003-005-----0
  6
CONTINUOUS
  5
16E
 10
298.277756
 20
285.549446
 30
0.0
 11
299.094253
 21
286.365942
 31
0.0
  0
LINE
  8
LC-003-005-----0
  6
CONTINUOUS
  5
16F
 10
294.931691
 20
286.446024
 30
0.0
 11
295.748188
 21
287.26252
 31
0.0
  0
LINE
  8
LC-003-005-----0
  6
CONTINUOUS
  5
170
 10
291.585626
 20
287.342602
 30
0.0
 11
292.402124
 21
288.159098
 31
0.0
  0
LINE
  8
LC-003-005-----0
  6
CONTINUOUS
  5
171
 10
288.239562
 20
288.239179
 30
0.0
 11
289.056059
 21
289.055675
 31
0.0
  0
LINE
  8
LC-003-005-----0
  6
CONTINUOUS
  5
172
 10
283.260503
 20
287.502765
 30
0.0
 11
284.533794
 21
288.776054
 31
0.0
  0
LINE
  8
LC-003-005-----0
  6
CONTINUOUS
  5
173
 10
284.893497
 20
289.135757
 30
0.0
 11
285.709994
 21
289.952253
 31
0.0
  0
ENDBLK
  8
0
  5
174
  0
BLOCK
  8
0
  5
176
  2
BLK1
 70
    64
 10
0.0
 20
0.0
 30
0.0
  3
BLK1
  0
ENDBLK
  8
0
  5
177
  0
BLOCK
  8
0
  5
179
  2
*X17
 70
    65
 10
387.956602
 20
259.333935
 30
0.0
  3
*X17
  0
LINE
  8
LC-003-005-----0
  6
CONTINUOUS
  5
17A
 10
430.7031
 20
260.997014
 30
0.0
 11
431.812062
 21
262.105974
 31
0.0
  0
LINE
  8
LC-003-005-----0
  6
CONTINUOUS
  5
17B
 10
429.806523
 20
264.343076
 30
0.0
 11
431.35587
 21
265.892421
 31
0.0
  0
LINE
  8
LC-003-005-----0
  6
CONTINUOUS
  5
17C
 10
428.909946
 20
267.689138
 30
0.0
 11
430.506495
 21
269.285685
 31
0.0
  0
LINE
  8
LC-003-005-----0
  6
CONTINUOUS
  5
17D
 10
428.013369
 20
271.0352
 30
0.0
 11
430.004405
 21
273.026233
 31
0.0
  0
LINE
  8
LC-003-005-----0
  6
CONTINUOUS
  5
17E
 10
427.116792
 20
274.381262
 30
0.0
 11
428.901565
 21
276.166032
 31
0.0
  0
LINE
  8
LC-003-005-----0
  6
CONTINUOUS
  5
17F
 10
426.220215
 20
277.727324
 30
0.0
 11
428.629223
 21
280.136329
 31
0.0
  0
LINE
  8
LC-003-005-----0
  6
CONTINUOUS
  5
180
 10
425.323638
 20
281.073386
 30
0.0
 11
427.671966
 21
283.421711
 31
0.0
  0
LINE
  8
LC-003-005-----0
  6
CONTINUOUS
  5
181
 10
424.427061
 20
284.419448
 30
0.0
 11
427.283702
 21
287.276085
 31
0.0
  0
LINE
  8
LC-003-005-----0
  6
CONTINUOUS
  5
182
 10
423.530484
 20
287.76551
 30
0.0
 11
426.146541
 21
290.381564
 31
0.0
  0
LINE
  8
LC-003-005-----0
  6
CONTINUOUS
  5
183
 10
422.633907
 20
291.111572
 30
0.0
 11
425.605692
 21
294.083353
 31
0.0
  0
LINE
  8
LC-003-005-----0
  6
CONTINUOUS
  5
184
 10
421.73733
 20
294.457634
 30
0.0
 11
423.778571
 21
296.498873
 31
0.0
  0
LINE
  8
LC-003-005-----0
  6
CONTINUOUS
  5
185
 10
420.840753
 20
297.803696
 30
0.0
 11
422.881994
 21
299.844935
 31
0.0
  0
LINE
  8
LC-003-005-----0
  6
CONTINUOUS
  5
186
 10
419.944176
 20
301.149759
 30
0.0
 11
421.985417
 21
303.190997
 31
0.0
  0
LINE
  8
LC-003-005-----0
  6
CONTINUOUS
  5
187
 10
419.047599
 20
304.495821
 30
0.0
 11
421.051403
 21
306.499622
 31
0.0
  0
LINE
  8
LC-003-005-----0
  6
CONTINUOUS
  5
188
 10
417.93375
 20
307.62461
 30
0.0
 11
419.678443
 21
309.369302
 31
0.0
  0
LINE
  8
LC-003-005-----0
  6
CONTINUOUS
  5
189
 10
416.229828
 20
310.163329
 30
0.0
 11
417.838477
 21
311.771976
 31
0.0
  0
LINE
  8
LC-003-005-----0
  6
CONTINUOUS
  5
18A
 10
414.00499
 20
312.181132
 30
0.0
 11
415.569281
 21
313.745421
 31
0.0
  0
LINE
  8
LC-003-005-----0
  6
CONTINUOUS
  5
18B
 10
411.23921
 20
313.657993
 30
0.0
 11
412.851555
 21
315.270336
 31
0.0
  0
LINE
  8
LC-003-005-----0
  6
CONTINUOUS
  5
18C
 10
407.77882
 20
314.440245
 30
0.0
 11
409.593757
 21
316.25518
 31
0.0
  0
LINE
  8
LC-003-005-----0
  6
CONTINUOUS
  5
18D
 10
403.005463
 20
313.909533
 30
0.0
 11
405.529451
 21
316.433517
 31
0.0
  0
LINE
  8
LC-003-005-----0
  6
CONTINUOUS
  5
18E
 10
397.209896
 20
312.356612
 30
0.0
 11
400.038332
 21
315.185044
 31
0.0
  0
LINE
  8
LC-003-005-----0
  6
CONTINUOUS
  5
18F
 10
391.414329
 20
310.80369
 30
0.0
 11
394.242765
 21
313.632122
 31
0.0
  0
LINE
  8
LC-003-005-----0
  6
CONTINUOUS
  5
190
 10
388.524753
 20
312.156755
 30
0.0
 11
389.749497
 21
313.381498
 31
0.0
  0
ENDBLK
  8
0
  5
191
  0
BLOCK
  8
0
  5
193
  2
*X18
 70
    65
 10
394.621209
 20
255.19282
 30
0.0
  3
*X18
  0
LINE
  8
LC-003-005-----0
  6
CONTINUOUS
  5
194
 10
414.639471
 20
257.66132
 30
0.0
 11
415.765921
 21
258.787768
 31
0.0
  0
LINE
  8
LC-003-005-----0
  6
CONTINUOUS
  5
195
 10
413.369621
 20
260.634109
 30
0.0
 11
414.869344
 21
262.133831
 31
0.0
  0
LINE
  8
LC-003-005-----0
  6
CONTINUOUS
  5
196
 10
412.427955
 20
263.935082
 30
0.0
 11
413.972767
 21
265.479893
 31
0.0
  0
LINE
  8
LC-003-005-----0
  6
CONTINUOUS
  5
197
 10
411.191612
 20
266.941378
 30
0.0
 11
413.07619
 21
268.825955
 31
0.0
  0
LINE
  8
LC-003-005-----0
  6
CONTINUOUS
  5
198
 10
410.508723
 20
270.501128
 30
0.0
 11
412.179613
 21
272.172017
 31
0.0
  0
LINE
  8
LC-003-005-----0
  6
CONTINUOUS
  5
199
 10
409.114686
 20
273.349731
 30
0.0
 11
411.283037
 21
275.518079
 31
0.0
  0
LINE
  8
LC-003-005-----0
  6
CONTINUOUS
  5
19A
 10
408.231385
 20
276.709069
 30
0.0
 11
410.38646
 21
278.864141
 31
0.0
  0
LINE
  8
LC-003-005-----0
  6
CONTINUOUS
  5
19B
 10
406.913853
 20
279.634176
 30
0.0
 11
409.489883
 21
282.210203
 31
0.0
  0
LINE
  8
LC-003-005-----0
  6
CONTINUOUS
  5
19C
 10
406.283755
 20
283.246718
 30
0.0
 11
408.593306
 21
285.556265
 31
0.0
  0
LINE
  8
LC-003-005-----0
  6
CONTINUOUS
  5
19D
 10
404.847816
 20
286.053418
 30
0.0
 11
407.696729
 21
288.902327
 31
0.0
  0
LINE
  8
LC-003-005-----0
  6
CONTINUOUS
  5
19E
 10
404.54475
 20
289.992991
 30
0.0
 11
406.800152
 21
292.248389
 31
0.0
  0
LINE
  8
LC-003-005-----0
  6
CONTINUOUS
  5
19F
 10
395.697368
 20
285.388259
 30
0.0
 11
396.922113
 21
286.613002
 31
0.0
  0
LINE
  8
LC-003-005-----0
  6
CONTINUOUS
  5
1A0
 10
398.749183
 20
288.440069
 30
0.0
 11
401.577618
 21
291.268501
 31
0.0
  0
LINE
  8
LC-003-005-----0
  6
CONTINUOUS
  5
1A1
 10
394.800791
 20
288.734321
 30
0.0
 11
395.782051
 21
289.715579
 31
0.0
  0
ENDBLK
  8
0
  5
1A2
  0
BLOCK
  8
0
  5
1A4
  2
*X19
 70
    65
 10
372.721286
 20
312.130971
 30
0.0
  3
*X19
  0
LINE
  8
LC-003-005-----0
  6
CONTINUOUS
  5
1A5
 10
372.913756
 20
314.394074
 30
0.0
 11
374.756064
 21
312.551768
 31
0.0
  0
LINE
  8
LC-003-005-----0
  6
CONTINUOUS
  5
1A6
 10
376.469135
 20
315.081338
 30
0.0
 11
378.102129
 21
313.448346
 31
0.0
  0
LINE
  8
LC-003-005-----0
  6
CONTINUOUS
  5
1A7
 10
379.815199
 20
315.977916
 30
0.0
 11
381.448194
 21
314.344923
 31
0.0
  0
LINE
  8
LC-003-005-----0
  6
CONTINUOUS
  5
1A8
 10
383.161264
 20
316.874493
 30
0.0
 11
384.794258
 21
315.241501
 31
0.0
  0
LINE
  8
LC-003-005-----0
  6
CONTINUOUS
  5
1A9
 10
386.507329
 20
317.771071
 30
0.0
 11
388.140323
 21
316.138079
 31
0.0
  0
LINE
  8
LC-003-005-----0
  6
CONTINUOUS
  5
1AA
 10
390.036623
 20
314.241782
 30
0.0
 11
390.998063
 21
313.280343
 31
0.0
  0
ENDBLK
  8
0
  5
1AB
  0
BLOCK
  8
0
  5
1AD
  2
*X20
 70
    65
 10
382.166454
 20
276.955748
 30
0.0
  3
*X20
  0
LINE
  8
LC-003-005-----0
  6
CONTINUOUS
  5
1AE
 10
382.227933
 20
279.624083
 30
0.0
 11
383.66698
 21
278.185037
 31
0.0
  0
LINE
  8
LC-003-005-----0
  6
CONTINUOUS
  5
1AF
 10
385.38006
 20
280.714597
 30
0.0
 11
387.01306
 21
279.0816
 31
0.0
  0
LINE
  8
LC-003-005-----0
  6
CONTINUOUS
  5
1B0
 10
388.72614
 20
281.61116
 30
0.0
 11
390.359139
 21
279.978162
 31
0.0
  0
LINE
  8
LC-003-005-----0
  6
CONTINUOUS
  5
1B1
 10
392.07222
 20
282.507722
 30
0.0
 11
393.705219
 21
280.874725
 31
0.0
  0
LINE
  8
LC-003-005-----0
  6
CONTINUOUS
  5
1B2
 10
395.418299
 20
283.404285
 30
0.0
 11
397.051299
 21
281.771288
 31
0.0
  0
LINE
  8
LC-003-005-----0
  6
CONTINUOUS
  5
1B3
 10
397.797892
 20
285.267333
 30
0.0
 11
399.259602
 21
283.805626
 31
0.0
  0
ENDBLK
  8
0
  5
1B4
  0
BLOCK
  8
0
  5
1B6
  2
BLK2
 70
    64
 10
0.0
 20
0.0
 30
0.0
  3
BLK2
  0
ENDBLK
  8
0
  5
1B7
  0
ENDSEC
  0
SECTION
  2
ENTITIES
  0
VIEWPORT
  8
LC-000
  5
2B9
 67
     1
 68
     1
 10
420.0
 20
297.0
 30
0.0
 40
840.0
 41
594.0
 69
     1
1001
ACAD
1000
MVIEW
1002
{
1070
    16
1010
0.0
1020
0.0
1030
0.0
1010
0.0
1020
0.0
1030
1.0
1040
0.0
1040
594.0
1040
420.0
1040
297.0
1040
50.0
1040
0.0
1040
0.0
1070
     0
1070
   100
1070
     1
1070
     1
1070
     0
1070
     0
1070
     0
1070
     0
1040
0.0
1040
0.0
1040
0.0
1040
1.0
1040
1.0
1040
0.0
1040
0.0
1070
     0
1002
{
1002
}
1002
}
  0
VIEWPORT
  8
0
  5
2BA
 67
     1
 68
     1
 10
0.0
 20
0.0
 30
0.0
 40
0.0
 41
0.0
 69
     1
1001
ACAD
1000
MVIEW
1002
{
1070
    16
1010
0.0
1020
0.0
1030
0.0
1010
0.0
1020
0.0
1030
1.0
1040
0.0
1040
594.0
1040
0.0
1040
0.0
1040
50.0
1040
0.0
1040
0.0
1070
     0
1070
   100
1070
     0
1070
     1
1070
     0
1070
     0
1070
     0
1070
     0
1040
0.0
1040
0.0
1040
0.0
1040
0.5
1040
0.5
1040
0.5
1040
0.5
1070
     0
1002
{
1002
}
1002
}
  0
INSERT
  8
0
  5
1B8
  2
*X0
 10
284.0955
 20
146.089285
 30
0.0
  0
INSERT
  8
0
  5
1B9
  2
*X1
 10
291.73068
 20
303.716907
 30
0.0
  0
INSERT
  8
0
  5
1BA
  2
*X2
 10
315.136546
 20
310.372247
 30
0.0
  0
INSERT
  8
0
  5
1BB
  2
*X3
 10
320.136546
 20
316.084
 30
0.0
  0
INSERT
  8
0
  5
1BC
  2
*X4
 10
361.136546
 20
316.084
 30
0.0
  0
INSERT
  8
0
  5
1BD
  2
*X5
 10
364.636546
 20
310.372247
 30
0.0
  0
INSERT
  8
0
  5
1BE
  2
*X6
 10
360.136546
 20
303.716907
 30
0.0
  0
DIMENSION
  8
0
  5
1BF
  2
*D7
 10
468.0
 20
218.592
 30
0.0
 11
468.0
 21
218.592
 31
0.0
  1
180
 13
370.136546
 23
327.872247
 33
0.0
 14
360.136546
 24
146.089285
 34
0.0
 50
90.0
  3
LC-DIM-L-0090-02-02
  0
DIMENSION
  8
0
  5
1C0
  2
*D8
 10
342.636546
 20
112.0
 30
0.0
 11
342.636546
 21
112.0
 31
0.0
  1
DN40
 13
322.636546
 23
148.589285
 33
0.0
 14
362.636546
 24
148.589285
 34
0.0
  3
LC-DIM-L-0090-02-02
  0
INSERT
  8
0
  5
1C1
  2
*X9
 10
360.136546
 20
146.089285
 30
0.0
  0
INSERT
  8
0
  5
1C2
  2
*X10
 10
246.158221
 20
261.20959
 30
0.0
  0
INSERT
  8
0
  5
1C3
  2
*X11
 10
261.613233
 20
257.068475
 30
0.0
  0
INSERT
  8
0
  5
1C4
  2
*X12
 10
286.482794
 20
314.006627
 30
0.0
  0
INSERT
  8
0
  5
1C5
  2
*X13
 10
278.876526
 20
278.831404
 30
0.0
  0
INSERT
  8
0
  5
1C6
  2
*X14
 10
289.634742
 20
282.374645
 30
0.0
  0
INSERT
  8
0
  5
1C7
  2
*X15
 10
283.164251
 20
280.327591
 30
0.0
  0
INSERT
  8
0
  5
1C9
  2
BLK1
 10
0.0
 20
0.0
 30
0.0
  0
INSERT
  8
0
  5
1CA
  2
*X17
 10
387.956602
 20
259.333935
 30
0.0
  0
INSERT
  8
0
  5
1CB
  2
*X18
 10
394.621209
 20
255.19282
 30
0.0
  0
INSERT
  8
0
  5
1CC
  2
*X19
 10
372.721286
 20
312.130971
 30
0.0
  0
INSERT
  8
0
  5
1CD
  2
*X20
 10
382.166454
 20
276.955748
 30
0.0
  0
INSERT
  8
0
  5
1CE
  2
BLK2
 10
0.0
 20
0.0
 30
0.0
  0
LINE
  8
LC-001-002-----0
  5
1D1
 10
342.636546
 20
327.872247
 30
0.0
 11
342.636546
 21
146.089285
 31
0.0
  0
LINE
  8
LC-001-002-----0
  6
CONTINUOUS
 62
     1
  5
1D2
 10
362.636546
 20
276.43432
 30
0.0
 11
362.636546
 21
148.589285
 31
0.0
  0
LINE
  8
LC-001-002-----0
  6
CONTINUOUS
 62
     1
  5
1D3
 10
322.636546
 20
276.43432
 30
0.0
 11
322.636546
 21
148.589285
 31
0.0
  0
LINE
  8
LC-001-002-----0
  6
CONTINUOUS
 62
     1
  5
1D4
 10
360.136546
 20
304.301038
 30
0.0
 11
360.136546
 21
303.716907
 31
0.0
  0
LINE
  8
LC-001-002-----0
  6
CONTINUOUS
 62
     1
  5
1D5
 10
325.136546
 20
304.301038
 30
0.0
 11
325.136546
 21
303.716907
 31
0.0
  0
LINE
  8
LC-001-002-----0
  6
CONTINUOUS
 62
     1
  5
1D6
 10
325.136546
 20
146.089285
 30
0.0
 11
360.136546
 21
146.089285
 31
0.0
  0
LINE
  8
LC-001-002-----0
  6
CONTINUOUS
 62
     1
  5
1D7
 10
325.136546
 20
146.089285
 30
0.0
 11
322.636546
 21
148.589285
 31
0.0
  0
LINE
  8
LC-001-002-----0
  6
CONTINUOUS
 62
     1
  5
1D8
 10
360.136546
 20
146.089285
 30
0.0
 11
362.636546
 21
148.589285
 31
0.0
  0
LINE
  8
LC-001-002-----0
  6
CONTINUOUS
 62
     1
  5
1D9
 10
360.136546
 20
304.301038
 30
0.0
 11
362.091899
 21
307.517989
 31
0.0
  0
LINE
  8
LC-001-002-----0
  6
CONTINUOUS
 62
     1
  5
1DA
 10
320.636546
 20
313.084
 30
0.0
 11
320.636546
 21
308.028511
 31
0.0
  0
LINE
  8
LC-001-002-----0
  6
CONTINUOUS
 62
     1
  5
1DB
 10
323.136546
 20
315.584
 30
0.0
 11
323.136546
 21
307.560245
 31
0.0
  0
LINE
  8
LC-001-002-----0
  6
CONTINUOUS
 62
     1
  5
1DC
 10
321.136546
 20
315.584
 30
0.0
 11
364.136546
 21
315.584
 31
0.0
  0
LINE
  8
LC-001-002-----0
  6
CONTINUOUS
 62
     1
  5
1DD
 10
325.136546
 20
304.301038
 30
0.0
 11
323.181194
 21
307.517989
 31
0.0
  0
LINE
  8
LC-001-002-----0
  6
CONTINUOUS
 62
     1
  5
1DE
 10
362.136546
 20
315.584
 30
0.0
 11
362.136546
 21
307.560245
 31
0.0
  0
LINE
  8
LC-001-002-----0
  6
CONTINUOUS
 62
     1
  5
1DF
 10
364.636546
 20
313.084
 30
0.0
 11
364.636546
 21
308.028511
 31
0.0
  0
ARC
  8
LC-001-002-----0
  6
CONTINUOUS
 62
     1
  5
1E0
 10
377.201814
 20
290.775953
 30
0.0
 40
21.417088
 50
142.505331
 51
217.173814
  0
LINE
  8
LC-001-002-----0
  6
CONTINUOUS
 62
     1
  5
1E1
 10
323.181194
 20
307.517989
 30
0.0
 11
362.136546
 21
307.517989
 31
0.0
  0
LINE
  8
LC-001-002-----0
  6
CONTINUOUS
 62
     1
  5
1E2
 10
325.136546
 20
277.834998
 30
0.0
 11
325.136546
 21
146.089285
 31
0.0
  0
LINE
  8
LC-001-002-----0
  6
CONTINUOUS
 62
     1
  5
1E3
 10
325.136546
 20
304.301038
 30
0.0
 11
360.136546
 21
304.301038
 31
0.0
  0
LINE
  8
LC-001-002-----0
  6
CONTINUOUS
 62
     1
  5
1E4
 10
365.636546
 20
314.084
 30
0.0
 11
365.636546
 21
313.084
 31
0.0
  0
LINE
  8
LC-001-002-----0
  6
CONTINUOUS
 62
     1
  5
1E5
 10
319.636546
 20
314.084
 30
0.0
 11
319.636546
 21
313.084
 31
0.0
  0
LINE
  8
LC-001-002-----0
  6
CONTINUOUS
 62
     1
  5
1E6
 10
319.636546
 20
313.084
 30
0.0
 11
320.636546
 21
313.084
 31
0.0
  0
LINE
  8
LC-001-002-----0
  6
CONTINUOUS
 62
     1
  5
1E7
 10
364.636546
 20
313.084
 30
0.0
 11
365.636546
 21
313.084
 31
0.0
  0
ARC
  8
LC-002-002-RND-0
  6
CONTINUOUS
  5
1E9
 10
321.136546
 20
314.084
 30
0.0
 40
1.5
 50
90.0
 51
180.0
  0
ARC
  8
LC-002-002-RND-0
  6
CONTINUOUS
  5
1EA
 10
364.136546
 20
314.084
 30
0.0
 40
1.5
 50
0.0
 51
90.0
  0
LINE
  8
LC-001-002-----0
  6
CONTINUOUS
 62
     1
  5
1EB
 10
368.636546
 20
326.372247
 30
0.0
 11
368.636546
 21
312.372247
 31
0.0
  0
LINE
  8
LC-001-002-----0
  6
CONTINUOUS
 62
     1
  5
1EC
 10
316.636546
 20
326.372247
 30
0.0
 11
316.636546
 21
312.372247
 31
0.0
  0
LINE
  8
LC-001-002-----0
  6
CONTINUOUS
 62
     1
  5
1ED
 10
318.636546
 20
310.372247
 30
0.0
 11
318.85223
 21
310.372247
 31
0.0
  0
LINE
  8
LC-001-002-----0
  6
CONTINUOUS
 62
     1
  5
1EE
 10
315.136546
 20
327.872247
 30
0.0
 11
370.136546
 21
327.872247
 31
0.0
  0
LINE
  8
LC-001-002-----0
  6
CONTINUOUS
 62
     1
  5
1EF
 10
315.136546
 20
326.372247
 30
0.0
 11
316.636546
 21
326.372247
 31
0.0
  0
LINE
  8
LC-001-002-----0
  6
CONTINUOUS
 62
     1
  5
1F0
 10
370.136546
 20
327.872247
 30
0.0
 11
370.136546
 21
326.372247
 31
0.0
  0
LINE
  8
LC-001-002-----0
  6
CONTINUOUS
 62
     1
  5
1F1
 10
315.136546
 20
327.872247
 30
0.0
 11
315.136546
 21
326.372247
 31
0.0
  0
LINE
  8
LC-001-002-----0
  6
CONTINUOUS
 62
     1
  5
1F2
 10
368.636546
 20
326.372247
 30
0.0
 11
370.136546
 21
326.372247
 31
0.0
  0
LINE
  8
LC-001-002-----0
  6
CONTINUOUS
 62
     1
  5
1F3
 10
360.136546
 20
277.834998
 30
0.0
 11
360.136546
 21
146.089285
 31
0.0
  0
LINE
  8
LC-001-002-----0
  6
CONTINUOUS
 62
     1
  5
1F4
 10
319.636546
 20
326.622247
 30
0.0
 11
319.636546
 21
313.372247
 31
0.0
  0
LINE
  8
LC-001-002-----0
  6
CONTINUOUS
 62
     1
  5
1F5
 10
318.386546
 20
327.872247
 30
0.0
 11
318.386546
 21
312.122247
 31
0.0
  0
LINE
  8
LC-001-002-----0
  6
CONTINUOUS
 62
     1
  5
1F6
 10
318.386546
 20
312.122247
 30
0.0
 11
320.35223
 21
312.122247
 31
0.0
  0
LINE
  8
LC-001-002-----0
  6
CONTINUOUS
 62
     1
  5
1F7
 10
320.35223
 20
311.872247
 30
0.0
 11
320.35223
 21
312.122247
 31
0.0
  0
ARC
  8
LC-002-002-RND-0
  6
CONTINUOUS
  5
1F8
 10
318.636546
 20
312.372247
 30
0.0
 40
2.0
 50
180.0
 51
270.0
  0
ARC
  8
LC-002-002-RND-0
  6
CONTINUOUS
  5
1F9
 10
318.85223
 20
311.872247
 30
0.0
 40
1.5
 50
270.0
 51
0.0
  0
LINE
  8
LC-001-002-----0
  6
CONTINUOUS
 62
     1
  5
1FA
 10
318.386546
 20
327.872247
 30
0.0
 11
319.636546
 21
326.622247
 31
0.0
  0
LINE
  8
LC-001-002-----0
  6
CONTINUOUS
 62
     1
  5
1FB
 10
318.386546
 20
312.122247
 30
0.0
 11
319.636546
 21
313.372247
 31
0.0
  0
LINE
  8
LC-001-002-----0
  6
CONTINUOUS
 62
     1
  5
1FC
 10
319.636546
 20
326.622247
 30
0.0
 11
342.636546
 21
326.622247
 31
0.0
  0
LINE
  8
LC-001-002-----0
  6
CONTINUOUS
 62
     1
  5
1FD
 10
320.136546
 20
316.084
 30
0.0
 11
342.636546
 21
316.084
 31
0.0
  0
LINE
  8
LC-001-002-----0
  6
CONTINUOUS
 62
     1
  5
1FE
 10
320.136546
 20
318.084
 30
0.0
 11
342.636546
 21
318.084
 31
0.0
  0
LINE
  8
LC-001-002-----0
  6
CONTINUOUS
 62
     1
  5
1FF
 10
320.136546
 20
318.084
 30
0.0
 11
320.136546
 21
316.084
 31
0.0
  0
LINE
  8
LC-001-002-----0
  6
CONTINUOUS
 62
     1
  5
200
 10
324.136546
 20
318.084
 30
0.0
 11
324.136546
 21
316.084
 31
0.0
  0
LINE
  8
LC-001-002-----0
  6
CONTINUOUS
 62
     1
  5
201
 10
365.136546
 20
318.084
 30
0.0
 11
342.636546
 21
318.084
 31
0.0
  0
LINE
  8
LC-001-002-----0
  6
CONTINUOUS
 62
     1
  5
202
 10
365.136546
 20
316.084
 30
0.0
 11
342.636546
 21
316.084
 31
0.0
  0
LINE
  8
LC-001-002-----0
  6
CONTINUOUS
 62
     1
  5
203
 10
361.136546
 20
318.084
 30
0.0
 11
361.136546
 21
316.084
 31
0.0
  0
LINE
  8
LC-001-002-----0
  6
CONTINUOUS
 62
     1
  5
204
 10
365.136546
 20
318.084
 30
0.0
 11
365.136546
 21
316.084
 31
0.0
  0
ARC
  8
LC-002-002-RND-0
  6
CONTINUOUS
  5
205
 10
366.636546
 20
312.372247
 30
0.0
 40
2.0
 50
270.0
 51
0.0
  0
ARC
  8
LC-002-002-RND-0
  6
CONTINUOUS
  5
206
 10
366.420863
 20
311.872247
 30
0.0
 40
1.5
 50
180.0
 51
270.0
  0
LINE
  8
LC-001-002-----0
  6
CONTINUOUS
 62
     1
  5
207
 10
366.886546
 20
312.122247
 30
0.0
 11
364.920863
 21
312.122247
 31
0.0
  0
LINE
  8
LC-001-002-----0
  6
CONTINUOUS
 62
     1
  5
208
 10
366.886546
 20
327.872247
 30
0.0
 11
366.886546
 21
312.122247
 31
0.0
  0
LINE
  8
LC-001-002-----0
  6
CONTINUOUS
 62
     1
  5
209
 10
366.886546
 20
312.122247
 30
0.0
 11
365.636546
 21
313.372247
 31
0.0
  0
LINE
  8
LC-001-002-----0
  6
CONTINUOUS
 62
     1
  5
20A
 10
365.636546
 20
326.622247
 30
0.0
 11
365.636546
 21
313.372247
 31
0.0
  0
LINE
  8
LC-001-002-----0
  6
CONTINUOUS
 62
     1
  5
20B
 10
366.886546
 20
327.872247
 30
0.0
 11
365.636546
 21
326.622247
 31
0.0
  0
LINE
  8
LC-001-002-----0
  6
CONTINUOUS
 62
     1
  5
20C
 10
365.636546
 20
326.622247
 30
0.0
 11
342.636546
 21
326.622247
 31
0.0
  0
LINE
  8
LC-001-002-----0
  6
CONTINUOUS
 62
     1
  5
20D
 10
364.920863
 20
311.872247
 30
0.0
 11
364.920863
 21
312.122247
 31
0.0
  0
LINE
  8
LC-001-002-----0
  6
CONTINUOUS
 62
     1
  5
20E
 10
366.420863
 20
310.372247
 30
0.0
 11
366.636546
 21
310.372247
 31
0.0
  0
LINE
  8
LC-001-002-----0
  6
CONTINUOUS
 62
     1
  5
20F
 10
292.636549
 20
317.084022
 30
0.0
 11
291.73068
 21
313.703282
 31
0.0
  0
LINE
  8
LC-001-002-----0
  6
CONTINUOUS
 62
     1
  5
210
 10
308.09136
 20
312.942907
 30
0.0
 11
307.70313
 21
311.494018
 31
0.0
  0
LINE
  8
LC-001-002-----0
  6
CONTINUOUS
 62
     1
  5
211
 10
299.55031
 20
281.06736
 30
0.0
 11
284.0955
 21
285.208475
 31
0.0
  0
LINE
  8
LC-001-002-----0
  6
CONTINUOUS
 62
     1
  5
212
 10
307.70313
 20
311.494018
 30
0.0
 11
320.636546
 21
308.028511
 31
0.0
  0
LINE
  8
LC-001-002-----0
  6
CONTINUOUS
 62
     1
  5
213
 10
299.93854
 20
282.516249
 30
0.0
 11
322.636546
 21
276.43432
 31
0.0
  0
LINE
  8
LC-007-001-----0
  6
CONTINUOUS
  5
215
 10
291.73068
 20
313.703282
 30
0.0
 11
293.662531
 21
313.185642
 31
0.0
  0
LINE
  8
LC-007-001-----0
  6
CONTINUOUS
  5
216
 10
285.001369
 20
288.589215
 30
0.0
 11
325.136546
 21
277.834998
 31
0.0
  0
LINE
  8
LC-001-002-----0
  6
CONTINUOUS
 62
     1
  5
217
 10
299.93854
 20
282.516249
 30
0.0
 11
299.55031
 21
281.06736
 31
0.0
  0
LINE
  8
LC-007-001-----0
  6
CONTINUOUS
  5
218
 10
293.403712
 20
312.219717
 30
0.0
 11
325.136546
 21
303.716907
 31
0.0
  0
LINE
  8
LC-001-002-----0
  6
CONTINUOUS
 62
     1
  5
219
 10
291.635947
 20
315.28158
 30
0.0
 11
290.670021
 21
315.5404
 31
0.0
  0
LINE
  8
LC-001-002-----0
  6
CONTINUOUS
 62
     1
  5
21A
 10
290.670021
 20
315.5404
 30
0.0
 11
289.634742
 21
311.676697
 31
0.0
  0
LINE
  8
LC-001-002-----0
  6
CONTINUOUS
 62
     1
  5
21B
 10
283.164251
 20
287.528556
 30
0.0
 11
284.130176
 21
287.269736
 31
0.0
  0
LINE
  8
LC-001-002-----0
  6
CONTINUOUS
 62
     1
  5
21C
 10
284.130176
 20
287.269736
 30
0.0
 11
284.647816
 21
289.201587
 31
0.0
  0
LINE
  8
LC-001-002-----0
  6
CONTINUOUS
 62
     1
  5
21D
 10
284.647816
 20
289.201587
 30
0.0
 11
317.765934
 21
280.327591
 31
0.0
  0
LINE
  8
LC-001-002-----0
  6
CONTINUOUS
 62
     1
  5
21E
 10
293.662531
 20
313.185642
 30
0.0
 11
293.403712
 21
312.219717
 31
0.0
  0
LINE
  8
LC-001-002-----0
  6
CONTINUOUS
 62
     1
  5
21F
 10
285.001369
 20
288.589215
 30
0.0
 11
284.0955
 21
285.208475
 31
0.0
  0
LINE
  8
LC-001-002-----0
  6
CONTINUOUS
 62
     1
  5
220
 10
283.94071
 20
290.426333
 30
0.0
 11
318.024754
 21
281.293517
 31
0.0
  0
LINE
  8
LC-001-002-----0
  6
CONTINUOUS
 62
     1
  5
221
 10
290.859488
 20
312.383803
 30
0.0
 11
291.635947
 21
315.28158
 31
0.0
  0
LINE
  8
LC-007-001-----0
  6
CONTINUOUS
  5
222
 10
336.556804
 20
289.786448
 30
0.0
 11
335.780345
 21
286.888671
 31
0.0
  0
ARC
  8
LC-007-001-----0
  6
CONTINUOUS
  5
223
 10
326.897548
 20
292.374645
 30
0.0
 40
10.0
 50
344.999963
 51
74.999888
  0
LINE
  8
LC-001-002-----0
  6
CONTINUOUS
 62
     1
  5
224
 10
290.859488
 20
312.383803
 30
0.0
 11
329.485745
 21
302.033902
 31
0.0
  0
LINE
  8
LC-001-002-----0
  6
CONTINUOUS
 62
     1
  5
225
 10
289.634742
 20
311.676697
 30
0.0
 11
329.226925
 21
301.067976
 31
0.0
  0
ARC
  8
LC-001-002-----0
  6
CONTINUOUS
 62
     1
  5
226
 10
326.897548
 20
292.374645
 30
0.0
 40
9.0
 50
345.000096
 51
74.999963
  0
LINE
  8
LC-007-001-----0
  6
CONTINUOUS
  5
227
 10
335.590879
 20
290.045268
 30
0.0
 11
334.764971
 21
286.962948
 31
0.0
  0
LINE
  8
LC-007-001-----0
  6
CONTINUOUS
  5
228
 10
317.765934
 20
280.327591
 30
0.0
 11
319.836492
 21
288.054996
 31
0.0
  0
LINE
  8
LC-001-002-----0
  6
CONTINUOUS
 62
     1
  5
229
 10
335.780345
 20
286.888671
 30
0.0
 11
334.764971
 21
286.962948
 31
0.0
  0
LINE
  8
LC-001-002-----0
  6
CONTINUOUS
 62
     1
  5
22A
 10
290.316468
 20
316.152772
 30
0.0
 11
288.86758
 21
316.541002
 31
0.0
  0
LINE
  8
LC-001-002-----0
  6
CONTINUOUS
 62
     1
  5
22B
 10
281.102989
 20
287.563232
 30
0.0
 11
282.551878
 21
287.175003
 31
0.0
  0
LINE
  8
LC-001-002-----0
  6
CONTINUOUS
 62
     1
  5
22C
 10
288.86758
 20
316.541002
 30
0.0
 11
288.285235
 21
314.367669
 31
0.0
  0
LINE
  8
LC-001-002-----0
  6
CONTINUOUS
 62
     1
  5
22D
 10
281.685334
 20
289.736565
 30
0.0
 11
273.474966
 21
291.936532
 31
0.0
  0
LINE
  8
LC-001-002-----0
  6
CONTINUOUS
 62
     1
  5
22E
 10
283.651861
 20
291.280187
 30
0.0
 11
271.577791
 21
294.515433
 31
0.0
  0
LINE
  8
LC-001-002-----0
  6
CONTINUOUS
 62
     1
  5
22F
 10
281.685334
 20
289.736565
 30
0.0
 11
281.102989
 21
287.563232
 31
0.0
  0
LINE
  8
LC-001-002-----0
  6
CONTINUOUS
 62
     1
  5
230
 10
273.474966
 20
291.936532
 30
0.0
 11
273.086736
 21
290.487644
 31
0.0
  0
LINE
  8
LC-007-001-----0
  6
CONTINUOUS
  5
231
 10
271.577791
 20
294.515433
 30
0.0
 11
261.613233
 21
257.327295
 31
0.0
  0
LINE
  8
LC-001-002-----0
  6
CONTINUOUS
 62
     1
  5
232
 10
256.874059
 20
307.255145
 30
0.0
 11
253.768223
 21
295.664037
 31
0.0
  0
ARC
  8
LC-001-002-----0
  6
CONTINUOUS
 62
     1
  5
233
 10
271.362944
 20
303.37285
 30
0.0
 40
15.0
 50
74.999963
 51
164.999963
  0
LINE
  8
LC-001-002-----0
  6
CONTINUOUS
 62
     1
  5
234
 10
288.285235
 20
314.367669
 30
0.0
 11
275.245239
 21
317.861735
 31
0.0
  0
LINE
  8
LC-007-001-----0
  6
CONTINUOUS
  5
235
 10
259.418283
 20
307.091059
 30
0.0
 11
247.124348
 21
261.20959
 31
0.0
  0
ARC
  8
LC-007-001-----0
  6
CONTINUOUS
  5
236
 10
271.492354
 20
303.855813
 30
0.0
 40
12.5
 50
74.999963
 51
164.999963
  0
LINE
  8
LC-001-002-----0
  6
CONTINUOUS
 62
     1
  5
237
 10
289.216485
 20
312.047588
 30
0.0
 11
274.7276
 21
315.929884
 31
0.0
  0
LINE
  8
LC-007-001-----0
  6
DASHDOT
 62
     2
  5
238
 10
335.202649
 20
288.59638
 30
0.0
 11
269.530474
 21
306.193232
 31
0.0
  0
ARC
  8
LC-007-001-----0
  6
DASHDOT
 62
     2
  5
239
 10
268.883425
 20
303.778418
 30
0.0
 40
2.5
 50
74.999963
 51
164.999944
  0
LINE
  8
LC-001-002-----0
  5
23A
 10
266.468611
 20
304.425467
 30
0.0
 11
254.174676
 21
258.543998
 31
0.0
  0
LINE
  8
LC-001-002-----0
  6
CONTINUOUS
 62
     1
  5
23B
 10
273.086736
 20
290.487644
 30
0.0
 11
274.535625
 21
290.099414
 31
0.0
  0
LINE
  8
LC-001-002-----0
  6
CONTINUOUS
 62
     1
  5
23C
 10
253.768223
 20
295.664037
 30
0.0
 11
252.319334
 21
296.052267
 31
0.0
  0
LINE
  8
LC-001-002-----0
  6
CONTINUOUS
 62
     1
  5
23D
 10
250.99056
 20
289.161377
 30
0.0
 11
251.956229
 21
288.902626
 31
0.0
  0
LINE
  8
LC-001-002-----0
  6
CONTINUOUS
 62
     1
  5
23E
 10
249.661785
 20
282.270488
 30
0.0
 11
250.279481
 21
282.104976
 31
0.0
  0
LINE
  8
LC-001-002-----0
  6
CONTINUOUS
 62
     1
  5
23F
 10
248.33301
 20
275.379598
 30
0.0
 11
249.173402
 21
275.154415
 31
0.0
  0
LINE
  8
LC-001-002-----0
  6
CONTINUOUS
 62
     1
  5
240
 10
247.004235
 20
268.488709
 30
0.0
 11
247.393818
 21
268.38432
 31
0.0
  0
LINE
  8
LC-001-002-----0
  6
CONTINUOUS
 62
     1
  5
241
 10
246.158423
 20
261.46841
 30
0.0
 11
262.579159
 21
257.068475
 31
0.0
  0
LINE
  8
LC-001-002-----0
  6
CONTINUOUS
 62
     1
  5
242
 10
274.535625
 20
290.099414
 30
0.0
 11
271.274998
 21
283.726164
 31
0.0
  0
LINE
  8
LC-001-002-----0
  6
CONTINUOUS
 62
     1
  5
243
 10
272.240924
 20
283.467344
 30
0.0
 11
269.328275
 21
277.000854
 31
0.0
  0
LINE
  8
LC-001-002-----0
  6
CONTINUOUS
 62
     1
  5
244
 10
269.946223
 20
276.835275
 30
0.0
 11
266.810883
 21
270.428454
 31
0.0
  0
LINE
  8
LC-001-002-----0
  6
CONTINUOUS
 62
     1
  5
245
 10
267.651523
 20
270.203205
 30
0.0
 11
264.96703
 21
263.67558
 31
0.0
  0
LINE
  8
LC-001-002-----0
  6
CONTINUOUS
 62
     1
  5
246
 10
265.356822
 20
263.571135
 30
0.0
 11
262.579159
 21
257.068475
 31
0.0
  0
LINE
  8
LC-001-002-----0
  6
CONTINUOUS
 62
     1
  5
247
 10
252.319142
 20
296.052592
 30
0.0
 11
251.956298
 21
288.902882
 31
0.0
  0
LINE
  8
LC-001-002-----0
  6
CONTINUOUS
 62
     1
  5
248
 10
250.990372
 20
289.161701
 30
0.0
 11
250.27955
 21
282.105232
 31
0.0
  0
LINE
  8
LC-001-002-----0
  6
CONTINUOUS
 62
     1
  5
249
 10
249.661601
 20
282.270811
 30
0.0
 11
249.173471
 21
275.154672
 31
0.0
  0
LINE
  8
LC-001-002-----0
  6
CONTINUOUS
 62
     1
  5
24A
 10
248.332831
 20
275.379921
 30
0.0
 11
247.393853
 21
268.384586
 31
0.0
  0
LINE
  8
LC-001-002-----0
  6
CONTINUOUS
 62
     1
  5
24B
 10
247.004061
 20
268.48903
 30
0.0
 11
246.158253
 21
261.468731
 31
0.0
  0
LINE
  8
LC-001-002-----0
  6
CONTINUOUS
 62
     1
  5
24C
 10
271.274998
 20
283.726164
 30
0.0
 11
272.240924
 21
283.467344
 31
0.0
  0
LINE
  8
LC-001-002-----0
  6
CONTINUOUS
 62
     1
  5
24D
 10
269.328275
 20
277.000854
 30
0.0
 11
269.946223
 21
276.835275
 31
0.0
  0
LINE
  8
LC-001-002-----0
  6
CONTINUOUS
 62
     1
  5
24E
 10
266.810883
 20
270.428454
 30
0.0
 11
267.651523
 21
270.203205
 31
0.0
  0
LINE
  8
LC-001-002-----0
  6
CONTINUOUS
 62
     1
  5
24F
 10
264.96703
 20
263.67558
 30
0.0
 11
265.356822
 21
263.571135
 31
0.0
  0
LINE
  8
LC-001-002-----0
  6
CONTINUOUS
  5
250
 10
271.577791
 20
294.515433
 30
0.0
 11
267.82742
 21
305.657072
 31
0.0
  0
LINE
  8
LC-001-002-----0
  6
CONTINUOUS
 62
     1
  5
251
 10
304.327038
 20
316.280928
 30
0.0
 11
304.585858
 21
317.246854
 31
0.0
  0
LINE
  8
LC-001-002-----0
  6
CONTINUOUS
 62
     1
  5
252
 10
304.585858
 20
317.246854
 30
0.0
 11
305.551784
 21
316.988034
 31
0.0
  0
LINE
  8
LC-001-002-----0
  6
CONTINUOUS
 62
     1
  5
253
 10
305.551784
 20
316.988034
 30
0.0
 11
304.775325
 21
314.090257
 31
0.0
  0
LINE
  8
LC-001-002-----0
  6
CONTINUOUS
 62
     1
  5
254
 10
304.775325
 20
314.090257
 30
0.0
 11
303.809399
 21
314.349077
 31
0.0
  0
ARC
  8
LC-001-002-----0
  6
CONTINUOUS
 62
     1
  5
255
 10
290.02762
 20
317.006627
 30
0.0
 40
3.0
 50
74.999963
 51
164.999963
  0
LINE
  8
LC-001-002-----0
  6
CONTINUOUS
 62
     1
  5
256
 10
290.804079
 20
319.904403
 30
0.0
 11
304.327038
 21
316.280928
 31
0.0
  0
LINE
  8
LC-001-002-----0
  6
CONTINUOUS
 62
     1
  5
257
 10
287.931682
 20
314.980042
 30
0.0
 11
288.578732
 21
317.394856
 31
0.0
  0
ARC
  8
LC-001-002-----0
  6
CONTINUOUS
 62
     1
  5
258
 10
289.544657
 20
317.136036
 30
0.0
 40
1.0
 50
74.999963
 51
164.999963
  0
LINE
  8
LC-001-002-----0
  6
CONTINUOUS
 62
     1
  5
259
 10
289.803477
 20
318.101962
 30
0.0
 11
303.809399
 21
314.349077
 31
0.0
  0
LINE
  8
LC-001-002-----0
  6
CONTINUOUS
 62
     1
  5
25A
 10
281.100082
 20
283.679549
 30
0.0
 11
294.62306
 21
280.056145
 31
0.0
  0
LINE
  8
LC-001-002-----0
  6
CONTINUOUS
 62
     1
  5
25B
 10
294.62306
 20
280.056145
 30
0.0
 11
294.364246
 21
279.090218
 31
0.0
  0
LINE
  8
LC-001-002-----0
  6
CONTINUOUS
 62
     1
  5
25C
 10
294.364246
 20
279.090218
 30
0.0
 11
295.330173
 21
278.831404
 31
0.0
  0
LINE
  8
LC-001-002-----0
  6
CONTINUOUS
 62
     1
  5
25D
 10
295.330173
 20
278.831404
 30
0.0
 11
296.106616
 21
281.729185
 31
0.0
  0
LINE
  8
LC-001-002-----0
  6
CONTINUOUS
 62
     1
  5
25E
 10
281.134747
 20
285.74081
 30
0.0
 11
295.140689
 21
281.987999
 31
0.0
  0
LINE
  8
LC-001-002-----0
  6
CONTINUOUS
 62
     1
  5
25F
 10
296.106616
 20
281.729185
 30
0.0
 11
295.140689
 21
281.987999
 31
0.0
  0
ARC
  8
LC-001-002-----0
  6
CONTINUOUS
 62
     1
  5
260
 10
281.876526
 20
286.57733
 30
0.0
 40
3.0
 50
165.000267
 51
255.000229
  0
LINE
  8
LC-001-002-----0
  6
CONTINUOUS
 62
     1
  5
261
 10
281.074671
 20
289.38037
 30
0.0
 11
280.427635
 21
286.965552
 31
0.0
  0
ARC
  8
LC-001-002-----0
  6
CONTINUOUS
 62
     1
  5
262
 10
281.393562
 20
286.706737
 30
0.0
 40
1.0
 50
165.000267
 51
255.000229
  0
LINE
  8
LC-001-002-----0
  6
CONTINUOUS
 62
     1
  5
263
 10
308.09136
 20
312.942907
 30
0.0
 11
292.636549
 21
317.084022
 31
0.0
  0
LINE
  8
LC-001-002-----0
  6
CONTINUOUS
 62
     1
  5
264
 10
290.316468
 20
316.152772
 30
0.0
 11
282.551878
 21
287.175003
 31
0.0
  0
LINE
  8
LC-001-002-----0
  6
CONTINUOUS
 62
     1
  5
265
 10
334.764971
 20
286.962948
 30
0.0
 11
319.836492
 21
288.054996
 31
0.0
  0
LINE
  8
LC-001-002-----0
  6
CONTINUOUS
 62
     1
  5
266
 10
289.634742
 20
311.676697
 30
0.0
 11
283.94071
 21
290.426333
 31
0.0
  0
LINE
  8
LC-001-002-----0
  6
CONTINUOUS
 62
     1
  5
267
 10
283.94071
 20
290.426333
 30
0.0
 11
283.164251
 21
287.528556
 31
0.0
  0
LINE
  8
LC-001-002-----0
  6
CONTINUOUS
 62
     1
  5
268
 10
286.871023
 20
316.81716
 30
0.0
 11
287.129843
 21
317.783086
 31
0.0
  0
ARC
  8
LC-001-002-----0
  6
CONTINUOUS
 62
     1
  5
269
 10
288.319912
 20
316.42893
 30
0.0
 40
1.5
 50
164.999963
 51
254.999811
  0
LINE
  8
LC-001-002-----0
  6
CONTINUOUS
 62
     1
  5
26A
 10
287.931682
 20
314.980042
 30
0.0
 11
287.931682
 21
314.980042
 31
0.0
  0
LINE
  8
LC-001-002-----0
  6
CONTINUOUS
 62
     1
  5
26B
 10
279.237559
 20
288.319701
 30
0.0
 11
278.978744
 21
287.353774
 31
0.0
  0
ARC
  8
LC-001-002-----0
  6
CONTINUOUS
 62
     1
  5
26C
 10
280.68645
 20
287.931479
 30
0.0
 40
1.5
 50
75.000267
 51
165.000267
  0
LINE
  8
LC-001-002-----0
  6
CONTINUOUS
 62
     1
  5
26D
 10
281.074671
 20
289.38037
 30
0.0
 11
281.074671
 21
289.38037
 31
0.0
  0
LINE
  8
LC-001-002-----0
  6
CONTINUOUS
 62
     1
  5
26E
 10
385.636521
 20
315.208366
 30
0.0
 11
393.271701
 21
286.713559
 31
0.0
  0
LINE
  8
LC-001-002-----0
  6
CONTINUOUS
 62
     1
  5
26F
 10
370.181711
 20
311.067251
 30
0.0
 11
370.56994
 21
309.618363
 31
0.0
  0
LINE
  8
LC-001-002-----0
  6
CONTINUOUS
 62
     1
  5
270
 10
378.72276
 20
279.191705
 30
0.0
 11
394.17757
 21
283.33282
 31
0.0
  0
LINE
  8
LC-001-002-----0
  6
CONTINUOUS
 62
     1
  5
271
 10
370.56994
 20
309.618363
 30
0.0
 11
364.636546
 21
308.028511
 31
0.0
  0
LINE
  8
LC-001-002-----0
  6
CONTINUOUS
 62
     1
  5
272
 10
378.33453
 20
280.640593
 30
0.0
 11
362.636546
 21
276.43432
 31
0.0
  0
LINE
  8
LC-007-001-----0
  6
CONTINUOUS
  5
273
 10
393.271701
 20
286.713559
 30
0.0
 11
360.136546
 21
277.834998
 31
0.0
  0
LINE
  8
LC-001-002-----0
  6
CONTINUOUS
 62
     1
  5
274
 10
378.33453
 20
280.640593
 30
0.0
 11
378.72276
 21
279.191705
 31
0.0
  0
LINE
  8
LC-007-001-----0
  6
CONTINUOUS
  5
275
 10
386.80121
 20
310.861701
 30
0.0
 11
360.282579
 21
303.756037
 31
0.0
  0
LINE
  8
LC-001-002-----0
  6
CONTINUOUS
 62
     1
  5
276
 10
393.271701
 20
286.713559
 30
0.0
 11
394.17757
 21
283.33282
 31
0.0
  0
LINE
  8
LC-001-002-----0
  6
CONTINUOUS
 62
     1
  5
277
 10
387.956602
 20
314.277117
 30
0.0
 11
389.40549
 21
314.665347
 31
0.0
  0
LINE
  8
LC-001-002-----0
  6
CONTINUOUS
 62
     1
  5
278
 10
397.170081
 20
285.687577
 30
0.0
 11
395.721192
 21
285.299347
 31
0.0
  0
LINE
  8
LC-001-002-----0
  6
CONTINUOUS
 62
     1
  5
279
 10
389.40549
 20
314.665347
 30
0.0
 11
389.987835
 21
312.492014
 31
0.0
  0
LINE
  8
LC-001-002-----0
  6
CONTINUOUS
 62
     1
  5
27A
 10
396.587736
 20
287.86091
 30
0.0
 11
404.798104
 21
290.060877
 31
0.0
  0
LINE
  8
LC-001-002-----0
  6
CONTINUOUS
 62
     1
  5
27B
 10
394.621209
 20
289.404531
 30
0.0
 11
406.695279
 21
292.639777
 31
0.0
  0
LINE
  8
LC-001-002-----0
  6
CONTINUOUS
 62
     1
  5
27C
 10
396.587736
 20
287.86091
 30
0.0
 11
397.170081
 21
285.687577
 31
0.0
  0
LINE
  8
LC-001-002-----0
  6
CONTINUOUS
 62
     1
  5
27D
 10
404.798104
 20
290.060877
 30
0.0
 11
405.186334
 21
288.611988
 31
0.0
  0
LINE
  8
LC-007-001-----0
  6
CONTINUOUS
  5
27E
 10
406.695279
 20
292.639777
 30
0.0
 11
416.659837
 21
255.45164
 31
0.0
  0
LINE
  8
LC-001-002-----0
  6
CONTINUOUS
 62
     1
  5
27F
 10
421.399011
 20
305.37949
 30
0.0
 11
424.504847
 21
293.788382
 31
0.0
  0
ARC
  8
LC-001-002-----0
  6
CONTINUOUS
 62
     1
  5
280
 10
406.910126
 20
301.497195
 30
0.0
 40
15.0
 50
15.000037
 51
105.000037
  0
LINE
  8
LC-001-002-----0
  6
CONTINUOUS
 62
     1
  5
281
 10
389.987835
 20
312.492014
 30
0.0
 11
403.027831
 21
315.98608
 31
0.0
  0
LINE
  8
LC-007-001-----0
  6
CONTINUOUS
  5
282
 10
418.854787
 20
305.215403
 30
0.0
 11
431.148722
 21
259.333935
 31
0.0
  0
ARC
  8
LC-007-001-----0
  6
CONTINUOUS
  5
283
 10
406.780716
 20
301.980157
 30
0.0
 40
12.5
 50
15.000037
 51
105.000037
  0
LINE
  8
LC-001-002-----0
  6
CONTINUOUS
 62
     1
  5
284
 10
389.056585
 20
310.171933
 30
0.0
 11
403.54547
 21
314.054228
 31
0.0
  0
LINE
  8
LC-007-001-----0
  6
DASHDOT
 62
     2
  5
285
 10
355.794465
 20
290.130131
 30
0.0
 11
408.742596
 21
304.317577
 31
0.0
  0
ARC
  8
LC-007-001-----0
  6
DASHDOT
 62
     2
  5
286
 10
409.389645
 20
301.902762
 30
0.0
 40
2.5
 50
15.000056
 51
105.000037
  0
LINE
  8
LC-001-002-----0
  5
287
 10
411.804459
 20
302.549812
 30
0.0
 11
424.098394
 21
256.668343
 31
0.0
  0
LINE
  8
LC-001-002-----0
  6
CONTINUOUS
 62
     1
  5
288
 10
405.186334
 20
288.611988
 30
0.0
 11
403.737445
 21
288.223759
 31
0.0
  0
LINE
  8
LC-001-002-----0
  6
CONTINUOUS
 62
     1
  5
289
 10
424.504847
 20
293.788382
 30
0.0
 11
425.953736
 21
294.176611
 31
0.0
  0
LINE
  8
LC-001-002-----0
  6
CONTINUOUS
 62
     1
  5
28A
 10
427.282511
 20
287.285722
 30
0.0
 11
426.316841
 21
287.026971
 31
0.0
  0
LINE
  8
LC-001-002-----0
  6
CONTINUOUS
 62
     1
  5
28B
 10
428.611285
 20
280.394833
 30
0.0
 11
427.993589
 21
280.229321
 31
0.0
  0
LINE
  8
LC-001-002-----0
  6
CONTINUOUS
 62
     1
  5
28C
 10
429.94006
 20
273.503943
 30
0.0
 11
429.099668
 21
273.27876
 31
0.0
  0
LINE
  8
LC-001-002-----0
  6
CONTINUOUS
 62
     1
  5
28D
 10
431.268835
 20
266.613054
 30
0.0
 11
430.879252
 21
266.508665
 31
0.0
  0
LINE
  8
LC-001-002-----0
  6
CONTINUOUS
 62
     1
  5
28E
 10
432.114647
 20
259.592754
 30
0.0
 11
415.693911
 21
255.19282
 31
0.0
  0
LINE
  8
LC-001-002-----0
  6
CONTINUOUS
 62
     1
  5
28F
 10
403.737445
 20
288.223759
 30
0.0
 11
406.998072
 21
281.850509
 31
0.0
  0
LINE
  8
LC-001-002-----0
  6
CONTINUOUS
 62
     1
  5
290
 10
406.032146
 20
281.591689
 30
0.0
 11
408.944795
 21
275.125199
 31
0.0
  0
LINE
  8
LC-001-002-----0
  6
CONTINUOUS
 62
     1
  5
291
 10
408.326847
 20
274.959619
 30
0.0
 11
411.462187
 21
268.552799
 31
0.0
  0
LINE
  8
LC-001-002-----0
  6
CONTINUOUS
 62
     1
  5
292
 10
410.621547
 20
268.32755
 30
0.0
 11
413.30604
 21
261.799925
 31
0.0
  0
LINE
  8
LC-001-002-----0
  6
CONTINUOUS
 62
     1
  5
293
 10
412.916248
 20
261.69548
 30
0.0
 11
415.693911
 21
255.19282
 31
0.0
  0
LINE
  8
LC-001-002-----0
  6
CONTINUOUS
 62
     1
  5
294
 10
425.953928
 20
294.176936
 30
0.0
 11
426.316772
 21
287.027227
 31
0.0
  0
LINE
  8
LC-001-002-----0
  6
CONTINUOUS
 62
     1
  5
295
 10
427.282698
 20
287.286046
 30
0.0
 11
427.99352
 21
280.229577
 31
0.0
  0
LINE
  8
LC-001-002-----0
  6
CONTINUOUS
 62
     1
  5
296
 10
428.611469
 20
280.395156
 30
0.0
 11
429.099599
 21
273.279017
 31
0.0
  0
LINE
  8
LC-001-002-----0
  6
CONTINUOUS
 62
     1
  5
297
 10
429.940239
 20
273.504265
 30
0.0
 11
430.879217
 21
266.50893
 31
0.0
  0
LINE
  8
LC-001-002-----0
  6
CONTINUOUS
 62
     1
  5
298
 10
431.269009
 20
266.613375
 30
0.0
 11
432.114817
 21
259.593075
 31
0.0
  0
LINE
  8
LC-001-002-----0
  6
CONTINUOUS
 62
     1
  5
299
 10
406.998072
 20
281.850509
 30
0.0
 11
406.032146
 21
281.591689
 31
0.0
  0
LINE
  8
LC-001-002-----0
  6
CONTINUOUS
 62
     1
  5
29A
 10
408.944795
 20
275.125199
 30
0.0
 11
408.326847
 21
274.959619
 31
0.0
  0
LINE
  8
LC-001-002-----0
  6
CONTINUOUS
 62
     1
  5
29B
 10
411.462187
 20
268.552799
 30
0.0
 11
410.621547
 21
268.32755
 31
0.0
  0
LINE
  8
LC-001-002-----0
  6
CONTINUOUS
 62
     1
  5
29C
 10
413.30604
 20
261.799925
 30
0.0
 11
412.916248
 21
261.69548
 31
0.0
  0
LINE
  8
LC-001-002-----0
  6
CONTINUOUS
  5
29D
 10
406.695279
 20
292.639777
 30
0.0
 11
410.44565
 21
303.781417
 31
0.0
  0
LINE
  8
LC-001-002-----0
  6
CONTINUOUS
 62
     1
  5
29E
 10
373.946032
 20
314.405273
 30
0.0
 11
373.687212
 21
315.371198
 31
0.0
  0
LINE
  8
LC-001-002-----0
  6
CONTINUOUS
 62
     1
  5
29F
 10
373.687212
 20
315.371198
 30
0.0
 11
372.721286
 21
315.112379
 31
0.0
  0
LINE
  8
LC-001-002-----0
  6
CONTINUOUS
 62
     1
  5
2A0
 10
372.721286
 20
315.112379
 30
0.0
 11
373.497745
 21
312.214602
 31
0.0
  0
LINE
  8
LC-001-002-----0
  6
CONTINUOUS
 62
     1
  5
2A1
 10
373.497745
 20
312.214602
 30
0.0
 11
374.463671
 21
312.473421
 31
0.0
  0
ARC
  8
LC-001-002-----0
  6
CONTINUOUS
 62
     1
  5
2A2
 10
388.24545
 20
315.130971
 30
0.0
 40
3.0
 50
15.000037
 51
105.000037
  0
LINE
  8
LC-001-002-----0
  6
CONTINUOUS
 62
     1
  5
2A3
 10
387.468991
 20
318.028748
 30
0.0
 11
373.946032
 21
314.405273
 31
0.0
  0
LINE
  8
LC-001-002-----0
  6
CONTINUOUS
 62
     1
  5
2A4
 10
390.341388
 20
313.104387
 30
0.0
 11
389.694338
 21
315.519201
 31
0.0
  0
ARC
  8
LC-001-002-----0
  6
CONTINUOUS
 62
     1
  5
2A5
 10
388.728413
 20
315.260381
 30
0.0
 40
1.0
 50
15.000037
 51
105.000037
  0
LINE
  8
LC-001-002-----0
  6
CONTINUOUS
 62
     1
  5
2A6
 10
388.469593
 20
316.226307
 30
0.0
 11
374.463671
 21
312.473421
 31
0.0
  0
LINE
  8
LC-001-002-----0
  6
CONTINUOUS
 62
     1
  5
2A7
 10
397.172988
 20
281.803894
 30
0.0
 11
383.65001
 21
278.18049
 31
0.0
  0
LINE
  8
LC-001-002-----0
  6
CONTINUOUS
 62
     1
  5
2A8
 10
383.65001
 20
278.18049
 30
0.0
 11
383.908824
 21
277.214563
 31
0.0
  0
LINE
  8
LC-001-002-----0
  6
CONTINUOUS
 62
     1
  5
2A9
 10
383.908824
 20
277.214563
 30
0.0
 11
382.942897
 21
276.955748
 31
0.0
  0
LINE
  8
LC-001-002-----0
  6
CONTINUOUS
 62
     1
  5
2AA
 10
382.942897
 20
276.955748
 30
0.0
 11
382.166454
 21
279.85353
 31
0.0
  0
LINE
  8
LC-001-002-----0
  6
CONTINUOUS
 62
     1
  5
2AB
 10
397.138323
 20
283.865155
 30
0.0
 11
383.132381
 21
280.112344
 31
0.0
  0
LINE
  8
LC-001-002-----0
  6
CONTINUOUS
 62
     1
  5
2AC
 10
382.166454
 20
279.85353
 30
0.0
 11
383.132381
 21
280.112344
 31
0.0
  0
ARC
  8
LC-001-002-----0
  6
CONTINUOUS
 62
     1
  5
2AD
 10
396.396545
 20
284.701675
 30
0.0
 40
3.0
 50
284.999771
 51
14.999733
  0
LINE
  8
LC-001-002-----0
  6
CONTINUOUS
 62
     1
  5
2AE
 10
397.198399
 20
287.504714
 30
0.0
 11
397.845435
 21
285.089897
 31
0.0
  0
ARC
  8
LC-001-002-----0
  6
CONTINUOUS
 62
     1
  5
2AF
 10
396.879508
 20
284.831082
 30
0.0
 40
1.0
 50
284.999771
 51
14.999733
  0
LINE
  8
LC-001-002-----0
  6
CONTINUOUS
 62
     1
  5
2B0
 10
370.181711
 20
311.067251
 30
0.0
 11
385.636521
 21
315.208366
 31
0.0
  0
LINE
  8
LC-001-002-----0
  6
CONTINUOUS
 62
     1
  5
2B1
 10
387.956602
 20
314.277117
 30
0.0
 11
395.721192
 21
285.299347
 31
0.0
  0
LINE
  8
LC-001-002-----0
  6
CONTINUOUS
 62
     1
  5
2B2
 10
391.402047
 20
314.941505
 30
0.0
 11
391.143227
 21
315.90743
 31
0.0
  0
ARC
  8
LC-001-002-----0
  6
CONTINUOUS
 62
     1
  5
2B3
 10
389.953158
 20
314.553275
 30
0.0
 40
1.5
 50
285.000189
 51
15.000037
  0
LINE
  8
LC-001-002-----0
  6
CONTINUOUS
 62
     1
  5
2B4
 10
390.341388
 20
313.104387
 30
0.0
 11
390.341388
 21
313.104387
 31
0.0
  0
LINE
  8
LC-001-002-----0
  6
CONTINUOUS
 62
     1
  5
2B5
 10
399.035511
 20
286.444045
 30
0.0
 11
399.294326
 21
285.478118
 31
0.0
  0
ARC
  8
LC-001-002-----0
  6
CONTINUOUS
 62
     1
  5
2B6
 10
397.586621
 20
286.055824
 30
0.0
 40
1.5
 50
14.999733
 51
104.999733
  0
LINE
  8
LC-001-002-----0
  6
CONTINUOUS
 62
     1
  5
2B7
 10
397.198399
 20
287.504714
 30
0.0
 11
397.198399
 21
287.504714
 31
0.0
  0
ENDSEC
  0
EOF
