  0
SECTION
  2
HEADER
  9
$ACADVER
  1
AC1009
  9
$INSBASE
 10
0.0
 20
0.0
 30
0.0
  9
$EXTMIN
 10
0.0
 20
0.0
 30
0.0
  9
$EXTMAX
 10
840.0
 20
594.0
 30
0.0
  9
$LIMMIN
 10
0.0
 20
0.0
  9
$LIMMAX
 10
840.0
 20
594.0
  9
$ORTHOMODE
 70
     0
  9
$REGENMODE
 70
     1
  9
$FILLMODE
 70
     1
  9
$QTEXTMODE
 70
     0
  9
$MIRRTEXT
 70
     1
  9
$DRAGMODE
 70
     2
  9
$LTSCALE
 40
2.0
  9
$OSMODE
 70
     0
  9
$ATTMODE
 70
     1
  9
$TEXTSIZE
 40
0.2
  9
$TRACEWID
 40
0.05
  9
$TEXTSTYLE
  7
STANDARD
  9
$CLAYER
  8
0
  9
$CELTYPE
  6
BYLAYER
  9
$CECOLOR
 62
     7
  9
$DIMSCALE
 40
2.0
  9
$DIMASZ
 40
3.5
  9
$DIMEXO
 40
0.0625
  9
$DIMDLI
 40
0.38
  9
$DIMRND
 40
0.0
  9
$DIMDLE
 40
0.0
  9
$DIMEXE
 40
0.18
  9
$DIMTP
 40
0.0
  9
$DIMTM
 40
0.0
  9
$DIMTXT
 40
3.5
  9
$DIMCEN
 40
0.09
  9
$DIMTSZ
 40
0.0
  9
$DIMTOL
 70
     0
  9
$DIMLIM
 70
     0
  9
$DIMTIH
 70
     1
  9
$DIMTOH
 70
     1
  9
$DIMSE1
 70
     0
  9
$DIMSE2
 70
     0
  9
$DIMTAD
 70
     1
  9
$DIMZIN
 70
     0
  9
$DIMBLK
  1

  9
$DIMASO
 70
     1
  9
$DIMSHO
 70
     1
  9
$DIMPOST
  1

  9
$DIMAPOST
  1

  9
$DIMALT
 70
     0
  9
$DIMALTD
 70
     2
  9
$DIMALTF
 40
25.4
  9
$DIMLFAC
 40
1.0
  9
$DIMTOFL
 70
     0
  9
$DIMTVP
 40
0.0
  9
$DIMTIX
 70
     0
  9
$DIMSOXD
 70
     0
  9
$DIMSAH
 70
     0
  9
$DIMBLK1
  1

  9
$DIMBLK2
  1

  9
$DIMSTYLE
  2
STANDARD
  9
$DIMCLRD
 70
     0
  9
$DIMCLRE
 70
     0
  9
$DIMCLRT
 70
     0
  9
$DIMTFAC
 40
1.0
  9
$DIMGAP
 40
0.09
  9
$LUNITS
 70
     2
  9
$LUPREC
 70
     2
  9
$AXISMODE
 70
     0
  9
$AXISUNIT
 10
0.0
 20
0.0
  9
$SKETCHINC
 40
0.1
  9
$FILLETRAD
 40
0.0
  9
$AUNITS
 70
     0
  9
$AUPREC
 70
     0
  9
$MENU
  1
acad
  9
$ELEVATION
 40
0.0
  9
$PELEVATION
 40
0.0
  9
$THICKNESS
 40
0.0
  9
$LIMCHECK
 70
     0
  9
$BLIPMODE
 70
     1
  9
$CHAMFERA
 40
0.0
  9
$CHAMFERB
 40
0.0
  9
$SKPOLY
 70
     0
  9
$TDCREATE
 40
0.000000000
  9
$TDUPDATE
 40
0.000000000
  9
$TDINDWG
 40
0.0000000000
  9
$TDUSRTIMER
 40
0.0000000000
  9
$USRTIMER
 70
     1
  9
$ANGBASE
 50
0.0
  9
$ANGDIR
 70
     0
  9
$PDMODE
 70
     0
  9
$PDSIZE
 40
0.0
  9
$PLINEWID
 40
0.0
  9
$COORDS
 70
     0
  9
$SPLFRAME
 70
     0
  9
$SPLINETYPE
 70
     6
  9
$SPLINESEGS
 70
     8
  9
$ATTDIA
 70
     0
  9
$ATTREQ
 70
     1
  9
$HANDLING
 70
     1
  9
$HANDSEED
  5
116
  9
$SURFTAB1
 70
     6
  9
$SURFTAB2
 70
     6
  9
$SURFTYPE
 70
     6
  9
$SURFU
 70
     6
  9
$SURFV
 70
     6
  9
$UCSNAME
  2

  9
$UCSORG
 10
0.0
 20
0.0
 30
0.0
  9
$UCSXDIR
 10
1.0
 20
0.0
 30
0.0
  9
$UCSYDIR
 10
0.0
 20
1.0
 30
0.0
  9
$PUCSNAME
  2

  9
$PUCSORG
 10
0.0
 20
0.0
 30
0.0
  9
$PUCSXDIR
 10
1.0
 20
0.0
 30
0.0
  9
$PUCSYDIR
 10
0.0
 20
1.0
 30
0.0
  9
$USERI1
 70
     0
  9
$USERI2
 70
     0
  9
$USERI3
 70
     0
  9
$USERI4
 70
     0
  9
$USERI5
 70
     0
  9
$USERR1
 40
0.0
  9
$USERR2
 40
0.0
  9
$USERR3
 40
0.0
  9
$USERR4
 40
0.0
  9
$USERR5
 40
0.0
  9
$WORLDVIEW
 70
     1
  9
$SHADEDGE
 70
     3
  9
$SHADEDIF
 70
    70
  9
$TILEMODE
 70
     1
  9
$MAXACTVP
 70
    16
  9
$PINSBASE
 10
0.0
 20
0.0
 30
0.0
  9
$PLIMCHECK
 70
     0
  9
$PEXTMIN
 10
1.000000E+20
 20
1.000000E+20
 30
1.000000E+20
  9
$PEXTMAX
 10
-1.000000E+20
 20
-1.000000E+20
 30
-1.000000E+20
  9
$PLIMMIN
 10
0.0
 20
0.0
  9
$PLIMMAX
 10
840.0
 20
594.0
  9
$UNITMODE
 70
     0
  9
$VISRETAIN
 70
     0
  9
$PLINEGEN
 70
     1
  9
$PSLTSCALE
 70
     0
  9
$TREEDEPTH
 70
  3020
  9
$DWGCODEPAGE
  3
dos850
  0
ENDSEC
  0
SECTION
  2
TABLES
  0
TABLE
  2
VPORT
 70
     1
  0
VPORT
  2
*ACTIVE
 70
     0
 10
0.0
 20
0.0
 11
1.0
 21
1.0
 12
420.0
 22
297.0
 13
0.0
 23
0.0
 14
1.0
 24
1.0
 15
0.0
 25
0.0
 16
0.0
 26
0.0
 36
1.0
 17
0.0
 27
0.0
 37
0.0
 40
594.0
 41
1.604229
 42
50.0
 43
0.0
 44
0.0
 50
0.0
 51
0.0
 71
     0
 72
   100
 73
     1
 74
     1
 75
     0
 76
     0
 77
     0
 78
     0
  0
ENDTAB
  0
TABLE
  2
LTYPE
 70
     2
  0
LTYPE
  2
CONTINUOUS
 70
    64
  3
Solid line
 72
    65
 73
     0
 40
0.0
  0
LTYPE
  2
DASHDOT
 70
    64
  3
__ . __ . __ . __ . __
 72
    65
 73
     4
 40
7.5
 49
5.0
 49
-1.25
 49
0.0
 49
-1.25
  0
ENDTAB
  0
TABLE
  2
LAYER
 70
     9
  0
LAYER
  2
0
 70
     0
 62
     7
  6
CONTINUOUS
  0
LAYER
  2
LC-INFO-1-2-MM-A3-0
 70
     1
 62
    -1
  6
CONTINUOUS
  0
LAYER
  2
LC-002-005-----0
 70
     0
 62
     2
  6
CONTINUOUS
  0
LAYER
  2
LC-005-003-MTH-0
 70
     0
 62
     2
  6
CONTINUOUS
  0
LAYER
  2
LC-006-003-MTG-0
 70
     0
 62
     2
  6
CONTINUOUS
  0
LAYER
  2
LC-004-003-----0
 70
     0
 62
     2
  6
CONTINUOUS
  0
LAYER
  2
LC-001-002-----0
 70
     0
 62
     2
  6
DASHDOT
  0
LAYER
  2
LC-003-002-RND-0
 70
     0
 62
     1
  6
CONTINUOUS
  0
LAYER
  2
LC-000
 70
     0
 62
     7
  6
CONTINUOUS
  0
ENDTAB
  0
TABLE
  2
STYLE
 70
     4
  0
STYLE
  2
STANDARD
 70
     0
 40
0.0
 41
1.0
 50
0.0
 71
     0
 42
0.0
  3
txt
  4

  0
STYLE
  2
LC-STANDARD
 70
    64
 40
0.0
 41
1.0
 50
0.0
 71
     0
 42
3.5
  3
MONOTXT
  4

  0
STYLE
  2
LC-TXTSTYLE-150-400-0-0-D2
 70
    64
 40
0.0
 41
1.0
 50
15.0
 71
     0
 42
3.5
  3
MONOTXT
  4

  0
STYLE
  2
LC-TXTSTYLE-150-400-0-0-D3
 70
    64
 40
0.0
 41
1.0
 50
15.0
 71
     0
 42
3.5
  3
LC-STANDARD
  4

  0
ENDTAB
  0
TABLE
  2
VIEW
 70
     0
  0
ENDTAB
  0
TABLE
  2
UCS
 70
     0
  0
ENDTAB
  0
TABLE
  2
APPID
 70
     1
  0
APPID
  2
ACAD
 70
     0
  0
ENDTAB
  0
TABLE
  2
DIMSTYLE
 70
     3
  0
DIMSTYLE
  2
STANDARD
 70
     0
  3

  4

  5

  6

  7

 40
1.0
 41
0.18
 42
0.0625
 43
0.38
 44
0.18
 45
0.0
 46
0.0
 47
0.0
 48
0.0
 71
     0
 72
     0
 73
     1
 74
     1
 75
     0
 76
     0
 77
     0
 78
     0
140
0.18
141
0.09
142
0.0
143
25.4
144
1.0
145
0.0
146
1.0
147
0.09
170
     0
171
     2
172
     0
173
     0
174
     0
175
     0
176
     0
177
     0
178
     0
  0
DIMSTYLE
  2
LC-STANDARD
 70
     0
  3

  4

  5

  6

  7

 40
1.0
 41
3.5
 42
0.0
 43
7.5
 44
1.8
 45
0.0
 46
0.0
 47
0.0
 48
0.0
 71
     0
 72
     0
 73
     0
 74
     0
 75
     0
 76
     0
 77
     1
 78
     8
140
3.5
141
0.0
142
0.0
143
25.4
144
1.0
145
0.0
146
0.71
147
1.5
170
     0
171
     2
172
     1
173
     0
174
     0
175
     0
176
     0
177
     0
178
     3
  0
DIMSTYLE
  2
LC-DIM-L-0090-02-02
 70
     0
  3

  4

  5

  6

  7

 40
2.0
 41
3.5
 42
0.0
 43
7.5
 44
1.8
 45
0.0
 46
0.0
 47
0.0
 48
0.0
 71
     0
 72
     0
 73
     0
 74
     0
 75
     0
 76
     0
 77
     1
 78
     8
140
9.0
141
0.0
142
0.0
143
25.4
144
1.0
145
0.0
146
0.71
147
1.5
170
     0
171
     2
172
     0
173
     0
174
     0
175
     0
176
     2
177
     2
178
     6
  0
ENDTAB
  0
ENDSEC
  0
SECTION
  2
BLOCKS
  0
BLOCK
  8
0
  5
23
  2
*X0
 70
    65
 10
317.136546
 20
293.589285
 30
0.0
  3
*X0
  0
LINE
  8
LC-002-005-----0
  6
CONTINUOUS
  5
25
 10
321.136546
 20
295.460567
 30
0.0
 11
321.007828
 21
295.589285
 31
0.0
  0
LINE
  8
LC-002-005-----0
  6
CONTINUOUS
  5
26
 10
321.136546
 20
294.046353
 30
0.0
 11
319.593615
 21
295.589285
 31
0.0
  0
LINE
  8
LC-002-005-----0
  6
CONTINUOUS
  5
27
 10
320.179401
 20
293.589285
 30
0.0
 11
318.179401
 21
295.589285
 31
0.0
  0
LINE
  8
LC-002-005-----0
  6
CONTINUOUS
  5
28
 10
318.765188
 20
293.589285
 30
0.0
 11
317.136546
 21
295.217926
 31
0.0
  0
LINE
  8
LC-002-005-----0
  6
CONTINUOUS
  5
29
 10
317.350974
 20
293.589285
 30
0.0
 11
317.136546
 21
293.803713
 31
0.0
  0
ENDBLK
  8
0
  5
2A
  0
BLOCK
  8
0
  5
2C
  2
*X1
 70
    65
 10
312.136546
 20
287.877532
 30
0.0
  3
*X1
  0
LINE
  8
LC-002-005-----0
  6
CONTINUOUS
  5
2D
 10
315.386546
 20
304.038994
 30
0.0
 11
314.048008
 21
305.377532
 31
0.0
  0
LINE
  8
LC-002-005-----0
  6
CONTINUOUS
  5
2E
 10
315.386546
 20
301.210567
 30
0.0
 11
313.636546
 21
302.960567
 31
0.0
  0
LINE
  8
LC-002-005-----0
  6
CONTINUOUS
  5
2F
 10
312.719581
 20
303.877532
 30
0.0
 11
312.136546
 21
304.460567
 31
0.0
  0
LINE
  8
LC-002-005-----0
  6
CONTINUOUS
  5
30
 10
315.386546
 20
298.38214
 30
0.0
 11
313.636546
 21
300.13214
 31
0.0
  0
LINE
  8
LC-002-005-----0
  6
CONTINUOUS
  5
31
 10
315.386546
 20
295.553713
 30
0.0
 11
313.636546
 21
297.303713
 31
0.0
  0
LINE
  8
LC-002-005-----0
  6
CONTINUOUS
  5
32
 10
315.386546
 20
292.725285
 30
0.0
 11
313.636546
 21
294.475285
 31
0.0
  0
LINE
  8
LC-002-005-----0
  6
CONTINUOUS
  5
33
 10
316.939372
 20
288.344032
 30
0.0
 11
315.655873
 21
289.627532
 31
0.0
  0
LINE
  8
LC-002-005-----0
  6
CONTINUOUS
  5
34
 10
315.386546
 20
289.896858
 30
0.0
 11
313.636546
 21
291.646858
 31
0.0
  0
ENDBLK
  8
0
  5
35
  0
BLOCK
  8
0
  5
37
  2
*X2
 70
    65
 10
365.136546
 20
187.589285
 30
0.0
  3
*X2
  0
LINE
  8
LC-002-005-----0
  6
CONTINUOUS
  5
38
 10
365.136546
 20
189.774065
 30
0.0
 11
367.636546
 21
192.274065
 31
0.0
  0
LINE
  8
LC-002-005-----0
  6
CONTINUOUS
  5
39
 10
365.136546
 20
192.602492
 30
0.0
 11
367.636546
 21
195.102492
 31
0.0
  0
LINE
  8
LC-002-005-----0
  6
CONTINUOUS
  5
3A
 10
365.136546
 20
195.430919
 30
0.0
 11
367.636546
 21
197.930919
 31
0.0
  0
LINE
  8
LC-002-005-----0
  6
CONTINUOUS
  5
3B
 10
365.136546
 20
198.259346
 30
0.0
 11
367.636546
 21
200.759346
 31
0.0
  0
LINE
  8
LC-002-005-----0
  6
CONTINUOUS
  5
3C
 10
365.136546
 20
201.087773
 30
0.0
 11
367.636546
 21
203.587773
 31
0.0
  0
LINE
  8
LC-002-005-----0
  6
CONTINUOUS
  5
3D
 10
365.136546
 20
203.9162
 30
0.0
 11
367.636546
 21
206.4162
 31
0.0
  0
LINE
  8
LC-002-005-----0
  6
CONTINUOUS
  5
3E
 10
365.136546
 20
206.744627
 30
0.0
 11
367.636546
 21
209.244627
 31
0.0
  0
LINE
  8
LC-002-005-----0
  6
CONTINUOUS
  5
3F
 10
365.136546
 20
209.573055
 30
0.0
 11
367.636546
 21
212.073055
 31
0.0
  0
LINE
  8
LC-002-005-----0
  6
CONTINUOUS
  5
40
 10
365.136546
 20
212.401482
 30
0.0
 11
367.636546
 21
214.901482
 31
0.0
  0
LINE
  8
LC-002-005-----0
  6
CONTINUOUS
  5
41
 10
365.136546
 20
215.229909
 30
0.0
 11
367.636546
 21
217.729909
 31
0.0
  0
LINE
  8
LC-002-005-----0
  6
CONTINUOUS
  5
42
 10
365.136546
 20
218.058336
 30
0.0
 11
367.636546
 21
220.558336
 31
0.0
  0
LINE
  8
LC-002-005-----0
  6
CONTINUOUS
  5
43
 10
365.136546
 20
220.886763
 30
0.0
 11
367.636546
 21
223.386763
 31
0.0
  0
LINE
  8
LC-002-005-----0
  6
CONTINUOUS
  5
44
 10
365.136546
 20
223.71519
 30
0.0
 11
367.636546
 21
226.21519
 31
0.0
  0
LINE
  8
LC-002-005-----0
  6
CONTINUOUS
  5
45
 10
365.136546
 20
226.543617
 30
0.0
 11
367.636546
 21
229.043617
 31
0.0
  0
LINE
  8
LC-002-005-----0
  6
CONTINUOUS
  5
46
 10
365.136546
 20
229.372044
 30
0.0
 11
367.636546
 21
231.872044
 31
0.0
  0
LINE
  8
LC-002-005-----0
  6
CONTINUOUS
  5
47
 10
365.136546
 20
232.200472
 30
0.0
 11
367.636546
 21
234.700472
 31
0.0
  0
LINE
  8
LC-002-005-----0
  6
CONTINUOUS
  5
48
 10
365.136546
 20
235.028899
 30
0.0
 11
367.636546
 21
237.528899
 31
0.0
  0
LINE
  8
LC-002-005-----0
  6
CONTINUOUS
  5
49
 10
365.136546
 20
237.857326
 30
0.0
 11
367.636546
 21
240.357326
 31
0.0
  0
LINE
  8
LC-002-005-----0
  6
CONTINUOUS
  5
4A
 10
365.136546
 20
240.685753
 30
0.0
 11
367.636546
 21
243.185753
 31
0.0
  0
LINE
  8
LC-002-005-----0
  6
CONTINUOUS
  5
4B
 10
365.136546
 20
243.51418
 30
0.0
 11
367.636546
 21
246.01418
 31
0.0
  0
LINE
  8
LC-002-005-----0
  6
CONTINUOUS
  5
4C
 10
365.136546
 20
246.342607
 30
0.0
 11
367.636546
 21
248.842607
 31
0.0
  0
LINE
  8
LC-002-005-----0
  6
CONTINUOUS
  5
4D
 10
365.136546
 20
249.171034
 30
0.0
 11
367.636546
 21
251.671034
 31
0.0
  0
LINE
  8
LC-002-005-----0
  6
CONTINUOUS
  5
4E
 10
365.136546
 20
251.999461
 30
0.0
 11
367.636546
 21
254.499461
 31
0.0
  0
LINE
  8
LC-002-005-----0
  6
CONTINUOUS
  5
4F
 10
365.136546
 20
254.827889
 30
0.0
 11
367.636546
 21
257.327889
 31
0.0
  0
LINE
  8
LC-002-005-----0
  6
CONTINUOUS
  5
50
 10
365.136546
 20
257.656316
 30
0.0
 11
367.636546
 21
260.156316
 31
0.0
  0
LINE
  8
LC-002-005-----0
  6
CONTINUOUS
  5
51
 10
365.136546
 20
260.484743
 30
0.0
 11
367.636546
 21
262.984743
 31
0.0
  0
LINE
  8
LC-002-005-----0
  6
CONTINUOUS
  5
52
 10
365.136546
 20
263.31317
 30
0.0
 11
367.636546
 21
265.81317
 31
0.0
  0
LINE
  8
LC-002-005-----0
  6
CONTINUOUS
  5
53
 10
365.136546
 20
266.141597
 30
0.0
 11
367.636546
 21
268.641597
 31
0.0
  0
LINE
  8
LC-002-005-----0
  6
CONTINUOUS
  5
54
 10
365.136546
 20
268.970024
 30
0.0
 11
367.636546
 21
271.470024
 31
0.0
  0
LINE
  8
LC-002-005-----0
  6
CONTINUOUS
  5
55
 10
365.136546
 20
271.798451
 30
0.0
 11
367.636546
 21
274.298451
 31
0.0
  0
LINE
  8
LC-002-005-----0
  6
CONTINUOUS
  5
56
 10
365.136546
 20
274.626878
 30
0.0
 11
367.636546
 21
277.126878
 31
0.0
  0
LINE
  8
LC-002-005-----0
  6
CONTINUOUS
  5
57
 10
365.136546
 20
277.455306
 30
0.0
 11
367.89799
 21
280.216749
 31
0.0
  0
LINE
  8
LC-002-005-----0
  6
CONTINUOUS
  5
58
 10
365.136546
 20
280.283733
 30
0.0
 11
369.918295
 21
285.065481
 31
0.0
  0
LINE
  8
LC-002-005-----0
  6
CONTINUOUS
  5
59
 10
365.136546
 20
283.11216
 30
0.0
 11
367.636546
 21
285.61216
 31
0.0
  0
LINE
  8
LC-002-005-----0
  6
CONTINUOUS
  5
5A
 10
365.136546
 20
285.940587
 30
0.0
 11
367.636546
 21
288.440587
 31
0.0
  0
LINE
  8
LC-002-005-----0
  6
CONTINUOUS
  5
5B
 10
365.136546
 20
288.769014
 30
0.0
 11
368.524838
 21
292.157305
 31
0.0
  0
LINE
  8
LC-002-005-----0
  6
CONTINUOUS
  5
5C
 10
365.136546
 20
291.597441
 30
0.0
 11
366.62839
 21
293.089285
 31
0.0
  0
ENDBLK
  8
0
  5
5D
  0
BLOCK
  8
0
  5
5F
  2
*X3
 70
    65
 10
315.136546
 20
187.589285
 30
0.0
  3
*X3
  0
LINE
  8
LC-002-005-----0
  6
CONTINUOUS
  5
60
 10
318.91674
 20
188.809092
 30
0.0
 11
320.136546
 21
190.028899
 31
0.0
  0
LINE
  8
LC-002-005-----0
  6
CONTINUOUS
  5
61
 10
317.636546
 20
190.357326
 30
0.0
 11
320.136546
 21
192.857326
 31
0.0
  0
LINE
  8
LC-002-005-----0
  6
CONTINUOUS
  5
62
 10
317.636546
 20
193.185753
 30
0.0
 11
320.136546
 21
195.685753
 31
0.0
  0
LINE
  8
LC-002-005-----0
  6
CONTINUOUS
  5
63
 10
317.636546
 20
196.01418
 30
0.0
 11
320.136546
 21
198.51418
 31
0.0
  0
LINE
  8
LC-002-005-----0
  6
CONTINUOUS
  5
64
 10
317.636546
 20
198.842607
 30
0.0
 11
320.136546
 21
201.342607
 31
0.0
  0
LINE
  8
LC-002-005-----0
  6
CONTINUOUS
  5
65
 10
317.636546
 20
201.671034
 30
0.0
 11
320.136546
 21
204.171034
 31
0.0
  0
LINE
  8
LC-002-005-----0
  6
CONTINUOUS
  5
66
 10
317.636546
 20
204.499461
 30
0.0
 11
320.136546
 21
206.999461
 31
0.0
  0
LINE
  8
LC-002-005-----0
  6
CONTINUOUS
  5
67
 10
317.636546
 20
207.327889
 30
0.0
 11
320.136546
 21
209.827889
 31
0.0
  0
LINE
  8
LC-002-005-----0
  6
CONTINUOUS
  5
68
 10
317.636546
 20
210.156316
 30
0.0
 11
320.136546
 21
212.656316
 31
0.0
  0
LINE
  8
LC-002-005-----0
  6
CONTINUOUS
  5
69
 10
317.636546
 20
212.984743
 30
0.0
 11
320.136546
 21
215.484743
 31
0.0
  0
LINE
  8
LC-002-005-----0
  6
CONTINUOUS
  5
6A
 10
317.636546
 20
215.81317
 30
0.0
 11
320.136546
 21
218.31317
 31
0.0
  0
LINE
  8
LC-002-005-----0
  6
CONTINUOUS
  5
6B
 10
317.636546
 20
218.641597
 30
0.0
 11
320.136546
 21
221.141597
 31
0.0
  0
LINE
  8
LC-002-005-----0
  6
CONTINUOUS
  5
6C
 10
317.636546
 20
221.470024
 30
0.0
 11
320.136546
 21
223.970024
 31
0.0
  0
LINE
  8
LC-002-005-----0
  6
CONTINUOUS
  5
6D
 10
317.636546
 20
224.298451
 30
0.0
 11
320.136546
 21
226.798451
 31
0.0
  0
LINE
  8
LC-002-005-----0
  6
CONTINUOUS
  5
6E
 10
317.636546
 20
227.126878
 30
0.0
 11
320.136546
 21
229.626878
 31
0.0
  0
LINE
  8
LC-002-005-----0
  6
CONTINUOUS
  5
6F
 10
317.636546
 20
229.955306
 30
0.0
 11
320.136546
 21
232.455306
 31
0.0
  0
LINE
  8
LC-002-005-----0
  6
CONTINUOUS
  5
70
 10
317.636546
 20
232.783733
 30
0.0
 11
320.136546
 21
235.283733
 31
0.0
  0
LINE
  8
LC-002-005-----0
  6
CONTINUOUS
  5
71
 10
317.636546
 20
235.61216
 30
0.0
 11
320.136546
 21
238.11216
 31
0.0
  0
LINE
  8
LC-002-005-----0
  6
CONTINUOUS
  5
72
 10
317.636546
 20
238.440587
 30
0.0
 11
320.136546
 21
240.940587
 31
0.0
  0
LINE
  8
LC-002-005-----0
  6
CONTINUOUS
  5
73
 10
317.636546
 20
241.269014
 30
0.0
 11
320.136546
 21
243.769014
 31
0.0
  0
LINE
  8
LC-002-005-----0
  6
CONTINUOUS
  5
74
 10
317.636546
 20
244.097441
 30
0.0
 11
320.136546
 21
246.597441
 31
0.0
  0
LINE
  8
LC-002-005-----0
  6
CONTINUOUS
  5
75
 10
317.636546
 20
246.925868
 30
0.0
 11
320.136546
 21
249.425868
 31
0.0
  0
LINE
  8
LC-002-005-----0
  6
CONTINUOUS
  5
76
 10
317.636546
 20
249.754295
 30
0.0
 11
320.136546
 21
252.254295
 31
0.0
  0
LINE
  8
LC-002-005-----0
  6
CONTINUOUS
  5
77
 10
317.636546
 20
252.582723
 30
0.0
 11
320.136546
 21
255.082723
 31
0.0
  0
LINE
  8
LC-002-005-----0
  6
CONTINUOUS
  5
78
 10
317.636546
 20
255.41115
 30
0.0
 11
320.136546
 21
257.91115
 31
0.0
  0
LINE
  8
LC-002-005-----0
  6
CONTINUOUS
  5
79
 10
317.636546
 20
258.239577
 30
0.0
 11
320.136546
 21
260.739577
 31
0.0
  0
LINE
  8
LC-002-005-----0
  6
CONTINUOUS
  5
7A
 10
317.636546
 20
261.068004
 30
0.0
 11
320.136546
 21
263.568004
 31
0.0
  0
LINE
  8
LC-002-005-----0
  6
CONTINUOUS
  5
7B
 10
317.636546
 20
263.896431
 30
0.0
 11
320.136546
 21
266.396431
 31
0.0
  0
LINE
  8
LC-002-005-----0
  6
CONTINUOUS
  5
7C
 10
317.636546
 20
266.724858
 30
0.0
 11
320.136546
 21
269.224858
 31
0.0
  0
LINE
  8
LC-002-005-----0
  6
CONTINUOUS
  5
7D
 10
317.636546
 20
269.553285
 30
0.0
 11
320.136546
 21
272.053285
 31
0.0
  0
LINE
  8
LC-002-005-----0
  6
CONTINUOUS
  5
7E
 10
317.636546
 20
272.381712
 30
0.0
 11
320.136546
 21
274.881712
 31
0.0
  0
LINE
  8
LC-002-005-----0
  6
CONTINUOUS
  5
7F
 10
317.636546
 20
275.21014
 30
0.0
 11
320.136546
 21
277.71014
 31
0.0
  0
LINE
  8
LC-002-005-----0
  6
CONTINUOUS
  5
80
 10
317.636546
 20
278.038567
 30
0.0
 11
320.136546
 21
280.538567
 31
0.0
  0
LINE
  8
LC-002-005-----0
  6
CONTINUOUS
  5
81
 10
317.26075
 20
280.491197
 30
0.0
 11
320.136546
 21
283.366994
 31
0.0
  0
LINE
  8
LC-002-005-----0
  6
CONTINUOUS
  5
82
 10
316.428859
 20
282.487734
 30
0.0
 11
320.136546
 21
286.195421
 31
0.0
  0
LINE
  8
LC-002-005-----0
  6
CONTINUOUS
  5
83
 10
315.596969
 20
284.484271
 30
0.0
 11
316.701983
 21
285.589285
 31
0.0
  0
LINE
  8
LC-002-005-----0
  6
CONTINUOUS
  5
84
 10
317.636546
 20
286.523848
 30
0.0
 11
320.136546
 21
289.023848
 31
0.0
  0
LINE
  8
LC-002-005-----0
  6
CONTINUOUS
  5
85
 10
317.636546
 20
289.352275
 30
0.0
 11
320.136546
 21
291.852275
 31
0.0
  0
LINE
  8
LC-002-005-----0
  6
CONTINUOUS
  5
86
 10
316.636546
 20
291.180702
 30
0.0
 11
318.545129
 21
293.089285
 31
0.0
  0
ENDBLK
  8
0
  5
87
  0
BLOCK
  8
0
  5
89
  2
*D4
 70
    65
 10
0.0
 20
0.0
 30
0.0
  3
*D4
  0
LINE
  8
LC-005-003-MTH-0
  6
CONTINUOUS
  5
8B
 10
365.136546
 20
187.589285
 30
0.0
 11
430.8
 21
187.589285
 31
0.0
  0
LINE
  8
LC-005-003-MTH-0
  6
CONTINUOUS
  5
8C
 10
373.136546
 20
305.377532
 30
0.0
 11
430.8
 21
305.377532
 31
0.0
  0
LINE
  8
LC-006-003-MTG-0
  6
CONTINUOUS
  5
8E
 10
420.0
 20
187.589285
 30
0.0
 11
420.0
 21
305.377532
 31
0.0
  0
LINE
  8
LC-004-003-----0
  6
CONTINUOUS
  5
90
 10
417.650529
 20
205.435292
 30
0.0
 11
420.0
 21
187.589285
 31
0.0
  0
LINE
  8
LC-004-003-----0
  6
CONTINUOUS
  5
91
 10
420.0
 20
187.589285
 30
0.0
 11
422.349471
 21
205.435292
 31
0.0
  0
LINE
  8
LC-004-003-----0
  6
CONTINUOUS
  5
92
 10
422.349471
 20
205.435292
 30
0.0
 11
417.650529
 21
205.435292
 31
0.0
  0
LINE
  8
LC-004-003-----0
  6
CONTINUOUS
  5
93
 10
418.261391
 20
205.47533
 30
0.0
 11
420.0
 21
192.269285
 31
0.0
  0
LINE
  8
LC-004-003-----0
  6
CONTINUOUS
  5
94
 10
420.0
 20
192.269285
 30
0.0
 11
421.738609
 21
205.47533
 31
0.0
  0
LINE
  8
LC-004-003-----0
  6
CONTINUOUS
  5
95
 10
418.872254
 20
205.515369
 30
0.0
 11
420.0
 21
196.949285
 31
0.0
  0
LINE
  8
LC-004-003-----0
  6
CONTINUOUS
  5
96
 10
420.0
 20
196.949285
 30
0.0
 11
421.127746
 21
205.515369
 31
0.0
  0
LINE
  8
LC-004-003-----0
  6
CONTINUOUS
  5
97
 10
419.483116
 20
205.555407
 30
0.0
 11
420.0
 21
201.629285
 31
0.0
  0
LINE
  8
LC-004-003-----0
  6
CONTINUOUS
  5
98
 10
420.0
 20
201.629285
 30
0.0
 11
420.516884
 21
205.555407
 31
0.0
  0
LINE
  8
LC-004-003-----0
  6
CONTINUOUS
  5
99
 10
422.349471
 20
287.531524
 30
0.0
 11
420.0
 21
305.377532
 31
0.0
  0
LINE
  8
LC-004-003-----0
  6
CONTINUOUS
  5
9A
 10
420.0
 20
305.377532
 30
0.0
 11
417.650529
 21
287.531524
 31
0.0
  0
LINE
  8
LC-004-003-----0
  6
CONTINUOUS
  5
9B
 10
417.650529
 20
287.531524
 30
0.0
 11
422.349471
 21
287.531524
 31
0.0
  0
LINE
  8
LC-004-003-----0
  6
CONTINUOUS
  5
9C
 10
421.738609
 20
287.491486
 30
0.0
 11
420.0
 21
300.697532
 31
0.0
  0
LINE
  8
LC-004-003-----0
  6
CONTINUOUS
  5
9D
 10
420.0
 20
300.697532
 30
0.0
 11
418.261391
 21
287.491486
 31
0.0
  0
LINE
  8
LC-004-003-----0
  6
CONTINUOUS
  5
9E
 10
421.127746
 20
287.451448
 30
0.0
 11
420.0
 21
296.017532
 31
0.0
  0
LINE
  8
LC-004-003-----0
  6
CONTINUOUS
  5
9F
 10
420.0
 20
296.017532
 30
0.0
 11
418.872254
 21
287.451448
 31
0.0
  0
LINE
  8
LC-004-003-----0
  6
CONTINUOUS
  5
A0
 10
420.516884
 20
287.41141
 30
0.0
 11
420.0
 21
291.337532
 31
0.0
  0
LINE
  8
LC-004-003-----0
  6
CONTINUOUS
  5
A1
 10
420.0
 20
291.337532
 30
0.0
 11
419.483116
 21
287.41141
 31
0.0
  0
TEXT
  8
LC-004-003-----0
  6
CONTINUOUS
 62
     6
  5
A3
 10
409.568001
 20
230.144796
 30
0.0
 40
18.0
  1
120
 50
90.0
 41
0.9
 51
15.0
  7
LC-TXTSTYLE-150-400-0-0-D0
 72
     1
 11
409.568001
 21
249.278654
 31
0.0
  0
ENDBLK
  8
0
  5
A4
  0
BLOCK
  8
0
  5
A6
  2
*D5
 70
    65
 10
0.0
 20
0.0
 30
0.0
  3
*D5
  0
LINE
  8
LC-005-003-MTH-0
  6
CONTINUOUS
  5
A7
 10
317.636546
 20
190.089285
 30
0.0
 11
317.636546
 21
129.2
 31
0.0
  0
LINE
  8
LC-005-003-MTH-0
  6
CONTINUOUS
  5
A8
 10
367.636546
 20
190.089285
 30
0.0
 11
367.636546
 21
129.2
 31
0.0
  0
LINE
  8
LC-004-003-----0
  6
CONTINUOUS
  5
A9
 10
299.790539
 20
137.650529
 30
0.0
 11
317.636546
 21
140.0
 31
0.0
  0
LINE
  8
LC-004-003-----0
  6
CONTINUOUS
  5
AA
 10
317.636546
 20
140.0
 30
0.0
 11
299.790539
 21
142.349471
 31
0.0
  0
LINE
  8
LC-004-003-----0
  6
CONTINUOUS
  5
AB
 10
299.790539
 20
142.349471
 30
0.0
 11
299.790539
 21
137.650529
 31
0.0
  0
LINE
  8
LC-004-003-----0
  6
CONTINUOUS
  5
AC
 10
299.750501
 20
138.261391
 30
0.0
 11
312.956546
 21
140.0
 31
0.0
  0
LINE
  8
LC-004-003-----0
  6
CONTINUOUS
  5
AD
 10
312.956546
 20
140.0
 30
0.0
 11
299.750501
 21
141.738609
 31
0.0
  0
LINE
  8
LC-004-003-----0
  6
CONTINUOUS
  5
AE
 10
299.710463
 20
138.872254
 30
0.0
 11
308.276546
 21
140.0
 31
0.0
  0
LINE
  8
LC-004-003-----0
  6
CONTINUOUS
  5
AF
 10
308.276546
 20
140.0
 30
0.0
 11
299.710463
 21
141.127746
 31
0.0
  0
LINE
  8
LC-004-003-----0
  6
CONTINUOUS
  5
B0
 10
299.670425
 20
139.483116
 30
0.0
 11
303.596546
 21
140.0
 31
0.0
  0
LINE
  8
LC-004-003-----0
  6
CONTINUOUS
  5
B1
 10
303.596546
 20
140.0
 30
0.0
 11
299.670425
 21
140.516884
 31
0.0
  0
LINE
  8
LC-004-003-----0
  6
CONTINUOUS
  5
B2
 10
385.482554
 20
142.349471
 30
0.0
 11
367.636546
 21
140.0
 31
0.0
  0
LINE
  8
LC-004-003-----0
  6
CONTINUOUS
  5
B3
 10
367.636546
 20
140.0
 30
0.0
 11
385.482554
 21
137.650529
 31
0.0
  0
LINE
  8
LC-004-003-----0
  6
CONTINUOUS
  5
B4
 10
385.482554
 20
137.650529
 30
0.0
 11
385.482554
 21
142.349471
 31
0.0
  0
LINE
  8
LC-004-003-----0
  6
CONTINUOUS
  5
B5
 10
385.522592
 20
141.738609
 30
0.0
 11
372.316546
 21
140.0
 31
0.0
  0
LINE
  8
LC-004-003-----0
  6
CONTINUOUS
  5
B6
 10
372.316546
 20
140.0
 30
0.0
 11
385.522592
 21
138.261391
 31
0.0
  0
LINE
  8
LC-004-003-----0
  6
CONTINUOUS
  5
B7
 10
385.56263
 20
141.127746
 30
0.0
 11
376.996546
 21
140.0
 31
0.0
  0
LINE
  8
LC-004-003-----0
  6
CONTINUOUS
  5
B8
 10
376.996546
 20
140.0
 30
0.0
 11
385.56263
 21
138.872254
 31
0.0
  0
LINE
  8
LC-004-003-----0
  6
CONTINUOUS
  5
B9
 10
385.602668
 20
140.516884
 30
0.0
 11
381.676546
 21
140.0
 31
0.0
  0
LINE
  8
LC-004-003-----0
  6
CONTINUOUS
  5
BA
 10
381.676546
 20
140.0
 30
0.0
 11
385.602668
 21
139.483116
 31
0.0
  0
LINE
  8
LC-006-003-MTG-0
  6
CONTINUOUS
  5
BB
 10
292.436546
 20
140.0
 30
0.0
 11
458.039066
 21
140.0
 31
0.0
  0
TEXT
  8
LC-004-003-----0
  6
CONTINUOUS
 62
     6
  5
BC
 10
394.911792
 20
150.431999
 30
0.0
 40
18.0
  1
DN50
 51
15.0
  7
LC-TXTSTYLE-150-400-0-0-D0
  0
ENDBLK
  8
0
  5
BD
  0
BLOCK
  8
0
  5
BF
  2
*X6
 70
    65
 10
364.136546
 20
293.589285
 30
0.0
  3
*X6
  0
LINE
  8
LC-002-005-----0
  6
CONTINUOUS
  5
C0
 10
368.136546
 20
295.129614
 30
0.0
 11
367.676876
 21
295.589285
 31
0.0
  0
LINE
  8
LC-002-005-----0
  6
CONTINUOUS
  5
C1
 10
368.136546
 20
293.715401
 30
0.0
 11
366.262662
 21
295.589285
 31
0.0
  0
LINE
  8
LC-002-005-----0
  6
CONTINUOUS
  5
C2
 10
366.848449
 20
293.589285
 30
0.0
 11
364.848449
 21
295.589285
 31
0.0
  0
LINE
  8
LC-002-005-----0
  6
CONTINUOUS
  5
C3
 10
365.434235
 20
293.589285
 30
0.0
 11
364.136546
 21
294.886974
 31
0.0
  0
ENDBLK
  8
0
  5
C4
  0
BLOCK
  8
0
  5
C6
  2
*X7
 70
    65
 10
367.636546
 20
287.877532
 30
0.0
  3
*X7
  0
LINE
  8
LC-002-005-----0
  6
CONTINUOUS
  5
C7
 10
372.116551
 20
303.877532
 30
0.0
 11
370.616551
 21
305.377532
 31
0.0
  0
LINE
  8
LC-002-005-----0
  6
CONTINUOUS
  5
C8
 10
371.636546
 20
301.529109
 30
0.0
 11
369.886546
 21
303.279109
 31
0.0
  0
LINE
  8
LC-002-005-----0
  6
CONTINUOUS
  5
C9
 10
371.636546
 20
298.700682
 30
0.0
 11
369.886546
 21
300.450682
 31
0.0
  0
LINE
  8
LC-002-005-----0
  6
CONTINUOUS
  5
CA
 10
371.636546
 20
295.872255
 30
0.0
 11
369.886546
 21
297.622255
 31
0.0
  0
LINE
  8
LC-002-005-----0
  6
CONTINUOUS
  5
CB
 10
371.636546
 20
293.043828
 30
0.0
 11
369.886546
 21
294.793828
 31
0.0
  0
LINE
  8
LC-002-005-----0
  6
CONTINUOUS
  5
CC
 10
371.636546
 20
290.215401
 30
0.0
 11
369.886546
 21
291.965401
 31
0.0
  0
LINE
  8
LC-002-005-----0
  6
CONTINUOUS
  5
CD
 10
370.784048
 20
288.239472
 30
0.0
 11
369.395988
 21
289.627532
 31
0.0
  0
ENDBLK
  8
0
  5
CE
  0
ENDSEC
  0
SECTION
  2
ENTITIES
  0
VIEWPORT
  8
LC-000
  5
112
 67
     1
 68
     1
 10
420.0
 20
297.0
 30
0.0
 40
840.0
 41
594.0
 69
     1
1001
ACAD
1000
MVIEW
1002
{
1070
    16
1010
0.0
1020
0.0
1030
0.0
1010
0.0
1020
0.0
1030
1.0
1040
0.0
1040
594.0
1040
420.0
1040
297.0
1040
50.0
1040
0.0
1040
0.0
1070
     0
1070
   100
1070
     1
1070
     1
1070
     0
1070
     0
1070
     0
1070
     0
1040
0.0
1040
0.0
1040
0.0
1040
1.0
1040
1.0
1040
0.0
1040
0.0
1070
     0
1002
{
1002
}
1002
}
  0
VIEWPORT
  8
0
  5
113
 67
     1
 68
     1
 10
0.0
 20
0.0
 30
0.0
 40
0.0
 41
0.0
 69
     1
1001
ACAD
1000
MVIEW
1002
{
1070
    16
1010
0.0
1020
0.0
1030
0.0
1010
0.0
1020
0.0
1030
1.0
1040
0.0
1040
594.0
1040
0.0
1040
0.0
1040
50.0
1040
0.0
1040
0.0
1070
     0
1070
   100
1070
     0
1070
     1
1070
     0
1070
     0
1070
     0
1070
     0
1040
0.0
1040
0.0
1040
0.0
1040
0.5
1040
0.5
1040
0.5
1040
0.5
1070
     0
1002
{
1002
}
1002
}
  0
INSERT
  8
0
  5
CF
  2
*X0
 10
317.136546
 20
293.589285
 30
0.0
  0
INSERT
  8
0
  5
D0
  2
*X1
 10
312.136546
 20
287.877532
 30
0.0
  0
INSERT
  8
0
  5
D1
  2
*X2
 10
365.136546
 20
187.589285
 30
0.0
  0
INSERT
  8
0
  5
D2
  2
*X3
 10
315.136546
 20
187.589285
 30
0.0
  0
DIMENSION
  8
0
  5
D3
  2
*D4
 10
420.0
 20
246.483408
 30
0.0
 11
420.0
 21
246.483408
 31
0.0
  1
120
 13
373.136546
 23
305.377532
 33
0.0
 14
365.136546
 24
187.589285
 34
0.0
 50
90.0
  3
LC-DIM-L-0090-02-02
  0
DIMENSION
  8
0
  5
D4
  2
*D5
 10
342.636546
 20
140.0
 30
0.0
 11
342.636546
 21
140.0
 31
0.0
  1
DN50
 13
317.636546
 23
190.089285
 33
0.0
 14
367.636546
 24
190.089285
 34
0.0
  3
LC-DIM-L-0090-02-02
  0
INSERT
  8
0
  5
D5
  2
*X6
 10
364.136546
 20
293.589285
 30
0.0
  0
INSERT
  8
0
  5
D6
  2
*X7
 10
367.636546
 20
287.877532
 30
0.0
  0
LINE
  8
LC-001-002-----0
  5
D9
 10
342.636546
 20
305.377532
 30
0.0
 11
342.636546
 21
187.589285
 31
0.0
  0
LINE
  8
LC-001-002-----0
  6
CONTINUOUS
 62
     1
  5
DA
 10
367.636546
 20
290.589285
 30
0.0
 11
367.636546
 21
285.589285
 31
0.0
  0
LINE
  8
LC-001-002-----0
  6
CONTINUOUS
 62
     1
  5
DB
 10
317.636546
 20
290.589285
 30
0.0
 11
317.636546
 21
285.589285
 31
0.0
  0
LINE
  8
LC-001-002-----0
  6
CONTINUOUS
 62
     1
  5
DC
 10
365.136546
 20
293.089285
 30
0.0
 11
365.136546
 21
187.589285
 31
0.0
  0
LINE
  8
LC-001-002-----0
  6
CONTINUOUS
 62
     1
  5
DD
 10
320.136546
 20
293.089285
 30
0.0
 11
320.136546
 21
187.589285
 31
0.0
  0
LINE
  8
LC-001-002-----0
  6
CONTINUOUS
 62
     1
  5
DE
 10
320.136546
 20
187.589285
 30
0.0
 11
365.136546
 21
187.589285
 31
0.0
  0
LINE
  8
LC-001-002-----0
  6
CONTINUOUS
 62
     1
  5
DF
 10
320.136546
 20
187.589285
 30
0.0
 11
317.636546
 21
190.089285
 31
0.0
  0
LINE
  8
LC-001-002-----0
  6
CONTINUOUS
 62
     1
  5
E0
 10
365.136546
 20
187.589285
 30
0.0
 11
367.636546
 21
190.089285
 31
0.0
  0
LINE
  8
LC-001-002-----0
  6
CONTINUOUS
 62
     1
  5
E1
 10
317.136546
 20
295.589285
 30
0.0
 11
342.636546
 21
295.589285
 31
0.0
  0
LINE
  8
LC-001-002-----0
  6
CONTINUOUS
 62
     1
  5
E2
 10
317.136546
 20
293.589285
 30
0.0
 11
342.636546
 21
293.589285
 31
0.0
  0
LINE
  8
LC-001-002-----0
  6
CONTINUOUS
 62
     1
  5
E3
 10
321.136546
 20
295.589285
 30
0.0
 11
321.136546
 21
293.589285
 31
0.0
  0
LINE
  8
LC-001-002-----0
  6
CONTINUOUS
 62
     1
  5
E4
 10
318.136546
 20
293.089285
 30
0.0
 11
367.136546
 21
293.089285
 31
0.0
  0
LINE
  8
LC-001-002-----0
  6
CONTINUOUS
 62
     1
  5
E5
 10
317.136546
 20
295.589285
 30
0.0
 11
317.136546
 21
293.589285
 31
0.0
  0
LINE
  8
LC-001-002-----0
  6
CONTINUOUS
 62
     1
  5
E6
 10
317.636546
 20
279.589285
 30
0.0
 11
315.136546
 21
285.589285
 31
0.0
  0
LINE
  8
LC-001-002-----0
  6
CONTINUOUS
 62
     1
  5
E7
 10
317.636546
 20
285.589285
 30
0.0
 11
315.136546
 21
285.589285
 31
0.0
  0
LINE
  8
LC-001-002-----0
  6
CONTINUOUS
 62
     1
  5
E8
 10
317.636546
 20
290.589285
 30
0.0
 11
316.636546
 21
290.589285
 31
0.0
  0
LINE
  8
LC-001-002-----0
  6
CONTINUOUS
 62
     1
  5
E9
 10
316.636546
 20
291.589285
 30
0.0
 11
316.636546
 21
290.589285
 31
0.0
  0
ARC
  8
LC-003-002-RND-0
  6
CONTINUOUS
  5
EB
 10
318.136546
 20
291.589285
 30
0.0
 40
1.5
 50
90.0
 51
180.0
  0
LINE
  8
LC-001-002-----0
  6
CONTINUOUS
 62
     1
  5
EC
 10
368.636546
 20
291.589285
 30
0.0
 11
368.636546
 21
290.589285
 31
0.0
  0
LINE
  8
LC-001-002-----0
  6
CONTINUOUS
 62
     1
  5
ED
 10
315.386546
 20
289.627532
 30
0.0
 11
316.636546
 21
290.877532
 31
0.0
  0
LINE
  8
LC-001-002-----0
  6
CONTINUOUS
 62
     1
  5
EE
 10
315.386546
 20
289.627532
 30
0.0
 11
317.35223
 21
289.627532
 31
0.0
  0
LINE
  8
LC-001-002-----0
  6
CONTINUOUS
 62
     1
  5
EF
 10
367.636546
 20
290.589285
 30
0.0
 11
368.636546
 21
290.589285
 31
0.0
  0
ARC
  8
LC-003-002-RND-0
  6
CONTINUOUS
  5
F0
 10
315.85223
 20
289.377532
 30
0.0
 40
1.5
 50
270.0
 51
0.0
  0
ARC
  8
LC-003-002-RND-0
  6
CONTINUOUS
  5
F1
 10
367.136546
 20
291.589285
 30
0.0
 40
1.5
 50
0.0
 51
90.0
  0
LINE
  8
LC-001-002-----0
  6
CONTINUOUS
 62
     1
  5
F2
 10
367.636546
 20
279.589285
 30
0.0
 11
367.636546
 21
190.089285
 31
0.0
  0
ARC
  8
LC-003-002-RND-0
  6
CONTINUOUS
  5
F3
 10
315.636546
 20
289.877532
 30
0.0
 40
2.0
 50
180.0
 51
270.0
  0
LINE
  8
LC-001-002-----0
  6
CONTINUOUS
 62
     1
  5
F4
 10
371.636546
 20
303.877532
 30
0.0
 11
371.636546
 21
289.877532
 31
0.0
  0
LINE
  8
LC-001-002-----0
  6
CONTINUOUS
 62
     1
  5
F5
 10
313.636546
 20
303.877532
 30
0.0
 11
313.636546
 21
289.877532
 31
0.0
  0
LINE
  8
LC-001-002-----0
  6
CONTINUOUS
 62
     1
  5
F6
 10
313.636546
 20
303.877532
 30
0.0
 11
312.136546
 21
303.877532
 31
0.0
  0
LINE
  8
LC-001-002-----0
  6
CONTINUOUS
 62
     1
  5
F7
 10
312.136546
 20
305.377532
 30
0.0
 11
312.136546
 21
303.877532
 31
0.0
  0
LINE
  8
LC-001-002-----0
  6
CONTINUOUS
 62
     1
  5
F8
 10
315.386546
 20
305.377532
 30
0.0
 11
316.636546
 21
304.127532
 31
0.0
  0
LINE
  8
LC-001-002-----0
  6
CONTINUOUS
 62
     1
  5
F9
 10
373.136546
 20
305.377532
 30
0.0
 11
373.136546
 21
303.877532
 31
0.0
  0
LINE
  8
LC-001-002-----0
  6
CONTINUOUS
 62
     1
  5
FA
 10
316.636546
 20
304.127532
 30
0.0
 11
316.636546
 21
290.877532
 31
0.0
  0
LINE
  8
LC-001-002-----0
  6
CONTINUOUS
 62
     1
  5
FB
 10
371.636546
 20
303.877532
 30
0.0
 11
373.136546
 21
303.877532
 31
0.0
  0
LINE
  8
LC-001-002-----0
  6
CONTINUOUS
 62
     1
  5
FC
 10
367.636546
 20
285.589285
 30
0.0
 11
370.136546
 21
285.589285
 31
0.0
  0
LINE
  8
LC-001-002-----0
  6
CONTINUOUS
 62
     1
  5
FD
 10
312.136546
 20
305.377532
 30
0.0
 11
373.136546
 21
305.377532
 31
0.0
  0
LINE
  8
LC-001-002-----0
  6
CONTINUOUS
 62
     1
  5
FE
 10
315.386546
 20
289.627532
 30
0.0
 11
315.386546
 21
305.377532
 31
0.0
  0
LINE
  8
LC-001-002-----0
  6
CONTINUOUS
 62
     1
  5
FF
 10
316.636546
 20
304.127532
 30
0.0
 11
368.636546
 21
304.127532
 31
0.0
  0
LINE
  8
LC-001-002-----0
  6
CONTINUOUS
 62
     1
  5
100
 10
317.35223
 20
289.627532
 30
0.0
 11
317.35223
 21
289.377532
 31
0.0
  0
LINE
  8
LC-001-002-----0
  6
CONTINUOUS
 62
     1
  5
101
 10
315.636546
 20
287.877532
 30
0.0
 11
315.85223
 21
287.877532
 31
0.0
  0
LINE
  8
LC-001-002-----0
  6
CONTINUOUS
 62
     1
  5
102
 10
317.636546
 20
279.589285
 30
0.0
 11
317.636546
 21
190.089285
 31
0.0
  0
LINE
  8
LC-001-002-----0
  6
CONTINUOUS
 62
     1
  5
103
 10
367.920863
 20
289.377532
 30
0.0
 11
367.920863
 21
289.627532
 31
0.0
  0
LINE
  8
LC-001-002-----0
  6
CONTINUOUS
 62
     1
  5
104
 10
368.136546
 20
295.589285
 30
0.0
 11
342.636546
 21
295.589285
 31
0.0
  0
LINE
  8
LC-001-002-----0
  6
CONTINUOUS
 62
     1
  5
105
 10
368.136546
 20
293.589285
 30
0.0
 11
342.636546
 21
293.589285
 31
0.0
  0
LINE
  8
LC-001-002-----0
  6
CONTINUOUS
 62
     1
  5
106
 10
364.136546
 20
295.589285
 30
0.0
 11
364.136546
 21
293.589285
 31
0.0
  0
LINE
  8
LC-001-002-----0
  6
CONTINUOUS
 62
     1
  5
107
 10
368.136546
 20
295.589285
 30
0.0
 11
368.136546
 21
293.589285
 31
0.0
  0
ARC
  8
LC-003-002-RND-0
  6
CONTINUOUS
  5
108
 10
369.636546
 20
289.877532
 30
0.0
 40
2.0
 50
270.0
 51
0.0
  0
ARC
  8
LC-003-002-RND-0
  6
CONTINUOUS
  5
109
 10
369.420863
 20
289.377532
 30
0.0
 40
1.5
 50
180.0
 51
270.0
  0
LINE
  8
LC-001-002-----0
  6
CONTINUOUS
 62
     1
  5
10A
 10
369.886546
 20
289.627532
 30
0.0
 11
367.920863
 21
289.627532
 31
0.0
  0
LINE
  8
LC-001-002-----0
  6
CONTINUOUS
 62
     1
  5
10B
 10
369.886546
 20
305.377532
 30
0.0
 11
369.886546
 21
289.627532
 31
0.0
  0
LINE
  8
LC-001-002-----0
  6
CONTINUOUS
 62
     1
  5
10C
 10
369.886546
 20
289.627532
 30
0.0
 11
368.636546
 21
290.877532
 31
0.0
  0
LINE
  8
LC-001-002-----0
  6
CONTINUOUS
 62
     1
  5
10D
 10
368.636546
 20
304.127532
 30
0.0
 11
368.636546
 21
290.877532
 31
0.0
  0
LINE
  8
LC-001-002-----0
  6
CONTINUOUS
 62
     1
  5
10E
 10
369.886546
 20
305.377532
 30
0.0
 11
368.636546
 21
304.127532
 31
0.0
  0
LINE
  8
LC-001-002-----0
  6
CONTINUOUS
 62
     1
  5
10F
 10
369.420863
 20
287.877532
 30
0.0
 11
369.636546
 21
287.877532
 31
0.0
  0
LINE
  8
LC-001-002-----0
  6
CONTINUOUS
 62
     1
  5
110
 10
367.636546
 20
279.589285
 30
0.0
 11
370.136546
 21
285.589285
 31
0.0
  0
ENDSEC
  0
EOF
