  0
SECTION
  2
HEADER
  9
$ACADVER
  1
AC1015
  9
$ACADMAINTVER
 70
     6
  9
$DWGCODEPAGE
  3
ANSI_1252
  9
$INSBASE
 10
0.0
 20
0.0
 30
0.0
  9
$EXTMIN
 10
-209.751756
 20
-147.978432
 30
0.0
  9
$EXTMAX
 10
630.248244
 20
446.021568
 30
0.0
  9
$LIMMIN
 10
-209.751756
 20
-147.978432
  9
$LIMMAX
 10
630.248244
 20
446.021568
  9
$ORTHOMODE
 70
     0
  9
$REGENMODE
 70
     1
  9
$FILLMODE
 70
     1
  9
$QTEXTMODE
 70
     0
  9
$MIRRTEXT
 70
     1
  9
$LTSCALE
 40
2.0
  9
$ATTMODE
 70
     1
  9
$TEXTSIZE
 40
2.5
  9
$TRACEWID
 40
1.0
  9
$TEXTSTYLE
  7
Standard
  9
$CLAYER
  8
0
  9
$CELTYPE
  6
ByLayer
  9
$CECOLOR
 62
     7
  9
$CELTSCALE
 40
1.0
  9
$DISPSILH
 70
     0
  9
$DIMSCALE
 40
2.0
  9
$DIMASZ
 40
3.5
  9
$DIMEXO
 40
0.625
  9
$DIMDLI
 40
3.75
  9
$DIMRND
 40
0.0
  9
$DIMDLE
 40
0.0
  9
$DIMEXE
 40
1.25
  9
$DIMTP
 40
0.0
  9
$DIMTM
 40
0.0
  9
$DIMTXT
 40
3.5
  9
$DIMCEN
 40
2.5
  9
$DIMTSZ
 40
0.0
  9
$DIMTOL
 70
     0
  9
$DIMLIM
 70
     0
  9
$DIMTIH
 70
     0
  9
$DIMTOH
 70
     0
  9
$DIMSE1
 70
     0
  9
$DIMSE2
 70
     0
  9
$DIMTAD
 70
     1
  9
$DIMZIN
 70
     8
  9
$DIMBLK
  1

  9
$DIMASO
 70
     1
  9
$DIMSHO
 70
     1
  9
$DIMPOST
  1

  9
$DIMAPOST
  1

  9
$DIMALT
 70
     0
  9
$DIMALTD
 70
     3
  9
$DIMALTF
 40
0.03937
  9
$DIMLFAC
 40
1.0
  9
$DIMTOFL
 70
     1
  9
$DIMTVP
 40
0.0
  9
$DIMTIX
 70
     0
  9
$DIMSOXD
 70
     0
  9
$DIMSAH
 70
     0
  9
$DIMBLK1
  1

  9
$DIMBLK2
  1

  9
$DIMSTYLE
  2
ISO-25
  9
$DIMCLRD
 70
     0
  9
$DIMCLRE
 70
     0
  9
$DIMCLRT
 70
     0
  9
$DIMTFAC
 40
1.0
  9
$DIMGAP
 40
0.625
  9
$DIMJUST
 70
     0
  9
$DIMSD1
 70
     0
  9
$DIMSD2
 70
     0
  9
$DIMTOLJ
 70
     0
  9
$DIMTZIN
 70
     8
  9
$DIMALTZ
 70
     0
  9
$DIMALTTZ
 70
     0
  9
$DIMUPT
 70
     0
  9
$DIMDEC
 70
     2
  9
$DIMTDEC
 70
     2
  9
$DIMALTU
 70
     2
  9
$DIMALTTD
 70
     3
  9
$DIMTXSTY
  7
Standard
  9
$DIMAUNIT
 70
     0
  9
$DIMADEC
 70
     0
  9
$DIMALTRND
 40
0.0
  9
$DIMAZIN
 70
     0
  9
$DIMDSEP
 70
    44
  9
$DIMATFIT
 70
     3
  9
$DIMFRAC
 70
     0
  9
$DIMLDRBLK
  1

  9
$DIMLUNIT
 70
     2
  9
$DIMLWD
 70
    -2
  9
$DIMLWE
 70
    -2
  9
$DIMTMOVE
 70
     0
  9
$LUNITS
 70
     2
  9
$LUPREC
 70
     4
  9
$SKETCHINC
 40
1.0
  9
$FILLETRAD
 40
10.0
  9
$AUNITS
 70
     0
  9
$AUPREC
 70
     0
  9
$MENU
  1
.
  9
$ELEVATION
 40
0.0
  9
$PELEVATION
 40
0.0
  9
$THICKNESS
 40
0.0
  9
$LIMCHECK
 70
     0
  9
$CHAMFERA
 40
10.0
  9
$CHAMFERB
 40
10.0
  9
$CHAMFERC
 40
20.0
  9
$CHAMFERD
 40
0.0
  9
$SKPOLY
 70
     0
  9
$TDCREATE
 40
2456738.255125
  9
$TDUCREATE
 40
2456738.213458333
  9
$TDUPDATE
 40
2456738.255125012
  9
$TDUUPDATE
 40
2456738.213458345
  9
$TDINDWG
 40
0.0000000116
  9
$TDUSRTIMER
 40
0.0000000116
  9
$USRTIMER
 70
     1
  9
$ANGBASE
 50
0.0
  9
$ANGDIR
 70
     0
  9
$PDMODE
 70
     0
  9
$PDSIZE
 40
0.0
  9
$PLINEWID
 40
0.0
  9
$SPLFRAME
 70
     0
  9
$SPLINETYPE
 70
     6
  9
$SPLINESEGS
 70
     8
  9
$HANDSEED
  5
3AE
  9
$SURFTAB1
 70
     6
  9
$SURFTAB2
 70
     6
  9
$SURFTYPE
 70
     6
  9
$SURFU
 70
     6
  9
$SURFV
 70
     6
  9
$UCSBASE
  2

  9
$UCSNAME
  2

  9
$UCSORG
 10
0.0
 20
0.0
 30
0.0
  9
$UCSXDIR
 10
1.0
 20
0.0
 30
0.0
  9
$UCSYDIR
 10
0.0
 20
1.0
 30
0.0
  9
$UCSORTHOREF
  2

  9
$UCSORTHOVIEW
 70
     0
  9
$UCSORGTOP
 10
0.0
 20
0.0
 30
0.0
  9
$UCSORGBOTTOM
 10
0.0
 20
0.0
 30
0.0
  9
$UCSORGLEFT
 10
0.0
 20
0.0
 30
0.0
  9
$UCSORGRIGHT
 10
0.0
 20
0.0
 30
0.0
  9
$UCSORGFRONT
 10
0.0
 20
0.0
 30
0.0
  9
$UCSORGBACK
 10
0.0
 20
0.0
 30
0.0
  9
$PUCSBASE
  2

  9
$PUCSNAME
  2

  9
$PUCSORG
 10
0.0
 20
0.0
 30
0.0
  9
$PUCSXDIR
 10
1.0
 20
0.0
 30
0.0
  9
$PUCSYDIR
 10
0.0
 20
1.0
 30
0.0
  9
$PUCSORTHOREF
  2

  9
$PUCSORTHOVIEW
 70
     0
  9
$PUCSORGTOP
 10
0.0
 20
0.0
 30
0.0
  9
$PUCSORGBOTTOM
 10
0.0
 20
0.0
 30
0.0
  9
$PUCSORGLEFT
 10
0.0
 20
0.0
 30
0.0
  9
$PUCSORGRIGHT
 10
0.0
 20
0.0
 30
0.0
  9
$PUCSORGFRONT
 10
0.0
 20
0.0
 30
0.0
  9
$PUCSORGBACK
 10
0.0
 20
0.0
 30
0.0
  9
$USERI1
 70
     0
  9
$USERI2
 70
     0
  9
$USERI3
 70
     0
  9
$USERI4
 70
     0
  9
$USERI5
 70
     0
  9
$USERR1
 40
0.0
  9
$USERR2
 40
0.0
  9
$USERR3
 40
0.0
  9
$USERR4
 40
0.0
  9
$USERR5
 40
0.0
  9
$WORLDVIEW
 70
     1
  9
$SHADEDGE
 70
     3
  9
$SHADEDIF
 70
    70
  9
$TILEMODE
 70
     1
  9
$MAXACTVP
 70
    64
  9
$PINSBASE
 10
0.0
 20
0.0
 30
0.0
  9
$PLIMCHECK
 70
     0
  9
$PEXTMIN
 10
-209.751756
 20
-147.978432
 30
0.0
  9
$PEXTMAX
 10
630.248244
 20
446.021568
 30
0.0
  9
$PLIMMIN
 10
-209.751756
 20
-147.978432
  9
$PLIMMAX
 10
630.248244
 20
446.021568
  9
$UNITMODE
 70
     0
  9
$VISRETAIN
 70
     1
  9
$PLINEGEN
 70
     0
  9
$PSLTSCALE
 70
     1
  9
$TREEDEPTH
 70
  3020
  9
$CMLSTYLE
  2
Standard
  9
$CMLJUST
 70
     0
  9
$CMLSCALE
 40
20.0
  9
$PROXYGRAPHICS
 70
     1
  9
$MEASUREMENT
 70
     1
  9
$CELWEIGHT
370
    -1
  9
$ENDCAPS
280
     0
  9
$JOINSTYLE
280
     0
  9
$LWDISPLAY
290
     0
  9
$INSUNITS
 70
     4
  9
$HYPERLINKBASE
  1

  9
$STYLESHEET
  1

  9
$XEDIT
290
     1
  9
$CEPSNTYPE
380
     0
  9
$PSTYLEMODE
290
     1
  9
$FINGERPRINTGUID
  2
{FAEB1C30-E019-11D5-929B-00C0DF256EC4}
  9
$VERSIONGUID
  2
{FAEB1C32-E019-11D5-929B-00C0DF256EC4}
  9
$EXTNAMES
290
     1
  9
$PSVPSCALE
 40
0.0
  9
$OLESTARTUP
290
     0
  0
ENDSEC
  0
SECTION
  2
CLASSES
  0
CLASS
  1
ACDBDICTIONARYWDFLT
  2
AcDbDictionaryWithDefault
  3
ObjectDBX Classes
 90
        0
280
     0
281
     0
  0
CLASS
  1
ACDBPLACEHOLDER
  2
AcDbPlaceHolder
  3
ObjectDBX Classes
 90
        0
280
     0
281
     0
  0
CLASS
  1
LAYOUT
  2
AcDbLayout
  3
ObjectDBX Classes
 90
        0
280
     0
281
     0
  0
ENDSEC
  0
SECTION
  2
TABLES
  0
TABLE
  2
VPORT
  5
8
330
0
100
AcDbSymbolTable
 70
     2
  0
VPORT
  5
29
330
8
100
AcDbSymbolTableRecord
100
AcDbViewportTableRecord
  2
*ACTIVE
 70
     0
 10
0.0
 20
0.0
 11
1.0
 21
1.0
 12
210.248244
 22
149.021568
 13
0.0
 23
0.0
 14
1.0
 24
1.0
 15
0.0
 25
0.0
 16
0.0
 26
0.0
 36
1.0
 17
0.0
 27
0.0
 37
0.0
 40
594.0
 41
1.414141
 42
50.0
 43
0.0
 44
0.0
 50
0.0
 51
0.0
 71
    16
 72
   100
 73
     1
 74
     0
 75
     0
 76
     0
 77
     0
 78
     0
281
     0
 65
     0
110
0.0
120
0.0
130
0.0
111
1.0
121
0.0
131
0.0
112
0.0
122
1.0
132
0.0
 79
     0
146
0.0
  0
ENDTAB
  0
TABLE
  2
LTYPE
  5
5
330
0
100
AcDbSymbolTable
 70
     3
  0
LTYPE
  5
14
330
5
100
AcDbSymbolTableRecord
100
AcDbLinetypeTableRecord
  2
ByBlock
 70
     0
  3

 72
    65
 73
     0
 40
0.0
  0
LTYPE
  5
15
330
5
100
AcDbSymbolTableRecord
100
AcDbLinetypeTableRecord
  2
ByLayer
 70
     0
  3

 72
    65
 73
     0
 40
0.0
  0
LTYPE
  5
16
330
5
100
AcDbSymbolTableRecord
100
AcDbLinetypeTableRecord
  2
Continuous
 70
     0
  3
Solid line
 72
    65
 73
     0
 40
0.0
  0
LTYPE
  5
2A
330
5
100
AcDbSymbolTableRecord
100
AcDbLinetypeTableRecord
  2
DASHED
 70
     0
  3
__ __ __ __ __
 72
    65
 73
     2
 40
6.25
 49
5.0
 74
     4
 75
     0
340
0
 46
1.0
 50
0.0
 44
0.0
 45
0.0
 49
-1.25
 74
     4
 75
     0
340
0
 46
1.0
 50
0.0
 44
0.0
 45
0.0
  0
LTYPE
  5
39D
330
5
100
AcDbSymbolTableRecord
100
AcDbLinetypeTableRecord
  2
DASHDOT
 70
     0
  3
__ . __ . __ . __ . __
 72
    65
 73
     4
 40
7.5
 49
5.0
 74
     4
 75
     0
340
0
 46
1.0
 50
0.0
 44
0.0
 45
0.0
 49
-1.25
 74
     4
 75
     0
340
0
 46
1.0
 50
0.0
 44
0.0
 45
0.0
 49
0.0
 74
     4
 75
     0
340
0
 46
1.0
 50
0.0
 44
0.0
 45
0.0
 49
-1.25
 74
     4
 75
     0
340
0
 46
1.0
 50
0.0
 44
0.0
 45
0.0
  0
ENDTAB
  0
TABLE
  2
LAYER
  5
2
330
0
100
AcDbSymbolTable
 70
     8
  0
LAYER
  5
10
330
2
100
AcDbSymbolTableRecord
100
AcDbLayerTableRecord
  2
0
 70
     0
 62
     7
  6
Continuous
370
    -3
390
F
  0
LAYER
  5
2B
330
2
100
AcDbSymbolTableRecord
100
AcDbLayerTableRecord
  2
LC-INFO-1-2-mm-A3-0
 70
     1
 62
     7
  6
ByBlock
370
    -3
390
F
  0
LAYER
  5
2C
330
2
100
AcDbSymbolTableRecord
100
AcDbLayerTableRecord
  2
LC-CUT-HIDDEN
 70
     0
 62
     7
  6
DASHED
370
    -3
390
F
  0
LAYER
  5
2D
330
2
100
AcDbSymbolTableRecord
100
AcDbLayerTableRecord
  2
LC-VIEWPORT
 70
     0
 62
     7
  6
ByBlock
370
    -3
390
F
  0
LAYER
  5
2E
330
2
100
AcDbSymbolTableRecord
100
AcDbLayerTableRecord
  2
LC-3D-HIDDEN
 70
     0
 62
     9
  6
DASHED
370
    -3
390
F
  0
LAYER
  5
31
330
2
100
AcDbSymbolTableRecord
100
AcDbLayerTableRecord
  2
LC-001-100-D00-0
 70
     0
 62
     1
  6
ByBlock
370
    -3
390
F
  0
LAYER
  5
383
330
2
100
AcDbSymbolTableRecord
100
AcDbLayerTableRecord
  2
Defpoints
 70
     0
 62
     7
  6
Continuous
290
     0
370
    -3
390
F
  0
LAYER
  5
3A0
330
2
100
AcDbSymbolTableRecord
100
AcDbLayerTableRecord
  2
LC-002-003-----0
 70
     0
 62
     2
  6
ByBlock
370
    -3
390
F
  0
ENDTAB
  0
TABLE
  2
STYLE
  5
3
330
0
100
AcDbSymbolTable
 70
     4
  0
STYLE
  5
11
330
3
100
AcDbSymbolTableRecord
100
AcDbTextStyleTableRecord
  2
Standard
 70
     0
 40
0.0
 41
1.0
 50
0.0
 71
     0
 42
2.5
  3
txt
  4

  0
STYLE
  5
2F
330
3
100
AcDbSymbolTableRecord
100
AcDbTextStyleTableRecord
  2
LCTX0-400-0-0pDIN-Schrift
 70
     0
 40
0.0
 41
0.75
 50
0.0
 71
     0
 42
3.5
  3
TXT
  4

  0
STYLE
  5
30
330
3
100
AcDbSymbolTableRecord
100
AcDbTextStyleTableRecord
  2
LCTX15-400-0-0-Arial
 70
     0
 40
0.0
 41
0.8
 50
0.0
 71
     0
 42
3.5
  3

  4

1001
ACAD
1000
Arial
1071
 16777218
  0
STYLE
  5
380
330
3
100
AcDbSymbolTableRecord
100
AcDbTextStyleTableRecord
  2
LCTX15-400-0-0pDIN-Schrift
 70
     0
 40
2.5
 41
0.8
 50
15.0
 71
     0
 42
3.5
  3
STANDARD
  4

  0
ENDTAB
  0
TABLE
  2
VIEW
  5
6
330
0
100
AcDbSymbolTable
 70
     0
  0
ENDTAB
  0
TABLE
  2
UCS
  5
7
330
0
100
AcDbSymbolTable
 70
     0
  0
ENDTAB
  0
TABLE
  2
APPID
  5
9
330
0
100
AcDbSymbolTable
 70
     1
  0
APPID
  5
12
330
9
100
AcDbSymbolTableRecord
100
AcDbRegAppTableRecord
  2
ACAD
 70
     0
  0
ENDTAB
  0
TABLE
  2
DIMSTYLE
  5
A
330
0
100
AcDbSymbolTable
 70
     3
100
AcDbDimStyleTable
  0
DIMSTYLE
105
27
330
A
100
AcDbSymbolTableRecord
100
AcDbDimStyleTableRecord
  2
ISO-25
 70
     0
 41
2.5
 42
0.625
 43
3.75
 44
1.25
 73
     0
 74
     0
 77
     1
 78
     8
140
2.5
141
2.5
143
0.03937
147
0.625
171
     3
172
     1
271
     2
272
     2
274
     3
278
    44
283
     0
284
     8
340
11
  0
DIMSTYLE
105
381
102
{ACAD_REACTORS
330
382
330
390
102
}
330
A
100
AcDbSymbolTableRecord
100
AcDbDimStyleTableRecord
  2
LC-DIM-L-0140-00-02
 70
     0
 40
2.0
 41
14.0
 42
0.0
 43
7.5
 44
1.8
 73
     0
 74
     0
 77
     1
 78
     8
140
14.0
141
0.0
146
0.71
147
1.5
176
     2
177
     2
178
     2
271
     0
278
    44
289
     1
340
380
  0
DIMSTYLE
105
39F
102
{ACAD_REACTORS
330
3A1
102
}
330
A
100
AcDbSymbolTableRecord
100
AcDbDimStyleTableRecord
  2
LC-DIM-L-0140-02-02
 70
     0
 40
2.0
 41
14.0
 42
0.0
 43
7.5
 44
1.8
 73
     0
 74
     0
 77
     1
 78
     8
 79
     2
140
14.0
141
0.0
146
0.71
147
1.5
176
     2
177
     2
178
     2
179
     2
271
     2
278
    44
289
     1
340
380
  0
ENDTAB
  0
TABLE
  2
BLOCK_RECORD
  5
1
330
0
100
AcDbSymbolTable
 70
    22
  0
BLOCK_RECORD
  5
1F
330
1
100
AcDbSymbolTableRecord
100
AcDbBlockTableRecord
  2
*Model_Space
340
22
  0
BLOCK_RECORD
  5
1B
330
1
100
AcDbSymbolTableRecord
100
AcDbBlockTableRecord
  2
*Paper_Space
340
1E
  0
BLOCK_RECORD
  5
23
330
1
100
AcDbSymbolTableRecord
100
AcDbBlockTableRecord
  2
*Paper_Space0
340
26
  0
BLOCK_RECORD
  5
5D
330
1
100
AcDbSymbolTableRecord
100
AcDbBlockTableRecord
  2
POLY1
340
0
102
{BLKREFS
331
9A
102
}
  0
BLOCK_RECORD
  5
9B
330
1
100
AcDbSymbolTableRecord
100
AcDbBlockTableRecord
  2
POLY2
340
0
102
{BLKREFS
331
AC
102
}
  0
BLOCK_RECORD
  5
B5
330
1
100
AcDbSymbolTableRecord
100
AcDbBlockTableRecord
  2
POLY3
340
0
102
{BLKREFS
331
C0
102
}
  0
BLOCK_RECORD
  5
C2
330
1
100
AcDbSymbolTableRecord
100
AcDbBlockTableRecord
  2
POLY4
340
0
102
{BLKREFS
331
CD
102
}
  0
BLOCK_RECORD
  5
D7
330
1
100
AcDbSymbolTableRecord
100
AcDbBlockTableRecord
  2
POLY5
340
0
102
{BLKREFS
331
E2
102
}
  0
BLOCK_RECORD
  5
E4
330
1
100
AcDbSymbolTableRecord
100
AcDbBlockTableRecord
  2
POLY6
340
0
102
{BLKREFS
331
EF
102
}
  0
BLOCK_RECORD
  5
1DF
330
1
100
AcDbSymbolTableRecord
100
AcDbBlockTableRecord
  2
POLY7
340
0
102
{BLKREFS
331
1F0
102
}
  0
BLOCK_RECORD
  5
266
330
1
100
AcDbSymbolTableRecord
100
AcDbBlockTableRecord
  2
POLY8
340
0
102
{BLKREFS
331
28F
102
}
  0
BLOCK_RECORD
  5
290
330
1
100
AcDbSymbolTableRecord
100
AcDbBlockTableRecord
  2
POLY9
340
0
102
{BLKREFS
331
2A7
102
}
  0
BLOCK_RECORD
  5
2A8
330
1
100
AcDbSymbolTableRecord
100
AcDbBlockTableRecord
  2
POLY10
340
0
102
{BLKREFS
331
2BF
102
}
  0
BLOCK_RECORD
  5
2C5
330
1
100
AcDbSymbolTableRecord
100
AcDbBlockTableRecord
  2
KLON1
340
0
102
{BLKREFS
331
2D9
102
}
  0
BLOCK_RECORD
  5
2DA
330
1
100
AcDbSymbolTableRecord
100
AcDbBlockTableRecord
  2
KLON2
340
0
102
{BLKREFS
331
2F0
102
}
  0
BLOCK_RECORD
  5
2F1
330
1
100
AcDbSymbolTableRecord
100
AcDbBlockTableRecord
  2
KLON3
340
0
102
{BLKREFS
331
2FF
102
}
  0
BLOCK_RECORD
  5
300
330
1
100
AcDbSymbolTableRecord
100
AcDbBlockTableRecord
  2
KLON4
340
0
102
{BLKREFS
331
311
102
}
  0
BLOCK_RECORD
  5
312
330
1
100
AcDbSymbolTableRecord
100
AcDbBlockTableRecord
  2
KLON5
340
0
102
{BLKREFS
331
33A
102
}
  0
BLOCK_RECORD
  5
33B
330
1
100
AcDbSymbolTableRecord
100
AcDbBlockTableRecord
  2
KLON6
340
0
102
{BLKREFS
331
359
102
}
  0
BLOCK_RECORD
  5
35A
330
1
100
AcDbSymbolTableRecord
100
AcDbBlockTableRecord
  2
KLON7
340
0
102
{BLKREFS
331
36B
102
}
  0
BLOCK_RECORD
  5
36C
330
1
100
AcDbSymbolTableRecord
100
AcDbBlockTableRecord
  2
KLON8
340
0
102
{BLKREFS
331
37F
102
}
  0
BLOCK_RECORD
  5
384
330
1
100
AcDbSymbolTableRecord
100
AcDbBlockTableRecord
  2
*D19
340
0
  0
BLOCK_RECORD
  5
391
330
1
100
AcDbSymbolTableRecord
100
AcDbBlockTableRecord
  2
*D20
340
0
  0
BLOCK_RECORD
  5
3A2
330
1
100
AcDbSymbolTableRecord
100
AcDbBlockTableRecord
  2
*D21
340
0
  0
ENDTAB
  0
ENDSEC
  0
SECTION
  2
BLOCKS
  0
BLOCK
  5
20
330
1F
100
AcDbEntity
  8
0
100
AcDbBlockBegin
  2
*Model_Space
 70
     0
 71
     0
 10
0.0
 20
0.0
 30
0.0
  3
*Model_Space
  1

  0
ENDBLK
  5
21
330
1F
100
AcDbEntity
  8
0
100
AcDbBlockEnd
  0
BLOCK
  5
1C
330
1B
100
AcDbEntity
 67
     1
  8
0
100
AcDbBlockBegin
  2
*Paper_Space
 70
     0
 71
     0
 10
0.0
 20
0.0
 30
0.0
  3
*Paper_Space
  1

  0
ENDBLK
  5
1D
330
1B
100
AcDbEntity
 67
     1
  8
0
100
AcDbBlockEnd
  0
BLOCK
  5
24
330
23
100
AcDbEntity
  8
0
100
AcDbBlockBegin
  2
*Paper_Space0
 70
     0
 71
     0
 10
0.0
 20
0.0
 30
0.0
  3
*Paper_Space0
  1

  0
ENDBLK
  5
25
330
23
100
AcDbEntity
  8
0
100
AcDbBlockEnd
  0
BLOCK
  5
5E
330
5D
100
AcDbEntity
  8
0
100
AcDbBlockBegin
  2
POLY1
 70
     0
 71
     0
 10
0.0
 20
0.0
 30
0.0
  3
POLY1
  1

  4
POLY1
  0
LINE
  5
60
330
5D
100
AcDbEntity
  8
LC-001-100-D00-0
 62
     7
370
    50
100
AcDbLine
 10
248.582028
 20
193.399932
 30
0.0
 11
248.582028
 21
193.399932
 31
0.0
  0
LINE
  5
61
330
5D
100
AcDbEntity
  8
LC-001-100-D00-0
 62
     7
370
    50
100
AcDbLine
 10
248.582028
 20
193.399932
 30
0.0
 11
248.582028
 21
193.347042
 31
0.0
  0
LINE
  5
62
330
5D
100
AcDbEntity
  8
LC-001-100-D00-0
 62
     7
370
    50
100
AcDbLine
 10
248.582028
 20
193.347042
 30
0.0
 11
248.582028
 21
193.347042
 31
0.0
  0
LINE
  5
63
330
5D
100
AcDbEntity
  8
LC-001-100-D00-0
 62
     7
370
    50
100
AcDbLine
 10
248.582028
 20
193.347042
 30
0.0
 11
248.582028
 21
193.116309
 31
0.0
  0
LINE
  5
64
330
5D
100
AcDbEntity
  8
LC-001-100-D00-0
 62
     7
370
    50
100
AcDbLine
 10
248.582028
 20
193.116309
 30
0.0
 11
248.582028
 21
193.116309
 31
0.0
  0
LINE
  5
65
330
5D
100
AcDbEntity
  8
LC-001-100-D00-0
 62
     7
370
    50
100
AcDbLine
 10
248.582028
 20
193.116309
 30
0.0
 11
248.582028
 21
192.320674
 31
0.0
  0
LINE
  5
66
330
5D
100
AcDbEntity
  8
LC-001-100-D00-0
 62
     7
370
    50
100
AcDbLine
 10
248.582028
 20
192.320674
 30
0.0
 11
248.582028
 21
192.320674
 31
0.0
  0
LINE
  5
67
330
5D
100
AcDbEntity
  8
LC-001-100-D00-0
 62
     7
370
    50
100
AcDbLine
 10
248.582028
 20
192.320674
 30
0.0
 11
248.582028
 21
190.831974
 31
0.0
  0
LINE
  5
68
330
5D
100
AcDbEntity
  8
LC-001-100-D00-0
 62
     7
370
    50
100
AcDbLine
 10
248.582028
 20
190.831974
 30
0.0
 11
248.582028
 21
190.831974
 31
0.0
  0
LINE
  5
69
330
5D
100
AcDbEntity
  8
LC-001-100-D00-0
 62
     7
370
    50
100
AcDbLine
 10
248.582028
 20
190.831974
 30
0.0
 11
248.582028
 21
188.579468
 31
0.0
  0
LINE
  5
6A
330
5D
100
AcDbEntity
  8
LC-001-100-D00-0
 62
     7
370
    50
100
AcDbLine
 10
248.582028
 20
188.579468
 30
0.0
 11
248.582028
 21
188.579468
 31
0.0
  0
LINE
  5
6B
330
5D
100
AcDbEntity
  8
LC-001-100-D00-0
 62
     7
370
    50
100
AcDbLine
 10
248.582028
 20
188.579468
 30
0.0
 11
248.582028
 21
185.415479
 31
0.0
  0
LINE
  5
6C
330
5D
100
AcDbEntity
  8
LC-001-100-D00-0
 62
     7
370
    50
100
AcDbLine
 10
248.582028
 20
185.415479
 30
0.0
 11
248.582028
 21
185.415479
 31
0.0
  0
LINE
  5
6D
330
5D
100
AcDbEntity
  8
LC-001-100-D00-0
 62
     7
370
    50
100
AcDbLine
 10
248.582028
 20
185.415479
 30
0.0
 11
248.582028
 21
181.895656
 31
0.0
  0
LINE
  5
6E
330
5D
100
AcDbEntity
  8
LC-001-100-D00-0
 62
     7
370
    50
100
AcDbLine
 10
248.582028
 20
181.895656
 30
0.0
 11
248.582028
 21
181.895656
 31
0.0
  0
LINE
  5
6F
330
5D
100
AcDbEntity
  8
LC-001-100-D00-0
 62
     7
370
    50
100
AcDbLine
 10
248.582028
 20
181.895656
 30
0.0
 11
248.582028
 21
178.246469
 31
0.0
  0
LINE
  5
70
330
5D
100
AcDbEntity
  8
LC-001-100-D00-0
 62
     7
370
    50
100
AcDbLine
 10
248.582028
 20
178.246469
 30
0.0
 11
248.582028
 21
178.246469
 31
0.0
  0
LINE
  5
71
330
5D
100
AcDbEntity
  8
LC-001-100-D00-0
 62
     7
370
    50
100
AcDbLine
 10
248.582028
 20
178.246469
 30
0.0
 11
248.582028
 21
174.6576
 31
0.0
  0
LINE
  5
72
330
5D
100
AcDbEntity
  8
LC-001-100-D00-0
 62
     7
370
    50
100
AcDbLine
 10
248.582028
 20
174.6576
 30
0.0
 11
248.582028
 21
174.6576
 31
0.0
  0
LINE
  5
73
330
5D
100
AcDbEntity
  8
LC-001-100-D00-0
 62
     7
370
    50
100
AcDbLine
 10
248.582028
 20
174.6576
 30
0.0
 11
248.582028
 21
170.79905
 31
0.0
  0
LINE
  5
74
330
5D
100
AcDbEntity
  8
LC-001-100-D00-0
 62
     7
370
    50
100
AcDbLine
 10
248.582028
 20
170.79905
 30
0.0
 11
248.582028
 21
170.79905
 31
0.0
  0
LINE
  5
75
330
5D
100
AcDbEntity
  8
LC-001-100-D00-0
 62
     7
370
    50
100
AcDbLine
 10
248.582028
 20
170.79905
 30
0.0
 11
248.582028
 21
166.29672
 31
0.0
  0
LINE
  5
76
330
5D
100
AcDbEntity
  8
LC-001-100-D00-0
 62
     7
370
    50
100
AcDbLine
 10
248.582028
 20
166.29672
 30
0.0
 11
248.582028
 21
166.29672
 31
0.0
  0
LINE
  5
77
330
5D
100
AcDbEntity
  8
LC-001-100-D00-0
 62
     7
370
    50
100
AcDbLine
 10
248.582028
 20
166.29672
 30
0.0
 11
248.582028
 21
161.111544
 31
0.0
  0
LINE
  5
78
330
5D
100
AcDbEntity
  8
LC-001-100-D00-0
 62
     7
370
    50
100
AcDbLine
 10
248.582028
 20
161.111544
 30
0.0
 11
248.582028
 21
161.111544
 31
0.0
  0
LINE
  5
79
330
5D
100
AcDbEntity
  8
LC-001-100-D00-0
 62
     7
370
    50
100
AcDbLine
 10
248.582028
 20
161.111544
 30
0.0
 11
248.582028
 21
155.264132
 31
0.0
  0
LINE
  5
7A
330
5D
100
AcDbEntity
  8
LC-001-100-D00-0
 62
     7
370
    50
100
AcDbLine
 10
248.582028
 20
155.264132
 30
0.0
 11
248.582028
 21
155.264132
 31
0.0
  0
LINE
  5
7B
330
5D
100
AcDbEntity
  8
LC-001-100-D00-0
 62
     7
370
    50
100
AcDbLine
 10
248.582028
 20
155.264132
 30
0.0
 11
248.582028
 21
149.758734
 31
0.0
  0
LINE
  5
7C
330
5D
100
AcDbEntity
  8
LC-001-100-D00-0
 62
     7
370
    50
100
AcDbLine
 10
248.582028
 20
149.758734
 30
0.0
 11
248.582028
 21
149.758734
 31
0.0
  0
LINE
  5
7D
330
5D
100
AcDbEntity
  8
LC-001-100-D00-0
 62
     7
370
    50
100
AcDbLine
 10
248.582028
 20
149.758734
 30
0.0
 11
248.582028
 21
144.674634
 31
0.0
  0
LINE
  5
7E
330
5D
100
AcDbEntity
  8
LC-001-100-D00-0
 62
     7
370
    50
100
AcDbLine
 10
248.582028
 20
144.674634
 30
0.0
 11
248.582028
 21
144.674634
 31
0.0
  0
LINE
  5
7F
330
5D
100
AcDbEntity
  8
LC-001-100-D00-0
 62
     7
370
    50
100
AcDbLine
 10
248.582028
 20
144.674634
 30
0.0
 11
248.582028
 21
139.969249
 31
0.0
  0
LINE
  5
80
330
5D
100
AcDbEntity
  8
LC-001-100-D00-0
 62
     7
370
    50
100
AcDbLine
 10
248.582028
 20
139.969249
 30
0.0
 11
248.582028
 21
139.969249
 31
0.0
  0
LINE
  5
81
330
5D
100
AcDbEntity
  8
LC-001-100-D00-0
 62
     7
370
    50
100
AcDbLine
 10
248.582028
 20
139.969249
 30
0.0
 11
248.582028
 21
135.161839
 31
0.0
  0
LINE
  5
82
330
5D
100
AcDbEntity
  8
LC-001-100-D00-0
 62
     7
370
    50
100
AcDbLine
 10
248.582028
 20
135.161839
 30
0.0
 11
248.582028
 21
135.161839
 31
0.0
  0
LINE
  5
83
330
5D
100
AcDbEntity
  8
LC-001-100-D00-0
 62
     7
370
    50
100
AcDbLine
 10
248.582028
 20
135.161839
 30
0.0
 11
248.582028
 21
129.680957
 31
0.0
  0
LINE
  5
84
330
5D
100
AcDbEntity
  8
LC-001-100-D00-0
 62
     7
370
    50
100
AcDbLine
 10
248.582028
 20
129.680957
 30
0.0
 11
248.582028
 21
129.680957
 31
0.0
  0
LINE
  5
85
330
5D
100
AcDbEntity
  8
LC-001-100-D00-0
 62
     7
370
    50
100
AcDbLine
 10
248.582028
 20
129.680957
 30
0.0
 11
248.582028
 21
123.615758
 31
0.0
  0
LINE
  5
86
330
5D
100
AcDbEntity
  8
LC-001-100-D00-0
 62
     7
370
    50
100
AcDbLine
 10
248.582028
 20
123.615758
 30
0.0
 11
248.582028
 21
123.615758
 31
0.0
  0
LINE
  5
87
330
5D
100
AcDbEntity
  8
LC-001-100-D00-0
 62
     7
370
    50
100
AcDbLine
 10
248.582028
 20
123.615758
 30
0.0
 11
248.582028
 21
117.054732
 31
0.0
  0
LINE
  5
88
330
5D
100
AcDbEntity
  8
LC-001-100-D00-0
 62
     7
370
    50
100
AcDbLine
 10
248.582028
 20
117.054732
 30
0.0
 11
248.582028
 21
117.054732
 31
0.0
  0
LINE
  5
89
330
5D
100
AcDbEntity
  8
LC-001-100-D00-0
 62
     7
370
    50
100
AcDbLine
 10
248.582028
 20
117.054732
 30
0.0
 11
248.582028
 21
111.213533
 31
0.0
  0
LINE
  5
8A
330
5D
100
AcDbEntity
  8
LC-001-100-D00-0
 62
     7
370
    50
100
AcDbLine
 10
248.582028
 20
111.213533
 30
0.0
 11
248.582028
 21
111.213533
 31
0.0
  0
LINE
  5
8B
330
5D
100
AcDbEntity
  8
LC-001-100-D00-0
 62
     7
370
    50
100
AcDbLine
 10
248.582028
 20
111.213533
 30
0.0
 11
248.582028
 21
106.113246
 31
0.0
  0
LINE
  5
8C
330
5D
100
AcDbEntity
  8
LC-001-100-D00-0
 62
     7
370
    50
100
AcDbLine
 10
248.582028
 20
106.113246
 30
0.0
 11
248.582028
 21
106.113246
 31
0.0
  0
LINE
  5
8D
330
5D
100
AcDbEntity
  8
LC-001-100-D00-0
 62
     7
370
    50
100
AcDbLine
 10
248.582028
 20
106.113246
 30
0.0
 11
248.582028
 21
101.747879
 31
0.0
  0
LINE
  5
8E
330
5D
100
AcDbEntity
  8
LC-001-100-D00-0
 62
     7
370
    50
100
AcDbLine
 10
248.582028
 20
101.747879
 30
0.0
 11
248.582028
 21
101.747879
 31
0.0
  0
LINE
  5
8F
330
5D
100
AcDbEntity
  8
LC-001-100-D00-0
 62
     7
370
    50
100
AcDbLine
 10
248.582028
 20
101.747879
 30
0.0
 11
248.582028
 21
97.635098
 31
0.0
  0
LINE
  5
90
330
5D
100
AcDbEntity
  8
LC-001-100-D00-0
 62
     7
370
    50
100
AcDbLine
 10
248.582028
 20
97.635098
 30
0.0
 11
248.582028
 21
97.635098
 31
0.0
  0
LINE
  5
91
330
5D
100
AcDbEntity
  8
LC-001-100-D00-0
 62
     7
370
    50
100
AcDbLine
 10
248.582028
 20
97.635098
 30
0.0
 11
248.582028
 21
93.422007
 31
0.0
  0
LINE
  5
92
330
5D
100
AcDbEntity
  8
LC-001-100-D00-0
 62
     7
370
    50
100
AcDbLine
 10
248.582028
 20
93.422007
 30
0.0
 11
248.582028
 21
93.422007
 31
0.0
  0
LINE
  5
93
330
5D
100
AcDbEntity
  8
LC-001-100-D00-0
 62
     7
370
    50
100
AcDbLine
 10
248.582028
 20
93.422007
 30
0.0
 11
248.582028
 21
89.260574
 31
0.0
  0
LINE
  5
94
330
5D
100
AcDbEntity
  8
LC-001-100-D00-0
 62
     7
370
    50
100
AcDbLine
 10
248.582028
 20
89.260574
 30
0.0
 11
248.582028
 21
89.260574
 31
0.0
  0
LINE
  5
95
330
5D
100
AcDbEntity
  8
LC-001-100-D00-0
 62
     7
370
    50
100
AcDbLine
 10
248.582028
 20
89.260574
 30
0.0
 11
248.582028
 21
85.290948
 31
0.0
  0
LINE
  5
96
330
5D
100
AcDbEntity
  8
LC-001-100-D00-0
 62
     7
370
    50
100
AcDbLine
 10
248.582028
 20
85.290948
 30
0.0
 11
248.582028
 21
85.290948
 31
0.0
  0
LINE
  5
97
330
5D
100
AcDbEntity
  8
LC-001-100-D00-0
 62
     7
370
    50
100
AcDbLine
 10
248.582028
 20
85.290948
 30
0.0
 11
248.582028
 21
83.138302
 31
0.0
  0
LINE
  5
98
330
5D
100
AcDbEntity
  8
LC-001-100-D00-0
 62
     7
370
    50
100
AcDbLine
 10
248.582028
 20
83.138302
 30
0.0
 11
248.582028
 21
83.138302
 31
0.0
  0
LINE
  5
99
330
5D
100
AcDbEntity
  8
LC-001-100-D00-0
 62
     7
370
    50
100
AcDbLine
 10
248.582028
 20
83.138302
 30
0.0
 11
248.582028
 21
82.073435
 31
0.0
  0
ENDBLK
  5
5F
330
5D
100
AcDbEntity
  8
0
100
AcDbBlockEnd
  0
BLOCK
  5
9C
330
9B
100
AcDbEntity
  8
0
100
AcDbBlockBegin
  2
POLY2
 70
     0
 71
     0
 10
0.0
 20
0.0
 30
0.0
  3
POLY2
  1

  4
POLY2
  0
LINE
  5
9E
330
9B
100
AcDbEntity
  8
LC-001-100-D00-0
 62
     7
370
    50
100
AcDbLine
 10
248.582028
 20
82.073435
 30
0.0
 11
248.582028
 21
82.073435
 31
0.0
  0
LINE
  5
9F
330
9B
100
AcDbEntity
  8
LC-001-100-D00-0
 62
     7
370
    50
100
AcDbLine
 10
248.582028
 20
82.073435
 30
0.0
 11
248.582028
 21
81.296109
 31
0.0
  0
LINE
  5
A0
330
9B
100
AcDbEntity
  8
LC-001-100-D00-0
 62
     7
370
    50
100
AcDbLine
 10
248.582028
 20
81.296109
 30
0.0
 11
248.582028
 21
81.296109
 31
0.0
  0
LINE
  5
A1
330
9B
100
AcDbEntity
  8
LC-001-100-D00-0
 62
     7
370
    50
100
AcDbLine
 10
248.582028
 20
81.296109
 30
0.0
 11
248.582028
 21
79.738037
 31
0.0
  0
LINE
  5
A2
330
9B
100
AcDbEntity
  8
LC-001-100-D00-0
 62
     7
370
    50
100
AcDbLine
 10
248.582028
 20
79.738037
 30
0.0
 11
248.582028
 21
79.738037
 31
0.0
  0
LINE
  5
A3
330
9B
100
AcDbEntity
  8
LC-001-100-D00-0
 62
     7
370
    50
100
AcDbLine
 10
248.582028
 20
79.738037
 30
0.0
 11
248.582028
 21
77.878053
 31
0.0
  0
LINE
  5
A4
330
9B
100
AcDbEntity
  8
LC-001-100-D00-0
 62
     7
370
    50
100
AcDbLine
 10
248.582028
 20
77.878053
 30
0.0
 11
248.582028
 21
77.878053
 31
0.0
  0
LINE
  5
A5
330
9B
100
AcDbEntity
  8
LC-001-100-D00-0
 62
     7
370
    50
100
AcDbLine
 10
248.582028
 20
77.878053
 30
0.0
 11
248.582028
 21
76.415167
 31
0.0
  0
LINE
  5
A6
330
9B
100
AcDbEntity
  8
LC-001-100-D00-0
 62
     7
370
    50
100
AcDbLine
 10
248.582028
 20
76.415167
 30
0.0
 11
248.582028
 21
76.415167
 31
0.0
  0
LINE
  5
A7
330
9B
100
AcDbEntity
  8
LC-001-100-D00-0
 62
     7
370
    50
100
AcDbLine
 10
248.582028
 20
76.415167
 30
0.0
 11
248.582028
 21
75.491444
 31
0.0
  0
LINE
  5
A8
330
9B
100
AcDbEntity
  8
LC-001-100-D00-0
 62
     7
370
    50
100
AcDbLine
 10
248.582028
 20
75.491444
 30
0.0
 11
248.582028
 21
75.491444
 31
0.0
  0
LINE
  5
A9
330
9B
100
AcDbEntity
  8
LC-001-100-D00-0
 62
     7
370
    50
100
AcDbLine
 10
248.582028
 20
75.491444
 30
0.0
 11
248.582028
 21
75.210947
 31
0.0
  0
LINE
  5
AA
330
9B
100
AcDbEntity
  8
LC-001-100-D00-0
 62
     7
370
    50
100
AcDbLine
 10
248.582028
 20
75.210947
 30
0.0
 11
248.582028
 21
75.210947
 31
0.0
  0
LINE
  5
AB
330
9B
100
AcDbEntity
  8
LC-001-100-D00-0
 62
     7
370
    50
100
AcDbLine
 10
248.582028
 20
75.210947
 30
0.0
 11
248.582028
 21
75.124346
 31
0.0
  0
ENDBLK
  5
9D
330
9B
100
AcDbEntity
  8
0
100
AcDbBlockEnd
  0
BLOCK
  5
B6
330
B5
100
AcDbEntity
  8
0
100
AcDbBlockBegin
  2
POLY3
 70
     0
 71
     0
 10
0.0
 20
0.0
 30
0.0
  3
POLY3
  1

  4
POLY3
  0
LINE
  5
B8
330
B5
100
AcDbEntity
  8
LC-001-100-D00-0
 62
     7
370
    50
100
AcDbLine
 10
253.582023
 20
75.813934
 30
0.0
 11
253.582023
 21
75.813934
 31
0.0
  0
LINE
  5
B9
330
B5
100
AcDbEntity
  8
LC-001-100-D00-0
 62
     7
370
    50
100
AcDbLine
 10
253.582023
 20
75.813934
 30
0.0
 11
253.712471
 21
76.081302
 31
0.0
  0
LINE
  5
BA
330
B5
100
AcDbEntity
  8
LC-001-100-D00-0
 62
     7
370
    50
100
AcDbLine
 10
253.712471
 20
76.081302
 30
0.0
 11
253.712471
 21
76.081302
 31
0.0
  0
LINE
  5
BB
330
B5
100
AcDbEntity
  8
LC-001-100-D00-0
 62
     7
370
    50
100
AcDbLine
 10
253.712471
 20
76.081302
 30
0.0
 11
253.958948
 21
76.586482
 31
0.0
  0
LINE
  5
BC
330
B5
100
AcDbEntity
  8
LC-001-100-D00-0
 62
     7
370
    50
100
AcDbLine
 10
253.958948
 20
76.586482
 30
0.0
 11
253.958948
 21
76.586482
 31
0.0
  0
LINE
  5
BD
330
B5
100
AcDbEntity
  8
LC-001-100-D00-0
 62
     7
370
    50
100
AcDbLine
 10
253.958948
 20
76.586482
 30
0.0
 11
253.974642
 21
77.133995
 31
0.0
  0
LINE
  5
BE
330
B5
100
AcDbEntity
  8
LC-001-100-D00-0
 62
     7
370
    50
100
AcDbLine
 10
253.974642
 20
77.133995
 30
0.0
 11
253.974642
 21
77.133995
 31
0.0
  0
LINE
  5
BF
330
B5
100
AcDbEntity
  8
LC-001-100-D00-0
 62
     7
370
    50
100
AcDbLine
 10
253.974642
 20
77.133995
 30
0.0
 11
253.98203
 21
77.391736
 31
0.0
  0
ENDBLK
  5
B7
330
B5
100
AcDbEntity
  8
0
100
AcDbBlockEnd
  0
BLOCK
  5
C3
330
C2
100
AcDbEntity
  8
0
100
AcDbBlockBegin
  2
POLY4
 70
     0
 71
     0
 10
0.0
 20
0.0
 30
0.0
  3
POLY4
  1

  4
POLY4
  0
LINE
  5
C5
330
C2
100
AcDbEntity
  8
LC-001-100-D00-0
 62
     7
370
    50
100
AcDbLine
 10
253.582023
 20
192.710336
 30
0.0
 11
253.582023
 21
192.710336
 31
0.0
  0
LINE
  5
C6
330
C2
100
AcDbEntity
  8
LC-001-100-D00-0
 62
     7
370
    50
100
AcDbLine
 10
253.582023
 20
192.710336
 30
0.0
 11
253.712471
 21
192.44297
 31
0.0
  0
LINE
  5
C7
330
C2
100
AcDbEntity
  8
LC-001-100-D00-0
 62
     7
370
    50
100
AcDbLine
 10
253.712471
 20
192.44297
 30
0.0
 11
253.712471
 21
192.44297
 31
0.0
  0
LINE
  5
C8
330
C2
100
AcDbEntity
  8
LC-001-100-D00-0
 62
     7
370
    50
100
AcDbLine
 10
253.712471
 20
192.44297
 30
0.0
 11
253.958948
 21
191.93779
 31
0.0
  0
LINE
  5
C9
330
C2
100
AcDbEntity
  8
LC-001-100-D00-0
 62
     7
370
    50
100
AcDbLine
 10
253.958948
 20
191.93779
 30
0.0
 11
253.958948
 21
191.93779
 31
0.0
  0
LINE
  5
CA
330
C2
100
AcDbEntity
  8
LC-001-100-D00-0
 62
     7
370
    50
100
AcDbLine
 10
253.958948
 20
191.93779
 30
0.0
 11
253.974642
 21
191.390276
 31
0.0
  0
LINE
  5
CB
330
C2
100
AcDbEntity
  8
LC-001-100-D00-0
 62
     7
370
    50
100
AcDbLine
 10
253.974642
 20
191.390276
 30
0.0
 11
253.974642
 21
191.390276
 31
0.0
  0
LINE
  5
CC
330
C2
100
AcDbEntity
  8
LC-001-100-D00-0
 62
     7
370
    50
100
AcDbLine
 10
253.974642
 20
191.390276
 30
0.0
 11
253.98203
 21
191.132534
 31
0.0
  0
ENDBLK
  5
C4
330
C2
100
AcDbEntity
  8
0
100
AcDbBlockEnd
  0
BLOCK
  5
D8
330
D7
100
AcDbEntity
  8
0
100
AcDbBlockBegin
  2
POLY5
 70
     0
 71
     0
 10
0.0
 20
0.0
 30
0.0
  3
POLY5
  1

  4
POLY5
  0
LINE
  5
DA
330
D7
100
AcDbEntity
  8
LC-001-100-D00-0
 62
     7
370
    50
100
AcDbLine
 10
253.582023
 20
169.450598
 30
0.0
 11
253.582023
 21
169.450598
 31
0.0
  0
LINE
  5
DB
330
D7
100
AcDbEntity
  8
LC-001-100-D00-0
 62
     7
370
    50
100
AcDbLine
 10
253.582023
 20
169.450598
 30
0.0
 11
253.712471
 21
169.296233
 31
0.0
  0
LINE
  5
DC
330
D7
100
AcDbEntity
  8
LC-001-100-D00-0
 62
     7
370
    50
100
AcDbLine
 10
253.712471
 20
169.296233
 30
0.0
 11
253.712471
 21
169.296233
 31
0.0
  0
LINE
  5
DD
330
D7
100
AcDbEntity
  8
LC-001-100-D00-0
 62
     7
370
    50
100
AcDbLine
 10
253.712471
 20
169.296233
 30
0.0
 11
253.958948
 21
169.004568
 31
0.0
  0
LINE
  5
DE
330
D7
100
AcDbEntity
  8
LC-001-100-D00-0
 62
     7
370
    50
100
AcDbLine
 10
253.958948
 20
169.004568
 30
0.0
 11
253.958948
 21
169.004568
 31
0.0
  0
LINE
  5
DF
330
D7
100
AcDbEntity
  8
LC-001-100-D00-0
 62
     7
370
    50
100
AcDbLine
 10
253.958948
 20
169.004568
 30
0.0
 11
253.974642
 21
168.68846
 31
0.0
  0
LINE
  5
E0
330
D7
100
AcDbEntity
  8
LC-001-100-D00-0
 62
     7
370
    50
100
AcDbLine
 10
253.974642
 20
168.68846
 30
0.0
 11
253.974642
 21
168.68846
 31
0.0
  0
LINE
  5
E1
330
D7
100
AcDbEntity
  8
LC-001-100-D00-0
 62
     7
370
    50
100
AcDbLine
 10
253.974642
 20
168.68846
 30
0.0
 11
253.98203
 21
168.539652
 31
0.0
  0
ENDBLK
  5
D9
330
D7
100
AcDbEntity
  8
0
100
AcDbBlockEnd
  0
BLOCK
  5
E5
330
E4
100
AcDbEntity
  8
0
100
AcDbBlockBegin
  2
POLY6
 70
     0
 71
     0
 10
0.0
 20
0.0
 30
0.0
  3
POLY6
  1

  4
POLY6
  0
LINE
  5
E7
330
E4
100
AcDbEntity
  8
LC-001-100-D00-0
 62
     7
370
    50
100
AcDbLine
 10
253.582023
 20
99.073674
 30
0.0
 11
253.582023
 21
99.073674
 31
0.0
  0
LINE
  5
E8
330
E4
100
AcDbEntity
  8
LC-001-100-D00-0
 62
     7
370
    50
100
AcDbLine
 10
253.582023
 20
99.073674
 30
0.0
 11
253.712471
 21
99.22804
 31
0.0
  0
LINE
  5
E9
330
E4
100
AcDbEntity
  8
LC-001-100-D00-0
 62
     7
370
    50
100
AcDbLine
 10
253.712471
 20
99.22804
 30
0.0
 11
253.712471
 21
99.22804
 31
0.0
  0
LINE
  5
EA
330
E4
100
AcDbEntity
  8
LC-001-100-D00-0
 62
     7
370
    50
100
AcDbLine
 10
253.712471
 20
99.22804
 30
0.0
 11
253.958947
 21
99.519706
 31
0.0
  0
LINE
  5
EB
330
E4
100
AcDbEntity
  8
LC-001-100-D00-0
 62
     7
370
    50
100
AcDbLine
 10
253.958947
 20
99.519706
 30
0.0
 11
253.958947
 21
99.519706
 31
0.0
  0
LINE
  5
EC
330
E4
100
AcDbEntity
  8
LC-001-100-D00-0
 62
     7
370
    50
100
AcDbLine
 10
253.958947
 20
99.519706
 30
0.0
 11
253.974642
 21
99.835813
 31
0.0
  0
LINE
  5
ED
330
E4
100
AcDbEntity
  8
LC-001-100-D00-0
 62
     7
370
    50
100
AcDbLine
 10
253.974642
 20
99.835813
 30
0.0
 11
253.974642
 21
99.835813
 31
0.0
  0
LINE
  5
EE
330
E4
100
AcDbEntity
  8
LC-001-100-D00-0
 62
     7
370
    50
100
AcDbLine
 10
253.974642
 20
99.835813
 30
0.0
 11
253.98203
 21
99.98462
 31
0.0
  0
ENDBLK
  5
E6
330
E4
100
AcDbEntity
  8
0
100
AcDbBlockEnd
  0
BLOCK
  5
1E0
330
1DF
100
AcDbEntity
  8
0
100
AcDbBlockBegin
  2
POLY7
 70
     0
 71
     0
 10
0.0
 20
0.0
 30
0.0
  3
POLY7
  1

  4
POLY7
  0
LINE
  5
1E2
330
1DF
100
AcDbEntity
  8
LC-001-100-D00-0
 62
     7
370
    50
100
AcDbLine
 10
189.560426
 20
189.759735
 30
0.0
 11
189.560426
 21
189.759735
 31
0.0
  0
LINE
  5
1E3
330
1DF
100
AcDbEntity
  8
LC-001-100-D00-0
 62
     7
370
    50
100
AcDbLine
 10
189.560426
 20
189.759735
 30
0.0
 11
189.672851
 21
189.770789
 31
0.0
  0
LINE
  5
1E4
330
1DF
100
AcDbEntity
  8
LC-001-100-D00-0
 62
     7
370
    50
100
AcDbLine
 10
189.672851
 20
189.770789
 30
0.0
 11
189.672851
 21
189.770789
 31
0.0
  0
LINE
  5
1E5
330
1DF
100
AcDbEntity
  8
LC-001-100-D00-0
 62
     7
370
    50
100
AcDbLine
 10
189.672851
 20
189.770789
 30
0.0
 11
189.897699
 21
189.792898
 31
0.0
  0
LINE
  5
1E6
330
1DF
100
AcDbEntity
  8
LC-001-100-D00-0
 62
     7
370
    50
100
AcDbLine
 10
189.897699
 20
189.792898
 30
0.0
 11
189.897699
 21
189.792898
 31
0.0
  0
LINE
  5
1E7
330
1DF
100
AcDbEntity
  8
LC-001-100-D00-0
 62
     7
370
    50
100
AcDbLine
 10
189.897699
 20
189.792898
 30
0.0
 11
190.197375
 21
189.965307
 31
0.0
  0
LINE
  5
1E8
330
1DF
100
AcDbEntity
  8
LC-001-100-D00-0
 62
     7
370
    50
100
AcDbLine
 10
190.197375
 20
189.965307
 30
0.0
 11
190.197375
 21
189.965307
 31
0.0
  0
LINE
  5
1E9
330
1DF
100
AcDbEntity
  8
LC-001-100-D00-0
 62
     7
370
    50
100
AcDbLine
 10
190.197375
 20
189.965307
 30
0.0
 11
190.423525
 21
190.219057
 31
0.0
  0
LINE
  5
1EA
330
1DF
100
AcDbEntity
  8
LC-001-100-D00-0
 62
     7
370
    50
100
AcDbLine
 10
190.423525
 20
190.219057
 30
0.0
 11
190.423525
 21
190.219057
 31
0.0
  0
LINE
  5
1EB
330
1DF
100
AcDbEntity
  8
LC-001-100-D00-0
 62
     7
370
    50
100
AcDbLine
 10
190.423525
 20
190.219057
 30
0.0
 11
190.543357
 21
190.500229
 31
0.0
  0
LINE
  5
1EC
330
1DF
100
AcDbEntity
  8
LC-001-100-D00-0
 62
     7
370
    50
100
AcDbLine
 10
190.543357
 20
190.500229
 30
0.0
 11
190.543357
 21
190.500229
 31
0.0
  0
LINE
  5
1ED
330
1DF
100
AcDbEntity
  8
LC-001-100-D00-0
 62
     7
370
    50
100
AcDbLine
 10
190.543357
 20
190.500229
 30
0.0
 11
190.555578
 21
190.686017
 31
0.0
  0
LINE
  5
1EE
330
1DF
100
AcDbEntity
  8
LC-001-100-D00-0
 62
     7
370
    50
100
AcDbLine
 10
190.555578
 20
190.686017
 30
0.0
 11
190.555578
 21
190.686017
 31
0.0
  0
LINE
  5
1EF
330
1DF
100
AcDbEntity
  8
LC-001-100-D00-0
 62
     7
370
    50
100
AcDbLine
 10
190.555578
 20
190.686017
 30
0.0
 11
190.560427
 21
190.759737
 31
0.0
  0
ENDBLK
  5
1E1
330
1DF
100
AcDbEntity
  8
0
100
AcDbBlockEnd
  0
BLOCK
  5
267
330
266
100
AcDbEntity
  8
0
100
AcDbBlockBegin
  2
POLY8
 70
     0
 71
     0
 10
0.0
 20
0.0
 30
0.0
  3
POLY8
  1

  4
POLY8
  0
LINE
  5
269
330
266
100
AcDbEntity
  8
LC-001-100-D00-0
 62
     7
370
    50
100
AcDbLine
 10
111.389626
 20
134.262136
 30
0.0
 11
111.389626
 21
134.262136
 31
0.0
  0
LINE
  5
26A
330
266
100
AcDbEntity
  8
LC-001-100-D00-0
 62
     7
370
    50
100
AcDbLine
 10
111.389626
 20
134.262136
 30
0.0
 11
111.389626
 21
135.973011
 31
0.0
  0
LINE
  5
26B
330
266
100
AcDbEntity
  8
LC-001-100-D00-0
 62
     7
370
    50
100
AcDbLine
 10
111.389626
 20
135.973011
 30
0.0
 11
111.389626
 21
135.973011
 31
0.0
  0
LINE
  5
26C
330
266
100
AcDbEntity
  8
LC-001-100-D00-0
 62
     7
370
    50
100
AcDbLine
 10
111.389626
 20
135.973011
 30
0.0
 11
111.389626
 21
139.39467
 31
0.0
  0
LINE
  5
26D
330
266
100
AcDbEntity
  8
LC-001-100-D00-0
 62
     7
370
    50
100
AcDbLine
 10
111.389626
 20
139.39467
 30
0.0
 11
111.389626
 21
139.39467
 31
0.0
  0
LINE
  5
26E
330
266
100
AcDbEntity
  8
LC-001-100-D00-0
 62
     7
370
    50
100
AcDbLine
 10
111.389626
 20
139.39467
 30
0.0
 11
111.389626
 21
144.585623
 31
0.0
  0
LINE
  5
26F
330
266
100
AcDbEntity
  8
LC-001-100-D00-0
 62
     7
370
    50
100
AcDbLine
 10
111.389626
 20
144.585623
 30
0.0
 11
111.389626
 21
144.585623
 31
0.0
  0
LINE
  5
270
330
266
100
AcDbEntity
  8
LC-001-100-D00-0
 62
     7
370
    50
100
AcDbLine
 10
111.389626
 20
144.585623
 30
0.0
 11
111.389626
 21
149.787909
 31
0.0
  0
LINE
  5
271
330
266
100
AcDbEntity
  8
LC-001-100-D00-0
 62
     7
370
    50
100
AcDbLine
 10
111.389626
 20
149.787909
 30
0.0
 11
111.389626
 21
149.787909
 31
0.0
  0
LINE
  5
272
330
266
100
AcDbEntity
  8
LC-001-100-D00-0
 62
     7
370
    50
100
AcDbLine
 10
111.389626
 20
149.787909
 30
0.0
 11
111.389626
 21
155.014728
 31
0.0
  0
LINE
  5
273
330
266
100
AcDbEntity
  8
LC-001-100-D00-0
 62
     7
370
    50
100
AcDbLine
 10
111.389626
 20
155.014728
 30
0.0
 11
111.389626
 21
155.014728
 31
0.0
  0
LINE
  5
274
330
266
100
AcDbEntity
  8
LC-001-100-D00-0
 62
     7
370
    50
100
AcDbLine
 10
111.389626
 20
155.014728
 30
0.0
 11
111.389626
 21
160.111223
 31
0.0
  0
LINE
  5
275
330
266
100
AcDbEntity
  8
LC-001-100-D00-0
 62
     7
370
    50
100
AcDbLine
 10
111.389626
 20
160.111223
 30
0.0
 11
111.389626
 21
160.111223
 31
0.0
  0
LINE
  5
276
330
266
100
AcDbEntity
  8
LC-001-100-D00-0
 62
     7
370
    50
100
AcDbLine
 10
111.389626
 20
160.111223
 30
0.0
 11
111.389626
 21
165.045427
 31
0.0
  0
LINE
  5
277
330
266
100
AcDbEntity
  8
LC-001-100-D00-0
 62
     7
370
    50
100
AcDbLine
 10
111.389626
 20
165.045427
 30
0.0
 11
111.389626
 21
165.045427
 31
0.0
  0
LINE
  5
278
330
266
100
AcDbEntity
  8
LC-001-100-D00-0
 62
     7
370
    50
100
AcDbLine
 10
111.389626
 20
165.045427
 30
0.0
 11
111.389626
 21
169.695749
 31
0.0
  0
LINE
  5
279
330
266
100
AcDbEntity
  8
LC-001-100-D00-0
 62
     7
370
    50
100
AcDbLine
 10
111.389626
 20
169.695749
 30
0.0
 11
111.389626
 21
169.695749
 31
0.0
  0
LINE
  5
27A
330
266
100
AcDbEntity
  8
LC-001-100-D00-0
 62
     7
370
    50
100
AcDbLine
 10
111.389626
 20
169.695749
 30
0.0
 11
111.389626
 21
173.998523
 31
0.0
  0
LINE
  5
27B
330
266
100
AcDbEntity
  8
LC-001-100-D00-0
 62
     7
370
    50
100
AcDbLine
 10
111.389626
 20
173.998523
 30
0.0
 11
111.389626
 21
173.998523
 31
0.0
  0
LINE
  5
27C
330
266
100
AcDbEntity
  8
LC-001-100-D00-0
 62
     7
370
    50
100
AcDbLine
 10
111.389626
 20
173.998523
 30
0.0
 11
111.389626
 21
177.881972
 31
0.0
  0
LINE
  5
27D
330
266
100
AcDbEntity
  8
LC-001-100-D00-0
 62
     7
370
    50
100
AcDbLine
 10
111.389626
 20
177.881972
 30
0.0
 11
111.389626
 21
177.881972
 31
0.0
  0
LINE
  5
27E
330
266
100
AcDbEntity
  8
LC-001-100-D00-0
 62
     7
370
    50
100
AcDbLine
 10
111.389626
 20
177.881972
 30
0.0
 11
111.389626
 21
180.903347
 31
0.0
  0
LINE
  5
27F
330
266
100
AcDbEntity
  8
LC-001-100-D00-0
 62
     7
370
    50
100
AcDbLine
 10
111.389626
 20
180.903347
 30
0.0
 11
111.389626
 21
180.903347
 31
0.0
  0
LINE
  5
280
330
266
100
AcDbEntity
  8
LC-001-100-D00-0
 62
     7
370
    50
100
AcDbLine
 10
111.389626
 20
180.903347
 30
0.0
 11
111.389626
 21
183.212213
 31
0.0
  0
LINE
  5
281
330
266
100
AcDbEntity
  8
LC-001-100-D00-0
 62
     7
370
    50
100
AcDbLine
 10
111.389626
 20
183.212213
 30
0.0
 11
111.389626
 21
183.212213
 31
0.0
  0
LINE
  5
282
330
266
100
AcDbEntity
  8
LC-001-100-D00-0
 62
     7
370
    50
100
AcDbLine
 10
111.389626
 20
183.212213
 30
0.0
 11
111.389626
 21
184.951443
 31
0.0
  0
LINE
  5
283
330
266
100
AcDbEntity
  8
LC-001-100-D00-0
 62
     7
370
    50
100
AcDbLine
 10
111.389626
 20
184.951443
 30
0.0
 11
111.389626
 21
184.951443
 31
0.0
  0
LINE
  5
284
330
266
100
AcDbEntity
  8
LC-001-100-D00-0
 62
     7
370
    50
100
AcDbLine
 10
111.389626
 20
184.951443
 30
0.0
 11
111.389626
 21
186.679958
 31
0.0
  0
LINE
  5
285
330
266
100
AcDbEntity
  8
LC-001-100-D00-0
 62
     7
370
    50
100
AcDbLine
 10
111.389626
 20
186.679958
 30
0.0
 11
111.389626
 21
186.679958
 31
0.0
  0
LINE
  5
286
330
266
100
AcDbEntity
  8
LC-001-100-D00-0
 62
     7
370
    50
100
AcDbLine
 10
111.389626
 20
186.679958
 30
0.0
 11
111.389626
 21
188.262428
 31
0.0
  0
LINE
  5
287
330
266
100
AcDbEntity
  8
LC-001-100-D00-0
 62
     7
370
    50
100
AcDbLine
 10
111.389626
 20
188.262428
 30
0.0
 11
111.389626
 21
188.262428
 31
0.0
  0
LINE
  5
288
330
266
100
AcDbEntity
  8
LC-001-100-D00-0
 62
     7
370
    50
100
AcDbLine
 10
111.389626
 20
188.262428
 30
0.0
 11
111.389626
 21
189.479084
 31
0.0
  0
LINE
  5
289
330
266
100
AcDbEntity
  8
LC-001-100-D00-0
 62
     7
370
    50
100
AcDbLine
 10
111.389626
 20
189.479084
 30
0.0
 11
111.389626
 21
189.479084
 31
0.0
  0
LINE
  5
28A
330
266
100
AcDbEntity
  8
LC-001-100-D00-0
 62
     7
370
    50
100
AcDbLine
 10
111.389626
 20
189.479084
 30
0.0
 11
111.389626
 21
190.224341
 31
0.0
  0
LINE
  5
28B
330
266
100
AcDbEntity
  8
LC-001-100-D00-0
 62
     7
370
    50
100
AcDbLine
 10
111.389626
 20
190.224341
 30
0.0
 11
111.389626
 21
190.224341
 31
0.0
  0
LINE
  5
28C
330
266
100
AcDbEntity
  8
LC-001-100-D00-0
 62
     7
370
    50
100
AcDbLine
 10
111.389626
 20
190.224341
 30
0.0
 11
111.389626
 21
190.314236
 31
0.0
  0
LINE
  5
28D
330
266
100
AcDbEntity
  8
LC-001-100-D00-0
 62
     7
370
    50
100
AcDbLine
 10
111.389626
 20
190.314236
 30
0.0
 11
111.389626
 21
190.314236
 31
0.0
  0
LINE
  5
28E
330
266
100
AcDbEntity
  8
LC-001-100-D00-0
 62
     7
370
    50
100
AcDbLine
 10
111.389626
 20
190.314236
 30
0.0
 11
111.389626
 21
190.359186
 31
0.0
  0
ENDBLK
  5
268
330
266
100
AcDbEntity
  8
0
100
AcDbBlockEnd
  0
BLOCK
  5
291
330
290
100
AcDbEntity
  8
0
100
AcDbBlockBegin
  2
POLY9
 70
     0
 71
     0
 10
0.0
 20
0.0
 30
0.0
  3
POLY9
  1

  4
POLY9
  0
LINE
  5
293
330
290
100
AcDbEntity
  8
LC-001-100-D00-0
 62
     7
370
    50
100
AcDbLine
 10
111.389626
 20
94.595533
 30
0.0
 11
111.389626
 21
94.595533
 31
0.0
  0
LINE
  5
294
330
290
100
AcDbEntity
  8
LC-001-100-D00-0
 62
     7
370
    50
100
AcDbLine
 10
111.389626
 20
94.595533
 30
0.0
 11
111.389626
 21
95.916914
 31
0.0
  0
LINE
  5
295
330
290
100
AcDbEntity
  8
LC-001-100-D00-0
 62
     7
370
    50
100
AcDbLine
 10
111.389626
 20
95.916914
 30
0.0
 11
111.389626
 21
95.916914
 31
0.0
  0
LINE
  5
296
330
290
100
AcDbEntity
  8
LC-001-100-D00-0
 62
     7
370
    50
100
AcDbLine
 10
111.389626
 20
95.916914
 30
0.0
 11
111.389626
 21
98.559616
 31
0.0
  0
LINE
  5
297
330
290
100
AcDbEntity
  8
LC-001-100-D00-0
 62
     7
370
    50
100
AcDbLine
 10
111.389626
 20
98.559616
 30
0.0
 11
111.389626
 21
98.559616
 31
0.0
  0
LINE
  5
298
330
290
100
AcDbEntity
  8
LC-001-100-D00-0
 62
     7
370
    50
100
AcDbLine
 10
111.389626
 20
98.559616
 30
0.0
 11
111.389626
 21
102.991467
 31
0.0
  0
LINE
  5
299
330
290
100
AcDbEntity
  8
LC-001-100-D00-0
 62
     7
370
    50
100
AcDbLine
 10
111.389626
 20
102.991467
 30
0.0
 11
111.389626
 21
102.991467
 31
0.0
  0
LINE
  5
29A
330
290
100
AcDbEntity
  8
LC-001-100-D00-0
 62
     7
370
    50
100
AcDbLine
 10
111.389626
 20
102.991467
 30
0.0
 11
111.389626
 21
107.725555
 31
0.0
  0
LINE
  5
29B
330
290
100
AcDbEntity
  8
LC-001-100-D00-0
 62
     7
370
    50
100
AcDbLine
 10
111.389626
 20
107.725555
 30
0.0
 11
111.389626
 21
107.725555
 31
0.0
  0
LINE
  5
29C
330
290
100
AcDbEntity
  8
LC-001-100-D00-0
 62
     7
370
    50
100
AcDbLine
 10
111.389626
 20
107.725555
 30
0.0
 11
111.389626
 21
112.75996
 31
0.0
  0
LINE
  5
29D
330
290
100
AcDbEntity
  8
LC-001-100-D00-0
 62
     7
370
    50
100
AcDbLine
 10
111.389626
 20
112.75996
 30
0.0
 11
111.389626
 21
112.75996
 31
0.0
  0
LINE
  5
29E
330
290
100
AcDbEntity
  8
LC-001-100-D00-0
 62
     7
370
    50
100
AcDbLine
 10
111.389626
 20
112.75996
 30
0.0
 11
111.389626
 21
118.002141
 31
0.0
  0
LINE
  5
29F
330
290
100
AcDbEntity
  8
LC-001-100-D00-0
 62
     7
370
    50
100
AcDbLine
 10
111.389626
 20
118.002141
 30
0.0
 11
111.389626
 21
118.002141
 31
0.0
  0
LINE
  5
2A0
330
290
100
AcDbEntity
  8
LC-001-100-D00-0
 62
     7
370
    50
100
AcDbLine
 10
111.389626
 20
118.002141
 30
0.0
 11
111.389626
 21
123.370804
 31
0.0
  0
LINE
  5
2A1
330
290
100
AcDbEntity
  8
LC-001-100-D00-0
 62
     7
370
    50
100
AcDbLine
 10
111.389626
 20
123.370804
 30
0.0
 11
111.389626
 21
123.370804
 31
0.0
  0
LINE
  5
2A2
330
290
100
AcDbEntity
  8
LC-001-100-D00-0
 62
     7
370
    50
100
AcDbLine
 10
111.389626
 20
123.370804
 30
0.0
 11
111.389626
 21
128.808159
 31
0.0
  0
LINE
  5
2A3
330
290
100
AcDbEntity
  8
LC-001-100-D00-0
 62
     7
370
    50
100
AcDbLine
 10
111.389626
 20
128.808159
 30
0.0
 11
111.389626
 21
128.808159
 31
0.0
  0
LINE
  5
2A4
330
290
100
AcDbEntity
  8
LC-001-100-D00-0
 62
     7
370
    50
100
AcDbLine
 10
111.389626
 20
128.808159
 30
0.0
 11
111.389626
 21
132.444058
 31
0.0
  0
LINE
  5
2A5
330
290
100
AcDbEntity
  8
LC-001-100-D00-0
 62
     7
370
    50
100
AcDbLine
 10
111.389626
 20
132.444058
 30
0.0
 11
111.389626
 21
132.444058
 31
0.0
  0
LINE
  5
2A6
330
290
100
AcDbEntity
  8
LC-001-100-D00-0
 62
     7
370
    50
100
AcDbLine
 10
111.389626
 20
132.444058
 30
0.0
 11
111.389626
 21
134.262136
 31
0.0
  0
ENDBLK
  5
292
330
290
100
AcDbEntity
  8
0
100
AcDbBlockEnd
  0
BLOCK
  5
2A9
330
2A8
100
AcDbEntity
  8
0
100
AcDbBlockBegin
  2
POLY10
 70
     0
 71
     0
 10
0.0
 20
0.0
 30
0.0
  3
POLY10
  1

  4
POLY10
  0
LINE
  5
2AB
330
2A8
100
AcDbEntity
  8
LC-001-100-D00-0
 62
     7
370
    50
100
AcDbLine
 10
111.389626
 20
78.164939
 30
0.0
 11
111.389626
 21
78.164939
 31
0.0
  0
LINE
  5
2AC
330
2A8
100
AcDbEntity
  8
LC-001-100-D00-0
 62
     7
370
    50
100
AcDbLine
 10
111.389626
 20
78.164939
 30
0.0
 11
111.389626
 21
78.216741
 31
0.0
  0
LINE
  5
2AD
330
2A8
100
AcDbEntity
  8
LC-001-100-D00-0
 62
     7
370
    50
100
AcDbLine
 10
111.389626
 20
78.216741
 30
0.0
 11
111.389626
 21
78.216741
 31
0.0
  0
LINE
  5
2AE
330
2A8
100
AcDbEntity
  8
LC-001-100-D00-0
 62
     7
370
    50
100
AcDbLine
 10
111.389626
 20
78.216741
 30
0.0
 11
111.389626
 21
78.320586
 31
0.0
  0
LINE
  5
2AF
330
2A8
100
AcDbEntity
  8
LC-001-100-D00-0
 62
     7
370
    50
100
AcDbLine
 10
111.389626
 20
78.320586
 30
0.0
 11
111.389626
 21
78.320586
 31
0.0
  0
LINE
  5
2B0
330
2A8
100
AcDbEntity
  8
LC-001-100-D00-0
 62
     7
370
    50
100
AcDbLine
 10
111.389626
 20
78.320586
 30
0.0
 11
111.389626
 21
79.167766
 31
0.0
  0
LINE
  5
2B1
330
2A8
100
AcDbEntity
  8
LC-001-100-D00-0
 62
     7
370
    50
100
AcDbLine
 10
111.389626
 20
79.167766
 30
0.0
 11
111.389626
 21
79.167766
 31
0.0
  0
LINE
  5
2B2
330
2A8
100
AcDbEntity
  8
LC-001-100-D00-0
 62
     7
370
    50
100
AcDbLine
 10
111.389626
 20
79.167766
 30
0.0
 11
111.389626
 21
80.529632
 31
0.0
  0
LINE
  5
2B3
330
2A8
100
AcDbEntity
  8
LC-001-100-D00-0
 62
     7
370
    50
100
AcDbLine
 10
111.389626
 20
80.529632
 30
0.0
 11
111.389626
 21
80.529632
 31
0.0
  0
LINE
  5
2B4
330
2A8
100
AcDbEntity
  8
LC-001-100-D00-0
 62
     7
370
    50
100
AcDbLine
 10
111.389626
 20
80.529632
 30
0.0
 11
111.389626
 21
82.451525
 31
0.0
  0
LINE
  5
2B5
330
2A8
100
AcDbEntity
  8
LC-001-100-D00-0
 62
     7
370
    50
100
AcDbLine
 10
111.389626
 20
82.451525
 30
0.0
 11
111.389626
 21
82.451525
 31
0.0
  0
LINE
  5
2B6
330
2A8
100
AcDbEntity
  8
LC-001-100-D00-0
 62
     7
370
    50
100
AcDbLine
 10
111.389626
 20
82.451525
 30
0.0
 11
111.389626
 21
84.861604
 31
0.0
  0
LINE
  5
2B7
330
2A8
100
AcDbEntity
  8
LC-001-100-D00-0
 62
     7
370
    50
100
AcDbLine
 10
111.389626
 20
84.861604
 30
0.0
 11
111.389626
 21
84.861604
 31
0.0
  0
LINE
  5
2B8
330
2A8
100
AcDbEntity
  8
LC-001-100-D00-0
 62
     7
370
    50
100
AcDbLine
 10
111.389626
 20
84.861604
 30
0.0
 11
111.389626
 21
87.719615
 31
0.0
  0
LINE
  5
2B9
330
2A8
100
AcDbEntity
  8
LC-001-100-D00-0
 62
     7
370
    50
100
AcDbLine
 10
111.389626
 20
87.719615
 30
0.0
 11
111.389626
 21
87.719615
 31
0.0
  0
LINE
  5
2BA
330
2A8
100
AcDbEntity
  8
LC-001-100-D00-0
 62
     7
370
    50
100
AcDbLine
 10
111.389626
 20
87.719615
 30
0.0
 11
111.389626
 21
90.931696
 31
0.0
  0
LINE
  5
2BB
330
2A8
100
AcDbEntity
  8
LC-001-100-D00-0
 62
     7
370
    50
100
AcDbLine
 10
111.389626
 20
90.931696
 30
0.0
 11
111.389626
 21
90.931696
 31
0.0
  0
LINE
  5
2BC
330
2A8
100
AcDbEntity
  8
LC-001-100-D00-0
 62
     7
370
    50
100
AcDbLine
 10
111.389626
 20
90.931696
 30
0.0
 11
111.389626
 21
93.381175
 31
0.0
  0
LINE
  5
2BD
330
2A8
100
AcDbEntity
  8
LC-001-100-D00-0
 62
     7
370
    50
100
AcDbLine
 10
111.389626
 20
93.381175
 30
0.0
 11
111.389626
 21
93.381175
 31
0.0
  0
LINE
  5
2BE
330
2A8
100
AcDbEntity
  8
LC-001-100-D00-0
 62
     7
370
    50
100
AcDbLine
 10
111.389626
 20
93.381175
 30
0.0
 11
111.389626
 21
94.595533
 31
0.0
  0
ENDBLK
  5
2AA
330
2A8
100
AcDbEntity
  8
0
100
AcDbBlockEnd
  0
BLOCK
  5
2C6
330
2C5
100
AcDbEntity
  8
0
100
AcDbBlockBegin
  2
KLON1
 70
     0
 71
     0
 10
0.0
 20
0.0
 30
0.0
  3
KLON1
  1

  4
KLON1
  0
LINE
  5
2C8
330
2C5
100
AcDbEntity
  8
LC-001-100-D00-0
 62
     7
370
    25
100
AcDbLine
 10
242.83766
 20
67.762136
 30
0.0
 11
239.797505
 21
70.802291
 31
0.0
  0
LINE
  5
2C9
330
2C5
100
AcDbEntity
  8
LC-001-100-D00-0
 62
     7
370
    25
100
AcDbLine
 10
233.857404
 20
67.762136
 30
0.0
 11
230.798885
 21
70.820655
 31
0.0
  0
LINE
  5
2CA
330
2C5
100
AcDbEntity
  8
LC-001-100-D00-0
 62
     7
370
    25
100
AcDbLine
 10
224.877148
 20
67.762136
 30
0.0
 11
221.800266
 21
70.839018
 31
0.0
  0
LINE
  5
2CB
330
2C5
100
AcDbEntity
  8
LC-001-100-D00-0
 62
     7
370
    25
100
AcDbLine
 10
215.896891
 20
67.762136
 30
0.0
 11
212.801646
 21
70.857381
 31
0.0
  0
LINE
  5
2CC
330
2C5
100
AcDbEntity
  8
LC-001-100-D00-0
 62
     7
370
    25
100
AcDbLine
 10
206.916635
 20
67.762136
 30
0.0
 11
203.803027
 21
70.875745
 31
0.0
  0
LINE
  5
2CD
330
2C5
100
AcDbEntity
  8
LC-001-100-D00-0
 62
     7
370
    25
100
AcDbLine
 10
193.608377
 20
81.070395
 30
0.0
 11
193.058437
 21
81.620334
 31
0.0
  0
LINE
  5
2CE
330
2C5
100
AcDbEntity
  8
LC-001-100-D00-0
 62
     7
370
    25
100
AcDbLine
 10
197.936379
 20
67.762136
 30
0.0
 11
184.124145
 21
81.574371
 31
0.0
  0
LINE
  5
2CF
330
2C5
100
AcDbEntity
  8
LC-001-100-D00-0
 62
     7
370
    25
100
AcDbLine
 10
183.290414
 20
73.427845
 30
0.0
 11
175.189852
 21
81.528407
 31
0.0
  0
LINE
  5
2D0
330
2C5
100
AcDbEntity
  8
LC-001-100-D00-0
 62
     7
370
    25
100
AcDbLine
 10
173.25544
 20
74.482564
 30
0.0
 11
166.255559
 21
81.482444
 31
0.0
  0
LINE
  5
2D1
330
2C5
100
AcDbEntity
  8
LC-001-100-D00-0
 62
     7
370
    25
100
AcDbLine
 10
163.220465
 20
75.537282
 30
0.0
 11
158.693315
 21
80.064432
 31
0.0
  0
LINE
  5
2D2
330
2C5
100
AcDbEntity
  8
LC-001-100-D00-0
 62
     7
370
    25
100
AcDbLine
 10
153.571355
 20
76.206136
 30
0.0
 11
150.974527
 21
78.802964
 31
0.0
  0
LINE
  5
2D3
330
2C5
100
AcDbEntity
  8
LC-001-100-D00-0
 62
     7
370
    25
100
AcDbLine
 10
144.591099
 20
76.206136
 30
0.0
 11
142.025864
 21
78.771371
 31
0.0
  0
LINE
  5
2D4
330
2C5
100
AcDbEntity
  8
LC-001-100-D00-0
 62
     7
370
    25
100
AcDbLine
 10
135.610843
 20
76.206136
 30
0.0
 11
133.077201
 21
78.739778
 31
0.0
  0
LINE
  5
2D5
330
2C5
100
AcDbEntity
  8
LC-001-100-D00-0
 62
     7
370
    25
100
AcDbLine
 10
126.630586
 20
76.206136
 30
0.0
 11
124.128538
 21
78.708185
 31
0.0
  0
LINE
  5
2D6
330
2C5
100
AcDbEntity
  8
LC-001-100-D00-0
 62
     7
370
    25
100
AcDbLine
 10
117.65033
 20
76.206136
 30
0.0
 11
115.179875
 21
78.676591
 31
0.0
  0
LINE
  5
2D7
330
2C5
100
AcDbEntity
  8
LC-001-100-D00-0
 62
     7
370
    25
100
AcDbLine
 10
113.432991
 20
71.44322
 30
0.0
 11
110.56464
 21
74.31157
 31
0.0
  0
LINE
  5
2D8
330
2C5
100
AcDbEntity
  8
LC-001-100-D00-0
 62
     7
370
    25
100
AcDbLine
 10
104.708218
 20
71.187736
 30
0.0
 11
96.679818
 21
79.216136
 31
0.0
  0
ENDBLK
  5
2C7
330
2C5
100
AcDbEntity
  8
0
100
AcDbBlockEnd
  0
BLOCK
  5
2DB
330
2DA
100
AcDbEntity
  8
0
100
AcDbBlockBegin
  2
KLON2
 70
     0
 71
     0
 10
0.0
 20
0.0
 30
0.0
  3
KLON2
  1

  4
KLON2
  0
LINE
  5
2DD
330
2DA
100
AcDbEntity
  8
LC-001-100-D00-0
 62
     7
370
    25
100
AcDbLine
 10
238.603836
 20
197.719545
 30
0.0
 11
235.561246
 21
200.762136
 31
0.0
  0
LINE
  5
2DE
330
2DA
100
AcDbEntity
  8
LC-001-100-D00-0
 62
     7
370
    25
100
AcDbLine
 10
229.641869
 20
197.701257
 30
0.0
 11
226.580989
 21
200.762136
 31
0.0
  0
LINE
  5
2DF
330
2DA
100
AcDbEntity
  8
LC-001-100-D00-0
 62
     7
370
    25
100
AcDbLine
 10
220.679901
 20
197.682968
 30
0.0
 11
217.600733
 21
200.762136
 31
0.0
  0
LINE
  5
2E0
330
2DA
100
AcDbEntity
  8
LC-001-100-D00-0
 62
     7
370
    25
100
AcDbLine
 10
211.717934
 20
197.66468
 30
0.0
 11
208.620477
 21
200.762136
 31
0.0
  0
LINE
  5
2E1
330
2DA
100
AcDbEntity
  8
LC-001-100-D00-0
 62
     7
370
    25
100
AcDbLine
 10
202.755966
 20
197.646391
 30
0.0
 11
199.640221
 21
200.762136
 31
0.0
  0
LINE
  5
2E2
330
2DA
100
AcDbEntity
  8
LC-001-100-D00-0
 62
     7
370
    25
100
AcDbLine
 10
194.422281
 20
196.99982
 30
0.0
 11
192.075012
 21
199.347089
 31
0.0
  0
LINE
  5
2E3
330
2DA
100
AcDbEntity
  8
LC-001-100-D00-0
 62
     7
370
    25
100
AcDbLine
 10
193.608584
 20
188.833261
 30
0.0
 11
190.560427
 21
191.881418
 31
0.0
  0
LINE
  5
2E4
330
2DA
100
AcDbEntity
  8
LC-001-100-D00-0
 62
     7
370
    25
100
AcDbLine
 10
186.524034
 20
186.937555
 30
0.0
 11
183.701853
 21
189.759736
 31
0.0
  0
LINE
  5
2E5
330
2DA
100
AcDbEntity
  8
LC-001-100-D00-0
 62
     7
370
    25
100
AcDbLine
 10
177.497339
 20
186.983994
 30
0.0
 11
174.721597
 21
189.759736
 31
0.0
  0
LINE
  5
2E6
330
2DA
100
AcDbEntity
  8
LC-001-100-D00-0
 62
     7
370
    25
100
AcDbLine
 10
168.470644
 20
187.030433
 30
0.0
 11
165.74134
 21
189.759736
 31
0.0
  0
LINE
  5
2E7
330
2DA
100
AcDbEntity
  8
LC-001-100-D00-0
 62
     7
370
    25
100
AcDbLine
 10
157.82953
 20
188.691291
 30
0.0
 11
154.202684
 21
192.318136
 31
0.0
  0
LINE
  5
2E8
330
2DA
100
AcDbEntity
  8
LC-001-100-D00-0
 62
     7
370
    25
100
AcDbLine
 10
147.808077
 20
189.732487
 30
0.0
 11
145.222428
 21
192.318136
 31
0.0
  0
LINE
  5
2E9
330
2DA
100
AcDbEntity
  8
LC-001-100-D00-0
 62
     7
370
    25
100
AcDbLine
 10
138.796004
 20
189.764305
 30
0.0
 11
136.242172
 21
192.318136
 31
0.0
  0
LINE
  5
2EA
330
2DA
100
AcDbEntity
  8
LC-001-100-D00-0
 62
     7
370
    25
100
AcDbLine
 10
129.783931
 20
189.796122
 30
0.0
 11
127.261916
 21
192.318136
 31
0.0
  0
LINE
  5
2EB
330
2DA
100
AcDbEntity
  8
LC-001-100-D00-0
 62
     7
370
    25
100
AcDbLine
 10
120.771857
 20
189.827939
 30
0.0
 11
118.28166
 21
192.318136
 31
0.0
  0
LINE
  5
2EC
330
2DA
100
AcDbEntity
  8
LC-001-100-D00-0
 62
     7
370
    25
100
AcDbLine
 10
111.73625
 20
189.88329
 30
0.0
 11
111.413733
 21
190.205807
 31
0.0
  0
LINE
  5
2ED
330
2DA
100
AcDbEntity
  8
LC-001-100-D00-0
 62
     7
370
    25
100
AcDbLine
 10
107.391404
 20
194.228136
 30
0.0
 11
104.283004
 21
197.336536
 31
0.0
  0
LINE
  5
2EE
330
2DA
100
AcDbEntity
  8
LC-001-100-D00-0
 62
     7
370
    25
100
AcDbLine
 10
100.487896
 20
192.151388
 30
0.0
 11
98.161903
 21
194.477381
 31
0.0
  0
LINE
  5
2EF
330
2DA
100
AcDbEntity
  8
LC-001-100-D00-0
 62
     7
370
    25
100
AcDbLine
 10
94.350891
 20
189.308136
 30
0.0
 11
94.119334
 21
189.539694
 31
0.0
  0
ENDBLK
  5
2DC
330
2DA
100
AcDbEntity
  8
0
100
AcDbBlockEnd
  0
BLOCK
  5
2F2
330
2F1
100
AcDbEntity
  8
0
100
AcDbBlockBegin
  2
KLON3
 70
     0
 71
     0
 10
0.0
 20
0.0
 30
0.0
  3
KLON3
  1

  4
KLON3
  0
LINE
  5
2F4
330
2F1
100
AcDbEntity
  8
LC-001-100-D00-0
 62
     7
370
    25
100
AcDbLine
 10
104.094652
 20
79.427759
 30
0.0
 11
102.523569
 21
77.856676
 31
0.0
  0
LINE
  5
2F5
330
2F1
100
AcDbEntity
  8
LC-001-100-D00-0
 62
     7
370
    25
100
AcDbLine
 10
106.750591
 20
80.961166
 30
0.0
 11
102.627896
 21
76.838472
 31
0.0
  0
LINE
  5
2F6
330
2F1
100
AcDbEntity
  8
LC-001-100-D00-0
 62
     7
370
    25
100
AcDbLine
 10
108.474752
 20
81.562796
 30
0.0
 11
102.92744
 21
76.015483
 31
0.0
  0
LINE
  5
2F7
330
2F1
100
AcDbEntity
  8
LC-001-100-D00-0
 62
     7
370
    25
100
AcDbLine
 10
108.398787
 20
80.364298
 30
0.0
 11
103.254261
 21
75.219773
 31
0.0
  0
LINE
  5
2F8
330
2F1
100
AcDbEntity
  8
LC-001-100-D00-0
 62
     7
370
    25
100
AcDbLine
 10
107.987911
 20
78.830891
 30
0.0
 11
103.959452
 21
74.802431
 31
0.0
  0
LINE
  5
2F9
330
2F1
100
AcDbEntity
  8
LC-001-100-D00-0
 62
     7
370
    25
100
AcDbLine
 10
108.227509
 20
77.947956
 30
0.0
 11
104.674719
 21
74.395166
 31
0.0
  0
LINE
  5
2FA
330
2F1
100
AcDbEntity
  8
LC-001-100-D00-0
 62
     7
370
    25
100
AcDbLine
 10
109.21473
 20
77.812646
 30
0.0
 11
106.063351
 21
74.661266
 31
0.0
  0
LINE
  5
2FB
330
2F1
100
AcDbEntity
  8
LC-001-100-D00-0
 62
     7
370
    25
100
AcDbLine
 10
110.577568
 20
78.052951
 30
0.0
 11
107.320756
 21
74.796139
 31
0.0
  0
LINE
  5
2FC
330
2F1
100
AcDbEntity
  8
LC-001-100-D00-0
 62
     7
370
    25
100
AcDbLine
 10
111.373474
 20
77.726325
 30
0.0
 11
108.443288
 21
74.796139
 31
0.0
  0
LINE
  5
2FD
330
2F1
100
AcDbEntity
  8
LC-001-100-D00-0
 62
     7
370
    25
100
AcDbLine
 10
108.326134
 20
74.678985
 30
0.0
 11
107.899461
 21
74.252312
 31
0.0
  0
LINE
  5
2FE
330
2F1
100
AcDbEntity
  8
LC-001-100-D00-0
 62
     7
370
    25
100
AcDbLine
 10
111.351909
 20
76.582228
 30
0.0
 11
109.324695
 21
74.555014
 31
0.0
  0
ENDBLK
  5
2F3
330
2F1
100
AcDbEntity
  8
0
100
AcDbBlockEnd
  0
BLOCK
  5
301
330
300
100
AcDbEntity
  8
0
100
AcDbBlockBegin
  2
KLON4
 70
     0
 71
     0
 10
0.0
 20
0.0
 30
0.0
  3
KLON4
  1

  4
KLON4
  0
LINE
  5
303
330
300
100
AcDbEntity
  8
LC-001-100-D00-0
 62
     7
370
    25
100
AcDbLine
 10
104.789627
 20
194.228135
 30
0.0
 11
104.635442
 21
194.07395
 31
0.0
  0
LINE
  5
304
330
300
100
AcDbEntity
  8
LC-001-100-D00-0
 62
     7
370
    25
100
AcDbLine
 10
104.289892
 20
193.7284
 30
0.0
 11
102.834103
 21
192.272611
 31
0.0
  0
LINE
  5
305
330
300
100
AcDbEntity
  8
LC-001-100-D00-0
 62
     7
370
    25
100
AcDbLine
 10
105.412424
 20
193.7284
 30
0.0
 11
102.493716
 21
190.809692
 31
0.0
  0
LINE
  5
306
330
300
100
AcDbEntity
  8
LC-001-100-D00-0
 62
     7
370
    25
100
AcDbLine
 10
106.694425
 20
193.887869
 30
0.0
 11
102.809435
 21
190.002879
 31
0.0
  0
LINE
  5
307
330
300
100
AcDbEntity
  8
LC-001-100-D00-0
 62
     7
370
    25
100
AcDbLine
 10
108.119659
 20
194.190571
 30
0.0
 11
103.414406
 21
189.485318
 31
0.0
  0
LINE
  5
308
330
300
100
AcDbEntity
  8
LC-001-100-D00-0
 62
     7
370
    25
100
AcDbLine
 10
108.78002
 20
193.7284
 30
0.0
 11
104.126063
 21
189.074443
 31
0.0
  0
LINE
  5
309
330
300
100
AcDbEntity
  8
LC-001-100-D00-0
 62
     7
370
    25
100
AcDbLine
 10
109.95577
 20
193.781618
 30
0.0
 11
104.83772
 21
188.663568
 31
0.0
  0
LINE
  5
30A
330
300
100
AcDbEntity
  8
LC-001-100-D00-0
 62
     7
370
    25
100
AcDbLine
 10
110.810088
 20
193.513403
 30
0.0
 11
105.549376
 21
188.252692
 31
0.0
  0
LINE
  5
30B
330
300
100
AcDbEntity
  8
LC-001-100-D00-0
 62
     7
370
    25
100
AcDbLine
 10
111.197268
 20
192.778052
 30
0.0
 11
109.142553
 21
190.723337
 31
0.0
  0
LINE
  5
30C
330
300
100
AcDbEntity
  8
LC-001-100-D00-0
 62
     7
370
    25
100
AcDbLine
 10
108.008577
 20
189.589361
 30
0.0
 11
106.261033
 21
187.841817
 31
0.0
  0
LINE
  5
30D
330
300
100
AcDbEntity
  8
LC-001-100-D00-0
 62
     7
370
    25
100
AcDbLine
 10
111.36553
 20
191.823782
 30
0.0
 11
110.096822
 21
190.555073
 31
0.0
  0
LINE
  5
30E
330
300
100
AcDbEntity
  8
LC-001-100-D00-0
 62
     7
370
    25
100
AcDbLine
 10
108.245796
 20
188.704048
 30
0.0
 11
106.97269
 21
187.430942
 31
0.0
  0
LINE
  5
30F
330
300
100
AcDbEntity
  8
LC-001-100-D00-0
 62
     7
370
    25
100
AcDbLine
 10
111.25327
 20
190.58899
 30
0.0
 11
111.217636
 21
190.553356
 31
0.0
  0
LINE
  5
310
330
300
100
AcDbEntity
  8
LC-001-100-D00-0
 62
     7
370
    25
100
AcDbLine
 10
108.483015
 20
187.818735
 30
0.0
 11
107.684347
 21
187.020067
 31
0.0
  0
ENDBLK
  5
302
330
300
100
AcDbEntity
  8
0
100
AcDbBlockEnd
  0
BLOCK
  5
313
330
312
100
AcDbEntity
  8
0
100
AcDbBlockBegin
  2
KLON5
 70
     0
 71
     0
 10
0.0
 20
0.0
 30
0.0
  3
KLON5
  1

  4
KLON5
  0
LINE
  5
315
330
312
100
AcDbEntity
  8
LC-001-100-D00-0
 62
     7
370
    25
100
AcDbLine
 10
195.363948
 20
78.262136
 30
0.0
 11
194.582027
 21
77.480216
 31
0.0
  0
LINE
  5
316
330
312
100
AcDbEntity
  8
LC-001-100-D00-0
 62
     7
370
    25
100
AcDbLine
 10
201.313176
 20
81.217946
 30
0.0
 11
200.724853
 21
80.629623
 31
0.0
  0
LINE
  5
317
330
312
100
AcDbEntity
  8
LC-001-100-D00-0
 62
     7
370
    25
100
AcDbLine
 10
197.146611
 20
77.051381
 30
0.0
 11
194.582027
 21
74.486797
 31
0.0
  0
LINE
  5
318
330
312
100
AcDbEntity
  8
LC-001-100-D00-0
 62
     7
370
    25
100
AcDbLine
 10
202.545976
 20
79.457327
 30
0.0
 11
200.965674
 21
77.877026
 31
0.0
  0
LINE
  5
319
330
312
100
AcDbEntity
  8
LC-001-100-D00-0
 62
     7
370
    25
100
AcDbLine
 10
198.100785
 20
75.012136
 30
0.0
 11
194.596821
 21
71.508172
 31
0.0
  0
LINE
  5
31A
330
312
100
AcDbEntity
  8
LC-001-100-D00-0
 62
     7
370
    25
100
AcDbLine
 10
207.307756
 20
81.225688
 30
0.0
 11
206.723794
 21
80.641727
 31
0.0
  0
LINE
  5
31B
330
312
100
AcDbEntity
  8
LC-001-100-D00-0
 62
     7
370
    25
100
AcDbLine
 10
203.778775
 20
77.696707
 30
0.0
 11
196.957656
 21
70.875588
 31
0.0
  0
LINE
  5
31C
330
312
100
AcDbEntity
  8
LC-001-100-D00-0
 62
     7
370
    25
100
AcDbLine
 10
208.540555
 20
79.465069
 30
0.0
 11
206.964615
 21
77.889129
 31
0.0
  0
LINE
  5
31D
330
312
100
AcDbEntity
  8
LC-001-100-D00-0
 62
     7
370
    25
100
AcDbLine
 10
205.011574
 20
75.936088
 30
0.0
 11
199.337622
 21
70.262136
 31
0.0
  0
LINE
  5
31E
330
312
100
AcDbEntity
  8
LC-001-100-D00-0
 62
     7
370
    25
100
AcDbLine
 10
213.302335
 20
81.23343
 30
0.0
 11
212.722735
 21
80.653831
 31
0.0
  0
LINE
  5
31F
330
312
100
AcDbEntity
  8
LC-001-100-D00-0
 62
     7
370
    25
100
AcDbLine
 10
209.773354
 20
77.704449
 30
0.0
 11
202.331041
 21
70.262136
 31
0.0
  0
LINE
  5
320
330
312
100
AcDbEntity
  8
LC-001-100-D00-0
 62
     7
370
    25
100
AcDbLine
 10
214.535134
 20
79.47281
 30
0.0
 11
212.963557
 21
77.901233
 31
0.0
  0
LINE
  5
321
330
312
100
AcDbEntity
  8
LC-001-100-D00-0
 62
     7
370
    25
100
AcDbLine
 10
211.006153
 20
75.943829
 30
0.0
 11
205.32446
 21
70.262136
 31
0.0
  0
LINE
  5
322
330
312
100
AcDbEntity
  8
LC-001-100-D00-0
 62
     7
370
    25
100
AcDbLine
 10
219.296914
 20
81.241172
 30
0.0
 11
218.721676
 21
80.665934
 31
0.0
  0
LINE
  5
323
330
312
100
AcDbEntity
  8
LC-001-100-D00-0
 62
     7
370
    25
100
AcDbLine
 10
215.767933
 20
77.712191
 30
0.0
 11
208.317878
 21
70.262136
 31
0.0
  0
LINE
  5
324
330
312
100
AcDbEntity
  8
LC-001-100-D00-0
 62
     7
370
    25
100
AcDbLine
 10
220.529713
 20
79.480552
 30
0.0
 11
218.962498
 21
77.913337
 31
0.0
  0
LINE
  5
325
330
312
100
AcDbEntity
  8
LC-001-100-D00-0
 62
     7
370
    25
100
AcDbLine
 10
217.000732
 20
75.951571
 30
0.0
 11
211.311297
 21
70.262136
 31
0.0
  0
LINE
  5
326
330
312
100
AcDbEntity
  8
LC-001-100-D00-0
 62
     7
370
    25
100
AcDbLine
 10
225.291493
 20
81.248913
 30
0.0
 11
224.720618
 21
80.678038
 31
0.0
  0
LINE
  5
327
330
312
100
AcDbEntity
  8
LC-001-100-D00-0
 62
     7
370
    25
100
AcDbLine
 10
221.762512
 20
77.719933
 30
0.0
 11
214.304716
 21
70.262136
 31
0.0
  0
LINE
  5
328
330
312
100
AcDbEntity
  8
LC-001-100-D00-0
 62
     7
370
    25
100
AcDbLine
 10
226.524292
 20
79.488294
 30
0.0
 11
224.961439
 21
77.92544
 31
0.0
  0
LINE
  5
329
330
312
100
AcDbEntity
  8
LC-001-100-D00-0
 62
     7
370
    25
100
AcDbLine
 10
222.995311
 20
75.959313
 30
0.0
 11
217.298135
 21
70.262136
 31
0.0
  0
LINE
  5
32A
330
312
100
AcDbEntity
  8
LC-001-100-D00-0
 62
     7
370
    25
100
AcDbLine
 10
231.286072
 20
81.256655
 30
0.0
 11
230.719559
 21
80.690142
 31
0.0
  0
LINE
  5
32B
330
312
100
AcDbEntity
  8
LC-001-100-D00-0
 62
     7
370
    25
100
AcDbLine
 10
227.757091
 20
77.727674
 30
0.0
 11
220.291553
 21
70.262136
 31
0.0
  0
LINE
  5
32C
330
312
100
AcDbEntity
  8
LC-001-100-D00-0
 62
     7
370
    25
100
AcDbLine
 10
232.518871
 20
79.496036
 30
0.0
 11
230.96038
 21
77.937544
 31
0.0
  0
LINE
  5
32D
330
312
100
AcDbEntity
  8
LC-001-100-D00-0
 62
     7
370
    25
100
AcDbLine
 10
228.98989
 20
75.967055
 30
0.0
 11
223.284972
 21
70.262136
 31
0.0
  0
LINE
  5
32E
330
312
100
AcDbEntity
  8
LC-001-100-D00-0
 62
     7
370
    25
100
AcDbLine
 10
237.280651
 20
81.264397
 30
0.0
 11
236.7185
 21
80.702245
 31
0.0
  0
LINE
  5
32F
330
312
100
AcDbEntity
  8
LC-001-100-D00-0
 62
     7
370
    25
100
AcDbLine
 10
233.751671
 20
77.735416
 30
0.0
 11
226.278391
 21
70.262136
 31
0.0
  0
LINE
  5
330
330
312
100
AcDbEntity
  8
LC-001-100-D00-0
 62
     7
370
    25
100
AcDbLine
 10
238.513451
 20
79.503777
 30
0.0
 11
236.959321
 21
77.949648
 31
0.0
  0
LINE
  5
331
330
312
100
AcDbEntity
  8
LC-001-100-D00-0
 62
     7
370
    25
100
AcDbLine
 10
234.98447
 20
75.974796
 30
0.0
 11
229.271809
 21
70.262136
 31
0.0
  0
LINE
  5
332
330
312
100
AcDbEntity
  8
LC-001-100-D00-0
 62
     7
370
    25
100
AcDbLine
 10
243.275231
 20
81.272139
 30
0.0
 11
242.717441
 21
80.714349
 31
0.0
  0
LINE
  5
333
330
312
100
AcDbEntity
  8
LC-001-100-D00-0
 62
     7
370
    25
100
AcDbLine
 10
239.74625
 20
77.743158
 30
0.0
 11
232.265228
 21
70.262136
 31
0.0
  0
LINE
  5
334
330
312
100
AcDbEntity
  8
LC-001-100-D00-0
 62
     7
370
    25
100
AcDbLine
 10
244.50803
 20
79.511519
 30
0.0
 11
242.958262
 21
77.961751
 31
0.0
  0
LINE
  5
335
330
312
100
AcDbEntity
  8
LC-001-100-D00-0
 62
     7
370
    25
100
AcDbLine
 10
240.979049
 20
75.982538
 30
0.0
 11
235.258647
 21
70.262136
 31
0.0
  0
LINE
  5
336
330
312
100
AcDbEntity
  8
LC-001-100-D00-0
 62
     7
370
    25
100
AcDbLine
 10
245.740829
 20
77.7509
 30
0.0
 11
238.252066
 21
70.262136
 31
0.0
  0
LINE
  5
337
330
312
100
AcDbEntity
  8
LC-001-100-D00-0
 62
     7
370
    25
100
AcDbLine
 10
247.191875
 20
76.208527
 30
0.0
 11
241.245484
 21
70.262136
 31
0.0
  0
LINE
  5
338
330
312
100
AcDbEntity
  8
LC-001-100-D00-0
 62
     7
370
    25
100
AcDbLine
 10
248.582027
 20
74.60526
 30
0.0
 11
244.238903
 21
70.262136
 31
0.0
  0
LINE
  5
339
330
312
100
AcDbEntity
  8
LC-001-100-D00-0
 62
     7
370
    25
100
AcDbLine
 10
248.582027
 20
71.611841
 30
0.0
 11
245.232322
 21
68.262136
 31
0.0
  0
ENDBLK
  5
314
330
312
100
AcDbEntity
  8
0
100
AcDbBlockEnd
  0
BLOCK
  5
33C
330
33B
100
AcDbEntity
  8
0
100
AcDbBlockBegin
  2
KLON6
 70
     0
 71
     0
 10
0.0
 20
0.0
 30
0.0
  3
KLON6
  1

  4
KLON6
  0
LINE
  5
33E
330
33B
100
AcDbEntity
  8
LC-001-100-D00-0
 62
     7
370
    25
100
AcDbLine
 10
198.620618
 20
198.262136
 30
0.0
 11
194.582027
 21
194.223545
 31
0.0
  0
LINE
  5
33F
330
33B
100
AcDbEntity
  8
LC-001-100-D00-0
 62
     7
370
    25
100
AcDbLine
 10
201.614037
 20
198.262136
 30
0.0
 11
194.582027
 21
191.230127
 31
0.0
  0
LINE
  5
340
330
33B
100
AcDbEntity
  8
LC-001-100-D00-0
 62
     7
370
    25
100
AcDbLine
 10
204.607455
 20
198.262136
 30
0.0
 11
199.857455
 21
193.512136
 31
0.0
  0
LINE
  5
341
330
33B
100
AcDbEntity
  8
LC-001-100-D00-0
 62
     7
370
    25
100
AcDbLine
 10
207.600874
 20
198.262136
 30
0.0
 11
201.059604
 21
191.720866
 31
0.0
  0
LINE
  5
342
330
33B
100
AcDbEntity
  8
LC-001-100-D00-0
 62
     7
370
    25
100
AcDbLine
 10
210.594293
 20
198.262136
 30
0.0
 11
205.837663
 21
193.505507
 31
0.0
  0
LINE
  5
343
330
33B
100
AcDbEntity
  8
LC-001-100-D00-0
 62
     7
370
    25
100
AcDbLine
 10
205.22466
 20
192.892503
 30
0.0
 11
200.772604
 21
188.440448
 31
0.0
  0
LINE
  5
344
330
33B
100
AcDbEntity
  8
LC-001-100-D00-0
 62
     7
370
    25
100
AcDbLine
 10
213.587712
 20
198.262136
 30
0.0
 11
207.060866
 21
191.735291
 31
0.0
  0
LINE
  5
345
330
33B
100
AcDbEntity
  8
LC-001-100-D00-0
 62
     7
370
    25
100
AcDbLine
 10
216.58113
 20
198.262136
 30
0.0
 11
211.821586
 21
193.502592
 31
0.0
  0
LINE
  5
346
330
33B
100
AcDbEntity
  8
LC-001-100-D00-0
 62
     7
370
    25
100
AcDbLine
 10
211.255403
 20
192.936409
 30
0.0
 11
206.773866
 21
188.454873
 31
0.0
  0
LINE
  5
347
330
33B
100
AcDbEntity
  8
LC-001-100-D00-0
 62
     7
370
    25
100
AcDbLine
 10
219.574549
 20
198.262136
 30
0.0
 11
213.062128
 21
191.749715
 31
0.0
  0
LINE
  5
348
330
33B
100
AcDbEntity
  8
LC-001-100-D00-0
 62
     7
370
    25
100
AcDbLine
 10
222.567968
 20
198.262136
 30
0.0
 11
217.804793
 21
193.498962
 31
0.0
  0
LINE
  5
349
330
33B
100
AcDbEntity
  8
LC-001-100-D00-0
 62
     7
370
    25
100
AcDbLine
 10
217.286146
 20
192.980315
 30
0.0
 11
212.775128
 21
188.469297
 31
0.0
  0
LINE
  5
34A
330
33B
100
AcDbEntity
  8
LC-001-100-D00-0
 62
     7
370
    25
100
AcDbLine
 10
225.561386
 20
198.262136
 30
0.0
 11
219.06339
 21
191.76414
 31
0.0
  0
LINE
  5
34B
330
33B
100
AcDbEntity
  8
LC-001-100-D00-0
 62
     7
370
    25
100
AcDbLine
 10
228.554805
 20
198.262136
 30
0.0
 11
223.787161
 21
193.494492
 31
0.0
  0
LINE
  5
34C
330
33B
100
AcDbEntity
  8
LC-001-100-D00-0
 62
     7
370
    25
100
AcDbLine
 10
223.316889
 20
193.02422
 30
0.0
 11
218.77639
 21
188.483722
 31
0.0
  0
LINE
  5
34D
330
33B
100
AcDbEntity
  8
LC-001-100-D00-0
 62
     7
370
    25
100
AcDbLine
 10
231.548224
 20
198.262136
 30
0.0
 11
225.064652
 21
191.778564
 31
0.0
  0
LINE
  5
34E
330
33B
100
AcDbEntity
  8
LC-001-100-D00-0
 62
     7
370
    25
100
AcDbLine
 10
234.541642
 20
198.262136
 30
0.0
 11
229.768519
 21
193.489013
 31
0.0
  0
LINE
  5
34F
330
33B
100
AcDbEntity
  8
LC-001-100-D00-0
 62
     7
370
    25
100
AcDbLine
 10
229.347632
 20
193.068126
 30
0.0
 11
224.777652
 21
188.498146
 31
0.0
  0
LINE
  5
350
330
33B
100
AcDbEntity
  8
LC-001-100-D00-0
 62
     7
370
    25
100
AcDbLine
 10
237.535061
 20
198.262136
 30
0.0
 11
231.065914
 21
191.792989
 31
0.0
  0
LINE
  5
351
330
33B
100
AcDbEntity
  8
LC-001-100-D00-0
 62
     7
370
    25
100
AcDbLine
 10
240.52848
 20
198.262136
 30
0.0
 11
235.748623
 21
193.48228
 31
0.0
  0
LINE
  5
352
330
33B
100
AcDbEntity
  8
LC-001-100-D00-0
 62
     7
370
    25
100
AcDbLine
 10
235.378375
 20
193.112032
 30
0.0
 11
230.778914
 21
188.512571
 31
0.0
  0
LINE
  5
353
330
33B
100
AcDbEntity
  8
LC-001-100-D00-0
 62
     7
370
    25
100
AcDbLine
 10
245.521899
 20
200.262136
 30
0.0
 11
244.582027
 21
199.322265
 31
0.0
  0
LINE
  5
354
330
33B
100
AcDbEntity
  8
LC-001-100-D00-0
 62
     7
370
    25
100
AcDbLine
 10
243.521899
 20
198.262136
 30
0.0
 11
237.067176
 21
191.807413
 31
0.0
  0
LINE
  5
355
330
33B
100
AcDbEntity
  8
LC-001-100-D00-0
 62
     7
370
    25
100
AcDbLine
 10
247.962492
 20
199.709311
 30
0.0
 11
241.727104
 21
193.473923
 31
0.0
  0
LINE
  5
356
330
33B
100
AcDbEntity
  8
LC-001-100-D00-0
 62
     7
370
    25
100
AcDbLine
 10
241.409118
 20
193.155937
 30
0.0
 11
236.780176
 21
188.526995
 31
0.0
  0
LINE
  5
357
330
33B
100
AcDbEntity
  8
LC-001-100-D00-0
 62
     7
370
    25
100
AcDbLine
 10
248.582027
 20
197.335427
 30
0.0
 11
243.068438
 21
191.821838
 31
0.0
  0
LINE
  5
358
330
33B
100
AcDbEntity
  8
LC-001-100-D00-0
 62
     7
370
    25
100
AcDbLine
 10
248.582027
 20
194.342008
 30
0.0
 11
242.781438
 21
188.54142
 31
0.0
  0
ENDBLK
  5
33D
330
33B
100
AcDbEntity
  8
0
100
AcDbBlockEnd
  0
BLOCK
  5
35B
330
35A
100
AcDbEntity
  8
0
100
AcDbBlockBegin
  2
KLON7
 70
     0
 71
     0
 10
0.0
 20
0.0
 30
0.0
  3
KLON7
  1

  4
KLON7
  0
LINE
  5
35D
330
35A
100
AcDbEntity
  8
LC-001-100-D00-0
 62
     7
370
    25
100
AcDbLine
 10
253.472138
 20
200.811756
 30
0.0
 11
249.967563
 21
204.316331
 31
0.0
  0
LINE
  5
35E
330
35A
100
AcDbEntity
  8
LC-001-100-D00-0
 62
     7
370
    25
100
AcDbLine
 10
253.796625
 20
198.242205
 30
0.0
 11
247.526694
 21
204.512136
 31
0.0
  0
LINE
  5
35F
330
35A
100
AcDbEntity
  8
LC-001-100-D00-0
 62
     7
370
    25
100
AcDbLine
 10
253.582027
 20
196.211739
 30
0.0
 11
248.582027
 21
201.211739
 31
0.0
  0
LINE
  5
360
330
35A
100
AcDbEntity
  8
LC-001-100-D00-0
 62
     7
370
    25
100
AcDbLine
 10
247.78163
 20
202.012136
 30
0.0
 11
245.28163
 21
204.512136
 31
0.0
  0
LINE
  5
361
330
35A
100
AcDbEntity
  8
LC-001-100-D00-0
 62
     7
370
    25
100
AcDbLine
 10
253.894431
 20
193.654271
 30
0.0
 11
248.582027
 21
198.966675
 31
0.0
  0
LINE
  5
362
330
35A
100
AcDbEntity
  8
LC-001-100-D00-0
 62
     7
370
    25
100
AcDbLine
 10
245.536566
 20
202.012136
 30
0.0
 11
243.036566
 21
204.512136
 31
0.0
  0
LINE
  5
363
330
35A
100
AcDbEntity
  8
LC-001-100-D00-0
 62
     7
370
    25
100
AcDbLine
 10
251.841502
 20
193.462136
 30
0.0
 11
248.582027
 21
196.721611
 31
0.0
  0
LINE
  5
364
330
35A
100
AcDbEntity
  8
LC-001-100-D00-0
 62
     7
370
    25
100
AcDbLine
 10
243.291502
 20
202.012136
 30
0.0
 11
240.791502
 21
204.512136
 31
0.0
  0
LINE
  5
365
330
35A
100
AcDbEntity
  8
LC-001-100-D00-0
 62
     7
370
    25
100
AcDbLine
 10
249.596438
 20
193.462136
 30
0.0
 11
248.582027
 21
194.476547
 31
0.0
  0
LINE
  5
366
330
35A
100
AcDbEntity
  8
LC-001-100-D00-0
 62
     7
370
    25
100
AcDbLine
 10
241.046438
 20
202.012136
 30
0.0
 11
238.546438
 21
204.512136
 31
0.0
  0
LINE
  5
367
330
35A
100
AcDbEntity
  8
LC-001-100-D00-0
 62
     7
370
    25
100
AcDbLine
 10
238.801374
 20
202.012136
 30
0.0
 11
236.301374
 21
204.512136
 31
0.0
  0
LINE
  5
368
330
35A
100
AcDbEntity
  8
LC-001-100-D00-0
 62
     7
370
    25
100
AcDbLine
 10
236.55631
 20
202.012136
 30
0.0
 11
234.05631
 21
204.512136
 31
0.0
  0
LINE
  5
369
330
35A
100
AcDbEntity
  8
LC-001-100-D00-0
 62
     7
370
    25
100
AcDbLine
 10
235.20415
 20
201.119232
 30
0.0
 11
232.282027
 21
204.041355
 31
0.0
  0
LINE
  5
36A
330
35A
100
AcDbEntity
  8
LC-001-100-D00-0
 62
     7
370
    25
100
AcDbLine
 10
232.804164
 20
201.274154
 30
0.0
 11
232.282027
 21
201.796291
 31
0.0
  0
ENDBLK
  5
35C
330
35A
100
AcDbEntity
  8
0
100
AcDbBlockEnd
  0
BLOCK
  5
36D
330
36C
100
AcDbEntity
  8
0
100
AcDbBlockBegin
  2
KLON8
 70
     0
 71
     0
 10
0.0
 20
0.0
 30
0.0
  3
KLON8
  1

  4
KLON8
  0
LINE
  5
36F
330
36C
100
AcDbEntity
  8
LC-001-100-D00-0
 62
     7
370
    25
100
AcDbLine
 10
253.982027
 20
74.578282
 30
0.0
 11
253.646609
 21
74.9137
 31
0.0
  0
LINE
  5
370
330
36C
100
AcDbEntity
  8
LC-001-100-D00-0
 62
     7
370
    25
100
AcDbLine
 10
253.582027
 20
74.978282
 30
0.0
 11
253.498172
 21
75.062136
 31
0.0
  0
LINE
  5
371
330
36C
100
AcDbEntity
  8
LC-001-100-D00-0
 62
     7
370
    25
100
AcDbLine
 10
253.982027
 20
72.333218
 30
0.0
 11
251.253108
 21
75.062136
 31
0.0
  0
LINE
  5
372
330
36C
100
AcDbEntity
  8
LC-001-100-D00-0
 62
     7
370
    25
100
AcDbLine
 10
253.982027
 20
70.088154
 30
0.0
 11
249.012852
 21
75.057328
 31
0.0
  0
LINE
  5
373
330
36C
100
AcDbEntity
  8
LC-001-100-D00-0
 62
     7
370
    25
100
AcDbLine
 10
253.660531
 20
68.164586
 30
0.0
 11
248.582027
 21
73.243089
 31
0.0
  0
LINE
  5
374
330
36C
100
AcDbEntity
  8
LC-001-100-D00-0
 62
     7
370
    25
100
AcDbLine
 10
252.968209
 20
66.611843
 30
0.0
 11
248.582027
 21
70.998025
 31
0.0
  0
LINE
  5
375
330
36C
100
AcDbEntity
  8
LC-001-100-D00-0
 62
     7
370
    25
100
AcDbLine
 10
251.985598
 20
65.349391
 30
0.0
 11
248.582027
 21
68.752961
 31
0.0
  0
LINE
  5
376
330
36C
100
AcDbEntity
  8
LC-001-100-D00-0
 62
     7
370
    25
100
AcDbLine
 10
250.636295
 20
64.45363
 30
0.0
 11
248.577638
 21
66.512286
 31
0.0
  0
LINE
  5
377
330
36C
100
AcDbEntity
  8
LC-001-100-D00-0
 62
     7
370
    25
100
AcDbLine
 10
248.826732
 20
64.018128
 30
0.0
 11
246.332724
 21
66.512136
 31
0.0
  0
LINE
  5
378
330
36C
100
AcDbEntity
  8
LC-001-100-D00-0
 62
     7
370
    25
100
AcDbLine
 10
246.58766
 20
64.012136
 30
0.0
 11
244.08766
 21
66.512136
 31
0.0
  0
LINE
  5
379
330
36C
100
AcDbEntity
  8
LC-001-100-D00-0
 62
     7
370
    25
100
AcDbLine
 10
244.342596
 20
64.012136
 30
0.0
 11
241.842596
 21
66.512136
 31
0.0
  0
LINE
  5
37A
330
36C
100
AcDbEntity
  8
LC-001-100-D00-0
 62
     7
370
    25
100
AcDbLine
 10
242.097532
 20
64.012136
 30
0.0
 11
239.597532
 21
66.512136
 31
0.0
  0
LINE
  5
37B
330
36C
100
AcDbEntity
  8
LC-001-100-D00-0
 62
     7
370
    25
100
AcDbLine
 10
239.852468
 20
64.012136
 30
0.0
 11
237.352468
 21
66.512136
 31
0.0
  0
LINE
  5
37C
330
36C
100
AcDbEntity
  8
LC-001-100-D00-0
 62
     7
370
    25
100
AcDbLine
 10
237.607404
 20
64.012136
 30
0.0
 11
234.107404
 21
67.512136
 31
0.0
  0
LINE
  5
37D
330
36C
100
AcDbEntity
  8
LC-001-100-D00-0
 62
     7
370
    25
100
AcDbLine
 10
235.36234
 20
64.012136
 30
0.0
 11
232.282027
 21
67.092449
 31
0.0
  0
LINE
  5
37E
330
36C
100
AcDbEntity
  8
LC-001-100-D00-0
 62
     7
370
    25
100
AcDbLine
 10
233.117276
 20
64.012136
 30
0.0
 11
232.282027
 21
64.847385
 31
0.0
  0
ENDBLK
  5
36E
330
36C
100
AcDbEntity
  8
0
100
AcDbBlockEnd
  0
BLOCK
  5
38E
330
384
100
AcDbEntity
  8
0
100
AcDbBlockBegin
  2
*D19
 70
     1
 71
     0
 10
0.0
 20
0.0
 30
0.0
  3
*D19
  1

  0
LINE
  5
385
330
384
100
AcDbEntity
  8
LC-001-100-D00-0
 62
     2
370
    -2
100
AcDbLine
 10
94.119334
 20
79.216136
 30
0.0
 11
71.544062
 21
79.216136
 31
0.0
  0
LINE
  5
386
330
384
100
AcDbEntity
  8
LC-001-100-D00-0
 62
     2
370
    -2
100
AcDbLine
 10
94.119334
 20
189.308136
 30
0.0
 11
71.544062
 21
189.308136
 31
0.0
  0
LINE
  5
387
330
384
100
AcDbEntity
  8
LC-001-100-D00-0
 62
     2
370
    -2
100
AcDbLine
 10
75.144062
 20
107.216136
 30
0.0
 11
75.144062
 21
161.308136
 31
0.0
  0
SOLID
  5
388
330
384
100
AcDbEntity
  8
LC-001-100-D00-0
 62
     2
100
AcDbTrace
 10
70.477395
 20
107.216136
 30
0.0
 11
79.810729
 21
107.216136
 31
0.0
 12
75.144062
 22
79.216136
 32
0.0
 13
75.144062
 23
79.216136
 33
0.0
  0
SOLID
  5
389
330
384
100
AcDbEntity
  8
LC-001-100-D00-0
 62
     2
100
AcDbTrace
 10
79.810729
 20
161.308136
 30
0.0
 11
70.477395
 21
161.308136
 31
0.0
 12
75.144062
 22
189.308136
 32
0.0
 13
75.144062
 23
189.308136
 33
0.0
  0
MTEXT
  5
38A
330
384
100
AcDbEntity
  8
LC-001-100-D00-0
 62
     2
100
AcDbMText
 10
44.344062
 20
130.013568
 30
0.0
 40
28.0
 41
0.0
 71
     5
 72
     1
  1
\A1;DN100
  7
LCTX15-400-0-0pDIN-Schrift
 11
6.123031769111886E-17
 21
1.0
 31
0.0
 73
     1
 44
1.0
  0
POINT
  5
38B
330
384
100
AcDbEntity
  8
Defpoints
 62
     0
100
AcDbPoint
 10
94.119334
 20
79.216136
 30
0.0
  0
POINT
  5
38C
330
384
100
AcDbEntity
  8
Defpoints
 62
     0
100
AcDbPoint
 10
94.119334
 20
189.308136
 30
0.0
  0
POINT
  5
38D
330
384
100
AcDbEntity
  8
Defpoints
 62
     0
100
AcDbPoint
 10
75.144062
 20
189.308136
 30
0.0
  0
ENDBLK
  5
38F
330
384
100
AcDbEntity
  8
0
100
AcDbBlockEnd
  0
BLOCK
  5
39B
330
391
100
AcDbEntity
  8
0
100
AcDbBlockBegin
  2
*D20
 70
     1
 71
     0
 10
0.0
 20
0.0
 30
0.0
  3
*D20
  1

  0
LINE
  5
392
330
391
100
AcDbEntity
  8
LC-001-100-D00-0
 62
     2
370
    -2
100
AcDbLine
 10
94.119334
 20
76.206136
 30
0.0
 11
94.119334
 21
17.711568
 31
0.0
  0
LINE
  5
393
330
391
100
AcDbEntity
  8
LC-001-100-D00-0
 62
     2
370
    -2
100
AcDbLine
 10
253.982027
 20
69.988596
 30
0.0
 11
253.982027
 21
17.711568
 31
0.0
  0
LINE
  5
394
330
391
100
AcDbEntity
  8
LC-001-100-D00-0
 62
     2
370
    -2
100
AcDbLine
 10
122.119334
 20
21.311568
 30
0.0
 11
225.982027
 21
21.311568
 31
0.0
  0
SOLID
  5
395
330
391
100
AcDbEntity
  8
LC-001-100-D00-0
 62
     2
100
AcDbTrace
 10
122.119334
 20
25.978235
 30
0.0
 11
122.119334
 21
16.644902
 31
0.0
 12
94.119334
 22
21.311568
 32
0.0
 13
94.119334
 23
21.311568
 33
0.0
  0
SOLID
  5
396
330
391
100
AcDbEntity
  8
LC-001-100-D00-0
 62
     2
100
AcDbTrace
 10
225.982027
 20
16.644902
 30
0.0
 11
225.982027
 21
25.978235
 31
0.0
 12
253.982027
 22
21.311568
 32
0.0
 13
253.982027
 23
21.311568
 33
0.0
  0
MTEXT
  5
397
330
391
100
AcDbEntity
  8
LC-001-100-D00-0
 62
     2
100
AcDbMText
 10
168.816295
 20
52.111568
 30
0.0
 40
28.0
 41
0.0
 71
     5
 72
     1
  1
\A1;160
  7
LCTX15-400-0-0pDIN-Schrift
 73
     1
 44
1.0
  0
POINT
  5
398
330
391
100
AcDbEntity
  8
Defpoints
 62
     0
100
AcDbPoint
 10
94.119334
 20
76.206136
 30
0.0
  0
POINT
  5
399
330
391
100
AcDbEntity
  8
Defpoints
 62
     0
100
AcDbPoint
 10
253.982027
 20
69.988596
 30
0.0
  0
POINT
  5
39A
330
391
100
AcDbEntity
  8
Defpoints
 62
     0
100
AcDbPoint
 10
253.982027
 20
21.311568
 30
0.0
  0
ENDBLK
  5
39C
330
391
100
AcDbEntity
  8
0
100
AcDbBlockEnd
  0
BLOCK
  5
3AC
330
3A2
100
AcDbEntity
  8
0
100
AcDbBlockBegin
  2
*D21
 70
     1
 71
     0
 10
0.0
 20
0.0
 30
0.0
  3
*D21
  1

  0
LINE
  5
3A3
330
3A2
100
AcDbEntity
  8
LC-002-003-----0
 62
     2
370
    -2
100
AcDbLine
 10
242.87586
 20
187.069437
 30
0.0
 11
303.017005
 21
187.069437
 31
0.0
  0
LINE
  5
3A4
330
3A2
100
AcDbEntity
  8
LC-002-003-----0
 62
     2
370
    -2
100
AcDbLine
 10
242.87586
 20
81.454836
 30
0.0
 11
303.017005
 21
81.454836
 31
0.0
  0
LINE
  5
3A5
330
3A2
100
AcDbEntity
  8
LC-002-003-----0
 62
     2
370
    -2
100
AcDbLine
 10
299.417005
 20
159.069437
 30
0.0
 11
299.417005
 21
109.454836
 31
0.0
  0
SOLID
  5
3A6
330
3A2
100
AcDbEntity
  8
LC-002-003-----0
 62
     2
100
AcDbTrace
 10
304.083671
 20
159.069437
 30
0.0
 11
294.750338
 21
159.069437
 31
0.0
 12
299.417005
 22
187.069437
 32
0.0
 13
299.417005
 23
187.069437
 33
0.0
  0
SOLID
  5
3A7
330
3A2
100
AcDbEntity
  8
LC-002-003-----0
 62
     2
100
AcDbTrace
 10
294.750338
 20
109.454836
 30
0.0
 11
304.083671
 21
109.454836
 31
0.0
 12
299.417005
 22
81.454836
 32
0.0
 13
299.417005
 23
81.454836
 33
0.0
  0
MTEXT
  5
3A8
330
3A2
100
AcDbEntity
  8
LC-002-003-----0
 62
     2
100
AcDbMText
 10
268.617005
 20
152.585568
 30
0.0
 40
28.0
 41
0.0
 71
     5
 72
     1
  1
\A1;DN100(SML)
  7
LCTX15-400-0-0pDIN-Schrift
 11
6.123031769111886E-17
 21
1.0
 31
0.0
 73
     1
 44
1.0
  0
POINT
  5
3A9
330
3A2
100
AcDbEntity
  8
Defpoints
 62
     0
100
AcDbPoint
 10
242.87586
 20
187.069437
 30
0.0
  0
POINT
  5
3AA
330
3A2
100
AcDbEntity
  8
Defpoints
 62
     0
100
AcDbPoint
 10
242.87586
 20
81.454836
 30
0.0
  0
POINT
  5
3AB
330
3A2
100
AcDbEntity
  8
Defpoints
 62
     0
100
AcDbPoint
 10
299.417005
 20
81.454836
 30
0.0
  0
ENDBLK
  5
3AD
330
3A2
100
AcDbEntity
  8
0
100
AcDbBlockEnd
  0
ENDSEC
  0
SECTION
  2
ENTITIES
  0
LINE
  5
32
330
1F
100
AcDbEntity
  8
LC-001-100-D00-0
 62
     7
370
    50
100
AcDbLine
 10
253.98203
 20
83.528522
 30
0.0
 11
253.582023
 21
83.589606
 31
0.0
  0
LINE
  5
33
330
1F
100
AcDbEntity
  8
LC-001-100-D00-0
 62
     7
370
    50
100
AcDbLine
 10
253.582023
 20
184.934668
 30
0.0
 11
253.98203
 21
184.995748
 31
0.0
  0
LINE
  5
34
330
1F
100
AcDbEntity
  8
LC-001-100-D00-0
 62
     7
370
    50
100
AcDbLine
 10
253.98203
 20
106.185265
 30
0.0
 11
253.582023
 21
106.220528
 31
0.0
  0
LINE
  5
35
330
1F
100
AcDbEntity
  8
LC-001-100-D00-0
 62
     7
370
    50
100
AcDbLine
 10
253.582023
 20
162.303744
 30
0.0
 11
253.98203
 21
162.339009
 31
0.0
  0
LINE
  5
36
330
1F
100
AcDbEntity
  8
LC-001-100-D00-0
 62
     7
370
    50
100
AcDbLine
 10
102.489628
 20
190.809692
 30
0.0
 11
102.489628
 21
77.518467
 31
0.0
  0
ARC
  5
37
330
1F
100
AcDbEntity
  8
LC-001-100-D00-0
 62
     7
370
    50
100
AcDbCircle
 10
248.647027
 20
198.53568
 30
0.0
 40
5.33499999999998
100
AcDbArc
 50
0.0
 51
28.850793
  0
LINE
  5
38
330
1F
100
AcDbEntity
  8
LC-001-100-D00-0
 62
     7
370
    50
100
AcDbLine
 10
253.582023
 20
75.062133
 30
0.0
 11
249.082029
 21
75.062133
 31
0.0
  0
LINE
  5
39
330
1F
100
AcDbEntity
  8
LC-001-100-D00-0
 62
     7
370
    50
100
AcDbLine
 10
253.582023
 20
75.062133
 30
0.0
 11
253.582023
 21
74.925087
 31
0.0
  0
LINE
  5
3A
330
1F
100
AcDbEntity
  8
LC-001-100-D00-0
 62
     7
370
    50
100
AcDbLine
 10
253.98203
 20
74.85456
 30
0.0
 11
253.582023
 21
74.925087
 31
0.0
  0
LINE
  5
3B
330
1F
100
AcDbEntity
  8
LC-001-100-D00-0
 62
     7
370
    50
100
AcDbLine
 10
253.98203
 20
69.988593
 30
0.0
 11
253.98203
 21
74.85456
 31
0.0
  0
ARC
  5
3C
330
1F
100
AcDbEntity
  8
LC-001-100-D00-0
 62
     7
370
    50
100
AcDbCircle
 10
248.647027
 20
69.988593
 30
0.0
 40
5.334999999999969
100
AcDbArc
 50
331.149207
 51
0.0
  0
ARC
  5
3D
330
1F
100
AcDbEntity
  8
LC-001-100-D00-0
 62
     7
370
    50
100
AcDbCircle
 10
248.582027
 20
69.012136
 30
0.0
 40
5.000000000000057
100
AcDbArc
 50
270.0
 51
341.363167
  0
LINE
  5
3E
330
1F
100
AcDbEntity
  8
LC-001-100-D00-0
 62
     7
370
    50
100
AcDbLine
 10
248.582028
 20
64.01214
 30
0.0
 11
232.282028
 21
64.01214
 31
0.0
  0
LINE
  5
3F
330
1F
100
AcDbEntity
  8
LC-001-100-D00-0
 62
     7
370
    50
100
AcDbLine
 10
232.282028
 20
67.11021
 30
0.0
 11
232.282028
 21
64.01214
 31
0.0
  0
LINE
  5
40
330
1F
100
AcDbEntity
  8
LC-001-100-D00-0
 62
     7
370
    50
100
AcDbLine
 10
233.782027
 20
67.51214
 30
0.0
 11
232.282028
 21
67.11021
 31
0.0
  0
LINE
  5
41
330
1F
100
AcDbEntity
  8
LC-001-100-D00-0
 62
     7
370
    50
100
AcDbLine
 10
234.894916
 20
67.51214
 30
0.0
 11
233.782027
 21
67.51214
 31
0.0
  0
ARC
  5
42
330
1F
100
AcDbEntity
  8
LC-001-100-D00-0
 62
     7
370
    50
100
AcDbCircle
 10
234.894915
 20
67.012136
 30
0.0
 40
0.4999999999999639
100
AcDbArc
 50
45.0
 51
90.0
  0
LINE
  5
43
330
1F
100
AcDbEntity
  8
LC-001-100-D00-0
 62
     7
370
    50
100
AcDbLine
 10
235.955574
 20
66.658586
 30
0.0
 11
235.248469
 21
67.365691
 31
0.0
  0
ARC
  5
44
330
1F
100
AcDbEntity
  8
LC-001-100-D00-0
 62
     7
370
    50
100
AcDbCircle
 10
236.309128
 20
67.012136
 30
0.0
 40
0.5000000000000442
100
AcDbArc
 50
225.0
 51
270.0
  0
LINE
  5
45
330
1F
100
AcDbEntity
  8
LC-001-100-D00-0
 62
     7
370
    50
100
AcDbLine
 10
248.550266
 20
66.512137
 30
0.0
 11
236.309126
 21
66.512137
 31
0.0
  0
ARC
  5
46
330
1F
100
AcDbEntity
  8
LC-001-100-D00-0
 62
     7
370
    50
100
AcDbCircle
 10
248.550269
 20
69.012136
 30
0.0
 40
2.5
100
AcDbArc
 50
270.0
 51
270.727862
  0
LINE
  5
47
330
1F
100
AcDbEntity
  8
LC-001-100-D00-0
 62
     7
370
    50
100
AcDbLine
 10
248.582028
 20
74.56214
 30
0.0
 11
248.582028
 21
66.512339
 31
0.0
  0
ARC
  5
48
330
1F
100
AcDbEntity
  8
LC-001-100-D00-0
 62
     7
370
    50
100
AcDbCircle
 10
249.082027
 20
74.562136
 30
0.0
 40
0.5
100
AcDbArc
 50
90.0
 51
180.0
  0
ARC
  5
49
330
1F
100
AcDbEntity
  8
LC-001-100-D00-0
 62
     7
370
    50
100
AcDbCircle
 10
248.550269
 20
199.512136
 30
0.0
 40
2.500000000000131
100
AcDbArc
 50
89.272138
 51
90.0
  0
LINE
  5
4A
330
1F
100
AcDbEntity
  8
LC-001-100-D00-0
 62
     7
370
    50
100
AcDbLine
 10
236.309126
 20
202.012136
 30
0.0
 11
248.550266
 21
202.012136
 31
0.0
  0
ARC
  5
4B
330
1F
100
AcDbEntity
  8
LC-001-100-D00-0
 62
     7
370
    50
100
AcDbCircle
 10
236.309128
 20
201.512136
 30
0.0
 40
0.5000000000001137
100
AcDbArc
 50
90.0
 51
135.0
  0
LINE
  5
4C
330
1F
100
AcDbEntity
  8
LC-001-100-D00-0
 62
     7
370
    50
100
AcDbLine
 10
235.248469
 20
201.158583
 30
0.0
 11
235.955574
 21
201.865688
 31
0.0
  0
ARC
  5
4D
330
1F
100
AcDbEntity
  8
LC-001-100-D00-0
 62
     7
370
    50
100
AcDbCircle
 10
234.894915
 20
201.512136
 30
0.0
 40
0.4999999999998863
100
AcDbArc
 50
270.0
 51
315.0
  0
LINE
  5
4E
330
1F
100
AcDbEntity
  8
LC-001-100-D00-0
 62
     7
370
    50
100
AcDbLine
 10
233.782027
 20
201.012138
 30
0.0
 11
234.894916
 21
201.012138
 31
0.0
  0
LINE
  5
4F
330
1F
100
AcDbEntity
  8
LC-001-100-D00-0
 62
     7
370
    50
100
AcDbLine
 10
232.282028
 20
201.414063
 30
0.0
 11
233.782027
 21
201.012138
 31
0.0
  0
LINE
  5
50
330
1F
100
AcDbEntity
  8
LC-001-100-D00-0
 62
     7
370
    50
100
AcDbLine
 10
232.282028
 20
204.512134
 30
0.0
 11
232.282028
 21
201.414063
 31
0.0
  0
LINE
  5
51
330
1F
100
AcDbEntity
  8
LC-001-100-D00-0
 62
     7
370
    50
100
AcDbLine
 10
232.282028
 20
204.512134
 30
0.0
 11
248.582028
 21
204.512134
 31
0.0
  0
ARC
  5
52
330
1F
100
AcDbEntity
  8
LC-001-100-D00-0
 62
     7
370
    50
100
AcDbCircle
 10
248.582027
 20
199.512136
 30
0.0
 40
5.000000000000029
100
AcDbArc
 50
18.636833
 51
90.0
  0
LINE
  5
53
330
1F
100
AcDbEntity
  8
LC-001-100-D00-0
 62
     7
370
    50
100
AcDbLine
 10
253.98203
 20
198.397778
 30
0.0
 11
253.98203
 21
198.535677
 31
0.0
  0
LINE
  5
54
330
1F
100
AcDbEntity
  8
LC-001-100-D00-0
 62
     7
370
    50
100
AcDbLine
 10
253.582023
 20
198.062137
 30
0.0
 11
253.98203
 21
198.397778
 31
0.0
  0
LINE
  5
55
330
1F
100
AcDbEntity
  8
LC-001-100-D00-0
 62
     7
370
    50
100
AcDbLine
 10
253.582023
 20
198.062137
 30
0.0
 11
253.582023
 21
194.662135
 31
0.0
  0
LINE
  5
56
330
1F
100
AcDbEntity
  8
LC-001-100-D00-0
 62
     7
370
    50
100
AcDbLine
 10
253.98203
 20
194.326497
 30
0.0
 11
253.582023
 21
194.662135
 31
0.0
  0
LINE
  5
57
330
1F
100
AcDbEntity
  8
LC-001-100-D00-0
 62
     7
370
    50
100
AcDbLine
 10
253.98203
 20
193.669718
 30
0.0
 11
253.98203
 21
194.326497
 31
0.0
  0
LINE
  5
58
330
1F
100
AcDbEntity
  8
LC-001-100-D00-0
 62
     7
370
    50
100
AcDbLine
 10
253.582023
 20
193.599187
 30
0.0
 11
253.98203
 21
193.669718
 31
0.0
  0
LINE
  5
59
330
1F
100
AcDbEntity
  8
LC-001-100-D00-0
 62
     7
370
    50
100
AcDbLine
 10
253.582023
 20
193.599187
 30
0.0
 11
253.582023
 21
193.462137
 31
0.0
  0
LINE
  5
5A
330
1F
100
AcDbEntity
  8
LC-001-100-D00-0
 62
     7
370
    50
100
AcDbLine
 10
249.082029
 20
193.462137
 30
0.0
 11
253.582023
 21
193.462137
 31
0.0
  0
ARC
  5
5B
330
1F
100
AcDbEntity
  8
LC-001-100-D00-0
 62
     7
370
    50
100
AcDbCircle
 10
249.082027
 20
193.962136
 30
0.0
 40
0.5000000000000568
100
AcDbArc
 50
180.0
 51
270.0
  0
LINE
  5
5C
330
1F
100
AcDbEntity
  8
LC-001-100-D00-0
 62
     7
370
    50
100
AcDbLine
 10
248.582028
 20
202.011935
 30
0.0
 11
248.582028
 21
193.962138
 31
0.0
  0
INSERT
  5
9A
330
1F
100
AcDbEntity
  8
LC-001-100-D00-0
 62
     7
370
    50
100
AcDbBlockReference
  2
POLY1
 10
0.0
 20
0.0
 30
0.0
  0
INSERT
  5
AC
330
1F
100
AcDbEntity
  8
LC-001-100-D00-0
 62
     7
370
    50
100
AcDbBlockReference
  2
POLY2
 10
0.0
 20
0.0
 30
0.0
  0
LINE
  5
AD
330
1F
100
AcDbEntity
  8
LC-001-100-D00-0
 62
     7
370
    50
100
AcDbLine
 10
253.582023
 20
193.462137
 30
0.0
 11
253.582023
 21
75.062133
 31
0.0
  0
LINE
  5
AE
330
1F
100
AcDbEntity
  8
LC-001-100-D00-0
 62
     7
370
    50
100
AcDbLine
 10
253.98203
 20
194.326497
 30
0.0
 11
253.98203
 21
198.397778
 31
0.0
  0
LINE
  5
AF
330
1F
100
AcDbEntity
  8
LC-001-100-D00-0
 62
     7
370
    50
100
AcDbLine
 10
233.782027
 20
201.012138
 30
0.0
 11
233.782027
 21
200.762138
 31
0.0
  0
LINE
  5
B0
330
1F
100
AcDbEntity
  8
LC-001-100-D00-0
 62
     7
370
    50
100
AcDbLine
 10
233.782027
 20
67.762136
 30
0.0
 11
233.782027
 21
67.51214
 31
0.0
  0
LINE
  5
B1
330
1F
100
AcDbEntity
  8
LC-001-100-D00-0
 62
     7
370
    50
100
AcDbLine
 10
232.282028
 20
201.414063
 30
0.0
 11
232.282028
 21
200.762138
 31
0.0
  0
LINE
  5
B2
330
1F
100
AcDbEntity
  8
LC-001-100-D00-0
 62
     7
370
    50
100
AcDbLine
 10
232.282028
 20
67.762136
 30
0.0
 11
232.282028
 21
67.11021
 31
0.0
  0
LINE
  5
B3
330
1F
100
AcDbEntity
  8
LC-001-100-D00-0
 62
     7
370
    50
100
AcDbLine
 10
253.98203
 20
80.284156
 30
0.0
 11
253.98203
 21
82.291163
 31
0.0
  0
LINE
  5
B4
330
1F
100
AcDbEntity
  8
LC-001-100-D00-0
 62
     7
370
    50
100
AcDbLine
 10
253.98203
 20
186.233111
 30
0.0
 11
253.98203
 21
188.240114
 31
0.0
  0
INSERT
  5
C0
330
1F
100
AcDbEntity
  8
LC-001-100-D00-0
 62
     7
370
    50
100
AcDbBlockReference
  2
POLY3
 10
0.0
 20
0.0
 30
0.0
  0
LINE
  5
C1
330
1F
100
AcDbEntity
  8
LC-001-100-D00-0
 62
     7
370
    50
100
AcDbLine
 10
253.98203
 20
77.391736
 30
0.0
 11
253.98203
 21
80.284156
 31
0.0
  0
INSERT
  5
CD
330
1F
100
AcDbEntity
  8
LC-001-100-D00-0
 62
     7
370
    50
100
AcDbBlockReference
  2
POLY4
 10
0.0
 20
0.0
 30
0.0
  0
LINE
  5
CE
330
1F
100
AcDbEntity
  8
LC-001-100-D00-0
 62
     7
370
    50
100
AcDbLine
 10
253.98203
 20
191.132534
 30
0.0
 11
253.98203
 21
188.240114
 31
0.0
  0
LINE
  5
CF
330
1F
100
AcDbEntity
  8
LC-001-100-D00-0
 62
     7
370
    50
100
AcDbLine
 10
253.98203
 20
83.336163
 30
0.0
 11
253.98203
 21
82.291163
 31
0.0
  0
LINE
  5
D0
330
1F
100
AcDbEntity
  8
LC-001-100-D00-0
 62
     7
370
    50
100
AcDbLine
 10
253.98203
 20
186.233111
 30
0.0
 11
253.98203
 21
185.188111
 31
0.0
  0
LINE
  5
D1
330
1F
100
AcDbEntity
  8
LC-001-100-D00-0
 62
     7
370
    50
100
AcDbLine
 10
253.98203
 20
83.336163
 30
0.0
 11
253.98203
 21
83.528522
 31
0.0
  0
LINE
  5
D2
330
1F
100
AcDbEntity
  8
LC-001-100-D00-0
 62
     7
370
    50
100
AcDbLine
 10
253.98203
 20
184.995748
 30
0.0
 11
253.98203
 21
185.188111
 31
0.0
  0
LINE
  5
D3
330
1F
100
AcDbEntity
  8
LC-001-100-D00-0
 62
     7
370
    50
100
AcDbLine
 10
253.98203
 20
101.654559
 30
0.0
 11
253.98203
 21
103.653349
 31
0.0
  0
LINE
  5
D4
330
1F
100
AcDbEntity
  8
LC-001-100-D00-0
 62
     7
370
    50
100
AcDbLine
 10
253.98203
 20
164.870923
 30
0.0
 11
253.98203
 21
166.869713
 31
0.0
  0
LINE
  5
D5
330
1F
100
AcDbEntity
  8
LC-001-100-D00-0
 62
     7
370
    50
100
AcDbLine
 10
253.98203
 20
164.870923
 30
0.0
 11
253.98203
 21
163.060929
 31
0.0
  0
LINE
  5
D6
330
1F
100
AcDbEntity
  8
LC-001-100-D00-0
 62
     7
370
    50
100
AcDbLine
 10
253.98203
 20
105.463344
 30
0.0
 11
253.98203
 21
103.653349
 31
0.0
  0
INSERT
  5
E2
330
1F
100
AcDbEntity
  8
LC-001-100-D00-0
 62
     7
370
    50
100
AcDbBlockReference
  2
POLY5
 10
0.0
 20
0.0
 30
0.0
  0
LINE
  5
E3
330
1F
100
AcDbEntity
  8
LC-001-100-D00-0
 62
     7
370
    50
100
AcDbLine
 10
253.98203
 20
168.539652
 30
0.0
 11
253.98203
 21
166.869713
 31
0.0
  0
INSERT
  5
EF
330
1F
100
AcDbEntity
  8
LC-001-100-D00-0
 62
     7
370
    50
100
AcDbBlockReference
  2
POLY6
 10
0.0
 20
0.0
 30
0.0
  0
LINE
  5
F0
330
1F
100
AcDbEntity
  8
LC-001-100-D00-0
 62
     7
370
    50
100
AcDbLine
 10
253.98203
 20
99.98462
 30
0.0
 11
253.98203
 21
101.654559
 31
0.0
  0
LINE
  5
F1
330
1F
100
AcDbEntity
  8
LC-001-100-D00-0
 62
     7
370
    50
100
AcDbLine
 10
253.98203
 20
105.463344
 30
0.0
 11
253.98203
 21
106.185265
 31
0.0
  0
LINE
  5
F2
330
1F
100
AcDbEntity
  8
LC-001-100-D00-0
 62
     7
370
    50
100
AcDbLine
 10
253.98203
 20
162.339009
 30
0.0
 11
253.98203
 21
163.060929
 31
0.0
  0
LINE
  5
F3
330
1F
100
AcDbEntity
  8
LC-001-100-D00-0
 62
     7
370
    50
100
AcDbLine
 10
253.98203
 20
136.762136
 30
0.0
 11
253.582023
 21
136.762136
 31
0.0
  0
LINE
  5
F4
330
1F
100
AcDbEntity
  8
LC-001-100-D00-0
 62
     7
370
    50
100
AcDbLine
 10
253.98203
 20
135.307136
 30
0.0
 11
253.98203
 21
136.762136
 31
0.0
  0
LINE
  5
F5
330
1F
100
AcDbEntity
  8
LC-001-100-D00-0
 62
     7
370
    50
100
AcDbLine
 10
253.98203
 20
133.217136
 30
0.0
 11
253.98203
 21
135.307136
 31
0.0
  0
LINE
  5
F6
330
1F
100
AcDbEntity
  8
LC-001-100-D00-0
 62
     7
370
    50
100
AcDbLine
 10
253.98203
 20
131.762136
 30
0.0
 11
253.98203
 21
133.217136
 31
0.0
  0
LINE
  5
F7
330
1F
100
AcDbEntity
  8
LC-001-100-D00-0
 62
     7
370
    50
100
AcDbLine
 10
253.98203
 20
131.762136
 30
0.0
 11
253.582023
 21
131.762136
 31
0.0
  0
LINE
  5
F8
330
1F
100
AcDbEntity
  8
LC-001-100-D00-0
 62
     7
370
    50
100
AcDbLine
 10
246.258117
 20
191.512137
 30
0.0
 11
243.224211
 21
187.179271
 31
0.0
  0
ARC
  5
F9
330
1F
100
AcDbEntity
  8
LC-001-100-D00-0
 62
     7
370
    50
100
AcDbCircle
 10
242.978466
 20
187.351344
 30
0.0
 40
0.299999999999992
100
AcDbArc
 50
175.0
 51
325.0
  0
LINE
  5
FA
330
1F
100
AcDbEntity
  8
LC-001-100-D00-0
 62
     7
370
    50
100
AcDbLine
 10
242.679611
 20
187.37749
 30
0.0
 11
243.168764
 21
192.968558
 31
0.0
  0
ARC
  5
FB
330
1F
100
AcDbEntity
  8
LC-001-100-D00-0
 62
     7
370
    50
100
AcDbCircle
 10
242.670665
 20
193.012136
 30
0.0
 40
0.4999999999999767
100
AcDbArc
 50
355.0
 51
90.0
  0
LINE
  5
FC
330
1F
100
AcDbEntity
  8
LC-001-100-D00-0
 62
     7
370
    50
100
AcDbLine
 10
242.670663
 20
193.512138
 30
0.0
 11
241.918817
 21
193.512138
 31
0.0
  0
ARC
  5
FD
330
1F
100
AcDbEntity
  8
LC-001-100-D00-0
 62
     7
370
    50
100
AcDbCircle
 10
241.918815
 20
193.012136
 30
0.0
 40
0.5
100
AcDbArc
 50
90.0
 51
145.0
  0
LINE
  5
FE
330
1F
100
AcDbEntity
  8
LC-001-100-D00-0
 62
     7
370
    50
100
AcDbLine
 10
241.509236
 20
193.298925
 30
0.0
 11
237.224214
 21
187.179271
 31
0.0
  0
ARC
  5
FF
330
1F
100
AcDbEntity
  8
LC-001-100-D00-0
 62
     7
370
    50
100
AcDbCircle
 10
236.978466
 20
187.351344
 30
0.0
 40
0.299999999999992
100
AcDbArc
 50
175.0
 51
325.0
  0
LINE
  5
100
330
1F
100
AcDbEntity
  8
LC-001-100-D00-0
 62
     7
370
    50
100
AcDbLine
 10
236.679606
 20
187.37749
 30
0.0
 11
237.168759
 21
192.968558
 31
0.0
  0
ARC
  5
101
330
1F
100
AcDbEntity
  8
LC-001-100-D00-0
 62
     7
370
    50
100
AcDbCircle
 10
236.670665
 20
193.012136
 30
0.0
 40
0.4999999999999767
100
AcDbArc
 50
355.0
 51
90.0
  0
LINE
  5
102
330
1F
100
AcDbEntity
  8
LC-001-100-D00-0
 62
     7
370
    50
100
AcDbLine
 10
236.670666
 20
193.512138
 30
0.0
 11
235.918813
 21
193.512138
 31
0.0
  0
ARC
  5
103
330
1F
100
AcDbEntity
  8
LC-001-100-D00-0
 62
     7
370
    50
100
AcDbCircle
 10
235.918815
 20
193.012136
 30
0.0
 40
0.5
100
AcDbArc
 50
90.0
 51
145.0
  0
LINE
  5
104
330
1F
100
AcDbEntity
  8
LC-001-100-D00-0
 62
     7
370
    50
100
AcDbLine
 10
235.509239
 20
193.298925
 30
0.0
 11
231.224213
 21
187.179271
 31
0.0
  0
ARC
  5
105
330
1F
100
AcDbEntity
  8
LC-001-100-D00-0
 62
     7
370
    50
100
AcDbCircle
 10
230.978466
 20
187.351344
 30
0.0
 40
0.299999999999992
100
AcDbArc
 50
175.0
 51
325.0
  0
LINE
  5
106
330
1F
100
AcDbEntity
  8
LC-001-100-D00-0
 62
     7
370
    50
100
AcDbLine
 10
230.679609
 20
187.37749
 30
0.0
 11
231.168762
 21
192.968558
 31
0.0
  0
ARC
  5
107
330
1F
100
AcDbEntity
  8
LC-001-100-D00-0
 62
     7
370
    50
100
AcDbCircle
 10
230.670665
 20
193.012136
 30
0.0
 40
0.5000000000000333
100
AcDbArc
 50
355.0
 51
90.0
  0
LINE
  5
108
330
1F
100
AcDbEntity
  8
LC-001-100-D00-0
 62
     7
370
    50
100
AcDbLine
 10
230.670665
 20
193.512138
 30
0.0
 11
229.918815
 21
193.512138
 31
0.0
  0
ARC
  5
109
330
1F
100
AcDbEntity
  8
LC-001-100-D00-0
 62
     7
370
    50
100
AcDbCircle
 10
229.918815
 20
193.012136
 30
0.0
 40
0.5000000000001137
100
AcDbArc
 50
90.0
 51
145.0
  0
LINE
  5
10A
330
1F
100
AcDbEntity
  8
LC-001-100-D00-0
 62
     7
370
    50
100
AcDbLine
 10
229.509238
 20
193.298925
 30
0.0
 11
225.224212
 21
187.179271
 31
0.0
  0
ARC
  5
10B
330
1F
100
AcDbEntity
  8
LC-001-100-D00-0
 62
     7
370
    50
100
AcDbCircle
 10
224.978466
 20
187.351344
 30
0.0
 40
0.299999999999992
100
AcDbArc
 50
175.0
 51
325.0
  0
LINE
  5
10C
330
1F
100
AcDbEntity
  8
LC-001-100-D00-0
 62
     7
370
    50
100
AcDbLine
 10
224.679608
 20
187.37749
 30
0.0
 11
225.168765
 21
192.968558
 31
0.0
  0
ARC
  5
10D
330
1F
100
AcDbEntity
  8
LC-001-100-D00-0
 62
     7
370
    50
100
AcDbCircle
 10
224.670665
 20
193.012136
 30
0.0
 40
0.5000000000000333
100
AcDbArc
 50
355.0
 51
90.0
  0
LINE
  5
10E
330
1F
100
AcDbEntity
  8
LC-001-100-D00-0
 62
     7
370
    50
100
AcDbLine
 10
224.670667
 20
193.512138
 30
0.0
 11
223.918814
 21
193.512138
 31
0.0
  0
ARC
  5
10F
330
1F
100
AcDbEntity
  8
LC-001-100-D00-0
 62
     7
370
    50
100
AcDbCircle
 10
223.918815
 20
193.012136
 30
0.0
 40
0.5
100
AcDbArc
 50
90.0
 51
145.0
  0
LINE
  5
110
330
1F
100
AcDbEntity
  8
LC-001-100-D00-0
 62
     7
370
    50
100
AcDbLine
 10
223.509237
 20
193.298925
 30
0.0
 11
219.224211
 21
187.179271
 31
0.0
  0
ARC
  5
111
330
1F
100
AcDbEntity
  8
LC-001-100-D00-0
 62
     7
370
    50
100
AcDbCircle
 10
218.978466
 20
187.351344
 30
0.0
 40
0.3000000000000486
100
AcDbArc
 50
175.0
 51
325.0
  0
LINE
  5
112
330
1F
100
AcDbEntity
  8
LC-001-100-D00-0
 62
     7
370
    50
100
AcDbLine
 10
218.679607
 20
187.37749
 30
0.0
 11
219.168764
 21
192.968558
 31
0.0
  0
ARC
  5
113
330
1F
100
AcDbEntity
  8
LC-001-100-D00-0
 62
     7
370
    50
100
AcDbCircle
 10
218.670665
 20
193.012136
 30
0.0
 40
0.5000000000000333
100
AcDbArc
 50
355.0
 51
90.0
  0
LINE
  5
114
330
1F
100
AcDbEntity
  8
LC-001-100-D00-0
 62
     7
370
    50
100
AcDbLine
 10
218.670666
 20
193.512138
 30
0.0
 11
217.918813
 21
193.512138
 31
0.0
  0
ARC
  5
115
330
1F
100
AcDbEntity
  8
LC-001-100-D00-0
 62
     7
370
    50
100
AcDbCircle
 10
217.918815
 20
193.012136
 30
0.0
 40
0.5
100
AcDbArc
 50
90.0
 51
145.0
  0
LINE
  5
116
330
1F
100
AcDbEntity
  8
LC-001-100-D00-0
 62
     7
370
    50
100
AcDbLine
 10
217.50924
 20
193.298925
 30
0.0
 11
213.224214
 21
187.179271
 31
0.0
  0
ARC
  5
117
330
1F
100
AcDbEntity
  8
LC-001-100-D00-0
 62
     7
370
    50
100
AcDbCircle
 10
212.978466
 20
187.351344
 30
0.0
 40
0.3000000000000486
100
AcDbArc
 50
175.0
 51
325.0
  0
LINE
  5
118
330
1F
100
AcDbEntity
  8
LC-001-100-D00-0
 62
     7
370
    50
100
AcDbLine
 10
212.679606
 20
187.37749
 30
0.0
 11
213.168763
 21
192.968558
 31
0.0
  0
ARC
  5
119
330
1F
100
AcDbEntity
  8
LC-001-100-D00-0
 62
     7
370
    50
100
AcDbCircle
 10
212.670665
 20
193.012136
 30
0.0
 40
0.5000000000000333
100
AcDbArc
 50
355.0
 51
90.0
  0
LINE
  5
11A
330
1F
100
AcDbEntity
  8
LC-001-100-D00-0
 62
     7
370
    50
100
AcDbLine
 10
212.670665
 20
193.512138
 30
0.0
 11
211.918816
 21
193.512138
 31
0.0
  0
ARC
  5
11B
330
1F
100
AcDbEntity
  8
LC-001-100-D00-0
 62
     7
370
    50
100
AcDbCircle
 10
211.918815
 20
193.012136
 30
0.0
 40
0.5
100
AcDbArc
 50
90.0
 51
145.0
  0
LINE
  5
11C
330
1F
100
AcDbEntity
  8
LC-001-100-D00-0
 62
     7
370
    50
100
AcDbLine
 10
211.509239
 20
193.298925
 30
0.0
 11
207.224213
 21
187.179271
 31
0.0
  0
ARC
  5
11D
330
1F
100
AcDbEntity
  8
LC-001-100-D00-0
 62
     7
370
    50
100
AcDbCircle
 10
206.978466
 20
187.351344
 30
0.0
 40
0.3000000000000486
100
AcDbArc
 50
175.0
 51
325.0
  0
LINE
  5
11E
330
1F
100
AcDbEntity
  8
LC-001-100-D00-0
 62
     7
370
    50
100
AcDbLine
 10
206.679609
 20
187.37749
 30
0.0
 11
207.168762
 21
192.968558
 31
0.0
  0
ARC
  5
11F
330
1F
100
AcDbEntity
  8
LC-001-100-D00-0
 62
     7
370
    50
100
AcDbCircle
 10
206.670665
 20
193.012136
 30
0.0
 40
0.5000000000000333
100
AcDbArc
 50
355.0
 51
90.0
  0
LINE
  5
120
330
1F
100
AcDbEntity
  8
LC-001-100-D00-0
 62
     7
370
    50
100
AcDbLine
 10
206.670664
 20
193.512138
 30
0.0
 11
205.918815
 21
193.512138
 31
0.0
  0
ARC
  5
121
330
1F
100
AcDbEntity
  8
LC-001-100-D00-0
 62
     7
370
    50
100
AcDbCircle
 10
205.918815
 20
193.012136
 30
0.0
 40
0.5
100
AcDbArc
 50
90.0
 51
145.0
  0
LINE
  5
122
330
1F
100
AcDbEntity
  8
LC-001-100-D00-0
 62
     7
370
    50
100
AcDbLine
 10
205.509238
 20
193.298925
 30
0.0
 11
201.224212
 21
187.179271
 31
0.0
  0
ARC
  5
123
330
1F
100
AcDbEntity
  8
LC-001-100-D00-0
 62
     7
370
    50
100
AcDbCircle
 10
200.978466
 20
187.351344
 30
0.0
 40
0.3000000000000486
100
AcDbArc
 50
175.0
 51
325.0
  0
LINE
  5
124
330
1F
100
AcDbEntity
  8
LC-001-100-D00-0
 62
     7
370
    50
100
AcDbLine
 10
200.679608
 20
187.37749
 30
0.0
 11
201.168763
 21
192.968558
 31
0.0
  0
ARC
  5
125
330
1F
100
AcDbEntity
  8
LC-001-100-D00-0
 62
     7
370
    50
100
AcDbCircle
 10
200.670665
 20
193.012136
 30
0.0
 40
0.4999999999999767
100
AcDbArc
 50
355.0
 51
90.0
  0
LINE
  5
126
330
1F
100
AcDbEntity
  8
LC-001-100-D00-0
 62
     7
370
    50
100
AcDbLine
 10
200.670665
 20
193.512138
 30
0.0
 11
198.097527
 21
193.512138
 31
0.0
  0
LINE
  5
127
330
1F
100
AcDbEntity
  8
LC-001-100-D00-0
 62
     7
370
    50
100
AcDbLine
 10
198.097527
 20
193.512138
 30
0.0
 11
196.582027
 21
190.262135
 31
0.0
  0
LINE
  5
128
330
1F
100
AcDbEntity
  8
LC-001-100-D00-0
 62
     7
370
    50
100
AcDbLine
 10
196.582027
 20
190.262135
 30
0.0
 11
194.582027
 21
190.262135
 31
0.0
  0
LINE
  5
129
330
1F
100
AcDbEntity
  8
LC-001-100-D00-0
 62
     7
370
    50
100
AcDbLine
 10
194.582027
 20
190.262135
 30
0.0
 11
194.582027
 21
197.012137
 31
0.0
  0
LINE
  5
12A
330
1F
100
AcDbEntity
  8
LC-001-100-D00-0
 62
     7
370
    50
100
AcDbLine
 10
194.582027
 20
197.012137
 30
0.0
 11
198.082026
 21
197.949957
 31
0.0
  0
LINE
  5
12B
330
1F
100
AcDbEntity
  8
LC-001-100-D00-0
 62
     7
370
    50
100
AcDbLine
 10
198.082026
 20
197.949957
 30
0.0
 11
198.109338
 21
198.262136
 31
0.0
  0
LINE
  5
12C
330
1F
100
AcDbEntity
  8
LC-001-100-D00-0
 62
     7
370
    50
100
AcDbLine
 10
198.109338
 20
198.262136
 30
0.0
 11
244.582027
 21
198.262136
 31
0.0
  0
LINE
  5
12D
330
1F
100
AcDbEntity
  8
LC-001-100-D00-0
 62
     7
370
    50
100
AcDbLine
 10
244.582027
 20
198.262136
 30
0.0
 11
244.582027
 21
200.262137
 31
0.0
  0
LINE
  5
12E
330
1F
100
AcDbEntity
  8
LC-001-100-D00-0
 62
     7
370
    50
100
AcDbLine
 10
244.582027
 20
200.262137
 30
0.0
 11
246.582024
 21
200.262137
 31
0.0
  0
ARC
  5
12F
330
1F
100
AcDbEntity
  8
LC-001-100-D00-0
 62
     7
370
    50
100
AcDbCircle
 10
246.582027
 20
198.262136
 30
0.0
 40
2.0
100
AcDbArc
 50
0.0
 51
90.0
  0
LINE
  5
130
330
1F
100
AcDbEntity
  8
LC-001-100-D00-0
 62
     7
370
    50
100
AcDbLine
 10
248.582028
 20
198.262136
 30
0.0
 11
248.582028
 21
193.512138
 31
0.0
  0
LINE
  5
131
330
1F
100
AcDbEntity
  8
LC-001-100-D00-0
 62
     7
370
    50
100
AcDbLine
 10
248.582028
 20
193.512138
 30
0.0
 11
246.258117
 21
191.512137
 31
0.0
  0
ARC
  5
132
330
1F
100
AcDbEntity
  8
LC-001-100-D00-0
 62
     7
370
    50
100
AcDbCircle
 10
246.582027
 20
70.262136
 30
0.0
 40
2.0
100
AcDbArc
 50
270.0
 51
0.0
  0
LINE
  5
133
330
1F
100
AcDbEntity
  8
LC-001-100-D00-0
 62
     7
370
    50
100
AcDbLine
 10
248.582028
 20
75.01214
 30
0.0
 11
248.582028
 21
70.262134
 31
0.0
  0
LINE
  5
134
330
1F
100
AcDbEntity
  8
LC-001-100-D00-0
 62
     7
370
    50
100
AcDbLine
 10
246.582024
 20
68.262137
 30
0.0
 11
244.582027
 21
68.262137
 31
0.0
  0
LINE
  5
135
330
1F
100
AcDbEntity
  8
LC-001-100-D00-0
 62
     7
370
    50
100
AcDbLine
 10
244.582027
 20
68.262137
 30
0.0
 11
244.582027
 21
70.262134
 31
0.0
  0
LINE
  5
136
330
1F
100
AcDbEntity
  8
LC-001-100-D00-0
 62
     7
370
    50
100
AcDbLine
 10
244.582027
 20
70.262134
 30
0.0
 11
198.109338
 21
70.262134
 31
0.0
  0
LINE
  5
137
330
1F
100
AcDbEntity
  8
LC-001-100-D00-0
 62
     7
370
    50
100
AcDbLine
 10
198.109338
 20
70.262134
 30
0.0
 11
198.082026
 21
70.574313
 31
0.0
  0
LINE
  5
138
330
1F
100
AcDbEntity
  8
LC-001-100-D00-0
 62
     7
370
    50
100
AcDbLine
 10
198.082026
 20
70.574313
 30
0.0
 11
194.582027
 21
71.512133
 31
0.0
  0
LINE
  5
139
330
1F
100
AcDbEntity
  8
LC-001-100-D00-0
 62
     7
370
    50
100
AcDbLine
 10
194.582027
 20
71.512133
 30
0.0
 11
194.582027
 21
78.262135
 31
0.0
  0
LINE
  5
13A
330
1F
100
AcDbEntity
  8
LC-001-100-D00-0
 62
     7
370
    50
100
AcDbLine
 10
194.582027
 20
78.262135
 30
0.0
 11
196.582027
 21
78.262135
 31
0.0
  0
LINE
  5
13B
330
1F
100
AcDbEntity
  8
LC-001-100-D00-0
 62
     7
370
    50
100
AcDbLine
 10
196.582027
 20
78.262135
 30
0.0
 11
198.097527
 21
75.01214
 31
0.0
  0
LINE
  5
13C
330
1F
100
AcDbEntity
  8
LC-001-100-D00-0
 62
     7
370
    50
100
AcDbLine
 10
198.097527
 20
75.01214
 30
0.0
 11
200.670665
 21
75.01214
 31
0.0
  0
ARC
  5
13D
330
1F
100
AcDbEntity
  8
LC-001-100-D00-0
 62
     7
370
    50
100
AcDbCircle
 10
200.670665
 20
75.512136
 30
0.0
 40
0.5
100
AcDbArc
 50
270.0
 51
5.0
  0
LINE
  5
13E
330
1F
100
AcDbEntity
  8
LC-001-100-D00-0
 62
     7
370
    50
100
AcDbLine
 10
201.168763
 20
75.555712
 30
0.0
 11
200.679608
 21
81.14678
 31
0.0
  0
ARC
  5
13F
330
1F
100
AcDbEntity
  8
LC-001-100-D00-0
 62
     7
370
    50
100
AcDbCircle
 10
200.978466
 20
81.172928
 30
0.0
 40
0.3000000000000072
100
AcDbArc
 50
35.0
 51
185.0
  0
LINE
  5
140
330
1F
100
AcDbEntity
  8
LC-001-100-D00-0
 62
     7
370
    50
100
AcDbLine
 10
201.224212
 20
81.345003
 30
0.0
 11
205.509238
 21
75.225346
 31
0.0
  0
ARC
  5
141
330
1F
100
AcDbEntity
  8
LC-001-100-D00-0
 62
     7
370
    50
100
AcDbCircle
 10
205.918815
 20
75.512136
 30
0.0
 40
0.500000000000029
100
AcDbArc
 50
215.0
 51
270.0
  0
LINE
  5
142
330
1F
100
AcDbEntity
  8
LC-001-100-D00-0
 62
     7
370
    50
100
AcDbLine
 10
205.918815
 20
75.01214
 30
0.0
 11
206.670664
 21
75.01214
 31
0.0
  0
ARC
  5
143
330
1F
100
AcDbEntity
  8
LC-001-100-D00-0
 62
     7
370
    50
100
AcDbCircle
 10
206.670665
 20
75.512136
 30
0.0
 40
0.5
100
AcDbArc
 50
270.0
 51
5.0
  0
LINE
  5
144
330
1F
100
AcDbEntity
  8
LC-001-100-D00-0
 62
     7
370
    50
100
AcDbLine
 10
207.168762
 20
75.555712
 30
0.0
 11
206.679609
 21
81.14678
 31
0.0
  0
ARC
  5
145
330
1F
100
AcDbEntity
  8
LC-001-100-D00-0
 62
     7
370
    50
100
AcDbCircle
 10
206.978466
 20
81.172928
 30
0.0
 40
0.3000000000000072
100
AcDbArc
 50
35.0
 51
185.0
  0
LINE
  5
146
330
1F
100
AcDbEntity
  8
LC-001-100-D00-0
 62
     7
370
    50
100
AcDbLine
 10
207.224213
 20
81.345003
 30
0.0
 11
211.509239
 21
75.225346
 31
0.0
  0
ARC
  5
147
330
1F
100
AcDbEntity
  8
LC-001-100-D00-0
 62
     7
370
    50
100
AcDbCircle
 10
211.918815
 20
75.512136
 30
0.0
 40
0.500000000000029
100
AcDbArc
 50
215.0
 51
270.0
  0
LINE
  5
148
330
1F
100
AcDbEntity
  8
LC-001-100-D00-0
 62
     7
370
    50
100
AcDbLine
 10
211.918816
 20
75.01214
 30
0.0
 11
212.670665
 21
75.01214
 31
0.0
  0
ARC
  5
149
330
1F
100
AcDbEntity
  8
LC-001-100-D00-0
 62
     7
370
    50
100
AcDbCircle
 10
212.670665
 20
75.512136
 30
0.0
 40
0.5
100
AcDbArc
 50
270.0
 51
5.0
  0
LINE
  5
14A
330
1F
100
AcDbEntity
  8
LC-001-100-D00-0
 62
     7
370
    50
100
AcDbLine
 10
213.168763
 20
75.555712
 30
0.0
 11
212.679606
 21
81.14678
 31
0.0
  0
ARC
  5
14B
330
1F
100
AcDbEntity
  8
LC-001-100-D00-0
 62
     7
370
    50
100
AcDbCircle
 10
212.978466
 20
81.172928
 30
0.0
 40
0.3000000000000072
100
AcDbArc
 50
35.0
 51
185.0
  0
LINE
  5
14C
330
1F
100
AcDbEntity
  8
LC-001-100-D00-0
 62
     7
370
    50
100
AcDbLine
 10
213.224214
 20
81.345003
 30
0.0
 11
217.50924
 21
75.225346
 31
0.0
  0
ARC
  5
14D
330
1F
100
AcDbEntity
  8
LC-001-100-D00-0
 62
     7
370
    50
100
AcDbCircle
 10
217.918815
 20
75.512136
 30
0.0
 40
0.500000000000029
100
AcDbArc
 50
215.0
 51
270.0
  0
LINE
  5
14E
330
1F
100
AcDbEntity
  8
LC-001-100-D00-0
 62
     7
370
    50
100
AcDbLine
 10
217.918813
 20
75.01214
 30
0.0
 11
218.670666
 21
75.01214
 31
0.0
  0
ARC
  5
14F
330
1F
100
AcDbEntity
  8
LC-001-100-D00-0
 62
     7
370
    50
100
AcDbCircle
 10
218.670665
 20
75.512136
 30
0.0
 40
0.5
100
AcDbArc
 50
270.0
 51
5.0
  0
LINE
  5
150
330
1F
100
AcDbEntity
  8
LC-001-100-D00-0
 62
     7
370
    50
100
AcDbLine
 10
219.168764
 20
75.555712
 30
0.0
 11
218.679607
 21
81.14678
 31
0.0
  0
ARC
  5
151
330
1F
100
AcDbEntity
  8
LC-001-100-D00-0
 62
     7
370
    50
100
AcDbCircle
 10
218.978466
 20
81.172928
 30
0.0
 40
0.3000000000000072
100
AcDbArc
 50
35.0
 51
185.0
  0
LINE
  5
152
330
1F
100
AcDbEntity
  8
LC-001-100-D00-0
 62
     7
370
    50
100
AcDbLine
 10
219.224211
 20
81.345003
 30
0.0
 11
223.509237
 21
75.225346
 31
0.0
  0
ARC
  5
153
330
1F
100
AcDbEntity
  8
LC-001-100-D00-0
 62
     7
370
    50
100
AcDbCircle
 10
223.918815
 20
75.512136
 30
0.0
 40
0.500000000000029
100
AcDbArc
 50
215.0
 51
270.0
  0
LINE
  5
154
330
1F
100
AcDbEntity
  8
LC-001-100-D00-0
 62
     7
370
    50
100
AcDbLine
 10
223.918814
 20
75.01214
 30
0.0
 11
224.670667
 21
75.01214
 31
0.0
  0
ARC
  5
155
330
1F
100
AcDbEntity
  8
LC-001-100-D00-0
 62
     7
370
    50
100
AcDbCircle
 10
224.670665
 20
75.512136
 30
0.0
 40
0.5000000000000568
100
AcDbArc
 50
270.0
 51
5.0
  0
LINE
  5
156
330
1F
100
AcDbEntity
  8
LC-001-100-D00-0
 62
     7
370
    50
100
AcDbLine
 10
225.168765
 20
75.555712
 30
0.0
 11
224.679608
 21
81.14678
 31
0.0
  0
ARC
  5
157
330
1F
100
AcDbEntity
  8
LC-001-100-D00-0
 62
     7
370
    50
100
AcDbCircle
 10
224.978466
 20
81.172928
 30
0.0
 40
0.3000000000000072
100
AcDbArc
 50
35.0
 51
185.0
  0
LINE
  5
158
330
1F
100
AcDbEntity
  8
LC-001-100-D00-0
 62
     7
370
    50
100
AcDbLine
 10
225.224212
 20
81.345003
 30
0.0
 11
229.509238
 21
75.225346
 31
0.0
  0
ARC
  5
159
330
1F
100
AcDbEntity
  8
LC-001-100-D00-0
 62
     7
370
    50
100
AcDbCircle
 10
229.918815
 20
75.512136
 30
0.0
 40
0.5000000000001081
100
AcDbArc
 50
215.0
 51
270.0
  0
LINE
  5
15A
330
1F
100
AcDbEntity
  8
LC-001-100-D00-0
 62
     7
370
    50
100
AcDbLine
 10
229.918815
 20
75.01214
 30
0.0
 11
230.670665
 21
75.01214
 31
0.0
  0
ARC
  5
15B
330
1F
100
AcDbEntity
  8
LC-001-100-D00-0
 62
     7
370
    50
100
AcDbCircle
 10
230.670665
 20
75.512136
 30
0.0
 40
0.5000000000000568
100
AcDbArc
 50
270.0
 51
5.0
  0
LINE
  5
15C
330
1F
100
AcDbEntity
  8
LC-001-100-D00-0
 62
     7
370
    50
100
AcDbLine
 10
231.168762
 20
75.555712
 30
0.0
 11
230.679609
 21
81.14678
 31
0.0
  0
ARC
  5
15D
330
1F
100
AcDbEntity
  8
LC-001-100-D00-0
 62
     7
370
    50
100
AcDbCircle
 10
230.978466
 20
81.172928
 30
0.0
 40
0.3000000000000398
100
AcDbArc
 50
35.0
 51
185.0
  0
LINE
  5
15E
330
1F
100
AcDbEntity
  8
LC-001-100-D00-0
 62
     7
370
    50
100
AcDbLine
 10
231.224213
 20
81.345003
 30
0.0
 11
235.509239
 21
75.225346
 31
0.0
  0
ARC
  5
15F
330
1F
100
AcDbEntity
  8
LC-001-100-D00-0
 62
     7
370
    50
100
AcDbCircle
 10
235.918815
 20
75.512136
 30
0.0
 40
0.5000000000001081
100
AcDbArc
 50
215.0
 51
270.0
  0
LINE
  5
160
330
1F
100
AcDbEntity
  8
LC-001-100-D00-0
 62
     7
370
    50
100
AcDbLine
 10
235.918813
 20
75.01214
 30
0.0
 11
236.670666
 21
75.01214
 31
0.0
  0
ARC
  5
161
330
1F
100
AcDbEntity
  8
LC-001-100-D00-0
 62
     7
370
    50
100
AcDbCircle
 10
236.670665
 20
75.512136
 30
0.0
 40
0.5
100
AcDbArc
 50
270.0
 51
5.0
  0
LINE
  5
162
330
1F
100
AcDbEntity
  8
LC-001-100-D00-0
 62
     7
370
    50
100
AcDbLine
 10
237.168759
 20
75.555712
 30
0.0
 11
236.679606
 21
81.14678
 31
0.0
  0
ARC
  5
163
330
1F
100
AcDbEntity
  8
LC-001-100-D00-0
 62
     7
370
    50
100
AcDbCircle
 10
236.978466
 20
81.172928
 30
0.0
 40
0.3000000000000072
100
AcDbArc
 50
35.0
 51
185.0
  0
LINE
  5
164
330
1F
100
AcDbEntity
  8
LC-001-100-D00-0
 62
     7
370
    50
100
AcDbLine
 10
237.224214
 20
81.345003
 30
0.0
 11
241.509236
 21
75.225346
 31
0.0
  0
ARC
  5
165
330
1F
100
AcDbEntity
  8
LC-001-100-D00-0
 62
     7
370
    50
100
AcDbCircle
 10
241.918815
 20
75.512136
 30
0.0
 40
0.500000000000029
100
AcDbArc
 50
215.0
 51
270.0
  0
LINE
  5
166
330
1F
100
AcDbEntity
  8
LC-001-100-D00-0
 62
     7
370
    50
100
AcDbLine
 10
241.918817
 20
75.01214
 30
0.0
 11
242.670663
 21
75.01214
 31
0.0
  0
ARC
  5
167
330
1F
100
AcDbEntity
  8
LC-001-100-D00-0
 62
     7
370
    50
100
AcDbCircle
 10
242.670665
 20
75.512136
 30
0.0
 40
0.5
100
AcDbArc
 50
270.0
 51
5.0
  0
LINE
  5
168
330
1F
100
AcDbEntity
  8
LC-001-100-D00-0
 62
     7
370
    50
100
AcDbLine
 10
243.168764
 20
75.555712
 30
0.0
 11
242.679611
 21
81.14678
 31
0.0
  0
ARC
  5
169
330
1F
100
AcDbEntity
  8
LC-001-100-D00-0
 62
     7
370
    50
100
AcDbCircle
 10
242.978466
 20
81.172928
 30
0.0
 40
0.3000000000000072
100
AcDbArc
 50
35.0
 51
185.0
  0
LINE
  5
16A
330
1F
100
AcDbEntity
  8
LC-001-100-D00-0
 62
     7
370
    50
100
AcDbLine
 10
243.224211
 20
81.345003
 30
0.0
 11
246.258117
 21
77.012136
 31
0.0
  0
LINE
  5
16B
330
1F
100
AcDbEntity
  8
LC-001-100-D00-0
 62
     7
370
    50
100
AcDbLine
 10
246.258117
 20
77.012136
 30
0.0
 11
248.582028
 21
75.01214
 31
0.0
  0
LINE
  5
16C
330
1F
100
AcDbEntity
  8
LC-001-100-D00-0
 62
     7
370
    50
100
AcDbLine
 10
246.258117
 20
191.512137
 30
0.0
 11
246.258117
 21
77.012136
 31
0.0
  0
LINE
  5
16D
330
1F
100
AcDbEntity
  8
LC-001-100-D00-0
 62
     7
370
    50
100
AcDbLine
 10
242.679611
 20
187.37749
 30
0.0
 11
242.679611
 21
81.199076
 31
0.0
  0
LINE
  5
16E
330
1F
100
AcDbEntity
  8
LC-001-100-D00-0
 62
     7
370
    50
100
AcDbLine
 10
236.679606
 20
187.37749
 30
0.0
 11
236.679606
 21
81.199076
 31
0.0
  0
LINE
  5
16F
330
1F
100
AcDbEntity
  8
LC-001-100-D00-0
 62
     7
370
    50
100
AcDbLine
 10
230.679609
 20
187.37749
 30
0.0
 11
230.679609
 21
81.199076
 31
0.0
  0
LINE
  5
170
330
1F
100
AcDbEntity
  8
LC-001-100-D00-0
 62
     7
370
    50
100
AcDbLine
 10
224.679608
 20
187.37749
 30
0.0
 11
224.679608
 21
81.199076
 31
0.0
  0
LINE
  5
171
330
1F
100
AcDbEntity
  8
LC-001-100-D00-0
 62
     7
370
    50
100
AcDbLine
 10
218.679607
 20
187.37749
 30
0.0
 11
218.679607
 21
81.199076
 31
0.0
  0
LINE
  5
172
330
1F
100
AcDbEntity
  8
LC-001-100-D00-0
 62
     7
370
    50
100
AcDbLine
 10
212.679606
 20
187.37749
 30
0.0
 11
212.679606
 21
81.199076
 31
0.0
  0
LINE
  5
173
330
1F
100
AcDbEntity
  8
LC-001-100-D00-0
 62
     7
370
    50
100
AcDbLine
 10
206.679609
 20
187.37749
 30
0.0
 11
206.679609
 21
81.199076
 31
0.0
  0
LINE
  5
174
330
1F
100
AcDbEntity
  8
LC-001-100-D00-0
 62
     7
370
    50
100
AcDbLine
 10
200.679608
 20
187.37749
 30
0.0
 11
200.679608
 21
81.199076
 31
0.0
  0
LINE
  5
175
330
1F
100
AcDbEntity
  8
LC-001-100-D00-0
 62
     7
370
    50
100
AcDbLine
 10
198.097527
 20
193.512138
 30
0.0
 11
198.097527
 21
75.01214
 31
0.0
  0
LINE
  5
176
330
1F
100
AcDbEntity
  8
LC-001-100-D00-0
 62
     7
370
    50
100
AcDbLine
 10
196.582027
 20
190.262135
 30
0.0
 11
196.582027
 21
78.262135
 31
0.0
  0
LINE
  5
177
330
1F
100
AcDbEntity
  8
LC-001-100-D00-0
 62
     7
370
    50
100
AcDbLine
 10
248.582028
 20
193.512138
 30
0.0
 11
248.582028
 21
75.01214
 31
0.0
  0
LINE
  5
178
330
1F
100
AcDbEntity
  8
LC-001-100-D00-0
 62
     7
370
    50
100
AcDbLine
 10
194.582027
 20
190.262135
 30
0.0
 11
194.582027
 21
78.262135
 31
0.0
  0
LINE
  5
179
330
1F
100
AcDbEntity
  8
LC-001-100-D00-0
 62
     7
370
    50
100
AcDbLine
 10
248.593234
 20
114.102725
 30
0.0
 11
248.582028
 21
114.102725
 31
0.0
  0
LINE
  5
17A
330
1F
100
AcDbEntity
  8
LC-001-100-D00-0
 62
     7
370
    50
100
AcDbLine
 10
248.585872
 20
119.517762
 30
0.0
 11
248.582028
 21
119.517762
 31
0.0
  0
LINE
  5
17B
330
1F
100
AcDbEntity
  8
LC-001-100-D00-0
 62
     7
370
    50
100
AcDbLine
 10
248.585679
 20
119.78383
 30
0.0
 11
248.582028
 21
119.78383
 31
0.0
  0
LINE
  5
17C
330
1F
100
AcDbEntity
  8
LC-001-100-D00-0
 62
     7
370
    50
100
AcDbLine
 10
248.586327
 20
127.442815
 30
0.0
 11
248.582028
 21
127.442815
 31
0.0
  0
LINE
  5
17D
330
1F
100
AcDbEntity
  8
LC-001-100-D00-0
 62
     7
370
    50
100
AcDbLine
 10
248.585701
 20
127.713653
 30
0.0
 11
248.582028
 21
127.713653
 31
0.0
  0
LINE
  5
17E
330
1F
100
AcDbEntity
  8
LC-001-100-D00-0
 62
     7
370
    50
100
AcDbLine
 10
248.585753
 20
139.428515
 30
0.0
 11
248.582028
 21
139.428515
 31
0.0
  0
LINE
  5
17F
330
1F
100
AcDbEntity
  8
LC-001-100-D00-0
 62
     7
370
    50
100
AcDbLine
 10
248.5862
 20
139.155027
 30
0.0
 11
248.582028
 21
139.155027
 31
0.0
  0
LINE
  5
180
330
1F
100
AcDbEntity
  8
LC-001-100-D00-0
 62
     7
370
    50
100
AcDbLine
 10
248.593152
 20
131.294608
 30
0.0
 11
248.582028
 21
131.294608
 31
0.0
  0
LINE
  5
181
330
1F
100
AcDbEntity
  8
LC-001-100-D00-0
 62
     7
370
    50
100
AcDbLine
 10
107.957126
 20
190.120873
 30
0.0
 11
108.277315
 21
190.675461
 31
0.0
  0
LINE
  5
182
330
1F
100
AcDbEntity
  8
LC-001-100-D00-0
 62
     7
370
    50
100
AcDbLine
 10
108.284593
 20
77.849079
 30
0.0
 11
107.964404
 21
78.403663
 31
0.0
  0
ARC
  5
183
330
1F
100
AcDbEntity
  8
LC-001-100-D00-0
 62
     7
370
    50
100
AcDbCircle
 10
104.071453
 20
75.796139
 30
0.0
 40
1.000000000000209
100
AcDbArc
 50
200.000014
 51
270.0
  0
ARC
  5
184
330
1F
100
AcDbEntity
  8
LC-001-100-D00-0
 62
     7
370
    50
100
AcDbCircle
 10
104.064175
 20
192.7284
 30
0.0
 40
1.000000000000227
100
AcDbArc
 50
90.0
 51
159.999986
  0
LINE
  5
185
330
1F
100
AcDbEntity
  8
LC-001-100-D00-0
 62
     7
370
    50
100
AcDbLine
 10
108.07623
 20
74.246142
 30
0.0
 11
108.393774
 21
74.796137
 31
0.0
  0
LINE
  5
186
330
1F
100
AcDbEntity
  8
LC-001-100-D00-0
 62
     7
370
    50
100
AcDbLine
 10
108.386495
 20
193.7284
 30
0.0
 11
108.068952
 21
194.278402
 31
0.0
  0
ARC
  5
187
330
1F
100
AcDbEntity
  8
LC-001-100-D00-0
 62
     7
370
    50
100
AcDbCircle
 10
109.589627
 20
74.296139
 30
0.0
 40
0.1000000000003945
100
AcDbArc
 50
209.999985
 51
329.999937
  0
ARC
  5
188
330
1F
100
AcDbEntity
  8
LC-001-100-D00-0
 62
     7
370
    50
100
AcDbCircle
 10
109.582349
 20
194.2284
 30
0.0
 40
0.1000000000003351
100
AcDbArc
 50
30.000063
 51
150.000015
  0
ARC
  5
189
330
1F
100
AcDbEntity
  8
LC-001-100-D00-0
 62
     7
370
    50
100
AcDbCircle
 10
107.989627
 20
74.296139
 30
0.0
 40
0.1000000000003945
100
AcDbArc
 50
209.999985
 51
329.999937
  0
ARC
  5
18A
330
1F
100
AcDbEntity
  8
LC-001-100-D00-0
 62
     7
370
    50
100
AcDbCircle
 10
107.982349
 20
194.2284
 30
0.0
 40
0.1000000000003351
100
AcDbArc
 50
30.000063
 51
150.000015
  0
ARC
  5
18B
330
1F
100
AcDbEntity
  8
LC-001-100-D00-0
 62
     7
370
    50
100
AcDbCircle
 10
108.148446
 20
81.230213
 30
0.0
 40
0.4659259999999548
100
AcDbArc
 50
345.000001
 51
119.999999
  0
ARC
  5
18C
330
1F
100
AcDbEntity
  8
LC-001-100-D00-0
 62
     7
370
    50
100
AcDbCircle
 10
108.141168
 20
187.294326
 30
0.0
 40
0.4659259999999501
100
AcDbArc
 50
240.000001
 51
14.999999
  0
LINE
  5
18D
330
1F
100
AcDbEntity
  8
LC-001-100-D00-0
 62
     7
370
    50
100
AcDbLine
 10
104.876228
 20
74.346137
 30
0.0
 11
105.136037
 21
74.796137
 31
0.0
  0
LINE
  5
18E
330
1F
100
AcDbEntity
  8
LC-001-100-D00-0
 62
     7
370
    50
100
AcDbLine
 10
105.128759
 20
193.7284
 30
0.0
 11
104.86895
 21
194.1784
 31
0.0
  0
ARC
  5
18F
330
1F
100
AcDbEntity
  8
LC-001-100-D00-0
 62
     7
370
    50
100
AcDbCircle
 10
108.224212
 20
78.553665
 30
0.0
 40
0.2999999999999642
100
AcDbArc
 50
165.000001
 51
210.000036
  0
ARC
  5
190
330
1F
100
AcDbEntity
  8
LC-001-100-D00-0
 62
     7
370
    50
100
AcDbCircle
 10
108.216934
 20
189.970874
 30
0.0
 40
0.2999999999999594
100
AcDbArc
 50
149.999964
 51
194.999999
  0
LINE
  5
191
330
1F
100
AcDbEntity
  8
LC-001-100-D00-0
 62
     7
370
    50
100
AcDbLine
 10
107.915483
 20
81.633717
 30
0.0
 11
103.340611
 21
78.992412
 31
0.0
  0
LINE
  5
192
330
1F
100
AcDbEntity
  8
LC-001-100-D00-0
 62
     7
370
    50
100
AcDbLine
 10
103.333333
 20
189.532125
 30
0.0
 11
107.908205
 21
186.890823
 31
0.0
  0
ARC
  5
193
330
1F
100
AcDbEntity
  8
LC-001-100-D00-0
 62
     7
370
    50
100
AcDbCircle
 10
108.544404
 20
77.999077
 30
0.0
 40
0.3000000000002624
100
AcDbArc
 50
210.000036
 51
280.000005
  0
ARC
  5
194
330
1F
100
AcDbEntity
  8
LC-001-100-D00-0
 62
     7
370
    50
100
AcDbCircle
 10
108.537126
 20
190.525462
 30
0.0
 40
0.3000000000002776
100
AcDbArc
 50
79.999995
 51
149.999964
  0
LINE
  5
195
330
1F
100
AcDbEntity
  8
LC-001-100-D00-0
 62
     7
370
    50
100
AcDbLine
 10
110.802803
 20
78.092665
 30
0.0
 11
108.596496
 21
77.703636
 31
0.0
  0
LINE
  5
196
330
1F
100
AcDbEntity
  8
LC-001-100-D00-0
 62
     7
370
    50
100
AcDbLine
 10
108.589218
 20
190.820904
 30
0.0
 11
110.795525
 21
190.431872
 31
0.0
  0
LINE
  5
197
330
1F
100
AcDbEntity
  8
LC-001-100-D00-0
 62
     7
370
    50
100
AcDbLine
 10
106.476232
 20
74.246142
 30
0.0
 11
106.793776
 21
74.796137
 31
0.0
  0
LINE
  5
198
330
1F
100
AcDbEntity
  8
LC-001-100-D00-0
 62
     7
370
    50
100
AcDbLine
 10
106.786498
 20
193.7284
 30
0.0
 11
106.468954
 21
194.278402
 31
0.0
  0
LINE
  5
199
330
1F
100
AcDbEntity
  8
LC-001-100-D00-0
 62
     7
370
    50
100
AcDbLine
 10
109.676231
 20
74.246142
 30
0.0
 11
109.993775
 21
74.796137
 31
0.0
  0
LINE
  5
19A
330
1F
100
AcDbEntity
  8
LC-001-100-D00-0
 62
     7
370
    50
100
AcDbLine
 10
109.986496
 20
193.7284
 30
0.0
 11
109.668953
 21
194.278402
 31
0.0
  0
LINE
  5
19B
330
1F
100
AcDbEntity
  8
LC-001-100-D00-0
 62
     7
370
    50
100
AcDbLine
 10
104.071453
 20
74.796137
 30
0.0
 11
104.443215
 21
74.796137
 31
0.0
  0
LINE
  5
19C
330
1F
100
AcDbEntity
  8
LC-001-100-D00-0
 62
     7
370
    50
100
AcDbLine
 10
104.435937
 20
193.7284
 30
0.0
 11
104.064175
 21
193.7284
 31
0.0
  0
LINE
  5
19D
330
1F
100
AcDbEntity
  8
LC-001-100-D00-0
 62
     7
370
    50
100
AcDbLine
 10
109.185483
 20
74.796137
 30
0.0
 11
109.503023
 21
74.246142
 31
0.0
  0
LINE
  5
19E
330
1F
100
AcDbEntity
  8
LC-001-100-D00-0
 62
     7
370
    50
100
AcDbLine
 10
108.393774
 20
74.796137
 30
0.0
 11
109.185483
 21
74.796137
 31
0.0
  0
LINE
  5
19F
330
1F
100
AcDbEntity
  8
LC-001-100-D00-0
 62
     7
370
    50
100
AcDbLine
 10
107.585482
 20
74.796137
 30
0.0
 11
107.903026
 21
74.246142
 31
0.0
  0
LINE
  5
1A0
330
1F
100
AcDbEntity
  8
LC-001-100-D00-0
 62
     7
370
    50
100
AcDbLine
 10
106.793776
 20
74.796137
 30
0.0
 11
107.585482
 21
74.796137
 31
0.0
  0
ARC
  5
1A1
330
1F
100
AcDbEntity
  8
LC-001-100-D00-0
 62
     7
370
    50
100
AcDbCircle
 10
106.389627
 20
74.296139
 30
0.0
 40
0.1000000000003168
100
AcDbArc
 50
209.999985
 51
329.999937
  0
LINE
  5
1A2
330
1F
100
AcDbEntity
  8
LC-001-100-D00-0
 62
     7
370
    50
100
AcDbLine
 10
105.985485
 20
74.796137
 30
0.0
 11
106.303021
 21
74.246142
 31
0.0
  0
LINE
  5
1A3
330
1F
100
AcDbEntity
  8
LC-001-100-D00-0
 62
     7
370
    50
100
AcDbLine
 10
105.136037
 20
74.796137
 30
0.0
 11
105.985485
 21
74.796137
 31
0.0
  0
ARC
  5
1A4
330
1F
100
AcDbEntity
  8
LC-001-100-D00-0
 62
     7
370
    50
100
AcDbCircle
 10
104.789627
 20
74.396139
 30
0.0
 40
0.1000000000004174
100
AcDbArc
 50
209.999985
 51
329.99992
  0
LINE
  5
1A5
330
1F
100
AcDbEntity
  8
LC-001-100-D00-0
 62
     7
370
    50
100
AcDbLine
 10
104.443215
 20
74.796137
 30
0.0
 11
104.703024
 21
74.346137
 31
0.0
  0
LINE
  5
1A6
330
1F
100
AcDbEntity
  8
LC-001-100-D00-0
 62
     7
370
    50
100
AcDbLine
 10
102.592267
 20
76.936361
 30
0.0
 11
103.131764
 21
75.45412
 31
0.0
  0
ARC
  5
1A7
330
1F
100
AcDbEntity
  8
LC-001-100-D00-0
 62
     7
370
    50
100
AcDbCircle
 10
104.191593
 20
77.518467
 30
0.0
 40
1.701966000000103
100
AcDbArc
 50
119.999999
 51
200.000014
  0
LINE
  5
1A8
330
1F
100
AcDbEntity
  8
LC-001-100-D00-0
 62
     7
370
    50
100
AcDbLine
 10
107.934438
 20
78.631312
 30
0.0
 11
108.598493
 21
81.109621
 31
0.0
  0
ARC
  5
1A9
330
1F
100
AcDbEntity
  8
LC-001-100-D00-0
 62
     7
370
    50
100
AcDbCircle
 10
110.889627
 20
77.600262
 30
0.0
 40
0.5
100
AcDbArc
 50
0.0
 51
100.000005
  0
LINE
  5
1AA
330
1F
100
AcDbEntity
  8
LC-001-100-D00-0
 62
     7
370
    50
100
AcDbLine
 10
111.389626
 20
75.296136
 30
0.0
 11
111.389626
 21
77.60026
 31
0.0
  0
LINE
  5
1AB
330
1F
100
AcDbEntity
  8
LC-001-100-D00-0
 62
     7
370
    50
100
AcDbLine
 10
111.182682
 20
75.622488
 30
0.0
 11
111.389626
 21
76.796141
 31
0.0
  0
ARC
  5
1AC
330
1F
100
AcDbEntity
  8
LC-001-100-D00-0
 62
     7
370
    50
100
AcDbCircle
 10
110.197874
 20
75.796139
 30
0.0
 40
1.000000000000114
100
AcDbArc
 50
270.0
 51
350.000038
  0
LINE
  5
1AD
330
1F
100
AcDbEntity
  8
LC-001-100-D00-0
 62
     7
370
    50
100
AcDbLine
 10
109.993775
 20
74.796137
 30
0.0
 11
110.197876
 21
74.796137
 31
0.0
  0
ARC
  5
1AE
330
1F
100
AcDbEntity
  8
LC-001-100-D00-0
 62
     7
370
    50
100
AcDbCircle
 10
104.782349
 20
194.1284
 30
0.0
 40
0.1000000000003617
100
AcDbArc
 50
30.00008
 51
150.000015
  0
LINE
  5
1AF
330
1F
100
AcDbEntity
  8
LC-001-100-D00-0
 62
     7
370
    50
100
AcDbLine
 10
111.382348
 20
191.7284
 30
0.0
 11
111.175404
 21
192.902049
 31
0.0
  0
LINE
  5
1B0
330
1F
100
AcDbEntity
  8
LC-001-100-D00-0
 62
     7
370
    50
100
AcDbLine
 10
111.382348
 20
190.924277
 30
0.0
 11
111.382348
 21
191.7284
 31
0.0
  0
ARC
  5
1B1
330
1F
100
AcDbEntity
  8
LC-001-100-D00-0
 62
     7
370
    50
100
AcDbCircle
 10
110.882349
 20
190.924277
 30
0.0
 40
0.5000000000000004
100
AcDbArc
 50
259.999995
 51
0.0
  0
LINE
  5
1B2
330
1F
100
AcDbEntity
  8
LC-001-100-D00-0
 62
     7
370
    50
100
AcDbLine
 10
108.591215
 20
187.414916
 30
0.0
 11
107.92716
 21
189.893228
 31
0.0
  0
ARC
  5
1B3
330
1F
100
AcDbEntity
  8
LC-001-100-D00-0
 62
     7
370
    50
100
AcDbCircle
 10
104.184315
 20
191.006072
 30
0.0
 40
1.701966000000123
100
AcDbArc
 50
159.999986
 51
240.000001
  0
LINE
  5
1B4
330
1F
100
AcDbEntity
  8
LC-001-100-D00-0
 62
     7
370
    50
100
AcDbLine
 10
103.124486
 20
193.070421
 30
0.0
 11
102.584989
 21
191.58818
 31
0.0
  0
LINE
  5
1B5
330
1F
100
AcDbEntity
  8
LC-001-100-D00-0
 62
     7
370
    50
100
AcDbLine
 10
104.695746
 20
194.1784
 30
0.0
 11
104.435937
 21
193.7284
 31
0.0
  0
LINE
  5
1B6
330
1F
100
AcDbEntity
  8
LC-001-100-D00-0
 62
     7
370
    50
100
AcDbLine
 10
105.978207
 20
193.7284
 30
0.0
 11
105.128759
 21
193.7284
 31
0.0
  0
LINE
  5
1B7
330
1F
100
AcDbEntity
  8
LC-001-100-D00-0
 62
     7
370
    50
100
AcDbLine
 10
106.295743
 20
194.278402
 30
0.0
 11
105.978207
 21
193.7284
 31
0.0
  0
ARC
  5
1B8
330
1F
100
AcDbEntity
  8
LC-001-100-D00-0
 62
     7
370
    50
100
AcDbCircle
 10
106.382349
 20
194.2284
 30
0.0
 40
0.1000000000003351
100
AcDbArc
 50
30.000063
 51
150.000015
  0
LINE
  5
1B9
330
1F
100
AcDbEntity
  8
LC-001-100-D00-0
 62
     7
370
    50
100
AcDbLine
 10
107.578204
 20
193.7284
 30
0.0
 11
106.786498
 21
193.7284
 31
0.0
  0
LINE
  5
1BA
330
1F
100
AcDbEntity
  8
LC-001-100-D00-0
 62
     7
370
    50
100
AcDbLine
 10
107.895748
 20
194.278402
 30
0.0
 11
107.578204
 21
193.7284
 31
0.0
  0
LINE
  5
1BB
330
1F
100
AcDbEntity
  8
LC-001-100-D00-0
 62
     7
370
    50
100
AcDbLine
 10
109.178205
 20
193.7284
 30
0.0
 11
108.386495
 21
193.7284
 31
0.0
  0
LINE
  5
1BC
330
1F
100
AcDbEntity
  8
LC-001-100-D00-0
 62
     7
370
    50
100
AcDbLine
 10
109.495745
 20
194.278402
 30
0.0
 11
109.178205
 21
193.7284
 31
0.0
  0
LINE
  5
1BD
330
1F
100
AcDbEntity
  8
LC-001-100-D00-0
 62
     7
370
    50
100
AcDbLine
 10
110.190598
 20
193.7284
 30
0.0
 11
109.986496
 21
193.7284
 31
0.0
  0
ARC
  5
1BE
330
1F
100
AcDbEntity
  8
LC-001-100-D00-0
 62
     7
370
    50
100
AcDbCircle
 10
110.190596
 20
192.7284
 30
0.0
 40
1.000000000000106
100
AcDbArc
 50
9.999962
 51
90.0
  0
LINE
  5
1BF
330
1F
100
AcDbEntity
  8
LC-001-100-D00-0
 62
     7
370
    50
100
AcDbLine
 10
204.434108
 20
197.600614
 30
0.0
 11
204.483006
 21
197.649915
 31
0.0
  0
LINE
  5
1C0
330
1F
100
AcDbEntity
  8
LC-001-100-D00-0
 62
     7
370
    50
100
AcDbLine
 10
204.384606
 20
197.649713
 30
0.0
 11
204.434108
 21
197.600614
 31
0.0
  0
LINE
  5
1C1
330
1F
100
AcDbEntity
  8
LC-001-100-D00-0
 62
     7
370
    50
100
AcDbLine
 10
201.531008
 20
197.643891
 30
0.0
 11
204.384606
 21
197.649713
 31
0.0
  0
LINE
  5
1C2
330
1F
100
AcDbEntity
  8
LC-001-100-D00-0
 62
     7
370
    50
100
AcDbLine
 10
201.482108
 20
197.59459
 30
0.0
 11
201.531008
 21
197.643891
 31
0.0
  0
LINE
  5
1C3
330
1F
100
AcDbEntity
  8
LC-001-100-D00-0
 62
     7
370
    50
100
AcDbLine
 10
201.432608
 20
197.64369
 30
0.0
 11
201.482108
 21
197.59459
 31
0.0
  0
LINE
  5
1C4
330
1F
100
AcDbEntity
  8
LC-001-100-D00-0
 62
     7
370
    50
100
AcDbLine
 10
198.579008
 20
197.637867
 30
0.0
 11
201.432608
 21
197.64369
 31
0.0
  0
LINE
  5
1C5
330
1F
100
AcDbEntity
  8
LC-001-100-D00-0
 62
     7
370
    50
100
AcDbLine
 10
198.529707
 20
197.588567
 30
0.0
 11
198.579008
 21
197.637867
 31
0.0
  0
LINE
  5
1C6
330
1F
100
AcDbEntity
  8
LC-001-100-D00-0
 62
     7
370
    50
100
AcDbLine
 10
198.480608
 20
197.637666
 30
0.0
 11
198.529707
 21
197.588567
 31
0.0
  0
LINE
  5
1C7
330
1F
100
AcDbEntity
  8
LC-001-100-D00-0
 62
     7
370
    50
100
AcDbLine
 10
196.064496
 20
197.632737
 30
0.0
 11
198.480608
 21
197.637666
 31
0.0
  0
ARC
  5
1C8
330
1F
100
AcDbEntity
  8
LC-001-100-D00-0
 62
     7
370
    50
100
AcDbCircle
 10
196.069517
 20
195.172741
 30
0.0
 40
2.459999999981613
100
AcDbArc
 50
90.116922
 51
180.226464
  0
LINE
  5
1C9
330
1F
100
AcDbEntity
  8
LC-001-100-D00-0
 62
     7
370
    50
100
AcDbLine
 10
193.608293
 20
186.901111
 30
0.0
 11
193.609536
 21
195.163019
 31
0.0
  0
LINE
  5
1CA
330
1F
100
AcDbEntity
  8
LC-001-100-D00-0
 62
     7
370
    50
100
AcDbLine
 10
163.940967
 20
187.053736
 30
0.0
 11
193.608293
 21
186.901111
 31
0.0
  0
LINE
  5
1CB
330
1F
100
AcDbEntity
  8
LC-001-100-D00-0
 62
     7
370
    50
100
AcDbLine
 10
154.025655
 20
189.710535
 30
0.0
 11
163.940967
 21
187.053736
 31
0.0
  0
LINE
  5
1CC
330
1F
100
AcDbEntity
  8
LC-001-100-D00-0
 62
     7
370
    50
100
AcDbLine
 10
111.921553
 20
189.859185
 30
0.0
 11
154.025655
 21
189.710535
 31
0.0
  0
LINE
  5
1CD
330
1F
100
AcDbEntity
  8
LC-001-100-D00-0
 62
     7
370
    50
100
AcDbLine
 10
111.889627
 20
189.859185
 30
0.0
 11
111.921553
 21
189.859185
 31
0.0
  0
ARC
  5
1CE
330
1F
100
AcDbEntity
  8
LC-001-100-D00-0
 62
     7
370
    50
100
AcDbCircle
 10
111.889627
 20
190.359185
 30
0.0
 40
0.5000000000000568
100
AcDbArc
 50
180.0
 51
270.0
  0
ARC
  5
1CF
330
1F
100
AcDbEntity
  8
LC-001-100-D00-0
 62
     7
370
    50
100
AcDbCircle
 10
110.389627
 20
193.228136
 30
0.0
 40
1.0
100
AcDbArc
 50
0.0
 51
90.0
  0
LINE
  5
1D0
330
1F
100
AcDbEntity
  8
LC-001-100-D00-0
 62
     7
370
    50
100
AcDbLine
 10
103.807285
 20
194.228135
 30
0.0
 11
110.389628
 21
194.228135
 31
0.0
  0
ARC
  5
1D1
330
1F
100
AcDbEntity
  8
LC-001-100-D00-0
 62
     7
370
    50
100
AcDbCircle
 10
103.807285
 20
191.228136
 30
0.0
 40
3.0
100
AcDbArc
 50
90.0
 51
135.0
  0
LINE
  5
1D2
330
1F
100
AcDbEntity
  8
LC-001-100-D00-0
 62
     7
370
    50
100
AcDbLine
 10
98.083988
 20
189.747475
 30
0.0
 11
101.685964
 21
193.349458
 31
0.0
  0
ARC
  5
1D3
330
1F
100
AcDbEntity
  8
LC-001-100-D00-0
 62
     7
370
    50
100
AcDbCircle
 10
97.023324
 20
190.808136
 30
0.0
 40
1.5
100
AcDbArc
 50
270.0
 51
315.0
  0
LINE
  5
1D4
330
1F
100
AcDbEntity
  8
LC-001-100-D00-0
 62
     7
370
    50
100
AcDbLine
 10
94.119333
 20
189.308137
 30
0.0
 11
97.023323
 21
189.308137
 31
0.0
  0
LINE
  5
1D5
330
1F
100
AcDbEntity
  8
LC-001-100-D00-0
 62
     7
370
    50
100
AcDbLine
 10
94.119333
 20
189.308137
 30
0.0
 11
94.119333
 21
192.318138
 31
0.0
  0
LINE
  5
1D6
330
1F
100
AcDbEntity
  8
LC-001-100-D00-0
 62
     7
370
    50
100
AcDbLine
 10
94.119333
 20
192.318138
 30
0.0
 11
96.087337
 21
192.318138
 31
0.0
  0
LINE
  5
1D7
330
1F
100
AcDbEntity
  8
LC-001-100-D00-0
 62
     7
370
    50
100
AcDbLine
 10
96.087337
 20
192.318138
 30
0.0
 11
100.908935
 21
197.336536
 31
0.0
  0
LINE
  5
1D8
330
1F
100
AcDbEntity
  8
LC-001-100-D00-0
 62
     7
370
    50
100
AcDbLine
 10
100.908935
 20
197.336536
 30
0.0
 11
112.595625
 21
197.336536
 31
0.0
  0
ARC
  5
1D9
330
1F
100
AcDbEntity
  8
LC-001-100-D00-0
 62
     7
370
    50
100
AcDbCircle
 10
112.595627
 20
195.836536
 30
0.0
 40
1.5
100
AcDbArc
 50
0.0
 51
90.0
  0
LINE
  5
1DA
330
1F
100
AcDbEntity
  8
LC-001-100-D00-0
 62
     7
370
    50
100
AcDbLine
 10
114.095628
 20
195.836536
 30
0.0
 11
114.095628
 21
193.318136
 31
0.0
  0
ARC
  5
1DB
330
1F
100
AcDbEntity
  8
LC-001-100-D00-0
 62
     7
370
    50
100
AcDbCircle
 10
115.095627
 20
193.318136
 30
0.0
 40
1.0
100
AcDbArc
 50
180.0
 51
270.0
  0
LINE
  5
1DC
330
1F
100
AcDbEntity
  8
LC-001-100-D00-0
 62
     7
370
    50
100
AcDbLine
 10
115.095627
 20
192.318138
 30
0.0
 11
154.936347
 21
192.318138
 31
0.0
  0
LINE
  5
1DD
330
1F
100
AcDbEntity
  8
LC-001-100-D00-0
 62
     7
370
    50
100
AcDbLine
 10
154.936347
 20
192.318138
 30
0.0
 11
164.484427
 21
189.759735
 31
0.0
  0
LINE
  5
1DE
330
1F
100
AcDbEntity
  8
LC-001-100-D00-0
 62
     7
370
    50
100
AcDbLine
 10
164.484427
 20
189.759735
 30
0.0
 11
189.560426
 21
189.759735
 31
0.0
  0
INSERT
  5
1F0
330
1F
100
AcDbEntity
  8
LC-001-100-D00-0
 62
     7
370
    50
100
AcDbBlockReference
  2
POLY7
 10
0.0
 20
0.0
 30
0.0
  0
LINE
  5
1F1
330
1F
100
AcDbEntity
  8
LC-001-100-D00-0
 62
     7
370
    50
100
AcDbLine
 10
190.560427
 20
190.759737
 30
0.0
 11
190.560427
 21
195.762135
 31
0.0
  0
ARC
  5
1F2
330
1F
100
AcDbEntity
  8
LC-001-100-D00-0
 62
     7
370
    50
100
AcDbCircle
 10
195.560427
 20
195.762136
 30
0.0
 40
5.0
100
AcDbArc
 50
90.0
 51
180.0
  0
LINE
  5
1F3
330
1F
100
AcDbEntity
  8
LC-001-100-D00-0
 62
     7
370
    50
100
AcDbLine
 10
195.560427
 20
200.762138
 30
0.0
 11
236.282028
 21
200.762138
 31
0.0
  0
LINE
  5
1F4
330
1F
100
AcDbEntity
  8
LC-001-100-D00-0
 62
     7
370
    50
100
AcDbLine
 10
236.282028
 20
200.762138
 30
0.0
 11
236.282028
 21
202.262133
 31
0.0
  0
LINE
  5
1F5
330
1F
100
AcDbEntity
  8
LC-001-100-D00-0
 62
     7
370
    50
100
AcDbLine
 10
236.282028
 20
202.262133
 30
0.0
 11
239.346132
 21
202.262133
 31
0.0
  0
ARC
  5
1F6
330
1F
100
AcDbEntity
  8
LC-001-100-D00-0
 62
     7
370
    50
100
AcDbCircle
 10
239.346129
 20
200.262136
 30
0.0
 40
2.000000000000066
100
AcDbArc
 50
60.0
 51
90.0
  0
LINE
  5
1F7
330
1F
100
AcDbEntity
  8
LC-001-100-D00-0
 62
     7
370
    50
100
AcDbLine
 10
240.346126
 20
201.994188
 30
0.0
 11
242.480107
 21
200.762138
 31
0.0
  0
LINE
  5
1F8
330
1F
100
AcDbEntity
  8
LC-001-100-D00-0
 62
     7
370
    50
100
AcDbLine
 10
242.480107
 20
200.762138
 30
0.0
 11
244.082026
 21
200.762138
 31
0.0
  0
ARC
  5
1F9
330
1F
100
AcDbEntity
  8
LC-001-100-D00-0
 62
     7
370
    50
100
AcDbCircle
 10
244.082027
 20
200.262136
 30
0.0
 40
0.5
100
AcDbArc
 50
0.0
 51
90.0
  0
LINE
  5
1FA
330
1F
100
AcDbEntity
  8
LC-001-100-D00-0
 62
     7
370
    50
100
AcDbLine
 10
244.582027
 20
197.730135
 30
0.0
 11
244.582027
 21
200.262137
 31
0.0
  0
LINE
  5
1FB
330
1F
100
AcDbEntity
  8
LC-001-100-D00-0
 62
     7
370
    50
100
AcDbLine
 10
243.793733
 20
197.730135
 30
0.0
 11
244.582027
 21
197.730135
 31
0.0
  0
LINE
  5
1FC
330
1F
100
AcDbEntity
  8
LC-001-100-D00-0
 62
     7
370
    50
100
AcDbLine
 10
234.002713
 20
197.710156
 30
0.0
 11
243.793733
 21
197.730135
 31
0.0
  0
LINE
  5
1FD
330
1F
100
AcDbEntity
  8
LC-001-100-D00-0
 62
     7
370
    50
100
AcDbLine
 10
233.953815
 20
197.660856
 30
0.0
 11
234.002713
 21
197.710156
 31
0.0
  0
LINE
  5
1FE
330
1F
100
AcDbEntity
  8
LC-001-100-D00-0
 62
     7
370
    50
100
AcDbLine
 10
233.904313
 20
197.709955
 30
0.0
 11
233.953815
 21
197.660856
 31
0.0
  0
LINE
  5
1FF
330
1F
100
AcDbEntity
  8
LC-001-100-D00-0
 62
     7
370
    50
100
AcDbLine
 10
231.050737
 20
197.704132
 30
0.0
 11
233.904313
 21
197.709955
 31
0.0
  0
LINE
  5
200
330
1F
100
AcDbEntity
  8
LC-001-100-D00-0
 62
     7
370
    50
100
AcDbLine
 10
231.001839
 20
197.654832
 30
0.0
 11
231.050737
 21
197.704132
 31
0.0
  0
LINE
  5
201
330
1F
100
AcDbEntity
  8
LC-001-100-D00-0
 62
     7
370
    50
100
AcDbLine
 10
230.952337
 20
197.703931
 30
0.0
 11
231.001839
 21
197.654832
 31
0.0
  0
LINE
  5
202
330
1F
100
AcDbEntity
  8
LC-001-100-D00-0
 62
     7
370
    50
100
AcDbLine
 10
228.098761
 20
197.698109
 30
0.0
 11
230.952337
 21
197.703931
 31
0.0
  0
LINE
  5
203
330
1F
100
AcDbEntity
  8
LC-001-100-D00-0
 62
     7
370
    50
100
AcDbLine
 10
228.049863
 20
197.648808
 30
0.0
 11
228.098761
 21
197.698109
 31
0.0
  0
LINE
  5
204
330
1F
100
AcDbEntity
  8
LC-001-100-D00-0
 62
     7
370
    50
100
AcDbLine
 10
228.000362
 20
197.697908
 30
0.0
 11
228.049863
 21
197.648808
 31
0.0
  0
LINE
  5
205
330
1F
100
AcDbEntity
  8
LC-001-100-D00-0
 62
     7
370
    50
100
AcDbLine
 10
225.146785
 20
197.692085
 30
0.0
 11
228.000362
 21
197.697908
 31
0.0
  0
LINE
  5
206
330
1F
100
AcDbEntity
  8
LC-001-100-D00-0
 62
     7
370
    50
100
AcDbLine
 10
225.097887
 20
197.642784
 30
0.0
 11
225.146785
 21
197.692085
 31
0.0
  0
LINE
  5
207
330
1F
100
AcDbEntity
  8
LC-001-100-D00-0
 62
     7
370
    50
100
AcDbLine
 10
225.048386
 20
197.691884
 30
0.0
 11
225.097887
 21
197.642784
 31
0.0
  0
LINE
  5
208
330
1F
100
AcDbEntity
  8
LC-001-100-D00-0
 62
     7
370
    50
100
AcDbLine
 10
222.19481
 20
197.686061
 30
0.0
 11
225.048386
 21
197.691884
 31
0.0
  0
LINE
  5
209
330
1F
100
AcDbEntity
  8
LC-001-100-D00-0
 62
     7
370
    50
100
AcDbLine
 10
222.145911
 20
197.636761
 30
0.0
 11
222.19481
 21
197.686061
 31
0.0
  0
LINE
  5
20A
330
1F
100
AcDbEntity
  8
LC-001-100-D00-0
 62
     7
370
    50
100
AcDbLine
 10
222.09641
 20
197.68586
 30
0.0
 11
222.145911
 21
197.636761
 31
0.0
  0
LINE
  5
20B
330
1F
100
AcDbEntity
  8
LC-001-100-D00-0
 62
     7
370
    50
100
AcDbLine
 10
219.242837
 20
197.680037
 30
0.0
 11
222.09641
 21
197.68586
 31
0.0
  0
LINE
  5
20C
330
1F
100
AcDbEntity
  8
LC-001-100-D00-0
 62
     7
370
    50
100
AcDbLine
 10
219.193935
 20
197.630737
 30
0.0
 11
219.242837
 21
197.680037
 31
0.0
  0
LINE
  5
20D
330
1F
100
AcDbEntity
  8
LC-001-100-D00-0
 62
     7
370
    50
100
AcDbLine
 10
219.144434
 20
197.679836
 30
0.0
 11
219.193935
 21
197.630737
 31
0.0
  0
LINE
  5
20E
330
1F
100
AcDbEntity
  8
LC-001-100-D00-0
 62
     7
370
    50
100
AcDbLine
 10
216.290861
 20
197.674014
 30
0.0
 11
219.144434
 21
197.679836
 31
0.0
  0
LINE
  5
20F
330
1F
100
AcDbEntity
  8
LC-001-100-D00-0
 62
     7
370
    50
100
AcDbLine
 10
216.24196
 20
197.624713
 30
0.0
 11
216.290861
 21
197.674014
 31
0.0
  0
LINE
  5
210
330
1F
100
AcDbEntity
  8
LC-001-100-D00-0
 62
     7
370
    50
100
AcDbLine
 10
216.192462
 20
197.673812
 30
0.0
 11
216.24196
 21
197.624713
 31
0.0
  0
LINE
  5
211
330
1F
100
AcDbEntity
  8
LC-001-100-D00-0
 62
     7
370
    50
100
AcDbLine
 10
213.339008
 20
197.66799
 30
0.0
 11
216.192462
 21
197.673812
 31
0.0
  0
LINE
  5
212
330
1F
100
AcDbEntity
  8
LC-001-100-D00-0
 62
     7
370
    50
100
AcDbLine
 10
213.289909
 20
197.618887
 30
0.0
 11
213.339008
 21
197.66799
 31
0.0
  0
LINE
  5
213
330
1F
100
AcDbEntity
  8
LC-001-100-D00-0
 62
     7
370
    50
100
AcDbLine
 10
213.241007
 20
197.667789
 30
0.0
 11
213.289909
 21
197.618887
 31
0.0
  0
LINE
  5
214
330
1F
100
AcDbEntity
  8
LC-001-100-D00-0
 62
     7
370
    50
100
AcDbLine
 10
210.387006
 20
197.661962
 30
0.0
 11
213.241007
 21
197.667789
 31
0.0
  0
LINE
  5
215
330
1F
100
AcDbEntity
  8
LC-001-100-D00-0
 62
     7
370
    50
100
AcDbLine
 10
210.338108
 20
197.612665
 30
0.0
 11
210.387006
 21
197.661962
 31
0.0
  0
LINE
  5
216
330
1F
100
AcDbEntity
  8
LC-001-100-D00-0
 62
     7
370
    50
100
AcDbLine
 10
210.288607
 20
197.661765
 30
0.0
 11
210.338108
 21
197.612665
 31
0.0
  0
LINE
  5
217
330
1F
100
AcDbEntity
  8
LC-001-100-D00-0
 62
     7
370
    50
100
AcDbLine
 10
207.435008
 20
197.655938
 30
0.0
 11
210.288607
 21
197.661765
 31
0.0
  0
LINE
  5
218
330
1F
100
AcDbEntity
  8
LC-001-100-D00-0
 62
     7
370
    50
100
AcDbLine
 10
207.38611
 20
197.606642
 30
0.0
 11
207.435008
 21
197.655938
 31
0.0
  0
LINE
  5
219
330
1F
100
AcDbEntity
  8
LC-001-100-D00-0
 62
     7
370
    50
100
AcDbLine
 10
207.336608
 20
197.655737
 30
0.0
 11
207.38611
 21
197.606642
 31
0.0
  0
LINE
  5
21A
330
1F
100
AcDbEntity
  8
LC-001-100-D00-0
 62
     7
370
    50
100
AcDbLine
 10
204.483006
 20
197.649915
 30
0.0
 11
207.336608
 21
197.655737
 31
0.0
  0
LINE
  5
21B
330
1F
100
AcDbEntity
  8
LC-001-100-D00-0
 62
     7
370
    50
100
AcDbLine
 10
111.382348
 20
188.47545
 30
0.0
 11
111.382348
 21
193.228136
 31
0.0
  0
LINE
  5
21C
330
1F
100
AcDbEntity
  8
LC-001-100-D00-0
 62
     7
370
    50
100
AcDbLine
 10
154.936347
 20
76.206136
 30
0.0
 11
115.095627
 21
76.206136
 31
0.0
  0
ARC
  5
21D
330
1F
100
AcDbEntity
  8
LC-001-100-D00-0
 62
     7
370
    50
100
AcDbCircle
 10
115.095627
 20
75.206136
 30
0.0
 40
1.0
100
AcDbArc
 50
90.0
 51
180.0
  0
ARC
  5
21E
330
1F
100
AcDbEntity
  8
LC-001-100-D00-0
 62
     7
370
    50
100
AcDbCircle
 10
112.595627
 20
72.687736
 30
0.0
 40
1.5
100
AcDbArc
 50
270.0
 51
0.0
  0
LINE
  5
21F
330
1F
100
AcDbEntity
  8
LC-001-100-D00-0
 62
     7
370
    50
100
AcDbLine
 10
112.595625
 20
71.187734
 30
0.0
 11
100.908935
 21
71.187734
 31
0.0
  0
LINE
  5
220
330
1F
100
AcDbEntity
  8
LC-001-100-D00-0
 62
     7
370
    50
100
AcDbLine
 10
100.908935
 20
71.187734
 30
0.0
 11
96.087337
 21
76.206136
 31
0.0
  0
LINE
  5
221
330
1F
100
AcDbEntity
  8
LC-001-100-D00-0
 62
     7
370
    50
100
AcDbLine
 10
96.087337
 20
76.206136
 30
0.0
 11
94.119333
 21
76.206136
 31
0.0
  0
LINE
  5
222
330
1F
100
AcDbEntity
  8
LC-001-100-D00-0
 62
     7
370
    50
100
AcDbLine
 10
94.119333
 20
76.206136
 30
0.0
 11
94.119333
 21
79.216137
 31
0.0
  0
LINE
  5
223
330
1F
100
AcDbEntity
  8
LC-001-100-D00-0
 62
     7
370
    50
100
AcDbLine
 10
97.023323
 20
79.216137
 30
0.0
 11
94.119333
 21
79.216137
 31
0.0
  0
ARC
  5
224
330
1F
100
AcDbEntity
  8
LC-001-100-D00-0
 62
     7
370
    50
100
AcDbCircle
 10
97.023324
 20
77.716136
 30
0.0
 40
1.500000000000012
100
AcDbArc
 50
45.0
 51
90.0
  0
LINE
  5
225
330
1F
100
AcDbEntity
  8
LC-001-100-D00-0
 62
     7
370
    50
100
AcDbLine
 10
101.685964
 20
75.174816
 30
0.0
 11
98.083988
 21
78.776795
 31
0.0
  0
ARC
  5
226
330
1F
100
AcDbEntity
  8
LC-001-100-D00-0
 62
     7
370
    50
100
AcDbCircle
 10
103.807285
 20
77.296136
 30
0.0
 40
3.000000000000024
100
AcDbArc
 50
225.0
 51
270.0
  0
LINE
  5
227
330
1F
100
AcDbEntity
  8
LC-001-100-D00-0
 62
     7
370
    50
100
AcDbLine
 10
110.389628
 20
74.296139
 30
0.0
 11
103.807285
 21
74.296139
 31
0.0
  0
ARC
  5
228
330
1F
100
AcDbEntity
  8
LC-001-100-D00-0
 62
     7
370
    50
100
AcDbCircle
 10
110.389627
 20
75.296136
 30
0.0
 40
1.0
100
AcDbArc
 50
270.0
 51
0.0
  0
ARC
  5
229
330
1F
100
AcDbEntity
  8
LC-001-100-D00-0
 62
     7
370
    50
100
AcDbCircle
 10
111.889627
 20
78.165088
 30
0.0
 40
0.5
100
AcDbArc
 50
90.0
 51
180.0
  0
LINE
  5
22A
330
1F
100
AcDbEntity
  8
LC-001-100-D00-0
 62
     7
370
    50
100
AcDbLine
 10
111.921553
 20
78.665089
 30
0.0
 11
111.889627
 21
78.665089
 31
0.0
  0
LINE
  5
22B
330
1F
100
AcDbEntity
  8
LC-001-100-D00-0
 62
     7
370
    50
100
AcDbLine
 10
154.025655
 20
78.813735
 30
0.0
 11
111.921553
 21
78.665089
 31
0.0
  0
LINE
  5
22C
330
1F
100
AcDbEntity
  8
LC-001-100-D00-0
 62
     7
370
    50
100
AcDbLine
 10
163.940967
 20
81.470538
 30
0.0
 11
154.025655
 21
78.813735
 31
0.0
  0
LINE
  5
22D
330
1F
100
AcDbEntity
  8
LC-001-100-D00-0
 62
     7
370
    50
100
AcDbLine
 10
193.608293
 20
81.623163
 30
0.0
 11
163.940967
 21
81.470538
 31
0.0
  0
LINE
  5
22E
330
1F
100
AcDbEntity
  8
LC-001-100-D00-0
 62
     7
370
    50
100
AcDbLine
 10
193.609536
 20
73.361255
 30
0.0
 11
193.608293
 21
81.623163
 31
0.0
  0
ARC
  5
22F
330
1F
100
AcDbEntity
  8
LC-001-100-D00-0
 62
     7
370
    50
100
AcDbCircle
 10
196.069517
 20
73.351531
 30
0.0
 40
2.459999999981699
100
AcDbArc
 50
179.773536
 51
269.883078
  0
LINE
  5
230
330
1F
100
AcDbEntity
  8
LC-001-100-D00-0
 62
     7
370
    50
100
AcDbLine
 10
198.480608
 20
70.886604
 30
0.0
 11
196.064496
 21
70.891537
 31
0.0
  0
LINE
  5
231
330
1F
100
AcDbEntity
  8
LC-001-100-D00-0
 62
     7
370
    50
100
AcDbLine
 10
198.529707
 20
70.935704
 30
0.0
 11
198.480608
 21
70.886604
 31
0.0
  0
LINE
  5
232
330
1F
100
AcDbEntity
  8
LC-001-100-D00-0
 62
     7
370
    50
100
AcDbLine
 10
198.579008
 20
70.886403
 30
0.0
 11
198.529707
 21
70.935704
 31
0.0
  0
LINE
  5
233
330
1F
100
AcDbEntity
  8
LC-001-100-D00-0
 62
     7
370
    50
100
AcDbLine
 10
201.432608
 20
70.880584
 30
0.0
 11
198.579008
 21
70.886403
 31
0.0
  0
LINE
  5
234
330
1F
100
AcDbEntity
  8
LC-001-100-D00-0
 62
     7
370
    50
100
AcDbLine
 10
201.482108
 20
70.929684
 30
0.0
 11
201.432608
 21
70.880584
 31
0.0
  0
LINE
  5
235
330
1F
100
AcDbEntity
  8
LC-001-100-D00-0
 62
     7
370
    50
100
AcDbLine
 10
201.531008
 20
70.880383
 30
0.0
 11
201.482108
 21
70.929684
 31
0.0
  0
LINE
  5
236
330
1F
100
AcDbEntity
  8
LC-001-100-D00-0
 62
     7
370
    50
100
AcDbLine
 10
204.384606
 20
70.874557
 30
0.0
 11
201.531008
 21
70.880383
 31
0.0
  0
LINE
  5
237
330
1F
100
AcDbEntity
  8
LC-001-100-D00-0
 62
     7
370
    50
100
AcDbLine
 10
204.434108
 20
70.923656
 30
0.0
 11
204.384606
 21
70.874557
 31
0.0
  0
LINE
  5
238
330
1F
100
AcDbEntity
  8
LC-001-100-D00-0
 62
     7
370
    50
100
AcDbLine
 10
204.483006
 20
70.874356
 30
0.0
 11
204.434108
 21
70.923656
 31
0.0
  0
LINE
  5
239
330
1F
100
AcDbEntity
  8
LC-001-100-D00-0
 62
     7
370
    50
100
AcDbLine
 10
207.336608
 20
70.868537
 30
0.0
 11
204.483006
 21
70.874356
 31
0.0
  0
LINE
  5
23A
330
1F
100
AcDbEntity
  8
LC-001-100-D00-0
 62
     7
370
    50
100
AcDbLine
 10
207.38611
 20
70.917636
 30
0.0
 11
207.336608
 21
70.868537
 31
0.0
  0
LINE
  5
23B
330
1F
100
AcDbEntity
  8
LC-001-100-D00-0
 62
     7
370
    50
100
AcDbLine
 10
207.435008
 20
70.868336
 30
0.0
 11
207.38611
 21
70.917636
 31
0.0
  0
LINE
  5
23C
330
1F
100
AcDbEntity
  8
LC-001-100-D00-0
 62
     7
370
    50
100
AcDbLine
 10
210.288607
 20
70.862509
 30
0.0
 11
207.435008
 21
70.868336
 31
0.0
  0
LINE
  5
23D
330
1F
100
AcDbEntity
  8
LC-001-100-D00-0
 62
     7
370
    50
100
AcDbLine
 10
210.338108
 20
70.911608
 30
0.0
 11
210.288607
 21
70.862509
 31
0.0
  0
LINE
  5
23E
330
1F
100
AcDbEntity
  8
LC-001-100-D00-0
 62
     7
370
    50
100
AcDbLine
 10
210.387006
 20
70.862308
 30
0.0
 11
210.338108
 21
70.911608
 31
0.0
  0
LINE
  5
23F
330
1F
100
AcDbEntity
  8
LC-001-100-D00-0
 62
     7
370
    50
100
AcDbLine
 10
213.241007
 20
70.856482
 30
0.0
 11
210.387006
 21
70.862308
 31
0.0
  0
LINE
  5
240
330
1F
100
AcDbEntity
  8
LC-001-100-D00-0
 62
     7
370
    50
100
AcDbLine
 10
213.289909
 20
70.905387
 30
0.0
 11
213.241007
 21
70.856482
 31
0.0
  0
LINE
  5
241
330
1F
100
AcDbEntity
  8
LC-001-100-D00-0
 62
     7
370
    50
100
AcDbLine
 10
213.339008
 20
70.856288
 30
0.0
 11
213.289909
 21
70.905387
 31
0.0
  0
LINE
  5
242
330
1F
100
AcDbEntity
  8
LC-001-100-D00-0
 62
     7
370
    50
100
AcDbLine
 10
216.192462
 20
70.850462
 30
0.0
 11
213.339008
 21
70.856288
 31
0.0
  0
LINE
  5
243
330
1F
100
AcDbEntity
  8
LC-001-100-D00-0
 62
     7
370
    50
100
AcDbLine
 10
216.24196
 20
70.899561
 30
0.0
 11
216.192462
 21
70.850462
 31
0.0
  0
LINE
  5
244
330
1F
100
AcDbEntity
  8
LC-001-100-D00-0
 62
     7
370
    50
100
AcDbLine
 10
216.290861
 20
70.85026
 30
0.0
 11
216.24196
 21
70.899561
 31
0.0
  0
LINE
  5
245
330
1F
100
AcDbEntity
  8
LC-001-100-D00-0
 62
     7
370
    50
100
AcDbLine
 10
219.144434
 20
70.844434
 30
0.0
 11
216.290861
 21
70.85026
 31
0.0
  0
LINE
  5
246
330
1F
100
AcDbEntity
  8
LC-001-100-D00-0
 62
     7
370
    50
100
AcDbLine
 10
219.193935
 20
70.893533
 30
0.0
 11
219.144434
 21
70.844434
 31
0.0
  0
LINE
  5
247
330
1F
100
AcDbEntity
  8
LC-001-100-D00-0
 62
     7
370
    50
100
AcDbLine
 10
219.242837
 20
70.84424
 30
0.0
 11
219.193935
 21
70.893533
 31
0.0
  0
LINE
  5
248
330
1F
100
AcDbEntity
  8
LC-001-100-D00-0
 62
     7
370
    50
100
AcDbLine
 10
222.09641
 20
70.838414
 30
0.0
 11
219.242837
 21
70.84424
 31
0.0
  0
LINE
  5
249
330
1F
100
AcDbEntity
  8
LC-001-100-D00-0
 62
     7
370
    50
100
AcDbLine
 10
222.145911
 20
70.887513
 30
0.0
 11
222.09641
 21
70.838414
 31
0.0
  0
LINE
  5
24A
330
1F
100
AcDbEntity
  8
LC-001-100-D00-0
 62
     7
370
    50
100
AcDbLine
 10
222.19481
 20
70.838213
 30
0.0
 11
222.145911
 21
70.887513
 31
0.0
  0
LINE
  5
24B
330
1F
100
AcDbEntity
  8
LC-001-100-D00-0
 62
     7
370
    50
100
AcDbLine
 10
225.048386
 20
70.832386
 30
0.0
 11
222.19481
 21
70.838213
 31
0.0
  0
LINE
  5
24C
330
1F
100
AcDbEntity
  8
LC-001-100-D00-0
 62
     7
370
    50
100
AcDbLine
 10
225.097887
 20
70.881486
 30
0.0
 11
225.048386
 21
70.832386
 31
0.0
  0
LINE
  5
24D
330
1F
100
AcDbEntity
  8
LC-001-100-D00-0
 62
     7
370
    50
100
AcDbLine
 10
225.146785
 20
70.832185
 30
0.0
 11
225.097887
 21
70.881486
 31
0.0
  0
LINE
  5
24E
330
1F
100
AcDbEntity
  8
LC-001-100-D00-0
 62
     7
370
    50
100
AcDbLine
 10
228.000362
 20
70.826366
 30
0.0
 11
225.146785
 21
70.832185
 31
0.0
  0
LINE
  5
24F
330
1F
100
AcDbEntity
  8
LC-001-100-D00-0
 62
     7
370
    50
100
AcDbLine
 10
228.049863
 20
70.875466
 30
0.0
 11
228.000362
 21
70.826366
 31
0.0
  0
LINE
  5
250
330
1F
100
AcDbEntity
  8
LC-001-100-D00-0
 62
     7
370
    50
100
AcDbLine
 10
228.098761
 20
70.826165
 30
0.0
 11
228.049863
 21
70.875466
 31
0.0
  0
LINE
  5
251
330
1F
100
AcDbEntity
  8
LC-001-100-D00-0
 62
     7
370
    50
100
AcDbLine
 10
230.952337
 20
70.820339
 30
0.0
 11
228.098761
 21
70.826165
 31
0.0
  0
LINE
  5
252
330
1F
100
AcDbEntity
  8
LC-001-100-D00-0
 62
     7
370
    50
100
AcDbLine
 10
231.001839
 20
70.869438
 30
0.0
 11
230.952337
 21
70.820339
 31
0.0
  0
LINE
  5
253
330
1F
100
AcDbEntity
  8
LC-001-100-D00-0
 62
     7
370
    50
100
AcDbLine
 10
231.050737
 20
70.820138
 30
0.0
 11
231.001839
 21
70.869438
 31
0.0
  0
LINE
  5
254
330
1F
100
AcDbEntity
  8
LC-001-100-D00-0
 62
     7
370
    50
100
AcDbLine
 10
233.904313
 20
70.814319
 30
0.0
 11
231.050737
 21
70.820138
 31
0.0
  0
LINE
  5
255
330
1F
100
AcDbEntity
  8
LC-001-100-D00-0
 62
     7
370
    50
100
AcDbLine
 10
233.953815
 20
70.863418
 30
0.0
 11
233.904313
 21
70.814319
 31
0.0
  0
LINE
  5
256
330
1F
100
AcDbEntity
  8
LC-001-100-D00-0
 62
     7
370
    50
100
AcDbLine
 10
234.002713
 20
70.814118
 30
0.0
 11
233.953815
 21
70.863418
 31
0.0
  0
LINE
  5
257
330
1F
100
AcDbEntity
  8
LC-001-100-D00-0
 62
     7
370
    50
100
AcDbLine
 10
243.793733
 20
70.794135
 30
0.0
 11
234.002713
 21
70.814118
 31
0.0
  0
LINE
  5
258
330
1F
100
AcDbEntity
  8
LC-001-100-D00-0
 62
     7
370
    50
100
AcDbLine
 10
244.582027
 20
70.794135
 30
0.0
 11
243.793733
 21
70.794135
 31
0.0
  0
LINE
  5
259
330
1F
100
AcDbEntity
  8
LC-001-100-D00-0
 62
     7
370
    50
100
AcDbLine
 10
244.582027
 20
68.262137
 30
0.0
 11
244.582027
 21
70.794135
 31
0.0
  0
ARC
  5
25A
330
1F
100
AcDbEntity
  8
LC-001-100-D00-0
 62
     7
370
    50
100
AcDbCircle
 10
244.082027
 20
68.262136
 30
0.0
 40
0.5
100
AcDbArc
 50
270.0
 51
0.0
  0
LINE
  5
25B
330
1F
100
AcDbEntity
  8
LC-001-100-D00-0
 62
     7
370
    50
100
AcDbLine
 10
244.082026
 20
67.762136
 30
0.0
 11
242.480107
 21
67.762136
 31
0.0
  0
LINE
  5
25C
330
1F
100
AcDbEntity
  8
LC-001-100-D00-0
 62
     7
370
    50
100
AcDbLine
 10
242.480107
 20
67.762136
 30
0.0
 11
240.346126
 21
66.530086
 31
0.0
  0
ARC
  5
25D
330
1F
100
AcDbEntity
  8
LC-001-100-D00-0
 62
     7
370
    50
100
AcDbCircle
 10
239.346129
 20
68.262136
 30
0.0
 40
2.0
100
AcDbArc
 50
270.0
 51
300.0
  0
LINE
  5
25E
330
1F
100
AcDbEntity
  8
LC-001-100-D00-0
 62
     7
370
    50
100
AcDbLine
 10
239.346132
 20
66.262133
 30
0.0
 11
236.282028
 21
66.262133
 31
0.0
  0
LINE
  5
25F
330
1F
100
AcDbEntity
  8
LC-001-100-D00-0
 62
     7
370
    50
100
AcDbLine
 10
236.282028
 20
66.262133
 30
0.0
 11
236.282028
 21
67.762136
 31
0.0
  0
LINE
  5
260
330
1F
100
AcDbEntity
  8
LC-001-100-D00-0
 62
     7
370
    50
100
AcDbLine
 10
236.282028
 20
67.762136
 30
0.0
 11
195.560427
 21
67.762136
 31
0.0
  0
ARC
  5
261
330
1F
100
AcDbEntity
  8
LC-001-100-D00-0
 62
     7
370
    50
100
AcDbCircle
 10
195.560427
 20
72.762136
 30
0.0
 40
5.000000000000044
100
AcDbArc
 50
181.128823
 51
270.0
  0
LINE
  5
262
330
1F
100
AcDbEntity
  8
LC-001-100-D00-0
 62
     7
370
    50
100
AcDbLine
 10
190.561397
 20
72.663635
 30
0.0
 11
155.477401
 21
76.35111
 31
0.0
  0
LINE
  5
263
330
1F
100
AcDbEntity
  8
LC-001-100-D00-0
 62
     7
370
    50
100
AcDbLine
 10
155.477401
 20
76.35111
 30
0.0
 11
154.936347
 21
76.206136
 31
0.0
  0
LINE
  5
264
330
1F
100
AcDbEntity
  8
LC-001-100-D00-0
 62
     7
370
    50
100
AcDbLine
 10
114.095628
 20
75.206138
 30
0.0
 11
114.095628
 21
72.687737
 31
0.0
  0
LINE
  5
265
330
1F
100
AcDbEntity
  8
LC-001-100-D00-0
 62
     7
370
    50
100
AcDbLine
 10
111.389626
 20
77.179965
 30
0.0
 11
111.389626
 21
80.048941
 31
0.0
  0
INSERT
  5
28F
330
1F
100
AcDbEntity
  8
LC-001-100-D00-0
 62
     7
370
    50
100
AcDbBlockReference
  2
POLY8
 10
0.0
 20
0.0
 30
0.0
  0
INSERT
  5
2A7
330
1F
100
AcDbEntity
  8
LC-001-100-D00-0
 62
     7
370
    50
100
AcDbBlockReference
  2
POLY9
 10
0.0
 20
0.0
 30
0.0
  0
INSERT
  5
2BF
330
1F
100
AcDbEntity
  8
LC-001-100-D00-0
 62
     7
370
    50
100
AcDbBlockReference
  2
POLY10
 10
0.0
 20
0.0
 30
0.0
  0
LINE
  5
2C0
330
1F
100
AcDbEntity
  8
LC-001-100-D00-0
 62
     7
370
    50
100
AcDbLine
 10
193.609536
 20
195.163019
 30
0.0
 11
193.609536
 21
73.361255
 31
0.0
  0
LINE
  5
2C1
330
1F
100
AcDbEntity
  8
LC-001-100-D00-0
 62
     7
370
    50
100
AcDbLine
 10
94.119333
 20
79.216137
 30
0.0
 11
94.119333
 21
189.308137
 31
0.0
  0
LINE
  5
2C2
330
1F
100
AcDbEntity
  8
LC-001-100-D00-0
 62
     7
370
    50
100
AcDbLine
 10
163.940967
 20
187.053736
 30
0.0
 11
163.940967
 21
81.470538
 31
0.0
  0
LINE
  5
2C3
330
1F
100
AcDbEntity
  8
LC-001-100-D00-0
 62
     7
370
    50
100
AcDbLine
 10
154.025655
 20
189.710535
 30
0.0
 11
154.025655
 21
78.813735
 31
0.0
  0
LINE
  5
2C4
330
1F
100
AcDbEntity
  8
LC-001-100-D00-0
 62
     7
370
    50
100
AcDbLine
 10
193.608293
 20
186.901111
 30
0.0
 11
193.608293
 21
81.623163
 31
0.0
  0
INSERT
  5
2D9
330
1F
100
AcDbEntity
  8
LC-001-100-D00-0
 62
     7
370
    25
100
AcDbBlockReference
  2
KLON1
 10
0.0
 20
0.0
 30
0.0
  0
INSERT
  5
2F0
330
1F
100
AcDbEntity
  8
LC-001-100-D00-0
 62
     7
370
    25
100
AcDbBlockReference
  2
KLON2
 10
0.0
 20
0.0
 30
0.0
  0
INSERT
  5
2FF
330
1F
100
AcDbEntity
  8
LC-001-100-D00-0
 62
     7
370
    25
100
AcDbBlockReference
  2
KLON3
 10
0.0
 20
0.0
 30
0.0
  0
INSERT
  5
311
330
1F
100
AcDbEntity
  8
LC-001-100-D00-0
 62
     7
370
    25
100
AcDbBlockReference
  2
KLON4
 10
0.0
 20
0.0
 30
0.0
  0
INSERT
  5
33A
330
1F
100
AcDbEntity
  8
LC-001-100-D00-0
 62
     7
370
    25
100
AcDbBlockReference
  2
KLON5
 10
0.0
 20
0.0
 30
0.0
  0
INSERT
  5
359
330
1F
100
AcDbEntity
  8
LC-001-100-D00-0
 62
     7
370
    25
100
AcDbBlockReference
  2
KLON6
 10
0.0
 20
0.0
 30
0.0
  0
INSERT
  5
36B
330
1F
100
AcDbEntity
  8
LC-001-100-D00-0
 62
     7
370
    25
100
AcDbBlockReference
  2
KLON7
 10
0.0
 20
0.0
 30
0.0
  0
INSERT
  5
37F
330
1F
100
AcDbEntity
  8
LC-001-100-D00-0
 62
     7
370
    25
100
AcDbBlockReference
  2
KLON8
 10
0.0
 20
0.0
 30
0.0
  0
DIMENSION
  5
382
330
1F
100
AcDbEntity
  8
LC-001-100-D00-0
 62
     7
370
    25
100
AcDbDimension
  2
*D19
 10
75.144062
 20
189.308136
 30
0.0
 11
44.344062
 21
130.013568
 31
0.0
 70
   160
  1
DN100
 71
     5
 42
110.092
 53
90.0
  3
LC-DIM-L-0140-00-02
100
AcDbAlignedDimension
 13
94.119334
 23
79.216136
 33
0.0
 14
94.119334
 24
189.308136
 34
0.0
 50
90.0
100
AcDbRotatedDimension
  0
DIMENSION
  5
390
330
1F
100
AcDbEntity
  8
LC-001-100-D00-0
 62
     7
370
    25
100
AcDbDimension
  2
*D20
 10
253.982027
 20
21.311568
 30
0.0
 11
168.816295
 21
52.111568
 31
0.0
 70
   160
  1
160
 71
     5
 42
159.862693
  3
LC-DIM-L-0140-00-02
100
AcDbAlignedDimension
 13
94.119334
 23
76.206136
 33
0.0
 14
253.982027
 24
69.988596
 34
0.0
100
AcDbRotatedDimension
  0
LINE
  5
39E
330
1F
100
AcDbEntity
  8
LC-001-100-D00-0
  6
DASHDOT
 62
     7
370
    25
100
AcDbLine
 10
94.119333
 20
134.262136
 30
0.0
 11
253.98203
 21
134.262136
 31
0.0
  0
DIMENSION
  5
3A1
330
1F
100
AcDbEntity
  8
LC-002-003-----0
 62
     7
370
    25
100
AcDbDimension
  2
*D21
 10
299.417005
 20
81.454836
 30
0.0
 11
268.617005
 21
152.585568
 31
0.0
 70
   160
  1
DN100(SML)
 71
     5
 42
105.614601
 53
90.0
  3
LC-DIM-L-0140-02-02
100
AcDbAlignedDimension
 13
242.87586
 23
187.069437
 33
0.0
 14
242.87586
 24
81.454836
 34
0.0
 50
90.0
100
AcDbRotatedDimension
  0
ENDSEC
  0
SECTION
  2
OBJECTS
  0
DICTIONARY
  5
C
330
0
100
AcDbDictionary
281
     1
  3
ACAD_GROUP
350
D
  3
ACAD_LAYOUT
350
1A
  3
ACAD_MLINESTYLE
350
17
  3
ACAD_PLOTSETTINGS
350
19
  3
ACAD_PLOTSTYLENAME
350
E
  0
DICTIONARY
  5
D
102
{ACAD_REACTORS
330
C
102
}
330
C
100
AcDbDictionary
281
     1
  0
DICTIONARY
  5
1A
102
{ACAD_REACTORS
330
C
102
}
330
C
100
AcDbDictionary
281
     1
  3
Layout1
350
1E
  3
Layout2
350
26
  3
Model
350
22
  0
DICTIONARY
  5
17
102
{ACAD_REACTORS
330
C
102
}
330
C
100
AcDbDictionary
281
     1
  3
Standard
350
18
  0
DICTIONARY
  5
19
102
{ACAD_REACTORS
330
C
102
}
330
C
100
AcDbDictionary
281
     1
  0
ACDBDICTIONARYWDFLT
  5
E
102
{ACAD_REACTORS
330
C
102
}
330
C
100
AcDbDictionary
281
     1
  3
Normal
350
F
100
AcDbDictionaryWithDefault
340
F
  0
LAYOUT
  5
1E
102
{ACAD_REACTORS
330
1A
102
}
330
1A
100
AcDbPlotSettings
  1

  2

  4

  6

 40
0.0
 41
0.0
 42
0.0
 43
0.0
 44
0.0
 45
0.0
 46
0.0
 47
0.0
 48
0.0
 49
0.0
140
0.0
141
0.0
142
1.0
143
1.0
 70
   688
 72
     0
 73
     0
 74
     5
  7

 75
    16
147
1.0
148
0.0
149
0.0
100
AcDbLayout
  1
Layout1
 70
     1
 71
     1
 10
-209.751756
 20
-147.978432
 11
630.248244
 21
446.021568
 12
0.0
 22
0.0
 32
0.0
 14
-209.751756
 24
-147.978432
 34
0.0
 15
630.248244
 25
446.021568
 35
0.0
146
0.0
 13
0.0
 23
0.0
 33
0.0
 16
1.0
 26
0.0
 36
0.0
 17
0.0
 27
1.0
 37
0.0
 76
     0
330
1B
  0
LAYOUT
  5
26
102
{ACAD_REACTORS
330
1A
102
}
330
1A
100
AcDbPlotSettings
  1

  2

  4

  6

 40
0.0
 41
0.0
 42
0.0
 43
0.0
 44
0.0
 45
0.0
 46
0.0
 47
0.0
 48
0.0
 49
0.0
140
0.0
141
0.0
142
1.0
143
1.0
 70
   688
 72
     0
 73
     0
 74
     5
  7

 75
    16
147
1.0
148
0.0
149
0.0
100
AcDbLayout
  1
Layout2
 70
     1
 71
     2
 10
0.0
 20
0.0
 11
0.0
 21
0.0
 12
0.0
 22
0.0
 32
0.0
 14
0.0
 24
0.0
 34
0.0
 15
0.0
 25
0.0
 35
0.0
146
0.0
 13
0.0
 23
0.0
 33
0.0
 16
1.0
 26
0.0
 36
0.0
 17
0.0
 27
1.0
 37
0.0
 76
     0
330
23
  0
LAYOUT
  5
22
102
{ACAD_REACTORS
330
1A
102
}
330
1A
100
AcDbPlotSettings
  1

  2

  4

  6

 40
0.0
 41
0.0
 42
0.0
 43
0.0
 44
0.0
 45
0.0
 46
0.0
 47
0.0
 48
0.0
 49
0.0
140
0.0
141
0.0
142
1.0
143
1.0
 70
  1776
 72
     0
 73
     0
 74
     0
  7

 75
     0
147
1.0
148
0.0
149
0.0
100
AcDbLayout
  1
Model
 70
     1
 71
     0
 10
-209.751756
 20
-147.978432
 11
630.248244
 21
446.021568
 12
0.0
 22
0.0
 32
0.0
 14
-209.751756
 24
-147.978432
 34
0.0
 15
630.248244
 25
446.021568
 35
0.0
146
0.0
 13
0.0
 23
0.0
 33
0.0
 16
1.0
 26
0.0
 36
0.0
 17
0.0
 27
1.0
 37
0.0
 76
     0
330
1F
  0
MLINESTYLE
  5
18
102
{ACAD_REACTORS
330
17
102
}
330
17
100
AcDbMlineStyle
  2
Standard
 70
     0
  3

 62
   256
 51
90.0
 52
90.0
 71
     2
 49
0.5
 62
   256
  6
BYLAYER
 49
-0.5
 62
   256
  6
BYLAYER
  0
ACDBPLACEHOLDER
  5
F
102
{ACAD_REACTORS
330
E
102
}
330
E
  0
ENDSEC
  0
EOF
