  0
SECTION
  2
HEADER
  9
$ACADVER
  1
AC1009
  9
$INSBASE
 10
205.0
 20
57.992825
 30
0.0
  9
$EXTMIN
 10
-75.735272
 20
-58.26
 30
0.0
  9
$EXTMAX
 10
764.264728
 20
535.74
 30
0.0
  9
$LIMMIN
 10
-75.735272
 20
-58.26
  9
$LIMMAX
 10
764.264728
 20
535.74
  9
$ORTHOMODE
 70
     0
  9
$REGENMODE
 70
     1
  9
$FILLMODE
 70
     1
  9
$QTEXTMODE
 70
     0
  9
$MIRRTEXT
 70
     1
  9
$DRAGMODE
 70
     2
  9
$LTSCALE
 40
2.0
  9
$OSMODE
 70
     0
  9
$ATTMODE
 70
     1
  9
$TEXTSIZE
 40
0.2
  9
$TRACEWID
 40
0.05
  9
$TEXTSTYLE
  7
STANDARD
  9
$CLAYER
  8
0
  9
$CELTYPE
  6
BYLAYER
  9
$CECOLOR
 62
     7
  9
$DIMSCALE
 40
2.0
  9
$DIMASZ
 40
3.5
  9
$DIMEXO
 40
0.0625
  9
$DIMDLI
 40
0.38
  9
$DIMRND
 40
0.0
  9
$DIMDLE
 40
0.0
  9
$DIMEXE
 40
0.18
  9
$DIMTP
 40
0.0
  9
$DIMTM
 40
0.0
  9
$DIMTXT
 40
3.5
  9
$DIMCEN
 40
0.09
  9
$DIMTSZ
 40
0.0
  9
$DIMTOL
 70
     0
  9
$DIMLIM
 70
     0
  9
$DIMTIH
 70
     1
  9
$DIMTOH
 70
     1
  9
$DIMSE1
 70
     0
  9
$DIMSE2
 70
     0
  9
$DIMTAD
 70
     1
  9
$DIMZIN
 70
     0
  9
$DIMBLK
  1

  9
$DIMASO
 70
     1
  9
$DIMSHO
 70
     1
  9
$DIMPOST
  1

  9
$DIMAPOST
  1

  9
$DIMALT
 70
     0
  9
$DIMALTD
 70
     2
  9
$DIMALTF
 40
25.4
  9
$DIMLFAC
 40
1.0
  9
$DIMTOFL
 70
     0
  9
$DIMTVP
 40
0.0
  9
$DIMTIX
 70
     0
  9
$DIMSOXD
 70
     0
  9
$DIMSAH
 70
     0
  9
$DIMBLK1
  1

  9
$DIMBLK2
  1

  9
$DIMSTYLE
  2
STANDARD
  9
$DIMCLRD
 70
     0
  9
$DIMCLRE
 70
     0
  9
$DIMCLRT
 70
     0
  9
$DIMTFAC
 40
1.0
  9
$DIMGAP
 40
0.09
  9
$LUNITS
 70
     2
  9
$LUPREC
 70
     2
  9
$AXISMODE
 70
     0
  9
$AXISUNIT
 10
0.0
 20
0.0
  9
$SKETCHINC
 40
0.1
  9
$FILLETRAD
 40
0.0
  9
$AUNITS
 70
     0
  9
$AUPREC
 70
     0
  9
$MENU
  1
acad
  9
$ELEVATION
 40
0.0
  9
$PELEVATION
 40
0.0
  9
$THICKNESS
 40
0.0
  9
$LIMCHECK
 70
     0
  9
$BLIPMODE
 70
     1
  9
$CHAMFERA
 40
0.0
  9
$CHAMFERB
 40
0.0
  9
$SKPOLY
 70
     0
  9
$TDCREATE
 40
0.000000000
  9
$TDUPDATE
 40
0.000000000
  9
$TDINDWG
 40
0.0000000000
  9
$TDUSRTIMER
 40
0.0000000000
  9
$USRTIMER
 70
     1
  9
$ANGBASE
 50
0.0
  9
$ANGDIR
 70
     0
  9
$PDMODE
 70
     0
  9
$PDSIZE
 40
0.0
  9
$PLINEWID
 40
0.0
  9
$COORDS
 70
     0
  9
$SPLFRAME
 70
     0
  9
$SPLINETYPE
 70
     6
  9
$SPLINESEGS
 70
     8
  9
$ATTDIA
 70
     0
  9
$ATTREQ
 70
     1
  9
$HANDLING
 70
     1
  9
$HANDSEED
  5
97E
  9
$SURFTAB1
 70
     6
  9
$SURFTAB2
 70
     6
  9
$SURFTYPE
 70
     6
  9
$SURFU
 70
     6
  9
$SURFV
 70
     6
  9
$UCSNAME
  2

  9
$UCSORG
 10
0.0
 20
0.0
 30
0.0
  9
$UCSXDIR
 10
1.0
 20
0.0
 30
0.0
  9
$UCSYDIR
 10
0.0
 20
1.0
 30
0.0
  9
$PUCSNAME
  2

  9
$PUCSORG
 10
0.0
 20
0.0
 30
0.0
  9
$PUCSXDIR
 10
1.0
 20
0.0
 30
0.0
  9
$PUCSYDIR
 10
0.0
 20
1.0
 30
0.0
  9
$USERI1
 70
     0
  9
$USERI2
 70
     0
  9
$USERI3
 70
     0
  9
$USERI4
 70
     0
  9
$USERI5
 70
     0
  9
$USERR1
 40
0.0
  9
$USERR2
 40
0.0
  9
$USERR3
 40
0.0
  9
$USERR4
 40
0.0
  9
$USERR5
 40
0.0
  9
$WORLDVIEW
 70
     1
  9
$SHADEDGE
 70
     3
  9
$SHADEDIF
 70
    70
  9
$TILEMODE
 70
     1
  9
$MAXACTVP
 70
    16
  9
$PINSBASE
 10
0.0
 20
0.0
 30
0.0
  9
$PLIMCHECK
 70
     0
  9
$PEXTMIN
 10
1.000000E+20
 20
1.000000E+20
 30
1.000000E+20
  9
$PEXTMAX
 10
-1.000000E+20
 20
-1.000000E+20
 30
-1.000000E+20
  9
$PLIMMIN
 10
-75.735272
 20
-58.26
  9
$PLIMMAX
 10
764.264728
 20
535.74
  9
$UNITMODE
 70
     0
  9
$VISRETAIN
 70
     0
  9
$PLINEGEN
 70
     1
  9
$PSLTSCALE
 70
     0
  9
$TREEDEPTH
 70
  3020
  9
$DWGCODEPAGE
  3
dos850
  0
ENDSEC
  0
SECTION
  2
TABLES
  0
TABLE
  2
VPORT
 70
     1
  0
VPORT
  2
*ACTIVE
 70
     0
 10
0.0
 20
0.0
 11
1.0
 21
1.0
 12
420.0
 22
297.0
 13
0.0
 23
0.0
 14
1.0
 24
1.0
 15
0.0
 25
0.0
 16
0.0
 26
0.0
 36
1.0
 17
-75.735272
 27
-58.26
 37
0.0
 40
594.0
 41
1.604229
 42
50.0
 43
0.0
 44
0.0
 50
0.0
 51
0.0
 71
     0
 72
   100
 73
     1
 74
     1
 75
     0
 76
     0
 77
     0
 78
     0
  0
ENDTAB
  0
TABLE
  2
LTYPE
 70
     3
  0
LTYPE
  2
CONTINUOUS
 70
    64
  3
Solid line
 72
    65
 73
     0
 40
0.0
  0
LTYPE
  2
DASHED
 70
    64
  3
__ __ __ __ __
 72
    65
 73
     2
 40
6.25
 49
5.0
 49
-1.25
  0
LTYPE
  2
DASHDOT
 70
    64
  3
__ . __ . __ . __ . __
 72
    65
 73
     4
 40
7.5
 49
5.0
 49
-1.25
 49
0.0
 49
-1.25
  0
ENDTAB
  0
TABLE
  2
LAYER
 70
    12
  0
LAYER
  2
0
 70
     0
 62
     7
  6
CONTINUOUS
  0
LAYER
  2
LC-INFO-1-2-MM-A3-0
 70
     1
 62
    -1
  6
CONTINUOUS
  0
LAYER
  2
LC-003-002-----0
 70
     0
 62
     1
  6
CONTINUOUS
  0
LAYER
  2
LC-008-003-MTH-0
 70
     0
 62
     2
  6
CONTINUOUS
  0
LAYER
  2
LC-009-003-MTG-0
 70
     0
 62
     2
  6
CONTINUOUS
  0
LAYER
  2
LC-007-003-----0
 70
     0
 62
     2
  6
CONTINUOUS
  0
LAYER
  2
LC-010-005-----0
 70
     0
 62
     2
  6
CONTINUOUS
  0
LAYER
  2
LC-001-000-----0
 70
     0
 62
     7
  6
CONTINUOUS
  0
LAYER
  2
LC-002-101-----0
 70
     0
 62
     7
  6
CONTINUOUS
  0
LAYER
  2
LC-005-100-----0
 70
     0
 62
     7
  6
CONTINUOUS
  0
LAYER
  2
LC-004-101-D10-0
 70
     0
 62
     2
  6
DASHDOT
  0
LAYER
  2
LC-000
 70
     0
 62
     7
  6
CONTINUOUS
  0
ENDTAB
  0
TABLE
  2
STYLE
 70
     3
  0
STYLE
  2
STANDARD
 70
     0
 40
0.0
 41
1.0
 50
0.0
 71
     0
 42
0.0
  3
txt
  4

  0
STYLE
  2
LC-TXTSTYLE-150-400-0-0-A1
 70
    64
 40
0.0
 41
1.0
 50
15.0
 71
     0
 42
3.5
  3
Arial
  4

  0
STYLE
  2
LC-STANDARD
 70
    64
 40
0.0
 41
1.0
 50
0.0
 71
     0
 42
3.5
  3
MONOTXT
  4

  0
ENDTAB
  0
TABLE
  2
VIEW
 70
     0
  0
ENDTAB
  0
TABLE
  2
UCS
 70
     0
  0
ENDTAB
  0
TABLE
  2
APPID
 70
     1
  0
APPID
  2
ACAD
 70
     0
  0
ENDTAB
  0
TABLE
  2
DIMSTYLE
 70
     3
  0
DIMSTYLE
  2
STANDARD
 70
     0
  3

  4

  5

  6

  7

 40
1.0
 41
0.18
 42
0.0625
 43
0.38
 44
0.18
 45
0.0
 46
0.0
 47
0.0
 48
0.0
 71
     0
 72
     0
 73
     1
 74
     1
 75
     0
 76
     0
 77
     0
 78
     0
140
0.18
141
0.09
142
0.0
143
25.4
144
1.0
145
0.0
146
1.0
147
0.09
170
     0
171
     2
172
     0
173
     0
174
     0
175
     0
176
     0
177
     0
178
     0
  0
DIMSTYLE
  2
LC-STANDARD
 70
     0
  3

  4

  5

  6

  7

 40
1.0
 41
3.5
 42
0.0
 43
7.5
 44
1.8
 45
0.0
 46
0.0
 47
0.0
 48
0.0
 71
     0
 72
     0
 73
     0
 74
     0
 75
     0
 76
     0
 77
     1
 78
     8
140
3.5
141
0.0
142
0.0
143
25.4
144
1.0
145
0.0
146
0.71
147
1.5
170
     0
171
     2
172
     1
173
     0
174
     0
175
     0
176
     0
177
     0
178
     3
  0
DIMSTYLE
  2
LC-DIM-L-0140-02-02
 70
     0
  3

  4

  5

  6

  7

 40
2.0
 41
3.5
 42
0.0
 43
7.5
 44
1.8
 45
0.0
 46
0.0
 47
0.0
 48
0.0
 71
     0
 72
     0
 73
     0
 74
     0
 75
     0
 76
     0
 77
     1
 78
     8
140
14.0
141
0.0
142
0.0
143
25.4
144
1.0
145
0.0
146
0.71
147
1.5
170
     0
171
     2
172
     0
173
     0
174
     0
175
     0
176
     2
177
     2
178
     8
  0
ENDTAB
  0
ENDSEC
  0
SECTION
  2
BLOCKS
  0
BLOCK
  8
0
  5
23
  2
BLK1
 70
    64
 10
0.0
 20
0.0
 30
0.0
  3
BLK1
  0
ENDBLK
  8
0
  5
24
  0
BLOCK
  8
0
  5
26
  2
*D1
 70
    65
 10
0.0
 20
0.0
 30
0.0
  3
*D1
  0
ENDBLK
  8
0
  5
27
  0
BLOCK
  8
0
  5
29
  2
BLK3
 70
    64
 10
243.366834
 20
347.17601
 30
0.0
  3
BLK3
  0
LINE
  8
LC-003-002-----0
  6
CONTINUOUS
  5
2B
 10
243.366834
 20
347.17601
 30
0.0
 11
243.374003
 21
347.389345
 31
0.0
  0
LINE
  8
LC-003-002-----0
  6
CONTINUOUS
  5
2C
 10
243.374003
 20
347.389345
 30
0.0
 11
243.396153
 21
347.556107
 31
0.0
  0
LINE
  8
LC-003-002-----0
  6
CONTINUOUS
  5
2D
 10
243.396153
 20
347.556107
 30
0.0
 11
243.42789
 21
347.713917
 31
0.0
  0
LINE
  8
LC-003-002-----0
  6
CONTINUOUS
  5
2E
 10
243.42789
 20
347.713917
 30
0.0
 11
243.464198
 21
347.854099
 31
0.0
  0
LINE
  8
LC-003-002-----0
  6
CONTINUOUS
  5
2F
 10
243.464198
 20
347.854099
 30
0.0
 11
243.480566
 21
347.900936
 31
0.0
  0
LINE
  8
LC-003-002-----0
  6
CONTINUOUS
  5
30
 10
243.480566
 20
347.900936
 30
0.0
 11
243.503029
 21
347.948422
 31
0.0
  0
LINE
  8
LC-003-002-----0
  6
CONTINUOUS
  5
31
 10
243.503029
 20
347.948422
 30
0.0
 11
243.558498
 21
348.038915
 31
0.0
  0
LINE
  8
LC-003-002-----0
  6
CONTINUOUS
  5
32
 10
243.558498
 20
348.038915
 30
0.0
 11
243.624784
 21
348.124098
 31
0.0
  0
LINE
  8
LC-003-002-----0
  6
CONTINUOUS
  5
33
 10
243.624784
 20
348.124098
 30
0.0
 11
243.673342
 21
348.162377
 31
0.0
  0
LINE
  8
LC-003-002-----0
  6
CONTINUOUS
  5
34
 10
243.673342
 20
348.162377
 30
0.0
 11
243.749518
 21
348.17601
 31
0.0
  0
ENDBLK
  8
0
  5
35
  0
BLOCK
  8
0
  5
37
  2
BLK4
 70
    64
 10
143.81694
 20
348.17601
 30
0.0
  3
BLK4
  0
LINE
  8
LC-003-002-----0
  6
CONTINUOUS
  5
38
 10
143.81694
 20
348.17601
 30
0.0
 11
143.896272
 21
348.172579
 31
0.0
  0
LINE
  8
LC-003-002-----0
  6
CONTINUOUS
  5
39
 10
143.896272
 20
348.172579
 30
0.0
 11
143.954606
 21
348.163991
 31
0.0
  0
LINE
  8
LC-003-002-----0
  6
CONTINUOUS
  5
3A
 10
143.954606
 20
348.163991
 30
0.0
 11
143.979552
 21
348.158456
 31
0.0
  0
LINE
  8
LC-003-002-----0
  6
CONTINUOUS
  5
3B
 10
143.979552
 20
348.158456
 30
0.0
 11
144.004884
 21
348.152152
 31
0.0
  0
LINE
  8
LC-003-002-----0
  6
CONTINUOUS
  5
3C
 10
144.004884
 20
348.152152
 30
0.0
 11
144.031865
 21
348.145165
 31
0.0
  0
LINE
  8
LC-003-002-----0
  6
CONTINUOUS
  5
3D
 10
144.031865
 20
348.145165
 30
0.0
 11
144.060328
 21
348.13689
 31
0.0
  0
LINE
  8
LC-003-002-----0
  6
CONTINUOUS
  5
3E
 10
144.060328
 20
348.13689
 30
0.0
 11
144.089242
 21
348.126756
 31
0.0
  0
LINE
  8
LC-003-002-----0
  6
CONTINUOUS
  5
3F
 10
144.089242
 20
348.126756
 30
0.0
 11
144.118055
 21
348.114671
 31
0.0
  0
LINE
  8
LC-003-002-----0
  6
CONTINUOUS
  5
40
 10
144.118055
 20
348.114671
 30
0.0
 11
144.147082
 21
348.100609
 31
0.0
  0
LINE
  8
LC-003-002-----0
  6
CONTINUOUS
  5
41
 10
144.147082
 20
348.100609
 30
0.0
 11
144.175176
 21
348.085992
 31
0.0
  0
LINE
  8
LC-003-002-----0
  6
CONTINUOUS
  5
42
 10
144.175176
 20
348.085992
 30
0.0
 11
144.197349
 21
348.074202
 31
0.0
  0
LINE
  8
LC-003-002-----0
  6
CONTINUOUS
  5
43
 10
144.197349
 20
348.074202
 30
0.0
 11
144.218916
 21
348.062035
 31
0.0
  0
LINE
  8
LC-003-002-----0
  6
CONTINUOUS
  5
44
 10
144.218916
 20
348.062035
 30
0.0
 11
144.240785
 21
348.048388
 31
0.0
  0
LINE
  8
LC-003-002-----0
  6
CONTINUOUS
  5
45
 10
144.240785
 20
348.048388
 30
0.0
 11
144.262399
 21
348.033443
 31
0.0
  0
LINE
  8
LC-003-002-----0
  6
CONTINUOUS
  5
46
 10
144.262399
 20
348.033443
 30
0.0
 11
144.283755
 21
348.017254
 31
0.0
  0
LINE
  8
LC-003-002-----0
  6
CONTINUOUS
  5
47
 10
144.283755
 20
348.017254
 30
0.0
 11
144.304682
 21
348.000584
 31
0.0
  0
LINE
  8
LC-003-002-----0
  6
CONTINUOUS
  5
48
 10
144.304682
 20
348.000584
 30
0.0
 11
144.325136
 21
347.984025
 31
0.0
  0
LINE
  8
LC-003-002-----0
  6
CONTINUOUS
  5
49
 10
144.325136
 20
347.984025
 30
0.0
 11
144.345153
 21
347.967045
 31
0.0
  0
LINE
  8
LC-003-002-----0
  6
CONTINUOUS
  5
4A
 10
144.345153
 20
347.967045
 30
0.0
 11
144.364682
 21
347.94904
 31
0.0
  0
LINE
  8
LC-003-002-----0
  6
CONTINUOUS
  5
4B
 10
144.364682
 20
347.94904
 30
0.0
 11
144.382593
 21
347.931058
 31
0.0
  0
LINE
  8
LC-003-002-----0
  6
CONTINUOUS
  5
4C
 10
144.382593
 20
347.931058
 30
0.0
 11
144.398783
 21
347.913379
 31
0.0
  0
LINE
  8
LC-003-002-----0
  6
CONTINUOUS
  5
4D
 10
144.398783
 20
347.913379
 30
0.0
 11
144.415003
 21
347.894712
 31
0.0
  0
LINE
  8
LC-003-002-----0
  6
CONTINUOUS
  5
4E
 10
144.415003
 20
347.894712
 30
0.0
 11
144.446827
 21
347.857214
 31
0.0
  0
LINE
  8
LC-003-002-----0
  6
CONTINUOUS
  5
4F
 10
144.446827
 20
347.857214
 30
0.0
 11
144.479235
 21
347.815663
 31
0.0
  0
LINE
  8
LC-003-002-----0
  6
CONTINUOUS
  5
50
 10
144.479235
 20
347.815663
 30
0.0
 11
144.503632
 21
347.779091
 31
0.0
  0
LINE
  8
LC-003-002-----0
  6
CONTINUOUS
  5
51
 10
144.503632
 20
347.779091
 30
0.0
 11
144.524128
 21
347.743686
 31
0.0
  0
LINE
  8
LC-003-002-----0
  6
CONTINUOUS
  5
52
 10
144.524128
 20
347.743686
 30
0.0
 11
144.538
 21
347.717496
 31
0.0
  0
LINE
  8
LC-003-002-----0
  6
CONTINUOUS
  5
53
 10
144.538
 20
347.717496
 30
0.0
 11
144.550963
 21
347.692005
 31
0.0
  0
LINE
  8
LC-003-002-----0
  6
CONTINUOUS
  5
54
 10
144.550963
 20
347.692005
 30
0.0
 11
144.56348
 21
347.667055
 31
0.0
  0
LINE
  8
LC-003-002-----0
  6
CONTINUOUS
  5
55
 10
144.56348
 20
347.667055
 30
0.0
 11
144.575913
 21
347.641307
 31
0.0
  0
LINE
  8
LC-003-002-----0
  6
CONTINUOUS
  5
56
 10
144.575913
 20
347.641307
 30
0.0
 11
144.592974
 21
347.602449
 31
0.0
  0
LINE
  8
LC-003-002-----0
  6
CONTINUOUS
  5
57
 10
144.592974
 20
347.602449
 30
0.0
 11
144.609272
 21
347.558047
 31
0.0
  0
LINE
  8
LC-003-002-----0
  6
CONTINUOUS
  5
58
 10
144.609272
 20
347.558047
 30
0.0
 11
144.626698
 21
347.498016
 31
0.0
  0
LINE
  8
LC-003-002-----0
  6
CONTINUOUS
  5
59
 10
144.626698
 20
347.498016
 30
0.0
 11
144.639778
 21
347.445792
 31
0.0
  0
LINE
  8
LC-003-002-----0
  6
CONTINUOUS
  5
5A
 10
144.639778
 20
347.445792
 30
0.0
 11
144.643382
 21
347.430788
 31
0.0
  0
LINE
  8
LC-003-002-----0
  6
CONTINUOUS
  5
5B
 10
144.643382
 20
347.430788
 30
0.0
 11
144.646712
 21
347.41602
 31
0.0
  0
LINE
  8
LC-003-002-----0
  6
CONTINUOUS
  5
5C
 10
144.646712
 20
347.41602
 30
0.0
 11
144.650895
 21
347.39532
 31
0.0
  0
LINE
  8
LC-003-002-----0
  6
CONTINUOUS
  5
5D
 10
144.650895
 20
347.39532
 30
0.0
 11
144.655024
 21
347.371519
 31
0.0
  0
LINE
  8
LC-003-002-----0
  6
CONTINUOUS
  5
5E
 10
144.655024
 20
347.371519
 30
0.0
 11
144.658963
 21
347.343603
 31
0.0
  0
LINE
  8
LC-003-002-----0
  6
CONTINUOUS
  5
5F
 10
144.658963
 20
347.343603
 30
0.0
 11
144.662041
 21
347.318467
 31
0.0
  0
LINE
  8
LC-003-002-----0
  6
CONTINUOUS
  5
60
 10
144.662041
 20
347.318467
 30
0.0
 11
144.66387
 21
347.302907
 31
0.0
  0
LINE
  8
LC-003-002-----0
  6
CONTINUOUS
  5
61
 10
144.66387
 20
347.302907
 30
0.0
 11
144.665439
 21
347.288423
 31
0.0
  0
LINE
  8
LC-003-002-----0
  6
CONTINUOUS
  5
62
 10
144.665439
 20
347.288423
 30
0.0
 11
144.668911
 21
347.242969
 31
0.0
  0
LINE
  8
LC-003-002-----0
  6
CONTINUOUS
  5
63
 10
144.668911
 20
347.242969
 30
0.0
 11
144.670494
 21
347.17601
 31
0.0
  0
ENDBLK
  8
0
  5
64
  0
BLOCK
  8
0
  5
66
  2
BLK5
 70
    64
 10
144.524047
 20
347.17601
 30
0.0
  3
BLK5
  0
LINE
  8
LC-003-002-----0
  6
CONTINUOUS
  5
67
 10
144.524047
 20
347.17601
 30
0.0
 11
144.511213
 21
347.3878
 31
0.0
  0
LINE
  8
LC-003-002-----0
  6
CONTINUOUS
  5
68
 10
144.511213
 20
347.3878
 30
0.0
 11
144.472015
 21
347.549824
 31
0.0
  0
LINE
  8
LC-003-002-----0
  6
CONTINUOUS
  5
69
 10
144.472015
 20
347.549824
 30
0.0
 11
144.413575
 21
347.708469
 31
0.0
  0
LINE
  8
LC-003-002-----0
  6
CONTINUOUS
  5
6A
 10
144.413575
 20
347.708469
 30
0.0
 11
144.348411
 21
347.847048
 31
0.0
  0
LINE
  8
LC-003-002-----0
  6
CONTINUOUS
  5
6B
 10
144.348411
 20
347.847048
 30
0.0
 11
144.318476
 21
347.89476
 31
0.0
  0
LINE
  8
LC-003-002-----0
  6
CONTINUOUS
  5
6C
 10
144.318476
 20
347.89476
 30
0.0
 11
144.28159
 21
347.938822
 31
0.0
  0
LINE
  8
LC-003-002-----0
  6
CONTINUOUS
  5
6D
 10
144.28159
 20
347.938822
 30
0.0
 11
144.183291
 21
348.028208
 31
0.0
  0
LINE
  8
LC-003-002-----0
  6
CONTINUOUS
  5
6E
 10
144.183291
 20
348.028208
 30
0.0
 11
144.06794
 21
348.111252
 31
0.0
  0
LINE
  8
LC-003-002-----0
  6
CONTINUOUS
  5
6F
 10
144.06794
 20
348.111252
 30
0.0
 11
143.963281
 21
348.159627
 31
0.0
  0
LINE
  8
LC-003-002-----0
  6
CONTINUOUS
  5
70
 10
143.963281
 20
348.159627
 30
0.0
 11
143.81694
 21
348.17601
 31
0.0
  0
ENDBLK
  8
0
  5
71
  0
BLOCK
  8
0
  5
73
  2
BLK6
 70
    64
 10
169.30843
 20
344.17601
 30
0.0
  3
BLK6
  0
LINE
  8
LC-003-002-----0
  6
CONTINUOUS
  5
74
 10
169.30843
 20
344.17601
 30
0.0
 11
169.214451
 21
344.188219
 31
0.0
  0
LINE
  8
LC-003-002-----0
  6
CONTINUOUS
  5
75
 10
169.214451
 20
344.188219
 30
0.0
 11
169.1454
 21
344.219692
 31
0.0
  0
LINE
  8
LC-003-002-----0
  6
CONTINUOUS
  5
76
 10
169.1454
 20
344.219692
 30
0.0
 11
169.110282
 21
344.243719
 31
0.0
  0
LINE
  8
LC-003-002-----0
  6
CONTINUOUS
  5
77
 10
169.110282
 20
344.243719
 30
0.0
 11
169.079304
 21
344.267573
 31
0.0
  0
LINE
  8
LC-003-002-----0
  6
CONTINUOUS
  5
78
 10
169.079304
 20
344.267573
 30
0.0
 11
169.066487
 21
344.277792
 31
0.0
  0
LINE
  8
LC-003-002-----0
  6
CONTINUOUS
  5
79
 10
169.066487
 20
344.277792
 30
0.0
 11
169.053466
 21
344.289003
 31
0.0
  0
LINE
  8
LC-003-002-----0
  6
CONTINUOUS
  5
7A
 10
169.053466
 20
344.289003
 30
0.0
 11
169.039451
 21
344.302407
 31
0.0
  0
LINE
  8
LC-003-002-----0
  6
CONTINUOUS
  5
7B
 10
169.039451
 20
344.302407
 30
0.0
 11
169.025216
 21
344.317168
 31
0.0
  0
LINE
  8
LC-003-002-----0
  6
CONTINUOUS
  5
7C
 10
169.025216
 20
344.317168
 30
0.0
 11
169.012616
 21
344.331101
 31
0.0
  0
LINE
  8
LC-003-002-----0
  6
CONTINUOUS
  5
7D
 10
169.012616
 20
344.331101
 30
0.0
 11
169.000278
 21
344.345233
 31
0.0
  0
LINE
  8
LC-003-002-----0
  6
CONTINUOUS
  5
7E
 10
169.000278
 20
344.345233
 30
0.0
 11
168.986078
 21
344.361699
 31
0.0
  0
LINE
  8
LC-003-002-----0
  6
CONTINUOUS
  5
7F
 10
168.986078
 20
344.361699
 30
0.0
 11
168.971957
 21
344.378698
 31
0.0
  0
LINE
  8
LC-003-002-----0
  6
CONTINUOUS
  5
80
 10
168.971957
 20
344.378698
 30
0.0
 11
168.957648
 21
344.397169
 31
0.0
  0
LINE
  8
LC-003-002-----0
  6
CONTINUOUS
  5
81
 10
168.957648
 20
344.397169
 30
0.0
 11
168.944812
 21
344.414941
 31
0.0
  0
LINE
  8
LC-003-002-----0
  6
CONTINUOUS
  5
82
 10
168.944812
 20
344.414941
 30
0.0
 11
168.933
 21
344.432437
 31
0.0
  0
LINE
  8
LC-003-002-----0
  6
CONTINUOUS
  5
83
 10
168.933
 20
344.432437
 30
0.0
 11
168.921526
 21
344.450216
 31
0.0
  0
LINE
  8
LC-003-002-----0
  6
CONTINUOUS
  5
84
 10
168.921526
 20
344.450216
 30
0.0
 11
168.89498
 21
344.492074
 31
0.0
  0
LINE
  8
LC-003-002-----0
  6
CONTINUOUS
  5
85
 10
168.89498
 20
344.492074
 30
0.0
 11
168.867039
 21
344.53859
 31
0.0
  0
LINE
  8
LC-003-002-----0
  6
CONTINUOUS
  5
86
 10
168.867039
 20
344.53859
 30
0.0
 11
168.839112
 21
344.590812
 31
0.0
  0
LINE
  8
LC-003-002-----0
  6
CONTINUOUS
  5
87
 10
168.839112
 20
344.590812
 30
0.0
 11
168.81478
 21
344.642967
 31
0.0
  0
LINE
  8
LC-003-002-----0
  6
CONTINUOUS
  5
88
 10
168.81478
 20
344.642967
 30
0.0
 11
168.790437
 21
344.701704
 31
0.0
  0
LINE
  8
LC-003-002-----0
  6
CONTINUOUS
  5
89
 10
168.790437
 20
344.701704
 30
0.0
 11
168.767642
 21
344.760565
 31
0.0
  0
LINE
  8
LC-003-002-----0
  6
CONTINUOUS
  5
8A
 10
168.767642
 20
344.760565
 30
0.0
 11
168.745759
 21
344.818266
 31
0.0
  0
LINE
  8
LC-003-002-----0
  6
CONTINUOUS
  5
8B
 10
168.745759
 20
344.818266
 30
0.0
 11
168.725102
 21
344.875937
 31
0.0
  0
LINE
  8
LC-003-002-----0
  6
CONTINUOUS
  5
8C
 10
168.725102
 20
344.875937
 30
0.0
 11
168.70451
 21
344.94025
 31
0.0
  0
LINE
  8
LC-003-002-----0
  6
CONTINUOUS
  5
8D
 10
168.70451
 20
344.94025
 30
0.0
 11
168.686202
 21
345.005041
 31
0.0
  0
LINE
  8
LC-003-002-----0
  6
CONTINUOUS
  5
8E
 10
168.686202
 20
345.005041
 30
0.0
 11
168.669048
 21
345.073641
 31
0.0
  0
LINE
  8
LC-003-002-----0
  6
CONTINUOUS
  5
8F
 10
168.669048
 20
345.073641
 30
0.0
 11
168.652785
 21
345.143828
 31
0.0
  0
LINE
  8
LC-003-002-----0
  6
CONTINUOUS
  5
90
 10
168.652785
 20
345.143828
 30
0.0
 11
168.632735
 21
345.232921
 31
0.0
  0
LINE
  8
LC-003-002-----0
  6
CONTINUOUS
  5
91
 10
168.632735
 20
345.232921
 30
0.0
 11
168.614058
 21
345.324608
 31
0.0
  0
LINE
  8
LC-003-002-----0
  6
CONTINUOUS
  5
92
 10
168.614058
 20
345.324608
 30
0.0
 11
168.60008
 21
345.407828
 31
0.0
  0
LINE
  8
LC-003-002-----0
  6
CONTINUOUS
  5
93
 10
168.60008
 20
345.407828
 30
0.0
 11
168.588761
 21
345.488951
 31
0.0
  0
LINE
  8
LC-003-002-----0
  6
CONTINUOUS
  5
94
 10
168.588761
 20
345.488951
 30
0.0
 11
168.581359
 21
345.548955
 31
0.0
  0
LINE
  8
LC-003-002-----0
  6
CONTINUOUS
  5
95
 10
168.581359
 20
345.548955
 30
0.0
 11
168.574619
 21
345.606836
 31
0.0
  0
LINE
  8
LC-003-002-----0
  6
CONTINUOUS
  5
96
 10
168.574619
 20
345.606836
 30
0.0
 11
168.569681
 21
345.650191
 31
0.0
  0
LINE
  8
LC-003-002-----0
  6
CONTINUOUS
  5
97
 10
168.569681
 20
345.650191
 30
0.0
 11
168.56504
 21
345.694001
 31
0.0
  0
LINE
  8
LC-003-002-----0
  6
CONTINUOUS
  5
98
 10
168.56504
 20
345.694001
 30
0.0
 11
168.560757
 21
345.740463
 31
0.0
  0
LINE
  8
LC-003-002-----0
  6
CONTINUOUS
  5
99
 10
168.560757
 20
345.740463
 30
0.0
 11
168.557038
 21
345.788178
 31
0.0
  0
LINE
  8
LC-003-002-----0
  6
CONTINUOUS
  5
9A
 10
168.557038
 20
345.788178
 30
0.0
 11
168.553928
 21
345.836145
 31
0.0
  0
LINE
  8
LC-003-002-----0
  6
CONTINUOUS
  5
9B
 10
168.553928
 20
345.836145
 30
0.0
 11
168.551343
 21
345.881035
 31
0.0
  0
LINE
  8
LC-003-002-----0
  6
CONTINUOUS
  5
9C
 10
168.551343
 20
345.881035
 30
0.0
 11
168.549136
 21
345.920937
 31
0.0
  0
LINE
  8
LC-003-002-----0
  6
CONTINUOUS
  5
9D
 10
168.549136
 20
345.920937
 30
0.0
 11
168.547214
 21
345.959787
 31
0.0
  0
LINE
  8
LC-003-002-----0
  6
CONTINUOUS
  5
9E
 10
168.547214
 20
345.959787
 30
0.0
 11
168.544186
 21
346.051585
 31
0.0
  0
LINE
  8
LC-003-002-----0
  6
CONTINUOUS
  5
9F
 10
168.544186
 20
346.051585
 30
0.0
 11
168.542974
 21
346.17601
 31
0.0
  0
ENDBLK
  8
0
  5
A0
  0
BLOCK
  8
0
  5
A2
  2
BLK7
 70
    64
 10
138.168288
 20
344.17601
 30
0.0
  3
BLK7
  0
LINE
  8
LC-003-002-----0
  6
CONTINUOUS
  5
A3
 10
138.168288
 20
344.17601
 30
0.0
 11
138.071515
 21
344.179999
 31
0.0
  0
LINE
  8
LC-003-002-----0
  6
CONTINUOUS
  5
A4
 10
138.071515
 20
344.179999
 30
0.0
 11
138.005352
 21
344.188844
 31
0.0
  0
LINE
  8
LC-003-002-----0
  6
CONTINUOUS
  5
A5
 10
138.005352
 20
344.188844
 30
0.0
 11
137.983729
 21
344.192937
 31
0.0
  0
LINE
  8
LC-003-002-----0
  6
CONTINUOUS
  5
A6
 10
137.983729
 20
344.192937
 30
0.0
 11
137.961027
 21
344.197599
 31
0.0
  0
LINE
  8
LC-003-002-----0
  6
CONTINUOUS
  5
A7
 10
137.961027
 20
344.197599
 30
0.0
 11
137.92967
 21
344.204265
 31
0.0
  0
LINE
  8
LC-003-002-----0
  6
CONTINUOUS
  5
A8
 10
137.92967
 20
344.204265
 30
0.0
 11
137.895334
 21
344.212434
 31
0.0
  0
LINE
  8
LC-003-002-----0
  6
CONTINUOUS
  5
A9
 10
137.895334
 20
344.212434
 30
0.0
 11
137.861193
 21
344.222175
 31
0.0
  0
LINE
  8
LC-003-002-----0
  6
CONTINUOUS
  5
AA
 10
137.861193
 20
344.222175
 30
0.0
 11
137.829407
 21
344.232879
 31
0.0
  0
LINE
  8
LC-003-002-----0
  6
CONTINUOUS
  5
AB
 10
137.829407
 20
344.232879
 30
0.0
 11
137.7999
 21
344.244326
 31
0.0
  0
LINE
  8
LC-003-002-----0
  6
CONTINUOUS
  5
AC
 10
137.7999
 20
344.244326
 30
0.0
 11
137.770232
 21
344.256796
 31
0.0
  0
LINE
  8
LC-003-002-----0
  6
CONTINUOUS
  5
AD
 10
137.770232
 20
344.256796
 30
0.0
 11
137.713889
 21
344.281197
 31
0.0
  0
LINE
  8
LC-003-002-----0
  6
CONTINUOUS
  5
AE
 10
137.713889
 20
344.281197
 30
0.0
 11
137.654905
 21
344.309215
 31
0.0
  0
LINE
  8
LC-003-002-----0
  6
CONTINUOUS
  5
AF
 10
137.654905
 20
344.309215
 30
0.0
 11
137.598002
 21
344.341271
 31
0.0
  0
LINE
  8
LC-003-002-----0
  6
CONTINUOUS
  5
B0
 10
137.598002
 20
344.341271
 30
0.0
 11
137.545464
 21
344.37657
 31
0.0
  0
LINE
  8
LC-003-002-----0
  6
CONTINUOUS
  5
B1
 10
137.545464
 20
344.37657
 30
0.0
 11
137.493589
 21
344.416762
 31
0.0
  0
LINE
  8
LC-003-002-----0
  6
CONTINUOUS
  5
B2
 10
137.493589
 20
344.416762
 30
0.0
 11
137.443308
 21
344.458728
 31
0.0
  0
LINE
  8
LC-003-002-----0
  6
CONTINUOUS
  5
B3
 10
137.443308
 20
344.458728
 30
0.0
 11
137.393885
 21
344.500949
 31
0.0
  0
LINE
  8
LC-003-002-----0
  6
CONTINUOUS
  5
B4
 10
137.393885
 20
344.500949
 30
0.0
 11
137.346056
 21
344.54459
 31
0.0
  0
LINE
  8
LC-003-002-----0
  6
CONTINUOUS
  5
B5
 10
137.346056
 20
344.54459
 30
0.0
 11
137.298581
 21
344.593424
 31
0.0
  0
LINE
  8
LC-003-002-----0
  6
CONTINUOUS
  5
B6
 10
137.298581
 20
344.593424
 30
0.0
 11
137.254623
 21
344.644647
 31
0.0
  0
LINE
  8
LC-003-002-----0
  6
CONTINUOUS
  5
B7
 10
137.254623
 20
344.644647
 30
0.0
 11
137.212706
 21
344.699461
 31
0.0
  0
LINE
  8
LC-003-002-----0
  6
CONTINUOUS
  5
B8
 10
137.212706
 20
344.699461
 30
0.0
 11
137.17167
 21
344.756848
 31
0.0
  0
LINE
  8
LC-003-002-----0
  6
CONTINUOUS
  5
B9
 10
137.17167
 20
344.756848
 30
0.0
 11
137.120112
 21
344.830814
 31
0.0
  0
LINE
  8
LC-003-002-----0
  6
CONTINUOUS
  5
BA
 10
137.120112
 20
344.830814
 30
0.0
 11
137.070385
 21
344.908578
 31
0.0
  0
LINE
  8
LC-003-002-----0
  6
CONTINUOUS
  5
BB
 10
137.070385
 20
344.908578
 30
0.0
 11
137.031129
 21
344.980241
 31
0.0
  0
LINE
  8
LC-003-002-----0
  6
CONTINUOUS
  5
BC
 10
137.031129
 20
344.980241
 30
0.0
 11
136.996524
 21
345.052562
 31
0.0
  0
LINE
  8
LC-003-002-----0
  6
CONTINUOUS
  5
BD
 10
136.996524
 20
345.052562
 30
0.0
 11
136.97239
 21
345.107307
 31
0.0
  0
LINE
  8
LC-003-002-----0
  6
CONTINUOUS
  5
BE
 10
136.97239
 20
345.107307
 30
0.0
 11
136.950313
 21
345.159207
 31
0.0
  0
LINE
  8
LC-003-002-----0
  6
CONTINUOUS
  5
BF
 10
136.950313
 20
345.159207
 30
0.0
 11
136.937131
 21
345.190599
 31
0.0
  0
LINE
  8
LC-003-002-----0
  6
CONTINUOUS
  5
C0
 10
136.937131
 20
345.190599
 30
0.0
 11
136.924303
 21
345.222362
 31
0.0
  0
LINE
  8
LC-003-002-----0
  6
CONTINUOUS
  5
C1
 10
136.924303
 20
345.222362
 30
0.0
 11
136.911157
 21
345.257175
 31
0.0
  0
LINE
  8
LC-003-002-----0
  6
CONTINUOUS
  5
C2
 10
136.911157
 20
345.257175
 30
0.0
 11
136.898179
 21
345.294132
 31
0.0
  0
LINE
  8
LC-003-002-----0
  6
CONTINUOUS
  5
C3
 10
136.898179
 20
345.294132
 30
0.0
 11
136.885622
 21
345.332525
 31
0.0
  0
LINE
  8
LC-003-002-----0
  6
CONTINUOUS
  5
C4
 10
136.885622
 20
345.332525
 30
0.0
 11
136.873782
 21
345.37022
 31
0.0
  0
LINE
  8
LC-003-002-----0
  6
CONTINUOUS
  5
C5
 10
136.873782
 20
345.37022
 30
0.0
 11
136.863882
 21
345.402131
 31
0.0
  0
LINE
  8
LC-003-002-----0
  6
CONTINUOUS
  5
C6
 10
136.863882
 20
345.402131
 30
0.0
 11
136.854369
 21
345.433817
 31
0.0
  0
LINE
  8
LC-003-002-----0
  6
CONTINUOUS
  5
C7
 10
136.854369
 20
345.433817
 30
0.0
 11
136.843901
 21
345.470966
 31
0.0
  0
LINE
  8
LC-003-002-----0
  6
CONTINUOUS
  5
C8
 10
136.843901
 20
345.470966
 30
0.0
 11
136.834575
 21
345.506775
 31
0.0
  0
LINE
  8
LC-003-002-----0
  6
CONTINUOUS
  5
C9
 10
136.834575
 20
345.506775
 30
0.0
 11
136.826235
 21
345.542296
 31
0.0
  0
LINE
  8
LC-003-002-----0
  6
CONTINUOUS
  5
CA
 10
136.826235
 20
345.542296
 30
0.0
 11
136.819002
 21
345.575742
 31
0.0
  0
LINE
  8
LC-003-002-----0
  6
CONTINUOUS
  5
CB
 10
136.819002
 20
345.575742
 30
0.0
 11
136.803083
 21
345.651844
 31
0.0
  0
LINE
  8
LC-003-002-----0
  6
CONTINUOUS
  5
CC
 10
136.803083
 20
345.651844
 30
0.0
 11
136.787533
 21
345.734255
 31
0.0
  0
LINE
  8
LC-003-002-----0
  6
CONTINUOUS
  5
CD
 10
136.787533
 20
345.734255
 30
0.0
 11
136.763205
 21
345.925396
 31
0.0
  0
LINE
  8
LC-003-002-----0
  6
CONTINUOUS
  5
CE
 10
136.763205
 20
345.925396
 30
0.0
 11
136.753908
 21
346.17601
 31
0.0
  0
ENDBLK
  8
0
  5
CF
  0
BLOCK
  8
0
  5
D1
  2
BLK8
 70
    64
 10
142.049173
 20
347.67601
 30
0.0
  3
BLK8
  0
LINE
  8
LC-003-002-----0
  6
CONTINUOUS
  5
D2
 10
142.049173
 20
347.67601
 30
0.0
 11
142.055591
 21
347.781905
 31
0.0
  0
LINE
  8
LC-003-002-----0
  6
CONTINUOUS
  5
D3
 10
142.055591
 20
347.781905
 30
0.0
 11
142.07519
 21
347.862917
 31
0.0
  0
LINE
  8
LC-003-002-----0
  6
CONTINUOUS
  5
D4
 10
142.07519
 20
347.862917
 30
0.0
 11
142.104409
 21
347.94224
 31
0.0
  0
LINE
  8
LC-003-002-----0
  6
CONTINUOUS
  5
D5
 10
142.104409
 20
347.94224
 30
0.0
 11
142.136991
 21
348.011529
 31
0.0
  0
LINE
  8
LC-003-002-----0
  6
CONTINUOUS
  5
D6
 10
142.136991
 20
348.011529
 30
0.0
 11
142.151959
 21
348.035385
 31
0.0
  0
LINE
  8
LC-003-002-----0
  6
CONTINUOUS
  5
D7
 10
142.151959
 20
348.035385
 30
0.0
 11
142.170402
 21
348.057416
 31
0.0
  0
LINE
  8
LC-003-002-----0
  6
CONTINUOUS
  5
D8
 10
142.170402
 20
348.057416
 30
0.0
 11
142.219551
 21
348.102109
 31
0.0
  0
LINE
  8
LC-003-002-----0
  6
CONTINUOUS
  5
D9
 10
142.219551
 20
348.102109
 30
0.0
 11
142.277227
 21
348.143631
 31
0.0
  0
LINE
  8
LC-003-002-----0
  6
CONTINUOUS
  5
DA
 10
142.277227
 20
348.143631
 30
0.0
 11
142.329557
 21
348.167818
 31
0.0
  0
LINE
  8
LC-003-002-----0
  6
CONTINUOUS
  5
DB
 10
142.329557
 20
348.167818
 30
0.0
 11
142.402727
 21
348.17601
 31
0.0
  0
ENDBLK
  8
0
  5
DC
  0
BLOCK
  8
0
  5
DE
  2
BLK9
 70
    64
 10
136.753908
 20
347.67601
 30
0.0
  3
BLK9
  0
LINE
  8
LC-003-002-----0
  6
CONTINUOUS
  5
DF
 10
136.753908
 20
347.67601
 30
0.0
 11
136.755098
 21
347.725135
 31
0.0
  0
LINE
  8
LC-003-002-----0
  6
CONTINUOUS
  5
E0
 10
136.755098
 20
347.725135
 30
0.0
 11
136.758836
 21
347.766898
 31
0.0
  0
LINE
  8
LC-003-002-----0
  6
CONTINUOUS
  5
E1
 10
136.758836
 20
347.766898
 30
0.0
 11
136.762995
 21
347.792301
 31
0.0
  0
LINE
  8
LC-003-002-----0
  6
CONTINUOUS
  5
E2
 10
136.762995
 20
347.792301
 30
0.0
 11
136.768242
 21
347.818014
 31
0.0
  0
LINE
  8
LC-003-002-----0
  6
CONTINUOUS
  5
E3
 10
136.768242
 20
347.818014
 30
0.0
 11
136.776858
 21
347.857333
 31
0.0
  0
LINE
  8
LC-003-002-----0
  6
CONTINUOUS
  5
E4
 10
136.776858
 20
347.857333
 30
0.0
 11
136.78791
 21
347.898756
 31
0.0
  0
LINE
  8
LC-003-002-----0
  6
CONTINUOUS
  5
E5
 10
136.78791
 20
347.898756
 30
0.0
 11
136.801626
 21
347.936699
 31
0.0
  0
LINE
  8
LC-003-002-----0
  6
CONTINUOUS
  5
E6
 10
136.801626
 20
347.936699
 30
0.0
 11
136.818571
 21
347.97178
 31
0.0
  0
LINE
  8
LC-003-002-----0
  6
CONTINUOUS
  5
E7
 10
136.818571
 20
347.97178
 30
0.0
 11
136.836766
 21
348.001557
 31
0.0
  0
LINE
  8
LC-003-002-----0
  6
CONTINUOUS
  5
E8
 10
136.836766
 20
348.001557
 30
0.0
 11
136.85663
 21
348.030509
 31
0.0
  0
LINE
  8
LC-003-002-----0
  6
CONTINUOUS
  5
E9
 10
136.85663
 20
348.030509
 30
0.0
 11
136.877435
 21
348.059598
 31
0.0
  0
LINE
  8
LC-003-002-----0
  6
CONTINUOUS
  5
EA
 10
136.877435
 20
348.059598
 30
0.0
 11
136.900145
 21
348.087361
 31
0.0
  0
LINE
  8
LC-003-002-----0
  6
CONTINUOUS
  5
EB
 10
136.900145
 20
348.087361
 30
0.0
 11
136.924014
 21
348.110303
 31
0.0
  0
LINE
  8
LC-003-002-----0
  6
CONTINUOUS
  5
EC
 10
136.924014
 20
348.110303
 30
0.0
 11
136.951097
 21
348.129734
 31
0.0
  0
LINE
  8
LC-003-002-----0
  6
CONTINUOUS
  5
ED
 10
136.951097
 20
348.129734
 30
0.0
 11
136.978248
 21
348.144113
 31
0.0
  0
LINE
  8
LC-003-002-----0
  6
CONTINUOUS
  5
EE
 10
136.978248
 20
348.144113
 30
0.0
 11
137.004884
 21
348.155946
 31
0.0
  0
LINE
  8
LC-003-002-----0
  6
CONTINUOUS
  5
EF
 10
137.004884
 20
348.155946
 30
0.0
 11
137.022715
 21
348.16335
 31
0.0
  0
LINE
  8
LC-003-002-----0
  6
CONTINUOUS
  5
F0
 10
137.022715
 20
348.16335
 30
0.0
 11
137.040754
 21
348.169297
 31
0.0
  0
LINE
  8
LC-003-002-----0
  6
CONTINUOUS
  5
F1
 10
137.040754
 20
348.169297
 30
0.0
 11
137.069097
 21
348.174372
 31
0.0
  0
LINE
  8
LC-003-002-----0
  6
CONTINUOUS
  5
F2
 10
137.069097
 20
348.174372
 30
0.0
 11
137.102997
 21
348.17601
 31
0.0
  0
ENDBLK
  8
0
  5
F3
  0
BLOCK
  8
0
  5
F5
  2
BLK10
 70
    64
 10
173.71845
 20
348.17601
 30
0.0
  3
BLK10
  0
LINE
  8
LC-003-002-----0
  6
CONTINUOUS
  5
F6
 10
173.71845
 20
348.17601
 30
0.0
 11
173.753775
 21
348.17517
 31
0.0
  0
LINE
  8
LC-003-002-----0
  6
CONTINUOUS
  5
F7
 10
173.753775
 20
348.17517
 30
0.0
 11
173.781894
 21
348.172797
 31
0.0
  0
LINE
  8
LC-003-002-----0
  6
CONTINUOUS
  5
F8
 10
173.781894
 20
348.172797
 30
0.0
 11
173.797033
 21
348.170722
 31
0.0
  0
LINE
  8
LC-003-002-----0
  6
CONTINUOUS
  5
F9
 10
173.797033
 20
348.170722
 30
0.0
 11
173.812433
 21
348.16826
 31
0.0
  0
LINE
  8
LC-003-002-----0
  6
CONTINUOUS
  5
FA
 10
173.812433
 20
348.16826
 30
0.0
 11
173.829023
 21
348.165468
 31
0.0
  0
LINE
  8
LC-003-002-----0
  6
CONTINUOUS
  5
FB
 10
173.829023
 20
348.165468
 30
0.0
 11
173.846306
 21
348.162092
 31
0.0
  0
LINE
  8
LC-003-002-----0
  6
CONTINUOUS
  5
FC
 10
173.846306
 20
348.162092
 30
0.0
 11
173.861547
 21
348.158417
 31
0.0
  0
LINE
  8
LC-003-002-----0
  6
CONTINUOUS
  5
FD
 10
173.861547
 20
348.158417
 30
0.0
 11
173.875788
 21
348.154406
 31
0.0
  0
LINE
  8
LC-003-002-----0
  6
CONTINUOUS
  5
FE
 10
173.875788
 20
348.154406
 30
0.0
 11
173.886936
 21
348.150914
 31
0.0
  0
LINE
  8
LC-003-002-----0
  6
CONTINUOUS
  5
FF
 10
173.886936
 20
348.150914
 30
0.0
 11
173.897977
 21
348.147266
 31
0.0
  0
LINE
  8
LC-003-002-----0
  6
CONTINUOUS
  5
100
 10
173.897977
 20
348.147266
 30
0.0
 11
173.916083
 21
348.141165
 31
0.0
  0
LINE
  8
LC-003-002-----0
  6
CONTINUOUS
  5
101
 10
173.916083
 20
348.141165
 30
0.0
 11
173.935218
 21
348.13434
 31
0.0
  0
LINE
  8
LC-003-002-----0
  6
CONTINUOUS
  5
102
 10
173.935218
 20
348.13434
 30
0.0
 11
173.959734
 21
348.124428
 31
0.0
  0
LINE
  8
LC-003-002-----0
  6
CONTINUOUS
  5
103
 10
173.959734
 20
348.124428
 30
0.0
 11
173.984517
 21
348.112391
 31
0.0
  0
LINE
  8
LC-003-002-----0
  6
CONTINUOUS
  5
104
 10
173.984517
 20
348.112391
 30
0.0
 11
174.014023
 21
348.095195
 31
0.0
  0
LINE
  8
LC-003-002-----0
  6
CONTINUOUS
  5
105
 10
174.014023
 20
348.095195
 30
0.0
 11
174.041085
 21
348.077874
 31
0.0
  0
LINE
  8
LC-003-002-----0
  6
CONTINUOUS
  5
106
 10
174.041085
 20
348.077874
 30
0.0
 11
174.055304
 21
348.068545
 31
0.0
  0
LINE
  8
LC-003-002-----0
  6
CONTINUOUS
  5
107
 10
174.055304
 20
348.068545
 30
0.0
 11
174.068804
 21
348.05921
 31
0.0
  0
LINE
  8
LC-003-002-----0
  6
CONTINUOUS
  5
108
 10
174.068804
 20
348.05921
 30
0.0
 11
174.0835
 21
348.048139
 31
0.0
  0
LINE
  8
LC-003-002-----0
  6
CONTINUOUS
  5
109
 10
174.0835
 20
348.048139
 30
0.0
 11
174.098389
 21
348.035883
 31
0.0
  0
LINE
  8
LC-003-002-----0
  6
CONTINUOUS
  5
10A
 10
174.098389
 20
348.035883
 30
0.0
 11
174.113514
 21
348.022291
 31
0.0
  0
LINE
  8
LC-003-002-----0
  6
CONTINUOUS
  5
10B
 10
174.113514
 20
348.022291
 30
0.0
 11
174.128467
 21
348.008167
 31
0.0
  0
LINE
  8
LC-003-002-----0
  6
CONTINUOUS
  5
10C
 10
174.128467
 20
348.008167
 30
0.0
 11
174.144434
 21
347.992823
 31
0.0
  0
LINE
  8
LC-003-002-----0
  6
CONTINUOUS
  5
10D
 10
174.144434
 20
347.992823
 30
0.0
 11
174.160023
 21
347.977018
 31
0.0
  0
LINE
  8
LC-003-002-----0
  6
CONTINUOUS
  5
10E
 10
174.160023
 20
347.977018
 30
0.0
 11
174.173475
 21
347.962075
 31
0.0
  0
LINE
  8
LC-003-002-----0
  6
CONTINUOUS
  5
10F
 10
174.173475
 20
347.962075
 30
0.0
 11
174.185193
 21
347.947982
 31
0.0
  0
LINE
  8
LC-003-002-----0
  6
CONTINUOUS
  5
110
 10
174.185193
 20
347.947982
 30
0.0
 11
174.193973
 21
347.936711
 31
0.0
  0
LINE
  8
LC-003-002-----0
  6
CONTINUOUS
  5
111
 10
174.193973
 20
347.936711
 30
0.0
 11
174.202443
 21
347.925393
 31
0.0
  0
LINE
  8
LC-003-002-----0
  6
CONTINUOUS
  5
112
 10
174.202443
 20
347.925393
 30
0.0
 11
174.224045
 21
347.896032
 31
0.0
  0
LINE
  8
LC-003-002-----0
  6
CONTINUOUS
  5
113
 10
174.224045
 20
347.896032
 30
0.0
 11
174.247317
 21
347.862645
 31
0.0
  0
LINE
  8
LC-003-002-----0
  6
CONTINUOUS
  5
114
 10
174.247317
 20
347.862645
 30
0.0
 11
174.273351
 21
347.819945
 31
0.0
  0
LINE
  8
LC-003-002-----0
  6
CONTINUOUS
  5
115
 10
174.273351
 20
347.819945
 30
0.0
 11
174.296341
 21
347.773051
 31
0.0
  0
LINE
  8
LC-003-002-----0
  6
CONTINUOUS
  5
116
 10
174.296341
 20
347.773051
 30
0.0
 11
174.322354
 21
347.705796
 31
0.0
  0
LINE
  8
LC-003-002-----0
  6
CONTINUOUS
  5
117
 10
174.322354
 20
347.705796
 30
0.0
 11
174.342524
 21
347.645937
 31
0.0
  0
LINE
  8
LC-003-002-----0
  6
CONTINUOUS
  5
118
 10
174.342524
 20
347.645937
 30
0.0
 11
174.348576
 21
347.627314
 31
0.0
  0
LINE
  8
LC-003-002-----0
  6
CONTINUOUS
  5
119
 10
174.348576
 20
347.627314
 30
0.0
 11
174.354161
 21
347.609276
 31
0.0
  0
LINE
  8
LC-003-002-----0
  6
CONTINUOUS
  5
11A
 10
174.354161
 20
347.609276
 30
0.0
 11
174.362469
 21
347.579773
 31
0.0
  0
LINE
  8
LC-003-002-----0
  6
CONTINUOUS
  5
11B
 10
174.362469
 20
347.579773
 30
0.0
 11
174.370971
 21
347.544733
 31
0.0
  0
LINE
  8
LC-003-002-----0
  6
CONTINUOUS
  5
11C
 10
174.370971
 20
347.544733
 30
0.0
 11
174.380367
 21
347.496993
 31
0.0
  0
LINE
  8
LC-003-002-----0
  6
CONTINUOUS
  5
11D
 10
174.380367
 20
347.496993
 30
0.0
 11
174.387924
 21
347.452735
 31
0.0
  0
LINE
  8
LC-003-002-----0
  6
CONTINUOUS
  5
11E
 10
174.387924
 20
347.452735
 30
0.0
 11
174.391741
 21
347.429535
 31
0.0
  0
LINE
  8
LC-003-002-----0
  6
CONTINUOUS
  5
11F
 10
174.391741
 20
347.429535
 30
0.0
 11
174.395197
 21
347.4073
 31
0.0
  0
LINE
  8
LC-003-002-----0
  6
CONTINUOUS
  5
120
 10
174.395197
 20
347.4073
 30
0.0
 11
174.400339
 21
347.368747
 31
0.0
  0
LINE
  8
LC-003-002-----0
  6
CONTINUOUS
  5
121
 10
174.400339
 20
347.368747
 30
0.0
 11
174.404756
 21
347.321823
 31
0.0
  0
LINE
  8
LC-003-002-----0
  6
CONTINUOUS
  5
122
 10
174.404756
 20
347.321823
 30
0.0
 11
174.408115
 21
347.256597
 31
0.0
  0
LINE
  8
LC-003-002-----0
  6
CONTINUOUS
  5
123
 10
174.408115
 20
347.256597
 30
0.0
 11
174.409456
 21
347.21169
 31
0.0
  0
LINE
  8
LC-003-002-----0
  6
CONTINUOUS
  5
124
 10
174.409456
 20
347.21169
 30
0.0
 11
174.409526
 21
347.20871
 31
0.0
  0
LINE
  8
LC-003-002-----0
  6
CONTINUOUS
  5
125
 10
174.409526
 20
347.20871
 30
0.0
 11
174.409588
 21
347.205444
 31
0.0
  0
LINE
  8
LC-003-002-----0
  6
CONTINUOUS
  5
126
 10
174.409588
 20
347.205444
 30
0.0
 11
174.409722
 21
347.194244
 31
0.0
  0
LINE
  8
LC-003-002-----0
  6
CONTINUOUS
  5
127
 10
174.409722
 20
347.194244
 30
0.0
 11
174.409791
 21
347.17601
 31
0.0
  0
ENDBLK
  8
0
  5
128
  0
BLOCK
  8
0
  5
12A
  2
BLK11
 70
    64
 10
174.101133
 20
347.17601
 30
0.0
  3
BLK11
  0
LINE
  8
LC-003-002-----0
  6
CONTINUOUS
  5
12B
 10
174.101133
 20
347.17601
 30
0.0
 11
174.093964
 21
347.389345
 31
0.0
  0
LINE
  8
LC-003-002-----0
  6
CONTINUOUS
  5
12C
 10
174.093964
 20
347.389345
 30
0.0
 11
174.071814
 21
347.556107
 31
0.0
  0
LINE
  8
LC-003-002-----0
  6
CONTINUOUS
  5
12D
 10
174.071814
 20
347.556107
 30
0.0
 11
174.040077
 21
347.713917
 31
0.0
  0
LINE
  8
LC-003-002-----0
  6
CONTINUOUS
  5
12E
 10
174.040077
 20
347.713917
 30
0.0
 11
174.00377
 21
347.854099
 31
0.0
  0
LINE
  8
LC-003-002-----0
  6
CONTINUOUS
  5
12F
 10
174.00377
 20
347.854099
 30
0.0
 11
173.987401
 21
347.900936
 31
0.0
  0
LINE
  8
LC-003-002-----0
  6
CONTINUOUS
  5
130
 10
173.987401
 20
347.900936
 30
0.0
 11
173.964938
 21
347.948422
 31
0.0
  0
LINE
  8
LC-003-002-----0
  6
CONTINUOUS
  5
131
 10
173.964938
 20
347.948422
 30
0.0
 11
173.90947
 21
348.038915
 31
0.0
  0
LINE
  8
LC-003-002-----0
  6
CONTINUOUS
  5
132
 10
173.90947
 20
348.038915
 30
0.0
 11
173.843183
 21
348.124098
 31
0.0
  0
LINE
  8
LC-003-002-----0
  6
CONTINUOUS
  5
133
 10
173.843183
 20
348.124098
 30
0.0
 11
173.794625
 21
348.162377
 31
0.0
  0
LINE
  8
LC-003-002-----0
  6
CONTINUOUS
  5
134
 10
173.794625
 20
348.162377
 30
0.0
 11
173.71845
 21
348.17601
 31
0.0
  0
ENDBLK
  8
0
  5
135
  0
BLOCK
  8
0
  5
137
  2
BLK12
 70
    64
 10
172.253374
 20
347.17601
 30
0.0
  3
BLK12
  0
LINE
  8
LC-003-002-----0
  6
CONTINUOUS
  5
138
 10
172.253374
 20
347.17601
 30
0.0
 11
172.246205
 21
347.389345
 31
0.0
  0
LINE
  8
LC-003-002-----0
  6
CONTINUOUS
  5
139
 10
172.246205
 20
347.389345
 30
0.0
 11
172.224055
 21
347.556107
 31
0.0
  0
LINE
  8
LC-003-002-----0
  6
CONTINUOUS
  5
13A
 10
172.224055
 20
347.556107
 30
0.0
 11
172.192318
 21
347.713917
 31
0.0
  0
LINE
  8
LC-003-002-----0
  6
CONTINUOUS
  5
13B
 10
172.192318
 20
347.713917
 30
0.0
 11
172.156011
 21
347.854099
 31
0.0
  0
LINE
  8
LC-003-002-----0
  6
CONTINUOUS
  5
13C
 10
172.156011
 20
347.854099
 30
0.0
 11
172.139642
 21
347.900936
 31
0.0
  0
LINE
  8
LC-003-002-----0
  6
CONTINUOUS
  5
13D
 10
172.139642
 20
347.900936
 30
0.0
 11
172.117179
 21
347.948422
 31
0.0
  0
LINE
  8
LC-003-002-----0
  6
CONTINUOUS
  5
13E
 10
172.117179
 20
347.948422
 30
0.0
 11
172.061711
 21
348.038915
 31
0.0
  0
LINE
  8
LC-003-002-----0
  6
CONTINUOUS
  5
13F
 10
172.061711
 20
348.038915
 30
0.0
 11
171.995424
 21
348.124098
 31
0.0
  0
LINE
  8
LC-003-002-----0
  6
CONTINUOUS
  5
140
 10
171.995424
 20
348.124098
 30
0.0
 11
171.946866
 21
348.162377
 31
0.0
  0
LINE
  8
LC-003-002-----0
  6
CONTINUOUS
  5
141
 10
171.946866
 20
348.162377
 30
0.0
 11
171.87069
 21
348.17601
 31
0.0
  0
ENDBLK
  8
0
  5
142
  0
BLOCK
  8
0
  5
144
  2
BLK13
 70
    64
 10
171.600092
 20
347.17601
 30
0.0
  3
BLK13
  0
LINE
  8
LC-003-002-----0
  6
CONTINUOUS
  5
145
 10
171.600092
 20
347.17601
 30
0.0
 11
171.596508
 21
347.282678
 31
0.0
  0
LINE
  8
LC-003-002-----0
  6
CONTINUOUS
  5
146
 10
171.596508
 20
347.282678
 30
0.0
 11
171.585433
 21
347.366059
 31
0.0
  0
LINE
  8
LC-003-002-----0
  6
CONTINUOUS
  5
147
 10
171.585433
 20
347.366059
 30
0.0
 11
171.569564
 21
347.444964
 31
0.0
  0
LINE
  8
LC-003-002-----0
  6
CONTINUOUS
  5
148
 10
171.569564
 20
347.444964
 30
0.0
 11
171.551411
 21
347.515054
 31
0.0
  0
LINE
  8
LC-003-002-----0
  6
CONTINUOUS
  5
149
 10
171.551411
 20
347.515054
 30
0.0
 11
171.543226
 21
347.538473
 31
0.0
  0
LINE
  8
LC-003-002-----0
  6
CONTINUOUS
  5
14A
 10
171.543226
 20
347.538473
 30
0.0
 11
171.531995
 21
347.562216
 31
0.0
  0
LINE
  8
LC-003-002-----0
  6
CONTINUOUS
  5
14B
 10
171.531995
 20
347.562216
 30
0.0
 11
171.504261
 21
347.607463
 31
0.0
  0
LINE
  8
LC-003-002-----0
  6
CONTINUOUS
  5
14C
 10
171.504261
 20
347.607463
 30
0.0
 11
171.471117
 21
347.650054
 31
0.0
  0
LINE
  8
LC-003-002-----0
  6
CONTINUOUS
  5
14D
 10
171.471117
 20
347.650054
 30
0.0
 11
171.446838
 21
347.669194
 31
0.0
  0
LINE
  8
LC-003-002-----0
  6
CONTINUOUS
  5
14E
 10
171.446838
 20
347.669194
 30
0.0
 11
171.408751
 21
347.67601
 31
0.0
  0
ENDBLK
  8
0
  5
14F
  0
BLOCK
  8
0
  5
151
  2
BLK14
 70
    64
 10
171.408751
 20
347.67601
 30
0.0
  3
BLK14
  0
LINE
  8
LC-003-002-----0
  6
CONTINUOUS
  5
152
 10
171.408751
 20
347.67601
 30
0.0
 11
171.416903
 21
347.781229
 31
0.0
  0
LINE
  8
LC-003-002-----0
  6
CONTINUOUS
  5
153
 10
171.416903
 20
347.781229
 30
0.0
 11
171.441559
 21
347.860224
 31
0.0
  0
LINE
  8
LC-003-002-----0
  6
CONTINUOUS
  5
154
 10
171.441559
 20
347.860224
 30
0.0
 11
171.479722
 21
347.940064
 31
0.0
  0
LINE
  8
LC-003-002-----0
  6
CONTINUOUS
  5
155
 10
171.479722
 20
347.940064
 30
0.0
 11
171.521666
 21
348.009141
 31
0.0
  0
LINE
  8
LC-003-002-----0
  6
CONTINUOUS
  5
156
 10
171.521666
 20
348.009141
 30
0.0
 11
171.54136
 21
348.033587
 31
0.0
  0
LINE
  8
LC-003-002-----0
  6
CONTINUOUS
  5
157
 10
171.54136
 20
348.033587
 30
0.0
 11
171.564417
 21
348.055101
 31
0.0
  0
LINE
  8
LC-003-002-----0
  6
CONTINUOUS
  5
158
 10
171.564417
 20
348.055101
 30
0.0
 11
171.628254
 21
348.100157
 31
0.0
  0
LINE
  8
LC-003-002-----0
  6
CONTINUOUS
  5
159
 10
171.628254
 20
348.100157
 30
0.0
 11
171.702467
 21
348.141501
 31
0.0
  0
LINE
  8
LC-003-002-----0
  6
CONTINUOUS
  5
15A
 10
171.702467
 20
348.141501
 30
0.0
 11
171.773983
 21
348.167385
 31
0.0
  0
LINE
  8
LC-003-002-----0
  6
CONTINUOUS
  5
15B
 10
171.773983
 20
348.167385
 30
0.0
 11
171.87069
 21
348.17601
 31
0.0
  0
ENDBLK
  8
0
  5
15C
  0
BLOCK
  8
0
  5
15E
  2
BLK15
 70
    64
 10
291.038518
 20
347.17601
 30
0.0
  3
BLK15
  0
LINE
  8
LC-003-002-----0
  6
CONTINUOUS
  5
15F
 10
291.038518
 20
347.17601
 30
0.0
 11
291.054823
 21
347.386447
 31
0.0
  0
LINE
  8
LC-003-002-----0
  6
CONTINUOUS
  5
160
 10
291.054823
 20
347.386447
 30
0.0
 11
291.104135
 21
347.544437
 31
0.0
  0
LINE
  8
LC-003-002-----0
  6
CONTINUOUS
  5
161
 10
291.104135
 20
347.544437
 30
0.0
 11
291.180461
 21
347.704118
 31
0.0
  0
LINE
  8
LC-003-002-----0
  6
CONTINUOUS
  5
162
 10
291.180461
 20
347.704118
 30
0.0
 11
291.264348
 21
347.842271
 31
0.0
  0
LINE
  8
LC-003-002-----0
  6
CONTINUOUS
  5
163
 10
291.264348
 20
347.842271
 30
0.0
 11
291.303736
 21
347.891165
 31
0.0
  0
LINE
  8
LC-003-002-----0
  6
CONTINUOUS
  5
164
 10
291.303736
 20
347.891165
 30
0.0
 11
291.34985
 21
347.934192
 31
0.0
  0
LINE
  8
LC-003-002-----0
  6
CONTINUOUS
  5
165
 10
291.34985
 20
347.934192
 30
0.0
 11
291.477524
 21
348.024305
 31
0.0
  0
LINE
  8
LC-003-002-----0
  6
CONTINUOUS
  5
166
 10
291.477524
 20
348.024305
 30
0.0
 11
291.625951
 21
348.106991
 31
0.0
  0
LINE
  8
LC-003-002-----0
  6
CONTINUOUS
  5
167
 10
291.625951
 20
348.106991
 30
0.0
 11
291.768983
 21
348.158761
 31
0.0
  0
LINE
  8
LC-003-002-----0
  6
CONTINUOUS
  5
168
 10
291.768983
 20
348.158761
 30
0.0
 11
291.962398
 21
348.17601
 31
0.0
  0
ENDBLK
  8
0
  5
169
  0
BLOCK
  8
0
  5
16B
  2
BLK16
 70
    64
 10
291.000458
 20
347.17601
 30
0.0
  3
BLK16
  0
LINE
  8
LC-003-002-----0
  6
CONTINUOUS
  5
16C
 10
291.000458
 20
347.17601
 30
0.0
 11
291.005687
 21
347.291101
 31
0.0
  0
LINE
  8
LC-003-002-----0
  6
CONTINUOUS
  5
16D
 10
291.005687
 20
347.291101
 30
0.0
 11
291.018828
 21
347.375926
 31
0.0
  0
LINE
  8
LC-003-002-----0
  6
CONTINUOUS
  5
16E
 10
291.018828
 20
347.375926
 30
0.0
 11
291.027226
 21
347.411917
 31
0.0
  0
LINE
  8
LC-003-002-----0
  6
CONTINUOUS
  5
16F
 10
291.027226
 20
347.411917
 30
0.0
 11
291.036715
 21
347.448226
 31
0.0
  0
LINE
  8
LC-003-002-----0
  6
CONTINUOUS
  5
170
 10
291.036715
 20
347.448226
 30
0.0
 11
291.04627
 21
347.483392
 31
0.0
  0
LINE
  8
LC-003-002-----0
  6
CONTINUOUS
  5
171
 10
291.04627
 20
347.483392
 30
0.0
 11
291.057509
 21
347.520344
 31
0.0
  0
LINE
  8
LC-003-002-----0
  6
CONTINUOUS
  5
172
 10
291.057509
 20
347.520344
 30
0.0
 11
291.07111
 21
347.557719
 31
0.0
  0
LINE
  8
LC-003-002-----0
  6
CONTINUOUS
  5
173
 10
291.07111
 20
347.557719
 30
0.0
 11
291.087357
 21
347.595281
 31
0.0
  0
LINE
  8
LC-003-002-----0
  6
CONTINUOUS
  5
174
 10
291.087357
 20
347.595281
 30
0.0
 11
291.105824
 21
347.632429
 31
0.0
  0
LINE
  8
LC-003-002-----0
  6
CONTINUOUS
  5
175
 10
291.105824
 20
347.632429
 30
0.0
 11
291.124405
 21
347.667329
 31
0.0
  0
LINE
  8
LC-003-002-----0
  6
CONTINUOUS
  5
176
 10
291.124405
 20
347.667329
 30
0.0
 11
291.137795
 21
347.692013
 31
0.0
  0
LINE
  8
LC-003-002-----0
  6
CONTINUOUS
  5
177
 10
291.137795
 20
347.692013
 30
0.0
 11
291.151432
 21
347.716147
 31
0.0
  0
LINE
  8
LC-003-002-----0
  6
CONTINUOUS
  5
178
 10
291.151432
 20
347.716147
 30
0.0
 11
291.172149
 21
347.749909
 31
0.0
  0
LINE
  8
LC-003-002-----0
  6
CONTINUOUS
  5
179
 10
291.172149
 20
347.749909
 30
0.0
 11
291.195621
 21
347.783819
 31
0.0
  0
LINE
  8
LC-003-002-----0
  6
CONTINUOUS
  5
17A
 10
291.195621
 20
347.783819
 30
0.0
 11
291.225373
 21
347.820671
 31
0.0
  0
LINE
  8
LC-003-002-----0
  6
CONTINUOUS
  5
17B
 10
291.225373
 20
347.820671
 30
0.0
 11
291.257143
 21
347.856383
 31
0.0
  0
LINE
  8
LC-003-002-----0
  6
CONTINUOUS
  5
17C
 10
291.257143
 20
347.856383
 30
0.0
 11
291.29897
 21
347.901976
 31
0.0
  0
LINE
  8
LC-003-002-----0
  6
CONTINUOUS
  5
17D
 10
291.29897
 20
347.901976
 30
0.0
 11
291.343173
 21
347.946108
 31
0.0
  0
LINE
  8
LC-003-002-----0
  6
CONTINUOUS
  5
17E
 10
291.343173
 20
347.946108
 30
0.0
 11
291.390103
 21
347.98562
 31
0.0
  0
LINE
  8
LC-003-002-----0
  6
CONTINUOUS
  5
17F
 10
291.390103
 20
347.98562
 30
0.0
 11
291.441025
 21
348.020641
 31
0.0
  0
LINE
  8
LC-003-002-----0
  6
CONTINUOUS
  5
180
 10
291.441025
 20
348.020641
 30
0.0
 11
291.495473
 21
348.051635
 31
0.0
  0
LINE
  8
LC-003-002-----0
  6
CONTINUOUS
  5
181
 10
291.495473
 20
348.051635
 30
0.0
 11
291.54982
 21
348.079532
 31
0.0
  0
LINE
  8
LC-003-002-----0
  6
CONTINUOUS
  5
182
 10
291.54982
 20
348.079532
 30
0.0
 11
291.586259
 21
348.097563
 31
0.0
  0
LINE
  8
LC-003-002-----0
  6
CONTINUOUS
  5
183
 10
291.586259
 20
348.097563
 30
0.0
 11
291.622982
 21
348.113735
 31
0.0
  0
LINE
  8
LC-003-002-----0
  6
CONTINUOUS
  5
184
 10
291.622982
 20
348.113735
 30
0.0
 11
291.656336
 21
348.125819
 31
0.0
  0
LINE
  8
LC-003-002-----0
  6
CONTINUOUS
  5
185
 10
291.656336
 20
348.125819
 30
0.0
 11
291.689273
 21
348.135895
 31
0.0
  0
LINE
  8
LC-003-002-----0
  6
CONTINUOUS
  5
186
 10
291.689273
 20
348.135895
 30
0.0
 11
291.713104
 21
348.142278
 31
0.0
  0
LINE
  8
LC-003-002-----0
  6
CONTINUOUS
  5
187
 10
291.713104
 20
348.142278
 30
0.0
 11
291.735742
 21
348.147912
 31
0.0
  0
LINE
  8
LC-003-002-----0
  6
CONTINUOUS
  5
188
 10
291.735742
 20
348.147912
 30
0.0
 11
291.765349
 21
348.155055
 31
0.0
  0
LINE
  8
LC-003-002-----0
  6
CONTINUOUS
  5
189
 10
291.765349
 20
348.155055
 30
0.0
 11
291.795998
 21
348.161681
 31
0.0
  0
LINE
  8
LC-003-002-----0
  6
CONTINUOUS
  5
18A
 10
291.795998
 20
348.161681
 30
0.0
 11
291.867098
 21
348.17197
 31
0.0
  0
LINE
  8
LC-003-002-----0
  6
CONTINUOUS
  5
18B
 10
291.867098
 20
348.17197
 30
0.0
 11
291.962398
 21
348.17601
 31
0.0
  0
ENDBLK
  8
0
  5
18C
  0
BLOCK
  8
0
  5
18E
  2
BLK17
 70
    64
 10
271.096161
 20
347.17601
 30
0.0
  3
BLK17
  0
LINE
  8
LC-003-002-----0
  6
CONTINUOUS
  5
18F
 10
271.096161
 20
347.17601
 30
0.0
 11
271.108996
 21
347.3878
 31
0.0
  0
LINE
  8
LC-003-002-----0
  6
CONTINUOUS
  5
190
 10
271.108996
 20
347.3878
 30
0.0
 11
271.148194
 21
347.549824
 31
0.0
  0
LINE
  8
LC-003-002-----0
  6
CONTINUOUS
  5
191
 10
271.148194
 20
347.549824
 30
0.0
 11
271.206633
 21
347.708469
 31
0.0
  0
LINE
  8
LC-003-002-----0
  6
CONTINUOUS
  5
192
 10
271.206633
 20
347.708469
 30
0.0
 11
271.271797
 21
347.847048
 31
0.0
  0
LINE
  8
LC-003-002-----0
  6
CONTINUOUS
  5
193
 10
271.271797
 20
347.847048
 30
0.0
 11
271.301732
 21
347.89476
 31
0.0
  0
LINE
  8
LC-003-002-----0
  6
CONTINUOUS
  5
194
 10
271.301732
 20
347.89476
 30
0.0
 11
271.338619
 21
347.938822
 31
0.0
  0
LINE
  8
LC-003-002-----0
  6
CONTINUOUS
  5
195
 10
271.338619
 20
347.938822
 30
0.0
 11
271.436917
 21
348.028208
 31
0.0
  0
LINE
  8
LC-003-002-----0
  6
CONTINUOUS
  5
196
 10
271.436917
 20
348.028208
 30
0.0
 11
271.552269
 21
348.111252
 31
0.0
  0
LINE
  8
LC-003-002-----0
  6
CONTINUOUS
  5
197
 10
271.552269
 20
348.111252
 30
0.0
 11
271.656927
 21
348.159627
 31
0.0
  0
LINE
  8
LC-003-002-----0
  6
CONTINUOUS
  5
198
 10
271.656927
 20
348.159627
 30
0.0
 11
271.803268
 21
348.17601
 31
0.0
  0
ENDBLK
  8
0
  5
199
  0
BLOCK
  8
0
  5
19B
  2
BLK18
 70
    64
 10
124.61975
 20
343.549177
 30
0.0
  3
BLK18
  0
LINE
  8
LC-003-002-----0
  6
CONTINUOUS
  5
19C
 10
124.61975
 20
343.549177
 30
0.0
 11
124.619401
 21
343.540941
 31
0.0
  0
LINE
  8
LC-003-002-----0
  6
CONTINUOUS
  5
19D
 10
124.619401
 20
343.540941
 30
0.0
 11
124.618501
 21
343.535163
 31
0.0
  0
LINE
  8
LC-003-002-----0
  6
CONTINUOUS
  5
19E
 10
124.618501
 20
343.535163
 30
0.0
 11
124.617985
 21
343.533085
 31
0.0
  0
LINE
  8
LC-003-002-----0
  6
CONTINUOUS
  5
19F
 10
124.617985
 20
343.533085
 30
0.0
 11
124.617394
 21
343.530983
 31
0.0
  0
LINE
  8
LC-003-002-----0
  6
CONTINUOUS
  5
1A0
 10
124.617394
 20
343.530983
 30
0.0
 11
124.616788
 21
343.528918
 31
0.0
  0
LINE
  8
LC-003-002-----0
  6
CONTINUOUS
  5
1A1
 10
124.616788
 20
343.528918
 30
0.0
 11
124.616056
 21
343.526715
 31
0.0
  0
LINE
  8
LC-003-002-----0
  6
CONTINUOUS
  5
1A2
 10
124.616056
 20
343.526715
 30
0.0
 11
124.615079
 21
343.524311
 31
0.0
  0
LINE
  8
LC-003-002-----0
  6
CONTINUOUS
  5
1A3
 10
124.615079
 20
343.524311
 30
0.0
 11
124.613968
 21
343.522135
 31
0.0
  0
LINE
  8
LC-003-002-----0
  6
CONTINUOUS
  5
1A4
 10
124.613968
 20
343.522135
 30
0.0
 11
124.612749
 21
343.520308
 31
0.0
  0
LINE
  8
LC-003-002-----0
  6
CONTINUOUS
  5
1A5
 10
124.612749
 20
343.520308
 30
0.0
 11
124.611438
 21
343.518666
 31
0.0
  0
LINE
  8
LC-003-002-----0
  6
CONTINUOUS
  5
1A6
 10
124.611438
 20
343.518666
 30
0.0
 11
124.608001
 21
343.514683
 31
0.0
  0
LINE
  8
LC-003-002-----0
  6
CONTINUOUS
  5
1A7
 10
124.608001
 20
343.514683
 30
0.0
 11
124.603763
 21
343.510884
 31
0.0
  0
LINE
  8
LC-003-002-----0
  6
CONTINUOUS
  5
1A8
 10
124.603763
 20
343.510884
 30
0.0
 11
124.594291
 21
343.506672
 31
0.0
  0
LINE
  8
LC-003-002-----0
  6
CONTINUOUS
  5
1A9
 10
124.594291
 20
343.506672
 30
0.0
 11
124.58169
 21
343.505124
 31
0.0
  0
ENDBLK
  8
0
  5
1AA
  0
BLOCK
  8
0
  5
1AC
  2
BLK19
 70
    64
 10
124.58169
 20
343.505124
 30
0.0
  3
BLK19
  0
LINE
  8
LC-003-002-----0
  6
CONTINUOUS
  5
1AD
 10
124.58169
 20
343.505124
 30
0.0
 11
124.418623
 21
343.50074
 31
0.0
  0
LINE
  8
LC-003-002-----0
  6
CONTINUOUS
  5
1AE
 10
124.418623
 20
343.50074
 30
0.0
 11
124.298263
 21
343.499118
 31
0.0
  0
LINE
  8
LC-003-002-----0
  6
CONTINUOUS
  5
1AF
 10
124.298263
 20
343.499118
 30
0.0
 11
124.247318
 21
343.498915
 31
0.0
  0
LINE
  8
LC-003-002-----0
  6
CONTINUOUS
  5
1B0
 10
124.247318
 20
343.498915
 30
0.0
 11
124.199006
 21
343.498886
 31
0.0
  0
LINE
  8
LC-003-002-----0
  6
CONTINUOUS
  5
1B1
 10
124.199006
 20
343.498886
 30
0.0
 11
124.150695
 21
343.498915
 31
0.0
  0
LINE
  8
LC-003-002-----0
  6
CONTINUOUS
  5
1B2
 10
124.150695
 20
343.498915
 30
0.0
 11
124.09975
 21
343.499118
 31
0.0
  0
LINE
  8
LC-003-002-----0
  6
CONTINUOUS
  5
1B3
 10
124.09975
 20
343.499118
 30
0.0
 11
123.97939
 21
343.50074
 31
0.0
  0
LINE
  8
LC-003-002-----0
  6
CONTINUOUS
  5
1B4
 10
123.97939
 20
343.50074
 30
0.0
 11
123.816323
 21
343.505124
 31
0.0
  0
ENDBLK
  8
0
  5
1B5
  0
BLOCK
  8
0
  5
1B7
  2
BLK20
 70
    64
 10
123.816323
 20
343.505124
 30
0.0
  3
BLK20
  0
LINE
  8
LC-003-002-----0
  6
CONTINUOUS
  5
1B8
 10
123.816323
 20
343.505124
 30
0.0
 11
123.814642
 21
343.505194
 31
0.0
  0
LINE
  8
LC-003-002-----0
  6
CONTINUOUS
  5
1B9
 10
123.814642
 20
343.505194
 30
0.0
 11
123.813672
 21
343.505251
 31
0.0
  0
LINE
  8
LC-003-002-----0
  6
CONTINUOUS
  5
1BA
 10
123.813672
 20
343.505251
 30
0.0
 11
123.813444
 21
343.505268
 31
0.0
  0
LINE
  8
LC-003-002-----0
  6
CONTINUOUS
  5
1BB
 10
123.813444
 20
343.505268
 30
0.0
 11
123.813299
 21
343.50528
 31
0.0
  0
LINE
  8
LC-003-002-----0
  6
CONTINUOUS
  5
1BC
 10
123.813299
 20
343.50528
 30
0.0
 11
123.810643
 21
343.505538
 31
0.0
  0
LINE
  8
LC-003-002-----0
  6
CONTINUOUS
  5
1BD
 10
123.810643
 20
343.505538
 30
0.0
 11
123.805755
 21
343.506108
 31
0.0
  0
LINE
  8
LC-003-002-----0
  6
CONTINUOUS
  5
1BE
 10
123.805755
 20
343.506108
 30
0.0
 11
123.799473
 21
343.507025
 31
0.0
  0
LINE
  8
LC-003-002-----0
  6
CONTINUOUS
  5
1BF
 10
123.799473
 20
343.507025
 30
0.0
 11
123.792638
 21
343.508324
 31
0.0
  0
LINE
  8
LC-003-002-----0
  6
CONTINUOUS
  5
1C0
 10
123.792638
 20
343.508324
 30
0.0
 11
123.773772
 21
343.514254
 31
0.0
  0
LINE
  8
LC-003-002-----0
  6
CONTINUOUS
  5
1C1
 10
123.773772
 20
343.514254
 30
0.0
 11
123.755745
 21
343.522628
 31
0.0
  0
LINE
  8
LC-003-002-----0
  6
CONTINUOUS
  5
1C2
 10
123.755745
 20
343.522628
 30
0.0
 11
123.73508
 21
343.533682
 31
0.0
  0
LINE
  8
LC-003-002-----0
  6
CONTINUOUS
  5
1C3
 10
123.73508
 20
343.533682
 30
0.0
 11
123.716292
 21
343.544293
 31
0.0
  0
LINE
  8
LC-003-002-----0
  6
CONTINUOUS
  5
1C4
 10
123.716292
 20
343.544293
 30
0.0
 11
123.7068
 21
343.549732
 31
0.0
  0
LINE
  8
LC-003-002-----0
  6
CONTINUOUS
  5
1C5
 10
123.7068
 20
343.549732
 30
0.0
 11
123.697675
 21
343.555108
 31
0.0
  0
LINE
  8
LC-003-002-----0
  6
CONTINUOUS
  5
1C6
 10
123.697675
 20
343.555108
 30
0.0
 11
123.686702
 21
343.561862
 31
0.0
  0
LINE
  8
LC-003-002-----0
  6
CONTINUOUS
  5
1C7
 10
123.686702
 20
343.561862
 30
0.0
 11
123.675469
 21
343.56901
 31
0.0
  0
LINE
  8
LC-003-002-----0
  6
CONTINUOUS
  5
1C8
 10
123.675469
 20
343.56901
 30
0.0
 11
123.66364
 21
343.576724
 31
0.0
  0
LINE
  8
LC-003-002-----0
  6
CONTINUOUS
  5
1C9
 10
123.66364
 20
343.576724
 30
0.0
 11
123.651793
 21
343.584559
 31
0.0
  0
LINE
  8
LC-003-002-----0
  6
CONTINUOUS
  5
1CA
 10
123.651793
 20
343.584559
 30
0.0
 11
123.633813
 21
343.596504
 31
0.0
  0
LINE
  8
LC-003-002-----0
  6
CONTINUOUS
  5
1CB
 10
123.633813
 20
343.596504
 30
0.0
 11
123.615284
 21
343.608976
 31
0.0
  0
LINE
  8
LC-003-002-----0
  6
CONTINUOUS
  5
1CC
 10
123.615284
 20
343.608976
 30
0.0
 11
123.594951
 21
343.62299
 31
0.0
  0
LINE
  8
LC-003-002-----0
  6
CONTINUOUS
  5
1CD
 10
123.594951
 20
343.62299
 30
0.0
 11
123.575985
 21
343.636281
 31
0.0
  0
LINE
  8
LC-003-002-----0
  6
CONTINUOUS
  5
1CE
 10
123.575985
 20
343.636281
 30
0.0
 11
123.556866
 21
343.649746
 31
0.0
  0
LINE
  8
LC-003-002-----0
  6
CONTINUOUS
  5
1CF
 10
123.556866
 20
343.649746
 30
0.0
 11
123.537732
 21
343.663244
 31
0.0
  0
LINE
  8
LC-003-002-----0
  6
CONTINUOUS
  5
1D0
 10
123.537732
 20
343.663244
 30
0.0
 11
123.511765
 21
343.681569
 31
0.0
  0
LINE
  8
LC-003-002-----0
  6
CONTINUOUS
  5
1D1
 10
123.511765
 20
343.681569
 30
0.0
 11
123.48371
 21
343.701381
 31
0.0
  0
LINE
  8
LC-003-002-----0
  6
CONTINUOUS
  5
1D2
 10
123.48371
 20
343.701381
 30
0.0
 11
123.455072
 21
343.721634
 31
0.0
  0
LINE
  8
LC-003-002-----0
  6
CONTINUOUS
  5
1D3
 10
123.455072
 20
343.721634
 30
0.0
 11
123.42252
 21
343.744656
 31
0.0
  0
LINE
  8
LC-003-002-----0
  6
CONTINUOUS
  5
1D4
 10
123.42252
 20
343.744656
 30
0.0
 11
123.389385
 21
343.76783
 31
0.0
  0
LINE
  8
LC-003-002-----0
  6
CONTINUOUS
  5
1D5
 10
123.389385
 20
343.76783
 30
0.0
 11
123.353851
 21
343.79212
 31
0.0
  0
LINE
  8
LC-003-002-----0
  6
CONTINUOUS
  5
1D6
 10
123.353851
 20
343.79212
 30
0.0
 11
123.33228
 21
343.806549
 31
0.0
  0
LINE
  8
LC-003-002-----0
  6
CONTINUOUS
  5
1D7
 10
123.33228
 20
343.806549
 30
0.0
 11
123.310339
 21
343.821048
 31
0.0
  0
LINE
  8
LC-003-002-----0
  6
CONTINUOUS
  5
1D8
 10
123.310339
 20
343.821048
 30
0.0
 11
123.288998
 21
343.835024
 31
0.0
  0
LINE
  8
LC-003-002-----0
  6
CONTINUOUS
  5
1D9
 10
123.288998
 20
343.835024
 30
0.0
 11
123.26923
 21
343.847884
 31
0.0
  0
LINE
  8
LC-003-002-----0
  6
CONTINUOUS
  5
1DA
 10
123.26923
 20
343.847884
 30
0.0
 11
123.252005
 21
343.859035
 31
0.0
  0
LINE
  8
LC-003-002-----0
  6
CONTINUOUS
  5
1DB
 10
123.252005
 20
343.859035
 30
0.0
 11
123.238293
 21
343.867886
 31
0.0
  0
LINE
  8
LC-003-002-----0
  6
CONTINUOUS
  5
1DC
 10
123.238293
 20
343.867886
 30
0.0
 11
123.229977
 21
343.873244
 31
0.0
  0
LINE
  8
LC-003-002-----0
  6
CONTINUOUS
  5
1DD
 10
123.229977
 20
343.873244
 30
0.0
 11
123.221735
 21
343.878518
 31
0.0
  0
LINE
  8
LC-003-002-----0
  6
CONTINUOUS
  5
1DE
 10
123.221735
 20
343.878518
 30
0.0
 11
123.211531
 21
343.884987
 31
0.0
  0
LINE
  8
LC-003-002-----0
  6
CONTINUOUS
  5
1DF
 10
123.211531
 20
343.884987
 30
0.0
 11
123.198514
 21
343.893163
 31
0.0
  0
LINE
  8
LC-003-002-----0
  6
CONTINUOUS
  5
1E0
 10
123.198514
 20
343.893163
 30
0.0
 11
123.182435
 21
343.903172
 31
0.0
  0
LINE
  8
LC-003-002-----0
  6
CONTINUOUS
  5
1E1
 10
123.182435
 20
343.903172
 30
0.0
 11
123.163041
 21
343.915139
 31
0.0
  0
ENDBLK
  8
0
  5
1E2
  0
BLOCK
  8
0
  5
1E4
  2
BLK21
 70
    64
 10
124.58169
 20
347.17601
 30
0.0
  3
BLK21
  0
LINE
  8
LC-003-002-----0
  6
CONTINUOUS
  5
1E5
 10
124.58169
 20
347.17601
 30
0.0
 11
124.565385
 21
347.386447
 31
0.0
  0
LINE
  8
LC-003-002-----0
  6
CONTINUOUS
  5
1E6
 10
124.565385
 20
347.386447
 30
0.0
 11
124.516073
 21
347.544437
 31
0.0
  0
LINE
  8
LC-003-002-----0
  6
CONTINUOUS
  5
1E7
 10
124.516073
 20
347.544437
 30
0.0
 11
124.439747
 21
347.704118
 31
0.0
  0
LINE
  8
LC-003-002-----0
  6
CONTINUOUS
  5
1E8
 10
124.439747
 20
347.704118
 30
0.0
 11
124.35586
 21
347.842271
 31
0.0
  0
LINE
  8
LC-003-002-----0
  6
CONTINUOUS
  5
1E9
 10
124.35586
 20
347.842271
 30
0.0
 11
124.316472
 21
347.891165
 31
0.0
  0
LINE
  8
LC-003-002-----0
  6
CONTINUOUS
  5
1EA
 10
124.316472
 20
347.891165
 30
0.0
 11
124.270358
 21
347.934192
 31
0.0
  0
LINE
  8
LC-003-002-----0
  6
CONTINUOUS
  5
1EB
 10
124.270358
 20
347.934192
 30
0.0
 11
124.142684
 21
348.024305
 31
0.0
  0
LINE
  8
LC-003-002-----0
  6
CONTINUOUS
  5
1EC
 10
124.142684
 20
348.024305
 30
0.0
 11
123.994257
 21
348.106991
 31
0.0
  0
LINE
  8
LC-003-002-----0
  6
CONTINUOUS
  5
1ED
 10
123.994257
 20
348.106991
 30
0.0
 11
123.851225
 21
348.158761
 31
0.0
  0
LINE
  8
LC-003-002-----0
  6
CONTINUOUS
  5
1EE
 10
123.851225
 20
348.158761
 30
0.0
 11
123.65781
 21
348.17601
 31
0.0
  0
ENDBLK
  8
0
  5
1EF
  0
BLOCK
  8
0
  5
1F1
  2
BLK22
 70
    64
 10
123.65781
 20
348.17601
 30
0.0
  3
BLK22
  0
LINE
  8
LC-003-002-----0
  6
CONTINUOUS
  5
1F2
 10
123.65781
 20
348.17601
 30
0.0
 11
123.768421
 21
348.17023
 31
0.0
  0
LINE
  8
LC-003-002-----0
  6
CONTINUOUS
  5
1F3
 10
123.768421
 20
348.17023
 30
0.0
 11
123.840828
 21
348.158241
 31
0.0
  0
LINE
  8
LC-003-002-----0
  6
CONTINUOUS
  5
1F4
 10
123.840828
 20
348.158241
 30
0.0
 11
123.860206
 21
348.153822
 31
0.0
  0
LINE
  8
LC-003-002-----0
  6
CONTINUOUS
  5
1F5
 10
123.860206
 20
348.153822
 30
0.0
 11
123.880917
 21
348.148784
 31
0.0
  0
LINE
  8
LC-003-002-----0
  6
CONTINUOUS
  5
1F6
 10
123.880917
 20
348.148784
 30
0.0
 11
123.912012
 21
348.140977
 31
0.0
  0
LINE
  8
LC-003-002-----0
  6
CONTINUOUS
  5
1F7
 10
123.912012
 20
348.140977
 30
0.0
 11
123.946659
 21
348.131272
 31
0.0
  0
LINE
  8
LC-003-002-----0
  6
CONTINUOUS
  5
1F8
 10
123.946659
 20
348.131272
 30
0.0
 11
123.981003
 21
348.119704
 31
0.0
  0
LINE
  8
LC-003-002-----0
  6
CONTINUOUS
  5
1F9
 10
123.981003
 20
348.119704
 30
0.0
 11
124.015035
 21
348.105934
 31
0.0
  0
LINE
  8
LC-003-002-----0
  6
CONTINUOUS
  5
1FA
 10
124.015035
 20
348.105934
 30
0.0
 11
124.049278
 21
348.089984
 31
0.0
  0
LINE
  8
LC-003-002-----0
  6
CONTINUOUS
  5
1FB
 10
124.049278
 20
348.089984
 30
0.0
 11
124.08128
 21
348.074043
 31
0.0
  0
LINE
  8
LC-003-002-----0
  6
CONTINUOUS
  5
1FC
 10
124.08128
 20
348.074043
 30
0.0
 11
124.101142
 21
348.063965
 31
0.0
  0
LINE
  8
LC-003-002-----0
  6
CONTINUOUS
  5
1FD
 10
124.101142
 20
348.063965
 30
0.0
 11
124.120466
 21
348.053752
 31
0.0
  0
LINE
  8
LC-003-002-----0
  6
CONTINUOUS
  5
1FE
 10
124.120466
 20
348.053752
 30
0.0
 11
124.145669
 21
348.039347
 31
0.0
  0
LINE
  8
LC-003-002-----0
  6
CONTINUOUS
  5
1FF
 10
124.145669
 20
348.039347
 30
0.0
 11
124.172384
 21
348.022368
 31
0.0
  0
LINE
  8
LC-003-002-----0
  6
CONTINUOUS
  5
200
 10
124.172384
 20
348.022368
 30
0.0
 11
124.203363
 21
348.000288
 31
0.0
  0
LINE
  8
LC-003-002-----0
  6
CONTINUOUS
  5
201
 10
124.203363
 20
348.000288
 30
0.0
 11
124.232081
 21
347.978488
 31
0.0
  0
LINE
  8
LC-003-002-----0
  6
CONTINUOUS
  5
202
 10
124.232081
 20
347.978488
 30
0.0
 11
124.249833
 21
347.964789
 31
0.0
  0
LINE
  8
LC-003-002-----0
  6
CONTINUOUS
  5
203
 10
124.249833
 20
347.964789
 30
0.0
 11
124.266829
 21
347.951227
 31
0.0
  0
LINE
  8
LC-003-002-----0
  6
CONTINUOUS
  5
204
 10
124.266829
 20
347.951227
 30
0.0
 11
124.288239
 21
347.933076
 31
0.0
  0
LINE
  8
LC-003-002-----0
  6
CONTINUOUS
  5
205
 10
124.288239
 20
347.933076
 30
0.0
 11
124.308534
 21
347.914557
 31
0.0
  0
LINE
  8
LC-003-002-----0
  6
CONTINUOUS
  5
206
 10
124.308534
 20
347.914557
 30
0.0
 11
124.32807
 21
347.89483
 31
0.0
  0
LINE
  8
LC-003-002-----0
  6
CONTINUOUS
  5
207
 10
124.32807
 20
347.89483
 30
0.0
 11
124.346762
 21
347.87442
 31
0.0
  0
LINE
  8
LC-003-002-----0
  6
CONTINUOUS
  5
208
 10
124.346762
 20
347.87442
 30
0.0
 11
124.399866
 21
347.814492
 31
0.0
  0
LINE
  8
LC-003-002-----0
  6
CONTINUOUS
  5
209
 10
124.399866
 20
347.814492
 30
0.0
 11
124.455875
 21
347.744303
 31
0.0
  0
LINE
  8
LC-003-002-----0
  6
CONTINUOUS
  5
20A
 10
124.455875
 20
347.744303
 30
0.0
 11
124.502728
 21
347.670105
 31
0.0
  0
LINE
  8
LC-003-002-----0
  6
CONTINUOUS
  5
20B
 10
124.502728
 20
347.670105
 30
0.0
 11
124.539533
 21
347.588904
 31
0.0
  0
LINE
  8
LC-003-002-----0
  6
CONTINUOUS
  5
20C
 10
124.539533
 20
347.588904
 30
0.0
 11
124.568962
 21
347.499781
 31
0.0
  0
LINE
  8
LC-003-002-----0
  6
CONTINUOUS
  5
20D
 10
124.568962
 20
347.499781
 30
0.0
 11
124.589787
 21
347.424562
 31
0.0
  0
LINE
  8
LC-003-002-----0
  6
CONTINUOUS
  5
20E
 10
124.589787
 20
347.424562
 30
0.0
 11
124.594211
 21
347.407586
 31
0.0
  0
LINE
  8
LC-003-002-----0
  6
CONTINUOUS
  5
20F
 10
124.594211
 20
347.407586
 30
0.0
 11
124.59829
 21
347.389834
 31
0.0
  0
LINE
  8
LC-003-002-----0
  6
CONTINUOUS
  5
210
 10
124.59829
 20
347.389834
 30
0.0
 11
124.602124
 21
347.370104
 31
0.0
  0
LINE
  8
LC-003-002-----0
  6
CONTINUOUS
  5
211
 10
124.602124
 20
347.370104
 30
0.0
 11
124.605745
 21
347.348592
 31
0.0
  0
LINE
  8
LC-003-002-----0
  6
CONTINUOUS
  5
212
 10
124.605745
 20
347.348592
 30
0.0
 11
124.608401
 21
347.330314
 31
0.0
  0
LINE
  8
LC-003-002-----0
  6
CONTINUOUS
  5
213
 10
124.608401
 20
347.330314
 30
0.0
 11
124.610688
 21
347.31308
 31
0.0
  0
LINE
  8
LC-003-002-----0
  6
CONTINUOUS
  5
214
 10
124.610688
 20
347.31308
 30
0.0
 11
124.613041
 21
347.294725
 31
0.0
  0
LINE
  8
LC-003-002-----0
  6
CONTINUOUS
  5
215
 10
124.613041
 20
347.294725
 30
0.0
 11
124.615154
 21
347.276335
 31
0.0
  0
LINE
  8
LC-003-002-----0
  6
CONTINUOUS
  5
216
 10
124.615154
 20
347.276335
 30
0.0
 11
124.618446
 21
347.233552
 31
0.0
  0
LINE
  8
LC-003-002-----0
  6
CONTINUOUS
  5
217
 10
124.618446
 20
347.233552
 30
0.0
 11
124.61975
 21
347.17601
 31
0.0
  0
ENDBLK
  8
0
  5
218
  0
BLOCK
  8
0
  5
21A
  2
BLK23
 70
    64
 10
123.163041
 20
347.17601
 30
0.0
  3
BLK23
  0
LINE
  8
LC-003-002-----0
  6
CONTINUOUS
  5
21B
 10
123.163041
 20
347.17601
 30
0.0
 11
123.154889
 21
347.281229
 31
0.0
  0
LINE
  8
LC-003-002-----0
  6
CONTINUOUS
  5
21C
 10
123.154889
 20
347.281229
 30
0.0
 11
123.130233
 21
347.360224
 31
0.0
  0
LINE
  8
LC-003-002-----0
  6
CONTINUOUS
  5
21D
 10
123.130233
 20
347.360224
 30
0.0
 11
123.09207
 21
347.440064
 31
0.0
  0
LINE
  8
LC-003-002-----0
  6
CONTINUOUS
  5
21E
 10
123.09207
 20
347.440064
 30
0.0
 11
123.050127
 21
347.509141
 31
0.0
  0
LINE
  8
LC-003-002-----0
  6
CONTINUOUS
  5
21F
 10
123.050127
 20
347.509141
 30
0.0
 11
123.030433
 21
347.533587
 31
0.0
  0
LINE
  8
LC-003-002-----0
  6
CONTINUOUS
  5
220
 10
123.030433
 20
347.533587
 30
0.0
 11
123.007376
 21
347.555101
 31
0.0
  0
LINE
  8
LC-003-002-----0
  6
CONTINUOUS
  5
221
 10
123.007376
 20
347.555101
 30
0.0
 11
122.943538
 21
347.600157
 31
0.0
  0
LINE
  8
LC-003-002-----0
  6
CONTINUOUS
  5
222
 10
122.943538
 20
347.600157
 30
0.0
 11
122.869325
 21
347.641501
 31
0.0
  0
LINE
  8
LC-003-002-----0
  6
CONTINUOUS
  5
223
 10
122.869325
 20
347.641501
 30
0.0
 11
122.797809
 21
347.667385
 31
0.0
  0
LINE
  8
LC-003-002-----0
  6
CONTINUOUS
  5
224
 10
122.797809
 20
347.667385
 30
0.0
 11
122.701102
 21
347.67601
 31
0.0
  0
ENDBLK
  8
0
  5
225
  0
BLOCK
  8
0
  5
227
  2
BLK24
 70
    64
 10
123.816323
 20
347.17601
 30
0.0
  3
BLK24
  0
LINE
  8
LC-003-002-----0
  6
CONTINUOUS
  5
228
 10
123.816323
 20
347.17601
 30
0.0
 11
123.800018
 21
347.386447
 31
0.0
  0
LINE
  8
LC-003-002-----0
  6
CONTINUOUS
  5
229
 10
123.800018
 20
347.386447
 30
0.0
 11
123.750706
 21
347.544437
 31
0.0
  0
LINE
  8
LC-003-002-----0
  6
CONTINUOUS
  5
22A
 10
123.750706
 20
347.544437
 30
0.0
 11
123.67438
 21
347.704118
 31
0.0
  0
LINE
  8
LC-003-002-----0
  6
CONTINUOUS
  5
22B
 10
123.67438
 20
347.704118
 30
0.0
 11
123.590493
 21
347.842271
 31
0.0
  0
LINE
  8
LC-003-002-----0
  6
CONTINUOUS
  5
22C
 10
123.590493
 20
347.842271
 30
0.0
 11
123.551105
 21
347.891165
 31
0.0
  0
LINE
  8
LC-003-002-----0
  6
CONTINUOUS
  5
22D
 10
123.551105
 20
347.891165
 30
0.0
 11
123.504991
 21
347.934192
 31
0.0
  0
LINE
  8
LC-003-002-----0
  6
CONTINUOUS
  5
22E
 10
123.504991
 20
347.934192
 30
0.0
 11
123.377317
 21
348.024305
 31
0.0
  0
LINE
  8
LC-003-002-----0
  6
CONTINUOUS
  5
22F
 10
123.377317
 20
348.024305
 30
0.0
 11
123.22889
 21
348.106991
 31
0.0
  0
LINE
  8
LC-003-002-----0
  6
CONTINUOUS
  5
230
 10
123.22889
 20
348.106991
 30
0.0
 11
123.085858
 21
348.158761
 31
0.0
  0
LINE
  8
LC-003-002-----0
  6
CONTINUOUS
  5
231
 10
123.085858
 20
348.158761
 30
0.0
 11
122.892443
 21
348.17601
 31
0.0
  0
ENDBLK
  8
0
  5
232
  0
BLOCK
  8
0
  5
234
  2
BLK25
 70
    64
 10
122.701102
 20
347.67601
 30
0.0
  3
BLK25
  0
LINE
  8
LC-003-002-----0
  6
CONTINUOUS
  5
235
 10
122.701102
 20
347.67601
 30
0.0
 11
122.704686
 21
347.782678
 31
0.0
  0
LINE
  8
LC-003-002-----0
  6
CONTINUOUS
  5
236
 10
122.704686
 20
347.782678
 30
0.0
 11
122.715761
 21
347.866059
 31
0.0
  0
LINE
  8
LC-003-002-----0
  6
CONTINUOUS
  5
237
 10
122.715761
 20
347.866059
 30
0.0
 11
122.73163
 21
347.944964
 31
0.0
  0
LINE
  8
LC-003-002-----0
  6
CONTINUOUS
  5
238
 10
122.73163
 20
347.944964
 30
0.0
 11
122.749783
 21
348.015054
 31
0.0
  0
LINE
  8
LC-003-002-----0
  6
CONTINUOUS
  5
239
 10
122.749783
 20
348.015054
 30
0.0
 11
122.757968
 21
348.038473
 31
0.0
  0
LINE
  8
LC-003-002-----0
  6
CONTINUOUS
  5
23A
 10
122.757968
 20
348.038473
 30
0.0
 11
122.769199
 21
348.062216
 31
0.0
  0
LINE
  8
LC-003-002-----0
  6
CONTINUOUS
  5
23B
 10
122.769199
 20
348.062216
 30
0.0
 11
122.796933
 21
348.107463
 31
0.0
  0
LINE
  8
LC-003-002-----0
  6
CONTINUOUS
  5
23C
 10
122.796933
 20
348.107463
 30
0.0
 11
122.830077
 21
348.150054
 31
0.0
  0
LINE
  8
LC-003-002-----0
  6
CONTINUOUS
  5
23D
 10
122.830077
 20
348.150054
 30
0.0
 11
122.854356
 21
348.169194
 31
0.0
  0
LINE
  8
LC-003-002-----0
  6
CONTINUOUS
  5
23E
 10
122.854356
 20
348.169194
 30
0.0
 11
122.892443
 21
348.17601
 31
0.0
  0
ENDBLK
  8
0
  5
23F
  0
BLOCK
  8
0
  5
241
  2
BLK26
 70
    64
 10
117.63048
 20
344.17601
 30
0.0
  3
BLK26
  0
LINE
  8
LC-003-002-----0
  6
CONTINUOUS
  5
242
 10
117.63048
 20
344.17601
 30
0.0
 11
117.503023
 21
344.180157
 31
0.0
  0
LINE
  8
LC-003-002-----0
  6
CONTINUOUS
  5
243
 10
117.503023
 20
344.180157
 30
0.0
 11
117.409873
 21
344.190068
 31
0.0
  0
LINE
  8
LC-003-002-----0
  6
CONTINUOUS
  5
244
 10
117.409873
 20
344.190068
 30
0.0
 11
117.37811
 21
344.194724
 31
0.0
  0
LINE
  8
LC-003-002-----0
  6
CONTINUOUS
  5
245
 10
117.37811
 20
344.194724
 30
0.0
 11
117.354299
 21
344.198455
 31
0.0
  0
LINE
  8
LC-003-002-----0
  6
CONTINUOUS
  5
246
 10
117.354299
 20
344.198455
 30
0.0
 11
117.350562
 21
344.199053
 31
0.0
  0
LINE
  8
LC-003-002-----0
  6
CONTINUOUS
  5
247
 10
117.350562
 20
344.199053
 30
0.0
 11
117.346322
 21
344.19975
 31
0.0
  0
LINE
  8
LC-003-002-----0
  6
CONTINUOUS
  5
248
 10
117.346322
 20
344.19975
 30
0.0
 11
117.332297
 21
344.202185
 31
0.0
  0
LINE
  8
LC-003-002-----0
  6
CONTINUOUS
  5
249
 10
117.332297
 20
344.202185
 30
0.0
 11
117.310104
 21
344.206295
 31
0.0
  0
ENDBLK
  8
0
  5
24A
  0
BLOCK
  8
0
  5
24C
  2
BLK27
 70
    64
 10
122.25046
 20
344.17601
 30
0.0
  3
BLK27
  0
LINE
  8
LC-003-002-----0
  6
CONTINUOUS
  5
24D
 10
122.25046
 20
344.17601
 30
0.0
 11
122.351814
 21
344.173561
 31
0.0
  0
LINE
  8
LC-003-002-----0
  6
CONTINUOUS
  5
24E
 10
122.351814
 20
344.173561
 30
0.0
 11
122.425972
 21
344.1675
 31
0.0
  0
LINE
  8
LC-003-002-----0
  6
CONTINUOUS
  5
24F
 10
122.425972
 20
344.1675
 30
0.0
 11
122.457384
 21
344.163637
 31
0.0
  0
LINE
  8
LC-003-002-----0
  6
CONTINUOUS
  5
250
 10
122.457384
 20
344.163637
 30
0.0
 11
122.49012
 21
344.159122
 31
0.0
  0
LINE
  8
LC-003-002-----0
  6
CONTINUOUS
  5
251
 10
122.49012
 20
344.159122
 30
0.0
 11
122.532124
 21
344.153062
 31
0.0
  0
LINE
  8
LC-003-002-----0
  6
CONTINUOUS
  5
252
 10
122.532124
 20
344.153062
 30
0.0
 11
122.577142
 21
344.145582
 31
0.0
  0
LINE
  8
LC-003-002-----0
  6
CONTINUOUS
  5
253
 10
122.577142
 20
344.145582
 30
0.0
 11
122.617214
 21
344.137389
 31
0.0
  0
LINE
  8
LC-003-002-----0
  6
CONTINUOUS
  5
254
 10
122.617214
 20
344.137389
 30
0.0
 11
122.655147
 21
344.128273
 31
0.0
  0
LINE
  8
LC-003-002-----0
  6
CONTINUOUS
  5
255
 10
122.655147
 20
344.128273
 30
0.0
 11
122.686731
 21
344.119799
 31
0.0
  0
LINE
  8
LC-003-002-----0
  6
CONTINUOUS
  5
256
 10
122.686731
 20
344.119799
 30
0.0
 11
122.718916
 21
344.110688
 31
0.0
  0
LINE
  8
LC-003-002-----0
  6
CONTINUOUS
  5
257
 10
122.718916
 20
344.110688
 30
0.0
 11
122.763033
 21
344.09792
 31
0.0
  0
LINE
  8
LC-003-002-----0
  6
CONTINUOUS
  5
258
 10
122.763033
 20
344.09792
 30
0.0
 11
122.808399
 21
344.083764
 31
0.0
  0
LINE
  8
LC-003-002-----0
  6
CONTINUOUS
  5
259
 10
122.808399
 20
344.083764
 30
0.0
 11
122.847927
 21
344.069798
 31
0.0
  0
LINE
  8
LC-003-002-----0
  6
CONTINUOUS
  5
25A
 10
122.847927
 20
344.069798
 30
0.0
 11
122.885537
 21
344.055002
 31
0.0
  0
LINE
  8
LC-003-002-----0
  6
CONTINUOUS
  5
25B
 10
122.885537
 20
344.055002
 30
0.0
 11
122.917086
 21
344.041639
 31
0.0
  0
LINE
  8
LC-003-002-----0
  6
CONTINUOUS
  5
25C
 10
122.917086
 20
344.041639
 30
0.0
 11
122.945811
 21
344.029033
 31
0.0
  0
LINE
  8
LC-003-002-----0
  6
CONTINUOUS
  5
25D
 10
122.945811
 20
344.029033
 30
0.0
 11
122.970808
 21
344.017941
 31
0.0
  0
LINE
  8
LC-003-002-----0
  6
CONTINUOUS
  5
25E
 10
122.970808
 20
344.017941
 30
0.0
 11
122.99499
 21
344.006908
 31
0.0
  0
LINE
  8
LC-003-002-----0
  6
CONTINUOUS
  5
25F
 10
122.99499
 20
344.006908
 30
0.0
 11
123.065313
 21
343.971683
 31
0.0
  0
LINE
  8
LC-003-002-----0
  6
CONTINUOUS
  5
260
 10
123.065313
 20
343.971683
 30
0.0
 11
123.163041
 21
343.915139
 31
0.0
  0
ENDBLK
  8
0
  5
261
  0
BLOCK
  8
0
  5
263
  2
BLK28
 70
    64
 10
291.038518
 20
343.505124
 30
0.0
  3
BLK28
  0
LINE
  8
LC-003-002-----0
  6
CONTINUOUS
  5
264
 10
291.038518
 20
343.505124
 30
0.0
 11
291.025905
 21
343.506686
 31
0.0
  0
LINE
  8
LC-003-002-----0
  6
CONTINUOUS
  5
265
 10
291.025905
 20
343.506686
 30
0.0
 11
291.016348
 21
343.511001
 31
0.0
  0
LINE
  8
LC-003-002-----0
  6
CONTINUOUS
  5
266
 10
291.016348
 20
343.511001
 30
0.0
 11
291.012051
 21
343.514873
 31
0.0
  0
LINE
  8
LC-003-002-----0
  6
CONTINUOUS
  5
267
 10
291.012051
 20
343.514873
 30
0.0
 11
291.00881
 21
343.518617
 31
0.0
  0
LINE
  8
LC-003-002-----0
  6
CONTINUOUS
  5
268
 10
291.00881
 20
343.518617
 30
0.0
 11
291.007968
 21
343.519658
 31
0.0
  0
LINE
  8
LC-003-002-----0
  6
CONTINUOUS
  5
269
 10
291.007968
 20
343.519658
 30
0.0
 11
291.007133
 21
343.520803
 31
0.0
  0
LINE
  8
LC-003-002-----0
  6
CONTINUOUS
  5
26A
 10
291.007133
 20
343.520803
 30
0.0
 11
291.005985
 21
343.522661
 31
0.0
  0
LINE
  8
LC-003-002-----0
  6
CONTINUOUS
  5
26B
 10
291.005985
 20
343.522661
 30
0.0
 11
291.004849
 21
343.524943
 31
0.0
  0
LINE
  8
LC-003-002-----0
  6
CONTINUOUS
  5
26C
 10
291.004849
 20
343.524943
 30
0.0
 11
291.00367
 21
343.52813
 31
0.0
  0
LINE
  8
LC-003-002-----0
  6
CONTINUOUS
  5
26D
 10
291.00367
 20
343.52813
 30
0.0
 11
291.002765
 21
343.531152
 31
0.0
  0
LINE
  8
LC-003-002-----0
  6
CONTINUOUS
  5
26E
 10
291.002765
 20
343.531152
 30
0.0
 11
291.002165
 21
343.533288
 31
0.0
  0
LINE
  8
LC-003-002-----0
  6
CONTINUOUS
  5
26F
 10
291.002165
 20
343.533288
 30
0.0
 11
291.001671
 21
343.535289
 31
0.0
  0
LINE
  8
LC-003-002-----0
  6
CONTINUOUS
  5
270
 10
291.001671
 20
343.535289
 30
0.0
 11
291.000803
 21
343.540957
 31
0.0
  0
LINE
  8
LC-003-002-----0
  6
CONTINUOUS
  5
271
 10
291.000803
 20
343.540957
 30
0.0
 11
291.000458
 21
343.549177
 31
0.0
  0
ENDBLK
  8
0
  5
272
  0
BLOCK
  8
0
  5
274
  2
BLK29
 70
    64
 10
243.366834
 20
343.505124
 30
0.0
  3
BLK29
  0
LINE
  8
LC-003-002-----0
  6
CONTINUOUS
  5
275
 10
243.366834
 20
343.505124
 30
0.0
 11
242.973168
 21
343.50074
 31
0.0
  0
LINE
  8
LC-003-002-----0
  6
CONTINUOUS
  5
276
 10
242.973168
 20
343.50074
 30
0.0
 11
242.682617
 21
343.499118
 31
0.0
  0
LINE
  8
LC-003-002-----0
  6
CONTINUOUS
  5
277
 10
242.682617
 20
343.499118
 30
0.0
 11
242.559606
 21
343.498915
 31
0.0
  0
LINE
  8
LC-003-002-----0
  6
CONTINUOUS
  5
278
 10
242.559606
 20
343.498915
 30
0.0
 11
242.442955
 21
343.498886
 31
0.0
  0
LINE
  8
LC-003-002-----0
  6
CONTINUOUS
  5
279
 10
242.442955
 20
343.498886
 30
0.0
 11
242.326304
 21
343.498915
 31
0.0
  0
LINE
  8
LC-003-002-----0
  6
CONTINUOUS
  5
27A
 10
242.326304
 20
343.498915
 30
0.0
 11
242.203292
 21
343.499118
 31
0.0
  0
LINE
  8
LC-003-002-----0
  6
CONTINUOUS
  5
27B
 10
242.203292
 20
343.499118
 30
0.0
 11
241.912742
 21
343.50074
 31
0.0
  0
LINE
  8
LC-003-002-----0
  6
CONTINUOUS
  5
27C
 10
241.912742
 20
343.50074
 30
0.0
 11
241.519075
 21
343.505124
 31
0.0
  0
ENDBLK
  8
0
  5
27D
  0
BLOCK
  8
0
  5
27F
  2
BLK30
 70
    64
 10
208.810104
 20
343.505124
 30
0.0
  3
BLK30
  0
LINE
  8
LC-003-002-----0
  6
CONTINUOUS
  5
280
 10
208.810104
 20
343.505124
 30
0.0
 11
208.384003
 21
343.50074
 31
0.0
  0
LINE
  8
LC-003-002-----0
  6
CONTINUOUS
  5
281
 10
208.384003
 20
343.50074
 30
0.0
 11
208.069514
 21
343.499118
 31
0.0
  0
LINE
  8
LC-003-002-----0
  6
CONTINUOUS
  5
282
 10
208.069514
 20
343.499118
 30
0.0
 11
207.936367
 21
343.498915
 31
0.0
  0
LINE
  8
LC-003-002-----0
  6
CONTINUOUS
  5
283
 10
207.936367
 20
343.498915
 30
0.0
 11
207.810104
 21
343.498886
 31
0.0
  0
LINE
  8
LC-003-002-----0
  6
CONTINUOUS
  5
284
 10
207.810104
 20
343.498886
 30
0.0
 11
207.683841
 21
343.498915
 31
0.0
  0
LINE
  8
LC-003-002-----0
  6
CONTINUOUS
  5
285
 10
207.683841
 20
343.498915
 30
0.0
 11
207.550694
 21
343.499118
 31
0.0
  0
LINE
  8
LC-003-002-----0
  6
CONTINUOUS
  5
286
 10
207.550694
 20
343.499118
 30
0.0
 11
207.236205
 21
343.50074
 31
0.0
  0
LINE
  8
LC-003-002-----0
  6
CONTINUOUS
  5
287
 10
207.236205
 20
343.50074
 30
0.0
 11
206.810104
 21
343.505124
 31
0.0
  0
ENDBLK
  8
0
  5
288
  0
BLOCK
  8
0
  5
28A
  2
BLK31
 70
    64
 10
174.101133
 20
343.505124
 30
0.0
  3
BLK31
  0
LINE
  8
LC-003-002-----0
  6
CONTINUOUS
  5
28B
 10
174.101133
 20
343.505124
 30
0.0
 11
173.707467
 21
343.50074
 31
0.0
  0
LINE
  8
LC-003-002-----0
  6
CONTINUOUS
  5
28C
 10
173.707467
 20
343.50074
 30
0.0
 11
173.416916
 21
343.499118
 31
0.0
  0
LINE
  8
LC-003-002-----0
  6
CONTINUOUS
  5
28D
 10
173.416916
 20
343.499118
 30
0.0
 11
173.293905
 21
343.498915
 31
0.0
  0
LINE
  8
LC-003-002-----0
  6
CONTINUOUS
  5
28E
 10
173.293905
 20
343.498915
 30
0.0
 11
173.177253
 21
343.498886
 31
0.0
  0
LINE
  8
LC-003-002-----0
  6
CONTINUOUS
  5
28F
 10
173.177253
 20
343.498886
 30
0.0
 11
173.060602
 21
343.498915
 31
0.0
  0
LINE
  8
LC-003-002-----0
  6
CONTINUOUS
  5
290
 10
173.060602
 20
343.498915
 30
0.0
 11
172.937591
 21
343.499118
 31
0.0
  0
LINE
  8
LC-003-002-----0
  6
CONTINUOUS
  5
291
 10
172.937591
 20
343.499118
 30
0.0
 11
172.64704
 21
343.50074
 31
0.0
  0
LINE
  8
LC-003-002-----0
  6
CONTINUOUS
  5
292
 10
172.64704
 20
343.50074
 30
0.0
 11
172.253374
 21
343.505124
 31
0.0
  0
ENDBLK
  8
0
  5
293
  0
BLOCK
  8
0
  5
295
  2
BLK32
 70
    64
 10
144.524047
 20
343.505124
 30
0.0
  3
BLK32
  0
LINE
  8
LC-003-002-----0
  6
CONTINUOUS
  5
296
 10
144.524047
 20
343.505124
 30
0.0
 11
144.222747
 21
343.50074
 31
0.0
  0
LINE
  8
LC-003-002-----0
  6
CONTINUOUS
  5
297
 10
144.222747
 20
343.50074
 30
0.0
 11
144.000366
 21
343.499118
 31
0.0
  0
LINE
  8
LC-003-002-----0
  6
CONTINUOUS
  5
298
 10
144.000366
 20
343.499118
 30
0.0
 11
143.906219
 21
343.498915
 31
0.0
  0
LINE
  8
LC-003-002-----0
  6
CONTINUOUS
  5
299
 10
143.906219
 20
343.498915
 30
0.0
 11
143.81694
 21
343.498886
 31
0.0
  0
LINE
  8
LC-003-002-----0
  6
CONTINUOUS
  5
29A
 10
143.81694
 20
343.498886
 30
0.0
 11
143.727661
 21
343.498915
 31
0.0
  0
LINE
  8
LC-003-002-----0
  6
CONTINUOUS
  5
29B
 10
143.727661
 20
343.498915
 30
0.0
 11
143.633515
 21
343.499118
 31
0.0
  0
LINE
  8
LC-003-002-----0
  6
CONTINUOUS
  5
29C
 10
143.633515
 20
343.499118
 30
0.0
 11
143.411134
 21
343.50074
 31
0.0
  0
LINE
  8
LC-003-002-----0
  6
CONTINUOUS
  5
29D
 10
143.411134
 20
343.50074
 30
0.0
 11
143.109834
 21
343.505124
 31
0.0
  0
ENDBLK
  8
0
  5
29E
  0
BLOCK
  8
0
  5
2A0
  2
BLK33
 70
    64
 10
143.109834
 20
343.505124
 30
0.0
  3
BLK33
  0
LINE
  8
LC-003-002-----0
  6
CONTINUOUS
  5
2A1
 10
143.109834
 20
343.505124
 30
0.0
 11
143.10666
 21
343.505196
 31
0.0
  0
LINE
  8
LC-003-002-----0
  6
CONTINUOUS
  5
2A2
 10
143.10666
 20
343.505196
 30
0.0
 11
143.104867
 21
343.505256
 31
0.0
  0
LINE
  8
LC-003-002-----0
  6
CONTINUOUS
  5
2A3
 10
143.104867
 20
343.505256
 30
0.0
 11
143.104483
 21
343.505271
 31
0.0
  0
LINE
  8
LC-003-002-----0
  6
CONTINUOUS
  5
2A4
 10
143.104483
 20
343.505271
 30
0.0
 11
143.104232
 21
343.505284
 31
0.0
  0
LINE
  8
LC-003-002-----0
  6
CONTINUOUS
  5
2A5
 10
143.104232
 20
343.505284
 30
0.0
 11
143.099032
 21
343.505572
 31
0.0
  0
LINE
  8
LC-003-002-----0
  6
CONTINUOUS
  5
2A6
 10
143.099032
 20
343.505572
 30
0.0
 11
143.089259
 21
343.506254
 31
0.0
  0
LINE
  8
LC-003-002-----0
  6
CONTINUOUS
  5
2A7
 10
143.089259
 20
343.506254
 30
0.0
 11
143.076765
 21
343.507401
 31
0.0
  0
LINE
  8
LC-003-002-----0
  6
CONTINUOUS
  5
2A8
 10
143.076765
 20
343.507401
 30
0.0
 11
143.063402
 21
343.509082
 31
0.0
  0
LINE
  8
LC-003-002-----0
  6
CONTINUOUS
  5
2A9
 10
143.063402
 20
343.509082
 30
0.0
 11
143.035453
 21
343.51504
 31
0.0
  0
LINE
  8
LC-003-002-----0
  6
CONTINUOUS
  5
2AA
 10
143.035453
 20
343.51504
 30
0.0
 11
143.009489
 21
343.523554
 31
0.0
  0
LINE
  8
LC-003-002-----0
  6
CONTINUOUS
  5
2AB
 10
143.009489
 20
343.523554
 30
0.0
 11
142.982748
 21
343.534085
 31
0.0
  0
LINE
  8
LC-003-002-----0
  6
CONTINUOUS
  5
2AC
 10
142.982748
 20
343.534085
 30
0.0
 11
142.958251
 21
343.544447
 31
0.0
  0
LINE
  8
LC-003-002-----0
  6
CONTINUOUS
  5
2AD
 10
142.958251
 20
343.544447
 30
0.0
 11
142.9459
 21
343.549775
 31
0.0
  0
LINE
  8
LC-003-002-----0
  6
CONTINUOUS
  5
2AE
 10
142.9459
 20
343.549775
 30
0.0
 11
142.933918
 21
343.555172
 31
0.0
  0
LINE
  8
LC-003-002-----0
  6
CONTINUOUS
  5
2AF
 10
142.933918
 20
343.555172
 30
0.0
 11
142.920098
 21
343.561825
 31
0.0
  0
LINE
  8
LC-003-002-----0
  6
CONTINUOUS
  5
2B0
 10
142.920098
 20
343.561825
 30
0.0
 11
142.905932
 21
343.569037
 31
0.0
  0
LINE
  8
LC-003-002-----0
  6
CONTINUOUS
  5
2B1
 10
142.905932
 20
343.569037
 30
0.0
 11
142.891257
 21
343.576869
 31
0.0
  0
LINE
  8
LC-003-002-----0
  6
CONTINUOUS
  5
2B2
 10
142.891257
 20
343.576869
 30
0.0
 11
142.876587
 21
343.584915
 31
0.0
  0
LINE
  8
LC-003-002-----0
  6
CONTINUOUS
  5
2B3
 10
142.876587
 20
343.584915
 30
0.0
 11
142.85619
 21
343.596201
 31
0.0
  0
LINE
  8
LC-003-002-----0
  6
CONTINUOUS
  5
2B4
 10
142.85619
 20
343.596201
 30
0.0
 11
142.835439
 21
343.60797
 31
0.0
  0
LINE
  8
LC-003-002-----0
  6
CONTINUOUS
  5
2B5
 10
142.835439
 20
343.60797
 30
0.0
 11
142.812534
 21
343.621601
 31
0.0
  0
LINE
  8
LC-003-002-----0
  6
CONTINUOUS
  5
2B6
 10
142.812534
 20
343.621601
 30
0.0
 11
142.789104
 21
343.636246
 31
0.0
  0
LINE
  8
LC-003-002-----0
  6
CONTINUOUS
  5
2B7
 10
142.789104
 20
343.636246
 30
0.0
 11
142.761293
 21
343.654261
 31
0.0
  0
LINE
  8
LC-003-002-----0
  6
CONTINUOUS
  5
2B8
 10
142.761293
 20
343.654261
 30
0.0
 11
142.736061
 21
343.670893
 31
0.0
  0
LINE
  8
LC-003-002-----0
  6
CONTINUOUS
  5
2B9
 10
142.736061
 20
343.670893
 30
0.0
 11
142.723719
 21
343.679062
 31
0.0
  0
LINE
  8
LC-003-002-----0
  6
CONTINUOUS
  5
2BA
 10
142.723719
 20
343.679062
 30
0.0
 11
142.711997
 21
343.686869
 31
0.0
  0
LINE
  8
LC-003-002-----0
  6
CONTINUOUS
  5
2BB
 10
142.711997
 20
343.686869
 30
0.0
 11
142.691285
 21
343.700858
 31
0.0
  0
LINE
  8
LC-003-002-----0
  6
CONTINUOUS
  5
2BC
 10
142.691285
 20
343.700858
 30
0.0
 11
142.667548
 21
343.717248
 31
0.0
  0
LINE
  8
LC-003-002-----0
  6
CONTINUOUS
  5
2BD
 10
142.667548
 20
343.717248
 30
0.0
 11
142.630988
 21
343.743205
 31
0.0
  0
LINE
  8
LC-003-002-----0
  6
CONTINUOUS
  5
2BE
 10
142.630988
 20
343.743205
 30
0.0
 11
142.595708
 21
343.768664
 31
0.0
  0
LINE
  8
LC-003-002-----0
  6
CONTINUOUS
  5
2BF
 10
142.595708
 20
343.768664
 30
0.0
 11
142.574226
 21
343.784231
 31
0.0
  0
LINE
  8
LC-003-002-----0
  6
CONTINUOUS
  5
2C0
 10
142.574226
 20
343.784231
 30
0.0
 11
142.553575
 21
343.79933
 31
0.0
  0
LINE
  8
LC-003-002-----0
  6
CONTINUOUS
  5
2C1
 10
142.553575
 20
343.79933
 30
0.0
 11
142.53152
 21
343.815688
 31
0.0
  0
LINE
  8
LC-003-002-----0
  6
CONTINUOUS
  5
2C2
 10
142.53152
 20
343.815688
 30
0.0
 11
142.508729
 21
343.832832
 31
0.0
  0
LINE
  8
LC-003-002-----0
  6
CONTINUOUS
  5
2C3
 10
142.508729
 20
343.832832
 30
0.0
 11
142.488738
 21
343.848056
 31
0.0
  0
LINE
  8
LC-003-002-----0
  6
CONTINUOUS
  5
2C4
 10
142.488738
 20
343.848056
 30
0.0
 11
142.469704
 21
343.862645
 31
0.0
  0
LINE
  8
LC-003-002-----0
  6
CONTINUOUS
  5
2C5
 10
142.469704
 20
343.862645
 30
0.0
 11
142.455337
 21
343.873684
 31
0.0
  0
LINE
  8
LC-003-002-----0
  6
CONTINUOUS
  5
2C6
 10
142.455337
 20
343.873684
 30
0.0
 11
142.441103
 21
343.884712
 31
0.0
  0
LINE
  8
LC-003-002-----0
  6
CONTINUOUS
  5
2C7
 10
142.441103
 20
343.884712
 30
0.0
 11
142.423002
 21
343.898952
 31
0.0
  0
LINE
  8
LC-003-002-----0
  6
CONTINUOUS
  5
2C8
 10
142.423002
 20
343.898952
 30
0.0
 11
142.402727
 21
343.915139
 31
0.0
  0
ENDBLK
  8
0
  5
2C9
  0
BLOCK
  8
0
  5
2CB
  2
BLK34
 70
    64
 10
141.704267
 20
344.17601
 30
0.0
  3
BLK34
  0
LINE
  8
LC-003-002-----0
  6
CONTINUOUS
  5
2CC
 10
141.704267
 20
344.17601
 30
0.0
 11
141.781858
 21
344.173554
 31
0.0
  0
LINE
  8
LC-003-002-----0
  6
CONTINUOUS
  5
2CD
 10
141.781858
 20
344.173554
 30
0.0
 11
141.83898
 21
344.167425
 31
0.0
  0
LINE
  8
LC-003-002-----0
  6
CONTINUOUS
  5
2CE
 10
141.83898
 20
344.167425
 30
0.0
 11
141.863496
 21
344.163479
 31
0.0
  0
LINE
  8
LC-003-002-----0
  6
CONTINUOUS
  5
2CF
 10
141.863496
 20
344.163479
 30
0.0
 11
141.888543
 21
344.158966
 31
0.0
  0
LINE
  8
LC-003-002-----0
  6
CONTINUOUS
  5
2D0
 10
141.888543
 20
344.158966
 30
0.0
 11
141.91644
 21
344.153738
 31
0.0
  0
LINE
  8
LC-003-002-----0
  6
CONTINUOUS
  5
2D1
 10
141.91644
 20
344.153738
 30
0.0
 11
141.946051
 21
344.147507
 31
0.0
  0
LINE
  8
LC-003-002-----0
  6
CONTINUOUS
  5
2D2
 10
141.946051
 20
344.147507
 30
0.0
 11
141.976005
 21
344.139934
 31
0.0
  0
LINE
  8
LC-003-002-----0
  6
CONTINUOUS
  5
2D3
 10
141.976005
 20
344.139934
 30
0.0
 11
142.005387
 21
344.131133
 31
0.0
  0
LINE
  8
LC-003-002-----0
  6
CONTINUOUS
  5
2D4
 10
142.005387
 20
344.131133
 30
0.0
 11
142.034474
 21
344.121135
 31
0.0
  0
LINE
  8
LC-003-002-----0
  6
CONTINUOUS
  5
2D5
 10
142.034474
 20
344.121135
 30
0.0
 11
142.063772
 21
344.110328
 31
0.0
  0
LINE
  8
LC-003-002-----0
  6
CONTINUOUS
  5
2D6
 10
142.063772
 20
344.110328
 30
0.0
 11
142.097499
 21
344.097578
 31
0.0
  0
LINE
  8
LC-003-002-----0
  6
CONTINUOUS
  5
2D7
 10
142.097499
 20
344.097578
 30
0.0
 11
142.13123
 21
344.083819
 31
0.0
  0
LINE
  8
LC-003-002-----0
  6
CONTINUOUS
  5
2D8
 10
142.13123
 20
344.083819
 30
0.0
 11
142.161243
 21
344.069958
 31
0.0
  0
LINE
  8
LC-003-002-----0
  6
CONTINUOUS
  5
2D9
 10
142.161243
 20
344.069958
 30
0.0
 11
142.18965
 21
344.055383
 31
0.0
  0
LINE
  8
LC-003-002-----0
  6
CONTINUOUS
  5
2DA
 10
142.18965
 20
344.055383
 30
0.0
 11
142.213411
 21
344.042254
 31
0.0
  0
LINE
  8
LC-003-002-----0
  6
CONTINUOUS
  5
2DB
 10
142.213411
 20
344.042254
 30
0.0
 11
142.23549
 21
344.029596
 31
0.0
  0
LINE
  8
LC-003-002-----0
  6
CONTINUOUS
  5
2DC
 10
142.23549
 20
344.029596
 30
0.0
 11
142.258441
 21
344.016272
 31
0.0
  0
LINE
  8
LC-003-002-----0
  6
CONTINUOUS
  5
2DD
 10
142.258441
 20
344.016272
 30
0.0
 11
142.281052
 21
344.002664
 31
0.0
  0
LINE
  8
LC-003-002-----0
  6
CONTINUOUS
  5
2DE
 10
142.281052
 20
344.002664
 30
0.0
 11
142.334002
 21
343.967441
 31
0.0
  0
LINE
  8
LC-003-002-----0
  6
CONTINUOUS
  5
2DF
 10
142.334002
 20
343.967441
 30
0.0
 11
142.402727
 21
343.915139
 31
0.0
  0
ENDBLK
  8
0
  5
2E0
  0
BLOCK
  8
0
  5
2E2
  2
BLK35
 70
    64
 10
144.670494
 20
343.657613
 30
0.0
  3
BLK35
  0
LINE
  8
LC-003-002-----0
  6
CONTINUOUS
  5
2E3
 10
144.670494
 20
343.657613
 30
0.0
 11
144.669216
 21
343.632477
 31
0.0
  0
LINE
  8
LC-003-002-----0
  6
CONTINUOUS
  5
2E4
 10
144.669216
 20
343.632477
 30
0.0
 11
144.666044
 21
343.614704
 31
0.0
  0
LINE
  8
LC-003-002-----0
  6
CONTINUOUS
  5
2E5
 10
144.666044
 20
343.614704
 30
0.0
 11
144.664176
 21
343.607957
 31
0.0
  0
LINE
  8
LC-003-002-----0
  6
CONTINUOUS
  5
2E6
 10
144.664176
 20
343.607957
 30
0.0
 11
144.662005
 21
343.601006
 31
0.0
  0
LINE
  8
LC-003-002-----0
  6
CONTINUOUS
  5
2E7
 10
144.662005
 20
343.601006
 30
0.0
 11
144.659281
 21
343.592678
 31
0.0
  0
LINE
  8
LC-003-002-----0
  6
CONTINUOUS
  5
2E8
 10
144.659281
 20
343.592678
 30
0.0
 11
144.655949
 21
343.583856
 31
0.0
  0
LINE
  8
LC-003-002-----0
  6
CONTINUOUS
  5
2E9
 10
144.655949
 20
343.583856
 30
0.0
 11
144.651987
 21
343.575518
 31
0.0
  0
LINE
  8
LC-003-002-----0
  6
CONTINUOUS
  5
2EA
 10
144.651987
 20
343.575518
 30
0.0
 11
144.64738
 21
343.567806
 31
0.0
  0
LINE
  8
LC-003-002-----0
  6
CONTINUOUS
  5
2EB
 10
144.64738
 20
343.567806
 30
0.0
 11
144.642367
 21
343.560973
 31
0.0
  0
LINE
  8
LC-003-002-----0
  6
CONTINUOUS
  5
2EC
 10
144.642367
 20
343.560973
 30
0.0
 11
144.63712
 21
343.554581
 31
0.0
  0
LINE
  8
LC-003-002-----0
  6
CONTINUOUS
  5
2ED
 10
144.63712
 20
343.554581
 30
0.0
 11
144.63053
 21
343.546799
 31
0.0
  0
LINE
  8
LC-003-002-----0
  6
CONTINUOUS
  5
2EE
 10
144.63053
 20
343.546799
 30
0.0
 11
144.623578
 21
343.539159
 31
0.0
  0
LINE
  8
LC-003-002-----0
  6
CONTINUOUS
  5
2EF
 10
144.623578
 20
343.539159
 30
0.0
 11
144.610845
 21
343.527778
 31
0.0
  0
LINE
  8
LC-003-002-----0
  6
CONTINUOUS
  5
2F0
 10
144.610845
 20
343.527778
 30
0.0
 11
144.594051
 21
343.518213
 31
0.0
  0
LINE
  8
LC-003-002-----0
  6
CONTINUOUS
  5
2F1
 10
144.594051
 20
343.518213
 30
0.0
 11
144.564937
 21
343.509868
 31
0.0
  0
LINE
  8
LC-003-002-----0
  6
CONTINUOUS
  5
2F2
 10
144.564937
 20
343.509868
 30
0.0
 11
144.543467
 21
343.506339
 31
0.0
  0
LINE
  8
LC-003-002-----0
  6
CONTINUOUS
  5
2F3
 10
144.543467
 20
343.506339
 30
0.0
 11
144.541945
 21
343.506139
 31
0.0
  0
LINE
  8
LC-003-002-----0
  6
CONTINUOUS
  5
2F4
 10
144.541945
 20
343.506139
 30
0.0
 11
144.540334
 21
343.505959
 31
0.0
  0
LINE
  8
LC-003-002-----0
  6
CONTINUOUS
  5
2F5
 10
144.540334
 20
343.505959
 30
0.0
 11
144.534241
 21
343.505491
 31
0.0
  0
LINE
  8
LC-003-002-----0
  6
CONTINUOUS
  5
2F6
 10
144.534241
 20
343.505491
 30
0.0
 11
144.524047
 21
343.505124
 31
0.0
  0
ENDBLK
  8
0
  5
2F7
  0
BLOCK
  8
0
  5
2F9
  2
BLK36
 70
    64
 10
172.253374
 20
343.505124
 30
0.0
  3
BLK36
  0
LINE
  8
LC-003-002-----0
  6
CONTINUOUS
  5
2FA
 10
172.253374
 20
343.505124
 30
0.0
 11
172.249232
 21
343.505196
 31
0.0
  0
LINE
  8
LC-003-002-----0
  6
CONTINUOUS
  5
2FB
 10
172.249232
 20
343.505196
 30
0.0
 11
172.246898
 21
343.505256
 31
0.0
  0
LINE
  8
LC-003-002-----0
  6
CONTINUOUS
  5
2FC
 10
172.246898
 20
343.505256
 30
0.0
 11
172.246401
 21
343.505272
 31
0.0
  0
LINE
  8
LC-003-002-----0
  6
CONTINUOUS
  5
2FD
 10
172.246401
 20
343.505272
 30
0.0
 11
172.24607
 21
343.505284
 31
0.0
  0
LINE
  8
LC-003-002-----0
  6
CONTINUOUS
  5
2FE
 10
172.24607
 20
343.505284
 30
0.0
 11
172.239164
 21
343.505584
 31
0.0
  0
LINE
  8
LC-003-002-----0
  6
CONTINUOUS
  5
2FF
 10
172.239164
 20
343.505584
 30
0.0
 11
172.226169
 21
343.506307
 31
0.0
  0
LINE
  8
LC-003-002-----0
  6
CONTINUOUS
  5
300
 10
172.226169
 20
343.506307
 30
0.0
 11
172.209645
 21
343.507541
 31
0.0
  0
LINE
  8
LC-003-002-----0
  6
CONTINUOUS
  5
301
 10
172.209645
 20
343.507541
 30
0.0
 11
172.192151
 21
343.509372
 31
0.0
  0
LINE
  8
LC-003-002-----0
  6
CONTINUOUS
  5
302
 10
172.192151
 20
343.509372
 30
0.0
 11
172.15961
 21
343.515229
 31
0.0
  0
LINE
  8
LC-003-002-----0
  6
CONTINUOUS
  5
303
 10
172.15961
 20
343.515229
 30
0.0
 11
172.129478
 21
343.523855
 31
0.0
  0
LINE
  8
LC-003-002-----0
  6
CONTINUOUS
  5
304
 10
172.129478
 20
343.523855
 30
0.0
 11
172.099532
 21
343.534468
 31
0.0
  0
LINE
  8
LC-003-002-----0
  6
CONTINUOUS
  5
305
 10
172.099532
 20
343.534468
 30
0.0
 11
172.07292
 21
343.544706
 31
0.0
  0
LINE
  8
LC-003-002-----0
  6
CONTINUOUS
  5
306
 10
172.07292
 20
343.544706
 30
0.0
 11
172.062086
 21
343.548967
 31
0.0
  0
LINE
  8
LC-003-002-----0
  6
CONTINUOUS
  5
307
 10
172.062086
 20
343.548967
 30
0.0
 11
172.051528
 21
343.553295
 31
0.0
  0
LINE
  8
LC-003-002-----0
  6
CONTINUOUS
  5
308
 10
172.051528
 20
343.553295
 30
0.0
 11
172.037349
 21
343.559526
 31
0.0
  0
LINE
  8
LC-003-002-----0
  6
CONTINUOUS
  5
309
 10
172.037349
 20
343.559526
 30
0.0
 11
172.021754
 21
343.566931
 31
0.0
  0
LINE
  8
LC-003-002-----0
  6
CONTINUOUS
  5
30A
 10
172.021754
 20
343.566931
 30
0.0
 11
172.002703
 21
343.576728
 31
0.0
  0
LINE
  8
LC-003-002-----0
  6
CONTINUOUS
  5
30B
 10
172.002703
 20
343.576728
 30
0.0
 11
171.984754
 21
343.586381
 31
0.0
  0
LINE
  8
LC-003-002-----0
  6
CONTINUOUS
  5
30C
 10
171.984754
 20
343.586381
 30
0.0
 11
171.971506
 21
343.593582
 31
0.0
  0
LINE
  8
LC-003-002-----0
  6
CONTINUOUS
  5
30D
 10
171.971506
 20
343.593582
 30
0.0
 11
171.958761
 21
343.600637
 31
0.0
  0
LINE
  8
LC-003-002-----0
  6
CONTINUOUS
  5
30E
 10
171.958761
 20
343.600637
 30
0.0
 11
171.937236
 21
343.61311
 31
0.0
  0
LINE
  8
LC-003-002-----0
  6
CONTINUOUS
  5
30F
 10
171.937236
 20
343.61311
 30
0.0
 11
171.912942
 21
343.628343
 31
0.0
  0
LINE
  8
LC-003-002-----0
  6
CONTINUOUS
  5
310
 10
171.912942
 20
343.628343
 30
0.0
 11
171.88989
 21
343.643966
 31
0.0
  0
LINE
  8
LC-003-002-----0
  6
CONTINUOUS
  5
311
 10
171.88989
 20
343.643966
 30
0.0
 11
171.86755
 21
343.659777
 31
0.0
  0
LINE
  8
LC-003-002-----0
  6
CONTINUOUS
  5
312
 10
171.86755
 20
343.659777
 30
0.0
 11
171.848803
 21
343.673334
 31
0.0
  0
LINE
  8
LC-003-002-----0
  6
CONTINUOUS
  5
313
 10
171.848803
 20
343.673334
 30
0.0
 11
171.840191
 21
343.679608
 31
0.0
  0
LINE
  8
LC-003-002-----0
  6
CONTINUOUS
  5
314
 10
171.840191
 20
343.679608
 30
0.0
 11
171.831817
 21
343.685836
 31
0.0
  0
LINE
  8
LC-003-002-----0
  6
CONTINUOUS
  5
315
 10
171.831817
 20
343.685836
 30
0.0
 11
171.822292
 21
343.693117
 31
0.0
  0
LINE
  8
LC-003-002-----0
  6
CONTINUOUS
  5
316
 10
171.822292
 20
343.693117
 30
0.0
 11
171.811994
 21
343.701189
 31
0.0
  0
LINE
  8
LC-003-002-----0
  6
CONTINUOUS
  5
317
 10
171.811994
 20
343.701189
 30
0.0
 11
171.801973
 21
343.709232
 31
0.0
  0
LINE
  8
LC-003-002-----0
  6
CONTINUOUS
  5
318
 10
171.801973
 20
343.709232
 30
0.0
 11
171.792012
 21
343.717334
 31
0.0
  0
LINE
  8
LC-003-002-----0
  6
CONTINUOUS
  5
319
 10
171.792012
 20
343.717334
 30
0.0
 11
171.782116
 21
343.725419
 31
0.0
  0
LINE
  8
LC-003-002-----0
  6
CONTINUOUS
  5
31A
 10
171.782116
 20
343.725419
 30
0.0
 11
171.772247
 21
343.733595
 31
0.0
  0
LINE
  8
LC-003-002-----0
  6
CONTINUOUS
  5
31B
 10
171.772247
 20
343.733595
 30
0.0
 11
171.762705
 21
343.741694
 31
0.0
  0
LINE
  8
LC-003-002-----0
  6
CONTINUOUS
  5
31C
 10
171.762705
 20
343.741694
 30
0.0
 11
171.753849
 21
343.7494
 31
0.0
  0
LINE
  8
LC-003-002-----0
  6
CONTINUOUS
  5
31D
 10
171.753849
 20
343.7494
 30
0.0
 11
171.746176
 21
343.75624
 31
0.0
  0
LINE
  8
LC-003-002-----0
  6
CONTINUOUS
  5
31E
 10
171.746176
 20
343.75624
 30
0.0
 11
171.738419
 21
343.763264
 31
0.0
  0
LINE
  8
LC-003-002-----0
  6
CONTINUOUS
  5
31F
 10
171.738419
 20
343.763264
 30
0.0
 11
171.720697
 21
343.779426
 31
0.0
  0
LINE
  8
LC-003-002-----0
  6
CONTINUOUS
  5
320
 10
171.720697
 20
343.779426
 30
0.0
 11
171.701451
 21
343.797409
 31
0.0
  0
LINE
  8
LC-003-002-----0
  6
CONTINUOUS
  5
321
 10
171.701451
 20
343.797409
 30
0.0
 11
171.683882
 21
343.814665
 31
0.0
  0
LINE
  8
LC-003-002-----0
  6
CONTINUOUS
  5
322
 10
171.683882
 20
343.814665
 30
0.0
 11
171.667433
 21
343.831951
 31
0.0
  0
LINE
  8
LC-003-002-----0
  6
CONTINUOUS
  5
323
 10
171.667433
 20
343.831951
 30
0.0
 11
171.653169
 21
343.84794
 31
0.0
  0
LINE
  8
LC-003-002-----0
  6
CONTINUOUS
  5
324
 10
171.653169
 20
343.84794
 30
0.0
 11
171.640062
 21
343.863125
 31
0.0
  0
LINE
  8
LC-003-002-----0
  6
CONTINUOUS
  5
325
 10
171.640062
 20
343.863125
 30
0.0
 11
171.631776
 21
343.872842
 31
0.0
  0
LINE
  8
LC-003-002-----0
  6
CONTINUOUS
  5
326
 10
171.631776
 20
343.872842
 30
0.0
 11
171.623816
 21
343.882529
 31
0.0
  0
LINE
  8
LC-003-002-----0
  6
CONTINUOUS
  5
327
 10
171.623816
 20
343.882529
 30
0.0
 11
171.612735
 21
343.897063
 31
0.0
  0
LINE
  8
LC-003-002-----0
  6
CONTINUOUS
  5
328
 10
171.612735
 20
343.897063
 30
0.0
 11
171.600092
 21
343.915139
 31
0.0
  0
ENDBLK
  8
0
  5
329
  0
BLOCK
  8
0
  5
32B
  2
BLK37
 70
    64
 10
171.222089
 20
344.17601
 30
0.0
  3
BLK37
  0
LINE
  8
LC-003-002-----0
  6
CONTINUOUS
  5
32C
 10
171.222089
 20
344.17601
 30
0.0
 11
171.267724
 21
344.17301
 31
0.0
  0
LINE
  8
LC-003-002-----0
  6
CONTINUOUS
  5
32D
 10
171.267724
 20
344.17301
 30
0.0
 11
171.299062
 21
344.166273
 31
0.0
  0
LINE
  8
LC-003-002-----0
  6
CONTINUOUS
  5
32E
 10
171.299062
 20
344.166273
 30
0.0
 11
171.309943
 21
344.162939
 31
0.0
  0
LINE
  8
LC-003-002-----0
  6
CONTINUOUS
  5
32F
 10
171.309943
 20
344.162939
 30
0.0
 11
171.321199
 21
344.159176
 31
0.0
  0
LINE
  8
LC-003-002-----0
  6
CONTINUOUS
  5
330
 10
171.321199
 20
344.159176
 30
0.0
 11
171.336073
 21
344.154031
 31
0.0
  0
LINE
  8
LC-003-002-----0
  6
CONTINUOUS
  5
331
 10
171.336073
 20
344.154031
 30
0.0
 11
171.352103
 21
344.14785
 31
0.0
  0
LINE
  8
LC-003-002-----0
  6
CONTINUOUS
  5
332
 10
171.352103
 20
344.14785
 30
0.0
 11
171.368457
 21
344.14031
 31
0.0
  0
LINE
  8
LC-003-002-----0
  6
CONTINUOUS
  5
333
 10
171.368457
 20
344.14031
 30
0.0
 11
171.383288
 21
344.132279
 31
0.0
  0
LINE
  8
LC-003-002-----0
  6
CONTINUOUS
  5
334
 10
171.383288
 20
344.132279
 30
0.0
 11
171.396904
 21
344.123809
 31
0.0
  0
LINE
  8
LC-003-002-----0
  6
CONTINUOUS
  5
335
 10
171.396904
 20
344.123809
 30
0.0
 11
171.409204
 21
344.115461
 31
0.0
  0
LINE
  8
LC-003-002-----0
  6
CONTINUOUS
  5
336
 10
171.409204
 20
344.115461
 30
0.0
 11
171.433418
 21
344.098533
 31
0.0
  0
LINE
  8
LC-003-002-----0
  6
CONTINUOUS
  5
337
 10
171.433418
 20
344.098533
 30
0.0
 11
171.457906
 21
344.079985
 31
0.0
  0
LINE
  8
LC-003-002-----0
  6
CONTINUOUS
  5
338
 10
171.457906
 20
344.079985
 30
0.0
 11
171.522822
 21
344.017159
 31
0.0
  0
LINE
  8
LC-003-002-----0
  6
CONTINUOUS
  5
339
 10
171.522822
 20
344.017159
 30
0.0
 11
171.600092
 21
343.915139
 31
0.0
  0
ENDBLK
  8
0
  5
33A
  0
BLOCK
  8
0
  5
33C
  2
BLK38
 70
    64
 10
209.310104
 20
343.915139
 30
0.0
  3
BLK38
  0
LINE
  8
LC-003-002-----0
  6
CONTINUOUS
  5
33D
 10
209.310104
 20
343.915139
 30
0.0
 11
209.308867
 21
343.892415
 31
0.0
  0
LINE
  8
LC-003-002-----0
  6
CONTINUOUS
  5
33E
 10
209.308867
 20
343.892415
 30
0.0
 11
209.306103
 21
343.876399
 31
0.0
  0
LINE
  8
LC-003-002-----0
  6
CONTINUOUS
  5
33F
 10
209.306103
 20
343.876399
 30
0.0
 11
209.304498
 21
343.869958
 31
0.0
  0
LINE
  8
LC-003-002-----0
  6
CONTINUOUS
  5
340
 10
209.304498
 20
343.869958
 30
0.0
 11
209.302658
 21
343.863326
 31
0.0
  0
LINE
  8
LC-003-002-----0
  6
CONTINUOUS
  5
341
 10
209.302658
 20
343.863326
 30
0.0
 11
209.298383
 21
343.848606
 31
0.0
  0
LINE
  8
LC-003-002-----0
  6
CONTINUOUS
  5
342
 10
209.298383
 20
343.848606
 30
0.0
 11
209.292854
 21
343.832063
 31
0.0
  0
LINE
  8
LC-003-002-----0
  6
CONTINUOUS
  5
343
 10
209.292854
 20
343.832063
 30
0.0
 11
209.285387
 21
343.814547
 31
0.0
  0
LINE
  8
LC-003-002-----0
  6
CONTINUOUS
  5
344
 10
209.285387
 20
343.814547
 30
0.0
 11
209.276187
 21
343.797216
 31
0.0
  0
LINE
  8
LC-003-002-----0
  6
CONTINUOUS
  5
345
 10
209.276187
 20
343.797216
 30
0.0
 11
209.265004
 21
343.778829
 31
0.0
  0
LINE
  8
LC-003-002-----0
  6
CONTINUOUS
  5
346
 10
209.265004
 20
343.778829
 30
0.0
 11
209.254889
 21
343.763168
 31
0.0
  0
LINE
  8
LC-003-002-----0
  6
CONTINUOUS
  5
347
 10
209.254889
 20
343.763168
 30
0.0
 11
209.251578
 21
343.75812
 31
0.0
  0
LINE
  8
LC-003-002-----0
  6
CONTINUOUS
  5
348
 10
209.251578
 20
343.75812
 30
0.0
 11
209.248262
 21
343.753188
 31
0.0
  0
LINE
  8
LC-003-002-----0
  6
CONTINUOUS
  5
349
 10
209.248262
 20
343.753188
 30
0.0
 11
209.242983
 21
343.745668
 31
0.0
  0
LINE
  8
LC-003-002-----0
  6
CONTINUOUS
  5
34A
 10
209.242983
 20
343.745668
 30
0.0
 11
209.236629
 21
343.737123
 31
0.0
  0
LINE
  8
LC-003-002-----0
  6
CONTINUOUS
  5
34B
 10
209.236629
 20
343.737123
 30
0.0
 11
209.228109
 21
343.72641
 31
0.0
  0
LINE
  8
LC-003-002-----0
  6
CONTINUOUS
  5
34C
 10
209.228109
 20
343.72641
 30
0.0
 11
209.219865
 21
343.716438
 31
0.0
  0
LINE
  8
LC-003-002-----0
  6
CONTINUOUS
  5
34D
 10
209.219865
 20
343.716438
 30
0.0
 11
209.214788
 21
343.710356
 31
0.0
  0
LINE
  8
LC-003-002-----0
  6
CONTINUOUS
  5
34E
 10
209.214788
 20
343.710356
 30
0.0
 11
209.209838
 21
343.704533
 31
0.0
  0
LINE
  8
LC-003-002-----0
  6
CONTINUOUS
  5
34F
 10
209.209838
 20
343.704533
 30
0.0
 11
209.202797
 21
343.696553
 31
0.0
  0
LINE
  8
LC-003-002-----0
  6
CONTINUOUS
  5
350
 10
209.202797
 20
343.696553
 30
0.0
 11
209.194828
 21
343.687994
 31
0.0
  0
LINE
  8
LC-003-002-----0
  6
CONTINUOUS
  5
351
 10
209.194828
 20
343.687994
 30
0.0
 11
209.184619
 21
343.677685
 31
0.0
  0
LINE
  8
LC-003-002-----0
  6
CONTINUOUS
  5
352
 10
209.184619
 20
343.677685
 30
0.0
 11
209.174805
 21
343.668116
 31
0.0
  0
LINE
  8
LC-003-002-----0
  6
CONTINUOUS
  5
353
 10
209.174805
 20
343.668116
 30
0.0
 11
209.168853
 21
343.662366
 31
0.0
  0
LINE
  8
LC-003-002-----0
  6
CONTINUOUS
  5
354
 10
209.168853
 20
343.662366
 30
0.0
 11
209.163043
 21
343.656854
 31
0.0
  0
LINE
  8
LC-003-002-----0
  6
CONTINUOUS
  5
355
 10
209.163043
 20
343.656854
 30
0.0
 11
209.155314
 21
343.649773
 31
0.0
  0
LINE
  8
LC-003-002-----0
  6
CONTINUOUS
  5
356
 10
209.155314
 20
343.649773
 30
0.0
 11
209.146983
 21
343.642495
 31
0.0
  0
LINE
  8
LC-003-002-----0
  6
CONTINUOUS
  5
357
 10
209.146983
 20
343.642495
 30
0.0
 11
209.137224
 21
343.634446
 31
0.0
  0
LINE
  8
LC-003-002-----0
  6
CONTINUOUS
  5
358
 10
209.137224
 20
343.634446
 30
0.0
 11
209.127188
 21
343.626458
 31
0.0
  0
LINE
  8
LC-003-002-----0
  6
CONTINUOUS
  5
359
 10
209.127188
 20
343.626458
 30
0.0
 11
209.11608
 21
343.617723
 31
0.0
  0
LINE
  8
LC-003-002-----0
  6
CONTINUOUS
  5
35A
 10
209.11608
 20
343.617723
 30
0.0
 11
209.104824
 21
343.609203
 31
0.0
  0
LINE
  8
LC-003-002-----0
  6
CONTINUOUS
  5
35B
 10
209.104824
 20
343.609203
 30
0.0
 11
209.095165
 21
343.602349
 31
0.0
  0
LINE
  8
LC-003-002-----0
  6
CONTINUOUS
  5
35C
 10
209.095165
 20
343.602349
 30
0.0
 11
209.086279
 21
343.596377
 31
0.0
  0
LINE
  8
LC-003-002-----0
  6
CONTINUOUS
  5
35D
 10
209.086279
 20
343.596377
 30
0.0
 11
209.079873
 21
343.592248
 31
0.0
  0
LINE
  8
LC-003-002-----0
  6
CONTINUOUS
  5
35E
 10
209.079873
 20
343.592248
 30
0.0
 11
209.073203
 21
343.588049
 31
0.0
  0
LINE
  8
LC-003-002-----0
  6
CONTINUOUS
  5
35F
 10
209.073203
 20
343.588049
 30
0.0
 11
209.056373
 21
343.577607
 31
0.0
  0
LINE
  8
LC-003-002-----0
  6
CONTINUOUS
  5
360
 10
209.056373
 20
343.577607
 30
0.0
 11
209.037388
 21
343.566489
 31
0.0
  0
LINE
  8
LC-003-002-----0
  6
CONTINUOUS
  5
361
 10
209.037388
 20
343.566489
 30
0.0
 11
209.022246
 21
343.558552
 31
0.0
  0
LINE
  8
LC-003-002-----0
  6
CONTINUOUS
  5
362
 10
209.022246
 20
343.558552
 30
0.0
 11
209.008355
 21
343.552017
 31
0.0
  0
LINE
  8
LC-003-002-----0
  6
CONTINUOUS
  5
363
 10
209.008355
 20
343.552017
 30
0.0
 11
208.998186
 21
343.547585
 31
0.0
  0
LINE
  8
LC-003-002-----0
  6
CONTINUOUS
  5
364
 10
208.998186
 20
343.547585
 30
0.0
 11
208.987652
 21
343.543163
 31
0.0
  0
LINE
  8
LC-003-002-----0
  6
CONTINUOUS
  5
365
 10
208.987652
 20
343.543163
 30
0.0
 11
208.972267
 21
343.536825
 31
0.0
  0
LINE
  8
LC-003-002-----0
  6
CONTINUOUS
  5
366
 10
208.972267
 20
343.536825
 30
0.0
 11
208.956006
 21
343.530605
 31
0.0
  0
LINE
  8
LC-003-002-----0
  6
CONTINUOUS
  5
367
 10
208.956006
 20
343.530605
 30
0.0
 11
208.942137
 21
343.52601
 31
0.0
  0
LINE
  8
LC-003-002-----0
  6
CONTINUOUS
  5
368
 10
208.942137
 20
343.52601
 30
0.0
 11
208.928866
 21
343.522233
 31
0.0
  0
LINE
  8
LC-003-002-----0
  6
CONTINUOUS
  5
369
 10
208.928866
 20
343.522233
 30
0.0
 11
208.917953
 21
343.519502
 31
0.0
  0
LINE
  8
LC-003-002-----0
  6
CONTINUOUS
  5
36A
 10
208.917953
 20
343.519502
 30
0.0
 11
208.906908
 21
343.516927
 31
0.0
  0
LINE
  8
LC-003-002-----0
  6
CONTINUOUS
  5
36B
 10
208.906908
 20
343.516927
 30
0.0
 11
208.893481
 21
343.513883
 31
0.0
  0
LINE
  8
LC-003-002-----0
  6
CONTINUOUS
  5
36C
 10
208.893481
 20
343.513883
 30
0.0
 11
208.879632
 21
343.511038
 31
0.0
  0
LINE
  8
LC-003-002-----0
  6
CONTINUOUS
  5
36D
 10
208.879632
 20
343.511038
 30
0.0
 11
208.864989
 21
343.508663
 31
0.0
  0
LINE
  8
LC-003-002-----0
  6
CONTINUOUS
  5
36E
 10
208.864989
 20
343.508663
 30
0.0
 11
208.848808
 21
343.506936
 31
0.0
  0
LINE
  8
LC-003-002-----0
  6
CONTINUOUS
  5
36F
 10
208.848808
 20
343.506936
 30
0.0
 11
208.836424
 21
343.506111
 31
0.0
  0
LINE
  8
LC-003-002-----0
  6
CONTINUOUS
  5
370
 10
208.836424
 20
343.506111
 30
0.0
 11
208.825368
 21
343.505571
 31
0.0
  0
LINE
  8
LC-003-002-----0
  6
CONTINUOUS
  5
371
 10
208.825368
 20
343.505571
 30
0.0
 11
208.818491
 21
343.505303
 31
0.0
  0
LINE
  8
LC-003-002-----0
  6
CONTINUOUS
  5
372
 10
208.818491
 20
343.505303
 30
0.0
 11
208.817871
 21
343.505281
 31
0.0
  0
LINE
  8
LC-003-002-----0
  6
CONTINUOUS
  5
373
 10
208.817871
 20
343.505281
 30
0.0
 11
208.817143
 21
343.505258
 31
0.0
  0
LINE
  8
LC-003-002-----0
  6
CONTINUOUS
  5
374
 10
208.817143
 20
343.505258
 30
0.0
 11
208.814496
 21
343.505195
 31
0.0
  0
LINE
  8
LC-003-002-----0
  6
CONTINUOUS
  5
375
 10
208.814496
 20
343.505195
 30
0.0
 11
208.810104
 21
343.505124
 31
0.0
  0
ENDBLK
  8
0
  5
376
  0
BLOCK
  8
0
  5
378
  2
BLK39
 70
    64
 10
206.810104
 20
343.505124
 30
0.0
  3
BLK39
  0
LINE
  8
LC-003-002-----0
  6
CONTINUOUS
  5
379
 10
206.810104
 20
343.505124
 30
0.0
 11
206.805701
 21
343.505195
 31
0.0
  0
LINE
  8
LC-003-002-----0
  6
CONTINUOUS
  5
37A
 10
206.805701
 20
343.505195
 30
0.0
 11
206.80301
 21
343.50526
 31
0.0
  0
LINE
  8
LC-003-002-----0
  6
CONTINUOUS
  5
37B
 10
206.80301
 20
343.50526
 30
0.0
 11
206.802239
 21
343.505284
 31
0.0
  0
LINE
  8
LC-003-002-----0
  6
CONTINUOUS
  5
37C
 10
206.802239
 20
343.505284
 30
0.0
 11
206.801567
 21
343.505308
 31
0.0
  0
LINE
  8
LC-003-002-----0
  6
CONTINUOUS
  5
37D
 10
206.801567
 20
343.505308
 30
0.0
 11
206.791445
 21
343.505715
 31
0.0
  0
LINE
  8
LC-003-002-----0
  6
CONTINUOUS
  5
37E
 10
206.791445
 20
343.505715
 30
0.0
 11
206.776429
 21
343.506539
 31
0.0
  0
LINE
  8
LC-003-002-----0
  6
CONTINUOUS
  5
37F
 10
206.776429
 20
343.506539
 30
0.0
 11
206.760507
 21
343.507977
 31
0.0
  0
LINE
  8
LC-003-002-----0
  6
CONTINUOUS
  5
380
 10
206.760507
 20
343.507977
 30
0.0
 11
206.74551
 21
343.510145
 31
0.0
  0
LINE
  8
LC-003-002-----0
  6
CONTINUOUS
  5
381
 10
206.74551
 20
343.510145
 30
0.0
 11
206.728692
 21
343.51346
 31
0.0
  0
LINE
  8
LC-003-002-----0
  6
CONTINUOUS
  5
382
 10
206.728692
 20
343.51346
 30
0.0
 11
206.712629
 21
343.517081
 31
0.0
  0
LINE
  8
LC-003-002-----0
  6
CONTINUOUS
  5
383
 10
206.712629
 20
343.517081
 30
0.0
 11
206.701702
 21
343.51963
 31
0.0
  0
LINE
  8
LC-003-002-----0
  6
CONTINUOUS
  5
384
 10
206.701702
 20
343.51963
 30
0.0
 11
206.691111
 21
343.522287
 31
0.0
  0
LINE
  8
LC-003-002-----0
  6
CONTINUOUS
  5
385
 10
206.691111
 20
343.522287
 30
0.0
 11
206.67803
 21
343.52602
 31
0.0
  0
LINE
  8
LC-003-002-----0
  6
CONTINUOUS
  5
386
 10
206.67803
 20
343.52602
 30
0.0
 11
206.664189
 21
343.53061
 31
0.0
  0
LINE
  8
LC-003-002-----0
  6
CONTINUOUS
  5
387
 10
206.664189
 20
343.53061
 30
0.0
 11
206.647928
 21
343.53683
 31
0.0
  0
LINE
  8
LC-003-002-----0
  6
CONTINUOUS
  5
388
 10
206.647928
 20
343.53683
 30
0.0
 11
206.632542
 21
343.543169
 31
0.0
  0
LINE
  8
LC-003-002-----0
  6
CONTINUOUS
  5
389
 10
206.632542
 20
343.543169
 30
0.0
 11
206.622008
 21
343.547591
 31
0.0
  0
LINE
  8
LC-003-002-----0
  6
CONTINUOUS
  5
38A
 10
206.622008
 20
343.547591
 30
0.0
 11
206.61184
 21
343.552023
 31
0.0
  0
LINE
  8
LC-003-002-----0
  6
CONTINUOUS
  5
38B
 10
206.61184
 20
343.552023
 30
0.0
 11
206.598144
 21
343.558437
 31
0.0
  0
LINE
  8
LC-003-002-----0
  6
CONTINUOUS
  5
38C
 10
206.598144
 20
343.558437
 30
0.0
 11
206.584372
 21
343.565515
 31
0.0
  0
LINE
  8
LC-003-002-----0
  6
CONTINUOUS
  5
38D
 10
206.584372
 20
343.565515
 30
0.0
 11
206.568889
 21
343.574437
 31
0.0
  0
LINE
  8
LC-003-002-----0
  6
CONTINUOUS
  5
38E
 10
206.568889
 20
343.574437
 30
0.0
 11
206.553223
 21
343.58415
 31
0.0
  0
LINE
  8
LC-003-002-----0
  6
CONTINUOUS
  5
38F
 10
206.553223
 20
343.58415
 30
0.0
 11
206.527427
 21
343.60059
 31
0.0
  0
LINE
  8
LC-003-002-----0
  6
CONTINUOUS
  5
390
 10
206.527427
 20
343.60059
 30
0.0
 11
206.501183
 21
343.618883
 31
0.0
  0
LINE
  8
LC-003-002-----0
  6
CONTINUOUS
  5
391
 10
206.501183
 20
343.618883
 30
0.0
 11
206.481001
 21
343.635161
 31
0.0
  0
LINE
  8
LC-003-002-----0
  6
CONTINUOUS
  5
392
 10
206.481001
 20
343.635161
 30
0.0
 11
206.46281
 21
343.651512
 31
0.0
  0
LINE
  8
LC-003-002-----0
  6
CONTINUOUS
  5
393
 10
206.46281
 20
343.651512
 30
0.0
 11
206.452155
 21
343.661606
 31
0.0
  0
LINE
  8
LC-003-002-----0
  6
CONTINUOUS
  5
394
 10
206.452155
 20
343.661606
 30
0.0
 11
206.442501
 21
343.670928
 31
0.0
  0
LINE
  8
LC-003-002-----0
  6
CONTINUOUS
  5
395
 10
206.442501
 20
343.670928
 30
0.0
 11
206.437319
 21
343.675964
 31
0.0
  0
LINE
  8
LC-003-002-----0
  6
CONTINUOUS
  5
396
 10
206.437319
 20
343.675964
 30
0.0
 11
206.432031
 21
343.681197
 31
0.0
  0
LINE
  8
LC-003-002-----0
  6
CONTINUOUS
  5
397
 10
206.432031
 20
343.681197
 30
0.0
 11
206.424569
 21
343.688843
 31
0.0
  0
LINE
  8
LC-003-002-----0
  6
CONTINUOUS
  5
398
 10
206.424569
 20
343.688843
 30
0.0
 11
206.416474
 21
343.697591
 31
0.0
  0
LINE
  8
LC-003-002-----0
  6
CONTINUOUS
  5
399
 10
206.416474
 20
343.697591
 30
0.0
 11
206.407224
 21
343.708236
 31
0.0
  0
LINE
  8
LC-003-002-----0
  6
CONTINUOUS
  5
39A
 10
206.407224
 20
343.708236
 30
0.0
 11
206.398749
 21
343.718352
 31
0.0
  0
LINE
  8
LC-003-002-----0
  6
CONTINUOUS
  5
39B
 10
206.398749
 20
343.718352
 30
0.0
 11
206.393849
 21
343.724258
 31
0.0
  0
LINE
  8
LC-003-002-----0
  6
CONTINUOUS
  5
39C
 10
206.393849
 20
343.724258
 30
0.0
 11
206.389128
 21
343.730059
 31
0.0
  0
LINE
  8
LC-003-002-----0
  6
CONTINUOUS
  5
39D
 10
206.389128
 20
343.730059
 30
0.0
 11
206.382886
 21
343.738031
 31
0.0
  0
LINE
  8
LC-003-002-----0
  6
CONTINUOUS
  5
39E
 10
206.382886
 20
343.738031
 30
0.0
 11
206.37632
 21
343.746933
 31
0.0
  0
LINE
  8
LC-003-002-----0
  6
CONTINUOUS
  5
39F
 10
206.37632
 20
343.746933
 30
0.0
 11
206.369191
 21
343.757317
 31
0.0
  0
LINE
  8
LC-003-002-----0
  6
CONTINUOUS
  5
3A0
 10
206.369191
 20
343.757317
 30
0.0
 11
206.362652
 21
343.767249
 31
0.0
  0
LINE
  8
LC-003-002-----0
  6
CONTINUOUS
  5
3A1
 10
206.362652
 20
343.767249
 30
0.0
 11
206.358599
 21
343.773478
 31
0.0
  0
LINE
  8
LC-003-002-----0
  6
CONTINUOUS
  5
3A2
 10
206.358599
 20
343.773478
 30
0.0
 11
206.354701
 21
343.77962
 31
0.0
  0
LINE
  8
LC-003-002-----0
  6
CONTINUOUS
  5
3A3
 10
206.354701
 20
343.77962
 30
0.0
 11
206.349916
 21
343.787549
 31
0.0
  0
LINE
  8
LC-003-002-----0
  6
CONTINUOUS
  5
3A4
 10
206.349916
 20
343.787549
 30
0.0
 11
206.3451
 21
343.796155
 31
0.0
  0
LINE
  8
LC-003-002-----0
  6
CONTINUOUS
  5
3A5
 10
206.3451
 20
343.796155
 30
0.0
 11
206.340255
 21
343.805671
 31
0.0
  0
LINE
  8
LC-003-002-----0
  6
CONTINUOUS
  5
3A6
 10
206.340255
 20
343.805671
 30
0.0
 11
206.335719
 21
343.815107
 31
0.0
  0
LINE
  8
LC-003-002-----0
  6
CONTINUOUS
  5
3A7
 10
206.335719
 20
343.815107
 30
0.0
 11
206.332069
 21
343.822839
 31
0.0
  0
LINE
  8
LC-003-002-----0
  6
CONTINUOUS
  5
3A8
 10
206.332069
 20
343.822839
 30
0.0
 11
206.328625
 21
343.830523
 31
0.0
  0
LINE
  8
LC-003-002-----0
  6
CONTINUOUS
  5
3A9
 10
206.328625
 20
343.830523
 30
0.0
 11
206.325492
 21
343.838229
 31
0.0
  0
LINE
  8
LC-003-002-----0
  6
CONTINUOUS
  5
3AA
 10
206.325492
 20
343.838229
 30
0.0
 11
206.322687
 21
343.846031
 31
0.0
  0
LINE
  8
LC-003-002-----0
  6
CONTINUOUS
  5
3AB
 10
206.322687
 20
343.846031
 30
0.0
 11
206.320382
 21
343.853401
 31
0.0
  0
LINE
  8
LC-003-002-----0
  6
CONTINUOUS
  5
3AC
 10
206.320382
 20
343.853401
 30
0.0
 11
206.31837
 21
343.860417
 31
0.0
  0
LINE
  8
LC-003-002-----0
  6
CONTINUOUS
  5
3AD
 10
206.31837
 20
343.860417
 30
0.0
 11
206.316305
 21
343.86785
 31
0.0
  0
LINE
  8
LC-003-002-----0
  6
CONTINUOUS
  5
3AE
 10
206.316305
 20
343.86785
 30
0.0
 11
206.314423
 21
343.875275
 31
0.0
  0
LINE
  8
LC-003-002-----0
  6
CONTINUOUS
  5
3AF
 10
206.314423
 20
343.875275
 30
0.0
 11
206.31138
 21
343.89228
 31
0.0
  0
LINE
  8
LC-003-002-----0
  6
CONTINUOUS
  5
3B0
 10
206.31138
 20
343.89228
 30
0.0
 11
206.310104
 21
343.915139
 31
0.0
  0
ENDBLK
  8
0
  5
3B1
  0
BLOCK
  8
0
  5
3B3
  2
BLK40
 70
    64
 10
241.519075
 20
343.505124
 30
0.0
  3
BLK40
  0
LINE
  8
LC-003-002-----0
  6
CONTINUOUS
  5
3B4
 10
241.519075
 20
343.505124
 30
0.0
 11
241.50487
 21
343.505534
 31
0.0
  0
LINE
  8
LC-003-002-----0
  6
CONTINUOUS
  5
3B5
 10
241.50487
 20
343.505534
 30
0.0
 11
241.49522
 21
343.506158
 31
0.0
  0
LINE
  8
LC-003-002-----0
  6
CONTINUOUS
  5
3B6
 10
241.49522
 20
343.506158
 30
0.0
 11
241.491751
 21
343.506476
 31
0.0
  0
LINE
  8
LC-003-002-----0
  6
CONTINUOUS
  5
3B7
 10
241.491751
 20
343.506476
 30
0.0
 11
241.488171
 21
343.506843
 31
0.0
  0
LINE
  8
LC-003-002-----0
  6
CONTINUOUS
  5
3B8
 10
241.488171
 20
343.506843
 30
0.0
 11
241.478079
 21
343.507928
 31
0.0
  0
LINE
  8
LC-003-002-----0
  6
CONTINUOUS
  5
3B9
 10
241.478079
 20
343.507928
 30
0.0
 11
241.466191
 21
343.509416
 31
0.0
  0
LINE
  8
LC-003-002-----0
  6
CONTINUOUS
  5
3BA
 10
241.466191
 20
343.509416
 30
0.0
 11
241.452674
 21
343.511655
 31
0.0
  0
LINE
  8
LC-003-002-----0
  6
CONTINUOUS
  5
3BB
 10
241.452674
 20
343.511655
 30
0.0
 11
241.439631
 21
343.514644
 31
0.0
  0
LINE
  8
LC-003-002-----0
  6
CONTINUOUS
  5
3BC
 10
241.439631
 20
343.514644
 30
0.0
 11
241.425347
 21
343.518953
 31
0.0
  0
LINE
  8
LC-003-002-----0
  6
CONTINUOUS
  5
3BD
 10
241.425347
 20
343.518953
 30
0.0
 11
241.411218
 21
343.523819
 31
0.0
  0
LINE
  8
LC-003-002-----0
  6
CONTINUOUS
  5
3BE
 10
241.411218
 20
343.523819
 30
0.0
 11
241.398362
 21
343.52843
 31
0.0
  0
LINE
  8
LC-003-002-----0
  6
CONTINUOUS
  5
3BF
 10
241.398362
 20
343.52843
 30
0.0
 11
241.385862
 21
343.533456
 31
0.0
  0
LINE
  8
LC-003-002-----0
  6
CONTINUOUS
  5
3C0
 10
241.385862
 20
343.533456
 30
0.0
 11
241.375156
 21
343.538566
 31
0.0
  0
LINE
  8
LC-003-002-----0
  6
CONTINUOUS
  5
3C1
 10
241.375156
 20
343.538566
 30
0.0
 11
241.365215
 21
343.543988
 31
0.0
  0
LINE
  8
LC-003-002-----0
  6
CONTINUOUS
  5
3C2
 10
241.365215
 20
343.543988
 30
0.0
 11
241.357464
 21
343.548643
 31
0.0
  0
LINE
  8
LC-003-002-----0
  6
CONTINUOUS
  5
3C3
 10
241.357464
 20
343.548643
 30
0.0
 11
241.349654
 21
343.55357
 31
0.0
  0
LINE
  8
LC-003-002-----0
  6
CONTINUOUS
  5
3C4
 10
241.349654
 20
343.55357
 30
0.0
 11
241.337511
 21
343.561392
 31
0.0
  0
LINE
  8
LC-003-002-----0
  6
CONTINUOUS
  5
3C5
 10
241.337511
 20
343.561392
 30
0.0
 11
241.325042
 21
343.57003
 31
0.0
  0
LINE
  8
LC-003-002-----0
  6
CONTINUOUS
  5
3C6
 10
241.325042
 20
343.57003
 30
0.0
 11
241.313916
 21
343.578802
 31
0.0
  0
LINE
  8
LC-003-002-----0
  6
CONTINUOUS
  5
3C7
 10
241.313916
 20
343.578802
 30
0.0
 11
241.304472
 21
343.587248
 31
0.0
  0
LINE
  8
LC-003-002-----0
  6
CONTINUOUS
  5
3C8
 10
241.304472
 20
343.587248
 30
0.0
 11
241.297036
 21
343.594736
 31
0.0
  0
LINE
  8
LC-003-002-----0
  6
CONTINUOUS
  5
3C9
 10
241.297036
 20
343.594736
 30
0.0
 11
241.289864
 21
343.602546
 31
0.0
  0
LINE
  8
LC-003-002-----0
  6
CONTINUOUS
  5
3CA
 10
241.289864
 20
343.602546
 30
0.0
 11
241.269269
 21
343.625862
 31
0.0
  0
LINE
  8
LC-003-002-----0
  6
CONTINUOUS
  5
3CB
 10
241.269269
 20
343.625862
 30
0.0
 11
241.24771
 21
343.653791
 31
0.0
  0
LINE
  8
LC-003-002-----0
  6
CONTINUOUS
  5
3CC
 10
241.24771
 20
343.653791
 30
0.0
 11
241.230622
 21
343.684033
 31
0.0
  0
LINE
  8
LC-003-002-----0
  6
CONTINUOUS
  5
3CD
 10
241.230622
 20
343.684033
 30
0.0
 11
241.21928
 21
343.717961
 31
0.0
  0
LINE
  8
LC-003-002-----0
  6
CONTINUOUS
  5
3CE
 10
241.21928
 20
343.717961
 30
0.0
 11
241.214913
 21
343.741046
 31
0.0
  0
LINE
  8
LC-003-002-----0
  6
CONTINUOUS
  5
3CF
 10
241.214913
 20
343.741046
 30
0.0
 11
241.212231
 21
343.761685
 31
0.0
  0
LINE
  8
LC-003-002-----0
  6
CONTINUOUS
  5
3D0
 10
241.212231
 20
343.761685
 30
0.0
 11
241.210945
 21
343.77484
 31
0.0
  0
LINE
  8
LC-003-002-----0
  6
CONTINUOUS
  5
3D1
 10
241.210945
 20
343.77484
 30
0.0
 11
241.210832
 21
343.77618
 31
0.0
  0
LINE
  8
LC-003-002-----0
  6
CONTINUOUS
  5
3D2
 10
241.210832
 20
343.77618
 30
0.0
 11
241.210728
 21
343.77777
 31
0.0
  0
LINE
  8
LC-003-002-----0
  6
CONTINUOUS
  5
3D3
 10
241.210728
 20
343.77777
 30
0.0
 11
241.210523
 21
343.7829
 31
0.0
  0
LINE
  8
LC-003-002-----0
  6
CONTINUOUS
  5
3D4
 10
241.210523
 20
343.7829
 30
0.0
 11
241.210417
 21
343.791128
 31
0.0
  0
ENDBLK
  8
0
  5
3D5
  0
BLOCK
  8
0
  5
3D7
  2
BLK41
 70
    64
 10
244.398119
 20
344.17601
 30
0.0
  3
BLK41
  0
LINE
  8
LC-003-002-----0
  6
CONTINUOUS
  5
3D8
 10
244.398119
 20
344.17601
 30
0.0
 11
244.315321
 21
344.166668
 31
0.0
  0
LINE
  8
LC-003-002-----0
  6
CONTINUOUS
  5
3D9
 10
244.315321
 20
344.166668
 30
0.0
 11
244.256398
 21
344.143703
 31
0.0
  0
LINE
  8
LC-003-002-----0
  6
CONTINUOUS
  5
3DA
 10
244.256398
 20
344.143703
 30
0.0
 11
244.228882
 21
344.127403
 31
0.0
  0
LINE
  8
LC-003-002-----0
  6
CONTINUOUS
  5
3DB
 10
244.228882
 20
344.127403
 30
0.0
 11
244.204286
 21
344.110831
 31
0.0
  0
LINE
  8
LC-003-002-----0
  6
CONTINUOUS
  5
3DC
 10
244.204286
 20
344.110831
 30
0.0
 11
244.181556
 21
344.094925
 31
0.0
  0
LINE
  8
LC-003-002-----0
  6
CONTINUOUS
  5
3DD
 10
244.181556
 20
344.094925
 30
0.0
 11
244.159139
 21
344.077805
 31
0.0
  0
LINE
  8
LC-003-002-----0
  6
CONTINUOUS
  5
3DE
 10
244.159139
 20
344.077805
 30
0.0
 11
244.096991
 21
344.016886
 31
0.0
  0
LINE
  8
LC-003-002-----0
  6
CONTINUOUS
  5
3DF
 10
244.096991
 20
344.016886
 30
0.0
 11
244.020116
 21
343.915139
 31
0.0
  0
ENDBLK
  8
0
  5
3E0
  0
BLOCK
  8
0
  5
3E2
  2
BLK42
 70
    64
 10
273.217481
 20
343.915139
 30
0.0
  3
BLK42
  0
LINE
  8
LC-003-002-----0
  6
CONTINUOUS
  5
3E3
 10
273.217481
 20
343.915139
 30
0.0
 11
273.197203
 21
343.89895
 31
0.0
  0
LINE
  8
LC-003-002-----0
  6
CONTINUOUS
  5
3E4
 10
273.197203
 20
343.89895
 30
0.0
 11
273.179097
 21
343.884705
 31
0.0
  0
LINE
  8
LC-003-002-----0
  6
CONTINUOUS
  5
3E5
 10
273.179097
 20
343.884705
 30
0.0
 11
273.164856
 21
343.873672
 31
0.0
  0
LINE
  8
LC-003-002-----0
  6
CONTINUOUS
  5
3E6
 10
273.164856
 20
343.873672
 30
0.0
 11
273.150482
 21
343.862628
 31
0.0
  0
LINE
  8
LC-003-002-----0
  6
CONTINUOUS
  5
3E7
 10
273.150482
 20
343.862628
 30
0.0
 11
273.131449
 21
343.84804
 31
0.0
  0
LINE
  8
LC-003-002-----0
  6
CONTINUOUS
  5
3E8
 10
273.131449
 20
343.84804
 30
0.0
 11
273.111461
 21
343.832819
 31
0.0
  0
LINE
  8
LC-003-002-----0
  6
CONTINUOUS
  5
3E9
 10
273.111461
 20
343.832819
 30
0.0
 11
273.088673
 21
343.815677
 31
0.0
  0
LINE
  8
LC-003-002-----0
  6
CONTINUOUS
  5
3EA
 10
273.088673
 20
343.815677
 30
0.0
 11
273.06662
 21
343.79932
 31
0.0
  0
LINE
  8
LC-003-002-----0
  6
CONTINUOUS
  5
3EB
 10
273.06662
 20
343.79932
 30
0.0
 11
273.045969
 21
343.784222
 31
0.0
  0
LINE
  8
LC-003-002-----0
  6
CONTINUOUS
  5
3EC
 10
273.045969
 20
343.784222
 30
0.0
 11
273.024489
 21
343.768656
 31
0.0
  0
LINE
  8
LC-003-002-----0
  6
CONTINUOUS
  5
3ED
 10
273.024489
 20
343.768656
 30
0.0
 11
272.989213
 21
343.7432
 31
0.0
  0
LINE
  8
LC-003-002-----0
  6
CONTINUOUS
  5
3EE
 10
272.989213
 20
343.7432
 30
0.0
 11
272.952657
 21
343.717246
 31
0.0
  0
LINE
  8
LC-003-002-----0
  6
CONTINUOUS
  5
3EF
 10
272.952657
 20
343.717246
 30
0.0
 11
272.928922
 21
343.700857
 31
0.0
  0
LINE
  8
LC-003-002-----0
  6
CONTINUOUS
  5
3F0
 10
272.928922
 20
343.700857
 30
0.0
 11
272.908211
 21
343.686869
 31
0.0
  0
LINE
  8
LC-003-002-----0
  6
CONTINUOUS
  5
3F1
 10
272.908211
 20
343.686869
 30
0.0
 11
272.89649
 21
343.679063
 31
0.0
  0
LINE
  8
LC-003-002-----0
  6
CONTINUOUS
  5
3F2
 10
272.89649
 20
343.679063
 30
0.0
 11
272.884148
 21
343.670893
 31
0.0
  0
LINE
  8
LC-003-002-----0
  6
CONTINUOUS
  5
3F3
 10
272.884148
 20
343.670893
 30
0.0
 11
272.858913
 21
343.654259
 31
0.0
  0
LINE
  8
LC-003-002-----0
  6
CONTINUOUS
  5
3F4
 10
272.858913
 20
343.654259
 30
0.0
 11
272.831097
 21
343.636242
 31
0.0
  0
LINE
  8
LC-003-002-----0
  6
CONTINUOUS
  5
3F5
 10
272.831097
 20
343.636242
 30
0.0
 11
272.807665
 21
343.621595
 31
0.0
  0
LINE
  8
LC-003-002-----0
  6
CONTINUOUS
  5
3F6
 10
272.807665
 20
343.621595
 30
0.0
 11
272.784757
 21
343.607963
 31
0.0
  0
LINE
  8
LC-003-002-----0
  6
CONTINUOUS
  5
3F7
 10
272.784757
 20
343.607963
 30
0.0
 11
272.764004
 21
343.596193
 31
0.0
  0
LINE
  8
LC-003-002-----0
  6
CONTINUOUS
  5
3F8
 10
272.764004
 20
343.596193
 30
0.0
 11
272.743604
 21
343.584906
 31
0.0
  0
LINE
  8
LC-003-002-----0
  6
CONTINUOUS
  5
3F9
 10
272.743604
 20
343.584906
 30
0.0
 11
272.728935
 21
343.57686
 31
0.0
  0
LINE
  8
LC-003-002-----0
  6
CONTINUOUS
  5
3FA
 10
272.728935
 20
343.57686
 30
0.0
 11
272.714261
 21
343.569029
 31
0.0
  0
LINE
  8
LC-003-002-----0
  6
CONTINUOUS
  5
3FB
 10
272.714261
 20
343.569029
 30
0.0
 11
272.700095
 21
343.561818
 31
0.0
  0
LINE
  8
LC-003-002-----0
  6
CONTINUOUS
  5
3FC
 10
272.700095
 20
343.561818
 30
0.0
 11
272.686277
 21
343.555165
 31
0.0
  0
LINE
  8
LC-003-002-----0
  6
CONTINUOUS
  5
3FD
 10
272.686277
 20
343.555165
 30
0.0
 11
272.674294
 21
343.549768
 31
0.0
  0
LINE
  8
LC-003-002-----0
  6
CONTINUOUS
  5
3FE
 10
272.674294
 20
343.549768
 30
0.0
 11
272.661944
 21
343.544441
 31
0.0
  0
LINE
  8
LC-003-002-----0
  6
CONTINUOUS
  5
3FF
 10
272.661944
 20
343.544441
 30
0.0
 11
272.637448
 21
343.534081
 31
0.0
  0
LINE
  8
LC-003-002-----0
  6
CONTINUOUS
  5
400
 10
272.637448
 20
343.534081
 30
0.0
 11
272.610708
 21
343.52355
 31
0.0
  0
LINE
  8
LC-003-002-----0
  6
CONTINUOUS
  5
401
 10
272.610708
 20
343.52355
 30
0.0
 11
272.584746
 21
343.515037
 31
0.0
  0
LINE
  8
LC-003-002-----0
  6
CONTINUOUS
  5
402
 10
272.584746
 20
343.515037
 30
0.0
 11
272.556805
 21
343.50908
 31
0.0
  0
LINE
  8
LC-003-002-----0
  6
CONTINUOUS
  5
403
 10
272.556805
 20
343.50908
 30
0.0
 11
272.543448
 21
343.5074
 31
0.0
  0
LINE
  8
LC-003-002-----0
  6
CONTINUOUS
  5
404
 10
272.543448
 20
343.5074
 30
0.0
 11
272.530952
 21
343.506254
 31
0.0
  0
LINE
  8
LC-003-002-----0
  6
CONTINUOUS
  5
405
 10
272.530952
 20
343.506254
 30
0.0
 11
272.52116
 21
343.505571
 31
0.0
  0
LINE
  8
LC-003-002-----0
  6
CONTINUOUS
  5
406
 10
272.52116
 20
343.505571
 30
0.0
 11
272.515915
 21
343.505281
 31
0.0
  0
LINE
  8
LC-003-002-----0
  6
CONTINUOUS
  5
407
 10
272.515915
 20
343.505281
 30
0.0
 11
272.51565
 21
343.505268
 31
0.0
  0
LINE
  8
LC-003-002-----0
  6
CONTINUOUS
  5
408
 10
272.51565
 20
343.505268
 30
0.0
 11
272.515244
 21
343.505251
 31
0.0
  0
LINE
  8
LC-003-002-----0
  6
CONTINUOUS
  5
409
 10
272.515244
 20
343.505251
 30
0.0
 11
272.513469
 21
343.505194
 31
0.0
  0
LINE
  8
LC-003-002-----0
  6
CONTINUOUS
  5
40A
 10
272.513469
 20
343.505194
 30
0.0
 11
272.510375
 21
343.505124
 31
0.0
  0
ENDBLK
  8
0
  5
40B
  0
BLOCK
  8
0
  5
40D
  2
BLK43
 70
    64
 10
271.096161
 20
343.505124
 30
0.0
  3
BLK43
  0
LINE
  8
LC-003-002-----0
  6
CONTINUOUS
  5
40E
 10
271.096161
 20
343.505124
 30
0.0
 11
271.086622
 21
343.505449
 31
0.0
  0
LINE
  8
LC-003-002-----0
  6
CONTINUOUS
  5
40F
 10
271.086622
 20
343.505449
 30
0.0
 11
271.080623
 21
343.505875
 31
0.0
  0
LINE
  8
LC-003-002-----0
  6
CONTINUOUS
  5
410
 10
271.080623
 20
343.505875
 30
0.0
 11
271.078744
 21
343.506076
 31
0.0
  0
LINE
  8
LC-003-002-----0
  6
CONTINUOUS
  5
411
 10
271.078744
 20
343.506076
 30
0.0
 11
271.076971
 21
343.506308
 31
0.0
  0
LINE
  8
LC-003-002-----0
  6
CONTINUOUS
  5
412
 10
271.076971
 20
343.506308
 30
0.0
 11
271.055136
 21
343.509887
 31
0.0
  0
LINE
  8
LC-003-002-----0
  6
CONTINUOUS
  5
413
 10
271.055136
 20
343.509887
 30
0.0
 11
271.026105
 21
343.51822
 31
0.0
  0
LINE
  8
LC-003-002-----0
  6
CONTINUOUS
  5
414
 10
271.026105
 20
343.51822
 30
0.0
 11
271.009452
 21
343.527666
 31
0.0
  0
LINE
  8
LC-003-002-----0
  6
CONTINUOUS
  5
415
 10
271.009452
 20
343.527666
 30
0.0
 11
270.997384
 21
343.538258
 31
0.0
  0
LINE
  8
LC-003-002-----0
  6
CONTINUOUS
  5
416
 10
270.997384
 20
343.538258
 30
0.0
 11
270.991348
 21
343.544803
 31
0.0
  0
LINE
  8
LC-003-002-----0
  6
CONTINUOUS
  5
417
 10
270.991348
 20
343.544803
 30
0.0
 11
270.985894
 21
343.551227
 31
0.0
  0
LINE
  8
LC-003-002-----0
  6
CONTINUOUS
  5
418
 10
270.985894
 20
343.551227
 30
0.0
 11
270.977435
 21
343.561606
 31
0.0
  0
LINE
  8
LC-003-002-----0
  6
CONTINUOUS
  5
419
 10
270.977435
 20
343.561606
 30
0.0
 11
270.969334
 21
343.573161
 31
0.0
  0
LINE
  8
LC-003-002-----0
  6
CONTINUOUS
  5
41A
 10
270.969334
 20
343.573161
 30
0.0
 11
270.955204
 21
343.607107
 31
0.0
  0
LINE
  8
LC-003-002-----0
  6
CONTINUOUS
  5
41B
 10
270.955204
 20
343.607107
 30
0.0
 11
270.949714
 21
343.657613
 31
0.0
  0
ENDBLK
  8
0
  5
41C
  0
BLOCK
  8
0
  5
41E
  2
BLK44
 70
    64
 10
273.217481
 20
347.17601
 30
0.0
  3
BLK44
  0
LINE
  8
LC-003-002-----0
  6
CONTINUOUS
  5
41F
 10
273.217481
 20
347.17601
 30
0.0
 11
273.223899
 21
347.281905
 31
0.0
  0
LINE
  8
LC-003-002-----0
  6
CONTINUOUS
  5
420
 10
273.223899
 20
347.281905
 30
0.0
 11
273.243498
 21
347.362917
 31
0.0
  0
LINE
  8
LC-003-002-----0
  6
CONTINUOUS
  5
421
 10
273.243498
 20
347.362917
 30
0.0
 11
273.272717
 21
347.44224
 31
0.0
  0
LINE
  8
LC-003-002-----0
  6
CONTINUOUS
  5
422
 10
273.272717
 20
347.44224
 30
0.0
 11
273.305299
 21
347.511529
 31
0.0
  0
LINE
  8
LC-003-002-----0
  6
CONTINUOUS
  5
423
 10
273.305299
 20
347.511529
 30
0.0
 11
273.320267
 21
347.535385
 31
0.0
  0
LINE
  8
LC-003-002-----0
  6
CONTINUOUS
  5
424
 10
273.320267
 20
347.535385
 30
0.0
 11
273.33871
 21
347.557416
 31
0.0
  0
LINE
  8
LC-003-002-----0
  6
CONTINUOUS
  5
425
 10
273.33871
 20
347.557416
 30
0.0
 11
273.387859
 21
347.602109
 31
0.0
  0
LINE
  8
LC-003-002-----0
  6
CONTINUOUS
  5
426
 10
273.387859
 20
347.602109
 30
0.0
 11
273.445535
 21
347.643631
 31
0.0
  0
LINE
  8
LC-003-002-----0
  6
CONTINUOUS
  5
427
 10
273.445535
 20
347.643631
 30
0.0
 11
273.497864
 21
347.667818
 31
0.0
  0
LINE
  8
LC-003-002-----0
  6
CONTINUOUS
  5
428
 10
273.497864
 20
347.667818
 30
0.0
 11
273.571035
 21
347.67601
 31
0.0
  0
ENDBLK
  8
0
  5
429
  0
BLOCK
  8
0
  5
42B
  2
BLK45
 70
    64
 10
273.915941
 20
344.17601
 30
0.0
  3
BLK45
  0
LINE
  8
LC-003-002-----0
  6
CONTINUOUS
  5
42C
 10
273.915941
 20
344.17601
 30
0.0
 11
273.831377
 21
344.172979
 31
0.0
  0
LINE
  8
LC-003-002-----0
  6
CONTINUOUS
  5
42D
 10
273.831377
 20
344.172979
 30
0.0
 11
273.773003
 21
344.16616
 31
0.0
  0
LINE
  8
LC-003-002-----0
  6
CONTINUOUS
  5
42E
 10
273.773003
 20
344.16616
 30
0.0
 11
273.753251
 21
344.162875
 31
0.0
  0
LINE
  8
LC-003-002-----0
  6
CONTINUOUS
  5
42F
 10
273.753251
 20
344.162875
 30
0.0
 11
273.732569
 21
344.159132
 31
0.0
  0
LINE
  8
LC-003-002-----0
  6
CONTINUOUS
  5
430
 10
273.732569
 20
344.159132
 30
0.0
 11
273.704837
 21
344.153934
 31
0.0
  0
LINE
  8
LC-003-002-----0
  6
CONTINUOUS
  5
431
 10
273.704837
 20
344.153934
 30
0.0
 11
273.674564
 21
344.147582
 31
0.0
  0
LINE
  8
LC-003-002-----0
  6
CONTINUOUS
  5
432
 10
273.674564
 20
344.147582
 30
0.0
 11
273.644253
 21
344.139943
 31
0.0
  0
LINE
  8
LC-003-002-----0
  6
CONTINUOUS
  5
433
 10
273.644253
 20
344.139943
 30
0.0
 11
273.614821
 21
344.131133
 31
0.0
  0
LINE
  8
LC-003-002-----0
  6
CONTINUOUS
  5
434
 10
273.614821
 20
344.131133
 30
0.0
 11
273.585734
 21
344.121135
 31
0.0
  0
LINE
  8
LC-003-002-----0
  6
CONTINUOUS
  5
435
 10
273.585734
 20
344.121135
 30
0.0
 11
273.556436
 21
344.110328
 31
0.0
  0
LINE
  8
LC-003-002-----0
  6
CONTINUOUS
  5
436
 10
273.556436
 20
344.110328
 30
0.0
 11
273.522709
 21
344.097578
 31
0.0
  0
LINE
  8
LC-003-002-----0
  6
CONTINUOUS
  5
437
 10
273.522709
 20
344.097578
 30
0.0
 11
273.488978
 21
344.083819
 31
0.0
  0
LINE
  8
LC-003-002-----0
  6
CONTINUOUS
  5
438
 10
273.488978
 20
344.083819
 30
0.0
 11
273.459006
 21
344.069982
 31
0.0
  0
LINE
  8
LC-003-002-----0
  6
CONTINUOUS
  5
439
 10
273.459006
 20
344.069982
 30
0.0
 11
273.430892
 21
344.055575
 31
0.0
  0
LINE
  8
LC-003-002-----0
  6
CONTINUOUS
  5
43A
 10
273.430892
 20
344.055575
 30
0.0
 11
273.407624
 21
344.042731
 31
0.0
  0
LINE
  8
LC-003-002-----0
  6
CONTINUOUS
  5
43B
 10
273.407624
 20
344.042731
 30
0.0
 11
273.385537
 21
344.030069
 31
0.0
  0
LINE
  8
LC-003-002-----0
  6
CONTINUOUS
  5
43C
 10
273.385537
 20
344.030069
 30
0.0
 11
273.358657
 21
344.014436
 31
0.0
  0
LINE
  8
LC-003-002-----0
  6
CONTINUOUS
  5
43D
 10
273.358657
 20
344.014436
 30
0.0
 11
273.331573
 21
343.997961
 31
0.0
  0
LINE
  8
LC-003-002-----0
  6
CONTINUOUS
  5
43E
 10
273.331573
 20
343.997961
 30
0.0
 11
273.279937
 21
343.962998
 31
0.0
  0
LINE
  8
LC-003-002-----0
  6
CONTINUOUS
  5
43F
 10
273.279937
 20
343.962998
 30
0.0
 11
273.217481
 21
343.915139
 31
0.0
  0
ENDBLK
  8
0
  5
440
  0
BLOCK
  8
0
  5
442
  2
BLK46
 70
    64
 10
270.949714
 20
347.17601
 30
0.0
  3
BLK46
  0
LINE
  8
LC-003-002-----0
  6
CONTINUOUS
  5
443
 10
270.949714
 20
347.17601
 30
0.0
 11
270.951304
 21
347.243028
 31
0.0
  0
LINE
  8
LC-003-002-----0
  6
CONTINUOUS
  5
444
 10
270.951304
 20
347.243028
 30
0.0
 11
270.954826
 21
347.288899
 31
0.0
  0
LINE
  8
LC-003-002-----0
  6
CONTINUOUS
  5
445
 10
270.954826
 20
347.288899
 30
0.0
 11
270.956429
 21
347.303666
 31
0.0
  0
LINE
  8
LC-003-002-----0
  6
CONTINUOUS
  5
446
 10
270.956429
 20
347.303666
 30
0.0
 11
270.958259
 21
347.319239
 31
0.0
  0
LINE
  8
LC-003-002-----0
  6
CONTINUOUS
  5
447
 10
270.958259
 20
347.319239
 30
0.0
 11
270.960866
 21
347.340663
 31
0.0
  0
LINE
  8
LC-003-002-----0
  6
CONTINUOUS
  5
448
 10
270.960866
 20
347.340663
 30
0.0
 11
270.964079
 21
347.364245
 31
0.0
  0
LINE
  8
LC-003-002-----0
  6
CONTINUOUS
  5
449
 10
270.964079
 20
347.364245
 30
0.0
 11
270.967813
 21
347.387265
 31
0.0
  0
LINE
  8
LC-003-002-----0
  6
CONTINUOUS
  5
44A
 10
270.967813
 20
347.387265
 30
0.0
 11
270.971563
 21
347.407254
 31
0.0
  0
LINE
  8
LC-003-002-----0
  6
CONTINUOUS
  5
44B
 10
270.971563
 20
347.407254
 30
0.0
 11
270.974936
 21
347.422897
 31
0.0
  0
LINE
  8
LC-003-002-----0
  6
CONTINUOUS
  5
44C
 10
270.974936
 20
347.422897
 30
0.0
 11
270.978485
 21
347.437773
 31
0.0
  0
LINE
  8
LC-003-002-----0
  6
CONTINUOUS
  5
44D
 10
270.978485
 20
347.437773
 30
0.0
 11
270.997969
 21
347.514784
 31
0.0
  0
LINE
  8
LC-003-002-----0
  6
CONTINUOUS
  5
44E
 10
270.997969
 20
347.514784
 30
0.0
 11
271.026392
 21
347.60886
 31
0.0
  0
LINE
  8
LC-003-002-----0
  6
CONTINUOUS
  5
44F
 10
271.026392
 20
347.60886
 30
0.0
 11
271.061815
 21
347.693774
 31
0.0
  0
LINE
  8
LC-003-002-----0
  6
CONTINUOUS
  5
450
 10
271.061815
 20
347.693774
 30
0.0
 11
271.108393
 21
347.772305
 31
0.0
  0
LINE
  8
LC-003-002-----0
  6
CONTINUOUS
  5
451
 10
271.108393
 20
347.772305
 30
0.0
 11
271.163787
 21
347.845385
 31
0.0
  0
LINE
  8
LC-003-002-----0
  6
CONTINUOUS
  5
452
 10
271.163787
 20
347.845385
 30
0.0
 11
271.211577
 21
347.902108
 31
0.0
  0
LINE
  8
LC-003-002-----0
  6
CONTINUOUS
  5
453
 10
271.211577
 20
347.902108
 30
0.0
 11
271.221357
 21
347.913371
 31
0.0
  0
LINE
  8
LC-003-002-----0
  6
CONTINUOUS
  5
454
 10
271.221357
 20
347.913371
 30
0.0
 11
271.231783
 21
347.924864
 31
0.0
  0
LINE
  8
LC-003-002-----0
  6
CONTINUOUS
  5
455
 10
271.231783
 20
347.924864
 30
0.0
 11
271.248121
 21
347.941779
 31
0.0
  0
LINE
  8
LC-003-002-----0
  6
CONTINUOUS
  5
456
 10
271.248121
 20
347.941779
 30
0.0
 11
271.26776
 21
347.960572
 31
0.0
  0
LINE
  8
LC-003-002-----0
  6
CONTINUOUS
  5
457
 10
271.26776
 20
347.960572
 30
0.0
 11
271.291262
 21
347.980888
 31
0.0
  0
LINE
  8
LC-003-002-----0
  6
CONTINUOUS
  5
458
 10
271.291262
 20
347.980888
 30
0.0
 11
271.315589
 21
348.000634
 31
0.0
  0
LINE
  8
LC-003-002-----0
  6
CONTINUOUS
  5
459
 10
271.315589
 20
348.000634
 30
0.0
 11
271.340307
 21
348.020273
 31
0.0
  0
LINE
  8
LC-003-002-----0
  6
CONTINUOUS
  5
45A
 10
271.340307
 20
348.020273
 30
0.0
 11
271.365451
 21
348.038963
 31
0.0
  0
LINE
  8
LC-003-002-----0
  6
CONTINUOUS
  5
45B
 10
271.365451
 20
348.038963
 30
0.0
 11
271.387507
 21
348.05362
 31
0.0
  0
LINE
  8
LC-003-002-----0
  6
CONTINUOUS
  5
45C
 10
271.387507
 20
348.05362
 30
0.0
 11
271.407392
 21
348.065655
 31
0.0
  0
LINE
  8
LC-003-002-----0
  6
CONTINUOUS
  5
45D
 10
271.407392
 20
348.065655
 30
0.0
 11
271.420964
 21
348.073256
 31
0.0
  0
LINE
  8
LC-003-002-----0
  6
CONTINUOUS
  5
45E
 10
271.420964
 20
348.073256
 30
0.0
 11
271.433657
 21
348.080003
 31
0.0
  0
LINE
  8
LC-003-002-----0
  6
CONTINUOUS
  5
45F
 10
271.433657
 20
348.080003
 30
0.0
 11
271.477165
 21
348.102421
 31
0.0
  0
LINE
  8
LC-003-002-----0
  6
CONTINUOUS
  5
460
 10
271.477165
 20
348.102421
 30
0.0
 11
271.529145
 21
348.126365
 31
0.0
  0
LINE
  8
LC-003-002-----0
  6
CONTINUOUS
  5
461
 10
271.529145
 20
348.126365
 30
0.0
 11
271.647011
 21
348.162374
 31
0.0
  0
LINE
  8
LC-003-002-----0
  6
CONTINUOUS
  5
462
 10
271.647011
 20
348.162374
 30
0.0
 11
271.803268
 21
348.17601
 31
0.0
  0
ENDBLK
  8
0
  5
463
  0
BLOCK
  8
0
  5
465
  2
BLK47
 70
    64
 10
142.402727
 20
347.17601
 30
0.0
  3
BLK47
  0
LINE
  8
LC-003-002-----0
  6
CONTINUOUS
  5
466
 10
142.402727
 20
347.17601
 30
0.0
 11
142.39631
 21
347.281905
 31
0.0
  0
LINE
  8
LC-003-002-----0
  6
CONTINUOUS
  5
467
 10
142.39631
 20
347.281905
 30
0.0
 11
142.376711
 21
347.362917
 31
0.0
  0
LINE
  8
LC-003-002-----0
  6
CONTINUOUS
  5
468
 10
142.376711
 20
347.362917
 30
0.0
 11
142.347491
 21
347.44224
 31
0.0
  0
LINE
  8
LC-003-002-----0
  6
CONTINUOUS
  5
469
 10
142.347491
 20
347.44224
 30
0.0
 11
142.314909
 21
347.511529
 31
0.0
  0
LINE
  8
LC-003-002-----0
  6
CONTINUOUS
  5
46A
 10
142.314909
 20
347.511529
 30
0.0
 11
142.299941
 21
347.535385
 31
0.0
  0
LINE
  8
LC-003-002-----0
  6
CONTINUOUS
  5
46B
 10
142.299941
 20
347.535385
 30
0.0
 11
142.281498
 21
347.557416
 31
0.0
  0
LINE
  8
LC-003-002-----0
  6
CONTINUOUS
  5
46C
 10
142.281498
 20
347.557416
 30
0.0
 11
142.232349
 21
347.602109
 31
0.0
  0
LINE
  8
LC-003-002-----0
  6
CONTINUOUS
  5
46D
 10
142.232349
 20
347.602109
 30
0.0
 11
142.174673
 21
347.643631
 31
0.0
  0
LINE
  8
LC-003-002-----0
  6
CONTINUOUS
  5
46E
 10
142.174673
 20
347.643631
 30
0.0
 11
142.122344
 21
347.667818
 31
0.0
  0
LINE
  8
LC-003-002-----0
  6
CONTINUOUS
  5
46F
 10
142.122344
 20
347.667818
 30
0.0
 11
142.049173
 21
347.67601
 31
0.0
  0
ENDBLK
  8
0
  5
470
  0
BLOCK
  8
0
  5
472
  2
BLK48
 70
    64
 10
244.020116
 20
347.17601
 30
0.0
  3
BLK48
  0
LINE
  8
LC-003-002-----0
  6
CONTINUOUS
  5
473
 10
244.020116
 20
347.17601
 30
0.0
 11
244.0237
 21
347.282678
 31
0.0
  0
LINE
  8
LC-003-002-----0
  6
CONTINUOUS
  5
474
 10
244.0237
 20
347.282678
 30
0.0
 11
244.034775
 21
347.366059
 31
0.0
  0
LINE
  8
LC-003-002-----0
  6
CONTINUOUS
  5
475
 10
244.034775
 20
347.366059
 30
0.0
 11
244.050644
 21
347.444964
 31
0.0
  0
LINE
  8
LC-003-002-----0
  6
CONTINUOUS
  5
476
 10
244.050644
 20
347.444964
 30
0.0
 11
244.068797
 21
347.515054
 31
0.0
  0
LINE
  8
LC-003-002-----0
  6
CONTINUOUS
  5
477
 10
244.068797
 20
347.515054
 30
0.0
 11
244.076982
 21
347.538473
 31
0.0
  0
LINE
  8
LC-003-002-----0
  6
CONTINUOUS
  5
478
 10
244.076982
 20
347.538473
 30
0.0
 11
244.088213
 21
347.562216
 31
0.0
  0
LINE
  8
LC-003-002-----0
  6
CONTINUOUS
  5
479
 10
244.088213
 20
347.562216
 30
0.0
 11
244.115947
 21
347.607463
 31
0.0
  0
LINE
  8
LC-003-002-----0
  6
CONTINUOUS
  5
47A
 10
244.115947
 20
347.607463
 30
0.0
 11
244.149091
 21
347.650054
 31
0.0
  0
LINE
  8
LC-003-002-----0
  6
CONTINUOUS
  5
47B
 10
244.149091
 20
347.650054
 30
0.0
 11
244.17337
 21
347.669194
 31
0.0
  0
LINE
  8
LC-003-002-----0
  6
CONTINUOUS
  5
47C
 10
244.17337
 20
347.669194
 30
0.0
 11
244.211457
 21
347.67601
 31
0.0
  0
ENDBLK
  8
0
  5
47D
  0
BLOCK
  8
0
  5
47F
  2
BLK49
 70
    64
 10
168.542974
 20
347.67601
 30
0.0
  3
BLK49
  0
LINE
  8
LC-003-002-----0
  6
CONTINUOUS
  5
480
 10
168.542974
 20
347.67601
 30
0.0
 11
168.545942
 21
347.738629
 31
0.0
  0
LINE
  8
LC-003-002-----0
  6
CONTINUOUS
  5
481
 10
168.545942
 20
347.738629
 30
0.0
 11
168.553431
 21
347.784892
 31
0.0
  0
LINE
  8
LC-003-002-----0
  6
CONTINUOUS
  5
482
 10
168.553431
 20
347.784892
 30
0.0
 11
168.558208
 21
347.80449
 31
0.0
  0
LINE
  8
LC-003-002-----0
  6
CONTINUOUS
  5
483
 10
168.558208
 20
347.80449
 30
0.0
 11
168.563568
 21
347.82413
 31
0.0
  0
LINE
  8
LC-003-002-----0
  6
CONTINUOUS
  5
484
 10
168.563568
 20
347.82413
 30
0.0
 11
168.568571
 21
347.841778
 31
0.0
  0
LINE
  8
LC-003-002-----0
  6
CONTINUOUS
  5
485
 10
168.568571
 20
347.841778
 30
0.0
 11
168.574419
 21
347.86027
 31
0.0
  0
LINE
  8
LC-003-002-----0
  6
CONTINUOUS
  5
486
 10
168.574419
 20
347.86027
 30
0.0
 11
168.581477
 21
347.879048
 31
0.0
  0
LINE
  8
LC-003-002-----0
  6
CONTINUOUS
  5
487
 10
168.581477
 20
347.879048
 30
0.0
 11
168.589902
 21
347.898023
 31
0.0
  0
LINE
  8
LC-003-002-----0
  6
CONTINUOUS
  5
488
 10
168.589902
 20
347.898023
 30
0.0
 11
168.599408
 21
347.916714
 31
0.0
  0
LINE
  8
LC-003-002-----0
  6
CONTINUOUS
  5
489
 10
168.599408
 20
347.916714
 30
0.0
 11
168.608938
 21
347.934236
 31
0.0
  0
LINE
  8
LC-003-002-----0
  6
CONTINUOUS
  5
48A
 10
168.608938
 20
347.934236
 30
0.0
 11
168.615692
 21
347.946428
 31
0.0
  0
LINE
  8
LC-003-002-----0
  6
CONTINUOUS
  5
48B
 10
168.615692
 20
347.946428
 30
0.0
 11
168.622568
 21
347.958354
 31
0.0
  0
LINE
  8
LC-003-002-----0
  6
CONTINUOUS
  5
48C
 10
168.622568
 20
347.958354
 30
0.0
 11
168.633184
 21
347.975277
 31
0.0
  0
LINE
  8
LC-003-002-----0
  6
CONTINUOUS
  5
48D
 10
168.633184
 20
347.975277
 30
0.0
 11
168.64595
 21
347.993106
 31
0.0
  0
LINE
  8
LC-003-002-----0
  6
CONTINUOUS
  5
48E
 10
168.64595
 20
347.993106
 30
0.0
 11
168.663062
 21
348.013642
 31
0.0
  0
LINE
  8
LC-003-002-----0
  6
CONTINUOUS
  5
48F
 10
168.663062
 20
348.013642
 30
0.0
 11
168.679687
 21
348.031977
 31
0.0
  0
LINE
  8
LC-003-002-----0
  6
CONTINUOUS
  5
490
 10
168.679687
 20
348.031977
 30
0.0
 11
168.688755
 21
348.041767
 31
0.0
  0
LINE
  8
LC-003-002-----0
  6
CONTINUOUS
  5
491
 10
168.688755
 20
348.041767
 30
0.0
 11
168.697711
 21
348.05108
 31
0.0
  0
LINE
  8
LC-003-002-----0
  6
CONTINUOUS
  5
492
 10
168.697711
 20
348.05108
 30
0.0
 11
168.711535
 21
348.064372
 31
0.0
  0
LINE
  8
LC-003-002-----0
  6
CONTINUOUS
  5
493
 10
168.711535
 20
348.064372
 30
0.0
 11
168.727873
 21
348.078218
 31
0.0
  0
LINE
  8
LC-003-002-----0
  6
CONTINUOUS
  5
494
 10
168.727873
 20
348.078218
 30
0.0
 11
168.749073
 21
348.093578
 31
0.0
  0
LINE
  8
LC-003-002-----0
  6
CONTINUOUS
  5
495
 10
168.749073
 20
348.093578
 30
0.0
 11
168.769302
 21
348.106931
 31
0.0
  0
LINE
  8
LC-003-002-----0
  6
CONTINUOUS
  5
496
 10
168.769302
 20
348.106931
 30
0.0
 11
168.780261
 21
348.113993
 31
0.0
  0
LINE
  8
LC-003-002-----0
  6
CONTINUOUS
  5
497
 10
168.780261
 20
348.113993
 30
0.0
 11
168.790999
 21
348.120621
 31
0.0
  0
LINE
  8
LC-003-002-----0
  6
CONTINUOUS
  5
498
 10
168.790999
 20
348.120621
 30
0.0
 11
168.807159
 21
348.129749
 31
0.0
  0
LINE
  8
LC-003-002-----0
  6
CONTINUOUS
  5
499
 10
168.807159
 20
348.129749
 30
0.0
 11
168.824862
 21
348.138422
 31
0.0
  0
LINE
  8
LC-003-002-----0
  6
CONTINUOUS
  5
49A
 10
168.824862
 20
348.138422
 30
0.0
 11
168.845855
 21
348.146715
 31
0.0
  0
LINE
  8
LC-003-002-----0
  6
CONTINUOUS
  5
49B
 10
168.845855
 20
348.146715
 30
0.0
 11
168.866774
 21
348.153754
 31
0.0
  0
LINE
  8
LC-003-002-----0
  6
CONTINUOUS
  5
49C
 10
168.866774
 20
348.153754
 30
0.0
 11
168.892111
 21
348.161781
 31
0.0
  0
LINE
  8
LC-003-002-----0
  6
CONTINUOUS
  5
49D
 10
168.892111
 20
348.161781
 30
0.0
 11
168.918007
 21
348.168503
 31
0.0
  0
LINE
  8
LC-003-002-----0
  6
CONTINUOUS
  5
49E
 10
168.918007
 20
348.168503
 30
0.0
 11
168.957465
 21
348.174262
 31
0.0
  0
LINE
  8
LC-003-002-----0
  6
CONTINUOUS
  5
49F
 10
168.957465
 20
348.174262
 30
0.0
 11
169.002498
 21
348.17601
 31
0.0
  0
ENDBLK
  8
0
  5
4A0
  0
BLOCK
  8
0
  5
4A2
  2
BLK50
 70
    64
 10
241.210417
 20
347.17601
 30
0.0
  3
BLK50
  0
LINE
  8
LC-003-002-----0
  6
CONTINUOUS
  5
4A3
 10
241.210417
 20
347.17601
 30
0.0
 11
241.210489
 21
347.194344
 31
0.0
  0
LINE
  8
LC-003-002-----0
  6
CONTINUOUS
  5
4A4
 10
241.210489
 20
347.194344
 30
0.0
 11
241.21064
 21
347.206244
 31
0.0
  0
LINE
  8
LC-003-002-----0
  6
CONTINUOUS
  5
4A5
 10
241.21064
 20
347.206244
 30
0.0
 11
241.210719
 21
347.210224
 31
0.0
  0
LINE
  8
LC-003-002-----0
  6
CONTINUOUS
  5
4A6
 10
241.210719
 20
347.210224
 30
0.0
 11
241.210808
 21
347.21401
 31
0.0
  0
LINE
  8
LC-003-002-----0
  6
CONTINUOUS
  5
4A7
 10
241.210808
 20
347.21401
 30
0.0
 11
241.211417
 21
347.237612
 31
0.0
  0
LINE
  8
LC-003-002-----0
  6
CONTINUOUS
  5
4A8
 10
241.211417
 20
347.237612
 30
0.0
 11
241.212443
 21
347.269139
 31
0.0
  0
LINE
  8
LC-003-002-----0
  6
CONTINUOUS
  5
4A9
 10
241.212443
 20
347.269139
 30
0.0
 11
241.214767
 21
347.314505
 31
0.0
  0
LINE
  8
LC-003-002-----0
  6
CONTINUOUS
  5
4AA
 10
241.214767
 20
347.314505
 30
0.0
 11
241.218815
 21
347.36011
 31
0.0
  0
LINE
  8
LC-003-002-----0
  6
CONTINUOUS
  5
4AB
 10
241.218815
 20
347.36011
 30
0.0
 11
241.225995
 21
347.413411
 31
0.0
  0
LINE
  8
LC-003-002-----0
  6
CONTINUOUS
  5
4AC
 10
241.225995
 20
347.413411
 30
0.0
 11
241.233972
 21
347.462898
 31
0.0
  0
LINE
  8
LC-003-002-----0
  6
CONTINUOUS
  5
4AD
 10
241.233972
 20
347.462898
 30
0.0
 11
241.238632
 21
347.490577
 31
0.0
  0
LINE
  8
LC-003-002-----0
  6
CONTINUOUS
  5
4AE
 10
241.238632
 20
347.490577
 30
0.0
 11
241.243552
 21
347.517446
 31
0.0
  0
LINE
  8
LC-003-002-----0
  6
CONTINUOUS
  5
4AF
 10
241.243552
 20
347.517446
 30
0.0
 11
241.250422
 21
347.550223
 31
0.0
  0
LINE
  8
LC-003-002-----0
  6
CONTINUOUS
  5
4B0
 10
241.250422
 20
347.550223
 30
0.0
 11
241.25844
 21
347.58305
 31
0.0
  0
LINE
  8
LC-003-002-----0
  6
CONTINUOUS
  5
4B1
 10
241.25844
 20
347.58305
 30
0.0
 11
241.267722
 21
347.614995
 31
0.0
  0
LINE
  8
LC-003-002-----0
  6
CONTINUOUS
  5
4B2
 10
241.267722
 20
347.614995
 30
0.0
 11
241.278265
 21
347.647708
 31
0.0
  0
LINE
  8
LC-003-002-----0
  6
CONTINUOUS
  5
4B3
 10
241.278265
 20
347.647708
 30
0.0
 11
241.299285
 21
347.710165
 31
0.0
  0
LINE
  8
LC-003-002-----0
  6
CONTINUOUS
  5
4B4
 10
241.299285
 20
347.710165
 30
0.0
 11
241.324339
 21
347.774493
 31
0.0
  0
LINE
  8
LC-003-002-----0
  6
CONTINUOUS
  5
4B5
 10
241.324339
 20
347.774493
 30
0.0
 11
241.346916
 21
347.820125
 31
0.0
  0
LINE
  8
LC-003-002-----0
  6
CONTINUOUS
  5
4B6
 10
241.346916
 20
347.820125
 30
0.0
 11
241.372891
 21
347.862645
 31
0.0
  0
LINE
  8
LC-003-002-----0
  6
CONTINUOUS
  5
4B7
 10
241.372891
 20
347.862645
 30
0.0
 11
241.396163
 21
347.896032
 31
0.0
  0
LINE
  8
LC-003-002-----0
  6
CONTINUOUS
  5
4B8
 10
241.396163
 20
347.896032
 30
0.0
 11
241.417765
 21
347.925393
 31
0.0
  0
LINE
  8
LC-003-002-----0
  6
CONTINUOUS
  5
4B9
 10
241.417765
 20
347.925393
 30
0.0
 11
241.426235
 21
347.936711
 31
0.0
  0
LINE
  8
LC-003-002-----0
  6
CONTINUOUS
  5
4BA
 10
241.426235
 20
347.936711
 30
0.0
 11
241.435016
 21
347.947982
 31
0.0
  0
LINE
  8
LC-003-002-----0
  6
CONTINUOUS
  5
4BB
 10
241.435016
 20
347.947982
 30
0.0
 11
241.44672
 21
347.962062
 31
0.0
  0
LINE
  8
LC-003-002-----0
  6
CONTINUOUS
  5
4BC
 10
241.44672
 20
347.962062
 30
0.0
 11
241.46008
 21
347.976918
 31
0.0
  0
LINE
  8
LC-003-002-----0
  6
CONTINUOUS
  5
4BD
 10
241.46008
 20
347.976918
 30
0.0
 11
241.475467
 21
347.99253
 31
0.0
  0
LINE
  8
LC-003-002-----0
  6
CONTINUOUS
  5
4BE
 10
241.475467
 20
347.99253
 30
0.0
 11
241.4914
 21
348.007841
 31
0.0
  0
LINE
  8
LC-003-002-----0
  6
CONTINUOUS
  5
4BF
 10
241.4914
 20
348.007841
 30
0.0
 11
241.507716
 21
348.023235
 31
0.0
  0
LINE
  8
LC-003-002-----0
  6
CONTINUOUS
  5
4C0
 10
241.507716
 20
348.023235
 30
0.0
 11
241.524363
 21
348.038072
 31
0.0
  0
LINE
  8
LC-003-002-----0
  6
CONTINUOUS
  5
4C1
 10
241.524363
 20
348.038072
 30
0.0
 11
241.539684
 21
348.05044
 31
0.0
  0
LINE
  8
LC-003-002-----0
  6
CONTINUOUS
  5
4C2
 10
241.539684
 20
348.05044
 30
0.0
 11
241.555032
 21
348.061726
 31
0.0
  0
LINE
  8
LC-003-002-----0
  6
CONTINUOUS
  5
4C3
 10
241.555032
 20
348.061726
 30
0.0
 11
241.568326
 21
348.07079
 31
0.0
  0
LINE
  8
LC-003-002-----0
  6
CONTINUOUS
  5
4C4
 10
241.568326
 20
348.07079
 30
0.0
 11
241.581606
 21
348.079489
 31
0.0
  0
LINE
  8
LC-003-002-----0
  6
CONTINUOUS
  5
4C5
 10
241.581606
 20
348.079489
 30
0.0
 11
241.597379
 21
348.089685
 31
0.0
  0
LINE
  8
LC-003-002-----0
  6
CONTINUOUS
  5
4C6
 10
241.597379
 20
348.089685
 30
0.0
 11
241.613787
 21
348.099896
 31
0.0
  0
LINE
  8
LC-003-002-----0
  6
CONTINUOUS
  5
4C7
 10
241.613787
 20
348.099896
 30
0.0
 11
241.636639
 21
348.112879
 31
0.0
  0
LINE
  8
LC-003-002-----0
  6
CONTINUOUS
  5
4C8
 10
241.636639
 20
348.112879
 30
0.0
 11
241.661878
 21
348.125055
 31
0.0
  0
LINE
  8
LC-003-002-----0
  6
CONTINUOUS
  5
4C9
 10
241.661878
 20
348.125055
 30
0.0
 11
241.693927
 21
348.137568
 31
0.0
  0
LINE
  8
LC-003-002-----0
  6
CONTINUOUS
  5
4CA
 10
241.693927
 20
348.137568
 30
0.0
 11
241.724467
 21
348.148011
 31
0.0
  0
LINE
  8
LC-003-002-----0
  6
CONTINUOUS
  5
4CB
 10
241.724467
 20
348.148011
 30
0.0
 11
241.739645
 21
348.152991
 31
0.0
  0
LINE
  8
LC-003-002-----0
  6
CONTINUOUS
  5
4CC
 10
241.739645
 20
348.152991
 30
0.0
 11
241.754527
 21
348.157386
 31
0.0
  0
LINE
  8
LC-003-002-----0
  6
CONTINUOUS
  5
4CD
 10
241.754527
 20
348.157386
 30
0.0
 11
241.768937
 21
348.16096
 31
0.0
  0
LINE
  8
LC-003-002-----0
  6
CONTINUOUS
  5
4CE
 10
241.768937
 20
348.16096
 30
0.0
 11
241.78388
 21
348.1641
 31
0.0
  0
LINE
  8
LC-003-002-----0
  6
CONTINUOUS
  5
4CF
 10
241.78388
 20
348.1641
 30
0.0
 11
241.796398
 21
348.166368
 31
0.0
  0
LINE
  8
LC-003-002-----0
  6
CONTINUOUS
  5
4D0
 10
241.796398
 20
348.166368
 30
0.0
 11
241.807851
 21
348.168273
 31
0.0
  0
LINE
  8
LC-003-002-----0
  6
CONTINUOUS
  5
4D1
 10
241.807851
 20
348.168273
 30
0.0
 11
241.817876
 21
348.169893
 31
0.0
  0
LINE
  8
LC-003-002-----0
  6
CONTINUOUS
  5
4D2
 10
241.817876
 20
348.169893
 30
0.0
 11
241.827643
 21
348.171355
 31
0.0
  0
LINE
  8
LC-003-002-----0
  6
CONTINUOUS
  5
4D3
 10
241.827643
 20
348.171355
 30
0.0
 11
241.857863
 21
348.174569
 31
0.0
  0
LINE
  8
LC-003-002-----0
  6
CONTINUOUS
  5
4D4
 10
241.857863
 20
348.174569
 30
0.0
 11
241.901759
 21
348.17601
 31
0.0
  0
ENDBLK
  8
0
  5
4D5
  0
BLOCK
  8
0
  5
4D7
  2
BLK51
 70
    64
 10
241.519075
 20
347.17601
 30
0.0
  3
BLK51
  0
LINE
  8
LC-003-002-----0
  6
CONTINUOUS
  5
4D8
 10
241.519075
 20
347.17601
 30
0.0
 11
241.526244
 21
347.389345
 31
0.0
  0
LINE
  8
LC-003-002-----0
  6
CONTINUOUS
  5
4D9
 10
241.526244
 20
347.389345
 30
0.0
 11
241.548394
 21
347.556107
 31
0.0
  0
LINE
  8
LC-003-002-----0
  6
CONTINUOUS
  5
4DA
 10
241.548394
 20
347.556107
 30
0.0
 11
241.580131
 21
347.713917
 31
0.0
  0
LINE
  8
LC-003-002-----0
  6
CONTINUOUS
  5
4DB
 10
241.580131
 20
347.713917
 30
0.0
 11
241.616439
 21
347.854099
 31
0.0
  0
LINE
  8
LC-003-002-----0
  6
CONTINUOUS
  5
4DC
 10
241.616439
 20
347.854099
 30
0.0
 11
241.632807
 21
347.900936
 31
0.0
  0
LINE
  8
LC-003-002-----0
  6
CONTINUOUS
  5
4DD
 10
241.632807
 20
347.900936
 30
0.0
 11
241.65527
 21
347.948422
 31
0.0
  0
LINE
  8
LC-003-002-----0
  6
CONTINUOUS
  5
4DE
 10
241.65527
 20
347.948422
 30
0.0
 11
241.710738
 21
348.038915
 31
0.0
  0
LINE
  8
LC-003-002-----0
  6
CONTINUOUS
  5
4DF
 10
241.710738
 20
348.038915
 30
0.0
 11
241.777025
 21
348.124098
 31
0.0
  0
LINE
  8
LC-003-002-----0
  6
CONTINUOUS
  5
4E0
 10
241.777025
 20
348.124098
 30
0.0
 11
241.825583
 21
348.162377
 31
0.0
  0
LINE
  8
LC-003-002-----0
  6
CONTINUOUS
  5
4E1
 10
241.825583
 20
348.162377
 30
0.0
 11
241.901759
 21
348.17601
 31
0.0
  0
ENDBLK
  8
0
  5
4E2
  0
BLOCK
  8
0
  5
4E4
  2
BLK52
 70
    64
 10
243.749518
 20
348.17601
 30
0.0
  3
BLK52
  0
LINE
  8
LC-003-002-----0
  6
CONTINUOUS
  5
4E5
 10
243.749518
 20
348.17601
 30
0.0
 11
243.846225
 21
348.167385
 31
0.0
  0
LINE
  8
LC-003-002-----0
  6
CONTINUOUS
  5
4E6
 10
243.846225
 20
348.167385
 30
0.0
 11
243.917741
 21
348.141501
 31
0.0
  0
LINE
  8
LC-003-002-----0
  6
CONTINUOUS
  5
4E7
 10
243.917741
 20
348.141501
 30
0.0
 11
243.991954
 21
348.100157
 31
0.0
  0
LINE
  8
LC-003-002-----0
  6
CONTINUOUS
  5
4E8
 10
243.991954
 20
348.100157
 30
0.0
 11
244.055792
 21
348.055101
 31
0.0
  0
LINE
  8
LC-003-002-----0
  6
CONTINUOUS
  5
4E9
 10
244.055792
 20
348.055101
 30
0.0
 11
244.078848
 21
348.033587
 31
0.0
  0
LINE
  8
LC-003-002-----0
  6
CONTINUOUS
  5
4EA
 10
244.078848
 20
348.033587
 30
0.0
 11
244.098543
 21
348.009141
 31
0.0
  0
LINE
  8
LC-003-002-----0
  6
CONTINUOUS
  5
4EB
 10
244.098543
 20
348.009141
 30
0.0
 11
244.140486
 21
347.940064
 31
0.0
  0
LINE
  8
LC-003-002-----0
  6
CONTINUOUS
  5
4EC
 10
244.140486
 20
347.940064
 30
0.0
 11
244.178649
 21
347.860224
 31
0.0
  0
LINE
  8
LC-003-002-----0
  6
CONTINUOUS
  5
4ED
 10
244.178649
 20
347.860224
 30
0.0
 11
244.203305
 21
347.781229
 31
0.0
  0
LINE
  8
LC-003-002-----0
  6
CONTINUOUS
  5
4EE
 10
244.203305
 20
347.781229
 30
0.0
 11
244.211457
 21
347.67601
 31
0.0
  0
ENDBLK
  8
0
  5
4EF
  0
BLOCK
  8
0
  5
4F1
  2
BLK53
 70
    64
 10
246.311778
 20
344.17601
 30
0.0
  3
BLK53
  0
LINE
  8
LC-003-002-----0
  6
CONTINUOUS
  5
4F2
 10
246.311778
 20
344.17601
 30
0.0
 11
246.354209
 21
344.178386
 31
0.0
  0
LINE
  8
LC-003-002-----0
  6
CONTINUOUS
  5
4F3
 10
246.354209
 20
344.178386
 30
0.0
 11
246.388041
 21
344.185166
 31
0.0
  0
LINE
  8
LC-003-002-----0
  6
CONTINUOUS
  5
4F4
 10
246.388041
 20
344.185166
 30
0.0
 11
246.407246
 21
344.191354
 31
0.0
  0
LINE
  8
LC-003-002-----0
  6
CONTINUOUS
  5
4F5
 10
246.407246
 20
344.191354
 30
0.0
 11
246.425587
 21
344.198229
 31
0.0
  0
LINE
  8
LC-003-002-----0
  6
CONTINUOUS
  5
4F6
 10
246.425587
 20
344.198229
 30
0.0
 11
246.439505
 21
344.203658
 31
0.0
  0
LINE
  8
LC-003-002-----0
  6
CONTINUOUS
  5
4F7
 10
246.439505
 20
344.203658
 30
0.0
 11
246.45357
 21
344.209639
 31
0.0
  0
LINE
  8
LC-003-002-----0
  6
CONTINUOUS
  5
4F8
 10
246.45357
 20
344.209639
 30
0.0
 11
246.471145
 21
344.218318
 31
0.0
  0
LINE
  8
LC-003-002-----0
  6
CONTINUOUS
  5
4F9
 10
246.471145
 20
344.218318
 30
0.0
 11
246.488105
 21
344.228129
 31
0.0
  0
LINE
  8
LC-003-002-----0
  6
CONTINUOUS
  5
4FA
 10
246.488105
 20
344.228129
 30
0.0
 11
246.506783
 21
344.240994
 31
0.0
  0
LINE
  8
LC-003-002-----0
  6
CONTINUOUS
  5
4FB
 10
246.506783
 20
344.240994
 30
0.0
 11
246.525101
 21
344.255142
 31
0.0
  0
LINE
  8
LC-003-002-----0
  6
CONTINUOUS
  5
4FC
 10
246.525101
 20
344.255142
 30
0.0
 11
246.562137
 21
344.28493
 31
0.0
  0
LINE
  8
LC-003-002-----0
  6
CONTINUOUS
  5
4FD
 10
246.562137
 20
344.28493
 30
0.0
 11
246.6001
 21
344.319379
 31
0.0
  0
LINE
  8
LC-003-002-----0
  6
CONTINUOUS
  5
4FE
 10
246.6001
 20
344.319379
 30
0.0
 11
246.634434
 21
344.357998
 31
0.0
  0
LINE
  8
LC-003-002-----0
  6
CONTINUOUS
  5
4FF
 10
246.634434
 20
344.357998
 30
0.0
 11
246.662649
 21
344.395795
 31
0.0
  0
LINE
  8
LC-003-002-----0
  6
CONTINUOUS
  5
500
 10
246.662649
 20
344.395795
 30
0.0
 11
246.681658
 21
344.423866
 31
0.0
  0
LINE
  8
LC-003-002-----0
  6
CONTINUOUS
  5
501
 10
246.681658
 20
344.423866
 30
0.0
 11
246.700106
 21
344.452439
 31
0.0
  0
LINE
  8
LC-003-002-----0
  6
CONTINUOUS
  5
502
 10
246.700106
 20
344.452439
 30
0.0
 11
246.732668
 21
344.504045
 31
0.0
  0
LINE
  8
LC-003-002-----0
  6
CONTINUOUS
  5
503
 10
246.732668
 20
344.504045
 30
0.0
 11
246.765977
 21
344.561419
 31
0.0
  0
LINE
  8
LC-003-002-----0
  6
CONTINUOUS
  5
504
 10
246.765977
 20
344.561419
 30
0.0
 11
246.79516
 21
344.620185
 31
0.0
  0
LINE
  8
LC-003-002-----0
  6
CONTINUOUS
  5
505
 10
246.79516
 20
344.620185
 30
0.0
 11
246.819872
 21
344.6773
 31
0.0
  0
LINE
  8
LC-003-002-----0
  6
CONTINUOUS
  5
506
 10
246.819872
 20
344.6773
 30
0.0
 11
246.837003
 21
344.720172
 31
0.0
  0
LINE
  8
LC-003-002-----0
  6
CONTINUOUS
  5
507
 10
246.837003
 20
344.720172
 30
0.0
 11
246.852831
 21
344.761256
 31
0.0
  0
LINE
  8
LC-003-002-----0
  6
CONTINUOUS
  5
508
 10
246.852831
 20
344.761256
 30
0.0
 11
246.868077
 21
344.801296
 31
0.0
  0
LINE
  8
LC-003-002-----0
  6
CONTINUOUS
  5
509
 10
246.868077
 20
344.801296
 30
0.0
 11
246.883141
 21
344.842102
 31
0.0
  0
LINE
  8
LC-003-002-----0
  6
CONTINUOUS
  5
50A
 10
246.883141
 20
344.842102
 30
0.0
 11
246.904194
 21
344.903466
 31
0.0
  0
LINE
  8
LC-003-002-----0
  6
CONTINUOUS
  5
50B
 10
246.904194
 20
344.903466
 30
0.0
 11
246.924423
 21
344.969959
 31
0.0
  0
LINE
  8
LC-003-002-----0
  6
CONTINUOUS
  5
50C
 10
246.924423
 20
344.969959
 30
0.0
 11
246.948432
 21
345.062566
 31
0.0
  0
LINE
  8
LC-003-002-----0
  6
CONTINUOUS
  5
50D
 10
246.948432
 20
345.062566
 30
0.0
 11
246.969766
 21
345.154073
 31
0.0
  0
LINE
  8
LC-003-002-----0
  6
CONTINUOUS
  5
50E
 10
246.969766
 20
345.154073
 30
0.0
 11
246.985479
 21
345.223532
 31
0.0
  0
LINE
  8
LC-003-002-----0
  6
CONTINUOUS
  5
50F
 10
246.985479
 20
345.223532
 30
0.0
 11
246.999672
 21
345.290913
 31
0.0
  0
LINE
  8
LC-003-002-----0
  6
CONTINUOUS
  5
510
 10
246.999672
 20
345.290913
 30
0.0
 11
247.013166
 21
345.364479
 31
0.0
  0
LINE
  8
LC-003-002-----0
  6
CONTINUOUS
  5
511
 10
247.013166
 20
345.364479
 30
0.0
 11
247.024827
 21
345.439071
 31
0.0
  0
LINE
  8
LC-003-002-----0
  6
CONTINUOUS
  5
512
 10
247.024827
 20
345.439071
 30
0.0
 11
247.034766
 21
345.514466
 31
0.0
  0
LINE
  8
LC-003-002-----0
  6
CONTINUOUS
  5
513
 10
247.034766
 20
345.514466
 30
0.0
 11
247.04314
 21
345.585586
 31
0.0
  0
LINE
  8
LC-003-002-----0
  6
CONTINUOUS
  5
514
 10
247.04314
 20
345.585586
 30
0.0
 11
247.051953
 21
345.663377
 31
0.0
  0
LINE
  8
LC-003-002-----0
  6
CONTINUOUS
  5
515
 10
247.051953
 20
345.663377
 30
0.0
 11
247.059752
 21
345.740267
 31
0.0
  0
LINE
  8
LC-003-002-----0
  6
CONTINUOUS
  5
516
 10
247.059752
 20
345.740267
 30
0.0
 11
247.07228
 21
345.925929
 31
0.0
  0
LINE
  8
LC-003-002-----0
  6
CONTINUOUS
  5
517
 10
247.07228
 20
345.925929
 30
0.0
 11
247.077234
 21
346.17601
 31
0.0
  0
ENDBLK
  8
0
  5
518
  0
BLOCK
  8
0
  5
51A
  2
BLK54
 70
    64
 10
246.617711
 20
348.17601
 30
0.0
  3
BLK54
  0
LINE
  8
LC-003-002-----0
  6
CONTINUOUS
  5
51B
 10
246.617711
 20
348.17601
 30
0.0
 11
246.662915
 21
348.174206
 31
0.0
  0
LINE
  8
LC-003-002-----0
  6
CONTINUOUS
  5
51C
 10
246.662915
 20
348.174206
 30
0.0
 11
246.703573
 21
348.168055
 31
0.0
  0
LINE
  8
LC-003-002-----0
  6
CONTINUOUS
  5
51D
 10
246.703573
 20
348.168055
 30
0.0
 11
246.730845
 21
348.160884
 31
0.0
  0
LINE
  8
LC-003-002-----0
  6
CONTINUOUS
  5
51E
 10
246.730845
 20
348.160884
 30
0.0
 11
246.754971
 21
348.153252
 31
0.0
  0
LINE
  8
LC-003-002-----0
  6
CONTINUOUS
  5
51F
 10
246.754971
 20
348.153252
 30
0.0
 11
246.765813
 21
348.149667
 31
0.0
  0
LINE
  8
LC-003-002-----0
  6
CONTINUOUS
  5
520
 10
246.765813
 20
348.149667
 30
0.0
 11
246.776756
 21
348.145796
 31
0.0
  0
LINE
  8
LC-003-002-----0
  6
CONTINUOUS
  5
521
 10
246.776756
 20
348.145796
 30
0.0
 11
246.793453
 21
348.139125
 31
0.0
  0
LINE
  8
LC-003-002-----0
  6
CONTINUOUS
  5
522
 10
246.793453
 20
348.139125
 30
0.0
 11
246.811424
 21
348.130667
 31
0.0
  0
LINE
  8
LC-003-002-----0
  6
CONTINUOUS
  5
523
 10
246.811424
 20
348.130667
 30
0.0
 11
246.832462
 21
348.118663
 31
0.0
  0
LINE
  8
LC-003-002-----0
  6
CONTINUOUS
  5
524
 10
246.832462
 20
348.118663
 30
0.0
 11
246.853085
 21
348.105517
 31
0.0
  0
LINE
  8
LC-003-002-----0
  6
CONTINUOUS
  5
525
 10
246.853085
 20
348.105517
 30
0.0
 11
246.873523
 21
348.092028
 31
0.0
  0
LINE
  8
LC-003-002-----0
  6
CONTINUOUS
  5
526
 10
246.873523
 20
348.092028
 30
0.0
 11
246.893125
 21
348.077705
 31
0.0
  0
LINE
  8
LC-003-002-----0
  6
CONTINUOUS
  5
527
 10
246.893125
 20
348.077705
 30
0.0
 11
246.908666
 21
348.064423
 31
0.0
  0
LINE
  8
LC-003-002-----0
  6
CONTINUOUS
  5
528
 10
246.908666
 20
348.064423
 30
0.0
 11
246.921654
 21
348.051996
 31
0.0
  0
LINE
  8
LC-003-002-----0
  6
CONTINUOUS
  5
529
 10
246.921654
 20
348.051996
 30
0.0
 11
246.929366
 21
348.044034
 31
0.0
  0
LINE
  8
LC-003-002-----0
  6
CONTINUOUS
  5
52A
 10
246.929366
 20
348.044034
 30
0.0
 11
246.936874
 21
348.035939
 31
0.0
  0
LINE
  8
LC-003-002-----0
  6
CONTINUOUS
  5
52B
 10
246.936874
 20
348.035939
 30
0.0
 11
246.962447
 21
348.007585
 31
0.0
  0
LINE
  8
LC-003-002-----0
  6
CONTINUOUS
  5
52C
 10
246.962447
 20
348.007585
 30
0.0
 11
246.99072
 21
347.972828
 31
0.0
  0
LINE
  8
LC-003-002-----0
  6
CONTINUOUS
  5
52D
 10
246.99072
 20
347.972828
 30
0.0
 11
247.01475
 21
347.935634
 31
0.0
  0
LINE
  8
LC-003-002-----0
  6
CONTINUOUS
  5
52E
 10
247.01475
 20
347.935634
 30
0.0
 11
247.033492
 21
347.895592
 31
0.0
  0
LINE
  8
LC-003-002-----0
  6
CONTINUOUS
  5
52F
 10
247.033492
 20
347.895592
 30
0.0
 11
247.048428
 21
347.852215
 31
0.0
  0
LINE
  8
LC-003-002-----0
  6
CONTINUOUS
  5
530
 10
247.048428
 20
347.852215
 30
0.0
 11
247.058768
 21
347.81647
 31
0.0
  0
LINE
  8
LC-003-002-----0
  6
CONTINUOUS
  5
531
 10
247.058768
 20
347.81647
 30
0.0
 11
247.061584
 21
347.806238
 31
0.0
  0
LINE
  8
LC-003-002-----0
  6
CONTINUOUS
  5
532
 10
247.061584
 20
347.806238
 30
0.0
 11
247.064037
 21
347.79677
 31
0.0
  0
LINE
  8
LC-003-002-----0
  6
CONTINUOUS
  5
533
 10
247.064037
 20
347.79677
 30
0.0
 11
247.072646
 21
347.75121
 31
0.0
  0
LINE
  8
LC-003-002-----0
  6
CONTINUOUS
  5
534
 10
247.072646
 20
347.75121
 30
0.0
 11
247.077234
 21
347.67601
 31
0.0
  0
ENDBLK
  8
0
  5
535
  0
BLOCK
  8
0
  5
537
  2
BLK55
 70
    64
 10
272.510375
 20
347.17601
 30
0.0
  3
BLK55
  0
LINE
  8
LC-003-002-----0
  6
CONTINUOUS
  5
538
 10
272.510375
 20
347.17601
 30
0.0
 11
272.523209
 21
347.3878
 31
0.0
  0
LINE
  8
LC-003-002-----0
  6
CONTINUOUS
  5
539
 10
272.523209
 20
347.3878
 30
0.0
 11
272.562407
 21
347.549824
 31
0.0
  0
LINE
  8
LC-003-002-----0
  6
CONTINUOUS
  5
53A
 10
272.562407
 20
347.549824
 30
0.0
 11
272.620846
 21
347.708469
 31
0.0
  0
LINE
  8
LC-003-002-----0
  6
CONTINUOUS
  5
53B
 10
272.620846
 20
347.708469
 30
0.0
 11
272.68601
 21
347.847048
 31
0.0
  0
LINE
  8
LC-003-002-----0
  6
CONTINUOUS
  5
53C
 10
272.68601
 20
347.847048
 30
0.0
 11
272.715945
 21
347.89476
 31
0.0
  0
LINE
  8
LC-003-002-----0
  6
CONTINUOUS
  5
53D
 10
272.715945
 20
347.89476
 30
0.0
 11
272.752832
 21
347.938822
 31
0.0
  0
LINE
  8
LC-003-002-----0
  6
CONTINUOUS
  5
53E
 10
272.752832
 20
347.938822
 30
0.0
 11
272.85113
 21
348.028208
 31
0.0
  0
LINE
  8
LC-003-002-----0
  6
CONTINUOUS
  5
53F
 10
272.85113
 20
348.028208
 30
0.0
 11
272.966482
 21
348.111252
 31
0.0
  0
LINE
  8
LC-003-002-----0
  6
CONTINUOUS
  5
540
 10
272.966482
 20
348.111252
 30
0.0
 11
273.071141
 21
348.159627
 31
0.0
  0
LINE
  8
LC-003-002-----0
  6
CONTINUOUS
  5
541
 10
273.071141
 20
348.159627
 30
0.0
 11
273.217481
 21
348.17601
 31
0.0
  0
ENDBLK
  8
0
  5
542
  0
BLOCK
  8
0
  5
544
  2
BLK56
 70
    64
 10
278.517211
 20
348.17601
 30
0.0
  3
BLK56
  0
LINE
  8
LC-003-002-----0
  6
CONTINUOUS
  5
545
 10
278.517211
 20
348.17601
 30
0.0
 11
278.551423
 21
348.174238
 31
0.0
  0
LINE
  8
LC-003-002-----0
  6
CONTINUOUS
  5
546
 10
278.551423
 20
348.174238
 30
0.0
 11
278.581948
 21
348.168225
 31
0.0
  0
LINE
  8
LC-003-002-----0
  6
CONTINUOUS
  5
547
 10
278.581948
 20
348.168225
 30
0.0
 11
278.603011
 21
348.160979
 31
0.0
  0
LINE
  8
LC-003-002-----0
  6
CONTINUOUS
  5
548
 10
278.603011
 20
348.160979
 30
0.0
 11
278.621524
 21
348.153282
 31
0.0
  0
LINE
  8
LC-003-002-----0
  6
CONTINUOUS
  5
549
 10
278.621524
 20
348.153282
 30
0.0
 11
278.629756
 21
348.149704
 31
0.0
  0
LINE
  8
LC-003-002-----0
  6
CONTINUOUS
  5
54A
 10
278.629756
 20
348.149704
 30
0.0
 11
278.63796
 21
348.145893
 31
0.0
  0
LINE
  8
LC-003-002-----0
  6
CONTINUOUS
  5
54B
 10
278.63796
 20
348.145893
 30
0.0
 11
278.650559
 21
348.139278
 31
0.0
  0
LINE
  8
LC-003-002-----0
  6
CONTINUOUS
  5
54C
 10
278.650559
 20
348.139278
 30
0.0
 11
278.66418
 21
348.130837
 31
0.0
  0
LINE
  8
LC-003-002-----0
  6
CONTINUOUS
  5
54D
 10
278.66418
 20
348.130837
 30
0.0
 11
278.681052
 21
348.118165
 31
0.0
  0
LINE
  8
LC-003-002-----0
  6
CONTINUOUS
  5
54E
 10
278.681052
 20
348.118165
 30
0.0
 11
278.696943
 21
348.104841
 31
0.0
  0
LINE
  8
LC-003-002-----0
  6
CONTINUOUS
  5
54F
 10
278.696943
 20
348.104841
 30
0.0
 11
278.709008
 21
348.094421
 31
0.0
  0
LINE
  8
LC-003-002-----0
  6
CONTINUOUS
  5
550
 10
278.709008
 20
348.094421
 30
0.0
 11
278.720342
 21
348.083936
 31
0.0
  0
LINE
  8
LC-003-002-----0
  6
CONTINUOUS
  5
551
 10
278.720342
 20
348.083936
 30
0.0
 11
278.731742
 21
348.072065
 31
0.0
  0
LINE
  8
LC-003-002-----0
  6
CONTINUOUS
  5
552
 10
278.731742
 20
348.072065
 30
0.0
 11
278.742017
 21
348.060079
 31
0.0
  0
LINE
  8
LC-003-002-----0
  6
CONTINUOUS
  5
553
 10
278.742017
 20
348.060079
 30
0.0
 11
278.751057
 21
348.048262
 31
0.0
  0
LINE
  8
LC-003-002-----0
  6
CONTINUOUS
  5
554
 10
278.751057
 20
348.048262
 30
0.0
 11
278.759707
 21
348.036047
 31
0.0
  0
LINE
  8
LC-003-002-----0
  6
CONTINUOUS
  5
555
 10
278.759707
 20
348.036047
 30
0.0
 11
278.779732
 21
348.006865
 31
0.0
  0
LINE
  8
LC-003-002-----0
  6
CONTINUOUS
  5
556
 10
278.779732
 20
348.006865
 30
0.0
 11
278.800182
 21
347.973863
 31
0.0
  0
LINE
  8
LC-003-002-----0
  6
CONTINUOUS
  5
557
 10
278.800182
 20
347.973863
 30
0.0
 11
278.818448
 21
347.936732
 31
0.0
  0
LINE
  8
LC-003-002-----0
  6
CONTINUOUS
  5
558
 10
278.818448
 20
347.936732
 30
0.0
 11
278.832681
 21
347.896941
 31
0.0
  0
LINE
  8
LC-003-002-----0
  6
CONTINUOUS
  5
559
 10
278.832681
 20
347.896941
 30
0.0
 11
278.844322
 21
347.85272
 31
0.0
  0
LINE
  8
LC-003-002-----0
  6
CONTINUOUS
  5
55A
 10
278.844322
 20
347.85272
 30
0.0
 11
278.852268
 21
347.816582
 31
0.0
  0
LINE
  8
LC-003-002-----0
  6
CONTINUOUS
  5
55B
 10
278.852268
 20
347.816582
 30
0.0
 11
278.854404
 21
347.806355
 31
0.0
  0
LINE
  8
LC-003-002-----0
  6
CONTINUOUS
  5
55C
 10
278.854404
 20
347.806355
 30
0.0
 11
278.856251
 21
347.796968
 31
0.0
  0
LINE
  8
LC-003-002-----0
  6
CONTINUOUS
  5
55D
 10
278.856251
 20
347.796968
 30
0.0
 11
278.862805
 21
347.751304
 31
0.0
  0
LINE
  8
LC-003-002-----0
  6
CONTINUOUS
  5
55E
 10
278.862805
 20
347.751304
 30
0.0
 11
278.8663
 21
347.67601
 31
0.0
  0
ENDBLK
  8
0
  5
55F
  0
BLOCK
  8
0
  5
561
  2
BLK57
 70
    64
 10
273.217481
 20
348.17601
 30
0.0
  3
BLK57
  0
LINE
  8
LC-003-002-----0
  6
CONTINUOUS
  5
562
 10
273.217481
 20
348.17601
 30
0.0
 11
273.290652
 21
348.167818
 31
0.0
  0
LINE
  8
LC-003-002-----0
  6
CONTINUOUS
  5
563
 10
273.290652
 20
348.167818
 30
0.0
 11
273.342981
 21
348.143631
 31
0.0
  0
LINE
  8
LC-003-002-----0
  6
CONTINUOUS
  5
564
 10
273.342981
 20
348.143631
 30
0.0
 11
273.400657
 21
348.102109
 31
0.0
  0
LINE
  8
LC-003-002-----0
  6
CONTINUOUS
  5
565
 10
273.400657
 20
348.102109
 30
0.0
 11
273.449806
 21
348.057416
 31
0.0
  0
LINE
  8
LC-003-002-----0
  6
CONTINUOUS
  5
566
 10
273.449806
 20
348.057416
 30
0.0
 11
273.468249
 21
348.035385
 31
0.0
  0
LINE
  8
LC-003-002-----0
  6
CONTINUOUS
  5
567
 10
273.468249
 20
348.035385
 30
0.0
 11
273.483217
 21
348.011529
 31
0.0
  0
LINE
  8
LC-003-002-----0
  6
CONTINUOUS
  5
568
 10
273.483217
 20
348.011529
 30
0.0
 11
273.515799
 21
347.94224
 31
0.0
  0
LINE
  8
LC-003-002-----0
  6
CONTINUOUS
  5
569
 10
273.515799
 20
347.94224
 30
0.0
 11
273.545018
 21
347.862917
 31
0.0
  0
LINE
  8
LC-003-002-----0
  6
CONTINUOUS
  5
56A
 10
273.545018
 20
347.862917
 30
0.0
 11
273.564617
 21
347.781905
 31
0.0
  0
LINE
  8
LC-003-002-----0
  6
CONTINUOUS
  5
56B
 10
273.564617
 20
347.781905
 30
0.0
 11
273.571035
 21
347.67601
 31
0.0
  0
ENDBLK
  8
0
  5
56C
  0
BLOCK
  8
0
  5
56E
  2
BLK58
 70
    64
 10
291.803885
 20
347.17601
 30
0.0
  3
BLK58
  0
LINE
  8
LC-003-002-----0
  6
CONTINUOUS
  5
56F
 10
291.803885
 20
347.17601
 30
0.0
 11
291.82019
 21
347.386447
 31
0.0
  0
LINE
  8
LC-003-002-----0
  6
CONTINUOUS
  5
570
 10
291.82019
 20
347.386447
 30
0.0
 11
291.869502
 21
347.544437
 31
0.0
  0
LINE
  8
LC-003-002-----0
  6
CONTINUOUS
  5
571
 10
291.869502
 20
347.544437
 30
0.0
 11
291.945828
 21
347.704118
 31
0.0
  0
LINE
  8
LC-003-002-----0
  6
CONTINUOUS
  5
572
 10
291.945828
 20
347.704118
 30
0.0
 11
292.029715
 21
347.842271
 31
0.0
  0
LINE
  8
LC-003-002-----0
  6
CONTINUOUS
  5
573
 10
292.029715
 20
347.842271
 30
0.0
 11
292.069103
 21
347.891165
 31
0.0
  0
LINE
  8
LC-003-002-----0
  6
CONTINUOUS
  5
574
 10
292.069103
 20
347.891165
 30
0.0
 11
292.115217
 21
347.934192
 31
0.0
  0
LINE
  8
LC-003-002-----0
  6
CONTINUOUS
  5
575
 10
292.115217
 20
347.934192
 30
0.0
 11
292.242891
 21
348.024305
 31
0.0
  0
LINE
  8
LC-003-002-----0
  6
CONTINUOUS
  5
576
 10
292.242891
 20
348.024305
 30
0.0
 11
292.391318
 21
348.106991
 31
0.0
  0
LINE
  8
LC-003-002-----0
  6
CONTINUOUS
  5
577
 10
292.391318
 20
348.106991
 30
0.0
 11
292.53435
 21
348.158761
 31
0.0
  0
LINE
  8
LC-003-002-----0
  6
CONTINUOUS
  5
578
 10
292.53435
 20
348.158761
 30
0.0
 11
292.727765
 21
348.17601
 31
0.0
  0
ENDBLK
  8
0
  5
579
  0
BLOCK
  8
0
  5
57B
  2
BLK59
 70
    64
 10
292.457167
 20
347.17601
 30
0.0
  3
BLK59
  0
LINE
  8
LC-003-002-----0
  6
CONTINUOUS
  5
57C
 10
292.457167
 20
347.17601
 30
0.0
 11
292.465319
 21
347.281229
 31
0.0
  0
LINE
  8
LC-003-002-----0
  6
CONTINUOUS
  5
57D
 10
292.465319
 20
347.281229
 30
0.0
 11
292.489975
 21
347.360224
 31
0.0
  0
LINE
  8
LC-003-002-----0
  6
CONTINUOUS
  5
57E
 10
292.489975
 20
347.360224
 30
0.0
 11
292.528138
 21
347.440064
 31
0.0
  0
LINE
  8
LC-003-002-----0
  6
CONTINUOUS
  5
57F
 10
292.528138
 20
347.440064
 30
0.0
 11
292.570082
 21
347.509141
 31
0.0
  0
LINE
  8
LC-003-002-----0
  6
CONTINUOUS
  5
580
 10
292.570082
 20
347.509141
 30
0.0
 11
292.589776
 21
347.533587
 31
0.0
  0
LINE
  8
LC-003-002-----0
  6
CONTINUOUS
  5
581
 10
292.589776
 20
347.533587
 30
0.0
 11
292.612833
 21
347.555101
 31
0.0
  0
LINE
  8
LC-003-002-----0
  6
CONTINUOUS
  5
582
 10
292.612833
 20
347.555101
 30
0.0
 11
292.67667
 21
347.600157
 31
0.0
  0
LINE
  8
LC-003-002-----0
  6
CONTINUOUS
  5
583
 10
292.67667
 20
347.600157
 30
0.0
 11
292.750883
 21
347.641501
 31
0.0
  0
LINE
  8
LC-003-002-----0
  6
CONTINUOUS
  5
584
 10
292.750883
 20
347.641501
 30
0.0
 11
292.822399
 21
347.667385
 31
0.0
  0
LINE
  8
LC-003-002-----0
  6
CONTINUOUS
  5
585
 10
292.822399
 20
347.667385
 30
0.0
 11
292.919106
 21
347.67601
 31
0.0
  0
ENDBLK
  8
0
  5
586
  0
BLOCK
  8
0
  5
588
  2
BLK60
 70
    64
 10
292.727765
 20
348.17601
 30
0.0
  3
BLK60
  0
LINE
  8
LC-003-002-----0
  6
CONTINUOUS
  5
589
 10
292.727765
 20
348.17601
 30
0.0
 11
292.765853
 21
348.169194
 31
0.0
  0
LINE
  8
LC-003-002-----0
  6
CONTINUOUS
  5
58A
 10
292.765853
 20
348.169194
 30
0.0
 11
292.790131
 21
348.150054
 31
0.0
  0
LINE
  8
LC-003-002-----0
  6
CONTINUOUS
  5
58B
 10
292.790131
 20
348.150054
 30
0.0
 11
292.823275
 21
348.107463
 31
0.0
  0
LINE
  8
LC-003-002-----0
  6
CONTINUOUS
  5
58C
 10
292.823275
 20
348.107463
 30
0.0
 11
292.851009
 21
348.062216
 31
0.0
  0
LINE
  8
LC-003-002-----0
  6
CONTINUOUS
  5
58D
 10
292.851009
 20
348.062216
 30
0.0
 11
292.86224
 21
348.038473
 31
0.0
  0
LINE
  8
LC-003-002-----0
  6
CONTINUOUS
  5
58E
 10
292.86224
 20
348.038473
 30
0.0
 11
292.870425
 21
348.015054
 31
0.0
  0
LINE
  8
LC-003-002-----0
  6
CONTINUOUS
  5
58F
 10
292.870425
 20
348.015054
 30
0.0
 11
292.888578
 21
347.944964
 31
0.0
  0
LINE
  8
LC-003-002-----0
  6
CONTINUOUS
  5
590
 10
292.888578
 20
347.944964
 30
0.0
 11
292.904447
 21
347.866059
 31
0.0
  0
LINE
  8
LC-003-002-----0
  6
CONTINUOUS
  5
591
 10
292.904447
 20
347.866059
 30
0.0
 11
292.915522
 21
347.782678
 31
0.0
  0
LINE
  8
LC-003-002-----0
  6
CONTINUOUS
  5
592
 10
292.915522
 20
347.782678
 30
0.0
 11
292.919106
 21
347.67601
 31
0.0
  0
ENDBLK
  8
0
  5
593
  0
BLOCK
  8
0
  5
595
  2
BLK61
 70
    64
 10
174.409791
 20
343.791128
 30
0.0
  3
BLK61
  0
LINE
  8
LC-003-002-----0
  6
CONTINUOUS
  5
596
 10
174.409791
 20
343.791128
 30
0.0
 11
174.40967
 21
343.782469
 31
0.0
  0
LINE
  8
LC-003-002-----0
  6
CONTINUOUS
  5
597
 10
174.40967
 20
343.782469
 30
0.0
 11
174.409443
 21
343.777256
 31
0.0
  0
LINE
  8
LC-003-002-----0
  6
CONTINUOUS
  5
598
 10
174.409443
 20
343.777256
 30
0.0
 11
174.409346
 21
343.775832
 31
0.0
  0
LINE
  8
LC-003-002-----0
  6
CONTINUOUS
  5
599
 10
174.409346
 20
343.775832
 30
0.0
 11
174.409244
 21
343.774634
 31
0.0
  0
LINE
  8
LC-003-002-----0
  6
CONTINUOUS
  5
59A
 10
174.409244
 20
343.774634
 30
0.0
 11
174.407981
 21
343.761727
 31
0.0
  0
LINE
  8
LC-003-002-----0
  6
CONTINUOUS
  5
59B
 10
174.407981
 20
343.761727
 30
0.0
 11
174.405304
 21
343.741136
 31
0.0
  0
LINE
  8
LC-003-002-----0
  6
CONTINUOUS
  5
59C
 10
174.405304
 20
343.741136
 30
0.0
 11
174.400933
 21
343.718012
 31
0.0
  0
LINE
  8
LC-003-002-----0
  6
CONTINUOUS
  5
59D
 10
174.400933
 20
343.718012
 30
0.0
 11
174.389544
 21
343.683993
 31
0.0
  0
LINE
  8
LC-003-002-----0
  6
CONTINUOUS
  5
59E
 10
174.389544
 20
343.683993
 30
0.0
 11
174.372146
 21
343.653403
 31
0.0
  0
LINE
  8
LC-003-002-----0
  6
CONTINUOUS
  5
59F
 10
174.372146
 20
343.653403
 30
0.0
 11
174.350133
 21
343.624972
 31
0.0
  0
LINE
  8
LC-003-002-----0
  6
CONTINUOUS
  5
5A0
 10
174.350133
 20
343.624972
 30
0.0
 11
174.33049
 21
343.602707
 31
0.0
  0
LINE
  8
LC-003-002-----0
  6
CONTINUOUS
  5
5A1
 10
174.33049
 20
343.602707
 30
0.0
 11
174.325706
 21
343.597469
 31
0.0
  0
LINE
  8
LC-003-002-----0
  6
CONTINUOUS
  5
5A2
 10
174.325706
 20
343.597469
 30
0.0
 11
174.320728
 21
343.592269
 31
0.0
  0
LINE
  8
LC-003-002-----0
  6
CONTINUOUS
  5
5A3
 10
174.320728
 20
343.592269
 30
0.0
 11
174.311739
 21
343.583607
 31
0.0
  0
LINE
  8
LC-003-002-----0
  6
CONTINUOUS
  5
5A4
 10
174.311739
 20
343.583607
 30
0.0
 11
174.300556
 21
343.574074
 31
0.0
  0
LINE
  8
LC-003-002-----0
  6
CONTINUOUS
  5
5A5
 10
174.300556
 20
343.574074
 30
0.0
 11
174.285783
 21
343.563432
 31
0.0
  0
LINE
  8
LC-003-002-----0
  6
CONTINUOUS
  5
5A6
 10
174.285783
 20
343.563432
 30
0.0
 11
174.270701
 21
343.553663
 31
0.0
  0
LINE
  8
LC-003-002-----0
  6
CONTINUOUS
  5
5A7
 10
174.270701
 20
343.553663
 30
0.0
 11
174.258925
 21
343.546289
 31
0.0
  0
LINE
  8
LC-003-002-----0
  6
CONTINUOUS
  5
5A8
 10
174.258925
 20
343.546289
 30
0.0
 11
174.247136
 21
343.539585
 31
0.0
  0
LINE
  8
LC-003-002-----0
  6
CONTINUOUS
  5
5A9
 10
174.247136
 20
343.539585
 30
0.0
 11
174.236439
 21
343.534416
 31
0.0
  0
LINE
  8
LC-003-002-----0
  6
CONTINUOUS
  5
5AA
 10
174.236439
 20
343.534416
 30
0.0
 11
174.226004
 21
343.53003
 31
0.0
  0
LINE
  8
LC-003-002-----0
  6
CONTINUOUS
  5
5AB
 10
174.226004
 20
343.53003
 30
0.0
 11
174.218168
 21
343.527075
 31
0.0
  0
LINE
  8
LC-003-002-----0
  6
CONTINUOUS
  5
5AC
 10
174.218168
 20
343.527075
 30
0.0
 11
174.210049
 21
343.524192
 31
0.0
  0
LINE
  8
LC-003-002-----0
  6
CONTINUOUS
  5
5AD
 10
174.210049
 20
343.524192
 30
0.0
 11
174.19606
 21
343.519374
 31
0.0
  0
LINE
  8
LC-003-002-----0
  6
CONTINUOUS
  5
5AE
 10
174.19606
 20
343.519374
 30
0.0
 11
174.180994
 21
343.51479
 31
0.0
  0
LINE
  8
LC-003-002-----0
  6
CONTINUOUS
  5
5AF
 10
174.180994
 20
343.51479
 30
0.0
 11
174.167589
 21
343.511674
 31
0.0
  0
LINE
  8
LC-003-002-----0
  6
CONTINUOUS
  5
5B0
 10
174.167589
 20
343.511674
 30
0.0
 11
174.154019
 21
343.509417
 31
0.0
  0
LINE
  8
LC-003-002-----0
  6
CONTINUOUS
  5
5B1
 10
174.154019
 20
343.509417
 30
0.0
 11
174.142131
 21
343.507928
 31
0.0
  0
LINE
  8
LC-003-002-----0
  6
CONTINUOUS
  5
5B2
 10
174.142131
 20
343.507928
 30
0.0
 11
174.132039
 21
343.506843
 31
0.0
  0
LINE
  8
LC-003-002-----0
  6
CONTINUOUS
  5
5B3
 10
174.132039
 20
343.506843
 30
0.0
 11
174.128458
 21
343.506477
 31
0.0
  0
LINE
  8
LC-003-002-----0
  6
CONTINUOUS
  5
5B4
 10
174.128458
 20
343.506477
 30
0.0
 11
174.124988
 21
343.506158
 31
0.0
  0
LINE
  8
LC-003-002-----0
  6
CONTINUOUS
  5
5B5
 10
174.124988
 20
343.506158
 30
0.0
 11
174.115338
 21
343.505534
 31
0.0
  0
LINE
  8
LC-003-002-----0
  6
CONTINUOUS
  5
5B6
 10
174.115338
 20
343.505534
 30
0.0
 11
174.101133
 21
343.505124
 31
0.0
  0
ENDBLK
  8
0
  5
5B7
  0
BLOCK
  8
0
  5
5B9
  2
BLK62
 70
    64
 10
244.020116
 20
343.915139
 30
0.0
  3
BLK62
  0
LINE
  8
LC-003-002-----0
  6
CONTINUOUS
  5
5BA
 10
244.020116
 20
343.915139
 30
0.0
 11
244.003887
 21
343.892276
 31
0.0
  0
LINE
  8
LC-003-002-----0
  6
CONTINUOUS
  5
5BB
 10
244.003887
 20
343.892276
 30
0.0
 11
243.991652
 21
343.876713
 31
0.0
  0
LINE
  8
LC-003-002-----0
  6
CONTINUOUS
  5
5BC
 10
243.991652
 20
343.876713
 30
0.0
 11
243.986682
 21
343.870765
 31
0.0
  0
LINE
  8
LC-003-002-----0
  6
CONTINUOUS
  5
5BD
 10
243.986682
 20
343.870765
 30
0.0
 11
243.981445
 21
343.864639
 31
0.0
  0
LINE
  8
LC-003-002-----0
  6
CONTINUOUS
  5
5BE
 10
243.981445
 20
343.864639
 30
0.0
 11
243.9645
 21
343.845101
 31
0.0
  0
LINE
  8
LC-003-002-----0
  6
CONTINUOUS
  5
5BF
 10
243.9645
 20
343.845101
 30
0.0
 11
243.943262
 21
343.821834
 31
0.0
  0
LINE
  8
LC-003-002-----0
  6
CONTINUOUS
  5
5C0
 10
243.943262
 20
343.821834
 30
0.0
 11
243.922324
 21
343.800808
 31
0.0
  0
LINE
  8
LC-003-002-----0
  6
CONTINUOUS
  5
5C1
 10
243.922324
 20
343.800808
 30
0.0
 11
243.903256
 21
343.782853
 31
0.0
  0
LINE
  8
LC-003-002-----0
  6
CONTINUOUS
  5
5C2
 10
243.903256
 20
343.782853
 30
0.0
 11
243.893735
 21
343.774122
 31
0.0
  0
LINE
  8
LC-003-002-----0
  6
CONTINUOUS
  5
5C3
 10
243.893735
 20
343.774122
 30
0.0
 11
243.884205
 21
343.765458
 31
0.0
  0
LINE
  8
LC-003-002-----0
  6
CONTINUOUS
  5
5C4
 10
243.884205
 20
343.765458
 30
0.0
 11
243.873656
 21
343.755915
 31
0.0
  0
LINE
  8
LC-003-002-----0
  6
CONTINUOUS
  5
5C5
 10
243.873656
 20
343.755915
 30
0.0
 11
243.862389
 21
343.74592
 31
0.0
  0
LINE
  8
LC-003-002-----0
  6
CONTINUOUS
  5
5C6
 10
243.862389
 20
343.74592
 30
0.0
 11
243.852385
 21
343.737325
 31
0.0
  0
LINE
  8
LC-003-002-----0
  6
CONTINUOUS
  5
5C7
 10
243.852385
 20
343.737325
 30
0.0
 11
243.842825
 21
343.729321
 31
0.0
  0
LINE
  8
LC-003-002-----0
  6
CONTINUOUS
  5
5C8
 10
243.842825
 20
343.729321
 30
0.0
 11
243.835874
 21
343.7236
 31
0.0
  0
LINE
  8
LC-003-002-----0
  6
CONTINUOUS
  5
5C9
 10
243.835874
 20
343.7236
 30
0.0
 11
243.828831
 21
343.717851
 31
0.0
  0
LINE
  8
LC-003-002-----0
  6
CONTINUOUS
  5
5CA
 10
243.828831
 20
343.717851
 30
0.0
 11
243.81892
 21
343.709791
 31
0.0
  0
LINE
  8
LC-003-002-----0
  6
CONTINUOUS
  5
5CB
 10
243.81892
 20
343.709791
 30
0.0
 11
243.808474
 21
343.701401
 31
0.0
  0
LINE
  8
LC-003-002-----0
  6
CONTINUOUS
  5
5CC
 10
243.808474
 20
343.701401
 30
0.0
 11
243.797885
 21
343.693098
 31
0.0
  0
LINE
  8
LC-003-002-----0
  6
CONTINUOUS
  5
5CD
 10
243.797885
 20
343.693098
 30
0.0
 11
243.787896
 21
343.685476
 31
0.0
  0
LINE
  8
LC-003-002-----0
  6
CONTINUOUS
  5
5CE
 10
243.787896
 20
343.685476
 30
0.0
 11
243.778538
 21
343.678535
 31
0.0
  0
LINE
  8
LC-003-002-----0
  6
CONTINUOUS
  5
5CF
 10
243.778538
 20
343.678535
 30
0.0
 11
243.769061
 21
343.671631
 31
0.0
  0
LINE
  8
LC-003-002-----0
  6
CONTINUOUS
  5
5D0
 10
243.769061
 20
343.671631
 30
0.0
 11
243.750019
 21
343.657856
 31
0.0
  0
LINE
  8
LC-003-002-----0
  6
CONTINUOUS
  5
5D1
 10
243.750019
 20
343.657856
 30
0.0
 11
243.729287
 21
343.643181
 31
0.0
  0
LINE
  8
LC-003-002-----0
  6
CONTINUOUS
  5
5D2
 10
243.729287
 20
343.643181
 30
0.0
 11
243.706024
 21
343.627495
 31
0.0
  0
LINE
  8
LC-003-002-----0
  6
CONTINUOUS
  5
5D3
 10
243.706024
 20
343.627495
 30
0.0
 11
243.682347
 21
343.612704
 31
0.0
  0
LINE
  8
LC-003-002-----0
  6
CONTINUOUS
  5
5D4
 10
243.682347
 20
343.612704
 30
0.0
 11
243.657152
 21
343.598253
 31
0.0
  0
LINE
  8
LC-003-002-----0
  6
CONTINUOUS
  5
5D5
 10
243.657152
 20
343.598253
 30
0.0
 11
243.632317
 21
343.584681
 31
0.0
  0
LINE
  8
LC-003-002-----0
  6
CONTINUOUS
  5
5D6
 10
243.632317
 20
343.584681
 30
0.0
 11
243.614883
 21
343.575308
 31
0.0
  0
LINE
  8
LC-003-002-----0
  6
CONTINUOUS
  5
5D7
 10
243.614883
 20
343.575308
 30
0.0
 11
243.597627
 21
343.566483
 31
0.0
  0
LINE
  8
LC-003-002-----0
  6
CONTINUOUS
  5
5D8
 10
243.597627
 20
343.566483
 30
0.0
 11
243.582743
 21
343.559464
 31
0.0
  0
LINE
  8
LC-003-002-----0
  6
CONTINUOUS
  5
5D9
 10
243.582743
 20
343.559464
 30
0.0
 11
243.568666
 21
343.553289
 31
0.0
  0
LINE
  8
LC-003-002-----0
  6
CONTINUOUS
  5
5DA
 10
243.568666
 20
343.553289
 30
0.0
 11
243.558108
 21
343.54896
 31
0.0
  0
LINE
  8
LC-003-002-----0
  6
CONTINUOUS
  5
5DB
 10
243.558108
 20
343.54896
 30
0.0
 11
243.547273
 21
343.5447
 31
0.0
  0
LINE
  8
LC-003-002-----0
  6
CONTINUOUS
  5
5DC
 10
243.547273
 20
343.5447
 30
0.0
 11
243.520662
 21
343.534463
 31
0.0
  0
LINE
  8
LC-003-002-----0
  6
CONTINUOUS
  5
5DD
 10
243.520662
 20
343.534463
 30
0.0
 11
243.490718
 21
343.523852
 31
0.0
  0
LINE
  8
LC-003-002-----0
  6
CONTINUOUS
  5
5DE
 10
243.490718
 20
343.523852
 30
0.0
 11
243.460588
 21
343.515226
 31
0.0
  0
LINE
  8
LC-003-002-----0
  6
CONTINUOUS
  5
5DF
 10
243.460588
 20
343.515226
 30
0.0
 11
243.428056
 21
343.50937
 31
0.0
  0
LINE
  8
LC-003-002-----0
  6
CONTINUOUS
  5
5E0
 10
243.428056
 20
343.50937
 30
0.0
 11
243.41057
 21
343.50754
 31
0.0
  0
LINE
  8
LC-003-002-----0
  6
CONTINUOUS
  5
5E1
 10
243.41057
 20
343.50754
 30
0.0
 11
243.394044
 21
343.506307
 31
0.0
  0
LINE
  8
LC-003-002-----0
  6
CONTINUOUS
  5
5E2
 10
243.394044
 20
343.506307
 30
0.0
 11
243.381025
 21
343.505583
 31
0.0
  0
LINE
  8
LC-003-002-----0
  6
CONTINUOUS
  5
5E3
 10
243.381025
 20
343.505583
 30
0.0
 11
243.37406
 21
343.505281
 31
0.0
  0
LINE
  8
LC-003-002-----0
  6
CONTINUOUS
  5
5E4
 10
243.37406
 20
343.505281
 30
0.0
 11
243.37371
 21
343.505268
 31
0.0
  0
LINE
  8
LC-003-002-----0
  6
CONTINUOUS
  5
5E5
 10
243.37371
 20
343.505268
 30
0.0
 11
243.373186
 21
343.505252
 31
0.0
  0
LINE
  8
LC-003-002-----0
  6
CONTINUOUS
  5
5E6
 10
243.373186
 20
343.505252
 30
0.0
 11
243.370874
 21
343.505194
 31
0.0
  0
LINE
  8
LC-003-002-----0
  6
CONTINUOUS
  5
5E7
 10
243.370874
 20
343.505194
 30
0.0
 11
243.366834
 21
343.505124
 31
0.0
  0
ENDBLK
  8
0
  5
5E8
  0
BLOCK
  8
0
  5
5EA
  2
BLK63
 70
    64
 10
277.451921
 20
344.17601
 30
0.0
  3
BLK63
  0
LINE
  8
LC-003-002-----0
  6
CONTINUOUS
  5
5EB
 10
277.451921
 20
344.17601
 30
0.0
 11
277.530784
 21
344.178436
 31
0.0
  0
LINE
  8
LC-003-002-----0
  6
CONTINUOUS
  5
5EC
 10
277.530784
 20
344.178436
 30
0.0
 11
277.594291
 21
344.185396
 31
0.0
  0
LINE
  8
LC-003-002-----0
  6
CONTINUOUS
  5
5ED
 10
277.594291
 20
344.185396
 30
0.0
 11
277.628994
 21
344.191484
 31
0.0
  0
LINE
  8
LC-003-002-----0
  6
CONTINUOUS
  5
5EE
 10
277.628994
 20
344.191484
 30
0.0
 11
277.662525
 21
344.198294
 31
0.0
  0
LINE
  8
LC-003-002-----0
  6
CONTINUOUS
  5
5EF
 10
277.662525
 20
344.198294
 30
0.0
 11
277.688411
 21
344.203764
 31
0.0
  0
LINE
  8
LC-003-002-----0
  6
CONTINUOUS
  5
5F0
 10
277.688411
 20
344.203764
 30
0.0
 11
277.715058
 21
344.209928
 31
0.0
  0
LINE
  8
LC-003-002-----0
  6
CONTINUOUS
  5
5F1
 10
277.715058
 20
344.209928
 30
0.0
 11
277.747855
 21
344.21876
 31
0.0
  0
LINE
  8
LC-003-002-----0
  6
CONTINUOUS
  5
5F2
 10
277.747855
 20
344.21876
 30
0.0
 11
277.780547
 21
344.229149
 31
0.0
  0
LINE
  8
LC-003-002-----0
  6
CONTINUOUS
  5
5F3
 10
277.780547
 20
344.229149
 30
0.0
 11
277.815694
 21
344.242441
 31
0.0
  0
LINE
  8
LC-003-002-----0
  6
CONTINUOUS
  5
5F4
 10
277.815694
 20
344.242441
 30
0.0
 11
277.850889
 21
344.257185
 31
0.0
  0
LINE
  8
LC-003-002-----0
  6
CONTINUOUS
  5
5F5
 10
277.850889
 20
344.257185
 30
0.0
 11
277.907837
 21
344.281843
 31
0.0
  0
LINE
  8
LC-003-002-----0
  6
CONTINUOUS
  5
5F6
 10
277.907837
 20
344.281843
 30
0.0
 11
277.965913
 21
344.309474
 31
0.0
  0
LINE
  8
LC-003-002-----0
  6
CONTINUOUS
  5
5F7
 10
277.965913
 20
344.309474
 30
0.0
 11
278.022741
 21
344.341691
 31
0.0
  0
LINE
  8
LC-003-002-----0
  6
CONTINUOUS
  5
5F8
 10
278.022741
 20
344.341691
 30
0.0
 11
278.078413
 21
344.37967
 31
0.0
  0
LINE
  8
LC-003-002-----0
  6
CONTINUOUS
  5
5F9
 10
278.078413
 20
344.37967
 30
0.0
 11
278.136913
 21
344.42546
 31
0.0
  0
LINE
  8
LC-003-002-----0
  6
CONTINUOUS
  5
5FA
 10
278.136913
 20
344.42546
 30
0.0
 11
278.187425
 21
344.467621
 31
0.0
  0
LINE
  8
LC-003-002-----0
  6
CONTINUOUS
  5
5FB
 10
278.187425
 20
344.467621
 30
0.0
 11
278.205115
 21
344.482648
 31
0.0
  0
LINE
  8
LC-003-002-----0
  6
CONTINUOUS
  5
5FC
 10
278.205115
 20
344.482648
 30
0.0
 11
278.222281
 21
344.497706
 31
0.0
  0
LINE
  8
LC-003-002-----0
  6
CONTINUOUS
  5
5FD
 10
278.222281
 20
344.497706
 30
0.0
 11
278.244546
 21
344.518282
 31
0.0
  0
LINE
  8
LC-003-002-----0
  6
CONTINUOUS
  5
5FE
 10
278.244546
 20
344.518282
 30
0.0
 11
278.26844
 21
344.541733
 31
0.0
  0
LINE
  8
LC-003-002-----0
  6
CONTINUOUS
  5
5FF
 10
278.26844
 20
344.541733
 30
0.0
 11
278.29522
 21
344.569884
 31
0.0
  0
LINE
  8
LC-003-002-----0
  6
CONTINUOUS
  5
600
 10
278.29522
 20
344.569884
 30
0.0
 11
278.321565
 21
344.598736
 31
0.0
  0
LINE
  8
LC-003-002-----0
  6
CONTINUOUS
  5
601
 10
278.321565
 20
344.598736
 30
0.0
 11
278.347397
 21
344.6274
 31
0.0
  0
LINE
  8
LC-003-002-----0
  6
CONTINUOUS
  5
602
 10
278.347397
 20
344.6274
 30
0.0
 11
278.372476
 21
344.656326
 31
0.0
  0
LINE
  8
LC-003-002-----0
  6
CONTINUOUS
  5
603
 10
278.372476
 20
344.656326
 30
0.0
 11
278.39458
 21
344.683533
 31
0.0
  0
LINE
  8
LC-003-002-----0
  6
CONTINUOUS
  5
604
 10
278.39458
 20
344.683533
 30
0.0
 11
278.413702
 21
344.708402
 31
0.0
  0
LINE
  8
LC-003-002-----0
  6
CONTINUOUS
  5
605
 10
278.413702
 20
344.708402
 30
0.0
 11
278.427626
 21
344.727379
 31
0.0
  0
LINE
  8
LC-003-002-----0
  6
CONTINUOUS
  5
606
 10
278.427626
 20
344.727379
 30
0.0
 11
278.441304
 21
344.746619
 31
0.0
  0
LINE
  8
LC-003-002-----0
  6
CONTINUOUS
  5
607
 10
278.441304
 20
344.746619
 30
0.0
 11
278.49102
 21
344.81798
 31
0.0
  0
LINE
  8
LC-003-002-----0
  6
CONTINUOUS
  5
608
 10
278.49102
 20
344.81798
 30
0.0
 11
278.546665
 21
344.904113
 31
0.0
  0
LINE
  8
LC-003-002-----0
  6
CONTINUOUS
  5
609
 10
278.546665
 20
344.904113
 30
0.0
 11
278.588343
 21
344.978876
 31
0.0
  0
LINE
  8
LC-003-002-----0
  6
CONTINUOUS
  5
60A
 10
278.588343
 20
344.978876
 30
0.0
 11
278.620955
 21
345.046103
 31
0.0
  0
LINE
  8
LC-003-002-----0
  6
CONTINUOUS
  5
60B
 10
278.620955
 20
345.046103
 30
0.0
 11
278.641479
 21
345.092309
 31
0.0
  0
LINE
  8
LC-003-002-----0
  6
CONTINUOUS
  5
60C
 10
278.641479
 20
345.092309
 30
0.0
 11
278.661802
 21
345.140059
 31
0.0
  0
LINE
  8
LC-003-002-----0
  6
CONTINUOUS
  5
60D
 10
278.661802
 20
345.140059
 30
0.0
 11
278.698442
 21
345.228241
 31
0.0
  0
LINE
  8
LC-003-002-----0
  6
CONTINUOUS
  5
60E
 10
278.698442
 20
345.228241
 30
0.0
 11
278.7349
 21
345.324929
 31
0.0
  0
LINE
  8
LC-003-002-----0
  6
CONTINUOUS
  5
60F
 10
278.7349
 20
345.324929
 30
0.0
 11
278.760877
 21
345.408102
 31
0.0
  0
LINE
  8
LC-003-002-----0
  6
CONTINUOUS
  5
610
 10
278.760877
 20
345.408102
 30
0.0
 11
278.780639
 21
345.48386
 31
0.0
  0
LINE
  8
LC-003-002-----0
  6
CONTINUOUS
  5
611
 10
278.780639
 20
345.48386
 30
0.0
 11
278.792366
 21
345.534815
 31
0.0
  0
LINE
  8
LC-003-002-----0
  6
CONTINUOUS
  5
612
 10
278.792366
 20
345.534815
 30
0.0
 11
278.802739
 21
345.582942
 31
0.0
  0
LINE
  8
LC-003-002-----0
  6
CONTINUOUS
  5
613
 10
278.802739
 20
345.582942
 30
0.0
 11
278.818499
 21
345.658295
 31
0.0
  0
LINE
  8
LC-003-002-----0
  6
CONTINUOUS
  5
614
 10
278.818499
 20
345.658295
 30
0.0
 11
278.833455
 21
345.737918
 31
0.0
  0
LINE
  8
LC-003-002-----0
  6
CONTINUOUS
  5
615
 10
278.833455
 20
345.737918
 30
0.0
 11
278.8571
 21
345.925854
 31
0.0
  0
LINE
  8
LC-003-002-----0
  6
CONTINUOUS
  5
616
 10
278.8571
 20
345.925854
 30
0.0
 11
278.8663
 21
346.17601
 31
0.0
  0
ENDBLK
  8
0
  5
617
  0
BLOCK
  8
0
  5
619
  2
BLK64
 70
    64
 10
291.803885
 20
343.505124
 30
0.0
  3
BLK64
  0
LINE
  8
LC-003-002-----0
  6
CONTINUOUS
  5
61A
 10
291.803885
 20
343.505124
 30
0.0
 11
291.640819
 21
343.50074
 31
0.0
  0
LINE
  8
LC-003-002-----0
  6
CONTINUOUS
  5
61B
 10
291.640819
 20
343.50074
 30
0.0
 11
291.520458
 21
343.499118
 31
0.0
  0
LINE
  8
LC-003-002-----0
  6
CONTINUOUS
  5
61C
 10
291.520458
 20
343.499118
 30
0.0
 11
291.469513
 21
343.498915
 31
0.0
  0
LINE
  8
LC-003-002-----0
  6
CONTINUOUS
  5
61D
 10
291.469513
 20
343.498915
 30
0.0
 11
291.421202
 21
343.498886
 31
0.0
  0
LINE
  8
LC-003-002-----0
  6
CONTINUOUS
  5
61E
 10
291.421202
 20
343.498886
 30
0.0
 11
291.37289
 21
343.498915
 31
0.0
  0
LINE
  8
LC-003-002-----0
  6
CONTINUOUS
  5
61F
 10
291.37289
 20
343.498915
 30
0.0
 11
291.321945
 21
343.499118
 31
0.0
  0
LINE
  8
LC-003-002-----0
  6
CONTINUOUS
  5
620
 10
291.321945
 20
343.499118
 30
0.0
 11
291.201585
 21
343.50074
 31
0.0
  0
LINE
  8
LC-003-002-----0
  6
CONTINUOUS
  5
621
 10
291.201585
 20
343.50074
 30
0.0
 11
291.038518
 21
343.505124
 31
0.0
  0
ENDBLK
  8
0
  5
622
  0
BLOCK
  8
0
  5
624
  2
BLK65
 70
    64
 10
293.369748
 20
344.17601
 30
0.0
  3
BLK65
  0
LINE
  8
LC-003-002-----0
  6
CONTINUOUS
  5
625
 10
293.369748
 20
344.17601
 30
0.0
 11
293.27751
 21
344.174062
 31
0.0
  0
LINE
  8
LC-003-002-----0
  6
CONTINUOUS
  5
626
 10
293.27751
 20
344.174062
 30
0.0
 11
293.204484
 21
344.168618
 31
0.0
  0
LINE
  8
LC-003-002-----0
  6
CONTINUOUS
  5
627
 10
293.204484
 20
344.168618
 30
0.0
 11
293.16615
 21
344.164063
 31
0.0
  0
LINE
  8
LC-003-002-----0
  6
CONTINUOUS
  5
628
 10
293.16615
 20
344.164063
 30
0.0
 11
293.127776
 21
344.158797
 31
0.0
  0
LINE
  8
LC-003-002-----0
  6
CONTINUOUS
  5
629
 10
293.127776
 20
344.158797
 30
0.0
 11
293.091166
 21
344.153545
 31
0.0
  0
LINE
  8
LC-003-002-----0
  6
CONTINUOUS
  5
62A
 10
293.091166
 20
344.153545
 30
0.0
 11
293.053083
 21
344.147388
 31
0.0
  0
LINE
  8
LC-003-002-----0
  6
CONTINUOUS
  5
62B
 10
293.053083
 20
344.147388
 30
0.0
 11
293.01472
 21
344.139966
 31
0.0
  0
LINE
  8
LC-003-002-----0
  6
CONTINUOUS
  5
62C
 10
293.01472
 20
344.139966
 30
0.0
 11
292.978697
 21
344.131828
 31
0.0
  0
LINE
  8
LC-003-002-----0
  6
CONTINUOUS
  5
62D
 10
292.978697
 20
344.131828
 30
0.0
 11
292.94678
 21
344.123555
 31
0.0
  0
LINE
  8
LC-003-002-----0
  6
CONTINUOUS
  5
62E
 10
292.94678
 20
344.123555
 30
0.0
 11
292.916795
 21
344.115114
 31
0.0
  0
LINE
  8
LC-003-002-----0
  6
CONTINUOUS
  5
62F
 10
292.916795
 20
344.115114
 30
0.0
 11
292.854007
 21
344.096872
 31
0.0
  0
LINE
  8
LC-003-002-----0
  6
CONTINUOUS
  5
630
 10
292.854007
 20
344.096872
 30
0.0
 11
292.78729
 21
344.075615
 31
0.0
  0
LINE
  8
LC-003-002-----0
  6
CONTINUOUS
  5
631
 10
292.78729
 20
344.075615
 30
0.0
 11
292.639675
 21
344.015556
 31
0.0
  0
LINE
  8
LC-003-002-----0
  6
CONTINUOUS
  5
632
 10
292.639675
 20
344.015556
 30
0.0
 11
292.457167
 21
343.915139
 31
0.0
  0
ENDBLK
  8
0
  5
633
  0
BLOCK
  8
0
  5
635
  2
BLK66
 70
    64
 10
292.457167
 20
343.915139
 30
0.0
  3
BLK66
  0
LINE
  8
LC-003-002-----0
  6
CONTINUOUS
  5
636
 10
292.457167
 20
343.915139
 30
0.0
 11
292.437768
 21
343.903168
 31
0.0
  0
LINE
  8
LC-003-002-----0
  6
CONTINUOUS
  5
637
 10
292.437768
 20
343.903168
 30
0.0
 11
292.421684
 21
343.893156
 31
0.0
  0
LINE
  8
LC-003-002-----0
  6
CONTINUOUS
  5
638
 10
292.421684
 20
343.893156
 30
0.0
 11
292.408663
 21
343.884978
 31
0.0
  0
LINE
  8
LC-003-002-----0
  6
CONTINUOUS
  5
639
 10
292.408663
 20
343.884978
 30
0.0
 11
292.398455
 21
343.878507
 31
0.0
  0
LINE
  8
LC-003-002-----0
  6
CONTINUOUS
  5
63A
 10
292.398455
 20
343.878507
 30
0.0
 11
292.39021
 21
343.873231
 31
0.0
  0
LINE
  8
LC-003-002-----0
  6
CONTINUOUS
  5
63B
 10
292.39021
 20
343.873231
 30
0.0
 11
292.381891
 21
343.86787
 31
0.0
  0
LINE
  8
LC-003-002-----0
  6
CONTINUOUS
  5
63C
 10
292.381891
 20
343.86787
 30
0.0
 11
292.368179
 21
343.859019
 31
0.0
  0
LINE
  8
LC-003-002-----0
  6
CONTINUOUS
  5
63D
 10
292.368179
 20
343.859019
 30
0.0
 11
292.350954
 21
343.847868
 31
0.0
  0
LINE
  8
LC-003-002-----0
  6
CONTINUOUS
  5
63E
 10
292.350954
 20
343.847868
 30
0.0
 11
292.331188
 21
343.835009
 31
0.0
  0
LINE
  8
LC-003-002-----0
  6
CONTINUOUS
  5
63F
 10
292.331188
 20
343.835009
 30
0.0
 11
292.30985
 21
343.821035
 31
0.0
  0
LINE
  8
LC-003-002-----0
  6
CONTINUOUS
  5
640
 10
292.30985
 20
343.821035
 30
0.0
 11
292.287911
 21
343.806538
 31
0.0
  0
LINE
  8
LC-003-002-----0
  6
CONTINUOUS
  5
641
 10
292.287911
 20
343.806538
 30
0.0
 11
292.266342
 21
343.792109
 31
0.0
  0
LINE
  8
LC-003-002-----0
  6
CONTINUOUS
  5
642
 10
292.266342
 20
343.792109
 30
0.0
 11
292.230812
 21
343.767822
 31
0.0
  0
LINE
  8
LC-003-002-----0
  6
CONTINUOUS
  5
643
 10
292.230812
 20
343.767822
 30
0.0
 11
292.19768
 21
343.74465
 31
0.0
  0
LINE
  8
LC-003-002-----0
  6
CONTINUOUS
  5
644
 10
292.19768
 20
343.74465
 30
0.0
 11
292.165131
 21
343.721631
 31
0.0
  0
LINE
  8
LC-003-002-----0
  6
CONTINUOUS
  5
645
 10
292.165131
 20
343.721631
 30
0.0
 11
292.136496
 21
343.701379
 31
0.0
  0
LINE
  8
LC-003-002-----0
  6
CONTINUOUS
  5
646
 10
292.136496
 20
343.701379
 30
0.0
 11
292.108444
 21
343.681569
 31
0.0
  0
LINE
  8
LC-003-002-----0
  6
CONTINUOUS
  5
647
 10
292.108444
 20
343.681569
 30
0.0
 11
292.082478
 21
343.663245
 31
0.0
  0
LINE
  8
LC-003-002-----0
  6
CONTINUOUS
  5
648
 10
292.082478
 20
343.663245
 30
0.0
 11
292.06334
 21
343.649745
 31
0.0
  0
LINE
  8
LC-003-002-----0
  6
CONTINUOUS
  5
649
 10
292.06334
 20
343.649745
 30
0.0
 11
292.044217
 21
343.636277
 31
0.0
  0
LINE
  8
LC-003-002-----0
  6
CONTINUOUS
  5
64A
 10
292.044217
 20
343.636277
 30
0.0
 11
292.025249
 21
343.622984
 31
0.0
  0
LINE
  8
LC-003-002-----0
  6
CONTINUOUS
  5
64B
 10
292.025249
 20
343.622984
 30
0.0
 11
292.004914
 21
343.608969
 31
0.0
  0
LINE
  8
LC-003-002-----0
  6
CONTINUOUS
  5
64C
 10
292.004914
 20
343.608969
 30
0.0
 11
291.986383
 21
343.596496
 31
0.0
  0
LINE
  8
LC-003-002-----0
  6
CONTINUOUS
  5
64D
 10
291.986383
 20
343.596496
 30
0.0
 11
291.968401
 21
343.584549
 31
0.0
  0
LINE
  8
LC-003-002-----0
  6
CONTINUOUS
  5
64E
 10
291.968401
 20
343.584549
 30
0.0
 11
291.956555
 21
343.576715
 31
0.0
  0
LINE
  8
LC-003-002-----0
  6
CONTINUOUS
  5
64F
 10
291.956555
 20
343.576715
 30
0.0
 11
291.944727
 21
343.569002
 31
0.0
  0
LINE
  8
LC-003-002-----0
  6
CONTINUOUS
  5
650
 10
291.944727
 20
343.569002
 30
0.0
 11
291.933494
 21
343.561855
 31
0.0
  0
LINE
  8
LC-003-002-----0
  6
CONTINUOUS
  5
651
 10
291.933494
 20
343.561855
 30
0.0
 11
291.922522
 21
343.555101
 31
0.0
  0
LINE
  8
LC-003-002-----0
  6
CONTINUOUS
  5
652
 10
291.922522
 20
343.555101
 30
0.0
 11
291.913398
 21
343.549726
 31
0.0
  0
LINE
  8
LC-003-002-----0
  6
CONTINUOUS
  5
653
 10
291.913398
 20
343.549726
 30
0.0
 11
291.903906
 21
343.544287
 31
0.0
  0
LINE
  8
LC-003-002-----0
  6
CONTINUOUS
  5
654
 10
291.903906
 20
343.544287
 30
0.0
 11
291.885119
 21
343.533678
 31
0.0
  0
LINE
  8
LC-003-002-----0
  6
CONTINUOUS
  5
655
 10
291.885119
 20
343.533678
 30
0.0
 11
291.864456
 21
343.522624
 31
0.0
  0
LINE
  8
LC-003-002-----0
  6
CONTINUOUS
  5
656
 10
291.864456
 20
343.522624
 30
0.0
 11
291.846429
 21
343.514252
 31
0.0
  0
LINE
  8
LC-003-002-----0
  6
CONTINUOUS
  5
657
 10
291.846429
 20
343.514252
 30
0.0
 11
291.827563
 21
343.508322
 31
0.0
  0
LINE
  8
LC-003-002-----0
  6
CONTINUOUS
  5
658
 10
291.827563
 20
343.508322
 30
0.0
 11
291.820728
 21
343.507024
 31
0.0
  0
LINE
  8
LC-003-002-----0
  6
CONTINUOUS
  5
659
 10
291.820728
 20
343.507024
 30
0.0
 11
291.814448
 21
343.506107
 31
0.0
  0
LINE
  8
LC-003-002-----0
  6
CONTINUOUS
  5
65A
 10
291.814448
 20
343.506107
 30
0.0
 11
291.80956
 21
343.505538
 31
0.0
  0
LINE
  8
LC-003-002-----0
  6
CONTINUOUS
  5
65B
 10
291.80956
 20
343.505538
 30
0.0
 11
291.806905
 21
343.50528
 31
0.0
  0
LINE
  8
LC-003-002-----0
  6
CONTINUOUS
  5
65C
 10
291.806905
 20
343.50528
 30
0.0
 11
291.806761
 21
343.505267
 31
0.0
  0
LINE
  8
LC-003-002-----0
  6
CONTINUOUS
  5
65D
 10
291.806761
 20
343.505267
 30
0.0
 11
291.806533
 21
343.505251
 31
0.0
  0
LINE
  8
LC-003-002-----0
  6
CONTINUOUS
  5
65E
 10
291.806533
 20
343.505251
 30
0.0
 11
291.805564
 21
343.505194
 31
0.0
  0
LINE
  8
LC-003-002-----0
  6
CONTINUOUS
  5
65F
 10
291.805564
 20
343.505194
 30
0.0
 11
291.803885
 21
343.505124
 31
0.0
  0
ENDBLK
  8
0
  5
660
  0
BLOCK
  8
0
  5
662
  2
BLK67
 70
    64
 10
297.989728
 20
344.17601
 30
0.0
  3
BLK67
  0
LINE
  8
LC-003-002-----0
  6
CONTINUOUS
  5
663
 10
297.989728
 20
344.17601
 30
0.0
 11
298.150629
 21
344.183605
 31
0.0
  0
LINE
  8
LC-003-002-----0
  6
CONTINUOUS
  5
664
 10
298.150629
 20
344.183605
 30
0.0
 11
298.310104
 21
344.206295
 31
0.0
  0
ENDBLK
  8
0
  5
665
  0
BLOCK
  8
0
  5
667
  2
*D67
 70
    65
 10
0.0
 20
0.0
 30
0.0
  3
*D67
  0
ENDBLK
  8
0
  5
668
  0
BLOCK
  8
0
  5
66A
  2
*D68
 70
    65
 10
0.0
 20
0.0
 30
0.0
  3
*D68
  0
LINE
  8
LC-008-003-MTH-0
  6
CONTINUOUS
  5
66C
 10
110.310104
 20
219.249208
 30
0.0
 11
110.310104
 21
140.0
 31
0.0
  0
LINE
  8
LC-008-003-MTH-0
  6
CONTINUOUS
  5
66D
 10
305.310104
 20
219.249208
 30
0.0
 11
305.310104
 21
140.0
 31
0.0
  0
LINE
  8
LC-009-003-MTG-0
  6
CONTINUOUS
  5
66F
 10
110.310104
 20
156.8
 30
0.0
 11
305.310104
 21
156.8
 31
0.0
  0
LINE
  8
LC-007-003-----0
  6
CONTINUOUS
  5
671
 10
138.07056
 20
160.454733
 30
0.0
 11
110.310104
 21
156.8
 31
0.0
  0
LINE
  8
LC-007-003-----0
  6
CONTINUOUS
  5
672
 10
110.310104
 20
156.8
 30
0.0
 11
138.07056
 21
153.145267
 31
0.0
  0
LINE
  8
LC-007-003-----0
  6
CONTINUOUS
  5
673
 10
138.07056
 20
153.145267
 30
0.0
 11
138.07056
 21
160.454733
 31
0.0
  0
LINE
  8
LC-007-003-----0
  6
CONTINUOUS
  5
674
 10
138.132842
 20
159.504503
 30
0.0
 11
117.590104
 21
156.8
 31
0.0
  0
LINE
  8
LC-007-003-----0
  6
CONTINUOUS
  5
675
 10
117.590104
 20
156.8
 30
0.0
 11
138.132842
 21
154.095497
 31
0.0
  0
LINE
  8
LC-007-003-----0
  6
CONTINUOUS
  5
676
 10
138.195123
 20
158.554272
 30
0.0
 11
124.870104
 21
156.8
 31
0.0
  0
LINE
  8
LC-007-003-----0
  6
CONTINUOUS
  5
677
 10
124.870104
 20
156.8
 30
0.0
 11
138.195123
 21
155.045728
 31
0.0
  0
LINE
  8
LC-007-003-----0
  6
CONTINUOUS
  5
678
 10
138.257404
 20
157.604041
 30
0.0
 11
132.150104
 21
156.8
 31
0.0
  0
LINE
  8
LC-007-003-----0
  6
CONTINUOUS
  5
679
 10
132.150104
 20
156.8
 30
0.0
 11
138.257404
 21
155.995959
 31
0.0
  0
LINE
  8
LC-007-003-----0
  6
CONTINUOUS
  5
67A
 10
277.549648
 20
153.145267
 30
0.0
 11
305.310104
 21
156.8
 31
0.0
  0
LINE
  8
LC-007-003-----0
  6
CONTINUOUS
  5
67B
 10
305.310104
 20
156.8
 30
0.0
 11
277.549648
 21
160.454733
 31
0.0
  0
LINE
  8
LC-007-003-----0
  6
CONTINUOUS
  5
67C
 10
277.549648
 20
160.454733
 30
0.0
 11
277.549648
 21
153.145267
 31
0.0
  0
LINE
  8
LC-007-003-----0
  6
CONTINUOUS
  5
67D
 10
277.487367
 20
154.095497
 30
0.0
 11
298.030104
 21
156.8
 31
0.0
  0
LINE
  8
LC-007-003-----0
  6
CONTINUOUS
  5
67E
 10
298.030104
 20
156.8
 30
0.0
 11
277.487367
 21
159.504503
 31
0.0
  0
LINE
  8
LC-007-003-----0
  6
CONTINUOUS
  5
67F
 10
277.425085
 20
155.045728
 30
0.0
 11
290.750104
 21
156.8
 31
0.0
  0
LINE
  8
LC-007-003-----0
  6
CONTINUOUS
  5
680
 10
290.750104
 20
156.8
 30
0.0
 11
277.425085
 21
158.554272
 31
0.0
  0
LINE
  8
LC-007-003-----0
  6
CONTINUOUS
  5
681
 10
277.362804
 20
155.995959
 30
0.0
 11
283.470104
 21
156.8
 31
0.0
  0
LINE
  8
LC-007-003-----0
  6
CONTINUOUS
  5
682
 10
283.470104
 20
156.8
 30
0.0
 11
277.362804
 21
157.604041
 31
0.0
  0
TEXT
  8
LC-007-003-----0
  6
CONTINUOUS
 62
     8
  5
683
 10
173.886814
 20
164.627554
 30
0.0
 40
28.0
  1
Ø195
 41
0.9
 51
15.0
  7
LC-TXTSTYLE-150-400-0-0-A0
 72
     1
 11
212.158264
 21
164.627554
 31
0.0
  0
ENDBLK
  8
0
  5
684
  0
BLOCK
  8
0
  5
686
  2
*D69
 70
    65
 10
0.0
 20
0.0
 30
0.0
  3
*D69
  0
LINE
  8
LC-008-003-MTH-0
  6
CONTINUOUS
  5
687
 10
297.810104
 20
218.177411
 30
0.0
 11
369.6
 21
218.177411
 31
0.0
  0
LINE
  8
LC-008-003-MTH-0
  6
CONTINUOUS
  5
688
 10
306.088875
 20
313.17601
 30
0.0
 11
369.6
 21
313.17601
 31
0.0
  0
LINE
  8
LC-009-003-MTG-0
  6
CONTINUOUS
  5
689
 10
352.8
 20
218.177411
 30
0.0
 11
352.8
 21
313.17601
 31
0.0
  0
LINE
  8
LC-007-003-----0
  6
CONTINUOUS
  5
68A
 10
349.145267
 20
245.937867
 30
0.0
 11
352.8
 21
218.177411
 31
0.0
  0
LINE
  8
LC-007-003-----0
  6
CONTINUOUS
  5
68B
 10
352.8
 20
218.177411
 30
0.0
 11
356.454733
 21
245.937867
 31
0.0
  0
LINE
  8
LC-007-003-----0
  6
CONTINUOUS
  5
68C
 10
356.454733
 20
245.937867
 30
0.0
 11
349.145267
 21
245.937867
 31
0.0
  0
LINE
  8
LC-007-003-----0
  6
CONTINUOUS
  5
68D
 10
350.095497
 20
246.000149
 30
0.0
 11
352.8
 21
225.457411
 31
0.0
  0
LINE
  8
LC-007-003-----0
  6
CONTINUOUS
  5
68E
 10
352.8
 20
225.457411
 30
0.0
 11
355.504503
 21
246.000149
 31
0.0
  0
LINE
  8
LC-007-003-----0
  6
CONTINUOUS
  5
68F
 10
351.045728
 20
246.06243
 30
0.0
 11
352.8
 21
232.737411
 31
0.0
  0
LINE
  8
LC-007-003-----0
  6
CONTINUOUS
  5
690
 10
352.8
 20
232.737411
 30
0.0
 11
354.554272
 21
246.06243
 31
0.0
  0
LINE
  8
LC-007-003-----0
  6
CONTINUOUS
  5
691
 10
351.995959
 20
246.124712
 30
0.0
 11
352.8
 21
240.017411
 31
0.0
  0
LINE
  8
LC-007-003-----0
  6
CONTINUOUS
  5
692
 10
352.8
 20
240.017411
 30
0.0
 11
353.604041
 21
246.124712
 31
0.0
  0
LINE
  8
LC-007-003-----0
  6
CONTINUOUS
  5
693
 10
356.454733
 20
285.415554
 30
0.0
 11
352.8
 21
313.17601
 31
0.0
  0
LINE
  8
LC-007-003-----0
  6
CONTINUOUS
  5
694
 10
352.8
 20
313.17601
 30
0.0
 11
349.145267
 21
285.415554
 31
0.0
  0
LINE
  8
LC-007-003-----0
  6
CONTINUOUS
  5
695
 10
349.145267
 20
285.415554
 30
0.0
 11
356.454733
 21
285.415554
 31
0.0
  0
LINE
  8
LC-007-003-----0
  6
CONTINUOUS
  5
696
 10
355.504503
 20
285.353273
 30
0.0
 11
352.8
 21
305.89601
 31
0.0
  0
LINE
  8
LC-007-003-----0
  6
CONTINUOUS
  5
697
 10
352.8
 20
305.89601
 30
0.0
 11
350.095497
 21
285.353273
 31
0.0
  0
LINE
  8
LC-007-003-----0
  6
CONTINUOUS
  5
698
 10
354.554272
 20
285.290991
 30
0.0
 11
352.8
 21
298.61601
 31
0.0
  0
LINE
  8
LC-007-003-----0
  6
CONTINUOUS
  5
699
 10
352.8
 20
298.61601
 30
0.0
 11
351.045728
 21
285.290991
 31
0.0
  0
LINE
  8
LC-007-003-----0
  6
CONTINUOUS
  5
69A
 10
353.604041
 20
285.22871
 30
0.0
 11
352.8
 21
291.33601
 31
0.0
  0
LINE
  8
LC-007-003-----0
  6
CONTINUOUS
  5
69B
 10
352.8
 20
291.33601
 30
0.0
 11
351.995959
 21
285.22871
 31
0.0
  0
TEXT
  8
LC-007-003-----0
  6
CONTINUOUS
 62
     8
  5
69C
 10
344.972446
 20
252.422671
 30
0.0
 40
28.0
  1
95
 50
90.0
 41
0.9
 51
15.0
  7
LC-TXTSTYLE-150-400-0-0-A0
 72
     1
 11
344.972446
 21
270.024871
 31
0.0
  0
ENDBLK
  8
0
  5
69D
  0
BLOCK
  8
0
  5
69F
  2
*D70
 70
    65
 10
0.0
 20
0.0
 30
0.0
  3
*D70
  0
LINE
  8
LC-008-003-MTH-0
  6
CONTINUOUS
  5
6A0
 10
297.810104
 20
218.177411
 30
0.0
 11
408.8
 21
218.177411
 31
0.0
  0
LINE
  8
LC-008-003-MTH-0
  6
CONTINUOUS
  5
6A1
 10
365.310104
 20
373.17601
 30
0.0
 11
408.8
 21
373.17601
 31
0.0
  0
LINE
  8
LC-009-003-MTG-0
  6
CONTINUOUS
  5
6A2
 10
392.0
 20
218.177411
 30
0.0
 11
392.0
 21
373.17601
 31
0.0
  0
LINE
  8
LC-007-003-----0
  6
CONTINUOUS
  5
6A3
 10
388.345267
 20
245.937867
 30
0.0
 11
392.0
 21
218.177411
 31
0.0
  0
LINE
  8
LC-007-003-----0
  6
CONTINUOUS
  5
6A4
 10
392.0
 20
218.177411
 30
0.0
 11
395.654733
 21
245.937867
 31
0.0
  0
LINE
  8
LC-007-003-----0
  6
CONTINUOUS
  5
6A5
 10
395.654733
 20
245.937867
 30
0.0
 11
388.345267
 21
245.937867
 31
0.0
  0
LINE
  8
LC-007-003-----0
  6
CONTINUOUS
  5
6A6
 10
389.295497
 20
246.000149
 30
0.0
 11
392.0
 21
225.457411
 31
0.0
  0
LINE
  8
LC-007-003-----0
  6
CONTINUOUS
  5
6A7
 10
392.0
 20
225.457411
 30
0.0
 11
394.704503
 21
246.000149
 31
0.0
  0
LINE
  8
LC-007-003-----0
  6
CONTINUOUS
  5
6A8
 10
390.245728
 20
246.06243
 30
0.0
 11
392.0
 21
232.737411
 31
0.0
  0
LINE
  8
LC-007-003-----0
  6
CONTINUOUS
  5
6A9
 10
392.0
 20
232.737411
 30
0.0
 11
393.754272
 21
246.06243
 31
0.0
  0
LINE
  8
LC-007-003-----0
  6
CONTINUOUS
  5
6AA
 10
391.195959
 20
246.124712
 30
0.0
 11
392.0
 21
240.017411
 31
0.0
  0
LINE
  8
LC-007-003-----0
  6
CONTINUOUS
  5
6AB
 10
392.0
 20
240.017411
 30
0.0
 11
392.804041
 21
246.124712
 31
0.0
  0
LINE
  8
LC-007-003-----0
  6
CONTINUOUS
  5
6AC
 10
395.654733
 20
345.415554
 30
0.0
 11
392.0
 21
373.17601
 31
0.0
  0
LINE
  8
LC-007-003-----0
  6
CONTINUOUS
  5
6AD
 10
392.0
 20
373.17601
 30
0.0
 11
388.345267
 21
345.415554
 31
0.0
  0
LINE
  8
LC-007-003-----0
  6
CONTINUOUS
  5
6AE
 10
388.345267
 20
345.415554
 30
0.0
 11
395.654733
 21
345.415554
 31
0.0
  0
LINE
  8
LC-007-003-----0
  6
CONTINUOUS
  5
6AF
 10
394.704503
 20
345.353273
 30
0.0
 11
392.0
 21
365.89601
 31
0.0
  0
LINE
  8
LC-007-003-----0
  6
CONTINUOUS
  5
6B0
 10
392.0
 20
365.89601
 30
0.0
 11
389.295497
 21
345.353273
 31
0.0
  0
LINE
  8
LC-007-003-----0
  6
CONTINUOUS
  5
6B1
 10
393.754272
 20
345.290991
 30
0.0
 11
392.0
 21
358.61601
 31
0.0
  0
LINE
  8
LC-007-003-----0
  6
CONTINUOUS
  5
6B2
 10
392.0
 20
358.61601
 30
0.0
 11
390.245728
 21
345.290991
 31
0.0
  0
LINE
  8
LC-007-003-----0
  6
CONTINUOUS
  5
6B3
 10
392.804041
 20
345.22871
 30
0.0
 11
392.0
 21
351.33601
 31
0.0
  0
LINE
  8
LC-007-003-----0
  6
CONTINUOUS
  5
6B4
 10
392.0
 20
351.33601
 30
0.0
 11
391.195959
 21
345.22871
 31
0.0
  0
TEXT
  8
LC-007-003-----0
  6
CONTINUOUS
 62
     8
  5
6B5
 10
384.172446
 20
273.621571
 30
0.0
 40
28.0
  1
155
 50
90.0
 41
0.9
 51
15.0
  7
LC-TXTSTYLE-150-400-0-0-A0
 72
     1
 11
384.172446
 21
300.024871
 31
0.0
  0
ENDBLK
  8
0
  5
6B6
  0
BLOCK
  8
0
  5
6B8
  2
*D71
 70
    65
 10
0.0
 20
0.0
 30
0.0
  3
*D71
  0
LINE
  8
LC-008-003-MTH-0
  6
CONTINUOUS
  5
6B9
 10
110.310104
 20
376.17601
 30
0.0
 11
110.310104
 21
408.8
 31
0.0
  0
LINE
  8
LC-008-003-MTH-0
  6
CONTINUOUS
  5
6BA
 10
305.310104
 20
376.17601
 30
0.0
 11
305.310104
 21
408.8
 31
0.0
  0
LINE
  8
LC-009-003-MTG-0
  6
CONTINUOUS
  5
6BB
 10
110.310104
 20
392.0
 30
0.0
 11
305.310104
 21
392.0
 31
0.0
  0
LINE
  8
LC-007-003-----0
  6
CONTINUOUS
  5
6BC
 10
138.07056
 20
395.654733
 30
0.0
 11
110.310104
 21
392.0
 31
0.0
  0
LINE
  8
LC-007-003-----0
  6
CONTINUOUS
  5
6BD
 10
110.310104
 20
392.0
 30
0.0
 11
138.07056
 21
388.345267
 31
0.0
  0
LINE
  8
LC-007-003-----0
  6
CONTINUOUS
  5
6BE
 10
138.07056
 20
388.345267
 30
0.0
 11
138.07056
 21
395.654733
 31
0.0
  0
LINE
  8
LC-007-003-----0
  6
CONTINUOUS
  5
6BF
 10
138.132842
 20
394.704503
 30
0.0
 11
117.590104
 21
392.0
 31
0.0
  0
LINE
  8
LC-007-003-----0
  6
CONTINUOUS
  5
6C0
 10
117.590104
 20
392.0
 30
0.0
 11
138.132842
 21
389.295497
 31
0.0
  0
LINE
  8
LC-007-003-----0
  6
CONTINUOUS
  5
6C1
 10
138.195123
 20
393.754272
 30
0.0
 11
124.870104
 21
392.0
 31
0.0
  0
LINE
  8
LC-007-003-----0
  6
CONTINUOUS
  5
6C2
 10
124.870104
 20
392.0
 30
0.0
 11
138.195123
 21
390.245728
 31
0.0
  0
LINE
  8
LC-007-003-----0
  6
CONTINUOUS
  5
6C3
 10
138.257404
 20
392.804041
 30
0.0
 11
132.150104
 21
392.0
 31
0.0
  0
LINE
  8
LC-007-003-----0
  6
CONTINUOUS
  5
6C4
 10
132.150104
 20
392.0
 30
0.0
 11
138.257404
 21
391.195959
 31
0.0
  0
LINE
  8
LC-007-003-----0
  6
CONTINUOUS
  5
6C5
 10
277.549648
 20
388.345267
 30
0.0
 11
305.310104
 21
392.0
 31
0.0
  0
LINE
  8
LC-007-003-----0
  6
CONTINUOUS
  5
6C6
 10
305.310104
 20
392.0
 30
0.0
 11
277.549648
 21
395.654733
 31
0.0
  0
LINE
  8
LC-007-003-----0
  6
CONTINUOUS
  5
6C7
 10
277.549648
 20
395.654733
 30
0.0
 11
277.549648
 21
388.345267
 31
0.0
  0
LINE
  8
LC-007-003-----0
  6
CONTINUOUS
  5
6C8
 10
277.487367
 20
389.295497
 30
0.0
 11
298.030104
 21
392.0
 31
0.0
  0
LINE
  8
LC-007-003-----0
  6
CONTINUOUS
  5
6C9
 10
298.030104
 20
392.0
 30
0.0
 11
277.487367
 21
394.704503
 31
0.0
  0
LINE
  8
LC-007-003-----0
  6
CONTINUOUS
  5
6CA
 10
277.425085
 20
390.245728
 30
0.0
 11
290.750104
 21
392.0
 31
0.0
  0
LINE
  8
LC-007-003-----0
  6
CONTINUOUS
  5
6CB
 10
290.750104
 20
392.0
 30
0.0
 11
277.425085
 21
393.754272
 31
0.0
  0
LINE
  8
LC-007-003-----0
  6
CONTINUOUS
  5
6CC
 10
277.362804
 20
391.195959
 30
0.0
 11
283.470104
 21
392.0
 31
0.0
  0
LINE
  8
LC-007-003-----0
  6
CONTINUOUS
  5
6CD
 10
283.470104
 20
392.0
 30
0.0
 11
277.362804
 21
392.804041
 31
0.0
  0
TEXT
  8
LC-007-003-----0
  6
CONTINUOUS
 62
     8
  5
6CE
 10
173.886814
 20
399.827554
 30
0.0
 40
28.0
  1
Ø195
 41
0.9
 51
15.0
  7
LC-TXTSTYLE-150-400-0-0-A0
 72
     1
 11
212.158264
 21
399.827554
 31
0.0
  0
ENDBLK
  8
0
  5
6CF
  0
BLOCK
  8
0
  5
6D1
  2
*D72
 70
    65
 10
0.0
 20
0.0
 30
0.0
  3
*D72
  0
LINE
  8
LC-008-003-MTH-0
  6
CONTINUOUS
  5
6D2
 10
50.310104
 20
370.05101
 30
0.0
 11
50.310104
 21
448.0
 31
0.0
  0
LINE
  8
LC-008-003-MTH-0
  6
CONTINUOUS
  5
6D3
 10
365.310104
 20
370.05101
 30
0.0
 11
365.310104
 21
448.0
 31
0.0
  0
LINE
  8
LC-009-003-MTG-0
  6
CONTINUOUS
  5
6D4
 10
50.310104
 20
431.2
 30
0.0
 11
365.310104
 21
431.2
 31
0.0
  0
LINE
  8
LC-007-003-----0
  6
CONTINUOUS
  5
6D5
 10
78.07056
 20
434.854733
 30
0.0
 11
50.310104
 21
431.2
 31
0.0
  0
LINE
  8
LC-007-003-----0
  6
CONTINUOUS
  5
6D6
 10
50.310104
 20
431.2
 30
0.0
 11
78.07056
 21
427.545267
 31
0.0
  0
LINE
  8
LC-007-003-----0
  6
CONTINUOUS
  5
6D7
 10
78.07056
 20
427.545267
 30
0.0
 11
78.07056
 21
434.854733
 31
0.0
  0
LINE
  8
LC-007-003-----0
  6
CONTINUOUS
  5
6D8
 10
78.132842
 20
433.904503
 30
0.0
 11
57.590104
 21
431.2
 31
0.0
  0
LINE
  8
LC-007-003-----0
  6
CONTINUOUS
  5
6D9
 10
57.590104
 20
431.2
 30
0.0
 11
78.132842
 21
428.495497
 31
0.0
  0
LINE
  8
LC-007-003-----0
  6
CONTINUOUS
  5
6DA
 10
78.195123
 20
432.954272
 30
0.0
 11
64.870104
 21
431.2
 31
0.0
  0
LINE
  8
LC-007-003-----0
  6
CONTINUOUS
  5
6DB
 10
64.870104
 20
431.2
 30
0.0
 11
78.195123
 21
429.445728
 31
0.0
  0
LINE
  8
LC-007-003-----0
  6
CONTINUOUS
  5
6DC
 10
78.257404
 20
432.004041
 30
0.0
 11
72.150104
 21
431.2
 31
0.0
  0
LINE
  8
LC-007-003-----0
  6
CONTINUOUS
  5
6DD
 10
72.150104
 20
431.2
 30
0.0
 11
78.257404
 21
430.395959
 31
0.0
  0
LINE
  8
LC-007-003-----0
  6
CONTINUOUS
  5
6DE
 10
337.549648
 20
427.545267
 30
0.0
 11
365.310104
 21
431.2
 31
0.0
  0
LINE
  8
LC-007-003-----0
  6
CONTINUOUS
  5
6DF
 10
365.310104
 20
431.2
 30
0.0
 11
337.549648
 21
434.854733
 31
0.0
  0
LINE
  8
LC-007-003-----0
  6
CONTINUOUS
  5
6E0
 10
337.549648
 20
434.854733
 30
0.0
 11
337.549648
 21
427.545267
 31
0.0
  0
LINE
  8
LC-007-003-----0
  6
CONTINUOUS
  5
6E1
 10
337.487367
 20
428.495497
 30
0.0
 11
358.030104
 21
431.2
 31
0.0
  0
LINE
  8
LC-007-003-----0
  6
CONTINUOUS
  5
6E2
 10
358.030104
 20
431.2
 30
0.0
 11
337.487367
 21
433.904503
 31
0.0
  0
LINE
  8
LC-007-003-----0
  6
CONTINUOUS
  5
6E3
 10
337.425085
 20
429.445728
 30
0.0
 11
350.750104
 21
431.2
 31
0.0
  0
LINE
  8
LC-007-003-----0
  6
CONTINUOUS
  5
6E4
 10
350.750104
 20
431.2
 30
0.0
 11
337.425085
 21
432.954272
 31
0.0
  0
LINE
  8
LC-007-003-----0
  6
CONTINUOUS
  5
6E5
 10
337.362804
 20
430.395959
 30
0.0
 11
343.470104
 21
431.2
 31
0.0
  0
LINE
  8
LC-007-003-----0
  6
CONTINUOUS
  5
6E6
 10
343.470104
 20
431.2
 30
0.0
 11
337.362804
 21
432.004041
 31
0.0
  0
TEXT
  8
LC-007-003-----0
  6
CONTINUOUS
 62
     8
  5
6E7
 10
173.886814
 20
439.027554
 30
0.0
 40
28.0
  1
Ø315
 41
0.9
 51
15.0
  7
LC-TXTSTYLE-150-400-0-0-A0
 72
     1
 11
212.158264
 21
439.027554
 31
0.0
  0
ENDBLK
  8
0
  5
6E8
  0
BLOCK
  8
0
  5
6EA
  2
*X73
 70
    65
 10
50.310104
 20
218.177411
 30
0.0
  3
*X73
  0
LINE
  8
LC-010-005-----0
  6
CONTINUOUS
  5
6EC
 10
116.354035
 20
218.177411
 30
0.0
 11
117.810104
 21
219.633481
 31
0.0
  0
LINE
  8
LC-010-005-----0
  6
CONTINUOUS
  5
6ED
 10
113.691391
 20
218.343195
 30
0.0
 11
117.810104
 21
222.461908
 31
0.0
  0
LINE
  8
LC-010-005-----0
  6
CONTINUOUS
  5
6EE
 10
111.460681
 20
218.940912
 30
0.0
 11
117.810104
 21
225.290335
 31
0.0
  0
LINE
  8
LC-010-005-----0
  6
CONTINUOUS
  5
6EF
 10
110.310104
 20
220.618762
 30
0.0
 11
111.71772
 21
222.026378
 31
0.0
  0
LINE
  8
LC-010-005-----0
  6
CONTINUOUS
  5
6F0
 10
113.810104
 20
224.118762
 30
0.0
 11
117.810104
 21
228.118762
 31
0.0
  0
LINE
  8
LC-010-005-----0
  6
CONTINUOUS
  5
6F1
 10
113.810104
 20
226.947189
 30
0.0
 11
117.810104
 21
230.947189
 31
0.0
  0
LINE
  8
LC-010-005-----0
  6
CONTINUOUS
  5
6F2
 10
112.4187
 20
228.384212
 30
0.0
 11
117.810104
 21
233.775616
 31
0.0
  0
LINE
  8
LC-010-005-----0
  6
CONTINUOUS
  5
6F3
 10
110.310104
 20
229.104043
 30
0.0
 11
117.810104
 21
236.604043
 31
0.0
  0
LINE
  8
LC-010-005-----0
  6
CONTINUOUS
  5
6F4
 10
113.810104
 20
235.43247
 30
0.0
 11
117.810104
 21
239.43247
 31
0.0
  0
LINE
  8
LC-010-005-----0
  6
CONTINUOUS
  5
6F5
 10
113.508741
 20
237.959535
 30
0.0
 11
117.810104
 21
242.260898
 31
0.0
  0
LINE
  8
LC-010-005-----0
  6
CONTINUOUS
  5
6F6
 10
111.38261
 20
238.661831
 30
0.0
 11
117.810104
 21
245.089325
 31
0.0
  0
LINE
  8
LC-010-005-----0
  6
CONTINUOUS
  5
6F7
 10
110.310104
 20
240.417752
 30
0.0
 11
111.7191
 21
241.826747
 31
0.0
  0
LINE
  8
LC-010-005-----0
  6
CONTINUOUS
  5
6F8
 10
113.810104
 20
243.917752
 30
0.0
 11
117.810104
 21
247.917752
 31
0.0
  0
LINE
  8
LC-010-005-----0
  6
CONTINUOUS
  5
6F9
 10
113.810104
 20
246.746179
 30
0.0
 11
117.810104
 21
250.746179
 31
0.0
  0
LINE
  8
LC-010-005-----0
  6
CONTINUOUS
  5
6FA
 10
112.577231
 20
248.341733
 30
0.0
 11
117.810104
 21
253.574606
 31
0.0
  0
LINE
  8
LC-010-005-----0
  6
CONTINUOUS
  5
6FB
 10
110.346521
 20
248.93945
 30
0.0
 11
117.810104
 21
256.403033
 31
0.0
  0
LINE
  8
LC-010-005-----0
  6
CONTINUOUS
  5
6FC
 10
113.810104
 20
255.23146
 30
0.0
 11
117.810104
 21
259.23146
 31
0.0
  0
LINE
  8
LC-010-005-----0
  6
CONTINUOUS
  5
6FD
 10
113.603275
 20
257.853058
 30
0.0
 11
117.810104
 21
262.059887
 31
0.0
  0
LINE
  8
LC-010-005-----0
  6
CONTINUOUS
  5
6FE
 10
111.541142
 20
258.619352
 30
0.0
 11
117.810104
 21
264.888315
 31
0.0
  0
LINE
  8
LC-010-005-----0
  6
CONTINUOUS
  5
6FF
 10
110.310104
 20
260.216742
 30
0.0
 11
111.993685
 21
261.900322
 31
0.0
  0
LINE
  8
LC-010-005-----0
  6
CONTINUOUS
  5
700
 10
113.810104
 20
263.716742
 30
0.0
 11
117.810104
 21
267.716742
 31
0.0
  0
LINE
  8
LC-010-005-----0
  6
CONTINUOUS
  5
701
 10
113.810104
 20
266.545169
 30
0.0
 11
117.810104
 21
270.545169
 31
0.0
  0
LINE
  8
LC-010-005-----0
  6
CONTINUOUS
  5
702
 10
112.735763
 20
268.299255
 30
0.0
 11
117.810104
 21
273.373596
 31
0.0
  0
LINE
  8
LC-010-005-----0
  6
CONTINUOUS
  5
703
 10
110.505053
 20
268.896972
 30
0.0
 11
117.810104
 21
276.202023
 31
0.0
  0
LINE
  8
LC-010-005-----0
  6
CONTINUOUS
  5
704
 10
113.810104
 20
275.03045
 30
0.0
 11
117.810104
 21
279.03045
 31
0.0
  0
LINE
  8
LC-010-005-----0
  6
CONTINUOUS
  5
705
 10
113.683069
 20
277.731842
 30
0.0
 11
117.810104
 21
281.858877
 31
0.0
  0
LINE
  8
LC-010-005-----0
  6
CONTINUOUS
  5
706
 10
111.699674
 20
278.576874
 30
0.0
 11
117.810104
 21
284.687304
 31
0.0
  0
LINE
  8
LC-010-005-----0
  6
CONTINUOUS
  5
707
 10
110.310104
 20
280.015732
 30
0.0
 11
112.268269
 21
281.973897
 31
0.0
  0
LINE
  8
LC-010-005-----0
  6
CONTINUOUS
  5
708
 10
113.810104
 20
283.515732
 30
0.0
 11
117.810104
 21
287.515732
 31
0.0
  0
LINE
  8
LC-010-005-----0
  6
CONTINUOUS
  5
709
 10
113.810104
 20
286.344159
 30
0.0
 11
117.810104
 21
290.344159
 31
0.0
  0
LINE
  8
LC-010-005-----0
  6
CONTINUOUS
  5
70A
 10
112.894295
 20
288.256776
 30
0.0
 11
117.810104
 21
293.172586
 31
0.0
  0
LINE
  8
LC-010-005-----0
  6
CONTINUOUS
  5
70B
 10
110.663584
 20
288.854493
 30
0.0
 11
117.810104
 21
296.001013
 31
0.0
  0
LINE
  8
LC-010-005-----0
  6
CONTINUOUS
  5
70C
 10
110.310104
 20
291.32944
 30
0.0
 11
110.47371
 21
291.493046
 31
0.0
  0
LINE
  8
LC-010-005-----0
  6
CONTINUOUS
  5
70D
 10
113.810104
 20
294.82944
 30
0.0
 11
117.810104
 21
298.82944
 31
0.0
  0
LINE
  8
LC-010-005-----0
  6
CONTINUOUS
  5
70E
 10
113.746702
 20
297.594465
 30
0.0
 11
117.810104
 21
301.657867
 31
0.0
  0
LINE
  8
LC-010-005-----0
  6
CONTINUOUS
  5
70F
 10
111.858205
 20
298.534396
 30
0.0
 11
117.810104
 21
304.486294
 31
0.0
  0
LINE
  8
LC-010-005-----0
  6
CONTINUOUS
  5
710
 10
110.310104
 20
299.814721
 30
0.0
 11
112.542854
 21
302.047472
 31
0.0
  0
LINE
  8
LC-010-005-----0
  6
CONTINUOUS
  5
711
 10
113.810104
 20
303.314721
 30
0.0
 11
117.810104
 21
307.314721
 31
0.0
  0
LINE
  8
LC-010-005-----0
  6
CONTINUOUS
  5
712
 10
113.810104
 20
306.143149
 30
0.0
 11
117.810104
 21
310.143149
 31
0.0
  0
LINE
  8
LC-010-005-----0
  6
CONTINUOUS
  5
713
 10
113.052826
 20
308.214298
 30
0.0
 11
117.810104
 21
312.971576
 31
0.0
  0
LINE
  8
LC-010-005-----0
  6
CONTINUOUS
  5
714
 10
110.822116
 20
308.812015
 30
0.0
 11
117.810104
 21
315.800003
 31
0.0
  0
LINE
  8
LC-010-005-----0
  6
CONTINUOUS
  5
715
 10
110.310104
 20
311.12843
 30
0.0
 11
110.748295
 21
311.566621
 31
0.0
  0
LINE
  8
LC-010-005-----0
  6
CONTINUOUS
  5
716
 10
113.810104
 20
314.62843
 30
0.0
 11
117.810104
 21
318.62843
 31
0.0
  0
LINE
  8
LC-010-005-----0
  6
CONTINUOUS
  5
717
 10
113.810104
 20
317.456857
 30
0.0
 11
117.810104
 21
321.456857
 31
0.0
  0
LINE
  8
LC-010-005-----0
  6
CONTINUOUS
  5
718
 10
113.810104
 20
320.285284
 30
0.0
 11
117.810104
 21
324.285284
 31
0.0
  0
LINE
  8
LC-010-005-----0
  6
CONTINUOUS
  5
719
 10
113.810104
 20
323.113711
 30
0.0
 11
117.810104
 21
327.113711
 31
0.0
  0
LINE
  8
LC-010-005-----0
  6
CONTINUOUS
  5
71A
 10
113.810104
 20
325.942138
 30
0.0
 11
117.810104
 21
329.942138
 31
0.0
  0
LINE
  8
LC-010-005-----0
  6
CONTINUOUS
  5
71B
 10
113.810104
 20
328.770566
 30
0.0
 11
117.810104
 21
332.770566
 31
0.0
  0
LINE
  8
LC-010-005-----0
  6
CONTINUOUS
  5
71C
 10
113.810104
 20
331.598993
 30
0.0
 11
117.810104
 21
335.598993
 31
0.0
  0
LINE
  8
LC-010-005-----0
  6
CONTINUOUS
  5
71D
 10
113.810104
 20
334.42742
 30
0.0
 11
117.810104
 21
338.42742
 31
0.0
  0
LINE
  8
LC-010-005-----0
  6
CONTINUOUS
  5
71E
 10
113.810104
 20
337.255847
 30
0.0
 11
117.810104
 21
341.255847
 31
0.0
  0
LINE
  8
LC-010-005-----0
  6
CONTINUOUS
  5
71F
 10
113.282973
 20
339.557143
 30
0.0
 11
117.269442
 21
343.543612
 31
0.0
  0
LINE
  8
LC-010-005-----0
  6
CONTINUOUS
  5
720
 10
110.573413
 20
339.67601
 30
0.0
 11
115.073413
 21
344.17601
 31
0.0
  0
LINE
  8
LC-010-005-----0
  6
CONTINUOUS
  5
721
 10
108.060929
 20
339.991953
 30
0.0
 11
112.244986
 21
344.17601
 31
0.0
  0
LINE
  8
LC-010-005-----0
  6
CONTINUOUS
  5
722
 10
106.328198
 20
341.08765
 30
0.0
 11
109.95012
 21
344.709571
 31
0.0
  0
LINE
  8
LC-010-005-----0
  6
CONTINUOUS
  5
723
 10
105.186034
 20
342.773912
 30
0.0
 11
109.310104
 21
346.897983
 31
0.0
  0
LINE
  8
LC-010-005-----0
  6
CONTINUOUS
  5
724
 10
104.810104
 20
345.22641
 30
0.0
 11
109.310104
 21
349.72641
 31
0.0
  0
LINE
  8
LC-010-005-----0
  6
CONTINUOUS
  5
725
 10
104.810104
 20
348.054837
 30
0.0
 11
109.310104
 21
352.554837
 31
0.0
  0
LINE
  8
LC-010-005-----0
  6
CONTINUOUS
  5
726
 10
104.810104
 20
350.883264
 30
0.0
 11
109.310104
 21
355.383264
 31
0.0
  0
LINE
  8
LC-010-005-----0
  6
CONTINUOUS
  5
727
 10
104.810104
 20
353.711691
 30
0.0
 11
109.310104
 21
358.211691
 31
0.0
  0
LINE
  8
LC-010-005-----0
  6
CONTINUOUS
  5
728
 10
104.810104
 20
356.540118
 30
0.0
 11
109.310104
 21
361.040118
 31
0.0
  0
LINE
  8
LC-010-005-----0
  6
CONTINUOUS
  5
729
 10
104.810104
 20
359.368545
 30
0.0
 11
109.310104
 21
363.868545
 31
0.0
  0
LINE
  8
LC-010-005-----0
  6
CONTINUOUS
  5
72A
 10
91.297003
 20
348.683871
 30
0.0
 11
96.454459
 21
353.841327
 31
0.0
  0
LINE
  8
LC-010-005-----0
  6
CONTINUOUS
  5
72B
 10
104.810104
 20
362.196972
 30
0.0
 11
109.310104
 21
366.696972
 31
0.0
  0
LINE
  8
LC-010-005-----0
  6
CONTINUOUS
  5
72C
 10
89.529236
 20
349.744531
 30
0.0
 11
91.666453
 21
351.881748
 31
0.0
  0
LINE
  8
LC-010-005-----0
  6
CONTINUOUS
  5
72D
 10
93.810104
 20
354.0254
 30
0.0
 11
96.656489
 21
356.871785
 31
0.0
  0
LINE
  8
LC-010-005-----0
  6
CONTINUOUS
  5
72E
 10
104.810104
 20
365.0254
 30
0.0
 11
108.797617
 21
369.012912
 31
0.0
  0
LINE
  8
LC-010-005-----0
  6
CONTINUOUS
  5
72F
 10
87.761469
 20
350.805191
 30
0.0
 11
89.612436
 21
352.656159
 31
0.0
  0
LINE
  8
LC-010-005-----0
  6
CONTINUOUS
  5
730
 10
93.810104
 20
356.853827
 30
0.0
 11
96.85852
 21
359.902242
 31
0.0
  0
LINE
  8
LC-010-005-----0
  6
CONTINUOUS
  5
731
 10
103.632288
 20
366.67601
 30
0.0
 11
106.632288
 21
369.67601
 31
0.0
  0
LINE
  8
LC-010-005-----0
  6
CONTINUOUS
  5
732
 10
86.278464
 20
352.150614
 30
0.0
 11
88.810104
 21
354.682254
 31
0.0
  0
LINE
  8
LC-010-005-----0
  6
CONTINUOUS
  5
733
 10
93.810104
 20
359.682254
 30
0.0
 11
97.06055
 21
362.9327
 31
0.0
  0
LINE
  8
LC-010-005-----0
  6
CONTINUOUS
  5
734
 10
100.80386
 20
366.67601
 30
0.0
 11
103.80386
 21
369.67601
 31
0.0
  0
LINE
  8
LC-010-005-----0
  6
CONTINUOUS
  5
735
 10
86.101687
 20
354.802264
 30
0.0
 11
88.810104
 21
357.510681
 31
0.0
  0
LINE
  8
LC-010-005-----0
  6
CONTINUOUS
  5
736
 10
93.810104
 20
362.510681
 30
0.0
 11
97.299687
 21
366.000264
 31
0.0
  0
LINE
  8
LC-010-005-----0
  6
CONTINUOUS
  5
737
 10
97.921403
 20
366.62198
 30
0.0
 11
100.975433
 21
369.67601
 31
0.0
  0
LINE
  8
LC-010-005-----0
  6
CONTINUOUS
  5
738
 10
85.92491
 20
357.453914
 30
0.0
 11
88.810104
 21
360.339108
 31
0.0
  0
LINE
  8
LC-010-005-----0
  6
CONTINUOUS
  5
739
 10
93.810104
 20
365.339108
 30
0.0
 11
98.147006
 21
369.67601
 31
0.0
  0
LINE
  8
LC-010-005-----0
  6
CONTINUOUS
  5
73A
 10
85.748134
 20
360.105565
 30
0.0
 11
88.810104
 21
363.167535
 31
0.0
  0
LINE
  8
LC-010-005-----0
  6
CONTINUOUS
  5
73B
 10
93.810104
 20
368.167535
 30
0.0
 11
95.318579
 21
369.67601
 31
0.0
  0
LINE
  8
LC-010-005-----0
  6
CONTINUOUS
  5
73C
 10
85.571357
 20
362.757215
 30
0.0
 11
88.810104
 21
365.995962
 31
0.0
  0
LINE
  8
LC-010-005-----0
  6
CONTINUOUS
  5
73D
 10
80.685276
 20
360.699562
 30
0.0
 11
83.286553
 21
363.300838
 31
0.0
  0
LINE
  8
LC-010-005-----0
  6
CONTINUOUS
  5
73E
 10
85.39458
 20
365.408866
 30
0.0
 11
88.810104
 21
368.824389
 31
0.0
  0
LINE
  8
LC-010-005-----0
  6
CONTINUOUS
  5
73F
 10
77.833298
 20
360.67601
 30
0.0
 11
86.833298
 21
369.67601
 31
0.0
  0
LINE
  8
LC-010-005-----0
  6
CONTINUOUS
  5
740
 10
75.004871
 20
360.67601
 30
0.0
 11
78.004871
 21
363.67601
 31
0.0
  0
LINE
  8
LC-010-005-----0
  6
CONTINUOUS
  5
741
 10
79.810104
 20
365.481244
 30
0.0
 11
84.004871
 21
369.67601
 31
0.0
  0
LINE
  8
LC-010-005-----0
  6
CONTINUOUS
  5
742
 10
72.338229
 20
360.837796
 30
0.0
 11
75.176443
 21
363.67601
 31
0.0
  0
LINE
  8
LC-010-005-----0
  6
CONTINUOUS
  5
743
 10
79.810104
 20
368.309671
 30
0.0
 11
81.176443
 21
369.67601
 31
0.0
  0
LINE
  8
LC-010-005-----0
  6
CONTINUOUS
  5
744
 10
70.763002
 20
362.090996
 30
0.0
 11
73.501129
 21
364.829122
 31
0.0
  0
LINE
  8
LC-010-005-----0
  6
CONTINUOUS
  5
745
 10
70.310104
 20
364.466525
 30
0.0
 11
72.903412
 21
367.059833
 31
0.0
  0
LINE
  8
LC-010-005-----0
  6
CONTINUOUS
  5
746
 10
69.636422
 20
366.62127
 30
0.0
 11
72.305695
 21
369.290543
 31
0.0
  0
LINE
  8
LC-010-005-----0
  6
CONTINUOUS
  5
747
 10
66.862735
 20
366.67601
 30
0.0
 11
69.862735
 21
369.67601
 31
0.0
  0
LINE
  8
LC-010-005-----0
  6
CONTINUOUS
  5
748
 10
64.034308
 20
366.67601
 30
0.0
 11
67.034308
 21
369.67601
 31
0.0
  0
LINE
  8
LC-010-005-----0
  6
CONTINUOUS
  5
749
 10
61.65235
 20
367.122479
 30
0.0
 11
64.205881
 21
369.67601
 31
0.0
  0
LINE
  8
LC-010-005-----0
  6
CONTINUOUS
  5
74A
 10
59.404349
 20
367.702906
 30
0.0
 11
61.878293
 21
370.17685
 31
0.0
  0
LINE
  8
LC-010-005-----0
  6
CONTINUOUS
  5
74B
 10
57.156349
 20
368.283332
 30
0.0
 11
59.632189
 21
370.759173
 31
0.0
  0
LINE
  8
LC-010-005-----0
  6
CONTINUOUS
  5
74C
 10
54.908348
 20
368.863759
 30
0.0
 11
57.386086
 21
371.341496
 31
0.0
  0
LINE
  8
LC-010-005-----0
  6
CONTINUOUS
  5
74D
 10
52.660347
 20
369.444185
 30
0.0
 11
55.139982
 21
371.92382
 31
0.0
  0
LINE
  8
LC-010-005-----0
  6
CONTINUOUS
  5
74E
 10
50.412346
 20
370.024612
 30
0.0
 11
52.893878
 21
372.506143
 31
0.0
  0
LINE
  8
LC-010-005-----0
  6
CONTINUOUS
  5
74F
 10
50.310104
 20
372.750796
 30
0.0
 11
50.647774
 21
373.088466
 31
0.0
  0
ENDBLK
  8
0
  5
750
  0
BLOCK
  8
0
  5
752
  2
*X74
 70
    65
 10
109.310104
 20
222.949208
 30
0.0
  3
*X74
  0
LINE
  8
LC-010-005-----0
  6
CONTINUOUS
  5
753
 10
113.765308
 20
225.645947
 30
0.0
 11
112.006843
 21
227.404412
 31
0.0
  0
LINE
  8
LC-010-005-----0
  6
DASHED
  5
755
 10
110.580981
 20
223.17342
 30
0.0
 11
109.534316
 21
224.220085
 31
0.0
  0
ENDBLK
  8
0
  5
756
  0
BLOCK
  8
0
  5
758
  2
*X75
 70
    65
 10
297.810104
 20
218.177411
 30
0.0
  3
*X75
  0
LINE
  8
LC-010-005-----0
  6
CONTINUOUS
  5
759
 10
303.659833
 20
218.807019
 30
0.0
 11
305.310104
 21
220.45729
 31
0.0
  0
LINE
  8
LC-010-005-----0
  6
CONTINUOUS
  5
75A
 10
300.201798
 20
218.177411
 30
0.0
 11
304.01943
 21
221.995043
 31
0.0
  0
LINE
  8
LC-010-005-----0
  6
CONTINUOUS
  5
75B
 10
297.810104
 20
218.614145
 30
0.0
 11
301.985137
 21
222.789177
 31
0.0
  0
LINE
  8
LC-010-005-----0
  6
CONTINUOUS
  5
75C
 10
297.810104
 20
221.442572
 30
0.0
 11
301.810104
 21
225.442572
 31
0.0
  0
LINE
  8
LC-010-005-----0
  6
CONTINUOUS
  5
75D
 10
297.810104
 20
224.270999
 30
0.0
 11
305.056316
 21
231.51721
 31
0.0
  0
LINE
  8
LC-010-005-----0
  6
CONTINUOUS
  5
75E
 10
297.810104
 20
227.099426
 30
0.0
 11
302.825606
 21
232.114927
 31
0.0
  0
LINE
  8
LC-010-005-----0
  6
CONTINUOUS
  5
75F
 10
297.810104
 20
229.927853
 30
0.0
 11
301.810104
 21
233.927853
 31
0.0
  0
LINE
  8
LC-010-005-----0
  6
CONTINUOUS
  5
760
 10
297.810104
 20
232.75628
 30
0.0
 11
301.810104
 21
236.75628
 31
0.0
  0
LINE
  8
LC-010-005-----0
  6
CONTINUOUS
  5
761
 10
303.52461
 20
238.470787
 30
0.0
 11
305.310104
 21
240.25628
 31
0.0
  0
LINE
  8
LC-010-005-----0
  6
CONTINUOUS
  5
762
 10
297.810104
 20
235.584707
 30
0.0
 11
304.020227
 21
241.79483
 31
0.0
  0
LINE
  8
LC-010-005-----0
  6
CONTINUOUS
  5
763
 10
297.810104
 20
238.413134
 30
0.0
 11
301.985547
 21
242.588578
 31
0.0
  0
LINE
  8
LC-010-005-----0
  6
CONTINUOUS
  5
764
 10
297.810104
 20
241.241562
 30
0.0
 11
301.810104
 21
245.241562
 31
0.0
  0
LINE
  8
LC-010-005-----0
  6
CONTINUOUS
  5
765
 10
297.810104
 20
244.069989
 30
0.0
 11
305.214847
 21
251.474732
 31
0.0
  0
LINE
  8
LC-010-005-----0
  6
CONTINUOUS
  5
766
 10
297.810104
 20
246.898416
 30
0.0
 11
302.984137
 21
252.072449
 31
0.0
  0
LINE
  8
LC-010-005-----0
  6
CONTINUOUS
  5
767
 10
297.810104
 20
249.726843
 30
0.0
 11
301.810104
 21
253.726843
 31
0.0
  0
LINE
  8
LC-010-005-----0
  6
CONTINUOUS
  5
768
 10
297.810104
 20
252.55527
 30
0.0
 11
301.810104
 21
256.55527
 31
0.0
  0
LINE
  8
LC-010-005-----0
  6
CONTINUOUS
  5
769
 10
303.799195
 20
258.544361
 30
0.0
 11
305.310104
 21
260.05527
 31
0.0
  0
LINE
  8
LC-010-005-----0
  6
CONTINUOUS
  5
76A
 10
297.810104
 20
255.383697
 30
0.0
 11
304.178758
 21
261.752351
 31
0.0
  0
LINE
  8
LC-010-005-----0
  6
CONTINUOUS
  5
76B
 10
297.810104
 20
258.212124
 30
0.0
 11
302.074704
 21
262.476724
 31
0.0
  0
LINE
  8
LC-010-005-----0
  6
CONTINUOUS
  5
76C
 10
297.810104
 20
261.040551
 30
0.0
 11
301.810104
 21
265.040551
 31
0.0
  0
LINE
  8
LC-010-005-----0
  6
CONTINUOUS
  5
76D
 10
297.810104
 20
263.868979
 30
0.0
 11
305.310104
 21
271.368979
 31
0.0
  0
LINE
  8
LC-010-005-----0
  6
CONTINUOUS
  5
76E
 10
297.810104
 20
266.697406
 30
0.0
 11
303.142669
 21
272.029971
 31
0.0
  0
LINE
  8
LC-010-005-----0
  6
CONTINUOUS
  5
76F
 10
297.810104
 20
269.525833
 30
0.0
 11
301.810104
 21
273.525833
 31
0.0
  0
LINE
  8
LC-010-005-----0
  6
CONTINUOUS
  5
770
 10
297.810104
 20
272.35426
 30
0.0
 11
301.810104
 21
276.35426
 31
0.0
  0
LINE
  8
LC-010-005-----0
  6
CONTINUOUS
  5
771
 10
304.07378
 20
278.617936
 30
0.0
 11
305.310104
 21
279.85426
 31
0.0
  0
LINE
  8
LC-010-005-----0
  6
CONTINUOUS
  5
772
 10
297.810104
 20
275.182687
 30
0.0
 11
304.33729
 21
281.709873
 31
0.0
  0
LINE
  8
LC-010-005-----0
  6
CONTINUOUS
  5
773
 10
297.810104
 20
278.011114
 30
0.0
 11
302.178255
 21
282.379266
 31
0.0
  0
LINE
  8
LC-010-005-----0
  6
CONTINUOUS
  5
774
 10
297.810104
 20
280.839541
 30
0.0
 11
301.810104
 21
284.839541
 31
0.0
  0
LINE
  8
LC-010-005-----0
  6
CONTINUOUS
  5
775
 10
297.810104
 20
283.667968
 30
0.0
 11
305.310104
 21
291.167968
 31
0.0
  0
LINE
  8
LC-010-005-----0
  6
CONTINUOUS
  5
776
 10
297.810104
 20
286.496396
 30
0.0
 11
303.301201
 21
291.987492
 31
0.0
  0
LINE
  8
LC-010-005-----0
  6
CONTINUOUS
  5
777
 10
297.810104
 20
289.324823
 30
0.0
 11
301.810104
 21
293.324823
 31
0.0
  0
LINE
  8
LC-010-005-----0
  6
CONTINUOUS
  5
778
 10
297.810104
 20
292.15325
 30
0.0
 11
301.810104
 21
296.15325
 31
0.0
  0
LINE
  8
LC-010-005-----0
  6
CONTINUOUS
  5
779
 10
304.348365
 20
298.691511
 30
0.0
 11
305.310104
 21
299.65325
 31
0.0
  0
LINE
  8
LC-010-005-----0
  6
CONTINUOUS
  5
77A
 10
297.810104
 20
294.981677
 30
0.0
 11
304.495822
 21
301.667394
 31
0.0
  0
LINE
  8
LC-010-005-----0
  6
CONTINUOUS
  5
77B
 10
297.810104
 20
297.810104
 30
0.0
 11
302.296394
 21
302.296394
 31
0.0
  0
LINE
  8
LC-010-005-----0
  6
CONTINUOUS
  5
77C
 10
297.810104
 20
300.638531
 30
0.0
 11
301.810104
 21
304.638531
 31
0.0
  0
LINE
  8
LC-010-005-----0
  6
CONTINUOUS
  5
77D
 10
297.810104
 20
303.466958
 30
0.0
 11
301.843508
 21
307.500362
 31
0.0
  0
LINE
  8
LC-010-005-----0
  6
CONTINUOUS
  5
77E
 10
302.553806
 20
308.21066
 30
0.0
 11
305.310104
 21
310.966958
 31
0.0
  0
LINE
  8
LC-010-005-----0
  6
CONTINUOUS
  5
77F
 10
364.075345
 20
369.732199
 30
0.0
 11
365.310104
 21
370.966958
 31
0.0
  0
LINE
  8
LC-010-005-----0
  6
CONTINUOUS
  5
780
 10
297.810104
 20
306.295385
 30
0.0
 11
303.459732
 21
311.945014
 31
0.0
  0
LINE
  8
LC-010-005-----0
  6
CONTINUOUS
  5
781
 10
360.262438
 20
368.747719
 30
0.0
 11
364.473947
 21
372.959229
 31
0.0
  0
LINE
  8
LC-010-005-----0
  6
CONTINUOUS
  5
782
 10
297.810104
 20
309.123813
 30
0.0
 11
301.810557
 21
313.124265
 31
0.0
  0
LINE
  8
LC-010-005-----0
  6
CONTINUOUS
  5
783
 10
356.449531
 20
367.763239
 30
0.0
 11
360.655571
 21
371.969279
 31
0.0
  0
LINE
  8
LC-010-005-----0
  6
CONTINUOUS
  5
784
 10
297.810104
 20
311.95224
 30
0.0
 11
301.810104
 21
315.95224
 31
0.0
  0
LINE
  8
LC-010-005-----0
  6
CONTINUOUS
  5
785
 10
352.636623
 20
366.778759
 30
0.0
 11
356.837194
 21
370.97933
 31
0.0
  0
LINE
  8
LC-010-005-----0
  6
CONTINUOUS
  5
786
 10
297.810104
 20
314.780667
 30
0.0
 11
301.810104
 21
318.780667
 31
0.0
  0
LINE
  8
LC-010-005-----0
  6
CONTINUOUS
  5
787
 10
349.705447
 20
366.67601
 30
0.0
 11
353.018818
 21
369.98938
 31
0.0
  0
LINE
  8
LC-010-005-----0
  6
CONTINUOUS
  5
788
 10
297.810104
 20
317.609094
 30
0.0
 11
301.810104
 21
321.609094
 31
0.0
  0
LINE
  8
LC-010-005-----0
  6
CONTINUOUS
  5
789
 10
340.87702
 20
360.67601
 30
0.0
 11
345.310104
 21
365.109094
 31
0.0
  0
LINE
  8
LC-010-005-----0
  6
CONTINUOUS
  5
78A
 10
346.87702
 20
366.67601
 30
0.0
 11
349.87702
 21
369.67601
 31
0.0
  0
LINE
  8
LC-010-005-----0
  6
CONTINUOUS
  5
78B
 10
297.810104
 20
320.437521
 30
0.0
 11
301.810104
 21
324.437521
 31
0.0
  0
LINE
  8
LC-010-005-----0
  6
CONTINUOUS
  5
78C
 10
328.656327
 20
351.283744
 30
0.0
 11
329.328783
 21
351.9562
 31
0.0
  0
LINE
  8
LC-010-005-----0
  6
CONTINUOUS
  5
78D
 10
338.048593
 20
360.67601
 30
0.0
 11
341.048593
 21
363.67601
 31
0.0
  0
LINE
  8
LC-010-005-----0
  6
CONTINUOUS
  5
78E
 10
342.088836
 20
364.716253
 30
0.0
 11
347.048593
 21
369.67601
 31
0.0
  0
LINE
  8
LC-010-005-----0
  6
CONTINUOUS
  5
78F
 10
297.810104
 20
323.265948
 30
0.0
 11
301.810104
 21
327.265948
 31
0.0
  0
LINE
  8
LC-010-005-----0
  6
CONTINUOUS
  5
790
 10
323.628893
 20
349.084737
 30
0.0
 11
329.530814
 21
354.986658
 31
0.0
  0
LINE
  8
LC-010-005-----0
  6
CONTINUOUS
  5
791
 10
335.221476
 20
360.67732
 30
0.0
 11
338.220166
 21
363.67601
 31
0.0
  0
LINE
  8
LC-010-005-----0
  6
CONTINUOUS
  5
792
 10
343.124113
 20
368.579957
 30
0.0
 11
344.220166
 21
369.67601
 31
0.0
  0
LINE
  8
LC-010-005-----0
  6
CONTINUOUS
  5
793
 10
297.810104
 20
326.094375
 30
0.0
 11
301.810104
 21
330.094375
 31
0.0
  0
LINE
  8
LC-010-005-----0
  6
CONTINUOUS
  5
794
 10
321.861126
 20
350.145397
 30
0.0
 11
323.727884
 21
352.012155
 31
0.0
  0
LINE
  8
LC-010-005-----0
  6
CONTINUOUS
  5
795
 10
326.810104
 20
355.094375
 30
0.0
 11
329.732844
 21
358.017116
 31
0.0
  0
LINE
  8
LC-010-005-----0
  6
CONTINUOUS
  5
796
 10
333.229994
 20
361.514265
 30
0.0
 11
335.810104
 21
364.094375
 31
0.0
  0
LINE
  8
LC-010-005-----0
  6
CONTINUOUS
  5
797
 10
297.810104
 20
328.922802
 30
0.0
 11
301.810104
 21
332.922802
 31
0.0
  0
LINE
  8
LC-010-005-----0
  6
CONTINUOUS
  5
798
 10
320.093359
 20
351.206057
 30
0.0
 11
321.934733
 21
353.047431
 31
0.0
  0
LINE
  8
LC-010-005-----0
  6
CONTINUOUS
  5
799
 10
326.810104
 20
357.922802
 30
0.0
 11
329.934875
 21
361.047573
 31
0.0
  0
LINE
  8
LC-010-005-----0
  6
CONTINUOUS
  5
79A
 10
332.319988
 20
363.432686
 30
0.0
 11
335.810104
 21
366.922802
 31
0.0
  0
LINE
  8
LC-010-005-----0
  6
CONTINUOUS
  5
79B
 10
297.810104
 20
331.75123
 30
0.0
 11
301.810104
 21
335.75123
 31
0.0
  0
LINE
  8
LC-010-005-----0
  6
CONTINUOUS
  5
79C
 10
305.734885
 20
339.67601
 30
0.0
 11
310.810104
 21
344.75123
 31
0.0
  0
LINE
  8
LC-010-005-----0
  6
CONTINUOUS
  5
79D
 10
319.211653
 20
353.152778
 30
0.0
 11
321.810104
 21
355.75123
 31
0.0
  0
LINE
  8
LC-010-005-----0
  6
CONTINUOUS
  5
79E
 10
326.810104
 20
360.75123
 30
0.0
 11
330.136905
 21
364.078031
 31
0.0
  0
LINE
  8
LC-010-005-----0
  6
CONTINUOUS
  5
79F
 10
332.19695
 20
366.138075
 30
0.0
 11
335.734885
 21
369.67601
 31
0.0
  0
LINE
  8
LC-010-005-----0
  6
CONTINUOUS
  5
7A0
 10
297.810104
 20
334.579657
 30
0.0
 11
301.810104
 21
338.579657
 31
0.0
  0
LINE
  8
LC-010-005-----0
  6
CONTINUOUS
  5
7A1
 10
302.906458
 20
339.67601
 30
0.0
 11
310.810104
 21
347.579657
 31
0.0
  0
LINE
  8
LC-010-005-----0
  6
CONTINUOUS
  5
7A2
 10
319.034876
 20
355.804429
 30
0.0
 11
321.810104
 21
358.579657
 31
0.0
  0
LINE
  8
LC-010-005-----0
  6
CONTINUOUS
  5
7A3
 10
326.810104
 20
363.579657
 30
0.0
 11
332.906458
 21
369.67601
 31
0.0
  0
LINE
  8
LC-010-005-----0
  6
CONTINUOUS
  5
7A4
 10
297.810104
 20
337.408084
 30
0.0
 11
304.599007
 21
344.196986
 31
0.0
  0
LINE
  8
LC-010-005-----0
  6
CONTINUOUS
  5
7A5
 10
306.289128
 20
345.887108
 30
0.0
 11
310.810104
 21
350.408084
 31
0.0
  0
LINE
  8
LC-010-005-----0
  6
CONTINUOUS
  5
7A6
 10
318.858099
 20
358.456079
 30
0.0
 11
321.810104
 21
361.408084
 31
0.0
  0
LINE
  8
LC-010-005-----0
  6
CONTINUOUS
  5
7A7
 10
326.810104
 20
366.408084
 30
0.0
 11
330.07803
 21
369.67601
 31
0.0
  0
LINE
  8
LC-010-005-----0
  6
CONTINUOUS
  5
7A8
 10
297.810104
 20
340.236511
 30
0.0
 11
301.749603
 21
344.17601
 31
0.0
  0
LINE
  8
LC-010-005-----0
  6
CONTINUOUS
  5
7A9
 10
306.310104
 20
348.736511
 30
0.0
 11
310.810104
 21
353.236511
 31
0.0
  0
LINE
  8
LC-010-005-----0
  6
CONTINUOUS
  5
7AA
 10
318.681323
 20
361.10773
 30
0.0
 11
321.810104
 21
364.236511
 31
0.0
  0
LINE
  8
LC-010-005-----0
  6
CONTINUOUS
  5
7AB
 10
306.310104
 20
351.564938
 30
0.0
 11
310.810104
 21
356.064938
 31
0.0
  0
LINE
  8
LC-010-005-----0
  6
CONTINUOUS
  5
7AC
 10
318.504546
 20
363.75938
 30
0.0
 11
321.810104
 21
367.064938
 31
0.0
  0
LINE
  8
LC-010-005-----0
  6
CONTINUOUS
  5
7AD
 10
306.310104
 20
354.393365
 30
0.0
 11
310.810104
 21
358.893365
 31
0.0
  0
LINE
  8
LC-010-005-----0
  6
CONTINUOUS
  5
7AE
 10
318.18229
 20
366.265551
 30
0.0
 11
321.451427
 21
369.534688
 31
0.0
  0
LINE
  8
LC-010-005-----0
  6
CONTINUOUS
  5
7AF
 10
306.310104
 20
357.221792
 30
0.0
 11
310.810104
 21
361.721792
 31
0.0
  0
LINE
  8
LC-010-005-----0
  6
CONTINUOUS
  5
7B0
 10
315.764322
 20
366.67601
 30
0.0
 11
318.764322
 21
369.67601
 31
0.0
  0
LINE
  8
LC-010-005-----0
  6
CONTINUOUS
  5
7B1
 10
306.310104
 20
360.050219
 30
0.0
 11
310.810104
 21
364.550219
 31
0.0
  0
LINE
  8
LC-010-005-----0
  6
CONTINUOUS
  5
7B2
 10
312.935895
 20
366.67601
 30
0.0
 11
315.935895
 21
369.67601
 31
0.0
  0
LINE
  8
LC-010-005-----0
  6
CONTINUOUS
  5
7B3
 10
306.310104
 20
362.878647
 30
0.0
 11
313.107468
 21
369.67601
 31
0.0
  0
LINE
  8
LC-010-005-----0
  6
CONTINUOUS
  5
7B4
 10
306.310104
 20
365.707074
 30
0.0
 11
310.279041
 21
369.67601
 31
0.0
  0
ENDBLK
  8
0
  5
7B5
  0
BLOCK
  8
0
  5
7B7
  2
*X76
 70
    65
 10
301.810104
 20
222.949208
 30
0.0
  3
*X76
  0
LINE
  8
LC-010-005-----0
  6
CONTINUOUS
  5
7B8
 10
306.296308
 20
225.447992
 30
0.0
 11
304.308888
 21
227.435412
 31
0.0
  0
LINE
  8
LC-010-005-----0
  6
DASHED
  5
7B9
 10
302.600918
 20
223.486527
 30
0.0
 11
302.347423
 21
223.740022
 31
0.0
  0
ENDBLK
  8
0
  5
7BA
  0
ENDSEC
  0
SECTION
  2
ENTITIES
  0
VIEWPORT
  8
LC-000
  5
977
 67
     1
 68
     1
 10
420.0
 20
297.0
 30
0.0
 40
840.0
 41
594.0
 69
     1
1001
ACAD
1000
MVIEW
1002
{
1070
    16
1010
0.0
1020
0.0
1030
0.0
1010
0.0
1020
0.0
1030
1.0
1040
0.0
1040
594.0
1040
420.0
1040
297.0
1040
50.0
1040
0.0
1040
0.0
1070
     0
1070
   100
1070
     1
1070
     1
1070
     0
1070
     0
1070
     0
1070
     0
1040
0.0
1040
0.0
1040
0.0
1040
1.0
1040
1.0
1040
0.0
1040
0.0
1070
     0
1002
{
1002
}
1002
}
  0
VIEWPORT
  8
0
  5
978
 67
     1
 68
     1
 10
0.0
 20
0.0
 30
0.0
 40
0.0
 41
0.0
 69
     1
1001
ACAD
1000
MVIEW
1002
{
1070
    16
1010
0.0
1020
0.0
1030
0.0
1010
0.0
1020
0.0
1030
1.0
1040
0.0
1040
594.0
1040
0.0
1040
0.0
1040
50.0
1040
0.0
1040
0.0
1070
     0
1070
   100
1070
     0
1070
     1
1070
     0
1070
     0
1070
     0
1070
     0
1040
0.0
1040
0.0
1040
0.0
1040
0.5
1040
0.5
1040
0.5
1040
0.5
1070
     0
1002
{
1002
}
1002
}
  0
INSERT
  8
LC-001-000-----0
  5
7BC
  2
BLK1
 10
0.0
 20
0.0
 30
0.0
  0
INSERT
  8
LC-002-101-----0
  6
CONTINUOUS
  5
7BE
  2
*D1
 10
0.0
 20
0.0
 30
0.0
  0
INSERT
  8
LC-003-002-----0
  6
CONTINUOUS
  5
7BF
  2
BLK3
 10
243.366834
 20
347.17601
 30
0.0
  0
INSERT
  8
LC-003-002-----0
  6
CONTINUOUS
  5
7C0
  2
BLK4
 10
143.81694
 20
348.17601
 30
0.0
  0
INSERT
  8
LC-003-002-----0
  6
CONTINUOUS
  5
7C1
  2
BLK5
 10
144.524047
 20
347.17601
 30
0.0
  0
INSERT
  8
LC-003-002-----0
  6
CONTINUOUS
  5
7C2
  2
BLK6
 10
169.30843
 20
344.17601
 30
0.0
  0
INSERT
  8
LC-003-002-----0
  6
CONTINUOUS
  5
7C3
  2
BLK7
 10
138.168288
 20
344.17601
 30
0.0
  0
INSERT
  8
LC-003-002-----0
  6
CONTINUOUS
  5
7C4
  2
BLK8
 10
142.049173
 20
347.67601
 30
0.0
  0
INSERT
  8
LC-003-002-----0
  6
CONTINUOUS
  5
7C5
  2
BLK9
 10
136.753908
 20
347.67601
 30
0.0
  0
INSERT
  8
LC-003-002-----0
  6
CONTINUOUS
  5
7C6
  2
BLK10
 10
173.71845
 20
348.17601
 30
0.0
  0
INSERT
  8
LC-003-002-----0
  6
CONTINUOUS
  5
7C7
  2
BLK11
 10
174.101133
 20
347.17601
 30
0.0
  0
INSERT
  8
LC-003-002-----0
  6
CONTINUOUS
  5
7C8
  2
BLK12
 10
172.253374
 20
347.17601
 30
0.0
  0
INSERT
  8
LC-003-002-----0
  6
CONTINUOUS
  5
7C9
  2
BLK13
 10
171.600092
 20
347.17601
 30
0.0
  0
INSERT
  8
LC-003-002-----0
  6
CONTINUOUS
  5
7CA
  2
BLK14
 10
171.408751
 20
347.67601
 30
0.0
  0
INSERT
  8
LC-003-002-----0
  6
CONTINUOUS
  5
7CB
  2
BLK15
 10
291.038518
 20
347.17601
 30
0.0
  0
INSERT
  8
LC-003-002-----0
  6
CONTINUOUS
  5
7CC
  2
BLK16
 10
291.000458
 20
347.17601
 30
0.0
  0
INSERT
  8
LC-003-002-----0
  6
CONTINUOUS
  5
7CD
  2
BLK17
 10
271.096161
 20
347.17601
 30
0.0
  0
INSERT
  8
LC-003-002-----0
  6
CONTINUOUS
  5
7CE
  2
BLK18
 10
124.61975
 20
343.549177
 30
0.0
  0
INSERT
  8
LC-003-002-----0
  6
CONTINUOUS
  5
7CF
  2
BLK19
 10
124.58169
 20
343.505124
 30
0.0
  0
INSERT
  8
LC-003-002-----0
  6
CONTINUOUS
  5
7D0
  2
BLK20
 10
123.816323
 20
343.505124
 30
0.0
  0
INSERT
  8
LC-003-002-----0
  6
CONTINUOUS
  5
7D1
  2
BLK21
 10
124.58169
 20
347.17601
 30
0.0
  0
INSERT
  8
LC-003-002-----0
  6
CONTINUOUS
  5
7D2
  2
BLK22
 10
123.65781
 20
348.17601
 30
0.0
  0
INSERT
  8
LC-003-002-----0
  6
CONTINUOUS
  5
7D3
  2
BLK23
 10
123.163041
 20
347.17601
 30
0.0
  0
INSERT
  8
LC-003-002-----0
  6
CONTINUOUS
  5
7D4
  2
BLK24
 10
123.816323
 20
347.17601
 30
0.0
  0
INSERT
  8
LC-003-002-----0
  6
CONTINUOUS
  5
7D5
  2
BLK25
 10
122.701102
 20
347.67601
 30
0.0
  0
INSERT
  8
LC-003-002-----0
  6
CONTINUOUS
  5
7D6
  2
BLK26
 10
117.63048
 20
344.17601
 30
0.0
  0
INSERT
  8
LC-003-002-----0
  6
CONTINUOUS
  5
7D7
  2
BLK27
 10
122.25046
 20
344.17601
 30
0.0
  0
INSERT
  8
LC-003-002-----0
  6
CONTINUOUS
  5
7D8
  2
BLK28
 10
291.038518
 20
343.505124
 30
0.0
  0
INSERT
  8
LC-003-002-----0
  6
CONTINUOUS
  5
7D9
  2
BLK29
 10
243.366834
 20
343.505124
 30
0.0
  0
INSERT
  8
LC-003-002-----0
  6
CONTINUOUS
  5
7DA
  2
BLK30
 10
208.810104
 20
343.505124
 30
0.0
  0
INSERT
  8
LC-003-002-----0
  6
CONTINUOUS
  5
7DB
  2
BLK31
 10
174.101133
 20
343.505124
 30
0.0
  0
INSERT
  8
LC-003-002-----0
  6
CONTINUOUS
  5
7DC
  2
BLK32
 10
144.524047
 20
343.505124
 30
0.0
  0
INSERT
  8
LC-003-002-----0
  6
CONTINUOUS
  5
7DD
  2
BLK33
 10
143.109834
 20
343.505124
 30
0.0
  0
INSERT
  8
LC-003-002-----0
  6
CONTINUOUS
  5
7DE
  2
BLK34
 10
141.704267
 20
344.17601
 30
0.0
  0
INSERT
  8
LC-003-002-----0
  6
CONTINUOUS
  5
7DF
  2
BLK35
 10
144.670494
 20
343.657613
 30
0.0
  0
INSERT
  8
LC-003-002-----0
  6
CONTINUOUS
  5
7E0
  2
BLK36
 10
172.253374
 20
343.505124
 30
0.0
  0
INSERT
  8
LC-003-002-----0
  6
CONTINUOUS
  5
7E1
  2
BLK37
 10
171.222089
 20
344.17601
 30
0.0
  0
INSERT
  8
LC-003-002-----0
  6
CONTINUOUS
  5
7E2
  2
BLK38
 10
209.310104
 20
343.915139
 30
0.0
  0
INSERT
  8
LC-003-002-----0
  6
CONTINUOUS
  5
7E3
  2
BLK39
 10
206.810104
 20
343.505124
 30
0.0
  0
INSERT
  8
LC-003-002-----0
  6
CONTINUOUS
  5
7E4
  2
BLK40
 10
241.519075
 20
343.505124
 30
0.0
  0
INSERT
  8
LC-003-002-----0
  6
CONTINUOUS
  5
7E5
  2
BLK41
 10
244.398119
 20
344.17601
 30
0.0
  0
INSERT
  8
LC-003-002-----0
  6
CONTINUOUS
  5
7E6
  2
BLK42
 10
273.217481
 20
343.915139
 30
0.0
  0
INSERT
  8
LC-003-002-----0
  6
CONTINUOUS
  5
7E7
  2
BLK43
 10
271.096161
 20
343.505124
 30
0.0
  0
INSERT
  8
LC-003-002-----0
  6
CONTINUOUS
  5
7E8
  2
BLK44
 10
273.217481
 20
347.17601
 30
0.0
  0
INSERT
  8
LC-003-002-----0
  6
CONTINUOUS
  5
7E9
  2
BLK45
 10
273.915941
 20
344.17601
 30
0.0
  0
INSERT
  8
LC-003-002-----0
  6
CONTINUOUS
  5
7EA
  2
BLK46
 10
270.949714
 20
347.17601
 30
0.0
  0
INSERT
  8
LC-003-002-----0
  6
CONTINUOUS
  5
7EB
  2
BLK47
 10
142.402727
 20
347.17601
 30
0.0
  0
INSERT
  8
LC-003-002-----0
  6
CONTINUOUS
  5
7EC
  2
BLK48
 10
244.020116
 20
347.17601
 30
0.0
  0
INSERT
  8
LC-003-002-----0
  6
CONTINUOUS
  5
7ED
  2
BLK49
 10
168.542974
 20
347.67601
 30
0.0
  0
INSERT
  8
LC-003-002-----0
  6
CONTINUOUS
  5
7EE
  2
BLK50
 10
241.210417
 20
347.17601
 30
0.0
  0
INSERT
  8
LC-003-002-----0
  6
CONTINUOUS
  5
7EF
  2
BLK51
 10
241.519075
 20
347.17601
 30
0.0
  0
INSERT
  8
LC-003-002-----0
  6
CONTINUOUS
  5
7F0
  2
BLK52
 10
243.749518
 20
348.17601
 30
0.0
  0
INSERT
  8
LC-003-002-----0
  6
CONTINUOUS
  5
7F1
  2
BLK53
 10
246.311778
 20
344.17601
 30
0.0
  0
INSERT
  8
LC-003-002-----0
  6
CONTINUOUS
  5
7F2
  2
BLK54
 10
246.617711
 20
348.17601
 30
0.0
  0
INSERT
  8
LC-003-002-----0
  6
CONTINUOUS
  5
7F3
  2
BLK55
 10
272.510375
 20
347.17601
 30
0.0
  0
INSERT
  8
LC-003-002-----0
  6
CONTINUOUS
  5
7F4
  2
BLK56
 10
278.517211
 20
348.17601
 30
0.0
  0
INSERT
  8
LC-003-002-----0
  6
CONTINUOUS
  5
7F5
  2
BLK57
 10
273.217481
 20
348.17601
 30
0.0
  0
INSERT
  8
LC-003-002-----0
  6
CONTINUOUS
  5
7F6
  2
BLK58
 10
291.803885
 20
347.17601
 30
0.0
  0
INSERT
  8
LC-003-002-----0
  6
CONTINUOUS
  5
7F7
  2
BLK59
 10
292.457167
 20
347.17601
 30
0.0
  0
INSERT
  8
LC-003-002-----0
  6
CONTINUOUS
  5
7F8
  2
BLK60
 10
292.727765
 20
348.17601
 30
0.0
  0
INSERT
  8
LC-003-002-----0
  6
CONTINUOUS
  5
7F9
  2
BLK61
 10
174.409791
 20
343.791128
 30
0.0
  0
INSERT
  8
LC-003-002-----0
  6
CONTINUOUS
  5
7FA
  2
BLK62
 10
244.020116
 20
343.915139
 30
0.0
  0
INSERT
  8
LC-003-002-----0
  6
CONTINUOUS
  5
7FB
  2
BLK63
 10
277.451921
 20
344.17601
 30
0.0
  0
INSERT
  8
LC-003-002-----0
  6
CONTINUOUS
  5
7FC
  2
BLK64
 10
291.803885
 20
343.505124
 30
0.0
  0
INSERT
  8
LC-003-002-----0
  6
CONTINUOUS
  5
7FD
  2
BLK65
 10
293.369748
 20
344.17601
 30
0.0
  0
INSERT
  8
LC-003-002-----0
  6
CONTINUOUS
  5
7FE
  2
BLK66
 10
292.457167
 20
343.915139
 30
0.0
  0
INSERT
  8
LC-003-002-----0
  6
CONTINUOUS
  5
7FF
  2
BLK67
 10
297.989728
 20
344.17601
 30
0.0
  0
INSERT
  8
LC-005-100-----0
  6
CONTINUOUS
  5
801
  2
*D67
 10
0.0
 20
0.0
 30
0.0
  0
DIMENSION
  8
LC-007-003-----0
  6
CONTINUOUS
  5
802
  2
*D68
 10
207.810104
 20
156.8
 30
0.0
 11
207.810104
 21
156.8
 31
0.0
  1
%%c<>
 13
110.310104
 23
219.249208
 33
0.0
 14
305.310104
 24
219.249208
 34
0.0
  3
LC-DIM-L-0140-02-02
  0
DIMENSION
  8
LC-007-003-----0
  6
CONTINUOUS
  5
803
  2
*D69
 10
352.8
 20
265.676711
 30
0.0
 11
352.8
 21
265.676711
 31
0.0
 13
297.810104
 23
218.177411
 33
0.0
 14
306.088875
 24
313.17601
 34
0.0
 50
90.0
  3
LC-DIM-L-0140-02-02
  0
DIMENSION
  8
LC-007-003-----0
  6
CONTINUOUS
  5
804
  2
*D70
 10
392.0
 20
295.676711
 30
0.0
 11
392.0
 21
295.676711
 31
0.0
 13
365.310104
 23
373.17601
 33
0.0
 14
297.810104
 24
218.177411
 34
0.0
 50
90.0
  3
LC-DIM-L-0140-02-02
  0
DIMENSION
  8
LC-007-003-----0
  6
CONTINUOUS
  5
805
  2
*D71
 10
207.810104
 20
392.0
 30
0.0
 11
207.810104
 21
392.0
 31
0.0
  1
%%c<>
 13
110.310104
 23
376.17601
 33
0.0
 14
305.310104
 24
376.17601
 34
0.0
  3
LC-DIM-L-0140-02-02
  0
DIMENSION
  8
LC-007-003-----0
  6
CONTINUOUS
  5
806
  2
*D72
 10
207.810104
 20
431.2
 30
0.0
 11
207.810104
 21
431.2
 31
0.0
  1
%%c<>
 13
50.310104
 23
370.05101
 33
0.0
 14
365.310104
 24
370.05101
 34
0.0
  3
LC-DIM-L-0140-02-02
  0
INSERT
  8
LC-010-005-----0
  6
CONTINUOUS
  5
807
  2
*X73
 10
50.310104
 20
218.177411
 30
0.0
  0
INSERT
  8
LC-010-005-----0
  6
CONTINUOUS
  5
808
  2
*X74
 10
109.310104
 20
222.949208
 30
0.0
  0
INSERT
  8
LC-010-005-----0
  6
CONTINUOUS
  5
809
  2
*X75
 10
297.810104
 20
218.177411
 30
0.0
  0
INSERT
  8
LC-010-005-----0
  6
CONTINUOUS
  5
80A
  2
*X76
 10
301.810104
 20
222.949208
 30
0.0
  0
LINE
  8
LC-003-002-----0
  6
CONTINUOUS
  5
80B
 10
117.810104
 20
218.177411
 30
0.0
 11
301.310104
 21
218.177411
 31
0.0
  0
LINE
  8
LC-003-002-----0
  6
CONTINUOUS
  5
80C
 10
113.810104
 20
227.244059
 30
0.0
 11
113.810104
 21
223.354357
 31
0.0
  0
LINE
  8
LC-003-002-----0
  6
CONTINUOUS
  5
80D
 10
113.068923
 20
228.209985
 30
0.0
 11
110.310104
 21
228.949208
 31
0.0
  0
LINE
  8
LC-003-002-----0
  6
CONTINUOUS
  5
80E
 10
110.310104
 20
221.649208
 30
0.0
 11
113.068923
 21
222.388431
 31
0.0
  0
LINE
  8
LC-003-002-----0
  6
CONTINUOUS
  5
80F
 10
110.310104
 20
219.249208
 30
0.0
 11
110.310104
 21
221.649208
 31
0.0
  0
LINE
  8
LC-003-002-----0
  6
CONTINUOUS
  5
810
 10
114.310104
 20
218.177411
 30
0.0
 11
117.810104
 21
218.177411
 31
0.0
  0
LINE
  8
LC-003-002-----0
  6
CONTINUOUS
  5
811
 10
114.310104
 20
218.177411
 30
0.0
 11
110.310104
 21
219.249208
 31
0.0
  0
LINE
  8
LC-003-002-----0
  6
CONTINUOUS
  5
812
 10
117.810104
 20
218.177411
 30
0.0
 11
117.810104
 21
315.17601
 31
0.0
  0
LINE
  8
LC-003-002-----0
  6
CONTINUOUS
  5
813
 10
110.310104
 20
228.949208
 30
0.0
 11
110.310104
 21
231.449208
 31
0.0
  0
LINE
  8
LC-003-002-----0
  6
CONTINUOUS
  5
814
 10
113.810104
 20
237.244059
 30
0.0
 11
113.810104
 21
233.154357
 31
0.0
  0
LINE
  8
LC-003-002-----0
  6
CONTINUOUS
  5
815
 10
113.068923
 20
238.209985
 30
0.0
 11
110.310104
 21
238.949208
 31
0.0
  0
LINE
  8
LC-003-002-----0
  6
CONTINUOUS
  5
816
 10
110.310104
 20
231.449208
 30
0.0
 11
113.068923
 21
232.188431
 31
0.0
  0
LINE
  8
LC-003-002-----0
  6
CONTINUOUS
  5
817
 10
110.310104
 20
238.949208
 30
0.0
 11
110.310104
 21
241.449208
 31
0.0
  0
LINE
  8
LC-003-002-----0
  6
CONTINUOUS
  5
818
 10
113.810104
 20
247.244059
 30
0.0
 11
113.810104
 21
243.154357
 31
0.0
  0
LINE
  8
LC-003-002-----0
  6
CONTINUOUS
  5
819
 10
113.068923
 20
248.209985
 30
0.0
 11
110.310104
 21
248.949208
 31
0.0
  0
LINE
  8
LC-003-002-----0
  6
CONTINUOUS
  5
81A
 10
110.310104
 20
241.449208
 30
0.0
 11
113.068923
 21
242.188431
 31
0.0
  0
LINE
  8
LC-003-002-----0
  6
CONTINUOUS
  5
81B
 10
110.310104
 20
248.949208
 30
0.0
 11
110.310104
 21
251.449208
 31
0.0
  0
LINE
  8
LC-003-002-----0
  6
CONTINUOUS
  5
81C
 10
113.810104
 20
257.244059
 30
0.0
 11
113.810104
 21
253.154357
 31
0.0
  0
LINE
  8
LC-003-002-----0
  6
CONTINUOUS
  5
81D
 10
113.068923
 20
258.209985
 30
0.0
 11
110.310104
 21
258.949208
 31
0.0
  0
LINE
  8
LC-003-002-----0
  6
CONTINUOUS
  5
81E
 10
110.310104
 20
251.449208
 30
0.0
 11
113.068923
 21
252.188431
 31
0.0
  0
LINE
  8
LC-003-002-----0
  6
CONTINUOUS
  5
81F
 10
110.310104
 20
258.949208
 30
0.0
 11
110.310104
 21
261.449208
 31
0.0
  0
LINE
  8
LC-003-002-----0
  6
CONTINUOUS
  5
820
 10
113.810104
 20
267.244059
 30
0.0
 11
113.810104
 21
263.154357
 31
0.0
  0
LINE
  8
LC-003-002-----0
  6
CONTINUOUS
  5
821
 10
113.068923
 20
268.209985
 30
0.0
 11
110.310104
 21
268.949208
 31
0.0
  0
LINE
  8
LC-003-002-----0
  6
CONTINUOUS
  5
822
 10
110.310104
 20
261.449208
 30
0.0
 11
113.068923
 21
262.188431
 31
0.0
  0
LINE
  8
LC-003-002-----0
  6
CONTINUOUS
  5
823
 10
110.310104
 20
268.949208
 30
0.0
 11
110.310104
 21
271.449208
 31
0.0
  0
LINE
  8
LC-003-002-----0
  6
CONTINUOUS
  5
824
 10
113.810104
 20
277.244059
 30
0.0
 11
113.810104
 21
273.154357
 31
0.0
  0
LINE
  8
LC-003-002-----0
  6
CONTINUOUS
  5
825
 10
113.068923
 20
278.209985
 30
0.0
 11
110.310104
 21
278.949208
 31
0.0
  0
LINE
  8
LC-003-002-----0
  6
CONTINUOUS
  5
826
 10
110.310104
 20
271.449208
 30
0.0
 11
113.068923
 21
272.188431
 31
0.0
  0
LINE
  8
LC-003-002-----0
  6
CONTINUOUS
  5
827
 10
110.310104
 20
278.949208
 30
0.0
 11
110.310104
 21
281.449208
 31
0.0
  0
LINE
  8
LC-003-002-----0
  6
CONTINUOUS
  5
828
 10
113.810104
 20
287.244059
 30
0.0
 11
113.810104
 21
283.154357
 31
0.0
  0
LINE
  8
LC-003-002-----0
  6
CONTINUOUS
  5
829
 10
113.068923
 20
288.209985
 30
0.0
 11
110.310104
 21
288.949208
 31
0.0
  0
LINE
  8
LC-003-002-----0
  6
CONTINUOUS
  5
82A
 10
110.310104
 20
281.449208
 30
0.0
 11
113.068923
 21
282.188431
 31
0.0
  0
LINE
  8
LC-003-002-----0
  6
CONTINUOUS
  5
82B
 10
110.310104
 20
288.949208
 30
0.0
 11
110.310104
 21
291.449208
 31
0.0
  0
LINE
  8
LC-003-002-----0
  6
CONTINUOUS
  5
82C
 10
113.810104
 20
297.244059
 30
0.0
 11
113.810104
 21
293.154357
 31
0.0
  0
LINE
  8
LC-003-002-----0
  6
CONTINUOUS
  5
82D
 10
113.068923
 20
298.209985
 30
0.0
 11
110.310104
 21
298.949208
 31
0.0
  0
LINE
  8
LC-003-002-----0
  6
CONTINUOUS
  5
82E
 10
110.310104
 20
291.449208
 30
0.0
 11
113.068923
 21
292.188431
 31
0.0
  0
LINE
  8
LC-003-002-----0
  6
CONTINUOUS
  5
82F
 10
110.310104
 20
298.949208
 30
0.0
 11
110.310104
 21
301.449208
 31
0.0
  0
LINE
  8
LC-003-002-----0
  6
CONTINUOUS
  5
830
 10
113.810104
 20
307.244059
 30
0.0
 11
113.810104
 21
303.154357
 31
0.0
  0
LINE
  8
LC-003-002-----0
  6
CONTINUOUS
  5
831
 10
113.068923
 20
308.209985
 30
0.0
 11
110.310104
 21
308.949208
 31
0.0
  0
LINE
  8
LC-003-002-----0
  6
CONTINUOUS
  5
832
 10
110.310104
 20
301.449208
 30
0.0
 11
113.068923
 21
302.188431
 31
0.0
  0
LINE
  8
LC-003-002-----0
  6
CONTINUOUS
  5
833
 10
110.310104
 20
308.949208
 30
0.0
 11
110.310104
 21
311.449208
 31
0.0
  0
LINE
  8
LC-003-002-----0
  6
CONTINUOUS
  5
834
 10
110.310104
 20
311.449208
 30
0.0
 11
113.068923
 21
312.188431
 31
0.0
  0
LINE
  8
LC-003-002-----0
  6
CONTINUOUS
  5
835
 10
301.810104
 20
223.354357
 30
0.0
 11
301.810104
 21
227.244059
 31
0.0
  0
LINE
  8
LC-003-002-----0
  6
CONTINUOUS
  5
836
 10
305.310104
 20
228.949208
 30
0.0
 11
302.551285
 21
228.209985
 31
0.0
  0
LINE
  8
LC-003-002-----0
  6
CONTINUOUS
  5
837
 10
302.551285
 20
222.388431
 30
0.0
 11
305.310104
 21
221.649208
 31
0.0
  0
LINE
  8
LC-003-002-----0
  6
CONTINUOUS
  5
838
 10
305.310104
 20
221.649208
 30
0.0
 11
305.310104
 21
219.249208
 31
0.0
  0
LINE
  8
LC-003-002-----0
  6
CONTINUOUS
  5
839
 10
305.310104
 20
219.249208
 30
0.0
 11
301.310104
 21
218.177411
 31
0.0
  0
LINE
  8
LC-003-002-----0
  6
CONTINUOUS
  5
83A
 10
297.810104
 20
315.17601
 30
0.0
 11
297.810104
 21
218.177411
 31
0.0
  0
LINE
  8
LC-003-002-----0
  6
CONTINUOUS
  5
83B
 10
305.310104
 20
231.449208
 30
0.0
 11
305.310104
 21
228.949208
 31
0.0
  0
LINE
  8
LC-003-002-----0
  6
CONTINUOUS
  5
83C
 10
301.810104
 20
233.154357
 30
0.0
 11
301.810104
 21
237.244059
 31
0.0
  0
LINE
  8
LC-003-002-----0
  6
CONTINUOUS
  5
83D
 10
305.310104
 20
238.949208
 30
0.0
 11
302.551285
 21
238.209985
 31
0.0
  0
LINE
  8
LC-003-002-----0
  6
CONTINUOUS
  5
83E
 10
302.551285
 20
232.188431
 30
0.0
 11
305.310104
 21
231.449208
 31
0.0
  0
LINE
  8
LC-003-002-----0
  6
CONTINUOUS
  5
83F
 10
305.310104
 20
241.449208
 30
0.0
 11
305.310104
 21
238.949208
 31
0.0
  0
LINE
  8
LC-003-002-----0
  6
CONTINUOUS
  5
840
 10
301.810104
 20
243.154357
 30
0.0
 11
301.810104
 21
247.244059
 31
0.0
  0
LINE
  8
LC-003-002-----0
  6
CONTINUOUS
  5
841
 10
305.310104
 20
248.949208
 30
0.0
 11
302.551285
 21
248.209985
 31
0.0
  0
LINE
  8
LC-003-002-----0
  6
CONTINUOUS
  5
842
 10
302.551285
 20
242.188431
 30
0.0
 11
305.310104
 21
241.449208
 31
0.0
  0
LINE
  8
LC-003-002-----0
  6
CONTINUOUS
  5
843
 10
305.310104
 20
251.449208
 30
0.0
 11
305.310104
 21
248.949208
 31
0.0
  0
LINE
  8
LC-003-002-----0
  6
CONTINUOUS
  5
844
 10
301.810104
 20
253.154357
 30
0.0
 11
301.810104
 21
257.244059
 31
0.0
  0
LINE
  8
LC-003-002-----0
  6
CONTINUOUS
  5
845
 10
305.310104
 20
258.949208
 30
0.0
 11
302.551285
 21
258.209985
 31
0.0
  0
LINE
  8
LC-003-002-----0
  6
CONTINUOUS
  5
846
 10
302.551285
 20
252.188431
 30
0.0
 11
305.310104
 21
251.449208
 31
0.0
  0
LINE
  8
LC-003-002-----0
  6
CONTINUOUS
  5
847
 10
305.310104
 20
261.449208
 30
0.0
 11
305.310104
 21
258.949208
 31
0.0
  0
LINE
  8
LC-003-002-----0
  6
CONTINUOUS
  5
848
 10
301.810104
 20
263.154357
 30
0.0
 11
301.810104
 21
267.244059
 31
0.0
  0
LINE
  8
LC-003-002-----0
  6
CONTINUOUS
  5
849
 10
305.310104
 20
268.949208
 30
0.0
 11
302.551285
 21
268.209985
 31
0.0
  0
LINE
  8
LC-003-002-----0
  6
CONTINUOUS
  5
84A
 10
302.551285
 20
262.188431
 30
0.0
 11
305.310104
 21
261.449208
 31
0.0
  0
LINE
  8
LC-003-002-----0
  6
CONTINUOUS
  5
84B
 10
305.310104
 20
271.449208
 30
0.0
 11
305.310104
 21
268.949208
 31
0.0
  0
LINE
  8
LC-003-002-----0
  6
CONTINUOUS
  5
84C
 10
301.810104
 20
273.154357
 30
0.0
 11
301.810104
 21
277.244059
 31
0.0
  0
LINE
  8
LC-003-002-----0
  6
CONTINUOUS
  5
84D
 10
305.310104
 20
278.949208
 30
0.0
 11
302.551285
 21
278.209985
 31
0.0
  0
LINE
  8
LC-003-002-----0
  6
CONTINUOUS
  5
84E
 10
302.551285
 20
272.188431
 30
0.0
 11
305.310104
 21
271.449208
 31
0.0
  0
LINE
  8
LC-003-002-----0
  6
CONTINUOUS
  5
84F
 10
305.310104
 20
281.449208
 30
0.0
 11
305.310104
 21
278.949208
 31
0.0
  0
LINE
  8
LC-003-002-----0
  6
CONTINUOUS
  5
850
 10
301.810104
 20
283.154357
 30
0.0
 11
301.810104
 21
287.244059
 31
0.0
  0
LINE
  8
LC-003-002-----0
  6
CONTINUOUS
  5
851
 10
305.310104
 20
288.949208
 30
0.0
 11
302.551285
 21
288.209985
 31
0.0
  0
LINE
  8
LC-003-002-----0
  6
CONTINUOUS
  5
852
 10
302.551285
 20
282.188431
 30
0.0
 11
305.310104
 21
281.449208
 31
0.0
  0
LINE
  8
LC-003-002-----0
  6
CONTINUOUS
  5
853
 10
305.310104
 20
291.449208
 30
0.0
 11
305.310104
 21
288.949208
 31
0.0
  0
LINE
  8
LC-003-002-----0
  6
CONTINUOUS
  5
854
 10
301.810104
 20
293.154357
 30
0.0
 11
301.810104
 21
297.244059
 31
0.0
  0
LINE
  8
LC-003-002-----0
  6
CONTINUOUS
  5
855
 10
305.310104
 20
298.949208
 30
0.0
 11
302.551285
 21
298.209985
 31
0.0
  0
LINE
  8
LC-003-002-----0
  6
CONTINUOUS
  5
856
 10
302.551285
 20
292.188431
 30
0.0
 11
305.310104
 21
291.449208
 31
0.0
  0
LINE
  8
LC-003-002-----0
  6
CONTINUOUS
  5
857
 10
305.310104
 20
301.449208
 30
0.0
 11
305.310104
 21
298.949208
 31
0.0
  0
LINE
  8
LC-003-002-----0
  6
CONTINUOUS
  5
858
 10
301.810104
 20
303.154357
 30
0.0
 11
301.810104
 21
307.244059
 31
0.0
  0
LINE
  8
LC-003-002-----0
  6
CONTINUOUS
  5
859
 10
305.310104
 20
308.949208
 30
0.0
 11
302.551285
 21
308.209985
 31
0.0
  0
LINE
  8
LC-003-002-----0
  6
CONTINUOUS
  5
85A
 10
302.551285
 20
302.188431
 30
0.0
 11
305.310104
 21
301.449208
 31
0.0
  0
LINE
  8
LC-003-002-----0
  6
CONTINUOUS
  5
85B
 10
305.310104
 20
311.449208
 30
0.0
 11
305.310104
 21
308.949208
 31
0.0
  0
LINE
  8
LC-003-002-----0
  6
CONTINUOUS
  5
85C
 10
301.810104
 20
313.154357
 30
0.0
 11
301.810104
 21
315.17601
 31
0.0
  0
LINE
  8
LC-003-002-----0
  6
CONTINUOUS
  5
85D
 10
302.551285
 20
312.188431
 30
0.0
 11
305.310104
 21
311.449208
 31
0.0
  0
LINE
  8
LC-003-002-----0
  6
CONTINUOUS
  5
85E
 10
113.810104
 20
315.17601
 30
0.0
 11
113.810104
 21
313.154357
 31
0.0
  0
ARC
  8
LC-003-002-----0
  6
CONTINUOUS
  5
85F
 10
112.810104
 20
223.354357
 30
0.0
 40
1.0
 50
285.0
 51
0.0
  0
ARC
  8
LC-003-002-----0
  6
CONTINUOUS
  5
860
 10
112.810104
 20
227.244059
 30
0.0
 40
1.0
 50
0.0
 51
75.0
  0
ARC
  8
LC-003-002-----0
  6
CONTINUOUS
  5
861
 10
112.810104
 20
233.154357
 30
0.0
 40
1.0
 50
285.0
 51
0.0
  0
ARC
  8
LC-003-002-----0
  6
CONTINUOUS
  5
862
 10
112.810104
 20
237.244059
 30
0.0
 40
1.0
 50
0.0
 51
75.0
  0
ARC
  8
LC-003-002-----0
  6
CONTINUOUS
  5
863
 10
112.810104
 20
243.154357
 30
0.0
 40
1.0
 50
285.0
 51
0.0
  0
ARC
  8
LC-003-002-----0
  6
CONTINUOUS
  5
864
 10
112.810104
 20
247.244059
 30
0.0
 40
1.0
 50
0.0
 51
75.0
  0
ARC
  8
LC-003-002-----0
  6
CONTINUOUS
  5
865
 10
112.810104
 20
253.154357
 30
0.0
 40
1.0
 50
285.0
 51
0.0
  0
ARC
  8
LC-003-002-----0
  6
CONTINUOUS
  5
866
 10
112.810104
 20
257.244059
 30
0.0
 40
1.0
 50
0.0
 51
75.0
  0
ARC
  8
LC-003-002-----0
  6
CONTINUOUS
  5
867
 10
112.810104
 20
263.154357
 30
0.0
 40
1.0
 50
285.0
 51
0.0
  0
ARC
  8
LC-003-002-----0
  6
CONTINUOUS
  5
868
 10
112.810104
 20
267.244059
 30
0.0
 40
1.0
 50
0.0
 51
75.0
  0
ARC
  8
LC-003-002-----0
  6
CONTINUOUS
  5
869
 10
112.810104
 20
273.154357
 30
0.0
 40
1.0
 50
285.0
 51
0.0
  0
ARC
  8
LC-003-002-----0
  6
CONTINUOUS
  5
86A
 10
112.810104
 20
277.244059
 30
0.0
 40
1.0
 50
0.0
 51
75.0
  0
ARC
  8
LC-003-002-----0
  6
CONTINUOUS
  5
86B
 10
112.810104
 20
283.154357
 30
0.0
 40
1.0
 50
285.0
 51
0.0
  0
LINE
  8
LC-003-002-----0
  6
CONTINUOUS
  5
86C
 10
305.310104
 20
369.67601
 30
0.0
 11
308.310104
 21
369.67601
 31
0.0
  0
LINE
  8
LC-003-002-----0
  6
CONTINUOUS
  5
86D
 10
114.26054
 20
373.17601
 30
0.0
 11
365.310104
 21
373.17601
 31
0.0
  0
LINE
  8
LC-003-002-----0
  6
CONTINUOUS
  5
86E
 10
352.238676
 20
366.67601
 30
0.0
 11
346.310104
 21
366.67601
 31
0.0
  0
LINE
  8
LC-003-002-----0
  6
CONTINUOUS
  5
86F
 10
113.810104
 20
315.17601
 30
0.0
 11
113.810104
 21
338.67601
 31
0.0
  0
LINE
  8
LC-003-002-----0
  6
CONTINUOUS
  5
870
 10
64.381533
 20
366.67601
 30
0.0
 11
63.381533
 21
366.67601
 31
0.0
  0
LINE
  8
LC-003-002-----0
  6
CONTINUOUS
  5
871
 10
351.238676
 20
366.67601
 30
0.0
 11
301.810104
 21
317.247439
 31
0.0
  0
LINE
  8
LC-003-002-----0
  6
CONTINUOUS
  5
872
 10
117.810104
 20
315.17601
 30
0.0
 11
117.810104
 21
342.17601
 31
0.0
  0
LINE
  8
LC-003-002-----0
  6
CONTINUOUS
  5
873
 10
112.810104
 20
339.67601
 30
0.0
 11
109.810104
 21
339.67601
 31
0.0
  0
LINE
  8
LC-003-002-----0
  6
CONTINUOUS
  5
874
 10
104.810104
 20
344.67601
 30
0.0
 11
104.810104
 21
365.67601
 31
0.0
  0
LINE
  8
LC-003-002-----0
  6
CONTINUOUS
  5
875
 10
107.310104
 20
369.67601
 30
0.0
 11
94.310104
 21
369.67601
 31
0.0
  0
LINE
  8
LC-003-002-----0
  6
CONTINUOUS
  5
876
 10
109.310104
 20
346.17601
 30
0.0
 11
109.310104
 21
367.67601
 31
0.0
  0
LINE
  8
LC-003-002-----0
  6
CONTINUOUS
  5
877
 10
115.810104
 20
344.17601
 30
0.0
 11
111.310104
 21
344.17601
 31
0.0
  0
LINE
  8
LC-003-002-----0
  6
CONTINUOUS
  5
878
 10
79.810104
 20
369.67601
 30
0.0
 11
79.810104
 21
363.67601
 31
0.0
  0
LINE
  8
LC-003-002-----0
  6
CONTINUOUS
  5
879
 10
79.810104
 20
363.67601
 30
0.0
 11
73.810104
 21
363.67601
 31
0.0
  0
LINE
  8
LC-003-002-----0
  6
CONTINUOUS
  5
87A
 10
73.810104
 20
363.67601
 30
0.0
 11
72.202409
 21
369.67601
 31
0.0
  0
LINE
  8
LC-003-002-----0
  6
CONTINUOUS
  5
87B
 10
72.202409
 20
369.67601
 30
0.0
 11
63.810104
 21
369.67601
 31
0.0
  0
LINE
  8
LC-003-002-----0
  6
CONTINUOUS
  5
87C
 10
63.810104
 20
369.67601
 30
0.0
 11
50.310104
 21
373.17601
 31
0.0
  0
LINE
  8
LC-003-002-----0
  6
CONTINUOUS
  5
87D
 10
50.310104
 20
373.17601
 30
0.0
 11
50.310104
 21
370.05101
 31
0.0
  0
LINE
  8
LC-003-002-----0
  6
CONTINUOUS
  5
87E
 10
63.381533
 20
366.67601
 30
0.0
 11
50.310104
 21
370.05101
 31
0.0
  0
LINE
  8
LC-003-002-----0
  6
CONTINUOUS
  5
87F
 10
69.310104
 20
366.67601
 30
0.0
 11
64.381533
 21
366.67601
 31
0.0
  0
LINE
  8
LC-003-002-----0
  6
CONTINUOUS
  5
880
 10
80.310104
 20
360.67601
 30
0.0
 11
73.310104
 21
360.67601
 31
0.0
  0
LINE
  8
LC-003-002-----0
  6
CONTINUOUS
  5
881
 10
83.310104
 20
363.67601
 30
0.0
 11
83.310104
 21
365.67601
 31
0.0
  0
LINE
  8
LC-003-002-----0
  6
CONTINUOUS
  5
882
 10
70.310104
 20
363.67601
 30
0.0
 11
70.310104
 21
365.67601
 31
0.0
  0
LINE
  8
LC-003-002-----0
  6
CONTINUOUS
  5
883
 10
84.310104
 20
366.67601
 30
0.0
 11
84.374551
 21
366.67601
 31
0.0
  0
LINE
  8
LC-003-002-----0
  6
CONTINUOUS
  5
884
 10
85.372336
 20
365.742529
 30
0.0
 11
86.310104
 21
351.67601
 31
0.0
  0
LINE
  8
LC-003-002-----0
  6
CONTINUOUS
  5
885
 10
86.310104
 20
351.67601
 30
0.0
 11
91.310104
 21
348.67601
 31
0.0
  0
LINE
  8
LC-003-002-----0
  6
CONTINUOUS
  5
886
 10
91.310104
 20
348.67601
 30
0.0
 11
96.310104
 21
351.67601
 31
0.0
  0
LINE
  8
LC-003-002-----0
  6
CONTINUOUS
  5
887
 10
96.310104
 20
351.67601
 30
0.0
 11
97.247872
 21
365.742529
 31
0.0
  0
LINE
  8
LC-003-002-----0
  6
CONTINUOUS
  5
888
 10
98.245657
 20
366.67601
 30
0.0
 11
103.810104
 21
366.67601
 31
0.0
  0
LINE
  8
LC-003-002-----0
  6
CONTINUOUS
  5
889
 10
91.310104
 20
351.67601
 30
0.0
 11
93.810104
 21
353.119386
 31
0.0
  0
LINE
  8
LC-003-002-----0
  6
CONTINUOUS
  5
88A
 10
93.810104
 20
353.119386
 30
0.0
 11
93.810104
 21
369.17601
 31
0.0
  0
LINE
  8
LC-003-002-----0
  6
CONTINUOUS
  5
88B
 10
88.810104
 20
353.119386
 30
0.0
 11
88.810104
 21
369.17601
 31
0.0
  0
LINE
  8
LC-003-002-----0
  6
CONTINUOUS
  5
88C
 10
88.310104
 20
369.67601
 30
0.0
 11
79.810104
 21
369.67601
 31
0.0
  0
LINE
  8
LC-003-002-----0
  6
CONTINUOUS
  5
88D
 10
93.810104
 20
353.119386
 30
0.0
 11
88.810104
 21
353.119386
 31
0.0
  0
LINE
  8
LC-003-002-----0
  6
CONTINUOUS
  5
88E
 10
88.810104
 20
353.119386
 30
0.0
 11
91.310104
 21
351.67601
 31
0.0
  0
LINE
  8
LC-003-002-----0
  6
CONTINUOUS
  5
88F
 10
88.310104
 20
369.67601
 30
0.0
 11
88.810104
 21
369.17601
 31
0.0
  0
LINE
  8
LC-003-002-----0
  6
CONTINUOUS
  5
890
 10
93.810104
 20
369.17601
 30
0.0
 11
94.310104
 21
369.67601
 31
0.0
  0
LINE
  8
LC-003-002-----0
  6
CONTINUOUS
  5
891
 10
88.810104
 20
369.17601
 30
0.0
 11
93.810104
 21
369.17601
 31
0.0
  0
LINE
  8
LC-003-002-----0
  6
CONTINUOUS
  5
892
 10
94.310104
 20
369.67601
 30
0.0
 11
88.310104
 21
369.67601
 31
0.0
  0
LINE
  8
LC-003-002-----0
  6
CONTINUOUS
  5
893
 10
72.202409
 20
369.67601
 30
0.0
 11
79.810104
 21
369.67601
 31
0.0
  0
LINE
  8
LC-003-002-----0
  6
CONTINUOUS
  5
894
 10
50.310104
 20
373.17601
 30
0.0
 11
114.26054
 21
373.17601
 31
0.0
  0
LINE
  8
LC-003-002-----0
  6
CONTINUOUS
  5
895
 10
107.310104
 20
369.67601
 30
0.0
 11
305.310104
 21
369.67601
 31
0.0
  0
LINE
  8
LC-003-002-----0
  6
CONTINUOUS
  5
896
 10
297.810104
 20
342.17601
 30
0.0
 11
297.810104
 21
315.17601
 31
0.0
  0
LINE
  8
LC-003-002-----0
  6
CONTINUOUS
  5
897
 10
305.810104
 20
339.67601
 30
0.0
 11
302.810104
 21
339.67601
 31
0.0
  0
LINE
  8
LC-003-002-----0
  6
CONTINUOUS
  5
898
 10
301.810104
 20
338.67601
 30
0.0
 11
301.810104
 21
315.17601
 31
0.0
  0
LINE
  8
LC-003-002-----0
  6
CONTINUOUS
  5
899
 10
310.810104
 20
365.67601
 30
0.0
 11
310.810104
 21
344.67601
 31
0.0
  0
LINE
  8
LC-003-002-----0
  6
CONTINUOUS
  5
89A
 10
321.310104
 20
369.67601
 30
0.0
 11
308.310104
 21
369.67601
 31
0.0
  0
LINE
  8
LC-003-002-----0
  6
CONTINUOUS
  5
89B
 10
306.310104
 20
367.67601
 30
0.0
 11
306.310104
 21
346.17601
 31
0.0
  0
LINE
  8
LC-003-002-----0
  6
CONTINUOUS
  5
89C
 10
304.310104
 20
344.17601
 30
0.0
 11
299.810104
 21
344.17601
 31
0.0
  0
LINE
  8
LC-003-002-----0
  6
CONTINUOUS
  5
89D
 10
335.810104
 20
363.67601
 30
0.0
 11
335.810104
 21
369.67601
 31
0.0
  0
LINE
  8
LC-003-002-----0
  6
CONTINUOUS
  5
89E
 10
341.810104
 20
363.67601
 30
0.0
 11
335.810104
 21
363.67601
 31
0.0
  0
LINE
  8
LC-003-002-----0
  6
CONTINUOUS
  5
89F
 10
343.417799
 20
369.67601
 30
0.0
 11
341.810104
 21
363.67601
 31
0.0
  0
LINE
  8
LC-003-002-----0
  6
CONTINUOUS
  5
8A0
 10
351.810104
 20
369.67601
 30
0.0
 11
343.417799
 21
369.67601
 31
0.0
  0
LINE
  8
LC-003-002-----0
  6
CONTINUOUS
  5
8A1
 10
365.310104
 20
373.17601
 30
0.0
 11
351.810104
 21
369.67601
 31
0.0
  0
LINE
  8
LC-003-002-----0
  6
CONTINUOUS
  5
8A2
 10
365.310104
 20
370.05101
 30
0.0
 11
365.310104
 21
373.17601
 31
0.0
  0
LINE
  8
LC-003-002-----0
  6
CONTINUOUS
  5
8A3
 10
365.310104
 20
370.05101
 30
0.0
 11
352.238676
 21
366.67601
 31
0.0
  0
LINE
  8
LC-003-002-----0
  6
CONTINUOUS
  5
8A4
 10
352.238676
 20
366.67601
 30
0.0
 11
351.238676
 21
366.67601
 31
0.0
  0
LINE
  8
LC-003-002-----0
  6
CONTINUOUS
  5
8A5
 10
342.310104
 20
360.67601
 30
0.0
 11
335.310104
 21
360.67601
 31
0.0
  0
LINE
  8
LC-003-002-----0
  6
CONTINUOUS
  5
8A6
 10
332.310104
 20
365.67601
 30
0.0
 11
332.310104
 21
363.67601
 31
0.0
  0
LINE
  8
LC-003-002-----0
  6
CONTINUOUS
  5
8A7
 10
345.310104
 20
365.67601
 30
0.0
 11
345.310104
 21
363.67601
 31
0.0
  0
LINE
  8
LC-003-002-----0
  6
CONTINUOUS
  5
8A8
 10
331.245657
 20
366.67601
 30
0.0
 11
331.310104
 21
366.67601
 31
0.0
  0
LINE
  8
LC-003-002-----0
  6
CONTINUOUS
  5
8A9
 10
329.310104
 20
351.67601
 30
0.0
 11
330.247872
 21
365.742529
 31
0.0
  0
LINE
  8
LC-003-002-----0
  6
CONTINUOUS
  5
8AA
 10
324.310104
 20
348.67601
 30
0.0
 11
329.310104
 21
351.67601
 31
0.0
  0
LINE
  8
LC-003-002-----0
  6
CONTINUOUS
  5
8AB
 10
319.310104
 20
351.67601
 30
0.0
 11
324.310104
 21
348.67601
 31
0.0
  0
LINE
  8
LC-003-002-----0
  6
CONTINUOUS
  5
8AC
 10
318.372336
 20
365.742529
 30
0.0
 11
319.310104
 21
351.67601
 31
0.0
  0
LINE
  8
LC-003-002-----0
  6
CONTINUOUS
  5
8AD
 10
311.810104
 20
366.67601
 30
0.0
 11
317.374551
 21
366.67601
 31
0.0
  0
LINE
  8
LC-003-002-----0
  6
CONTINUOUS
  5
8AE
 10
321.810104
 20
353.119386
 30
0.0
 11
324.310104
 21
351.67601
 31
0.0
  0
LINE
  8
LC-003-002-----0
  6
CONTINUOUS
  5
8AF
 10
321.810104
 20
369.17601
 30
0.0
 11
321.810104
 21
353.119386
 31
0.0
  0
LINE
  8
LC-003-002-----0
  6
CONTINUOUS
  5
8B0
 10
326.810104
 20
369.17601
 30
0.0
 11
326.810104
 21
353.119386
 31
0.0
  0
LINE
  8
LC-003-002-----0
  6
CONTINUOUS
  5
8B1
 10
335.810104
 20
369.67601
 30
0.0
 11
327.310104
 21
369.67601
 31
0.0
  0
LINE
  8
LC-003-002-----0
  6
CONTINUOUS
  5
8B2
 10
326.810104
 20
353.119386
 30
0.0
 11
321.810104
 21
353.119386
 31
0.0
  0
LINE
  8
LC-003-002-----0
  6
CONTINUOUS
  5
8B3
 10
324.310104
 20
351.67601
 30
0.0
 11
326.810104
 21
353.119386
 31
0.0
  0
LINE
  8
LC-003-002-----0
  6
CONTINUOUS
  5
8B4
 10
326.810104
 20
369.17601
 30
0.0
 11
327.310104
 21
369.67601
 31
0.0
  0
LINE
  8
LC-003-002-----0
  6
CONTINUOUS
  5
8B5
 10
321.310104
 20
369.67601
 30
0.0
 11
321.810104
 21
369.17601
 31
0.0
  0
LINE
  8
LC-003-002-----0
  6
CONTINUOUS
  5
8B6
 10
321.810104
 20
369.17601
 30
0.0
 11
326.810104
 21
369.17601
 31
0.0
  0
LINE
  8
LC-003-002-----0
  6
CONTINUOUS
  5
8B7
 10
327.310104
 20
369.67601
 30
0.0
 11
321.310104
 21
369.67601
 31
0.0
  0
LINE
  8
LC-003-002-----0
  6
CONTINUOUS
  5
8B8
 10
335.810104
 20
369.67601
 30
0.0
 11
343.417799
 21
369.67601
 31
0.0
  0
LINE
  8
LC-004-101-D10-0
  6
DASHDOT
  5
8BB
 10
91.310104
 20
353.119386
 30
0.0
 11
91.310104
 21
369.17601
 31
0.0
  0
LINE
  8
LC-004-101-D10-0
  6
DASHDOT
  5
8BC
 10
324.310104
 20
369.17601
 30
0.0
 11
324.310104
 21
353.119386
 31
0.0
  0
LINE
  8
LC-003-002-----0
  6
CONTINUOUS
  5
8BD
 10
113.810104
 20
317.247439
 30
0.0
 11
64.381533
 21
366.67601
 31
0.0
  0
LINE
  8
LC-003-002-----0
  6
CONTINUOUS
  5
8BE
 10
116.310104
 20
348.17601
 30
0.0
 11
109.310104
 21
348.17601
 31
0.0
  0
LINE
  8
LC-003-002-----0
  6
CONTINUOUS
  5
8BF
 10
124.58169
 20
347.17601
 30
0.0
 11
124.58169
 21
343.505124
 31
0.0
  0
LINE
  8
LC-003-002-----0
  6
CONTINUOUS
  5
8C0
 10
123.816323
 20
343.505124
 30
0.0
 11
123.816323
 21
347.17601
 31
0.0
  0
LINE
  8
LC-003-002-----0
  6
CONTINUOUS
  5
8C1
 10
124.61975
 20
347.17601
 30
0.0
 11
124.61975
 21
343.549177
 31
0.0
  0
LINE
  8
LC-003-002-----0
  6
CONTINUOUS
  5
8C2
 10
123.163041
 20
343.915139
 30
0.0
 11
123.163041
 21
347.17601
 31
0.0
  0
LINE
  8
LC-003-002-----0
  6
CONTINUOUS
  5
8C3
 10
123.163041
 20
347.17601
 30
0.0
 11
123.816323
 21
347.17601
 31
0.0
  0
LINE
  8
LC-003-002-----0
  6
CONTINUOUS
  5
8C4
 10
124.58169
 20
347.17601
 30
0.0
 11
123.816323
 21
347.17601
 31
0.0
  0
LINE
  8
LC-003-002-----0
  6
CONTINUOUS
  5
8C5
 10
124.58169
 20
347.17601
 30
0.0
 11
124.61975
 21
347.17601
 31
0.0
  0
LINE
  8
LC-003-002-----0
  6
CONTINUOUS
  5
8C6
 10
123.65781
 20
348.17601
 30
0.0
 11
122.892443
 21
348.17601
 31
0.0
  0
LINE
  8
LC-003-002-----0
  6
CONTINUOUS
  5
8C7
 10
122.701102
 20
347.67601
 30
0.0
 11
117.176129
 21
347.67601
 31
0.0
  0
LINE
  8
LC-003-002-----0
  6
CONTINUOUS
  5
8C8
 10
122.892443
 20
348.17601
 30
0.0
 11
116.310104
 21
348.17601
 31
0.0
  0
LINE
  8
LC-003-002-----0
  6
CONTINUOUS
  5
8C9
 10
117.63048
 20
344.17601
 30
0.0
 11
117.310104
 21
344.17601
 31
0.0
  0
LINE
  8
LC-003-002-----0
  6
CONTINUOUS
  5
8CA
 10
122.25046
 20
344.17601
 30
0.0
 11
117.63048
 21
344.17601
 31
0.0
  0
LINE
  8
LC-003-002-----0
  6
CONTINUOUS
  5
8CB
 10
117.310104
 20
343.498886
 30
0.0
 11
117.310104
 21
347.17601
 31
0.0
  0
LINE
  8
LC-003-002-----0
  6
CONTINUOUS
  5
8CC
 10
141.704267
 20
344.17601
 30
0.0
 11
138.168288
 21
344.17601
 31
0.0
  0
LINE
  8
LC-003-002-----0
  6
CONTINUOUS
  5
8CD
 10
138.168288
 20
344.17601
 30
0.0
 11
124.61975
 21
344.17601
 31
0.0
  0
LINE
  8
LC-003-002-----0
  6
CONTINUOUS
  5
8CE
 10
171.222089
 20
344.17601
 30
0.0
 11
169.30843
 21
344.17601
 31
0.0
  0
LINE
  8
LC-003-002-----0
  6
CONTINUOUS
  5
8CF
 10
169.30843
 20
344.17601
 30
0.0
 11
144.670494
 21
344.17601
 31
0.0
  0
LINE
  8
LC-003-002-----0
  6
CONTINUOUS
  5
8D0
 10
206.310104
 20
344.17601
 30
0.0
 11
174.409791
 21
344.17601
 31
0.0
  0
LINE
  8
LC-003-002-----0
  6
CONTINUOUS
  5
8D1
 10
209.310104
 20
344.17601
 30
0.0
 11
209.310104
 21
343.915139
 31
0.0
  0
LINE
  8
LC-003-002-----0
  6
CONTINUOUS
  5
8D2
 10
206.310104
 20
343.915139
 30
0.0
 11
206.310104
 21
344.17601
 31
0.0
  0
LINE
  8
LC-003-002-----0
  6
CONTINUOUS
  5
8D3
 10
241.210417
 20
344.17601
 30
0.0
 11
209.310104
 21
344.17601
 31
0.0
  0
LINE
  8
LC-003-002-----0
  6
CONTINUOUS
  5
8D4
 10
246.311778
 20
344.17601
 30
0.0
 11
244.398119
 21
344.17601
 31
0.0
  0
LINE
  8
LC-003-002-----0
  6
CONTINUOUS
  5
8D5
 10
270.949714
 20
344.17601
 30
0.0
 11
246.311778
 21
344.17601
 31
0.0
  0
LINE
  8
LC-003-002-----0
  6
CONTINUOUS
  5
8D6
 10
278.8663
 20
346.17601
 30
0.0
 11
278.8663
 21
347.67601
 31
0.0
  0
LINE
  8
LC-003-002-----0
  6
CONTINUOUS
  5
8D7
 10
272.510375
 20
347.17601
 30
0.0
 11
273.217481
 21
347.17601
 31
0.0
  0
LINE
  8
LC-003-002-----0
  6
CONTINUOUS
  5
8D8
 10
270.949714
 20
347.17601
 30
0.0
 11
271.096161
 21
347.17601
 31
0.0
  0
LINE
  8
LC-003-002-----0
  6
CONTINUOUS
  5
8D9
 10
291.000458
 20
344.17601
 30
0.0
 11
277.451921
 21
344.17601
 31
0.0
  0
LINE
  8
LC-003-002-----0
  6
CONTINUOUS
  5
8DA
 10
277.451921
 20
344.17601
 30
0.0
 11
273.915941
 21
344.17601
 31
0.0
  0
LINE
  8
LC-003-002-----0
  6
CONTINUOUS
  5
8DB
 10
272.510375
 20
347.17601
 30
0.0
 11
272.510375
 21
343.505124
 31
0.0
  0
LINE
  8
LC-003-002-----0
  6
CONTINUOUS
  5
8DC
 10
271.096161
 20
343.505124
 30
0.0
 11
271.096161
 21
347.17601
 31
0.0
  0
LINE
  8
LC-003-002-----0
  6
CONTINUOUS
  5
8DD
 10
273.217481
 20
347.17601
 30
0.0
 11
273.217481
 21
343.915139
 31
0.0
  0
LINE
  8
LC-003-002-----0
  6
CONTINUOUS
  5
8DE
 10
270.949714
 20
343.657613
 30
0.0
 11
270.949714
 21
347.17601
 31
0.0
  0
LINE
  8
LC-003-002-----0
  6
CONTINUOUS
  5
8DF
 10
270.949714
 20
346.17601
 30
0.0
 11
247.077234
 21
346.17601
 31
0.0
  0
LINE
  8
LC-003-002-----0
  6
CONTINUOUS
  5
8E0
 10
241.210417
 20
346.17601
 30
0.0
 11
209.310104
 21
346.17601
 31
0.0
  0
LINE
  8
LC-003-002-----0
  6
CONTINUOUS
  5
8E1
 10
168.542974
 20
346.17601
 30
0.0
 11
144.670494
 21
346.17601
 31
0.0
  0
LINE
  8
LC-003-002-----0
  6
CONTINUOUS
  5
8E2
 10
209.310104
 20
347.17601
 30
0.0
 11
209.310104
 21
347.67601
 31
0.0
  0
LINE
  8
LC-003-002-----0
  6
CONTINUOUS
  5
8E3
 10
206.310104
 20
346.17601
 30
0.0
 11
206.310104
 21
347.17601
 31
0.0
  0
LINE
  8
LC-003-002-----0
  6
CONTINUOUS
  5
8E4
 10
209.310104
 20
347.17601
 30
0.0
 11
209.310104
 21
346.17601
 31
0.0
  0
LINE
  8
LC-003-002-----0
  6
CONTINUOUS
  5
8E5
 10
241.210417
 20
347.17601
 30
0.0
 11
241.519075
 21
347.17601
 31
0.0
  0
LINE
  8
LC-003-002-----0
  6
CONTINUOUS
  5
8E6
 10
243.366834
 20
347.17601
 30
0.0
 11
241.519075
 21
347.17601
 31
0.0
  0
LINE
  8
LC-003-002-----0
  6
CONTINUOUS
  5
8E7
 10
144.524047
 20
347.17601
 30
0.0
 11
144.670494
 21
347.17601
 31
0.0
  0
LINE
  8
LC-003-002-----0
  6
CONTINUOUS
  5
8E8
 10
247.077234
 20
346.17601
 30
0.0
 11
247.077234
 21
347.67601
 31
0.0
  0
LINE
  8
LC-003-002-----0
  6
CONTINUOUS
  5
8E9
 10
244.211457
 20
347.67601
 30
0.0
 11
247.077234
 21
347.67601
 31
0.0
  0
LINE
  8
LC-003-002-----0
  6
CONTINUOUS
  5
8EA
 10
241.210417
 20
343.791128
 30
0.0
 11
241.210417
 21
347.17601
 31
0.0
  0
LINE
  8
LC-003-002-----0
  6
CONTINUOUS
  5
8EB
 10
241.519075
 20
343.505124
 30
0.0
 11
241.519075
 21
347.17601
 31
0.0
  0
LINE
  8
LC-003-002-----0
  6
CONTINUOUS
  5
8EC
 10
243.749518
 20
348.17601
 30
0.0
 11
246.617711
 21
348.17601
 31
0.0
  0
LINE
  8
LC-003-002-----0
  6
CONTINUOUS
  5
8ED
 10
243.749518
 20
348.17601
 30
0.0
 11
241.901759
 21
348.17601
 31
0.0
  0
LINE
  8
LC-003-002-----0
  6
CONTINUOUS
  5
8EE
 10
171.87069
 20
348.17601
 30
0.0
 11
169.002498
 21
348.17601
 31
0.0
  0
LINE
  8
LC-003-002-----0
  6
CONTINUOUS
  5
8EF
 10
143.81694
 20
348.17601
 30
0.0
 11
142.402727
 21
348.17601
 31
0.0
  0
LINE
  8
LC-003-002-----0
  6
CONTINUOUS
  5
8F0
 10
142.402727
 20
347.17601
 30
0.0
 11
143.109834
 21
347.17601
 31
0.0
  0
LINE
  8
LC-003-002-----0
  6
CONTINUOUS
  5
8F1
 10
171.408751
 20
347.67601
 30
0.0
 11
168.542974
 21
347.67601
 31
0.0
  0
LINE
  8
LC-003-002-----0
  6
CONTINUOUS
  5
8F2
 10
208.810104
 20
347.17601
 30
0.0
 11
208.810104
 21
343.505124
 31
0.0
  0
LINE
  8
LC-003-002-----0
  6
CONTINUOUS
  5
8F3
 10
168.542974
 20
346.17601
 30
0.0
 11
168.542974
 21
347.67601
 31
0.0
  0
LINE
  8
LC-003-002-----0
  6
CONTINUOUS
  5
8F4
 10
143.109834
 20
343.505124
 30
0.0
 11
143.109834
 21
347.17601
 31
0.0
  0
LINE
  8
LC-003-002-----0
  6
CONTINUOUS
  5
8F5
 10
142.402727
 20
343.915139
 30
0.0
 11
142.402727
 21
347.17601
 31
0.0
  0
LINE
  8
LC-003-002-----0
  6
CONTINUOUS
  5
8F6
 10
144.524047
 20
347.17601
 30
0.0
 11
144.524047
 21
343.505124
 31
0.0
  0
LINE
  8
LC-003-002-----0
  6
CONTINUOUS
  5
8F7
 10
172.253374
 20
343.505124
 30
0.0
 11
172.253374
 21
347.17601
 31
0.0
  0
LINE
  8
LC-003-002-----0
  6
CONTINUOUS
  5
8F8
 10
206.810104
 20
343.505124
 30
0.0
 11
206.810104
 21
347.17601
 31
0.0
  0
LINE
  8
LC-003-002-----0
  6
CONTINUOUS
  5
8F9
 10
144.670494
 20
347.17601
 30
0.0
 11
144.670494
 21
343.657613
 31
0.0
  0
LINE
  8
LC-003-002-----0
  6
CONTINUOUS
  5
8FA
 10
171.600092
 20
343.915139
 30
0.0
 11
171.600092
 21
347.17601
 31
0.0
  0
LINE
  8
LC-003-002-----0
  6
CONTINUOUS
  5
8FB
 10
206.310104
 20
344.17601
 30
0.0
 11
206.310104
 21
346.17601
 31
0.0
  0
LINE
  8
LC-003-002-----0
  6
CONTINUOUS
  5
8FC
 10
144.524047
 20
347.17601
 30
0.0
 11
143.109834
 21
347.17601
 31
0.0
  0
LINE
  8
LC-003-002-----0
  6
CONTINUOUS
  5
8FD
 10
209.310104
 20
346.17601
 30
0.0
 11
209.310104
 21
344.17601
 31
0.0
  0
LINE
  8
LC-003-002-----0
  6
CONTINUOUS
  5
8FE
 10
208.810104
 20
347.17601
 30
0.0
 11
209.310104
 21
347.17601
 31
0.0
  0
LINE
  8
LC-003-002-----0
  6
CONTINUOUS
  5
8FF
 10
136.753908
 20
346.17601
 30
0.0
 11
124.61975
 21
346.17601
 31
0.0
  0
LINE
  8
LC-003-002-----0
  6
CONTINUOUS
  5
900
 10
142.402727
 20
348.17601
 30
0.0
 11
137.102997
 21
348.17601
 31
0.0
  0
LINE
  8
LC-003-002-----0
  6
CONTINUOUS
  5
901
 10
136.753908
 20
346.17601
 30
0.0
 11
136.753908
 21
347.67601
 31
0.0
  0
LINE
  8
LC-003-002-----0
  6
CONTINUOUS
  5
902
 10
142.049173
 20
347.67601
 30
0.0
 11
136.753908
 21
347.67601
 31
0.0
  0
LINE
  8
LC-003-002-----0
  6
CONTINUOUS
  5
903
 10
206.310104
 20
347.17601
 30
0.0
 11
206.310104
 21
347.67601
 31
0.0
  0
LINE
  8
LC-003-002-----0
  6
CONTINUOUS
  5
904
 10
206.310104
 20
346.17601
 30
0.0
 11
174.409791
 21
346.17601
 31
0.0
  0
LINE
  8
LC-003-002-----0
  6
CONTINUOUS
  5
905
 10
174.101133
 20
347.17601
 30
0.0
 11
172.253374
 21
347.17601
 31
0.0
  0
LINE
  8
LC-003-002-----0
  6
CONTINUOUS
  5
906
 10
171.600092
 20
347.17601
 30
0.0
 11
172.253374
 21
347.17601
 31
0.0
  0
LINE
  8
LC-003-002-----0
  6
CONTINUOUS
  5
907
 10
174.101133
 20
347.17601
 30
0.0
 11
174.409791
 21
347.17601
 31
0.0
  0
LINE
  8
LC-003-002-----0
  6
CONTINUOUS
  5
908
 10
173.71845
 20
348.17601
 30
0.0
 11
171.87069
 21
348.17601
 31
0.0
  0
LINE
  8
LC-003-002-----0
  6
CONTINUOUS
  5
909
 10
291.803885
 20
347.17601
 30
0.0
 11
291.038518
 21
347.17601
 31
0.0
  0
LINE
  8
LC-003-002-----0
  6
CONTINUOUS
  5
90A
 10
272.510375
 20
347.17601
 30
0.0
 11
271.096161
 21
347.17601
 31
0.0
  0
LINE
  8
LC-003-002-----0
  6
CONTINUOUS
  5
90B
 10
291.000458
 20
347.17601
 30
0.0
 11
291.038518
 21
347.17601
 31
0.0
  0
LINE
  8
LC-003-002-----0
  6
CONTINUOUS
  5
90C
 10
273.571035
 20
347.67601
 30
0.0
 11
278.8663
 21
347.67601
 31
0.0
  0
LINE
  8
LC-003-002-----0
  6
CONTINUOUS
  5
90D
 10
273.217481
 20
348.17601
 30
0.0
 11
271.803268
 21
348.17601
 31
0.0
  0
LINE
  8
LC-003-002-----0
  6
CONTINUOUS
  5
90E
 10
273.217481
 20
348.17601
 30
0.0
 11
278.517211
 21
348.17601
 31
0.0
  0
LINE
  8
LC-003-002-----0
  6
CONTINUOUS
  5
90F
 10
291.000458
 20
346.17601
 30
0.0
 11
278.8663
 21
346.17601
 31
0.0
  0
LINE
  8
LC-003-002-----0
  6
CONTINUOUS
  5
910
 10
208.810104
 20
347.17601
 30
0.0
 11
206.810104
 21
347.17601
 31
0.0
  0
LINE
  8
LC-003-002-----0
  6
CONTINUOUS
  5
911
 10
208.810104
 20
347.17601
 30
0.0
 11
208.810104
 21
348.17601
 31
0.0
  0
LINE
  8
LC-003-002-----0
  6
CONTINUOUS
  5
912
 10
206.810104
 20
347.17601
 30
0.0
 11
206.810104
 21
348.17601
 31
0.0
  0
LINE
  8
LC-003-002-----0
  6
CONTINUOUS
  5
913
 10
243.366834
 20
347.17601
 30
0.0
 11
244.020116
 21
347.17601
 31
0.0
  0
LINE
  8
LC-003-002-----0
  6
CONTINUOUS
  5
914
 10
208.810104
 20
348.17601
 30
0.0
 11
206.810104
 21
348.17601
 31
0.0
  0
LINE
  8
LC-003-002-----0
  6
CONTINUOUS
  5
915
 10
292.727765
 20
348.17601
 30
0.0
 11
291.962398
 21
348.17601
 31
0.0
  0
LINE
  8
LC-003-002-----0
  6
CONTINUOUS
  5
916
 10
291.803885
 20
347.17601
 30
0.0
 11
292.457167
 21
347.17601
 31
0.0
  0
LINE
  8
LC-003-002-----0
  6
CONTINUOUS
  5
917
 10
206.310104
 20
347.17601
 30
0.0
 11
206.810104
 21
347.17601
 31
0.0
  0
LINE
  8
LC-003-002-----0
  6
CONTINUOUS
  5
918
 10
174.101133
 20
347.17601
 30
0.0
 11
174.101133
 21
343.505124
 31
0.0
  0
LINE
  8
LC-003-002-----0
  6
CONTINUOUS
  5
919
 10
174.409791
 20
347.17601
 30
0.0
 11
174.409791
 21
343.791128
 31
0.0
  0
LINE
  8
LC-003-002-----0
  6
CONTINUOUS
  5
91A
 10
243.366834
 20
347.17601
 30
0.0
 11
243.366834
 21
343.505124
 31
0.0
  0
LINE
  8
LC-003-002-----0
  6
CONTINUOUS
  5
91B
 10
291.000458
 20
343.549177
 30
0.0
 11
291.000458
 21
347.17601
 31
0.0
  0
LINE
  8
LC-003-002-----0
  6
CONTINUOUS
  5
91C
 10
244.020116
 20
347.17601
 30
0.0
 11
244.020116
 21
343.915139
 31
0.0
  0
LINE
  8
LC-003-002-----0
  6
CONTINUOUS
  5
91D
 10
291.038518
 20
343.505124
 30
0.0
 11
291.038518
 21
347.17601
 31
0.0
  0
LINE
  8
LC-003-002-----0
  6
CONTINUOUS
  5
91E
 10
291.803885
 20
347.17601
 30
0.0
 11
291.803885
 21
343.505124
 31
0.0
  0
LINE
  8
LC-003-002-----0
  6
CONTINUOUS
  5
91F
 10
292.457167
 20
347.17601
 30
0.0
 11
292.457167
 21
343.915139
 31
0.0
  0
LINE
  8
LC-003-002-----0
  6
CONTINUOUS
  5
920
 10
297.989728
 20
344.17601
 30
0.0
 11
293.369748
 21
344.17601
 31
0.0
  0
LINE
  8
LC-003-002-----0
  6
CONTINUOUS
  5
921
 10
292.919106
 20
347.67601
 30
0.0
 11
298.444079
 21
347.67601
 31
0.0
  0
LINE
  8
LC-003-002-----0
  6
CONTINUOUS
  5
922
 10
292.727765
 20
348.17601
 30
0.0
 11
299.310104
 21
348.17601
 31
0.0
  0
LINE
  8
LC-003-002-----0
  6
CONTINUOUS
  5
923
 10
299.310104
 20
348.17601
 30
0.0
 11
306.310104
 21
348.17601
 31
0.0
  0
LINE
  8
LC-003-002-----0
  6
CONTINUOUS
  5
924
 10
298.310104
 20
344.17601
 30
0.0
 11
297.989728
 21
344.17601
 31
0.0
  0
LINE
  8
LC-003-002-----0
  6
CONTINUOUS
  5
925
 10
298.310104
 20
347.17601
 30
0.0
 11
298.310104
 21
343.498886
 31
0.0
  0
ARC
  8
LC-003-002-----0
  6
CONTINUOUS
  5
926
 10
116.310104
 20
347.17601
 30
0.0
 40
1.0
 50
0.0
 51
90.0
  0
ARC
  8
LC-003-002-----0
  6
CONTINUOUS
  5
927
 10
208.810104
 20
347.67601
 30
0.0
 40
0.5
 50
0.0
 51
90.0
  0
ARC
  8
LC-003-002-----0
  6
CONTINUOUS
  5
928
 10
206.810104
 20
347.67601
 30
0.0
 40
0.5
 50
90.0
 51
180.0
  0
ARC
  8
LC-003-002-----0
  6
CONTINUOUS
  5
929
 10
299.310104
 20
347.17601
 30
0.0
 40
1.0
 50
90.0
 51
180.0
  0
LINE
  8
LC-003-002-----0
  6
CONTINUOUS
  5
92A
 10
143.109834
 20
347.17601
 30
0.0
 11
143.096999
 21
347.3878
 31
0.0
  0
LINE
  8
LC-003-002-----0
  6
CONTINUOUS
  5
92B
 10
143.096999
 20
347.3878
 30
0.0
 11
143.057801
 21
347.549824
 31
0.0
  0
LINE
  8
LC-003-002-----0
  6
CONTINUOUS
  5
92C
 10
143.057801
 20
347.549824
 30
0.0
 11
142.999362
 21
347.708469
 31
0.0
  0
LINE
  8
LC-003-002-----0
  6
CONTINUOUS
  5
92D
 10
142.999362
 20
347.708469
 30
0.0
 11
142.934198
 21
347.847048
 31
0.0
  0
LINE
  8
LC-003-002-----0
  6
CONTINUOUS
  5
92E
 10
142.934198
 20
347.847048
 30
0.0
 11
142.904263
 21
347.89476
 31
0.0
  0
LINE
  8
LC-003-002-----0
  6
CONTINUOUS
  5
92F
 10
142.904263
 20
347.89476
 30
0.0
 11
142.867376
 21
347.938822
 31
0.0
  0
LINE
  8
LC-003-002-----0
  6
CONTINUOUS
  5
930
 10
142.867376
 20
347.938822
 30
0.0
 11
142.769078
 21
348.028208
 31
0.0
  0
LINE
  8
LC-003-002-----0
  6
CONTINUOUS
  5
931
 10
142.769078
 20
348.028208
 30
0.0
 11
142.653726
 21
348.111252
 31
0.0
  0
LINE
  8
LC-003-002-----0
  6
CONTINUOUS
  5
932
 10
142.653726
 20
348.111252
 30
0.0
 11
142.549067
 21
348.159627
 31
0.0
  0
LINE
  8
LC-003-002-----0
  6
CONTINUOUS
  5
933
 10
142.549067
 20
348.159627
 30
0.0
 11
142.402727
 21
348.17601
 31
0.0
  0
LINE
  8
LC-003-002-----0
  6
CONTINUOUS
  5
934
 10
272.510375
 20
343.505124
 30
0.0
 11
272.209074
 21
343.50074
 31
0.0
  0
LINE
  8
LC-003-002-----0
  6
CONTINUOUS
  5
935
 10
272.209074
 20
343.50074
 30
0.0
 11
271.986693
 21
343.499118
 31
0.0
  0
LINE
  8
LC-003-002-----0
  6
CONTINUOUS
  5
936
 10
271.986693
 20
343.499118
 30
0.0
 11
271.892547
 21
343.498915
 31
0.0
  0
LINE
  8
LC-003-002-----0
  6
CONTINUOUS
  5
937
 10
271.892547
 20
343.498915
 30
0.0
 11
271.803268
 21
343.498886
 31
0.0
  0
LINE
  8
LC-003-002-----0
  6
CONTINUOUS
  5
938
 10
271.803268
 20
343.498886
 30
0.0
 11
271.713989
 21
343.498915
 31
0.0
  0
LINE
  8
LC-003-002-----0
  6
CONTINUOUS
  5
939
 10
271.713989
 20
343.498915
 30
0.0
 11
271.619842
 21
343.499118
 31
0.0
  0
LINE
  8
LC-003-002-----0
  6
CONTINUOUS
  5
93A
 10
271.619842
 20
343.499118
 30
0.0
 11
271.397461
 21
343.50074
 31
0.0
  0
LINE
  8
LC-003-002-----0
  6
CONTINUOUS
  5
93B
 10
271.397461
 20
343.50074
 30
0.0
 11
271.096161
 21
343.505124
 31
0.0
  0
ARC
  8
LC-003-002-----0
  6
CONTINUOUS
  5
93C
 10
109.810104
 20
344.67601
 30
0.0
 40
5.0
 50
180.0
 51
270.0
  0
ARC
  8
LC-003-002-----0
  6
CONTINUOUS
  5
93D
 10
112.810104
 20
338.67601
 30
0.0
 40
1.0
 50
0.0
 51
90.0
  0
ARC
  8
LC-003-002-----0
  6
CONTINUOUS
  5
93E
 10
115.810104
 20
342.17601
 30
0.0
 40
2.0
 50
30.0
 51
90.0
  0
ARC
  8
LC-003-002-----0
  6
CONTINUOUS
  5
93F
 10
111.310104
 20
346.17601
 30
0.0
 40
2.0
 50
180.0
 51
270.0
  0
ARC
  8
LC-003-002-----0
  6
CONTINUOUS
  5
940
 10
73.310104
 20
363.67601
 30
0.0
 40
3.0
 50
180.0
 51
270.0
  0
ARC
  8
LC-003-002-----0
  6
CONTINUOUS
  5
941
 10
80.310104
 20
363.67601
 30
0.0
 40
3.0
 50
270.0
 51
0.0
  0
ARC
  8
LC-003-002-----0
  6
CONTINUOUS
  5
942
 10
84.310104
 20
365.67601
 30
0.0
 40
1.0
 50
90.0
 51
180.0
  0
ARC
  8
LC-003-002-----0
  6
CONTINUOUS
  5
943
 10
69.310104
 20
365.67601
 30
0.0
 40
1.0
 50
0.0
 51
90.0
  0
ARC
  8
LC-003-002-----0
  6
CONTINUOUS
  5
944
 10
107.310104
 20
367.67601
 30
0.0
 40
2.0
 50
0.0
 51
90.0
  0
ARC
  8
LC-003-002-----0
  6
CONTINUOUS
  5
945
 10
98.245657
 20
365.67601
 30
0.0
 40
1.0
 50
90.0
 51
176.185925
  0
ARC
  8
LC-003-002-----0
  6
CONTINUOUS
  5
946
 10
103.810104
 20
365.67601
 30
0.0
 40
1.0
 50
0.0
 51
90.0
  0
ARC
  8
LC-003-002-----0
  6
CONTINUOUS
  5
947
 10
84.374551
 20
365.67601
 30
0.0
 40
1.0
 50
3.814075
 51
90.0
  0
ARC
  8
LC-003-002-----0
  6
CONTINUOUS
  5
948
 10
115.810104
 20
342.17601
 30
0.0
 40
2.0
 50
0.0
 51
30.0
  0
ARC
  8
LC-003-002-----0
  6
CONTINUOUS
  5
949
 10
305.810104
 20
344.67601
 30
0.0
 40
5.0
 50
270.0
 51
0.0
  0
ARC
  8
LC-003-002-----0
  6
CONTINUOUS
  5
94A
 10
302.810104
 20
338.67601
 30
0.0
 40
1.0
 50
90.0
 51
180.0
  0
ARC
  8
LC-003-002-----0
  6
CONTINUOUS
  5
94B
 10
299.810104
 20
342.17601
 30
0.0
 40
2.0
 50
90.0
 51
150.0
  0
ARC
  8
LC-003-002-----0
  6
CONTINUOUS
  5
94C
 10
304.310104
 20
346.17601
 30
0.0
 40
2.0
 50
270.0
 51
0.0
  0
ARC
  8
LC-003-002-----0
  6
CONTINUOUS
  5
94D
 10
342.310104
 20
363.67601
 30
0.0
 40
3.0
 50
270.0
 51
0.0
  0
ARC
  8
LC-003-002-----0
  6
CONTINUOUS
  5
94E
 10
335.310104
 20
363.67601
 30
0.0
 40
3.0
 50
180.0
 51
270.0
  0
ARC
  8
LC-003-002-----0
  6
CONTINUOUS
  5
94F
 10
331.310104
 20
365.67601
 30
0.0
 40
1.0
 50
0.0
 51
90.0
  0
ARC
  8
LC-003-002-----0
  6
CONTINUOUS
  5
950
 10
346.310104
 20
365.67601
 30
0.0
 40
1.0
 50
90.0
 51
180.0
  0
ARC
  8
LC-003-002-----0
  6
CONTINUOUS
  5
951
 10
308.310104
 20
367.67601
 30
0.0
 40
2.0
 50
90.0
 51
180.0
  0
ARC
  8
LC-003-002-----0
  6
CONTINUOUS
  5
952
 10
317.374551
 20
365.67601
 30
0.0
 40
1.0
 50
3.814075
 51
90.0
  0
ARC
  8
LC-003-002-----0
  6
CONTINUOUS
  5
953
 10
311.810104
 20
365.67601
 30
0.0
 40
1.0
 50
90.0
 51
180.0
  0
ARC
  8
LC-003-002-----0
  6
CONTINUOUS
  5
954
 10
331.245657
 20
365.67601
 30
0.0
 40
1.0
 50
90.0
 51
176.185925
  0
ARC
  8
LC-003-002-----0
  6
CONTINUOUS
  5
955
 10
299.810104
 20
342.17601
 30
0.0
 40
2.0
 50
150.0
 51
180.0
  0
CIRCLE
  8
LC-003-002-----0
  6
CONTINUOUS
  5
956
 10
304.060104
 20
225.199208
 30
0.0
 40
2.25
  0
CIRCLE
  8
LC-003-002-----0
  6
CONTINUOUS
  5
957
 10
111.560104
 20
225.199208
 30
0.0
 40
2.25
  0
ARC
  8
LC-003-002-----0
  6
CONTINUOUS
  5
958
 10
112.810104
 20
287.244059
 30
0.0
 40
1.0
 50
0.0
 51
75.0
  0
ARC
  8
LC-003-002-----0
  6
CONTINUOUS
  5
959
 10
112.810104
 20
293.154357
 30
0.0
 40
1.0
 50
285.0
 51
0.0
  0
ARC
  8
LC-003-002-----0
  6
CONTINUOUS
  5
95A
 10
112.810104
 20
297.244059
 30
0.0
 40
1.0
 50
0.0
 51
75.0
  0
ARC
  8
LC-003-002-----0
  6
CONTINUOUS
  5
95B
 10
112.810104
 20
303.154357
 30
0.0
 40
1.0
 50
285.0
 51
0.0
  0
ARC
  8
LC-003-002-----0
  6
CONTINUOUS
  5
95C
 10
112.810104
 20
307.244059
 30
0.0
 40
1.0
 50
0.0
 51
75.0
  0
ARC
  8
LC-003-002-----0
  6
CONTINUOUS
  5
95D
 10
112.810104
 20
313.154357
 30
0.0
 40
1.0
 50
285.0
 51
0.0
  0
ARC
  8
LC-003-002-----0
  6
CONTINUOUS
  5
95E
 10
302.810104
 20
223.354357
 30
0.0
 40
1.0
 50
180.0
 51
255.0
  0
ARC
  8
LC-003-002-----0
  6
CONTINUOUS
  5
95F
 10
302.810104
 20
227.244059
 30
0.0
 40
1.0
 50
105.0
 51
180.0
  0
ARC
  8
LC-003-002-----0
  6
CONTINUOUS
  5
960
 10
302.810104
 20
233.154357
 30
0.0
 40
1.0
 50
180.0
 51
255.0
  0
ARC
  8
LC-003-002-----0
  6
CONTINUOUS
  5
961
 10
302.810104
 20
237.244059
 30
0.0
 40
1.0
 50
105.0
 51
180.0
  0
ARC
  8
LC-003-002-----0
  6
CONTINUOUS
  5
962
 10
302.810104
 20
243.154357
 30
0.0
 40
1.0
 50
180.0
 51
255.0
  0
ARC
  8
LC-003-002-----0
  6
CONTINUOUS
  5
963
 10
302.810104
 20
247.244059
 30
0.0
 40
1.0
 50
105.0
 51
180.0
  0
ARC
  8
LC-003-002-----0
  6
CONTINUOUS
  5
964
 10
302.810104
 20
253.154357
 30
0.0
 40
1.0
 50
180.0
 51
255.0
  0
ARC
  8
LC-003-002-----0
  6
CONTINUOUS
  5
965
 10
302.810104
 20
257.244059
 30
0.0
 40
1.0
 50
105.0
 51
180.0
  0
ARC
  8
LC-003-002-----0
  6
CONTINUOUS
  5
966
 10
302.810104
 20
263.154357
 30
0.0
 40
1.0
 50
180.0
 51
255.0
  0
ARC
  8
LC-003-002-----0
  6
CONTINUOUS
  5
967
 10
302.810104
 20
267.244059
 30
0.0
 40
1.0
 50
105.0
 51
180.0
  0
ARC
  8
LC-003-002-----0
  6
CONTINUOUS
  5
968
 10
302.810104
 20
273.154357
 30
0.0
 40
1.0
 50
180.0
 51
255.0
  0
ARC
  8
LC-003-002-----0
  6
CONTINUOUS
  5
969
 10
302.810104
 20
277.244059
 30
0.0
 40
1.0
 50
105.0
 51
180.0
  0
ARC
  8
LC-003-002-----0
  6
CONTINUOUS
  5
96A
 10
302.810104
 20
283.154357
 30
0.0
 40
1.0
 50
180.0
 51
255.0
  0
ARC
  8
LC-003-002-----0
  6
CONTINUOUS
  5
96B
 10
302.810104
 20
287.244059
 30
0.0
 40
1.0
 50
105.0
 51
180.0
  0
ARC
  8
LC-003-002-----0
  6
CONTINUOUS
  5
96C
 10
302.810104
 20
293.154357
 30
0.0
 40
1.0
 50
180.0
 51
255.0
  0
ARC
  8
LC-003-002-----0
  6
CONTINUOUS
  5
96D
 10
302.810104
 20
297.244059
 30
0.0
 40
1.0
 50
105.0
 51
180.0
  0
ARC
  8
LC-003-002-----0
  6
CONTINUOUS
  5
96E
 10
302.810104
 20
303.154357
 30
0.0
 40
1.0
 50
180.0
 51
255.0
  0
ARC
  8
LC-003-002-----0
  6
CONTINUOUS
  5
96F
 10
302.810104
 20
307.244059
 30
0.0
 40
1.0
 50
105.0
 51
180.0
  0
ARC
  8
LC-003-002-----0
  6
CONTINUOUS
  5
970
 10
302.810104
 20
313.154357
 30
0.0
 40
1.0
 50
180.0
 51
255.0
  0
LINE
  8
LC-003-002-----0
  6
CONTINUOUS
  5
971
 10
318.710104
 20
360.67601
 30
0.0
 11
310.810104
 21
360.67601
 31
0.0
  0
LINE
  8
LC-003-002-----0
  6
CONTINUOUS
  5
972
 10
329.910104
 20
360.67601
 30
0.0
 11
335.310104
 21
360.67601
 31
0.0
  0
LINE
  8
LC-003-002-----0
  6
CONTINUOUS
  5
973
 10
104.810104
 20
360.67601
 30
0.0
 11
96.910104
 21
360.67601
 31
0.0
  0
LINE
  8
LC-003-002-----0
  6
CONTINUOUS
  5
974
 10
80.310104
 20
360.67601
 30
0.0
 11
85.710104
 21
360.67601
 31
0.0
  0
LINE
  8
LC-003-002-----0
  6
DASHDOT
 62
     2
  5
975
 10
207.810104
 20
214.62212
 30
0.0
 11
207.810104
 21
373.17601
 31
0.0
  0
ENDSEC
  0
EOF
