  0
SECTION
  2
HEADER
  9
$ACADVER
  1
AC1015
  9
$ACADMAINTVER
 70
     6
  9
$DWGCODEPAGE
  3
ANSI_1252
  9
$INSBASE
 10
147.430832
 20
284.410356
 30
0.0
  9
$EXTMIN
 10
-210.0
 20
-149.0
 30
0.0
  9
$EXTMAX
 10
630.0
 20
445.0
 30
0.0
  9
$LIMMIN
 10
-210.0
 20
-149.0
  9
$LIMMAX
 10
630.0
 20
445.0
  9
$ORTHOMODE
 70
     0
  9
$REGENMODE
 70
     1
  9
$FILLMODE
 70
     1
  9
$QTEXTMODE
 70
     0
  9
$MIRRTEXT
 70
     1
  9
$LTSCALE
 40
2.0
  9
$ATTMODE
 70
     1
  9
$TEXTSIZE
 40
2.5
  9
$TRACEWID
 40
1.0
  9
$TEXTSTYLE
  7
Standard
  9
$CLAYER
  8
0
  9
$CELTYPE
  6
ByLayer
  9
$CECOLOR
 62
     7
  9
$CELTSCALE
 40
1.0
  9
$DISPSILH
 70
     0
  9
$DIMSCALE
 40
2.0
  9
$DIMASZ
 40
3.5
  9
$DIMEXO
 40
0.625
  9
$DIMDLI
 40
3.75
  9
$DIMRND
 40
0.0
  9
$DIMDLE
 40
0.0
  9
$DIMEXE
 40
1.25
  9
$DIMTP
 40
0.0
  9
$DIMTM
 40
0.0
  9
$DIMTXT
 40
3.5
  9
$DIMCEN
 40
2.5
  9
$DIMTSZ
 40
0.0
  9
$DIMTOL
 70
     0
  9
$DIMLIM
 70
     0
  9
$DIMTIH
 70
     0
  9
$DIMTOH
 70
     0
  9
$DIMSE1
 70
     0
  9
$DIMSE2
 70
     0
  9
$DIMTAD
 70
     1
  9
$DIMZIN
 70
     8
  9
$DIMBLK
  1

  9
$DIMASO
 70
     1
  9
$DIMSHO
 70
     1
  9
$DIMPOST
  1

  9
$DIMAPOST
  1

  9
$DIMALT
 70
     0
  9
$DIMALTD
 70
     3
  9
$DIMALTF
 40
0.03937
  9
$DIMLFAC
 40
1.0
  9
$DIMTOFL
 70
     1
  9
$DIMTVP
 40
0.0
  9
$DIMTIX
 70
     0
  9
$DIMSOXD
 70
     0
  9
$DIMSAH
 70
     0
  9
$DIMBLK1
  1

  9
$DIMBLK2
  1

  9
$DIMSTYLE
  2
ISO-25
  9
$DIMCLRD
 70
     0
  9
$DIMCLRE
 70
     0
  9
$DIMCLRT
 70
     0
  9
$DIMTFAC
 40
1.0
  9
$DIMGAP
 40
0.625
  9
$DIMJUST
 70
     0
  9
$DIMSD1
 70
     0
  9
$DIMSD2
 70
     0
  9
$DIMTOLJ
 70
     0
  9
$DIMTZIN
 70
     8
  9
$DIMALTZ
 70
     0
  9
$DIMALTTZ
 70
     0
  9
$DIMUPT
 70
     0
  9
$DIMDEC
 70
     2
  9
$DIMTDEC
 70
     2
  9
$DIMALTU
 70
     2
  9
$DIMALTTD
 70
     3
  9
$DIMTXSTY
  7
Standard
  9
$DIMAUNIT
 70
     0
  9
$DIMADEC
 70
     0
  9
$DIMALTRND
 40
0.0
  9
$DIMAZIN
 70
     0
  9
$DIMDSEP
 70
    44
  9
$DIMATFIT
 70
     3
  9
$DIMFRAC
 70
     0
  9
$DIMLDRBLK
  1

  9
$DIMLUNIT
 70
     2
  9
$DIMLWD
 70
    -2
  9
$DIMLWE
 70
    -2
  9
$DIMTMOVE
 70
     0
  9
$LUNITS
 70
     2
  9
$LUPREC
 70
     4
  9
$SKETCHINC
 40
1.0
  9
$FILLETRAD
 40
10.0
  9
$AUNITS
 70
     0
  9
$AUPREC
 70
     0
  9
$MENU
  1
.
  9
$ELEVATION
 40
0.0
  9
$PELEVATION
 40
0.0
  9
$THICKNESS
 40
0.0
  9
$LIMCHECK
 70
     0
  9
$CHAMFERA
 40
10.0
  9
$CHAMFERB
 40
10.0
  9
$CHAMFERC
 40
20.0
  9
$CHAMFERD
 40
0.0
  9
$SKPOLY
 70
     0
  9
$TDCREATE
 40
2456307.303221481
  9
$TDUCREATE
 40
2456307.261554815
  9
$TDUPDATE
 40
2456307.303221493
  9
$TDUUPDATE
 40
2456307.261554827
  9
$TDINDWG
 40
0.0000000116
  9
$TDUSRTIMER
 40
0.0000000116
  9
$USRTIMER
 70
     1
  9
$ANGBASE
 50
0.0
  9
$ANGDIR
 70
     0
  9
$PDMODE
 70
     0
  9
$PDSIZE
 40
0.0
  9
$PLINEWID
 40
0.0
  9
$SPLFRAME
 70
     0
  9
$SPLINETYPE
 70
     6
  9
$SPLINESEGS
 70
     8
  9
$HANDSEED
  5
62A
  9
$SURFTAB1
 70
     6
  9
$SURFTAB2
 70
     6
  9
$SURFTYPE
 70
     6
  9
$SURFU
 70
     6
  9
$SURFV
 70
     6
  9
$UCSBASE
  2

  9
$UCSNAME
  2

  9
$UCSORG
 10
0.0
 20
0.0
 30
0.0
  9
$UCSXDIR
 10
1.0
 20
0.0
 30
0.0
  9
$UCSYDIR
 10
0.0
 20
1.0
 30
0.0
  9
$UCSORTHOREF
  2

  9
$UCSORTHOVIEW
 70
     0
  9
$UCSORGTOP
 10
0.0
 20
0.0
 30
0.0
  9
$UCSORGBOTTOM
 10
0.0
 20
0.0
 30
0.0
  9
$UCSORGLEFT
 10
0.0
 20
0.0
 30
0.0
  9
$UCSORGRIGHT
 10
0.0
 20
0.0
 30
0.0
  9
$UCSORGFRONT
 10
0.0
 20
0.0
 30
0.0
  9
$UCSORGBACK
 10
0.0
 20
0.0
 30
0.0
  9
$PUCSBASE
  2

  9
$PUCSNAME
  2

  9
$PUCSORG
 10
0.0
 20
0.0
 30
0.0
  9
$PUCSXDIR
 10
1.0
 20
0.0
 30
0.0
  9
$PUCSYDIR
 10
0.0
 20
1.0
 30
0.0
  9
$PUCSORTHOREF
  2

  9
$PUCSORTHOVIEW
 70
     0
  9
$PUCSORGTOP
 10
0.0
 20
0.0
 30
0.0
  9
$PUCSORGBOTTOM
 10
0.0
 20
0.0
 30
0.0
  9
$PUCSORGLEFT
 10
0.0
 20
0.0
 30
0.0
  9
$PUCSORGRIGHT
 10
0.0
 20
0.0
 30
0.0
  9
$PUCSORGFRONT
 10
0.0
 20
0.0
 30
0.0
  9
$PUCSORGBACK
 10
0.0
 20
0.0
 30
0.0
  9
$USERI1
 70
     0
  9
$USERI2
 70
     0
  9
$USERI3
 70
     0
  9
$USERI4
 70
     0
  9
$USERI5
 70
     0
  9
$USERR1
 40
0.0
  9
$USERR2
 40
0.0
  9
$USERR3
 40
0.0
  9
$USERR4
 40
0.0
  9
$USERR5
 40
0.0
  9
$WORLDVIEW
 70
     1
  9
$SHADEDGE
 70
     3
  9
$SHADEDIF
 70
    70
  9
$TILEMODE
 70
     1
  9
$MAXACTVP
 70
    64
  9
$PINSBASE
 10
0.0
 20
0.0
 30
0.0
  9
$PLIMCHECK
 70
     0
  9
$PEXTMIN
 10
-210.0
 20
-149.0
 30
0.0
  9
$PEXTMAX
 10
630.0
 20
445.0
 30
0.0
  9
$PLIMMIN
 10
-210.0
 20
-149.0
  9
$PLIMMAX
 10
630.0
 20
445.0
  9
$UNITMODE
 70
     0
  9
$VISRETAIN
 70
     1
  9
$PLINEGEN
 70
     0
  9
$PSLTSCALE
 70
     1
  9
$TREEDEPTH
 70
  3020
  9
$CMLSTYLE
  2
Standard
  9
$CMLJUST
 70
     0
  9
$CMLSCALE
 40
20.0
  9
$PROXYGRAPHICS
 70
     1
  9
$MEASUREMENT
 70
     1
  9
$CELWEIGHT
370
    -1
  9
$ENDCAPS
280
     0
  9
$JOINSTYLE
280
     0
  9
$LWDISPLAY
290
     0
  9
$INSUNITS
 70
     4
  9
$HYPERLINKBASE
  1

  9
$STYLESHEET
  1

  9
$XEDIT
290
     1
  9
$CEPSNTYPE
380
     0
  9
$PSTYLEMODE
290
     1
  9
$FINGERPRINTGUID
  2
{FAEB1C30-E019-11D5-929B-00C0DF256EC4}
  9
$VERSIONGUID
  2
{FAEB1C32-E019-11D5-929B-00C0DF256EC4}
  9
$EXTNAMES
290
     1
  9
$PSVPSCALE
 40
0.0
  9
$OLESTARTUP
290
     0
  0
ENDSEC
  0
SECTION
  2
CLASSES
  0
CLASS
  1
ACDBDICTIONARYWDFLT
  2
AcDbDictionaryWithDefault
  3
ObjectDBX Classes
 90
        0
280
     0
281
     0
  0
CLASS
  1
ACDBPLACEHOLDER
  2
AcDbPlaceHolder
  3
ObjectDBX Classes
 90
        0
280
     0
281
     0
  0
CLASS
  1
LAYOUT
  2
AcDbLayout
  3
ObjectDBX Classes
 90
        0
280
     0
281
     0
  0
ENDSEC
  0
SECTION
  2
TABLES
  0
TABLE
  2
VPORT
  5
8
330
0
100
AcDbSymbolTable
 70
     2
  0
VPORT
  5
29
330
8
100
AcDbSymbolTableRecord
100
AcDbViewportTableRecord
  2
*ACTIVE
 70
     0
 10
0.0
 20
0.0
 11
1.0
 21
1.0
 12
210.0
 22
148.0
 13
0.0
 23
0.0
 14
1.0
 24
1.0
 15
0.0
 25
0.0
 16
0.0
 26
0.0
 36
1.0
 17
0.0
 27
0.0
 37
0.0
 40
594.0
 41
1.414141
 42
50.0
 43
0.0
 44
0.0
 50
0.0
 51
0.0
 71
    16
 72
   100
 73
     1
 74
     0
 75
     0
 76
     0
 77
     0
 78
     0
281
     0
 65
     0
110
0.0
120
0.0
130
0.0
111
1.0
121
0.0
131
0.0
112
0.0
122
1.0
132
0.0
 79
     0
146
0.0
  0
ENDTAB
  0
TABLE
  2
LTYPE
  5
5
330
0
100
AcDbSymbolTable
 70
     3
  0
LTYPE
  5
14
330
5
100
AcDbSymbolTableRecord
100
AcDbLinetypeTableRecord
  2
ByBlock
 70
     0
  3

 72
    65
 73
     0
 40
0.0
  0
LTYPE
  5
15
330
5
100
AcDbSymbolTableRecord
100
AcDbLinetypeTableRecord
  2
ByLayer
 70
     0
  3

 72
    65
 73
     0
 40
0.0
  0
LTYPE
  5
16
330
5
100
AcDbSymbolTableRecord
100
AcDbLinetypeTableRecord
  2
Continuous
 70
     0
  3
Solid line
 72
    65
 73
     0
 40
0.0
  0
LTYPE
  5
2A
330
5
100
AcDbSymbolTableRecord
100
AcDbLinetypeTableRecord
  2
DASHED
 70
     0
  3
__ __ __ __ __
 72
    65
 73
     2
 40
6.25
 49
5.0
 74
     4
 75
     0
340
0
 46
1.0
 50
0.0
 44
0.0
 45
0.0
 49
-1.25
 74
     4
 75
     0
340
0
 46
1.0
 50
0.0
 44
0.0
 45
0.0
  0
LTYPE
  5
34
330
5
100
AcDbSymbolTableRecord
100
AcDbLinetypeTableRecord
  2
DASHDOT
 70
     0
  3
__ . __ . __ . __ . __
 72
    65
 73
     4
 40
7.5
 49
5.0
 74
     4
 75
     0
340
0
 46
1.0
 50
0.0
 44
0.0
 45
0.0
 49
-1.25
 74
     4
 75
     0
340
0
 46
1.0
 50
0.0
 44
0.0
 45
0.0
 49
0.0
 74
     4
 75
     0
340
0
 46
1.0
 50
0.0
 44
0.0
 45
0.0
 49
-1.25
 74
     4
 75
     0
340
0
 46
1.0
 50
0.0
 44
0.0
 45
0.0
  0
ENDTAB
  0
TABLE
  2
LAYER
  5
2
330
0
100
AcDbSymbolTable
 70
    11
  0
LAYER
  5
10
330
2
100
AcDbSymbolTableRecord
100
AcDbLayerTableRecord
  2
0
 70
     0
 62
     7
  6
Continuous
370
    -3
390
F
  0
LAYER
  5
2B
330
2
100
AcDbSymbolTableRecord
100
AcDbLayerTableRecord
  2
LC-INFO-1-2-mm-A3-0
 70
     1
 62
     7
  6
ByBlock
370
    -3
390
F
  0
LAYER
  5
2C
330
2
100
AcDbSymbolTableRecord
100
AcDbLayerTableRecord
  2
LC-CUT-HIDDEN
 70
     0
 62
     7
  6
DASHED
370
    -3
390
F
  0
LAYER
  5
2D
330
2
100
AcDbSymbolTableRecord
100
AcDbLayerTableRecord
  2
LC-VIEWPORT
 70
     0
 62
     7
  6
ByBlock
370
    -3
390
F
  0
LAYER
  5
2E
330
2
100
AcDbSymbolTableRecord
100
AcDbLayerTableRecord
  2
LC-3D-HIDDEN
 70
     0
 62
     9
  6
DASHED
370
    -3
390
F
  0
LAYER
  5
30
330
2
100
AcDbSymbolTableRecord
100
AcDbLayerTableRecord
  2
LC-001-002-----0
 70
     0
 62
     1
  6
ByBlock
370
    -3
390
F
  0
LAYER
  5
35
330
2
100
AcDbSymbolTableRecord
100
AcDbLayerTableRecord
  2
LC-002-100-D02-0
 70
     0
 62
     2
  6
DASHDOT
370
    -3
390
F
  0
LAYER
  5
CB
330
2
100
AcDbSymbolTableRecord
100
AcDbLayerTableRecord
  2
LC-003-100-D00-0
 70
     0
 62
    44
  6
ByBlock
370
    -3
390
F
  0
LAYER
  5
312
330
2
100
AcDbSymbolTableRecord
100
AcDbLayerTableRecord
  2
LC-004-005-----0
 70
     0
 62
     2
  6
ByBlock
370
    -3
390
F
  0
LAYER
  5
59D
330
2
100
AcDbSymbolTableRecord
100
AcDbLayerTableRecord
  2
LC-005-003-----0
 70
     0
 62
     2
  6
ByBlock
370
    -3
390
F
  0
LAYER
  5
59F
330
2
100
AcDbSymbolTableRecord
100
AcDbLayerTableRecord
  2
Defpoints
 70
     0
 62
     7
  6
Continuous
290
     0
370
    -3
390
F
  0
ENDTAB
  0
TABLE
  2
STYLE
  5
3
330
0
100
AcDbSymbolTable
 70
     3
  0
STYLE
  5
11
330
3
100
AcDbSymbolTableRecord
100
AcDbTextStyleTableRecord
  2
Standard
 70
     0
 40
0.0
 41
1.0
 50
0.0
 71
     0
 42
2.5
  3
txt
  4

  0
STYLE
  5
2F
330
3
100
AcDbSymbolTableRecord
100
AcDbTextStyleTableRecord
  2
LCTX15-400-0-0-Arial
 70
     0
 40
0.0
 41
0.9
 50
0.0
 71
     0
 42
3.5
  3

  4

1001
ACAD
1000
Arial
1071
 16777218
  0
STYLE
  5
59B
330
3
100
AcDbSymbolTableRecord
100
AcDbTextStyleTableRecord
  2
LCTX15-400-0-0pDIN-Schrift
 70
     0
 40
2.5
 41
0.8
 50
15.0
 71
     0
 42
3.5
  3
STANDARD
  4

  0
ENDTAB
  0
TABLE
  2
VIEW
  5
6
330
0
100
AcDbSymbolTable
 70
     0
  0
ENDTAB
  0
TABLE
  2
UCS
  5
7
330
0
100
AcDbSymbolTable
 70
     0
  0
ENDTAB
  0
TABLE
  2
APPID
  5
9
330
0
100
AcDbSymbolTable
 70
     1
  0
APPID
  5
12
330
9
100
AcDbSymbolTableRecord
100
AcDbRegAppTableRecord
  2
ACAD
 70
     0
  0
ENDTAB
  0
TABLE
  2
DIMSTYLE
  5
A
330
0
100
AcDbSymbolTable
 70
     2
100
AcDbDimStyleTable
  0
DIMSTYLE
105
27
330
A
100
AcDbSymbolTableRecord
100
AcDbDimStyleTableRecord
  2
ISO-25
 70
     0
 41
2.5
 42
0.625
 43
3.75
 44
1.25
 73
     0
 74
     0
 77
     1
 78
     8
140
2.5
141
2.5
143
0.03937
147
0.625
171
     3
172
     1
271
     2
272
     2
274
     3
278
    44
283
     0
284
     8
340
11
  0
DIMSTYLE
105
59C
102
{ACAD_REACTORS
330
59E
330
5AC
330
5B9
330
5C6
330
5D3
330
5E5
330
5F2
330
603
330
610
102
}
330
A
100
AcDbSymbolTableRecord
100
AcDbDimStyleTableRecord
  2
LC-DIM-L-0140-02-02
 70
     0
 40
2.0
 41
14.0
 42
0.0
 43
7.5
 44
1.8
 73
     0
 74
     0
 77
     1
 78
     8
 79
     2
140
14.0
141
0.0
146
0.71
147
1.5
176
     2
177
     2
178
     2
179
     2
271
     2
278
    44
289
     1
340
59B
  0
ENDTAB
  0
TABLE
  2
BLOCK_RECORD
  5
1
330
0
100
AcDbSymbolTable
 70
    28
  0
BLOCK_RECORD
  5
1F
330
1
100
AcDbSymbolTableRecord
100
AcDbBlockTableRecord
  2
*Model_Space
340
22
  0
BLOCK_RECORD
  5
1B
330
1
100
AcDbSymbolTableRecord
100
AcDbBlockTableRecord
  2
*Paper_Space
340
1E
  0
BLOCK_RECORD
  5
23
330
1
100
AcDbSymbolTableRecord
100
AcDbBlockTableRecord
  2
*Paper_Space0
340
26
  0
BLOCK_RECORD
  5
30F
330
1
100
AcDbSymbolTableRecord
100
AcDbBlockTableRecord
  2
*X11
340
0
102
{BLKREFS
331
316
102
}
  0
BLOCK_RECORD
  5
317
330
1
100
AcDbSymbolTableRecord
100
AcDbBlockTableRecord
  2
*X22
340
0
102
{BLKREFS
331
31D
102
}
  0
BLOCK_RECORD
  5
31E
330
1
100
AcDbSymbolTableRecord
100
AcDbBlockTableRecord
  2
*X33
340
0
102
{BLKREFS
331
337
102
}
  0
BLOCK_RECORD
  5
338
330
1
100
AcDbSymbolTableRecord
100
AcDbBlockTableRecord
  2
*X44
340
0
102
{BLKREFS
331
342
102
}
  0
BLOCK_RECORD
  5
343
330
1
100
AcDbSymbolTableRecord
100
AcDbBlockTableRecord
  2
*X55
340
0
102
{BLKREFS
331
369
102
}
  0
BLOCK_RECORD
  5
36A
330
1
100
AcDbSymbolTableRecord
100
AcDbBlockTableRecord
  2
*X66
340
0
102
{BLKREFS
331
37F
102
}
  0
BLOCK_RECORD
  5
380
330
1
100
AcDbSymbolTableRecord
100
AcDbBlockTableRecord
  2
*X77
340
0
102
{BLKREFS
331
387
102
}
  0
BLOCK_RECORD
  5
38D
330
1
100
AcDbSymbolTableRecord
100
AcDbBlockTableRecord
  2
*X88
340
0
102
{BLKREFS
331
393
102
}
  0
BLOCK_RECORD
  5
394
330
1
100
AcDbSymbolTableRecord
100
AcDbBlockTableRecord
  2
*X99
340
0
102
{BLKREFS
331
43D
102
}
  0
BLOCK_RECORD
  5
43E
330
1
100
AcDbSymbolTableRecord
100
AcDbBlockTableRecord
  2
*X1010
340
0
102
{BLKREFS
331
47B
102
}
  0
BLOCK_RECORD
  5
47E
330
1
100
AcDbSymbolTableRecord
100
AcDbBlockTableRecord
  2
*X1111
340
0
102
{BLKREFS
331
489
102
}
  0
BLOCK_RECORD
  5
48A
330
1
100
AcDbSymbolTableRecord
100
AcDbBlockTableRecord
  2
*X1212
340
0
102
{BLKREFS
331
4BF
102
}
  0
BLOCK_RECORD
  5
4C0
330
1
100
AcDbSymbolTableRecord
100
AcDbBlockTableRecord
  2
*X1313
340
0
102
{BLKREFS
331
4CA
102
}
  0
BLOCK_RECORD
  5
4CB
330
1
100
AcDbSymbolTableRecord
100
AcDbBlockTableRecord
  2
*X1414
340
0
102
{BLKREFS
331
4D3
102
}
  0
BLOCK_RECORD
  5
4D4
330
1
100
AcDbSymbolTableRecord
100
AcDbBlockTableRecord
  2
*X1515
340
0
102
{BLKREFS
331
50D
102
}
  0
BLOCK_RECORD
  5
50E
330
1
100
AcDbSymbolTableRecord
100
AcDbBlockTableRecord
  2
*X1616
340
0
102
{BLKREFS
331
542
102
}
  0
BLOCK_RECORD
  5
544
330
1
100
AcDbSymbolTableRecord
100
AcDbBlockTableRecord
  2
*X1717
340
0
102
{BLKREFS
331
56F
102
}
  0
BLOCK_RECORD
  5
570
330
1
100
AcDbSymbolTableRecord
100
AcDbBlockTableRecord
  2
*X1818
340
0
102
{BLKREFS
331
59A
102
}
  0
BLOCK_RECORD
  5
5A0
330
1
100
AcDbSymbolTableRecord
100
AcDbBlockTableRecord
  2
*D19
340
0
  0
BLOCK_RECORD
  5
5AD
330
1
100
AcDbSymbolTableRecord
100
AcDbBlockTableRecord
  2
*D20
340
0
  0
BLOCK_RECORD
  5
5BA
330
1
100
AcDbSymbolTableRecord
100
AcDbBlockTableRecord
  2
*D21
340
0
  0
BLOCK_RECORD
  5
5C7
330
1
100
AcDbSymbolTableRecord
100
AcDbBlockTableRecord
  2
*D22
340
0
  0
BLOCK_RECORD
  5
5D4
330
1
100
AcDbSymbolTableRecord
100
AcDbBlockTableRecord
  2
*D23
340
0
  0
BLOCK_RECORD
  5
5E6
330
1
100
AcDbSymbolTableRecord
100
AcDbBlockTableRecord
  2
*D24
340
0
  0
BLOCK_RECORD
  5
5F3
330
1
100
AcDbSymbolTableRecord
100
AcDbBlockTableRecord
  2
*D25
340
0
  0
BLOCK_RECORD
  5
604
330
1
100
AcDbSymbolTableRecord
100
AcDbBlockTableRecord
  2
*D26
340
0
  0
BLOCK_RECORD
  5
611
330
1
100
AcDbSymbolTableRecord
100
AcDbBlockTableRecord
  2
*D27
340
0
  0
ENDTAB
  0
ENDSEC
  0
SECTION
  2
BLOCKS
  0
BLOCK
  5
20
330
1F
100
AcDbEntity
  8
0
100
AcDbBlockBegin
  2
*Model_Space
 70
     0
 71
     0
 10
0.0
 20
0.0
 30
0.0
  3
*Model_Space
  1

  0
ENDBLK
  5
21
330
1F
100
AcDbEntity
  8
0
100
AcDbBlockEnd
  0
BLOCK
  5
1C
330
1B
100
AcDbEntity
 67
     1
  8
0
100
AcDbBlockBegin
  2
*Paper_Space
 70
     0
 71
     0
 10
0.0
 20
0.0
 30
0.0
  3
*Paper_Space
  1

  0
ENDBLK
  5
1D
330
1B
100
AcDbEntity
 67
     1
  8
0
100
AcDbBlockEnd
  0
BLOCK
  5
24
330
23
100
AcDbEntity
  8
0
100
AcDbBlockBegin
  2
*Paper_Space0
 70
     0
 71
     0
 10
0.0
 20
0.0
 30
0.0
  3
*Paper_Space0
  1

  0
ENDBLK
  5
25
330
23
100
AcDbEntity
  8
0
100
AcDbBlockEnd
  0
BLOCK
  5
310
330
30F
100
AcDbEntity
  8
0
100
AcDbBlockBegin
  2
*X11
 70
     1
 71
     0
 10
0.0
 20
0.0
 30
0.0
  3
*X11
  1

  4
*X1
  0
LINE
  5
313
330
30F
100
AcDbEntity
  8
LC-004-005-----0
 62
     7
370
    25
100
AcDbLine
 10
103.315427
 20
161.142509
 30
0.0
 11
102.074345
 21
162.383591
 31
0.0
  0
LINE
  5
314
330
30F
100
AcDbEntity
  8
LC-004-005-----0
  6
DASHED
 62
     7
370
    25
100
AcDbLine
 10
102.687596
 20
158.941913
 30
0.0
 11
99.87375
 21
161.755759
 31
0.0
  0
LINE
  5
315
330
30F
100
AcDbEntity
  8
LC-004-005-----0
  6
DASHED
 62
     7
370
    25
100
AcDbLine
 10
101.703439
 20
158.511857
 30
0.0
 11
99.443693
 21
160.771602
 31
0.0
  0
ENDBLK
  5
311
330
30F
100
AcDbEntity
  8
0
100
AcDbBlockEnd
  0
BLOCK
  5
318
330
317
100
AcDbEntity
  8
0
100
AcDbBlockBegin
  2
*X22
 70
     1
 71
     0
 10
0.0
 20
0.0
 30
0.0
  3
*X22
  1

  4
*X2
  0
LINE
  5
31A
330
317
100
AcDbEntity
  8
LC-004-005-----0
 62
     7
370
    25
100
AcDbLine
 10
269.550086
 20
161.785051
 30
0.0
 11
269.316887
 21
162.018249
 31
0.0
  0
LINE
  5
31B
330
317
100
AcDbEntity
  8
LC-004-005-----0
  6
DASHED
 62
     7
370
    25
100
AcDbLine
 10
269.433478
 20
159.073231
 30
0.0
 11
266.605068
 21
161.901642
 31
0.0
  0
LINE
  5
31C
330
317
100
AcDbEntity
  8
LC-004-005-----0
  6
DASHED
 62
     7
370
    25
100
AcDbLine
 10
268.534118
 20
158.558377
 30
0.0
 11
266.090214
 21
161.002282
 31
0.0
  0
ENDBLK
  5
319
330
317
100
AcDbEntity
  8
0
100
AcDbBlockEnd
  0
BLOCK
  5
31F
330
31E
100
AcDbEntity
  8
0
100
AcDbBlockBegin
  2
*X33
 70
     1
 71
     0
 10
0.0
 20
0.0
 30
0.0
  3
*X33
  1

  4
*X3
  0
LINE
  5
321
330
31E
100
AcDbEntity
  8
LC-004-005-----0
 62
     7
370
    25
100
AcDbLine
 10
70.74528
 20
251.695412
 30
0.0
 11
69.948441
 21
252.492251
 31
0.0
  0
LINE
  5
322
330
31E
100
AcDbEntity
  8
LC-004-005-----0
 62
     7
370
    25
100
AcDbLine
 10
70.899839
 20
245.883999
 30
0.0
 11
64.291587
 21
252.492251
 31
0.0
  0
LINE
  5
323
330
31E
100
AcDbEntity
  8
LC-004-005-----0
 62
     7
370
    25
100
AcDbLine
 10
84.224088
 20
229.731323
 30
0.0
 11
81.463159
 21
232.492251
 31
0.0
  0
LINE
  5
324
330
31E
100
AcDbEntity
  8
LC-004-005-----0
 62
     7
370
    25
100
AcDbLine
 10
70.977119
 20
242.978292
 30
0.0
 11
61.463159
 21
252.492251
 31
0.0
  0
LINE
  5
325
330
31E
100
AcDbEntity
  8
LC-004-005-----0
 62
     7
370
    25
100
AcDbLine
 10
83.806305
 20
224.492251
 30
0.0
 11
75.806305
 21
232.492251
 31
0.0
  0
LINE
  5
326
330
31E
100
AcDbEntity
  8
LC-004-005-----0
 62
     7
370
    25
100
AcDbLine
 10
71.131678
 20
237.166879
 30
0.0
 11
59.316702
 21
248.981854
 31
0.0
  0
LINE
  5
327
330
31E
100
AcDbEntity
  8
LC-004-005-----0
 62
     7
370
    25
100
AcDbLine
 10
80.977878
 20
224.492251
 30
0.0
 11
72.963413
 21
232.506716
 31
0.0
  0
LINE
  5
328
330
31E
100
AcDbEntity
  8
LC-004-005-----0
 62
     7
370
    25
100
AcDbLine
 10
71.217983
 20
234.252146
 30
0.0
 11
58.892732
 21
246.577398
 31
0.0
  0
LINE
  5
329
330
31E
100
AcDbEntity
  8
LC-004-005-----0
 62
     7
370
    25
100
AcDbLine
 10
79.224088
 20
220.589187
 30
0.0
 11
58.044791
 21
241.768484
 31
0.0
  0
LINE
  5
32A
330
31E
100
AcDbEntity
  8
LC-004-005-----0
 62
     7
370
    25
100
AcDbLine
 10
79.224088
 20
217.76076
 30
0.0
 11
57.62082
 21
239.364028
 31
0.0
  0
LINE
  5
32B
330
31E
100
AcDbEntity
  8
LC-004-005-----0
 62
     7
370
    25
100
AcDbLine
 10
76.835742
 20
214.492251
 30
0.0
 11
56.772879
 21
234.555115
 31
0.0
  0
LINE
  5
32C
330
31E
100
AcDbEntity
  8
LC-004-005-----0
 62
     7
370
    25
100
AcDbLine
 10
74.430172
 20
214.069395
 30
0.0
 11
66.769825
 21
221.729742
 31
0.0
  0
LINE
  5
32D
330
31E
100
AcDbEntity
  8
LC-004-005-----0
 62
     7
370
    25
100
AcDbLine
 10
64.007315
 20
224.492251
 30
0.0
 11
55.839636
 21
232.65993
 31
0.0
  0
LINE
  5
32E
330
31E
100
AcDbEntity
  8
LC-004-005-----0
 62
     7
370
    25
100
AcDbLine
 10
73.974088
 20
208.868625
 30
0.0
 11
66.865058
 21
215.977654
 31
0.0
  0
LINE
  5
32F
330
31E
100
AcDbEntity
  8
LC-004-005-----0
 62
     7
370
    25
100
AcDbLine
 10
58.350461
 20
224.492251
 30
0.0
 11
54.724088
 21
228.118625
 31
0.0
  0
LINE
  5
330
330
31E
100
AcDbEntity
  8
LC-004-005-----0
 62
     7
370
    25
100
AcDbLine
 10
79.224088
 20
200.790198
 30
0.0
 11
77.722034
 21
202.292251
 31
0.0
  0
LINE
  5
331
330
31E
100
AcDbEntity
  8
LC-004-005-----0
 62
     7
370
    25
100
AcDbLine
 10
73.974088
 20
206.040198
 30
0.0
 11
66.912675
 21
213.101611
 31
0.0
  0
LINE
  5
332
330
31E
100
AcDbEntity
  8
LC-004-005-----0
 62
     7
370
    25
100
AcDbLine
 10
55.522034
 20
224.492251
 30
0.0
 11
54.724088
 21
225.290198
 31
0.0
  0
LINE
  5
333
330
31E
100
AcDbEntity
  8
LC-004-005-----0
 62
     7
370
    25
100
AcDbLine
 10
78.144634
 20
196.212797
 30
0.0
 11
67.007908
 21
207.349523
 31
0.0
  0
LINE
  5
334
330
31E
100
AcDbEntity
  8
LC-004-005-----0
 62
     7
370
    25
100
AcDbLine
 10
76.73042
 20
194.798584
 30
0.0
 11
67.055524
 21
204.47348
 31
0.0
  0
LINE
  5
335
330
31E
100
AcDbEntity
  8
LC-004-005-----0
 62
     7
370
    25
100
AcDbLine
 10
71.579898
 20
194.292251
 30
0.0
 11
67.150758
 21
198.721392
 31
0.0
  0
LINE
  5
336
330
31E
100
AcDbEntity
  8
LC-004-005-----0
 62
     7
370
    25
100
AcDbLine
 10
68.686812
 20
194.356911
 30
0.0
 11
67.255909
 21
195.787814
 31
0.0
  0
ENDBLK
  5
320
330
31E
100
AcDbEntity
  8
0
100
AcDbBlockEnd
  0
BLOCK
  5
339
330
338
100
AcDbEntity
  8
0
100
AcDbBlockBegin
  2
*X44
 70
     1
 71
     0
 10
0.0
 20
0.0
 30
0.0
  3
*X44
  1

  4
*X4
  0
LINE
  5
33B
330
338
100
AcDbEntity
  8
LC-004-005-----0
 62
     7
370
    25
100
AcDbLine
 10
85.681371
 20
250.901456
 30
0.0
 11
84.132886
 21
252.449942
 31
0.0
  0
LINE
  5
33C
330
338
100
AcDbEntity
  8
LC-004-005-----0
 62
     7
370
    25
100
AcDbLine
 10
85.46286
 20
245.463114
 30
0.0
 11
78.433722
 21
252.492251
 31
0.0
  0
LINE
  5
33D
330
338
100
AcDbEntity
  8
LC-004-005-----0
 62
     7
370
    25
100
AcDbLine
 10
85.32201
 20
242.775537
 30
0.0
 11
75.605295
 21
252.492251
 31
0.0
  0
LINE
  5
33E
330
338
100
AcDbEntity
  8
LC-004-005-----0
 62
     7
370
    25
100
AcDbLine
 10
85.04031
 20
237.400382
 30
0.0
 11
73.290296
 21
249.150396
 31
0.0
  0
LINE
  5
33F
330
338
100
AcDbEntity
  8
LC-004-005-----0
 62
     7
370
    25
100
AcDbLine
 10
84.89946
 20
234.712805
 30
0.0
 11
73.446726
 21
246.165539
 31
0.0
  0
LINE
  5
340
330
338
100
AcDbEntity
  8
LC-004-005-----0
 62
     7
370
    25
100
AcDbLine
 10
81.463159
 20
232.492251
 30
0.0
 11
73.759585
 21
240.195825
 31
0.0
  0
LINE
  5
341
330
338
100
AcDbEntity
  8
LC-004-005-----0
 62
     7
370
    25
100
AcDbLine
 10
78.634732
 20
232.492251
 30
0.0
 11
73.916015
 21
237.210969
 31
0.0
  0
ENDBLK
  5
33A
330
338
100
AcDbEntity
  8
0
100
AcDbBlockEnd
  0
BLOCK
  5
344
330
343
100
AcDbEntity
  8
0
100
AcDbBlockBegin
  2
*X55
 70
     1
 71
     0
 10
0.0
 20
0.0
 30
0.0
  3
*X55
  1

  4
*X5
  0
LINE
  5
346
330
343
100
AcDbEntity
  8
LC-004-005-----0
 62
     7
370
    25
100
AcDbLine
 10
249.665861
 20
250.96574
 30
0.0
 11
248.196206
 21
252.435395
 31
0.0
  0
LINE
  5
347
330
343
100
AcDbEntity
  8
LC-004-005-----0
 62
     7
370
    25
100
AcDbLine
 10
249.464373
 20
245.510374
 30
0.0
 11
242.482495
 21
252.492251
 31
0.0
  0
LINE
  5
348
330
343
100
AcDbEntity
  8
LC-004-005-----0
 62
     7
370
    25
100
AcDbLine
 10
249.323523
 20
242.822797
 30
0.0
 11
239.654068
 21
252.492251
 31
0.0
  0
LINE
  5
349
330
343
100
AcDbEntity
  8
LC-004-005-----0
 62
     7
370
    25
100
AcDbLine
 10
249.041823
 20
237.447642
 30
0.0
 11
233.997214
 21
252.492251
 31
0.0
  0
LINE
  5
34A
330
343
100
AcDbEntity
  8
LC-004-005-----0
 62
     7
370
    25
100
AcDbLine
 10
248.900973
 20
234.760065
 30
0.0
 11
231.168787
 21
252.492251
 31
0.0
  0
LINE
  5
34B
330
343
100
AcDbEntity
  8
LC-004-005-----0
 62
     7
370
    25
100
AcDbLine
 10
246.884193
 20
231.119991
 30
0.0
 11
225.511933
 21
252.492251
 31
0.0
  0
LINE
  5
34C
330
343
100
AcDbEntity
  8
LC-004-005-----0
 62
     7
370
    25
100
AcDbLine
 10
244.988279
 20
230.187478
 30
0.0
 11
222.683506
 21
252.492251
 31
0.0
  0
LINE
  5
34D
330
343
100
AcDbEntity
  8
LC-004-005-----0
 62
     7
370
    25
100
AcDbLine
 10
240.392455
 20
229.126448
 30
0.0
 11
217.026651
 21
252.492251
 31
0.0
  0
LINE
  5
34E
330
343
100
AcDbEntity
  8
LC-004-005-----0
 62
     7
370
    25
100
AcDbLine
 10
238.094543
 20
228.595933
 30
0.0
 11
214.198224
 21
252.492251
 31
0.0
  0
LINE
  5
34F
330
343
100
AcDbEntity
  8
LC-004-005-----0
 62
     7
370
    25
100
AcDbLine
 10
233.498718
 20
227.534903
 30
0.0
 11
208.54137
 21
252.492251
 31
0.0
  0
LINE
  5
350
330
343
100
AcDbEntity
  8
LC-004-005-----0
 62
     7
370
    25
100
AcDbLine
 10
231.200806
 20
227.004388
 30
0.0
 11
205.712943
 21
252.492251
 31
0.0
  0
LINE
  5
351
330
343
100
AcDbEntity
  8
LC-004-005-----0
 62
     7
370
    25
100
AcDbLine
 10
226.604981
 20
225.943359
 30
0.0
 11
200.056089
 21
252.492251
 31
0.0
  0
LINE
  5
352
330
343
100
AcDbEntity
  8
LC-004-005-----0
 62
     7
370
    25
100
AcDbLine
 10
224.307069
 20
225.412844
 30
0.0
 11
197.227661
 21
252.492251
 31
0.0
  0
LINE
  5
353
330
343
100
AcDbEntity
  8
LC-004-005-----0
 62
     7
370
    25
100
AcDbLine
 10
219.711244
 20
224.351814
 30
0.0
 11
191.570807
 21
252.492251
 31
0.0
  0
LINE
  5
354
330
343
100
AcDbEntity
  8
LC-004-005-----0
 62
     7
370
    25
100
AcDbLine
 10
217.413332
 20
223.821299
 30
0.0
 11
188.74238
 21
252.492251
 31
0.0
  0
LINE
  5
355
330
343
100
AcDbEntity
  8
LC-004-005-----0
 62
     7
370
    25
100
AcDbLine
 10
212.817508
 20
222.76027
 30
0.0
 11
183.085526
 21
252.492251
 31
0.0
  0
LINE
  5
356
330
343
100
AcDbEntity
  8
LC-004-005-----0
 62
     7
370
    25
100
AcDbLine
 10
210.519595
 20
222.229755
 30
0.0
 11
180.257099
 21
252.492251
 31
0.0
  0
LINE
  5
357
330
343
100
AcDbEntity
  8
LC-004-005-----0
 62
     7
370
    25
100
AcDbLine
 10
205.923771
 20
221.168725
 30
0.0
 11
174.600244
 21
252.492251
 31
0.0
  0
LINE
  5
358
330
343
100
AcDbEntity
  8
LC-004-005-----0
 62
     7
370
    25
100
AcDbLine
 10
203.625858
 20
220.63821
 30
0.0
 11
171.771817
 21
252.492251
 31
0.0
  0
LINE
  5
359
330
343
100
AcDbEntity
  8
LC-004-005-----0
 62
     7
370
    25
100
AcDbLine
 10
199.030034
 20
219.577181
 30
0.0
 11
166.114963
 21
252.492251
 31
0.0
  0
LINE
  5
35A
330
343
100
AcDbEntity
  8
LC-004-005-----0
 62
     7
370
    25
100
AcDbLine
 10
196.732122
 20
219.046666
 30
0.0
 11
163.286536
 21
252.492251
 31
0.0
  0
LINE
  5
35B
330
343
100
AcDbEntity
  8
LC-004-005-----0
 62
     7
370
    25
100
AcDbLine
 10
191.629682
 20
218.492251
 30
0.0
 11
157.629682
 21
252.492251
 31
0.0
  0
LINE
  5
35C
330
343
100
AcDbEntity
  8
LC-004-005-----0
 62
     7
370
    25
100
AcDbLine
 10
188.801255
 20
218.492251
 30
0.0
 11
154.801255
 21
252.492251
 31
0.0
  0
LINE
  5
35D
330
343
100
AcDbEntity
  8
LC-004-005-----0
 62
     7
370
    25
100
AcDbLine
 10
183.1444
 20
218.492251
 30
0.0
 11
149.1444
 21
252.492251
 31
0.0
  0
LINE
  5
35E
330
343
100
AcDbEntity
  8
LC-004-005-----0
 62
     7
370
    25
100
AcDbLine
 10
180.315973
 20
218.492251
 30
0.0
 11
146.315973
 21
252.492251
 31
0.0
  0
LINE
  5
35F
330
343
100
AcDbEntity
  8
LC-004-005-----0
 62
     7
370
    25
100
AcDbLine
 10
174.521532
 20
218.629838
 30
0.0
 11
140.659119
 21
252.492251
 31
0.0
  0
LINE
  5
360
330
343
100
AcDbEntity
  8
LC-004-005-----0
 62
     7
370
    25
100
AcDbLine
 10
170.844104
 20
219.478839
 30
0.0
 11
137.830692
 21
252.492251
 31
0.0
  0
LINE
  5
361
330
343
100
AcDbEntity
  8
LC-004-005-----0
 62
     7
370
    25
100
AcDbLine
 10
163.489247
 20
221.176842
 30
0.0
 11
132.173838
 21
252.492251
 31
0.0
  0
LINE
  5
362
330
343
100
AcDbEntity
  8
LC-004-005-----0
 62
     7
370
    25
100
AcDbLine
 10
159.811819
 20
222.025843
 30
0.0
 11
129.34541
 21
252.492251
 31
0.0
  0
LINE
  5
363
330
343
100
AcDbEntity
  8
LC-004-005-----0
 62
     7
370
    25
100
AcDbLine
 10
152.456962
 20
223.723846
 30
0.0
 11
123.688556
 21
252.492251
 31
0.0
  0
LINE
  5
364
330
343
100
AcDbEntity
  8
LC-004-005-----0
 62
     7
370
    25
100
AcDbLine
 10
148.779534
 20
224.572847
 30
0.0
 11
120.995333
 21
252.357047
 31
0.0
  0
LINE
  5
365
330
343
100
AcDbEntity
  8
LC-004-005-----0
 62
     7
370
    25
100
AcDbLine
 10
141.424677
 20
226.270849
 30
0.0
 11
119.854394
 21
247.841132
 31
0.0
  0
LINE
  5
366
330
343
100
AcDbEntity
  8
LC-004-005-----0
 62
     7
370
    25
100
AcDbLine
 10
137.747249
 20
227.119851
 30
0.0
 11
120.010824
 21
244.856276
 31
0.0
  0
LINE
  5
367
330
343
100
AcDbEntity
  8
LC-004-005-----0
 62
     7
370
    25
100
AcDbLine
 10
130.392392
 20
228.817853
 30
0.0
 11
120.323683
 21
238.886562
 31
0.0
  0
LINE
  5
368
330
343
100
AcDbEntity
  8
LC-004-005-----0
 62
     7
370
    25
100
AcDbLine
 10
126.714963
 20
229.666854
 30
0.0
 11
120.480113
 21
235.901705
 31
0.0
  0
ENDBLK
  5
345
330
343
100
AcDbEntity
  8
0
100
AcDbBlockEnd
  0
BLOCK
  5
36B
330
36A
100
AcDbEntity
  8
0
100
AcDbBlockBegin
  2
*X66
 70
     1
 71
     0
 10
0.0
 20
0.0
 30
0.0
  3
*X66
  1

  4
*X6
  0
LINE
  5
36D
330
36A
100
AcDbEntity
  8
LC-004-005-----0
 62
     7
370
    25
100
AcDbLine
 10
309.935543
 20
250.093027
 30
0.0
 11
307.536319
 21
252.492251
 31
0.0
  0
LINE
  5
36E
330
36A
100
AcDbEntity
  8
LC-004-005-----0
 62
     7
370
    25
100
AcDbLine
 10
311.146529
 20
243.225188
 30
0.0
 11
301.879465
 21
252.492251
 31
0.0
  0
LINE
  5
36F
330
36A
100
AcDbEntity
  8
LC-004-005-----0
 62
     7
370
    25
100
AcDbLine
 10
311.752022
 20
239.791268
 30
0.0
 11
299.051038
 21
252.492251
 31
0.0
  0
LINE
  5
370
330
36A
100
AcDbEntity
  8
LC-004-005-----0
 62
     7
370
    25
100
AcDbLine
 10
314.724088
 20
231.162347
 30
0.0
 11
298.586007
 21
247.300428
 31
0.0
  0
LINE
  5
371
330
36A
100
AcDbEntity
  8
LC-004-005-----0
 62
     7
370
    25
100
AcDbLine
 10
314.724088
 20
228.33392
 30
0.0
 11
298.512732
 21
244.545276
 31
0.0
  0
LINE
  5
372
330
36A
100
AcDbEntity
  8
LC-004-005-----0
 62
     7
370
    25
100
AcDbLine
 10
312.908902
 20
224.492251
 30
0.0
 11
298.366181
 21
239.034972
 31
0.0
  0
LINE
  5
373
330
36A
100
AcDbEntity
  8
LC-004-005-----0
 62
     7
370
    25
100
AcDbLine
 10
310.080475
 20
224.492251
 30
0.0
 11
298.292906
 21
236.27982
 31
0.0
  0
LINE
  5
374
330
36A
100
AcDbEntity
  8
LC-004-005-----0
 62
     7
370
    25
100
AcDbLine
 10
304.423621
 20
224.492251
 30
0.0
 11
296.416247
 21
232.499626
 31
0.0
  0
LINE
  5
375
330
36A
100
AcDbEntity
  8
LC-004-005-----0
 62
     7
370
    25
100
AcDbLine
 10
302.705702
 20
223.381743
 30
0.0
 11
293.595194
 21
232.492251
 31
0.0
  0
LINE
  5
376
330
36A
100
AcDbEntity
  8
LC-004-005-----0
 62
     7
370
    25
100
AcDbLine
 10
302.613571
 20
217.81702
 30
0.0
 11
287.93834
 21
232.492251
 31
0.0
  0
LINE
  5
377
330
36A
100
AcDbEntity
  8
LC-004-005-----0
 62
     7
370
    25
100
AcDbLine
 10
302.567505
 20
215.034659
 30
0.0
 11
285.753939
 21
231.848225
 31
0.0
  0
LINE
  5
378
330
36A
100
AcDbEntity
  8
LC-004-005-----0
 62
     7
370
    25
100
AcDbLine
 10
302.475374
 20
209.469936
 30
0.0
 11
290.224088
 21
221.721222
 31
0.0
  0
LINE
  5
379
330
36A
100
AcDbEntity
  8
LC-004-005-----0
 62
     7
370
    25
100
AcDbLine
 10
287.453058
 20
224.492251
 30
0.0
 11
285.224088
 21
226.721222
 31
0.0
  0
LINE
  5
37A
330
36A
100
AcDbEntity
  8
LC-004-005-----0
 62
     7
370
    25
100
AcDbLine
 10
302.429308
 20
206.687574
 30
0.0
 11
290.224088
 21
218.892795
 31
0.0
  0
LINE
  5
37B
330
36A
100
AcDbEntity
  8
LC-004-005-----0
 62
     7
370
    25
100
AcDbLine
 10
302.337177
 20
201.122851
 30
0.0
 11
295.474088
 21
207.98594
 31
0.0
  0
LINE
  5
37C
330
36A
100
AcDbEntity
  8
LC-004-005-----0
 62
     7
370
    25
100
AcDbLine
 10
302.291112
 20
198.340489
 30
0.0
 11
295.474088
 21
205.157513
 31
0.0
  0
LINE
  5
37D
330
36A
100
AcDbEntity
  8
LC-004-005-----0
 62
     7
370
    25
100
AcDbLine
 10
300.644569
 20
194.330178
 30
0.0
 11
292.682495
 21
202.292251
 31
0.0
  0
LINE
  5
37E
330
36A
100
AcDbEntity
  8
LC-004-005-----0
 62
     7
370
    25
100
AcDbLine
 10
297.854068
 20
194.292251
 30
0.0
 11
290.224088
 21
201.922232
 31
0.0
  0
ENDBLK
  5
36C
330
36A
100
AcDbEntity
  8
0
100
AcDbBlockEnd
  0
BLOCK
  5
381
330
380
100
AcDbEntity
  8
0
100
AcDbBlockBegin
  2
*X77
 70
     1
 71
     0
 10
0.0
 20
0.0
 30
0.0
  3
*X77
  1

  4
*X7
  0
LINE
  5
383
330
380
100
AcDbEntity
  8
LC-004-005-----0
 62
     7
370
    25
100
AcDbLine
 10
78.224088
 20
213.103906
 30
0.0
 11
76.835742
 21
214.492251
 31
0.0
  0
LINE
  5
384
330
380
100
AcDbEntity
  8
LC-004-005-----0
  6
DASHED
 62
     7
370
    25
100
AcDbLine
 10
80.110876
 20
205.560264
 30
0.0
 11
78.248099
 21
207.423041
 31
0.0
  0
LINE
  5
385
330
380
100
AcDbEntity
  8
LC-004-005-----0
  6
DASHED
 62
     7
370
    25
100
AcDbLine
 10
78.224088
 20
207.447052
 30
0.0
 11
73.974088
 21
211.697052
 31
0.0
  0
LINE
  5
386
330
380
100
AcDbEntity
  8
LC-004-005-----0
  6
DASHED
 62
     7
370
    25
100
AcDbLine
 10
79.0756
 20
203.767113
 30
0.0
 11
73.974088
 21
208.868625
 31
0.0
  0
ENDBLK
  5
382
330
380
100
AcDbEntity
  8
0
100
AcDbBlockEnd
  0
BLOCK
  5
38E
330
38D
100
AcDbEntity
  8
0
100
AcDbBlockBegin
  2
*X88
 70
     1
 71
     0
 10
0.0
 20
0.0
 30
0.0
  3
*X88
  1

  4
*X8
  0
LINE
  5
390
330
38D
100
AcDbEntity
  8
LC-004-005-----0
  6
DASHED
 62
     7
370
    25
100
AcDbLine
 10
295.474088
 20
207.98594
 30
0.0
 11
291.224088
 21
212.23594
 31
0.0
  0
LINE
  5
391
330
38D
100
AcDbEntity
  8
LC-004-005-----0
  6
DASHED
 62
     7
370
    25
100
AcDbLine
 10
295.474088
 20
205.157513
 30
0.0
 11
291.224088
 21
209.407513
 31
0.0
  0
LINE
  5
392
330
38D
100
AcDbEntity
  8
LC-004-005-----0
 62
     7
370
    25
100
AcDbLine
 10
292.682495
 20
202.292251
 30
0.0
 11
289.231866
 21
205.742881
 31
0.0
  0
ENDBLK
  5
38F
330
38D
100
AcDbEntity
  8
0
100
AcDbBlockEnd
  0
BLOCK
  5
395
330
394
100
AcDbEntity
  8
0
100
AcDbBlockBegin
  2
*X99
 70
     1
 71
     0
 10
0.0
 20
0.0
 30
0.0
  3
*X99
  1

  4
*X9
  0
LINE
  5
397
330
394
100
AcDbEntity
  8
LC-004-005-----0
 62
     7
370
    25
100
AcDbLine
 10
353.261547
 20
39.306136
 30
0.0
 11
354.724088
 21
40.768677
 31
0.0
  0
LINE
  5
398
330
394
100
AcDbEntity
  8
LC-004-005-----0
 62
     7
370
    25
100
AcDbLine
 10
349.619235
 20
38.492251
 30
0.0
 11
353.619235
 21
42.492251
 31
0.0
  0
LINE
  5
399
330
394
100
AcDbEntity
  8
LC-004-005-----0
 62
     7
370
    25
100
AcDbLine
 10
346.790808
 20
38.492251
 30
0.0
 11
350.790808
 21
42.492251
 31
0.0
  0
LINE
  5
39A
330
394
100
AcDbEntity
  8
LC-004-005-----0
 62
     7
370
    25
100
AcDbLine
 10
343.962381
 20
38.492251
 30
0.0
 11
347.962381
 21
42.492251
 31
0.0
  0
LINE
  5
39B
330
394
100
AcDbEntity
  8
LC-004-005-----0
 62
     7
370
    25
100
AcDbLine
 10
341.133954
 20
38.492251
 30
0.0
 11
345.133954
 21
42.492251
 31
0.0
  0
LINE
  5
39C
330
394
100
AcDbEntity
  8
LC-004-005-----0
 62
     7
370
    25
100
AcDbLine
 10
338.305527
 20
38.492251
 30
0.0
 11
342.305527
 21
42.492251
 31
0.0
  0
LINE
  5
39D
330
394
100
AcDbEntity
  8
LC-004-005-----0
 62
     7
370
    25
100
AcDbLine
 10
335.477099
 20
38.492251
 30
0.0
 11
339.477099
 21
42.492251
 31
0.0
  0
LINE
  5
39E
330
394
100
AcDbEntity
  8
LC-004-005-----0
 62
     7
370
    25
100
AcDbLine
 10
332.648672
 20
38.492251
 30
0.0
 11
336.648672
 21
42.492251
 31
0.0
  0
LINE
  5
39F
330
394
100
AcDbEntity
  8
LC-004-005-----0
 62
     7
370
    25
100
AcDbLine
 10
329.820245
 20
38.492251
 30
0.0
 11
333.820245
 21
42.492251
 31
0.0
  0
LINE
  5
3A0
330
394
100
AcDbEntity
  8
LC-004-005-----0
 62
     7
370
    25
100
AcDbLine
 10
326.991818
 20
38.492251
 30
0.0
 11
330.991818
 21
42.492251
 31
0.0
  0
LINE
  5
3A1
330
394
100
AcDbEntity
  8
LC-004-005-----0
 62
     7
370
    25
100
AcDbLine
 10
324.163391
 20
38.492251
 30
0.0
 11
328.163391
 21
42.492251
 31
0.0
  0
LINE
  5
3A2
330
394
100
AcDbEntity
  8
LC-004-005-----0
 62
     7
370
    25
100
AcDbLine
 10
321.334964
 20
38.492251
 30
0.0
 11
325.334964
 21
42.492251
 31
0.0
  0
LINE
  5
3A3
330
394
100
AcDbEntity
  8
LC-004-005-----0
 62
     7
370
    25
100
AcDbLine
 10
318.506537
 20
38.492251
 30
0.0
 11
322.506537
 21
42.492251
 31
0.0
  0
LINE
  5
3A4
330
394
100
AcDbEntity
  8
LC-004-005-----0
 62
     7
370
    25
100
AcDbLine
 10
315.67811
 20
38.492251
 30
0.0
 11
319.67811
 21
42.492251
 31
0.0
  0
LINE
  5
3A5
330
394
100
AcDbEntity
  8
LC-004-005-----0
 62
     7
370
    25
100
AcDbLine
 10
312.849682
 20
38.492251
 30
0.0
 11
316.849682
 21
42.492251
 31
0.0
  0
LINE
  5
3A6
330
394
100
AcDbEntity
  8
LC-004-005-----0
 62
     7
370
    25
100
AcDbLine
 10
310.021255
 20
38.492251
 30
0.0
 11
314.021255
 21
42.492251
 31
0.0
  0
LINE
  5
3A7
330
394
100
AcDbEntity
  8
LC-004-005-----0
 62
     7
370
    25
100
AcDbLine
 10
307.192828
 20
38.492251
 30
0.0
 11
311.192828
 21
42.492251
 31
0.0
  0
LINE
  5
3A8
330
394
100
AcDbEntity
  8
LC-004-005-----0
 62
     7
370
    25
100
AcDbLine
 10
304.364401
 20
38.492251
 30
0.0
 11
308.364401
 21
42.492251
 31
0.0
  0
LINE
  5
3A9
330
394
100
AcDbEntity
  8
LC-004-005-----0
 62
     7
370
    25
100
AcDbLine
 10
301.535974
 20
38.492251
 30
0.0
 11
305.535974
 21
42.492251
 31
0.0
  0
LINE
  5
3AA
330
394
100
AcDbEntity
  8
LC-004-005-----0
 62
     7
370
    25
100
AcDbLine
 10
298.707547
 20
38.492251
 30
0.0
 11
302.707547
 21
42.492251
 31
0.0
  0
LINE
  5
3AB
330
394
100
AcDbEntity
  8
LC-004-005-----0
 62
     7
370
    25
100
AcDbLine
 10
295.87912
 20
38.492251
 30
0.0
 11
299.87912
 21
42.492251
 31
0.0
  0
LINE
  5
3AC
330
394
100
AcDbEntity
  8
LC-004-005-----0
 62
     7
370
    25
100
AcDbLine
 10
293.050693
 20
38.492251
 30
0.0
 11
297.050693
 21
42.492251
 31
0.0
  0
LINE
  5
3AD
330
394
100
AcDbEntity
  8
LC-004-005-----0
 62
     7
370
    25
100
AcDbLine
 10
290.222265
 20
38.492251
 30
0.0
 11
294.222265
 21
42.492251
 31
0.0
  0
LINE
  5
3AE
330
394
100
AcDbEntity
  8
LC-004-005-----0
 62
     7
370
    25
100
AcDbLine
 10
287.393838
 20
38.492251
 30
0.0
 11
291.393838
 21
42.492251
 31
0.0
  0
LINE
  5
3AF
330
394
100
AcDbEntity
  8
LC-004-005-----0
 62
     7
370
    25
100
AcDbLine
 10
284.565411
 20
38.492251
 30
0.0
 11
288.565411
 21
42.492251
 31
0.0
  0
LINE
  5
3B0
330
394
100
AcDbEntity
  8
LC-004-005-----0
 62
     7
370
    25
100
AcDbLine
 10
281.736984
 20
38.492251
 30
0.0
 11
285.736984
 21
42.492251
 31
0.0
  0
LINE
  5
3B1
330
394
100
AcDbEntity
  8
LC-004-005-----0
 62
     7
370
    25
100
AcDbLine
 10
278.908557
 20
38.492251
 30
0.0
 11
282.908557
 21
42.492251
 31
0.0
  0
LINE
  5
3B2
330
394
100
AcDbEntity
  8
LC-004-005-----0
 62
     7
370
    25
100
AcDbLine
 10
276.08013
 20
38.492251
 30
0.0
 11
280.08013
 21
42.492251
 31
0.0
  0
LINE
  5
3B3
330
394
100
AcDbEntity
  8
LC-004-005-----0
 62
     7
370
    25
100
AcDbLine
 10
273.251703
 20
38.492251
 30
0.0
 11
277.251703
 21
42.492251
 31
0.0
  0
LINE
  5
3B4
330
394
100
AcDbEntity
  8
LC-004-005-----0
 62
     7
370
    25
100
AcDbLine
 10
270.56054
 20
38.629516
 30
0.0
 11
274.423276
 21
42.492251
 31
0.0
  0
LINE
  5
3B5
330
394
100
AcDbEntity
  8
LC-004-005-----0
 62
     7
370
    25
100
AcDbLine
 10
267.95966
 20
38.857063
 30
0.0
 11
271.65191
 21
42.549313
 31
0.0
  0
LINE
  5
3B6
330
394
100
AcDbEntity
  8
LC-004-005-----0
 62
     7
370
    25
100
AcDbLine
 10
265.358781
 20
39.084611
 30
0.0
 11
269.05103
 21
42.77686
 31
0.0
  0
LINE
  5
3B7
330
394
100
AcDbEntity
  8
LC-004-005-----0
 62
     7
370
    25
100
AcDbLine
 10
262.757901
 20
39.312158
 30
0.0
 11
266.450151
 21
43.004408
 31
0.0
  0
LINE
  5
3B8
330
394
100
AcDbEntity
  8
LC-004-005-----0
 62
     7
370
    25
100
AcDbLine
 10
260.157022
 20
39.539706
 30
0.0
 11
263.849271
 21
43.231955
 31
0.0
  0
LINE
  5
3B9
330
394
100
AcDbEntity
  8
LC-004-005-----0
 62
     7
370
    25
100
AcDbLine
 10
257.556142
 20
39.767253
 30
0.0
 11
261.248391
 21
43.459503
 31
0.0
  0
LINE
  5
3BA
330
394
100
AcDbEntity
  8
LC-004-005-----0
 62
     7
370
    25
100
AcDbLine
 10
254.955262
 20
39.994801
 30
0.0
 11
258.647512
 21
43.68705
 31
0.0
  0
LINE
  5
3BB
330
394
100
AcDbEntity
  8
LC-004-005-----0
 62
     7
370
    25
100
AcDbLine
 10
252.354383
 20
40.222348
 30
0.0
 11
256.046632
 21
43.914598
 31
0.0
  0
LINE
  5
3BC
330
394
100
AcDbEntity
  8
LC-004-005-----0
 62
     7
370
    25
100
AcDbLine
 10
249.753503
 20
40.449896
 30
0.0
 11
253.445752
 21
44.142145
 31
0.0
  0
LINE
  5
3BD
330
394
100
AcDbEntity
  8
LC-004-005-----0
 62
     7
370
    25
100
AcDbLine
 10
247.152623
 20
40.677443
 30
0.0
 11
250.844873
 21
44.369693
 31
0.0
  0
LINE
  5
3BE
330
394
100
AcDbEntity
  8
LC-004-005-----0
 62
     7
370
    25
100
AcDbLine
 10
244.551744
 20
40.904991
 30
0.0
 11
248.243993
 21
44.59724
 31
0.0
  0
LINE
  5
3BF
330
394
100
AcDbEntity
  8
LC-004-005-----0
 62
     7
370
    25
100
AcDbLine
 10
241.950864
 20
41.132538
 30
0.0
 11
245.643113
 21
44.824788
 31
0.0
  0
LINE
  5
3C0
330
394
100
AcDbEntity
  8
LC-004-005-----0
 62
     7
370
    25
100
AcDbLine
 10
239.349984
 20
41.360086
 30
0.0
 11
243.042234
 21
45.052335
 31
0.0
  0
LINE
  5
3C1
330
394
100
AcDbEntity
  8
LC-004-005-----0
 62
     7
370
    25
100
AcDbLine
 10
236.749105
 20
41.587633
 30
0.0
 11
240.441354
 21
45.279883
 31
0.0
  0
LINE
  5
3C2
330
394
100
AcDbEntity
  8
LC-004-005-----0
 62
     7
370
    25
100
AcDbLine
 10
234.148225
 20
41.815181
 30
0.0
 11
237.840474
 21
45.50743
 31
0.0
  0
LINE
  5
3C3
330
394
100
AcDbEntity
  8
LC-004-005-----0
 62
     7
370
    25
100
AcDbLine
 10
231.547345
 20
42.042728
 30
0.0
 11
235.239595
 21
45.734977
 31
0.0
  0
LINE
  5
3C4
330
394
100
AcDbEntity
  8
LC-004-005-----0
 62
     7
370
    25
100
AcDbLine
 10
228.946466
 20
42.270276
 30
0.0
 11
232.638715
 21
45.962525
 31
0.0
  0
LINE
  5
3C5
330
394
100
AcDbEntity
  8
LC-004-005-----0
 62
     7
370
    25
100
AcDbLine
 10
226.345586
 20
42.497823
 30
0.0
 11
230.037836
 21
46.190072
 31
0.0
  0
LINE
  5
3C6
330
394
100
AcDbEntity
  8
LC-004-005-----0
 62
     7
370
    25
100
AcDbLine
 10
223.744707
 20
42.725371
 30
0.0
 11
227.436956
 21
46.41762
 31
0.0
  0
LINE
  5
3C7
330
394
100
AcDbEntity
  8
LC-004-005-----0
 62
     7
370
    25
100
AcDbLine
 10
221.143827
 20
42.952918
 30
0.0
 11
224.836076
 21
46.645167
 31
0.0
  0
LINE
  5
3C8
330
394
100
AcDbEntity
  8
LC-004-005-----0
 62
     7
370
    25
100
AcDbLine
 10
218.542947
 20
43.180466
 30
0.0
 11
222.235197
 21
46.872715
 31
0.0
  0
LINE
  5
3C9
330
394
100
AcDbEntity
  8
LC-004-005-----0
 62
     7
370
    25
100
AcDbLine
 10
215.942068
 20
43.408013
 30
0.0
 11
219.634317
 21
47.100262
 31
0.0
  0
LINE
  5
3CA
330
394
100
AcDbEntity
  8
LC-004-005-----0
 62
     7
370
    25
100
AcDbLine
 10
213.341188
 20
43.63556
 30
0.0
 11
217.033437
 21
47.32781
 31
0.0
  0
LINE
  5
3CB
330
394
100
AcDbEntity
  8
LC-004-005-----0
 62
     7
370
    25
100
AcDbLine
 10
210.740308
 20
43.863108
 30
0.0
 11
214.432558
 21
47.555357
 31
0.0
  0
LINE
  5
3CC
330
394
100
AcDbEntity
  8
LC-004-005-----0
 62
     7
370
    25
100
AcDbLine
 10
208.139429
 20
44.090655
 30
0.0
 11
211.831678
 21
47.782905
 31
0.0
  0
LINE
  5
3CD
330
394
100
AcDbEntity
  8
LC-004-005-----0
 62
     7
370
    25
100
AcDbLine
 10
205.538549
 20
44.318203
 30
0.0
 11
209.230798
 21
48.010452
 31
0.0
  0
LINE
  5
3CE
330
394
100
AcDbEntity
  8
LC-004-005-----0
 62
     7
370
    25
100
AcDbLine
 10
202.937669
 20
44.54575
 30
0.0
 11
206.629919
 21
48.238
 31
0.0
  0
LINE
  5
3CF
330
394
100
AcDbEntity
  8
LC-004-005-----0
 62
     7
370
    25
100
AcDbLine
 10
200.33679
 20
44.773298
 30
0.0
 11
204.029039
 21
48.465547
 31
0.0
  0
LINE
  5
3D0
330
394
100
AcDbEntity
  8
LC-004-005-----0
 62
     7
370
    25
100
AcDbLine
 10
197.73591
 20
45.000845
 30
0.0
 11
201.42816
 21
48.693095
 31
0.0
  0
LINE
  5
3D1
330
394
100
AcDbEntity
  8
LC-004-005-----0
 62
     7
370
    25
100
AcDbLine
 10
195.13503
 20
45.228393
 30
0.0
 11
198.82728
 21
48.920642
 31
0.0
  0
LINE
  5
3D2
330
394
100
AcDbEntity
  8
LC-004-005-----0
 62
     7
370
    25
100
AcDbLine
 10
192.534151
 20
45.45594
 30
0.0
 11
196.2264
 21
49.14819
 31
0.0
  0
LINE
  5
3D3
330
394
100
AcDbEntity
  8
LC-004-005-----0
 62
     7
370
    25
100
AcDbLine
 10
189.933271
 20
45.683488
 30
0.0
 11
193.625521
 21
49.375737
 31
0.0
  0
LINE
  5
3D4
330
394
100
AcDbEntity
  8
LC-004-005-----0
 62
     7
370
    25
100
AcDbLine
 10
187.332392
 20
45.911035
 30
0.0
 11
191.024641
 21
49.603285
 31
0.0
  0
LINE
  5
3D5
330
394
100
AcDbEntity
  8
LC-004-005-----0
 62
     7
370
    25
100
AcDbLine
 10
184.731512
 20
46.138583
 30
0.0
 11
188.423761
 21
49.830832
 31
0.0
  0
LINE
  5
3D6
330
394
100
AcDbEntity
  8
LC-004-005-----0
 62
     7
370
    25
100
AcDbLine
 10
182.130632
 20
46.36613
 30
0.0
 11
185.822882
 21
50.05838
 31
0.0
  0
LINE
  5
3D7
330
394
100
AcDbEntity
  8
LC-004-005-----0
 62
     7
370
    25
100
AcDbLine
 10
179.529753
 20
46.593678
 30
0.0
 11
183.222002
 21
50.285927
 31
0.0
  0
LINE
  5
3D8
330
394
100
AcDbEntity
  8
LC-004-005-----0
 62
     7
370
    25
100
AcDbLine
 10
176.928873
 20
46.821225
 30
0.0
 11
180.621122
 21
50.513475
 31
0.0
  0
LINE
  5
3D9
330
394
100
AcDbEntity
  8
LC-004-005-----0
 62
     7
370
    25
100
AcDbLine
 10
174.327993
 20
47.048773
 30
0.0
 11
178.020243
 21
50.741022
 31
0.0
  0
LINE
  5
3DA
330
394
100
AcDbEntity
  8
LC-004-005-----0
 62
     7
370
    25
100
AcDbLine
 10
171.727114
 20
47.27632
 30
0.0
 11
175.419363
 21
50.96857
 31
0.0
  0
LINE
  5
3DB
330
394
100
AcDbEntity
  8
LC-004-005-----0
 62
     7
370
    25
100
AcDbLine
 10
169.126234
 20
47.503868
 30
0.0
 11
172.818483
 21
51.196117
 31
0.0
  0
LINE
  5
3DC
330
394
100
AcDbEntity
  8
LC-004-005-----0
 62
     7
370
    25
100
AcDbLine
 10
166.525354
 20
47.731415
 30
0.0
 11
170.217604
 21
51.423665
 31
0.0
  0
LINE
  5
3DD
330
394
100
AcDbEntity
  8
LC-004-005-----0
 62
     7
370
    25
100
AcDbLine
 10
163.924475
 20
47.958963
 30
0.0
 11
167.616724
 21
51.651212
 31
0.0
  0
LINE
  5
3DE
330
394
100
AcDbEntity
  8
LC-004-005-----0
 62
     7
370
    25
100
AcDbLine
 10
161.323595
 20
48.18651
 30
0.0
 11
165.015845
 21
51.87876
 31
0.0
  0
LINE
  5
3DF
330
394
100
AcDbEntity
  8
LC-004-005-----0
 62
     7
370
    25
100
AcDbLine
 10
158.722716
 20
48.414058
 30
0.0
 11
162.414965
 21
52.106307
 31
0.0
  0
LINE
  5
3E0
330
394
100
AcDbEntity
  8
LC-004-005-----0
 62
     7
370
    25
100
AcDbLine
 10
156.121836
 20
48.641605
 30
0.0
 11
159.814085
 21
52.333855
 31
0.0
  0
LINE
  5
3E1
330
394
100
AcDbEntity
  8
LC-004-005-----0
 62
     7
370
    25
100
AcDbLine
 10
153.520956
 20
48.869153
 30
0.0
 11
157.213206
 21
52.561402
 31
0.0
  0
LINE
  5
3E2
330
394
100
AcDbEntity
  8
LC-004-005-----0
 62
     7
370
    25
100
AcDbLine
 10
150.920077
 20
49.0967
 30
0.0
 11
154.612326
 21
52.788949
 31
0.0
  0
LINE
  5
3E3
330
394
100
AcDbEntity
  8
LC-004-005-----0
 62
     7
370
    25
100
AcDbLine
 10
148.319197
 20
49.324248
 30
0.0
 11
152.011446
 21
53.016497
 31
0.0
  0
LINE
  5
3E4
330
394
100
AcDbEntity
  8
LC-004-005-----0
 62
     7
370
    25
100
AcDbLine
 10
145.718317
 20
49.551795
 30
0.0
 11
149.410567
 21
53.244044
 31
0.0
  0
LINE
  5
3E5
330
394
100
AcDbEntity
  8
LC-004-005-----0
 62
     7
370
    25
100
AcDbLine
 10
143.117438
 20
49.779343
 30
0.0
 11
146.809687
 21
53.471592
 31
0.0
  0
LINE
  5
3E6
330
394
100
AcDbEntity
  8
LC-004-005-----0
 62
     7
370
    25
100
AcDbLine
 10
140.516558
 20
50.00689
 30
0.0
 11
144.208807
 21
53.699139
 31
0.0
  0
LINE
  5
3E7
330
394
100
AcDbEntity
  8
LC-004-005-----0
 62
     7
370
    25
100
AcDbLine
 10
137.915678
 20
50.234438
 30
0.0
 11
141.607928
 21
53.926687
 31
0.0
  0
LINE
  5
3E8
330
394
100
AcDbEntity
  8
LC-004-005-----0
 62
     7
370
    25
100
AcDbLine
 10
123.813017
 20
38.960204
 30
0.0
 11
126.01665
 21
41.163837
 31
0.0
  0
LINE
  5
3E9
330
394
100
AcDbEntity
  8
LC-004-005-----0
 62
     7
370
    25
100
AcDbLine
 10
135.314799
 20
50.461985
 30
0.0
 11
139.007048
 21
54.154234
 31
0.0
  0
LINE
  5
3EA
330
394
100
AcDbEntity
  8
LC-004-005-----0
 62
     7
370
    25
100
AcDbLine
 10
123.427351
 20
41.402965
 30
0.0
 11
126.066898
 21
44.042511
 31
0.0
  0
LINE
  5
3EB
330
394
100
AcDbEntity
  8
LC-004-005-----0
 62
     7
370
    25
100
AcDbLine
 10
132.713919
 20
50.689532
 30
0.0
 11
136.406168
 21
54.381782
 31
0.0
  0
LINE
  5
3EC
330
394
100
AcDbEntity
  8
LC-004-005-----0
 62
     7
370
    25
100
AcDbLine
 10
123.378828
 20
44.182868
 30
0.0
 11
126.117145
 21
46.921186
 31
0.0
  0
LINE
  5
3ED
330
394
100
AcDbEntity
  8
LC-004-005-----0
 62
     7
370
    25
100
AcDbLine
 10
130.113039
 20
50.91708
 30
0.0
 11
133.805289
 21
54.609329
 31
0.0
  0
LINE
  5
3EE
330
394
100
AcDbEntity
  8
LC-004-005-----0
 62
     7
370
    25
100
AcDbLine
 10
123.330304
 20
46.962772
 30
0.0
 11
126.167393
 21
49.79986
 31
0.0
  0
LINE
  5
3EF
330
394
100
AcDbEntity
  8
LC-004-005-----0
 62
     7
370
    25
100
AcDbLine
 10
127.51216
 20
51.144627
 30
0.0
 11
131.204409
 21
54.836877
 31
0.0
  0
LINE
  5
3F0
330
394
100
AcDbEntity
  8
LC-004-005-----0
 62
     7
370
    25
100
AcDbLine
 10
123.281781
 20
49.742676
 30
0.0
 11
128.60353
 21
55.064424
 31
0.0
  0
LINE
  5
3F1
330
394
100
AcDbEntity
  8
LC-004-005-----0
 62
     7
370
    25
100
AcDbLine
 10
122.310401
 20
51.599722
 30
0.0
 11
126.00265
 21
55.291972
 31
0.0
  0
LINE
  5
3F2
330
394
100
AcDbEntity
  8
LC-004-005-----0
 62
     7
370
    25
100
AcDbLine
 10
119.709521
 20
51.82727
 30
0.0
 11
123.40177
 21
55.519519
 31
0.0
  0
LINE
  5
3F3
330
394
100
AcDbEntity
  8
LC-004-005-----0
 62
     7
370
    25
100
AcDbLine
 10
117.108641
 20
52.054817
 30
0.0
 11
120.800891
 21
55.747067
 31
0.0
  0
LINE
  5
3F4
330
394
100
AcDbEntity
  8
LC-004-005-----0
 62
     7
370
    25
100
AcDbLine
 10
114.507762
 20
52.282365
 30
0.0
 11
118.200011
 21
55.974614
 31
0.0
  0
LINE
  5
3F5
330
394
100
AcDbEntity
  8
LC-004-005-----0
 62
     7
370
    25
100
AcDbLine
 10
111.906882
 20
52.509912
 30
0.0
 11
115.599131
 21
56.202162
 31
0.0
  0
LINE
  5
3F6
330
394
100
AcDbEntity
  8
LC-004-005-----0
 62
     7
370
    25
100
AcDbLine
 10
109.306002
 20
52.73746
 30
0.0
 11
112.998252
 21
56.429709
 31
0.0
  0
LINE
  5
3F7
330
394
100
AcDbEntity
  8
LC-004-005-----0
 62
     7
370
    25
100
AcDbLine
 10
106.705123
 20
52.965007
 30
0.0
 11
110.397372
 21
56.657257
 31
0.0
  0
LINE
  5
3F8
330
394
100
AcDbEntity
  8
LC-004-005-----0
 62
     7
370
    25
100
AcDbLine
 10
104.246692
 20
53.335004
 30
0.0
 11
107.796492
 21
56.884804
 31
0.0
  0
LINE
  5
3F9
330
394
100
AcDbEntity
  8
LC-004-005-----0
 62
     7
370
    25
100
AcDbLine
 10
102.227282
 20
54.144021
 30
0.0
 11
105.271555
 21
57.188294
 31
0.0
  0
LINE
  5
3FA
330
394
100
AcDbEntity
  8
LC-004-005-----0
 62
     7
370
    25
100
AcDbLine
 10
100.533902
 20
55.279068
 30
0.0
 11
103.355904
 21
58.10107
 31
0.0
  0
LINE
  5
3FB
330
394
100
AcDbEntity
  8
LC-004-005-----0
 62
     7
370
    25
100
AcDbLine
 10
99.112457
 20
56.68605
 30
0.0
 11
101.926548
 21
59.500141
 31
0.0
  0
LINE
  5
3FC
330
394
100
AcDbEntity
  8
LC-004-005-----0
 62
     7
370
    25
100
AcDbLine
 10
97.9583
 20
58.360321
 30
0.0
 11
100.96625
 21
61.36827
 31
0.0
  0
LINE
  5
3FD
330
394
100
AcDbEntity
  8
LC-004-005-----0
 62
     7
370
    25
100
AcDbLine
 10
97.123618
 20
60.354066
 30
0.0
 11
100.700118
 21
63.930565
 31
0.0
  0
LINE
  5
3FE
330
394
100
AcDbEntity
  8
LC-004-005-----0
 62
     7
370
    25
100
AcDbLine
 10
96.721369
 20
62.780243
 30
0.0
 11
100.651594
 21
66.710469
 31
0.0
  0
LINE
  5
3FF
330
394
100
AcDbEntity
  8
LC-004-005-----0
 62
     7
370
    25
100
AcDbLine
 10
96.671094
 20
65.558396
 30
0.0
 11
100.603071
 21
69.490372
 31
0.0
  0
LINE
  5
400
330
394
100
AcDbEntity
  8
LC-004-005-----0
 62
     7
370
    25
100
AcDbLine
 10
96.622571
 20
68.3383
 30
0.0
 11
100.554547
 21
72.270276
 31
0.0
  0
LINE
  5
401
330
394
100
AcDbEntity
  8
LC-004-005-----0
 62
     7
370
    25
100
AcDbLine
 10
96.574048
 20
71.118204
 30
0.0
 11
100.506024
 21
75.05018
 31
0.0
  0
LINE
  5
402
330
394
100
AcDbEntity
  8
LC-004-005-----0
 62
     7
370
    25
100
AcDbLine
 10
96.525524
 20
73.898107
 30
0.0
 11
100.457501
 21
77.830084
 31
0.0
  0
LINE
  5
403
330
394
100
AcDbEntity
  8
LC-004-005-----0
 62
     7
370
    25
100
AcDbLine
 10
96.477001
 20
76.678011
 30
0.0
 11
100.408977
 21
80.609987
 31
0.0
  0
LINE
  5
404
330
394
100
AcDbEntity
  8
LC-004-005-----0
 62
     7
370
    25
100
AcDbLine
 10
96.428477
 20
79.457915
 30
0.0
 11
100.360454
 21
83.389891
 31
0.0
  0
LINE
  5
405
330
394
100
AcDbEntity
  8
LC-004-005-----0
 62
     7
370
    25
100
AcDbLine
 10
96.379954
 20
82.237818
 30
0.0
 11
100.31193
 21
86.169795
 31
0.0
  0
LINE
  5
406
330
394
100
AcDbEntity
  8
LC-004-005-----0
 62
     7
370
    25
100
AcDbLine
 10
96.331431
 20
85.017722
 30
0.0
 11
100.263407
 21
88.949698
 31
0.0
  0
LINE
  5
407
330
394
100
AcDbEntity
  8
LC-004-005-----0
 62
     7
370
    25
100
AcDbLine
 10
96.282907
 20
87.797626
 30
0.0
 11
100.214884
 21
91.729602
 31
0.0
  0
LINE
  5
408
330
394
100
AcDbEntity
  8
LC-004-005-----0
 62
     7
370
    25
100
AcDbLine
 10
96.234384
 20
90.57753
 30
0.0
 11
100.16636
 21
94.509506
 31
0.0
  0
LINE
  5
409
330
394
100
AcDbEntity
  8
LC-004-005-----0
 62
     7
370
    25
100
AcDbLine
 10
96.18586
 20
93.357433
 30
0.0
 11
100.117837
 21
97.28941
 31
0.0
  0
LINE
  5
40A
330
394
100
AcDbEntity
  8
LC-004-005-----0
 62
     7
370
    25
100
AcDbLine
 10
96.137337
 20
96.137337
 30
0.0
 11
100.069313
 21
100.069313
 31
0.0
  0
LINE
  5
40B
330
394
100
AcDbEntity
  8
LC-004-005-----0
 62
     7
370
    25
100
AcDbLine
 10
96.088814
 20
98.917241
 30
0.0
 11
100.02079
 21
102.849217
 31
0.0
  0
LINE
  5
40C
330
394
100
AcDbEntity
  8
LC-004-005-----0
 62
     7
370
    25
100
AcDbLine
 10
96.04029
 20
101.697144
 30
0.0
 11
99.972267
 21
105.629121
 31
0.0
  0
LINE
  5
40D
330
394
100
AcDbEntity
  8
LC-004-005-----0
 62
     7
370
    25
100
AcDbLine
 10
95.991767
 20
104.477048
 30
0.0
 11
99.923743
 21
108.409025
 31
0.0
  0
LINE
  5
40E
330
394
100
AcDbEntity
  8
LC-004-005-----0
 62
     7
370
    25
100
AcDbLine
 10
95.943243
 20
107.256952
 30
0.0
 11
99.87522
 21
111.188928
 31
0.0
  0
LINE
  5
40F
330
394
100
AcDbEntity
  8
LC-004-005-----0
 62
     7
370
    25
100
AcDbLine
 10
95.89472
 20
110.036856
 30
0.0
 11
99.826696
 21
113.968832
 31
0.0
  0
LINE
  5
410
330
394
100
AcDbEntity
  8
LC-004-005-----0
 62
     7
370
    25
100
AcDbLine
 10
95.846197
 20
112.816759
 30
0.0
 11
99.778173
 21
116.748736
 31
0.0
  0
LINE
  5
411
330
394
100
AcDbEntity
  8
LC-004-005-----0
 62
     7
370
    25
100
AcDbLine
 10
95.797673
 20
115.596663
 30
0.0
 11
99.72965
 21
119.528639
 31
0.0
  0
LINE
  5
412
330
394
100
AcDbEntity
  8
LC-004-005-----0
 62
     7
370
    25
100
AcDbLine
 10
95.74915
 20
118.376567
 30
0.0
 11
99.681126
 21
122.308543
 31
0.0
  0
LINE
  5
413
330
394
100
AcDbEntity
  8
LC-004-005-----0
 62
     7
370
    25
100
AcDbLine
 10
95.700626
 20
121.156471
 30
0.0
 11
99.632603
 21
125.088447
 31
0.0
  0
LINE
  5
414
330
394
100
AcDbEntity
  8
LC-004-005-----0
 62
     7
370
    25
100
AcDbLine
 10
95.652103
 20
123.936374
 30
0.0
 11
99.584079
 21
127.868351
 31
0.0
  0
LINE
  5
415
330
394
100
AcDbEntity
  8
LC-004-005-----0
 62
     7
370
    25
100
AcDbLine
 10
95.60358
 20
126.716278
 30
0.0
 11
99.535556
 21
130.648254
 31
0.0
  0
LINE
  5
416
330
394
100
AcDbEntity
  8
LC-004-005-----0
 62
     7
370
    25
100
AcDbLine
 10
95.555056
 20
129.496182
 30
0.0
 11
99.487033
 21
133.428158
 31
0.0
  0
LINE
  5
417
330
394
100
AcDbEntity
  8
LC-004-005-----0
 62
     7
370
    25
100
AcDbLine
 10
95.506533
 20
132.276085
 30
0.0
 11
99.438509
 21
136.208062
 31
0.0
  0
LINE
  5
418
330
394
100
AcDbEntity
  8
LC-004-005-----0
 62
     7
370
    25
100
AcDbLine
 10
95.458009
 20
135.055989
 30
0.0
 11
99.389986
 21
138.987966
 31
0.0
  0
LINE
  5
419
330
394
100
AcDbEntity
  8
LC-004-005-----0
 62
     7
370
    25
100
AcDbLine
 10
95.409486
 20
137.835893
 30
0.0
 11
99.341462
 21
141.767869
 31
0.0
  0
LINE
  5
41A
330
394
100
AcDbEntity
  8
LC-004-005-----0
 62
     7
370
    25
100
AcDbLine
 10
95.360963
 20
140.615797
 30
0.0
 11
99.292939
 21
144.547773
 31
0.0
  0
LINE
  5
41B
330
394
100
AcDbEntity
  8
LC-004-005-----0
 62
     7
370
    25
100
AcDbLine
 10
95.312439
 20
143.3957
 30
0.0
 11
99.244416
 21
147.327677
 31
0.0
  0
LINE
  5
41C
330
394
100
AcDbEntity
  8
LC-004-005-----0
 62
     7
370
    25
100
AcDbLine
 10
95.263916
 20
146.175604
 30
0.0
 11
99.224088
 21
150.135776
 31
0.0
  0
LINE
  5
41D
330
394
100
AcDbEntity
  8
LC-004-005-----0
 62
     7
370
    25
100
AcDbLine
 10
95.224088
 20
148.964203
 30
0.0
 11
99.224088
 21
152.964203
 31
0.0
  0
LINE
  5
41E
330
394
100
AcDbEntity
  8
LC-004-005-----0
 62
     7
370
    25
100
AcDbLine
 10
95.224088
 20
151.79263
 30
0.0
 11
99.224088
 21
155.79263
 31
0.0
  0
LINE
  5
41F
330
394
100
AcDbEntity
  8
LC-004-005-----0
 62
     7
370
    25
100
AcDbLine
 10
95.224088
 20
154.621057
 30
0.0
 11
99.224088
 21
158.621057
 31
0.0
  0
LINE
  5
420
330
394
100
AcDbEntity
  8
LC-004-005-----0
 62
     7
370
    25
100
AcDbLine
 10
95.224088
 20
157.449485
 30
0.0
 11
99.224088
 21
161.449485
 31
0.0
  0
LINE
  5
421
330
394
100
AcDbEntity
  8
LC-004-005-----0
 62
     7
370
    25
100
AcDbLine
 10
95.224088
 20
160.277912
 30
0.0
 11
99.224088
 21
164.277912
 31
0.0
  0
LINE
  5
422
330
394
100
AcDbEntity
  8
LC-004-005-----0
 62
     7
370
    25
100
AcDbLine
 10
95.097315
 20
162.979566
 30
0.0
 11
99.097315
 21
166.979566
 31
0.0
  0
LINE
  5
423
330
394
100
AcDbEntity
  8
LC-004-005-----0
 62
     7
370
    25
100
AcDbLine
 10
93.054126
 20
163.764805
 30
0.0
 11
96.781573
 21
167.492251
 31
0.0
  0
LINE
  5
424
330
394
100
AcDbEntity
  8
LC-004-005-----0
 62
     7
370
    25
100
AcDbLine
 10
91.610661
 20
165.149766
 30
0.0
 11
94.724088
 21
168.263193
 31
0.0
  0
LINE
  5
425
330
394
100
AcDbEntity
  8
LC-004-005-----0
 62
     7
370
    25
100
AcDbLine
 10
90.793641
 20
167.161173
 30
0.0
 11
94.724088
 21
171.09162
 31
0.0
  0
LINE
  5
426
330
394
100
AcDbEntity
  8
LC-004-005-----0
 62
     7
370
    25
100
AcDbLine
 10
90.724088
 20
169.920047
 30
0.0
 11
94.724088
 21
173.920047
 31
0.0
  0
LINE
  5
427
330
394
100
AcDbEntity
  8
LC-004-005-----0
 62
     7
370
    25
100
AcDbLine
 10
90.724088
 20
172.748474
 30
0.0
 11
94.724088
 21
176.748474
 31
0.0
  0
LINE
  5
428
330
394
100
AcDbEntity
  8
LC-004-005-----0
 62
     7
370
    25
100
AcDbLine
 10
90.724088
 20
175.576902
 30
0.0
 11
94.724088
 21
179.576902
 31
0.0
  0
LINE
  5
429
330
394
100
AcDbEntity
  8
LC-004-005-----0
 62
     7
370
    25
100
AcDbLine
 10
90.724088
 20
178.405329
 30
0.0
 11
94.724088
 21
182.405329
 31
0.0
  0
LINE
  5
42A
330
394
100
AcDbEntity
  8
LC-004-005-----0
 62
     7
370
    25
100
AcDbLine
 10
90.724088
 20
181.233756
 30
0.0
 11
94.724088
 21
185.233756
 31
0.0
  0
LINE
  5
42B
330
394
100
AcDbEntity
  8
LC-004-005-----0
 62
     7
370
    25
100
AcDbLine
 10
90.724088
 20
184.062183
 30
0.0
 11
94.724088
 21
188.062183
 31
0.0
  0
LINE
  5
42C
330
394
100
AcDbEntity
  8
LC-004-005-----0
 62
     7
370
    25
100
AcDbLine
 10
90.724088
 20
186.89061
 30
0.0
 11
94.724088
 21
190.89061
 31
0.0
  0
LINE
  5
42D
330
394
100
AcDbEntity
  8
LC-004-005-----0
 62
     7
370
    25
100
AcDbLine
 10
90.724088
 20
189.719037
 30
0.0
 11
94.724088
 21
193.719037
 31
0.0
  0
LINE
  5
42E
330
394
100
AcDbEntity
  8
LC-004-005-----0
 62
     7
370
    25
100
AcDbLine
 10
90.724088
 20
192.547464
 30
0.0
 11
94.723346
 21
196.546722
 31
0.0
  0
LINE
  5
42F
330
394
100
AcDbEntity
  8
LC-004-005-----0
 62
     7
370
    25
100
AcDbLine
 10
89.83435
 20
194.486154
 30
0.0
 11
93.625694
 21
198.277498
 31
0.0
  0
LINE
  5
430
330
394
100
AcDbEntity
  8
LC-004-005-----0
 62
     7
370
    25
100
AcDbLine
 10
87.054869
 20
194.5351
 30
0.0
 11
91.012021
 21
198.492251
 31
0.0
  0
LINE
  5
431
330
394
100
AcDbEntity
  8
LC-004-005-----0
 62
     7
370
    25
100
AcDbLine
 10
84.89631
 20
195.204967
 30
0.0
 11
88.183594
 21
198.492251
 31
0.0
  0
LINE
  5
432
330
394
100
AcDbEntity
  8
LC-004-005-----0
 62
     7
370
    25
100
AcDbLine
 10
83.306957
 20
196.444042
 30
0.0
 11
85.857004
 21
198.994089
 31
0.0
  0
LINE
  5
433
330
394
100
AcDbEntity
  8
LC-004-005-----0
 62
     7
370
    25
100
AcDbLine
 10
82.201525
 20
198.167037
 30
0.0
 11
85.724088
 21
201.6896
 31
0.0
  0
LINE
  5
434
330
394
100
AcDbEntity
  8
LC-004-005-----0
 62
     7
370
    25
100
AcDbLine
 10
81.732292
 20
200.526231
 30
0.0
 11
85.724088
 21
204.518027
 31
0.0
  0
LINE
  5
435
330
394
100
AcDbEntity
  8
LC-004-005-----0
 62
     7
370
    25
100
AcDbLine
 10
81.732292
 20
203.354658
 30
0.0
 11
85.724088
 21
207.346454
 31
0.0
  0
LINE
  5
436
330
394
100
AcDbEntity
  8
LC-004-005-----0
 62
     7
370
    25
100
AcDbLine
 10
81.732292
 20
206.183086
 30
0.0
 11
85.724088
 21
210.174881
 31
0.0
  0
LINE
  5
437
330
394
100
AcDbEntity
  8
LC-004-005-----0
 62
     7
370
    25
100
AcDbLine
 10
81.732292
 20
209.011513
 30
0.0
 11
85.724088
 21
213.003308
 31
0.0
  0
LINE
  5
438
330
394
100
AcDbEntity
  8
LC-004-005-----0
 62
     7
370
    25
100
AcDbLine
 10
81.732292
 20
211.83994
 30
0.0
 11
85.724088
 21
215.831736
 31
0.0
  0
LINE
  5
439
330
394
100
AcDbEntity
  8
LC-004-005-----0
 62
     7
370
    25
100
AcDbLine
 10
81.732292
 20
214.668367
 30
0.0
 11
85.724088
 21
218.660163
 31
0.0
  0
LINE
  5
43A
330
394
100
AcDbEntity
  8
LC-004-005-----0
 62
     7
370
    25
100
AcDbLine
 10
81.732292
 20
217.496794
 30
0.0
 11
85.724088
 21
221.48859
 31
0.0
  0
LINE
  5
43B
330
394
100
AcDbEntity
  8
LC-004-005-----0
 62
     7
370
    25
100
AcDbLine
 10
81.227523
 20
219.820452
 30
0.0
 11
85.513363
 21
224.106292
 31
0.0
  0
LINE
  5
43C
330
394
100
AcDbEntity
  8
LC-004-005-----0
 62
     7
370
    25
100
AcDbLine
 10
79.070895
 20
220.492251
 30
0.0
 11
83.070895
 21
224.492251
 31
0.0
  0
ENDBLK
  5
396
330
394
100
AcDbEntity
  8
0
100
AcDbBlockEnd
  0
BLOCK
  5
43F
330
43E
100
AcDbEntity
  8
0
100
AcDbBlockBegin
  2
*X1010
 70
     1
 71
     0
 10
0.0
 20
0.0
 30
0.0
  3
*X1010
  1

  4
*X10
  0
LINE
  5
441
330
43E
100
AcDbEntity
  8
LC-004-005-----0
 62
     7
370
    25
100
AcDbLine
 10
353.795859
 20
144.492251
 30
0.0
 11
354.724088
 21
145.420481
 31
0.0
  0
LINE
  5
442
330
43E
100
AcDbEntity
  8
LC-004-005-----0
 62
     7
370
    25
100
AcDbLine
 10
350.967431
 20
144.492251
 30
0.0
 11
353.965045
 21
147.489865
 31
0.0
  0
LINE
  5
443
330
43E
100
AcDbEntity
  8
LC-004-005-----0
 62
     7
370
    25
100
AcDbLine
 10
348.139004
 20
144.492251
 30
0.0
 11
351.734335
 21
148.087582
 31
0.0
  0
LINE
  5
444
330
43E
100
AcDbEntity
  8
LC-004-005-----0
 62
     7
370
    25
100
AcDbLine
 10
345.310577
 20
144.492251
 30
0.0
 11
349.310577
 21
148.492251
 31
0.0
  0
LINE
  5
445
330
43E
100
AcDbEntity
  8
LC-004-005-----0
 62
     7
370
    25
100
AcDbLine
 10
342.48215
 20
144.492251
 30
0.0
 11
346.48215
 21
148.492251
 31
0.0
  0
LINE
  5
446
330
43E
100
AcDbEntity
  8
LC-004-005-----0
 62
     7
370
    25
100
AcDbLine
 10
339.653723
 20
144.492251
 30
0.0
 11
343.653723
 21
148.492251
 31
0.0
  0
LINE
  5
447
330
43E
100
AcDbEntity
  8
LC-004-005-----0
 62
     7
370
    25
100
AcDbLine
 10
336.825296
 20
144.492251
 30
0.0
 11
340.825296
 21
148.492251
 31
0.0
  0
LINE
  5
448
330
43E
100
AcDbEntity
  8
LC-004-005-----0
 62
     7
370
    25
100
AcDbLine
 10
333.996869
 20
144.492251
 30
0.0
 11
337.996869
 21
148.492251
 31
0.0
  0
LINE
  5
449
330
43E
100
AcDbEntity
  8
LC-004-005-----0
 62
     7
370
    25
100
AcDbLine
 10
331.168442
 20
144.492251
 30
0.0
 11
335.168442
 21
148.492251
 31
0.0
  0
LINE
  5
44A
330
43E
100
AcDbEntity
  8
LC-004-005-----0
 62
     7
370
    25
100
AcDbLine
 10
328.340014
 20
144.492251
 30
0.0
 11
332.340014
 21
148.492251
 31
0.0
  0
LINE
  5
44B
330
43E
100
AcDbEntity
  8
LC-004-005-----0
 62
     7
370
    25
100
AcDbLine
 10
325.511587
 20
144.492251
 30
0.0
 11
329.511587
 21
148.492251
 31
0.0
  0
LINE
  5
44C
330
43E
100
AcDbEntity
  8
LC-004-005-----0
 62
     7
370
    25
100
AcDbLine
 10
322.68316
 20
144.492251
 30
0.0
 11
326.68316
 21
148.492251
 31
0.0
  0
LINE
  5
44D
330
43E
100
AcDbEntity
  8
LC-004-005-----0
 62
     7
370
    25
100
AcDbLine
 10
319.854733
 20
144.492251
 30
0.0
 11
323.854733
 21
148.492251
 31
0.0
  0
LINE
  5
44E
330
43E
100
AcDbEntity
  8
LC-004-005-----0
 62
     7
370
    25
100
AcDbLine
 10
317.026306
 20
144.492251
 30
0.0
 11
321.026306
 21
148.492251
 31
0.0
  0
LINE
  5
44F
330
43E
100
AcDbEntity
  8
LC-004-005-----0
 62
     7
370
    25
100
AcDbLine
 10
314.197879
 20
144.492251
 30
0.0
 11
318.197879
 21
148.492251
 31
0.0
  0
LINE
  5
450
330
43E
100
AcDbEntity
  8
LC-004-005-----0
 62
     7
370
    25
100
AcDbLine
 10
311.369452
 20
144.492251
 30
0.0
 11
315.369452
 21
148.492251
 31
0.0
  0
LINE
  5
451
330
43E
100
AcDbEntity
  8
LC-004-005-----0
 62
     7
370
    25
100
AcDbLine
 10
308.541025
 20
144.492251
 30
0.0
 11
312.541025
 21
148.492251
 31
0.0
  0
LINE
  5
452
330
43E
100
AcDbEntity
  8
LC-004-005-----0
 62
     7
370
    25
100
AcDbLine
 10
305.712597
 20
144.492251
 30
0.0
 11
309.712597
 21
148.492251
 31
0.0
  0
LINE
  5
453
330
43E
100
AcDbEntity
  8
LC-004-005-----0
 62
     7
370
    25
100
AcDbLine
 10
302.88417
 20
144.492251
 30
0.0
 11
306.88417
 21
148.492251
 31
0.0
  0
LINE
  5
454
330
43E
100
AcDbEntity
  8
LC-004-005-----0
 62
     7
370
    25
100
AcDbLine
 10
300.055743
 20
144.492251
 30
0.0
 11
304.055743
 21
148.492251
 31
0.0
  0
LINE
  5
455
330
43E
100
AcDbEntity
  8
LC-004-005-----0
 62
     7
370
    25
100
AcDbLine
 10
297.227316
 20
144.492251
 30
0.0
 11
301.227316
 21
148.492251
 31
0.0
  0
LINE
  5
456
330
43E
100
AcDbEntity
  8
LC-004-005-----0
 62
     7
370
    25
100
AcDbLine
 10
294.398889
 20
144.492251
 30
0.0
 11
298.398889
 21
148.492251
 31
0.0
  0
LINE
  5
457
330
43E
100
AcDbEntity
  8
LC-004-005-----0
 62
     7
370
    25
100
AcDbLine
 10
291.570462
 20
144.492251
 30
0.0
 11
295.570462
 21
148.492251
 31
0.0
  0
LINE
  5
458
330
43E
100
AcDbEntity
  8
LC-004-005-----0
 62
     7
370
    25
100
AcDbLine
 10
288.742035
 20
144.492251
 30
0.0
 11
292.742035
 21
148.492251
 31
0.0
  0
LINE
  5
459
330
43E
100
AcDbEntity
  8
LC-004-005-----0
 62
     7
370
    25
100
AcDbLine
 10
285.913608
 20
144.492251
 30
0.0
 11
289.913608
 21
148.492251
 31
0.0
  0
LINE
  5
45A
330
43E
100
AcDbEntity
  8
LC-004-005-----0
 62
     7
370
    25
100
AcDbLine
 10
283.08518
 20
144.492251
 30
0.0
 11
287.08518
 21
148.492251
 31
0.0
  0
LINE
  5
45B
330
43E
100
AcDbEntity
  8
LC-004-005-----0
 62
     7
370
    25
100
AcDbLine
 10
280.256753
 20
144.492251
 30
0.0
 11
284.256753
 21
148.492251
 31
0.0
  0
LINE
  5
45C
330
43E
100
AcDbEntity
  8
LC-004-005-----0
 62
     7
370
    25
100
AcDbLine
 10
277.428326
 20
144.492251
 30
0.0
 11
281.428326
 21
148.492251
 31
0.0
  0
LINE
  5
45D
330
43E
100
AcDbEntity
  8
LC-004-005-----0
 62
     7
370
    25
100
AcDbLine
 10
274.599899
 20
144.492251
 30
0.0
 11
278.599899
 21
148.492251
 31
0.0
  0
LINE
  5
45E
330
43E
100
AcDbEntity
  8
LC-004-005-----0
 62
     7
370
    25
100
AcDbLine
 10
271.771472
 20
144.492251
 30
0.0
 11
275.771472
 21
148.492251
 31
0.0
  0
LINE
  5
45F
330
43E
100
AcDbEntity
  8
LC-004-005-----0
 62
     7
370
    25
100
AcDbLine
 10
270.175785
 20
145.724992
 30
0.0
 11
274.224088
 21
149.773294
 31
0.0
  0
LINE
  5
460
330
43E
100
AcDbEntity
  8
LC-004-005-----0
 62
     7
370
    25
100
AcDbLine
 10
270.224088
 20
148.601721
 30
0.0
 11
274.224088
 21
152.601721
 31
0.0
  0
LINE
  5
461
330
43E
100
AcDbEntity
  8
LC-004-005-----0
 62
     7
370
    25
100
AcDbLine
 10
270.224088
 20
151.430149
 30
0.0
 11
274.224088
 21
155.430149
 31
0.0
  0
LINE
  5
462
330
43E
100
AcDbEntity
  8
LC-004-005-----0
 62
     7
370
    25
100
AcDbLine
 10
270.224088
 20
154.258576
 30
0.0
 11
274.224088
 21
158.258576
 31
0.0
  0
LINE
  5
463
330
43E
100
AcDbEntity
  8
LC-004-005-----0
 62
     7
370
    25
100
AcDbLine
 10
270.224088
 20
157.087003
 30
0.0
 11
274.224088
 21
161.087003
 31
0.0
  0
LINE
  5
464
330
43E
100
AcDbEntity
  8
LC-004-005-----0
 62
     7
370
    25
100
AcDbLine
 10
270.224088
 20
159.91543
 30
0.0
 11
278.724088
 21
168.41543
 31
0.0
  0
LINE
  5
465
330
43E
100
AcDbEntity
  8
LC-004-005-----0
 62
     7
370
    25
100
AcDbLine
 10
270.224088
 20
162.743857
 30
0.0
 11
278.724088
 21
171.243857
 31
0.0
  0
LINE
  5
466
330
43E
100
AcDbEntity
  8
LC-004-005-----0
 62
     7
370
    25
100
AcDbLine
 10
270.224088
 20
165.572284
 30
0.0
 11
272.144055
 21
167.492251
 31
0.0
  0
LINE
  5
467
330
43E
100
AcDbEntity
  8
LC-004-005-----0
 62
     7
370
    25
100
AcDbLine
 10
274.724088
 20
170.072284
 30
0.0
 11
278.724088
 21
174.072284
 31
0.0
  0
LINE
  5
468
330
43E
100
AcDbEntity
  8
LC-004-005-----0
 62
     7
370
    25
100
AcDbLine
 10
274.724088
 20
172.900711
 30
0.0
 11
278.724088
 21
176.900711
 31
0.0
  0
LINE
  5
469
330
43E
100
AcDbEntity
  8
LC-004-005-----0
 62
     7
370
    25
100
AcDbLine
 10
274.724088
 20
175.729138
 30
0.0
 11
278.724088
 21
179.729138
 31
0.0
  0
LINE
  5
46A
330
43E
100
AcDbEntity
  8
LC-004-005-----0
 62
     7
370
    25
100
AcDbLine
 10
274.724088
 20
178.557566
 30
0.0
 11
278.724088
 21
182.557566
 31
0.0
  0
LINE
  5
46B
330
43E
100
AcDbEntity
  8
LC-004-005-----0
 62
     7
370
    25
100
AcDbLine
 10
274.724088
 20
181.385993
 30
0.0
 11
278.724088
 21
185.385993
 31
0.0
  0
LINE
  5
46C
330
43E
100
AcDbEntity
  8
LC-004-005-----0
 62
     7
370
    25
100
AcDbLine
 10
274.724088
 20
184.21442
 30
0.0
 11
278.724088
 21
188.21442
 31
0.0
  0
LINE
  5
46D
330
43E
100
AcDbEntity
  8
LC-004-005-----0
 62
     7
370
    25
100
AcDbLine
 10
274.724088
 20
187.042847
 30
0.0
 11
278.724088
 21
191.042847
 31
0.0
  0
LINE
  5
46E
330
43E
100
AcDbEntity
  8
LC-004-005-----0
 62
     7
370
    25
100
AcDbLine
 10
282.195013
 20
194.513772
 30
0.0
 11
287.696907
 21
200.015666
 31
0.0
  0
LINE
  5
46F
330
43E
100
AcDbEntity
  8
LC-004-005-----0
 62
     7
370
    25
100
AcDbLine
 10
274.724088
 20
189.871274
 30
0.0
 11
278.877815
 21
194.025001
 31
0.0
  0
LINE
  5
470
330
43E
100
AcDbEntity
  8
LC-004-005-----0
 62
     7
370
    25
100
AcDbLine
 10
279.191338
 20
194.338524
 30
0.0
 11
287.715884
 21
202.86307
 31
0.0
  0
LINE
  5
471
330
43E
100
AcDbEntity
  8
LC-004-005-----0
 62
     7
370
    25
100
AcDbLine
 10
274.724088
 20
192.699701
 30
0.0
 11
280.516638
 21
198.492251
 31
0.0
  0
LINE
  5
472
330
43E
100
AcDbEntity
  8
LC-004-005-----0
 62
     7
370
    25
100
AcDbLine
 10
283.724088
 20
201.699701
 30
0.0
 11
287.715884
 21
205.691497
 31
0.0
  0
LINE
  5
473
330
43E
100
AcDbEntity
  8
LC-004-005-----0
 62
     7
370
    25
100
AcDbLine
 10
274.724088
 20
195.528128
 30
0.0
 11
277.688211
 21
198.492251
 31
0.0
  0
LINE
  5
474
330
43E
100
AcDbEntity
  8
LC-004-005-----0
 62
     7
370
    25
100
AcDbLine
 10
283.724088
 20
204.528128
 30
0.0
 11
287.715884
 21
208.519924
 31
0.0
  0
LINE
  5
475
330
43E
100
AcDbEntity
  8
LC-004-005-----0
 62
     7
370
    25
100
AcDbLine
 10
283.724088
 20
207.356555
 30
0.0
 11
287.715884
 21
211.348351
 31
0.0
  0
LINE
  5
476
330
43E
100
AcDbEntity
  8
LC-004-005-----0
 62
     7
370
    25
100
AcDbLine
 10
283.724088
 20
210.184983
 30
0.0
 11
287.715884
 21
214.176778
 31
0.0
  0
LINE
  5
477
330
43E
100
AcDbEntity
  8
LC-004-005-----0
 62
     7
370
    25
100
AcDbLine
 10
283.724088
 20
213.01341
 30
0.0
 11
287.715884
 21
217.005206
 31
0.0
  0
LINE
  5
478
330
43E
100
AcDbEntity
  8
LC-004-005-----0
 62
     7
370
    25
100
AcDbLine
 10
283.724088
 20
215.841837
 30
0.0
 11
290.049295
 21
222.167044
 31
0.0
  0
LINE
  5
479
330
43E
100
AcDbEntity
  8
LC-004-005-----0
 62
     7
370
    25
100
AcDbLine
 10
283.724088
 20
218.670264
 30
0.0
 11
288.635082
 21
223.581258
 31
0.0
  0
LINE
  5
47A
330
43E
100
AcDbEntity
  8
LC-004-005-----0
 62
     7
370
    25
100
AcDbLine
 10
283.724088
 20
221.498691
 30
0.0
 11
286.717648
 21
224.492251
 31
0.0
  0
ENDBLK
  5
440
330
43E
100
AcDbEntity
  8
0
100
AcDbBlockEnd
  0
BLOCK
  5
47F
330
47E
100
AcDbEntity
  8
0
100
AcDbBlockBegin
  2
*X1111
 70
     1
 71
     0
 10
0.0
 20
0.0
 30
0.0
  3
*X1111
  1

  4
*X11
  0
LINE
  5
481
330
47E
100
AcDbEntity
  8
LC-004-005-----0
 62
     7
370
    25
100
AcDbLine
 10
296.045821
 20
247.012187
 30
0.0
 11
290.565757
 21
252.492251
 31
0.0
  0
LINE
  5
482
330
47E
100
AcDbEntity
  8
LC-004-005-----0
 62
     7
370
    25
100
AcDbLine
 10
295.904971
 20
244.32461
 30
0.0
 11
287.737329
 21
252.492251
 31
0.0
  0
LINE
  5
483
330
47E
100
AcDbEntity
  8
LC-004-005-----0
 62
     7
370
    25
100
AcDbLine
 10
295.623271
 20
238.949456
 30
0.0
 11
282.080475
 21
252.492251
 31
0.0
  0
LINE
  5
484
330
47E
100
AcDbEntity
  8
LC-004-005-----0
 62
     7
370
    25
100
AcDbLine
 10
295.482421
 20
236.261879
 30
0.0
 11
280.092887
 21
251.651412
 31
0.0
  0
LINE
  5
485
330
47E
100
AcDbEntity
  8
LC-004-005-----0
 62
     7
370
    25
100
AcDbLine
 10
293.585329
 20
232.502116
 30
0.0
 11
279.948099
 21
246.139346
 31
0.0
  0
LINE
  5
486
330
47E
100
AcDbEntity
  8
LC-004-005-----0
 62
     7
370
    25
100
AcDbLine
 10
290.766767
 20
232.492251
 30
0.0
 11
280.104528
 21
243.15449
 31
0.0
  0
LINE
  5
487
330
47E
100
AcDbEntity
  8
LC-004-005-----0
 62
     7
370
    25
100
AcDbLine
 10
285.109912
 20
232.492251
 30
0.0
 11
280.417388
 21
237.184776
 31
0.0
  0
LINE
  5
488
330
47E
100
AcDbEntity
  8
LC-004-005-----0
 62
     7
370
    25
100
AcDbLine
 10
282.258428
 20
232.515308
 30
0.0
 11
280.584299
 21
234.189438
 31
0.0
  0
ENDBLK
  5
480
330
47E
100
AcDbEntity
  8
0
100
AcDbBlockEnd
  0
BLOCK
  5
48B
330
48A
100
AcDbEntity
  8
0
100
AcDbBlockBegin
  2
*X1212
 70
     1
 71
     0
 10
0.0
 20
0.0
 30
0.0
  3
*X1212
  1

  4
*X12
  0
LINE
  5
48D
330
48A
100
AcDbEntity
  8
LC-004-005-----0
 62
     7
370
    25
100
AcDbLine
 10
172.418706
 20
163.933424
 30
0.0
 11
173.559988
 21
165.074707
 31
0.0
  0
LINE
  5
48E
330
48A
100
AcDbEntity
  8
LC-004-005-----0
 62
     7
370
    25
100
AcDbLine
 10
169.685717
 20
164.028862
 30
0.0
 11
171.61941
 21
165.962555
 31
0.0
  0
LINE
  5
48F
330
48A
100
AcDbEntity
  8
LC-004-005-----0
 62
     7
370
    25
100
AcDbLine
 10
166.952728
 20
164.1243
 30
0.0
 11
168.886421
 21
166.057994
 31
0.0
  0
LINE
  5
490
330
48A
100
AcDbEntity
  8
LC-004-005-----0
 62
     7
370
    25
100
AcDbLine
 10
164.219739
 20
164.219739
 30
0.0
 11
166.153432
 21
166.153432
 31
0.0
  0
LINE
  5
491
330
48A
100
AcDbEntity
  8
LC-004-005-----0
 62
     7
370
    25
100
AcDbLine
 10
161.48675
 20
164.315177
 30
0.0
 11
163.420443
 21
166.24887
 31
0.0
  0
LINE
  5
492
330
48A
100
AcDbEntity
  8
LC-004-005-----0
 62
     7
370
    25
100
AcDbLine
 10
158.75376
 20
164.410615
 30
0.0
 11
160.687453
 21
166.344308
 31
0.0
  0
LINE
  5
493
330
48A
100
AcDbEntity
  8
LC-004-005-----0
 62
     7
370
    25
100
AcDbLine
 10
156.020771
 20
164.506053
 30
0.0
 11
157.954464
 21
166.439746
 31
0.0
  0
LINE
  5
494
330
48A
100
AcDbEntity
  8
LC-004-005-----0
 62
     7
370
    25
100
AcDbLine
 10
153.287782
 20
164.601491
 30
0.0
 11
155.221475
 21
166.535184
 31
0.0
  0
LINE
  5
495
330
48A
100
AcDbEntity
  8
LC-004-005-----0
 62
     7
370
    25
100
AcDbLine
 10
150.554793
 20
164.696929
 30
0.0
 11
152.488486
 21
166.630622
 31
0.0
  0
LINE
  5
496
330
48A
100
AcDbEntity
  8
LC-004-005-----0
 62
     7
370
    25
100
AcDbLine
 10
147.821804
 20
164.792367
 30
0.0
 11
149.755497
 21
166.72606
 31
0.0
  0
LINE
  5
497
330
48A
100
AcDbEntity
  8
LC-004-005-----0
 62
     7
370
    25
100
AcDbLine
 10
145.088815
 20
164.887805
 30
0.0
 11
147.022508
 21
166.821498
 31
0.0
  0
LINE
  5
498
330
48A
100
AcDbEntity
  8
LC-004-005-----0
 62
     7
370
    25
100
AcDbLine
 10
142.355826
 20
164.983243
 30
0.0
 11
144.289519
 21
166.916936
 31
0.0
  0
LINE
  5
499
330
48A
100
AcDbEntity
  8
LC-004-005-----0
 62
     7
370
    25
100
AcDbLine
 10
139.622837
 20
165.078681
 30
0.0
 11
141.55653
 21
167.012374
 31
0.0
  0
LINE
  5
49A
330
48A
100
AcDbEntity
  8
LC-004-005-----0
 62
     7
370
    25
100
AcDbLine
 10
136.889848
 20
165.174119
 30
0.0
 11
138.823541
 21
167.107812
 31
0.0
  0
LINE
  5
49B
330
48A
100
AcDbEntity
  8
LC-004-005-----0
 62
     7
370
    25
100
AcDbLine
 10
134.156859
 20
165.269557
 30
0.0
 11
136.090552
 21
167.20325
 31
0.0
  0
LINE
  5
49C
330
48A
100
AcDbEntity
  8
LC-004-005-----0
 62
     7
370
    25
100
AcDbLine
 10
131.42387
 20
165.364996
 30
0.0
 11
133.357563
 21
167.298689
 31
0.0
  0
LINE
  5
49D
330
48A
100
AcDbEntity
  8
LC-004-005-----0
 62
     7
370
    25
100
AcDbLine
 10
128.690881
 20
165.460434
 30
0.0
 11
130.624574
 21
167.394127
 31
0.0
  0
LINE
  5
49E
330
48A
100
AcDbEntity
  8
LC-004-005-----0
 62
     7
370
    25
100
AcDbLine
 10
125.957892
 20
165.555872
 30
0.0
 11
127.891585
 21
167.489565
 31
0.0
  0
LINE
  5
49F
330
48A
100
AcDbEntity
  8
LC-004-005-----0
 62
     7
370
    25
100
AcDbLine
 10
123.475743
 20
165.90215
 30
0.0
 11
125.186845
 21
167.613251
 31
0.0
  0
LINE
  5
4A0
330
48A
100
AcDbEntity
  8
LC-004-005-----0
 62
     7
370
    25
100
AcDbLine
 10
121.408532
 20
166.663366
 30
0.0
 11
122.92494
 21
168.179774
 31
0.0
  0
LINE
  5
4A1
330
48A
100
AcDbEntity
  8
LC-004-005-----0
 62
     7
370
    25
100
AcDbLine
 10
119.65037
 20
167.733631
 30
0.0
 11
121.082954
 21
169.166215
 31
0.0
  0
LINE
  5
4A2
330
48A
100
AcDbEntity
  8
LC-004-005-----0
 62
     7
370
    25
100
AcDbLine
 10
118.16012
 20
169.071809
 30
0.0
 11
119.575547
 21
170.487235
 31
0.0
  0
LINE
  5
4A3
330
48A
100
AcDbEntity
  8
LC-004-005-----0
 62
     7
370
    25
100
AcDbLine
 10
116.929727
 20
170.669842
 30
0.0
 11
118.387444
 21
172.127559
 31
0.0
  0
LINE
  5
4A4
330
48A
100
AcDbEntity
  8
LC-004-005-----0
 62
     7
370
    25
100
AcDbLine
 10
115.979272
 20
172.547815
 30
0.0
 11
117.557555
 21
174.126098
 31
0.0
  0
LINE
  5
4A5
330
48A
100
AcDbEntity
  8
LC-004-005-----0
 62
     7
370
    25
100
AcDbLine
 10
115.370084
 20
174.767054
 30
0.0
 11
117.224088
 21
176.621057
 31
0.0
  0
LINE
  5
4A6
330
48A
100
AcDbEntity
  8
LC-004-005-----0
 62
     7
370
    25
100
AcDbLine
 10
114.81092
 20
177.036317
 30
0.0
 11
116.592171
 21
178.817568
 31
0.0
  0
LINE
  5
4A7
330
48A
100
AcDbEntity
  8
LC-004-005-----0
 62
     7
370
    25
100
AcDbLine
 10
113.396706
 20
178.45053
 30
0.0
 11
115.177958
 21
180.231782
 31
0.0
  0
LINE
  5
4A8
330
48A
100
AcDbEntity
  8
LC-004-005-----0
 62
     7
370
    25
100
AcDbLine
 10
111.982493
 20
179.864744
 30
0.0
 11
114.722235
 21
182.604486
 31
0.0
  0
LINE
  5
4A9
330
48A
100
AcDbEntity
  8
LC-004-005-----0
 62
     7
370
    25
100
AcDbLine
 10
111.7255
 20
182.436178
 30
0.0
 11
114.494687
 21
185.205365
 31
0.0
  0
LINE
  5
4AA
330
48A
100
AcDbEntity
  8
LC-004-005-----0
 62
     7
370
    25
100
AcDbLine
 10
111.497953
 20
185.037058
 30
0.0
 11
114.26714
 21
187.806245
 31
0.0
  0
LINE
  5
4AB
330
48A
100
AcDbEntity
  8
LC-004-005-----0
 62
     7
370
    25
100
AcDbLine
 10
111.270405
 20
187.637938
 30
0.0
 11
114.039592
 21
190.407125
 31
0.0
  0
LINE
  5
4AC
330
48A
100
AcDbEntity
  8
LC-004-005-----0
 62
     7
370
    25
100
AcDbLine
 10
111.042858
 20
190.238817
 30
0.0
 11
113.812045
 21
193.008004
 31
0.0
  0
LINE
  5
4AD
330
48A
100
AcDbEntity
  8
LC-004-005-----0
 62
     7
370
    25
100
AcDbLine
 10
110.81531
 20
192.839697
 30
0.0
 11
113.584497
 21
195.608884
 31
0.0
  0
LINE
  5
4AE
330
48A
100
AcDbEntity
  8
LC-004-005-----0
 62
     7
370
    25
100
AcDbLine
 10
110.587763
 20
195.440576
 30
0.0
 11
113.35695
 21
198.209764
 31
0.0
  0
LINE
  5
4AF
330
48A
100
AcDbEntity
  8
LC-004-005-----0
 62
     7
370
    25
100
AcDbLine
 10
110.360215
 20
198.041456
 30
0.0
 11
113.129402
 21
200.810643
 31
0.0
  0
LINE
  5
4B0
330
48A
100
AcDbEntity
  8
LC-004-005-----0
 62
     7
370
    25
100
AcDbLine
 10
110.132668
 20
200.642336
 30
0.0
 11
112.901855
 21
203.411523
 31
0.0
  0
LINE
  5
4B1
330
48A
100
AcDbEntity
  8
LC-004-005-----0
 62
     7
370
    25
100
AcDbLine
 10
109.90512
 20
203.243215
 30
0.0
 11
112.674307
 21
206.012402
 31
0.0
  0
LINE
  5
4B2
330
48A
100
AcDbEntity
  8
LC-004-005-----0
 62
     7
370
    25
100
AcDbLine
 10
109.677573
 20
205.844095
 30
0.0
 11
112.44676
 21
208.613282
 31
0.0
  0
LINE
  5
4B3
330
48A
100
AcDbEntity
  8
LC-004-005-----0
 62
     7
370
    25
100
AcDbLine
 10
109.450025
 20
208.444975
 30
0.0
 11
112.219212
 21
211.214162
 31
0.0
  0
LINE
  5
4B4
330
48A
100
AcDbEntity
  8
LC-004-005-----0
 62
     7
370
    25
100
AcDbLine
 10
109.222478
 20
211.045854
 30
0.0
 11
111.991665
 21
213.815041
 31
0.0
  0
LINE
  5
4B5
330
48A
100
AcDbEntity
  8
LC-004-005-----0
 62
     7
370
    25
100
AcDbLine
 10
108.99493
 20
213.646734
 30
0.0
 11
111.67036
 21
216.322163
 31
0.0
  0
LINE
  5
4B6
330
48A
100
AcDbEntity
  8
LC-004-005-----0
 62
     7
370
    25
100
AcDbLine
 10
108.535422
 20
216.015653
 30
0.0
 11
110.672322
 21
218.152553
 31
0.0
  0
LINE
  5
4B7
330
48A
100
AcDbEntity
  8
LC-004-005-----0
 62
     7
370
    25
100
AcDbLine
 10
106.618073
 20
216.926731
 30
0.0
 11
109.077776
 21
219.386434
 31
0.0
  0
LINE
  5
4B8
330
48A
100
AcDbEntity
  8
LC-004-005-----0
 62
     7
370
    25
100
AcDbLine
 10
104.017193
 20
217.154278
 30
0.0
 11
106.78638
 21
219.923465
 31
0.0
  0
LINE
  5
4B9
330
48A
100
AcDbEntity
  8
LC-004-005-----0
 62
     7
370
    25
100
AcDbLine
 10
101.416313
 20
217.381826
 30
0.0
 11
104.1855
 21
220.151013
 31
0.0
  0
LINE
  5
4BA
330
48A
100
AcDbEntity
  8
LC-004-005-----0
 62
     7
370
    25
100
AcDbLine
 10
98.815434
 20
217.609373
 30
0.0
 11
101.584621
 21
220.37856
 31
0.0
  0
LINE
  5
4BB
330
48A
100
AcDbEntity
  8
LC-004-005-----0
 62
     7
370
    25
100
AcDbLine
 10
96.214554
 20
217.83692
 30
0.0
 11
98.983741
 21
220.606108
 31
0.0
  0
LINE
  5
4BC
330
48A
100
AcDbEntity
  8
LC-004-005-----0
 62
     7
370
    25
100
AcDbLine
 10
93.613674
 20
218.064468
 30
0.0
 11
96.382862
 21
220.833655
 31
0.0
  0
LINE
  5
4BD
330
48A
100
AcDbEntity
  8
LC-004-005-----0
 62
     7
370
    25
100
AcDbLine
 10
91.012795
 20
218.292015
 30
0.0
 11
93.781982
 21
221.061203
 31
0.0
  0
LINE
  5
4BE
330
48A
100
AcDbEntity
  8
LC-004-005-----0
 62
     7
370
    25
100
AcDbLine
 10
88.724088
 20
218.831736
 30
0.0
 11
91.181102
 21
221.28875
 31
0.0
  0
ENDBLK
  5
48C
330
48A
100
AcDbEntity
  8
0
100
AcDbBlockEnd
  0
BLOCK
  5
4C1
330
4C0
100
AcDbEntity
  8
0
100
AcDbBlockBegin
  2
*X1313
 70
     1
 71
     0
 10
0.0
 20
0.0
 30
0.0
  3
*X1313
  1

  4
*X13
  0
LINE
  5
4C3
330
4C0
100
AcDbEntity
  8
LC-004-005-----0
 62
     7
370
    25
100
AcDbLine
 10
192.043585
 20
163.759313
 30
0.0
 11
193.613072
 21
165.3288
 31
0.0
  0
LINE
  5
4C4
330
4C0
100
AcDbEntity
  8
LC-004-005-----0
 62
     7
370
    25
100
AcDbLine
 10
189.112813
 20
163.656969
 30
0.0
 11
191.186445
 21
165.7306
 31
0.0
  0
LINE
  5
4C5
330
4C0
100
AcDbEntity
  8
LC-004-005-----0
 62
     7
370
    25
100
AcDbLine
 10
186.182041
 20
163.554624
 30
0.0
 11
188.255673
 21
165.628256
 31
0.0
  0
LINE
  5
4C6
330
4C0
100
AcDbEntity
  8
LC-004-005-----0
 62
     7
370
    25
100
AcDbLine
 10
183.350662
 20
163.551672
 30
0.0
 11
185.324901
 21
165.525911
 31
0.0
  0
LINE
  5
4C7
330
4C0
100
AcDbEntity
  8
LC-004-005-----0
 62
     7
370
    25
100
AcDbLine
 10
180.617673
 20
163.64711
 30
0.0
 11
182.551366
 21
165.580803
 31
0.0
  0
LINE
  5
4C8
330
4C0
100
AcDbEntity
  8
LC-004-005-----0
 62
     7
370
    25
100
AcDbLine
 10
177.884684
 20
163.742548
 30
0.0
 11
179.818377
 21
165.676241
 31
0.0
  0
LINE
  5
4C9
330
4C0
100
AcDbEntity
  8
LC-004-005-----0
 62
     7
370
    25
100
AcDbLine
 10
175.90006
 20
164.586351
 30
0.0
 11
177.085388
 21
165.771679
 31
0.0
  0
ENDBLK
  5
4C2
330
4C0
100
AcDbEntity
  8
0
100
AcDbBlockEnd
  0
BLOCK
  5
4CC
330
4CB
100
AcDbEntity
  8
0
100
AcDbBlockBegin
  2
*X1414
 70
     1
 71
     0
 10
0.0
 20
0.0
 30
0.0
  3
*X1414
  1

  4
*X14
  0
LINE
  5
4CE
330
4CB
100
AcDbEntity
  8
LC-004-005-----0
 62
     7
370
    25
100
AcDbLine
 10
124.329002
 20
217.91068
 30
0.0
 11
121.008561
 21
221.231121
 31
0.0
  0
LINE
  5
4CF
330
4CB
100
AcDbEntity
  8
LC-004-005-----0
 62
     7
370
    25
100
AcDbLine
 10
122.374663
 20
217.036592
 30
0.0
 11
117.790673
 21
221.620582
 31
0.0
  0
LINE
  5
4D0
330
4CB
100
AcDbEntity
  8
LC-004-005-----0
 62
     7
370
    25
100
AcDbLine
 10
119.156775
 20
217.426053
 30
0.0
 11
114.572785
 21
222.010043
 31
0.0
  0
LINE
  5
4D1
330
4CB
100
AcDbEntity
  8
LC-004-005-----0
 62
     7
370
    25
100
AcDbLine
 10
115.938887
 20
217.815514
 30
0.0
 11
111.424158
 21
222.330243
 31
0.0
  0
LINE
  5
4D2
330
4CB
100
AcDbEntity
  8
LC-004-005-----0
 62
     7
370
    25
100
AcDbLine
 10
112.720999
 20
218.204975
 30
0.0
 11
110.527887
 21
220.398086
 31
0.0
  0
ENDBLK
  5
4CD
330
4CB
100
AcDbEntity
  8
0
100
AcDbBlockEnd
  0
BLOCK
  5
4D5
330
4D4
100
AcDbEntity
  8
0
100
AcDbBlockBegin
  2
*X1515
 70
     1
 71
     0
 10
0.0
 20
0.0
 30
0.0
  3
*X1515
  1

  4
*X15
  0
LINE
  5
4D7
330
4D4
100
AcDbEntity
  8
LC-004-005-----0
 62
     7
370
    25
100
AcDbLine
 10
102.224088
 20
169.304916
 30
0.0
 11
101.036753
 21
170.492251
 31
0.0
  0
LINE
  5
4D8
330
4D4
100
AcDbEntity
  8
LC-004-005-----0
 62
     7
370
    25
100
AcDbLine
 10
105.974088
 20
162.726489
 30
0.0
 11
98.208325
 21
170.492251
 31
0.0
  0
LINE
  5
4D9
330
4D4
100
AcDbEntity
  8
LC-004-005-----0
 62
     7
370
    25
100
AcDbLine
 10
105.974088
 20
159.898062
 30
0.0
 11
103.924088
 21
161.948062
 31
0.0
  0
LINE
  5
4DA
330
4D4
100
AcDbEntity
  8
LC-004-005-----0
 62
     7
370
    25
100
AcDbLine
 10
102.985967
 20
162.886183
 30
0.0
 11
100.724088
 21
165.148062
 31
0.0
  0
LINE
  5
4DB
330
4D4
100
AcDbEntity
  8
LC-004-005-----0
 62
     7
370
    25
100
AcDbLine
 10
98.379898
 20
167.492251
 30
0.0
 11
96.724088
 21
169.148062
 31
0.0
  0
LINE
  5
4DC
330
4D4
100
AcDbEntity
  8
LC-004-005-----0
 62
     7
370
    25
100
AcDbLine
 10
105.974088
 20
157.069635
 30
0.0
 11
103.924088
 21
159.119635
 31
0.0
  0
LINE
  5
4DD
330
4D4
100
AcDbEntity
  8
LC-004-005-----0
 62
     7
370
    25
100
AcDbLine
 10
204.721956
 20
55.49334
 30
0.0
 11
204.281042
 21
55.934253
 31
0.0
  0
LINE
  5
4DE
330
4D4
100
AcDbEntity
  8
LC-004-005-----0
 62
     7
370
    25
100
AcDbLine
 10
106.196617
 20
154.018679
 30
0.0
 11
102.300615
 21
157.914681
 31
0.0
  0
LINE
  5
4DF
330
4D4
100
AcDbEntity
  8
LC-004-005-----0
 62
     7
370
    25
100
AcDbLine
 10
203.952873
 20
53.433996
 30
0.0
 11
200.417339
 21
56.969529
 31
0.0
  0
LINE
  5
4E0
330
4D4
100
AcDbEntity
  8
LC-004-005-----0
 62
     7
370
    25
100
AcDbLine
 10
106.467797
 20
150.919071
 30
0.0
 11
103.71764
 21
153.669228
 31
0.0
  0
LINE
  5
4E1
330
4D4
100
AcDbEntity
  8
LC-004-005-----0
 62
     7
370
    25
100
AcDbLine
 10
102.554782
 20
154.832086
 30
0.0
 11
100.724088
 21
156.662781
 31
0.0
  0
LINE
  5
4E2
330
4D4
100
AcDbEntity
  8
LC-004-005-----0
 62
     7
370
    25
100
AcDbLine
 10
200.08917
 20
54.469272
 30
0.0
 11
196.553636
 21
58.004806
 31
0.0
  0
LINE
  5
4E3
330
4D4
100
AcDbEntity
  8
LC-004-005-----0
 62
     7
370
    25
100
AcDbLine
 10
106.738978
 20
147.819464
 30
0.0
 11
103.988821
 21
150.569621
 31
0.0
  0
LINE
  5
4E4
330
4D4
100
AcDbEntity
  8
LC-004-005-----0
 62
     7
370
    25
100
AcDbLine
 10
196.225466
 20
55.504548
 30
0.0
 11
192.689932
 21
59.040082
 31
0.0
  0
LINE
  5
4E5
330
4D4
100
AcDbEntity
  8
LC-004-005-----0
 62
     7
370
    25
100
AcDbLine
 10
107.010158
 20
144.719856
 30
0.0
 11
104.260001
 21
147.470013
 31
0.0
  0
LINE
  5
4E6
330
4D4
100
AcDbEntity
  8
LC-004-005-----0
 62
     7
370
    25
100
AcDbLine
 10
192.361763
 20
56.539824
 30
0.0
 11
188.826229
 21
60.075358
 31
0.0
  0
LINE
  5
4E7
330
4D4
100
AcDbEntity
  8
LC-004-005-----0
 62
     7
370
    25
100
AcDbLine
 10
107.281339
 20
141.620248
 30
0.0
 11
104.531182
 21
144.370405
 31
0.0
  0
LINE
  5
4E8
330
4D4
100
AcDbEntity
  8
LC-004-005-----0
 62
     7
370
    25
100
AcDbLine
 10
188.49806
 20
57.5751
 30
0.0
 11
184.962526
 21
61.110634
 31
0.0
  0
LINE
  5
4E9
330
4D4
100
AcDbEntity
  8
LC-004-005-----0
 62
     7
370
    25
100
AcDbLine
 10
107.552519
 20
138.520641
 30
0.0
 11
104.802362
 21
141.270798
 31
0.0
  0
LINE
  5
4EA
330
4D4
100
AcDbEntity
  8
LC-004-005-----0
 62
     7
370
    25
100
AcDbLine
 10
184.634356
 20
58.610376
 30
0.0
 11
181.098822
 21
62.14591
 31
0.0
  0
LINE
  5
4EB
330
4D4
100
AcDbEntity
  8
LC-004-005-----0
 62
     7
370
    25
100
AcDbLine
 10
107.8237
 20
135.421033
 30
0.0
 11
105.073543
 21
138.17119
 31
0.0
  0
LINE
  5
4EC
330
4D4
100
AcDbEntity
  8
LC-004-005-----0
 62
     7
370
    25
100
AcDbLine
 10
180.770653
 20
59.645653
 30
0.0
 11
177.235119
 21
63.181187
 31
0.0
  0
LINE
  5
4ED
330
4D4
100
AcDbEntity
  8
LC-004-005-----0
 62
     7
370
    25
100
AcDbLine
 10
108.09488
 20
132.321425
 30
0.0
 11
105.344723
 21
135.071582
 31
0.0
  0
LINE
  5
4EE
330
4D4
100
AcDbEntity
  8
LC-004-005-----0
 62
     7
370
    25
100
AcDbLine
 10
176.90695
 20
60.680929
 30
0.0
 11
173.371416
 21
64.216463
 31
0.0
  0
LINE
  5
4EF
330
4D4
100
AcDbEntity
  8
LC-004-005-----0
 62
     7
370
    25
100
AcDbLine
 10
108.366061
 20
129.221818
 30
0.0
 11
105.615904
 21
131.971975
 31
0.0
  0
LINE
  5
4F0
330
4D4
100
AcDbEntity
  8
LC-004-005-----0
 62
     7
370
    25
100
AcDbLine
 10
173.043246
 20
61.716205
 30
0.0
 11
169.507712
 21
65.251739
 31
0.0
  0
LINE
  5
4F1
330
4D4
100
AcDbEntity
  8
LC-004-005-----0
 62
     7
370
    25
100
AcDbLine
 10
108.637241
 20
126.12221
 30
0.0
 11
105.887084
 21
128.872367
 31
0.0
  0
LINE
  5
4F2
330
4D4
100
AcDbEntity
  8
LC-004-005-----0
 62
     7
370
    25
100
AcDbLine
 10
169.179543
 20
62.751481
 30
0.0
 11
165.644009
 21
66.287015
 31
0.0
  0
LINE
  5
4F3
330
4D4
100
AcDbEntity
  8
LC-004-005-----0
 62
     7
370
    25
100
AcDbLine
 10
108.908422
 20
123.022602
 30
0.0
 11
106.158265
 21
125.772759
 31
0.0
  0
LINE
  5
4F4
330
4D4
100
AcDbEntity
  8
LC-004-005-----0
 62
     7
370
    25
100
AcDbLine
 10
165.31584
 20
63.786757
 30
0.0
 11
161.780306
 21
67.322291
 31
0.0
  0
LINE
  5
4F5
330
4D4
100
AcDbEntity
  8
LC-004-005-----0
 62
     7
370
    25
100
AcDbLine
 10
109.179602
 20
119.922995
 30
0.0
 11
106.429445
 21
122.673152
 31
0.0
  0
LINE
  5
4F6
330
4D4
100
AcDbEntity
  8
LC-004-005-----0
 62
     7
370
    25
100
AcDbLine
 10
161.452136
 20
64.822034
 30
0.0
 11
157.916603
 21
68.357567
 31
0.0
  0
LINE
  5
4F7
330
4D4
100
AcDbEntity
  8
LC-004-005-----0
 62
     7
370
    25
100
AcDbLine
 10
109.450783
 20
116.823387
 30
0.0
 11
106.700626
 21
119.573544
 31
0.0
  0
LINE
  5
4F8
330
4D4
100
AcDbEntity
  8
LC-004-005-----0
 62
     7
370
    25
100
AcDbLine
 10
157.588433
 20
65.85731
 30
0.0
 11
154.052899
 21
69.392844
 31
0.0
  0
LINE
  5
4F9
330
4D4
100
AcDbEntity
  8
LC-004-005-----0
 62
     7
370
    25
100
AcDbLine
 10
109.721964
 20
113.723779
 30
0.0
 11
106.971806
 21
116.473937
 31
0.0
  0
LINE
  5
4FA
330
4D4
100
AcDbEntity
  8
LC-004-005-----0
 62
     7
370
    25
100
AcDbLine
 10
153.72473
 20
66.892586
 30
0.0
 11
150.189196
 21
70.42812
 31
0.0
  0
LINE
  5
4FB
330
4D4
100
AcDbEntity
  8
LC-004-005-----0
 62
     7
370
    25
100
AcDbLine
 10
109.993144
 20
110.624172
 30
0.0
 11
107.242987
 21
113.374329
 31
0.0
  0
LINE
  5
4FC
330
4D4
100
AcDbEntity
  8
LC-004-005-----0
 62
     7
370
    25
100
AcDbLine
 10
149.861027
 20
67.927862
 30
0.0
 11
146.325493
 21
71.463396
 31
0.0
  0
LINE
  5
4FD
330
4D4
100
AcDbEntity
  8
LC-004-005-----0
 62
     7
370
    25
100
AcDbLine
 10
110.264325
 20
107.524564
 30
0.0
 11
107.514167
 21
110.274721
 31
0.0
  0
LINE
  5
4FE
330
4D4
100
AcDbEntity
  8
LC-004-005-----0
 62
     7
370
    25
100
AcDbLine
 10
145.997323
 20
68.963138
 30
0.0
 11
142.461789
 21
72.498672
 31
0.0
  0
LINE
  5
4FF
330
4D4
100
AcDbEntity
  8
LC-004-005-----0
 62
     7
370
    25
100
AcDbLine
 10
110.535505
 20
104.424956
 30
0.0
 11
107.785348
 21
107.175114
 31
0.0
  0
LINE
  5
500
330
4D4
100
AcDbEntity
  8
LC-004-005-----0
 62
     7
370
    25
100
AcDbLine
 10
142.13362
 20
69.998414
 30
0.0
 11
138.598086
 21
73.533948
 31
0.0
  0
LINE
  5
501
330
4D4
100
AcDbEntity
  8
LC-004-005-----0
 62
     7
370
    25
100
AcDbLine
 10
110.806686
 20
101.325349
 30
0.0
 11
108.056528
 21
104.075506
 31
0.0
  0
LINE
  5
502
330
4D4
100
AcDbEntity
  8
LC-004-005-----0
 62
     7
370
    25
100
AcDbLine
 10
138.269917
 20
71.033691
 30
0.0
 11
134.734383
 21
74.569225
 31
0.0
  0
LINE
  5
503
330
4D4
100
AcDbEntity
  8
LC-004-005-----0
 62
     7
370
    25
100
AcDbLine
 10
111.077866
 20
98.225741
 30
0.0
 11
108.327709
 21
100.975898
 31
0.0
  0
LINE
  5
504
330
4D4
100
AcDbEntity
  8
LC-004-005-----0
 62
     7
370
    25
100
AcDbLine
 10
134.406213
 20
72.068967
 30
0.0
 11
130.870679
 21
75.604501
 31
0.0
  0
LINE
  5
505
330
4D4
100
AcDbEntity
  8
LC-004-005-----0
 62
     7
370
    25
100
AcDbLine
 10
111.349047
 20
95.126133
 30
0.0
 11
108.59889
 21
97.876291
 31
0.0
  0
LINE
  5
506
330
4D4
100
AcDbEntity
  8
LC-004-005-----0
 62
     7
370
    25
100
AcDbLine
 10
130.54251
 20
73.104243
 30
0.0
 11
127.006976
 21
76.639777
 31
0.0
  0
LINE
  5
507
330
4D4
100
AcDbEntity
  8
LC-004-005-----0
 62
     7
370
    25
100
AcDbLine
 10
111.620227
 20
92.026526
 30
0.0
 11
108.87007
 21
94.776683
 31
0.0
  0
LINE
  5
508
330
4D4
100
AcDbEntity
  8
LC-004-005-----0
 62
     7
370
    25
100
AcDbLine
 10
126.678807
 20
74.139519
 30
0.0
 11
123.143273
 21
77.675053
 31
0.0
  0
LINE
  5
509
330
4D4
100
AcDbEntity
  8
LC-004-005-----0
 62
     7
370
    25
100
AcDbLine
 10
111.891408
 20
88.926918
 30
0.0
 11
109.141251
 21
91.677075
 31
0.0
  0
LINE
  5
50A
330
4D4
100
AcDbEntity
  8
LC-004-005-----0
 62
     7
370
    25
100
AcDbLine
 10
122.815103
 20
75.174795
 30
0.0
 11
119.278577
 21
78.711322
 31
0.0
  0
LINE
  5
50B
330
4D4
100
AcDbEntity
  8
LC-004-005-----0
 62
     7
370
    25
100
AcDbLine
 10
112.353104
 20
85.636795
 30
0.0
 11
109.412431
 21
88.577468
 31
0.0
  0
LINE
  5
50C
330
4D4
100
AcDbEntity
  8
LC-004-005-----0
 62
     7
370
    25
100
AcDbLine
 10
118.9514
 20
76.210071
 30
0.0
 11
109.854344
 21
85.307127
 31
0.0
  0
ENDBLK
  5
4D6
330
4D4
100
AcDbEntity
  8
0
100
AcDbBlockEnd
  0
BLOCK
  5
50F
330
50E
100
AcDbEntity
  8
0
100
AcDbBlockBegin
  2
*X1616
 70
     1
 71
     0
 10
0.0
 20
0.0
 30
0.0
  3
*X1616
  1

  4
*X16
  0
LINE
  5
511
330
50E
100
AcDbEntity
  8
LC-004-005-----0
 62
     7
370
    25
100
AcDbLine
 10
272.724088
 20
168.510544
 30
0.0
 11
270.74238
 21
170.492251
 31
0.0
  0
LINE
  5
512
330
50E
100
AcDbEntity
  8
LC-004-005-----0
 62
     7
370
    25
100
AcDbLine
 10
270.913953
 20
167.492251
 30
0.0
 11
267.913953
 21
170.492251
 31
0.0
  0
LINE
  5
513
330
50E
100
AcDbEntity
  8
LC-004-005-----0
 62
     7
370
    25
100
AcDbLine
 10
268.724088
 20
166.853689
 30
0.0
 11
267.224088
 21
168.353689
 31
0.0
  0
LINE
  5
514
330
50E
100
AcDbEntity
  8
LC-004-005-----0
 62
     7
370
    25
100
AcDbLine
 10
268.724088
 20
164.025262
 30
0.0
 11
266.611041
 21
166.138309
 31
0.0
  0
LINE
  5
515
330
50E
100
AcDbEntity
  8
LC-004-005-----0
 62
     7
370
    25
100
AcDbLine
 10
266.91375
 20
163.007173
 30
0.0
 11
264.81789
 21
165.103033
 31
0.0
  0
LINE
  5
516
330
50E
100
AcDbEntity
  8
LC-004-005-----0
 62
     7
370
    25
100
AcDbLine
 10
265.524088
 20
161.568408
 30
0.0
 11
263.474088
 21
163.618408
 31
0.0
  0
LINE
  5
517
330
50E
100
AcDbEntity
  8
LC-004-005-----0
 62
     7
370
    25
100
AcDbLine
 10
268.724088
 20
155.539981
 30
0.0
 11
266.057237
 21
158.206832
 31
0.0
  0
LINE
  5
518
330
50E
100
AcDbEntity
  8
LC-004-005-----0
 62
     7
370
    25
100
AcDbLine
 10
265.524088
 20
158.739981
 30
0.0
 11
263.474088
 21
160.789981
 31
0.0
  0
LINE
  5
519
330
50E
100
AcDbEntity
  8
LC-004-005-----0
 62
     7
370
    25
100
AcDbLine
 10
266.626873
 20
154.808769
 30
0.0
 11
263.474088
 21
157.961554
 31
0.0
  0
LINE
  5
51A
330
50E
100
AcDbEntity
  8
LC-004-005-----0
 62
     7
370
    25
100
AcDbLine
 10
264.179515
 20
154.4277
 30
0.0
 11
261.871859
 21
156.735356
 31
0.0
  0
LINE
  5
51B
330
50E
100
AcDbEntity
  8
LC-004-005-----0
 62
     7
370
    25
100
AcDbLine
 10
261.578635
 20
154.200152
 30
0.0
 11
259.270979
 21
156.507808
 31
0.0
  0
LINE
  5
51C
330
50E
100
AcDbEntity
  8
LC-004-005-----0
 62
     7
370
    25
100
AcDbLine
 10
258.977755
 20
153.972605
 30
0.0
 11
256.6701
 21
156.280261
 31
0.0
  0
LINE
  5
51D
330
50E
100
AcDbEntity
  8
LC-004-005-----0
 62
     7
370
    25
100
AcDbLine
 10
256.376876
 20
153.745057
 30
0.0
 11
254.06922
 21
156.052713
 31
0.0
  0
LINE
  5
51E
330
50E
100
AcDbEntity
  8
LC-004-005-----0
 62
     7
370
    25
100
AcDbLine
 10
253.775996
 20
153.51751
 30
0.0
 11
251.46834
 21
155.825166
 31
0.0
  0
LINE
  5
51F
330
50E
100
AcDbEntity
  8
LC-004-005-----0
 62
     7
370
    25
100
AcDbLine
 10
251.175117
 20
153.289962
 30
0.0
 11
248.867461
 21
155.597618
 31
0.0
  0
LINE
  5
520
330
50E
100
AcDbEntity
  8
LC-004-005-----0
 62
     7
370
    25
100
AcDbLine
 10
248.574237
 20
153.062415
 30
0.0
 11
246.266581
 21
155.370071
 31
0.0
  0
LINE
  5
521
330
50E
100
AcDbEntity
  8
LC-004-005-----0
 62
     7
370
    25
100
AcDbLine
 10
245.973357
 20
152.834867
 30
0.0
 11
243.665701
 21
155.142523
 31
0.0
  0
LINE
  5
522
330
50E
100
AcDbEntity
  8
LC-004-005-----0
 62
     7
370
    25
100
AcDbLine
 10
243.372478
 20
152.60732
 30
0.0
 11
241.064822
 21
154.914976
 31
0.0
  0
LINE
  5
523
330
50E
100
AcDbEntity
  8
LC-004-005-----0
 62
     7
370
    25
100
AcDbLine
 10
240.771598
 20
152.379772
 30
0.0
 11
238.463942
 21
154.687428
 31
0.0
  0
LINE
  5
524
330
50E
100
AcDbEntity
  8
LC-004-005-----0
 62
     7
370
    25
100
AcDbLine
 10
238.170718
 20
152.152225
 30
0.0
 11
235.863062
 21
154.459881
 31
0.0
  0
LINE
  5
525
330
50E
100
AcDbEntity
  8
LC-004-005-----0
 62
     7
370
    25
100
AcDbLine
 10
235.569839
 20
151.924677
 30
0.0
 11
233.262183
 21
154.232333
 31
0.0
  0
LINE
  5
526
330
50E
100
AcDbEntity
  8
LC-004-005-----0
 62
     7
370
    25
100
AcDbLine
 10
232.968959
 20
151.69713
 30
0.0
 11
230.661303
 21
154.004786
 31
0.0
  0
LINE
  5
527
330
50E
100
AcDbEntity
  8
LC-004-005-----0
 62
     7
370
    25
100
AcDbLine
 10
230.368079
 20
151.469582
 30
0.0
 11
228.060424
 21
153.777238
 31
0.0
  0
LINE
  5
528
330
50E
100
AcDbEntity
  8
LC-004-005-----0
 62
     7
370
    25
100
AcDbLine
 10
227.7672
 20
151.242035
 30
0.0
 11
225.459544
 21
153.549691
 31
0.0
  0
LINE
  5
529
330
50E
100
AcDbEntity
  8
LC-004-005-----0
 62
     7
370
    25
100
AcDbLine
 10
225.16632
 20
151.014487
 30
0.0
 11
222.858664
 21
153.322143
 31
0.0
  0
LINE
  5
52A
330
50E
100
AcDbEntity
  8
LC-004-005-----0
 62
     7
370
    25
100
AcDbLine
 10
222.56544
 20
150.78694
 30
0.0
 11
220.257785
 21
153.094596
 31
0.0
  0
LINE
  5
52B
330
50E
100
AcDbEntity
  8
LC-004-005-----0
 62
     7
370
    25
100
AcDbLine
 10
219.964561
 20
150.559393
 30
0.0
 11
217.656905
 21
152.867048
 31
0.0
  0
LINE
  5
52C
330
50E
100
AcDbEntity
  8
LC-004-005-----0
 62
     7
370
    25
100
AcDbLine
 10
217.363681
 20
150.331845
 30
0.0
 11
215.056025
 21
152.639501
 31
0.0
  0
LINE
  5
52D
330
50E
100
AcDbEntity
  8
LC-004-005-----0
 62
     7
370
    25
100
AcDbLine
 10
214.762802
 20
150.104298
 30
0.0
 11
212.455146
 21
152.411953
 31
0.0
  0
LINE
  5
52E
330
50E
100
AcDbEntity
  8
LC-004-005-----0
 62
     7
370
    25
100
AcDbLine
 10
212.161922
 20
149.87675
 30
0.0
 11
209.854266
 21
152.184406
 31
0.0
  0
LINE
  5
52F
330
50E
100
AcDbEntity
  8
LC-004-005-----0
 62
     7
370
    25
100
AcDbLine
 10
209.561042
 20
149.649203
 30
0.0
 11
207.253386
 21
151.956858
 31
0.0
  0
LINE
  5
530
330
50E
100
AcDbEntity
  8
LC-004-005-----0
 62
     7
370
    25
100
AcDbLine
 10
206.960163
 20
149.421655
 30
0.0
 11
204.652507
 21
151.729311
 31
0.0
  0
LINE
  5
531
330
50E
100
AcDbEntity
  8
LC-004-005-----0
 62
     7
370
    25
100
AcDbLine
 10
204.359283
 20
149.194108
 30
0.0
 11
202.051627
 21
151.501763
 31
0.0
  0
LINE
  5
532
330
50E
100
AcDbEntity
  8
LC-004-005-----0
 62
     7
370
    25
100
AcDbLine
 10
201.758403
 20
148.96656
 30
0.0
 11
199.450747
 21
151.274216
 31
0.0
  0
LINE
  5
533
330
50E
100
AcDbEntity
  8
LC-004-005-----0
 62
     7
370
    25
100
AcDbLine
 10
199.157524
 20
148.739013
 30
0.0
 11
196.849868
 21
151.046669
 31
0.0
  0
LINE
  5
534
330
50E
100
AcDbEntity
  8
LC-004-005-----0
 62
     7
370
    25
100
AcDbLine
 10
196.556644
 20
148.511465
 30
0.0
 11
194.248988
 21
150.819121
 31
0.0
  0
LINE
  5
535
330
50E
100
AcDbEntity
  8
LC-004-005-----0
 62
     7
370
    25
100
AcDbLine
 10
193.955764
 20
148.283918
 30
0.0
 11
191.648109
 21
150.591574
 31
0.0
  0
LINE
  5
536
330
50E
100
AcDbEntity
  8
LC-004-005-----0
 62
     7
370
    25
100
AcDbLine
 10
191.354885
 20
148.05637
 30
0.0
 11
189.047229
 21
150.364026
 31
0.0
  0
LINE
  5
537
330
50E
100
AcDbEntity
  8
LC-004-005-----0
 62
     7
370
    25
100
AcDbLine
 10
188.754005
 20
147.828823
 30
0.0
 11
186.446349
 21
150.136479
 31
0.0
  0
LINE
  5
538
330
50E
100
AcDbEntity
  8
LC-004-005-----0
 62
     7
370
    25
100
AcDbLine
 10
186.153125
 20
147.601275
 30
0.0
 11
183.84547
 21
149.908931
 31
0.0
  0
LINE
  5
539
330
50E
100
AcDbEntity
  8
LC-004-005-----0
 62
     7
370
    25
100
AcDbLine
 10
183.552246
 20
147.373728
 30
0.0
 11
181.340831
 21
149.585143
 31
0.0
  0
LINE
  5
53A
330
50E
100
AcDbEntity
  8
LC-004-005-----0
 62
     7
370
    25
100
AcDbLine
 10
181.200442
 20
146.897105
 30
0.0
 11
179.350701
 21
148.746845
 31
0.0
  0
LINE
  5
53B
330
50E
100
AcDbEntity
  8
LC-004-005-----0
 62
     7
370
    25
100
AcDbLine
 10
179.552241
 20
145.716878
 30
0.0
 11
177.783523
 21
147.485596
 31
0.0
  0
LINE
  5
53C
330
50E
100
AcDbEntity
  8
LC-004-005-----0
 62
     7
370
    25
100
AcDbLine
 10
178.496076
 20
143.944616
 30
0.0
 11
176.600868
 21
145.839824
 31
0.0
  0
LINE
  5
53D
330
50E
100
AcDbEntity
  8
LC-004-005-----0
 62
     7
370
    25
100
AcDbLine
 10
177.888972
 20
141.723293
 30
0.0
 11
175.84773
 21
143.764535
 31
0.0
  0
LINE
  5
53E
330
50E
100
AcDbEntity
  8
LC-004-005-----0
 62
     7
370
    25
100
AcDbLine
 10
183.974373
 20
132.809465
 30
0.0
 11
180.438839
 21
136.344999
 31
0.0
  0
LINE
  5
53F
330
50E
100
AcDbEntity
  8
LC-004-005-----0
 62
     7
370
    25
100
AcDbLine
 10
177.291255
 20
139.492583
 30
0.0
 11
175.250013
 21
141.533825
 31
0.0
  0
LINE
  5
540
330
50E
100
AcDbEntity
  8
LC-004-005-----0
 62
     7
370
    25
100
AcDbLine
 10
180.110669
 20
133.844742
 30
0.0
 11
174.652296
 21
139.303114
 31
0.0
  0
LINE
  5
541
330
50E
100
AcDbEntity
  8
LC-004-005-----0
 62
     7
370
    25
100
AcDbLine
 10
176.246966
 20
134.880018
 30
0.0
 11
174.054579
 21
137.072404
 31
0.0
  0
ENDBLK
  5
510
330
50E
100
AcDbEntity
  8
0
100
AcDbBlockEnd
  0
BLOCK
  5
545
330
544
100
AcDbEntity
  8
0
100
AcDbBlockBegin
  2
*X1717
 70
     1
 71
     0
 10
0.0
 20
0.0
 30
0.0
  3
*X1717
  1

  4
*X17
  0
LINE
  5
547
330
544
100
AcDbEntity
  8
LC-004-005-----0
 62
     7
370
    25
100
AcDbLine
 10
249.64912
 20
167.624733
 30
0.0
 11
252.152636
 21
170.128249
 31
0.0
  0
LINE
  5
548
330
544
100
AcDbEntity
  8
LC-004-005-----0
 62
     7
370
    25
100
AcDbLine
 10
244.873624
 20
165.677665
 30
0.0
 11
248.355232
 21
169.159273
 31
0.0
  0
LINE
  5
549
330
544
100
AcDbEntity
  8
LC-004-005-----0
 62
     7
370
    25
100
AcDbLine
 10
250.618096
 20
171.422137
 30
0.0
 11
254.099704
 21
174.903745
 31
0.0
  0
LINE
  5
54A
330
544
100
AcDbEntity
  8
LC-004-005-----0
 62
     7
370
    25
100
AcDbLine
 10
241.866708
 20
165.499175
 30
0.0
 11
243.950148
 21
167.582616
 31
0.0
  0
LINE
  5
54B
330
544
100
AcDbEntity
  8
LC-004-005-----0
 62
     7
370
    25
100
AcDbLine
 10
252.194753
 20
175.827221
 30
0.0
 11
257.619029
 21
181.251497
 31
0.0
  0
LINE
  5
54C
330
544
100
AcDbEntity
  8
LC-004-005-----0
 62
     7
370
    25
100
AcDbLine
 10
238.935936
 20
165.39683
 30
0.0
 11
241.009567
 21
167.470462
 31
0.0
  0
LINE
  5
54D
330
544
100
AcDbEntity
  8
LC-004-005-----0
 62
     7
370
    25
100
AcDbLine
 10
254.590021
 20
181.050916
 30
0.0
 11
257.89021
 21
184.351105
 31
0.0
  0
LINE
  5
54E
330
544
100
AcDbEntity
  8
LC-004-005-----0
 62
     7
370
    25
100
AcDbLine
 10
236.005164
 20
165.294486
 30
0.0
 11
238.078796
 21
167.368117
 31
0.0
  0
LINE
  5
54F
330
544
100
AcDbEntity
  8
LC-004-005-----0
 62
     7
370
    25
100
AcDbLine
 10
254.861202
 20
184.150524
 30
0.0
 11
258.16139
 21
187.450712
 31
0.0
  0
LINE
  5
550
330
544
100
AcDbEntity
  8
LC-004-005-----0
 62
     7
370
    25
100
AcDbLine
 10
233.074392
 20
165.192141
 30
0.0
 11
235.148024
 21
167.265773
 31
0.0
  0
LINE
  5
551
330
544
100
AcDbEntity
  8
LC-004-005-----0
 62
     7
370
    25
100
AcDbLine
 10
255.132382
 20
187.250131
 30
0.0
 11
258.432571
 21
190.55032
 31
0.0
  0
LINE
  5
552
330
544
100
AcDbEntity
  8
LC-004-005-----0
 62
     7
370
    25
100
AcDbLine
 10
230.14362
 20
165.089796
 30
0.0
 11
232.217252
 21
167.163428
 31
0.0
  0
LINE
  5
553
330
544
100
AcDbEntity
  8
LC-004-005-----0
 62
     7
370
    25
100
AcDbLine
 10
255.403563
 20
190.349739
 30
0.0
 11
258.703751
 21
193.649928
 31
0.0
  0
LINE
  5
554
330
544
100
AcDbEntity
  8
LC-004-005-----0
 62
     7
370
    25
100
AcDbLine
 10
227.212848
 20
164.987451
 30
0.0
 11
229.28648
 21
167.061083
 31
0.0
  0
LINE
  5
555
330
544
100
AcDbEntity
  8
LC-004-005-----0
 62
     7
370
    25
100
AcDbLine
 10
255.674743
 20
193.449347
 30
0.0
 11
258.974932
 21
196.749535
 31
0.0
  0
LINE
  5
556
330
544
100
AcDbEntity
  8
LC-004-005-----0
 62
     7
370
    25
100
AcDbLine
 10
280.717031
 20
218.491634
 30
0.0
 11
280.724088
 21
218.498691
 31
0.0
  0
LINE
  5
557
330
544
100
AcDbEntity
  8
LC-004-005-----0
 62
     7
370
    25
100
AcDbLine
 10
224.282076
 20
164.885106
 30
0.0
 11
226.355708
 21
166.958738
 31
0.0
  0
LINE
  5
558
330
544
100
AcDbEntity
  8
LC-004-005-----0
 62
     7
370
    25
100
AcDbLine
 10
255.945924
 20
196.548954
 30
0.0
 11
259.246113
 21
199.849143
 31
0.0
  0
LINE
  5
559
330
544
100
AcDbEntity
  8
LC-004-005-----0
 62
     7
370
    25
100
AcDbLine
 10
277.617423
 20
218.220453
 30
0.0
 11
280.724088
 21
221.327118
 31
0.0
  0
LINE
  5
55A
330
544
100
AcDbEntity
  8
LC-004-005-----0
 62
     7
370
    25
100
AcDbLine
 10
221.351304
 20
164.782761
 30
0.0
 11
223.424936
 21
166.856393
 31
0.0
  0
LINE
  5
55B
330
544
100
AcDbEntity
  8
LC-004-005-----0
 62
     7
370
    25
100
AcDbLine
 10
256.217104
 20
199.648562
 30
0.0
 11
259.517293
 21
202.948751
 31
0.0
  0
LINE
  5
55C
330
544
100
AcDbEntity
  8
LC-004-005-----0
 62
     7
370
    25
100
AcDbLine
 10
274.517815
 20
217.949273
 30
0.0
 11
277.818004
 21
221.249462
 31
0.0
  0
LINE
  5
55D
330
544
100
AcDbEntity
  8
LC-004-005-----0
 62
     7
370
    25
100
AcDbLine
 10
218.420532
 20
164.680417
 30
0.0
 11
220.494164
 21
166.754049
 31
0.0
  0
LINE
  5
55E
330
544
100
AcDbEntity
  8
LC-004-005-----0
 62
     7
370
    25
100
AcDbLine
 10
256.488285
 20
202.74817
 30
0.0
 11
259.788474
 21
206.048358
 31
0.0
  0
LINE
  5
55F
330
544
100
AcDbEntity
  8
LC-004-005-----0
 62
     7
370
    25
100
AcDbLine
 10
271.418208
 20
217.678092
 30
0.0
 11
274.718396
 21
220.978281
 31
0.0
  0
LINE
  5
560
330
544
100
AcDbEntity
  8
LC-004-005-----0
 62
     7
370
    25
100
AcDbLine
 10
215.48976
 20
164.578072
 30
0.0
 11
217.563392
 21
166.651704
 31
0.0
  0
LINE
  5
561
330
544
100
AcDbEntity
  8
LC-004-005-----0
 62
     7
370
    25
100
AcDbLine
 10
256.759466
 20
205.847777
 30
0.0
 11
260.059654
 21
209.147966
 31
0.0
  0
LINE
  5
562
330
544
100
AcDbEntity
  8
LC-004-005-----0
 62
     7
370
    25
100
AcDbLine
 10
268.3186
 20
217.406912
 30
0.0
 11
271.618789
 21
220.7071
 31
0.0
  0
LINE
  5
563
330
544
100
AcDbEntity
  8
LC-004-005-----0
 62
     7
370
    25
100
AcDbLine
 10
212.558988
 20
164.475727
 30
0.0
 11
214.63262
 21
166.549359
 31
0.0
  0
LINE
  5
564
330
544
100
AcDbEntity
  8
LC-004-005-----0
 62
     7
370
    25
100
AcDbLine
 10
257.030646
 20
208.947385
 30
0.0
 11
260.330835
 21
212.247574
 31
0.0
  0
LINE
  5
565
330
544
100
AcDbEntity
  8
LC-004-005-----0
 62
     7
370
    25
100
AcDbLine
 10
265.218992
 20
217.135731
 30
0.0
 11
268.519181
 21
220.43592
 31
0.0
  0
LINE
  5
566
330
544
100
AcDbEntity
  8
LC-004-005-----0
 62
     7
370
    25
100
AcDbLine
 10
209.628216
 20
164.373382
 30
0.0
 11
211.701848
 21
166.447014
 31
0.0
  0
LINE
  5
567
330
544
100
AcDbEntity
  8
LC-004-005-----0
 62
     7
370
    25
100
AcDbLine
 10
257.301827
 20
212.046993
 30
0.0
 11
260.627843
 21
215.373009
 31
0.0
  0
LINE
  5
568
330
544
100
AcDbEntity
  8
LC-004-005-----0
 62
     7
370
    25
100
AcDbLine
 10
262.093557
 20
216.838723
 30
0.0
 11
265.419573
 21
220.164739
 31
0.0
  0
LINE
  5
569
330
544
100
AcDbEntity
  8
LC-004-005-----0
 62
     7
370
    25
100
AcDbLine
 10
206.697444
 20
164.271037
 30
0.0
 11
208.771076
 21
166.344669
 31
0.0
  0
LINE
  5
56A
330
544
100
AcDbEntity
  8
LC-004-005-----0
 62
     7
370
    25
100
AcDbLine
 10
257.573007
 20
215.1466
 30
0.0
 11
262.319966
 21
219.893559
 31
0.0
  0
LINE
  5
56B
330
544
100
AcDbEntity
  8
LC-004-005-----0
 62
     7
370
    25
100
AcDbLine
 10
203.766672
 20
164.168693
 30
0.0
 11
205.840304
 21
166.242325
 31
0.0
  0
LINE
  5
56C
330
544
100
AcDbEntity
  8
LC-004-005-----0
 62
     7
370
    25
100
AcDbLine
 10
200.8359
 20
164.066348
 30
0.0
 11
202.909532
 21
166.13998
 31
0.0
  0
LINE
  5
56D
330
544
100
AcDbEntity
  8
LC-004-005-----0
 62
     7
370
    25
100
AcDbLine
 10
197.905128
 20
163.964003
 30
0.0
 11
199.97876
 21
166.037635
 31
0.0
  0
LINE
  5
56E
330
544
100
AcDbEntity
  8
LC-004-005-----0
 62
     7
370
    25
100
AcDbLine
 10
195.91226
 20
164.799561
 30
0.0
 11
197.047988
 21
165.93529
 31
0.0
  0
ENDBLK
  5
546
330
544
100
AcDbEntity
  8
0
100
AcDbBlockEnd
  0
BLOCK
  5
571
330
570
100
AcDbEntity
  8
0
100
AcDbBlockBegin
  2
*X1818
 70
     1
 71
     0
 10
0.0
 20
0.0
 30
0.0
  3
*X1818
  1

  4
*X18
  0
LINE
  5
573
330
570
100
AcDbEntity
  8
LC-004-005-----0
 62
     7
370
    25
100
AcDbLine
 10
207.352707
 20
51.789216
 30
0.0
 11
208.510162
 21
52.946671
 31
0.0
  0
LINE
  5
574
330
570
100
AcDbEntity
  8
LC-004-005-----0
 62
     7
370
    25
100
AcDbLine
 10
205.462956
 20
52.727891
 30
0.0
 11
207.912445
 21
55.177381
 31
0.0
  0
LINE
  5
575
330
570
100
AcDbEntity
  8
LC-004-005-----0
 62
     7
370
    25
100
AcDbLine
 10
204.865239
 20
54.958601
 30
0.0
 11
207.314728
 21
57.408091
 31
0.0
  0
LINE
  5
576
330
570
100
AcDbEntity
  8
LC-004-005-----0
 62
     7
370
    25
100
AcDbLine
 10
204.267522
 20
57.189311
 30
0.0
 11
206.717011
 21
59.638801
 31
0.0
  0
LINE
  5
577
330
570
100
AcDbEntity
  8
LC-004-005-----0
 62
     7
370
    25
100
AcDbLine
 10
203.669805
 20
59.420021
 30
0.0
 11
206.119294
 21
61.869511
 31
0.0
  0
LINE
  5
578
330
570
100
AcDbEntity
  8
LC-004-005-----0
 62
     7
370
    25
100
AcDbLine
 10
203.072088
 20
61.650731
 30
0.0
 11
205.521577
 21
64.100221
 31
0.0
  0
LINE
  5
579
330
570
100
AcDbEntity
  8
LC-004-005-----0
 62
     7
370
    25
100
AcDbLine
 10
202.474371
 20
63.881442
 30
0.0
 11
204.92386
 21
66.330931
 31
0.0
  0
LINE
  5
57A
330
570
100
AcDbEntity
  8
LC-004-005-----0
 62
     7
370
    25
100
AcDbLine
 10
201.876654
 20
66.112152
 30
0.0
 11
204.326144
 21
68.561642
 31
0.0
  0
LINE
  5
57B
330
570
100
AcDbEntity
  8
LC-004-005-----0
 62
     7
370
    25
100
AcDbLine
 10
201.278937
 20
68.342862
 30
0.0
 11
203.728427
 21
70.792352
 31
0.0
  0
LINE
  5
57C
330
570
100
AcDbEntity
  8
LC-004-005-----0
 62
     7
370
    25
100
AcDbLine
 10
200.68122
 20
70.573572
 30
0.0
 11
203.13071
 21
73.023062
 31
0.0
  0
LINE
  5
57D
330
570
100
AcDbEntity
  8
LC-004-005-----0
 62
     7
370
    25
100
AcDbLine
 10
200.083503
 20
72.804282
 30
0.0
 11
202.532993
 21
75.253772
 31
0.0
  0
LINE
  5
57E
330
570
100
AcDbEntity
  8
LC-004-005-----0
 62
     7
370
    25
100
AcDbLine
 10
199.485786
 20
75.034992
 30
0.0
 11
201.935276
 21
77.484482
 31
0.0
  0
LINE
  5
57F
330
570
100
AcDbEntity
  8
LC-004-005-----0
 62
     7
370
    25
100
AcDbLine
 10
198.888069
 20
77.265702
 30
0.0
 11
201.337559
 21
79.715192
 31
0.0
  0
LINE
  5
580
330
570
100
AcDbEntity
  8
LC-004-005-----0
 62
     7
370
    25
100
AcDbLine
 10
198.290352
 20
79.496413
 30
0.0
 11
200.739842
 21
81.945902
 31
0.0
  0
LINE
  5
581
330
570
100
AcDbEntity
  8
LC-004-005-----0
 62
     7
370
    25
100
AcDbLine
 10
197.692635
 20
81.727123
 30
0.0
 11
200.142125
 21
84.176613
 31
0.0
  0
LINE
  5
582
330
570
100
AcDbEntity
  8
LC-004-005-----0
 62
     7
370
    25
100
AcDbLine
 10
197.094918
 20
83.957833
 30
0.0
 11
199.544408
 21
86.407323
 31
0.0
  0
LINE
  5
583
330
570
100
AcDbEntity
  8
LC-004-005-----0
 62
     7
370
    25
100
AcDbLine
 10
196.497201
 20
86.188543
 30
0.0
 11
198.946691
 21
88.638033
 31
0.0
  0
LINE
  5
584
330
570
100
AcDbEntity
  8
LC-004-005-----0
 62
     7
370
    25
100
AcDbLine
 10
195.899484
 20
88.419253
 30
0.0
 11
198.348974
 21
90.868743
 31
0.0
  0
LINE
  5
585
330
570
100
AcDbEntity
  8
LC-004-005-----0
 62
     7
370
    25
100
AcDbLine
 10
195.301767
 20
90.649963
 30
0.0
 11
197.751257
 21
93.099453
 31
0.0
  0
LINE
  5
586
330
570
100
AcDbEntity
  8
LC-004-005-----0
 62
     7
370
    25
100
AcDbLine
 10
194.70405
 20
92.880674
 30
0.0
 11
197.15354
 21
95.330163
 31
0.0
  0
LINE
  5
587
330
570
100
AcDbEntity
  8
LC-004-005-----0
 62
     7
370
    25
100
AcDbLine
 10
194.106333
 20
95.111384
 30
0.0
 11
196.555823
 21
97.560873
 31
0.0
  0
LINE
  5
588
330
570
100
AcDbEntity
  8
LC-004-005-----0
 62
     7
370
    25
100
AcDbLine
 10
193.508616
 20
97.342094
 30
0.0
 11
195.958106
 21
99.791584
 31
0.0
  0
LINE
  5
589
330
570
100
AcDbEntity
  8
LC-004-005-----0
 62
     7
370
    25
100
AcDbLine
 10
192.910899
 20
99.572804
 30
0.0
 11
195.360389
 21
102.022294
 31
0.0
  0
LINE
  5
58A
330
570
100
AcDbEntity
  8
LC-004-005-----0
 62
     7
370
    25
100
AcDbLine
 10
192.313182
 20
101.803514
 30
0.0
 11
194.762672
 21
104.253004
 31
0.0
  0
LINE
  5
58B
330
570
100
AcDbEntity
  8
LC-004-005-----0
 62
     7
370
    25
100
AcDbLine
 10
191.715465
 20
104.034224
 30
0.0
 11
194.164955
 21
106.483714
 31
0.0
  0
LINE
  5
58C
330
570
100
AcDbEntity
  8
LC-004-005-----0
 62
     7
370
    25
100
AcDbLine
 10
191.117748
 20
106.264934
 30
0.0
 11
193.567238
 21
108.714424
 31
0.0
  0
LINE
  5
58D
330
570
100
AcDbEntity
  8
LC-004-005-----0
 62
     7
370
    25
100
AcDbLine
 10
190.520031
 20
108.495645
 30
0.0
 11
192.969521
 21
110.945134
 31
0.0
  0
LINE
  5
58E
330
570
100
AcDbEntity
  8
LC-004-005-----0
 62
     7
370
    25
100
AcDbLine
 10
189.922314
 20
110.726355
 30
0.0
 11
192.371804
 21
113.175844
 31
0.0
  0
LINE
  5
58F
330
570
100
AcDbEntity
  8
LC-004-005-----0
 62
     7
370
    25
100
AcDbLine
 10
189.324597
 20
112.957065
 30
0.0
 11
191.774087
 21
115.406555
 31
0.0
  0
LINE
  5
590
330
570
100
AcDbEntity
  8
LC-004-005-----0
 62
     7
370
    25
100
AcDbLine
 10
188.72688
 20
115.187775
 30
0.0
 11
191.17637
 21
117.637265
 31
0.0
  0
LINE
  5
591
330
570
100
AcDbEntity
  8
LC-004-005-----0
 62
     7
370
    25
100
AcDbLine
 10
188.129163
 20
117.418485
 30
0.0
 11
190.578653
 21
119.867975
 31
0.0
  0
LINE
  5
592
330
570
100
AcDbEntity
  8
LC-004-005-----0
 62
     7
370
    25
100
AcDbLine
 10
187.531446
 20
119.649195
 30
0.0
 11
189.980936
 21
122.098685
 31
0.0
  0
LINE
  5
593
330
570
100
AcDbEntity
  8
LC-004-005-----0
 62
     7
370
    25
100
AcDbLine
 10
186.933729
 20
121.879905
 30
0.0
 11
189.383219
 21
124.329395
 31
0.0
  0
LINE
  5
594
330
570
100
AcDbEntity
  8
LC-004-005-----0
 62
     7
370
    25
100
AcDbLine
 10
186.336012
 20
124.110616
 30
0.0
 11
188.785502
 21
126.560105
 31
0.0
  0
LINE
  5
595
330
570
100
AcDbEntity
  8
LC-004-005-----0
 62
     7
370
    25
100
AcDbLine
 10
185.738295
 20
126.341326
 30
0.0
 11
188.187785
 21
128.790815
 31
0.0
  0
LINE
  5
596
330
570
100
AcDbEntity
  8
LC-004-005-----0
 62
     7
370
    25
100
AcDbLine
 10
185.140578
 20
128.572036
 30
0.0
 11
187.590068
 21
131.021526
 31
0.0
  0
LINE
  5
597
330
570
100
AcDbEntity
  8
LC-004-005-----0
 62
     7
370
    25
100
AcDbLine
 10
184.542861
 20
130.802746
 30
0.0
 11
186.992351
 21
133.252236
 31
0.0
  0
LINE
  5
598
330
570
100
AcDbEntity
  8
LC-004-005-----0
 62
     7
370
    25
100
AcDbLine
 10
183.945144
 20
133.033456
 30
0.0
 11
186.394634
 21
135.482946
 31
0.0
  0
LINE
  5
599
330
570
100
AcDbEntity
  8
LC-004-005-----0
 62
     7
370
    25
100
AcDbLine
 10
183.347427
 20
135.264166
 30
0.0
 11
184.982775
 21
136.899514
 31
0.0
  0
ENDBLK
  5
572
330
570
100
AcDbEntity
  8
0
100
AcDbBlockEnd
  0
BLOCK
  5
5AA
330
5A0
100
AcDbEntity
  8
0
100
AcDbBlockBegin
  2
*D19
 70
     1
 71
     0
 10
0.0
 20
0.0
 30
0.0
  3
*D19
  1

  0
LINE
  5
5A1
330
5A0
100
AcDbEntity
  8
LC-005-003-----0
 62
     2
370
    -2
100
AcDbLine
 10
55.150491
 20
232.492251
 30
0.0
 11
55.150491
 21
323.86
 31
0.0
  0
LINE
  5
5A2
330
5A0
100
AcDbEntity
  8
LC-005-003-----0
 62
     2
370
    -2
100
AcDbLine
 10
314.724088
 20
232.492251
 30
0.0
 11
314.724088
 21
323.86
 31
0.0
  0
LINE
  5
5A3
330
5A0
100
AcDbEntity
  8
LC-005-003-----0
 62
     2
370
    -2
100
AcDbLine
 10
83.150491
 20
320.26
 30
0.0
 11
286.724088
 21
320.26
 31
0.0
  0
SOLID
  5
5A4
330
5A0
100
AcDbEntity
  8
LC-005-003-----0
 62
     2
100
AcDbTrace
 10
83.150491
 20
324.926667
 30
0.0
 11
83.150491
 21
315.593333
 31
0.0
 12
55.150491
 22
320.26
 32
0.0
 13
55.150491
 23
320.26
 33
0.0
  0
SOLID
  5
5A5
330
5A0
100
AcDbEntity
  8
LC-005-003-----0
 62
     2
100
AcDbTrace
 10
286.724088
 20
315.593333
 30
0.0
 11
286.724088
 21
324.926667
 31
0.0
 12
314.724088
 22
320.26
 32
0.0
 13
314.724088
 23
320.26
 33
0.0
  0
MTEXT
  5
5A6
330
5A0
100
AcDbEntity
  8
LC-005-003-----0
 62
     2
100
AcDbMText
 10
194.688193
 20
351.06
 30
0.0
 40
28.0
 41
0.0
 71
     5
 72
     1
  1
\A1;260
  7
LCTX15-400-0-0pDIN-Schrift
 73
     1
 44
1.0
  0
POINT
  5
5A7
330
5A0
100
AcDbEntity
  8
Defpoints
 62
     0
100
AcDbPoint
 10
55.150491
 20
232.492251
 30
0.0
  0
POINT
  5
5A8
330
5A0
100
AcDbEntity
  8
Defpoints
 62
     0
100
AcDbPoint
 10
314.724088
 20
232.492251
 30
0.0
  0
POINT
  5
5A9
330
5A0
100
AcDbEntity
  8
Defpoints
 62
     0
100
AcDbPoint
 10
314.724088
 20
320.26
 30
0.0
  0
ENDBLK
  5
5AB
330
5A0
100
AcDbEntity
  8
0
100
AcDbBlockEnd
  0
BLOCK
  5
5B7
330
5AD
100
AcDbEntity
  8
0
100
AcDbBlockBegin
  2
*D20
 70
     1
 71
     0
 10
0.0
 20
0.0
 30
0.0
  3
*D20
  1

  0
LINE
  5
5AE
330
5AD
100
AcDbEntity
  8
LC-005-003-----0
 62
     2
370
    -2
100
AcDbLine
 10
73.225458
 20
250.387579
 30
0.0
 11
73.225458
 21
272.182
 31
0.0
  0
LINE
  5
5AF
330
5AD
100
AcDbEntity
  8
LC-005-003-----0
 62
     2
370
    -2
100
AcDbLine
 10
296.222717
 20
250.387579
 30
0.0
 11
296.222717
 21
272.182
 31
0.0
  0
LINE
  5
5B0
330
5AD
100
AcDbEntity
  8
LC-005-003-----0
 62
     2
370
    -2
100
AcDbLine
 10
101.225458
 20
268.582
 30
0.0
 11
268.222717
 21
268.582
 31
0.0
  0
SOLID
  5
5B1
330
5AD
100
AcDbEntity
  8
LC-005-003-----0
 62
     2
100
AcDbTrace
 10
101.225458
 20
273.248667
 30
0.0
 11
101.225458
 21
263.915333
 31
0.0
 12
73.225458
 22
268.582
 32
0.0
 13
73.225458
 23
268.582
 33
0.0
  0
SOLID
  5
5B2
330
5AD
100
AcDbEntity
  8
LC-005-003-----0
 62
     2
100
AcDbTrace
 10
268.222717
 20
263.915333
 30
0.0
 11
268.222717
 21
273.248667
 31
0.0
 12
296.222717
 22
268.582
 32
0.0
 13
296.222717
 23
268.582
 33
0.0
  0
MTEXT
  5
5B3
330
5AD
100
AcDbEntity
  8
LC-005-003-----0
 62
     2
100
AcDbMText
 10
194.688193
 20
299.382
 30
0.0
 40
28.0
 41
0.0
 71
     5
 72
     1
  1
\A1;226
  7
LCTX15-400-0-0pDIN-Schrift
 73
     1
 44
1.0
  0
POINT
  5
5B4
330
5AD
100
AcDbEntity
  8
Defpoints
 62
     0
100
AcDbPoint
 10
73.225458
 20
250.387579
 30
0.0
  0
POINT
  5
5B5
330
5AD
100
AcDbEntity
  8
Defpoints
 62
     0
100
AcDbPoint
 10
296.222717
 20
250.387579
 30
0.0
  0
POINT
  5
5B6
330
5AD
100
AcDbEntity
  8
Defpoints
 62
     0
100
AcDbPoint
 10
296.222717
 20
268.582
 30
0.0
  0
ENDBLK
  5
5B8
330
5AD
100
AcDbEntity
  8
0
100
AcDbBlockEnd
  0
BLOCK
  5
5C4
330
5BA
100
AcDbEntity
  8
0
100
AcDbBlockBegin
  2
*D21
 70
     1
 71
     0
 10
0.0
 20
0.0
 30
0.0
  3
*D21
  1

  0
LINE
  5
5BB
330
5BA
100
AcDbEntity
  8
LC-005-003-----0
 62
     2
370
    -2
100
AcDbLine
 10
274.224088
 20
148.492251
 30
0.0
 11
274.224088
 21
85.0
 31
0.0
  0
LINE
  5
5BC
330
5BA
100
AcDbEntity
  8
LC-005-003-----0
 62
     2
370
    -2
100
AcDbLine
 10
354.724088
 20
147.28648
 30
0.0
 11
354.724088
 21
85.0
 31
0.0
  0
LINE
  5
5BD
330
5BA
100
AcDbEntity
  8
LC-005-003-----0
 62
     2
370
    -2
100
AcDbLine
 10
302.224088
 20
88.6
 30
0.0
 11
326.724088
 21
88.6
 31
0.0
  0
SOLID
  5
5BE
330
5BA
100
AcDbEntity
  8
LC-005-003-----0
 62
     2
100
AcDbTrace
 10
302.224088
 20
93.266667
 30
0.0
 11
302.224088
 21
83.933333
 31
0.0
 12
274.224088
 22
88.6
 32
0.0
 13
274.224088
 23
88.6
 33
0.0
  0
SOLID
  5
5BF
330
5BA
100
AcDbEntity
  8
LC-005-003-----0
 62
     2
100
AcDbTrace
 10
326.724088
 20
83.933333
 30
0.0
 11
326.724088
 21
93.266667
 31
0.0
 12
354.724088
 22
88.6
 32
0.0
 13
354.724088
 23
88.6
 33
0.0
  0
MTEXT
  5
5C0
330
5BA
100
AcDbEntity
  8
LC-005-003-----0
 62
     2
100
AcDbMText
 10
305.473622
 20
119.4
 30
0.0
 40
28.0
 41
0.0
 71
     5
 72
     1
  1
\A1;80,5
  7
LCTX15-400-0-0pDIN-Schrift
 73
     1
 44
1.0
  0
POINT
  5
5C1
330
5BA
100
AcDbEntity
  8
Defpoints
 62
     0
100
AcDbPoint
 10
274.224088
 20
148.492251
 30
0.0
  0
POINT
  5
5C2
330
5BA
100
AcDbEntity
  8
Defpoints
 62
     0
100
AcDbPoint
 10
354.724088
 20
147.28648
 30
0.0
  0
POINT
  5
5C3
330
5BA
100
AcDbEntity
  8
Defpoints
 62
     0
100
AcDbPoint
 10
354.724088
 20
88.6
 30
0.0
  0
ENDBLK
  5
5C5
330
5BA
100
AcDbEntity
  8
0
100
AcDbBlockEnd
  0
BLOCK
  5
5D1
330
5C7
100
AcDbEntity
  8
0
100
AcDbBlockBegin
  2
*D22
 70
     1
 71
     0
 10
0.0
 20
0.0
 30
0.0
  3
*D22
  1

  0
LINE
  5
5C8
330
5C7
100
AcDbEntity
  8
LC-005-003-----0
 62
     2
370
    -2
100
AcDbLine
 10
350.224088
 20
148.492251
 30
0.0
 11
421.660441
 21
148.492251
 31
0.0
  0
LINE
  5
5C9
330
5C7
100
AcDbEntity
  8
LC-005-003-----0
 62
     2
370
    -2
100
AcDbLine
 10
350.224088
 20
38.492251
 30
0.0
 11
421.660441
 21
38.492251
 31
0.0
  0
LINE
  5
5CA
330
5C7
100
AcDbEntity
  8
LC-005-003-----0
 62
     2
370
    -2
100
AcDbLine
 10
418.060441
 20
120.492251
 30
0.0
 11
418.060441
 21
66.492251
 31
0.0
  0
SOLID
  5
5CB
330
5C7
100
AcDbEntity
  8
LC-005-003-----0
 62
     2
100
AcDbTrace
 10
422.727108
 20
120.492251
 30
0.0
 11
413.393774
 21
120.492251
 31
0.0
 12
418.060441
 22
148.492251
 32
0.0
 13
418.060441
 23
148.492251
 33
0.0
  0
SOLID
  5
5CC
330
5C7
100
AcDbEntity
  8
LC-005-003-----0
 62
     2
100
AcDbTrace
 10
413.393774
 20
66.492251
 30
0.0
 11
422.727108
 21
66.492251
 31
0.0
 12
418.060441
 22
38.492251
 32
0.0
 13
418.060441
 23
38.492251
 33
0.0
  0
MTEXT
  5
5CD
330
5C7
100
AcDbEntity
  8
LC-005-003-----0
 62
     2
100
AcDbMText
 10
387.260441
 20
76.72
 30
0.0
 40
28.0
 41
0.0
 71
     5
 72
     1
  1
\A1;DN100
  7
LCTX15-400-0-0pDIN-Schrift
 11
6.123031769111886E-17
 21
1.0
 31
0.0
 73
     1
 44
1.0
  0
POINT
  5
5CE
330
5C7
100
AcDbEntity
  8
Defpoints
 62
     0
100
AcDbPoint
 10
350.224088
 20
148.492251
 30
0.0
  0
POINT
  5
5CF
330
5C7
100
AcDbEntity
  8
Defpoints
 62
     0
100
AcDbPoint
 10
350.224088
 20
38.492251
 30
0.0
  0
POINT
  5
5D0
330
5C7
100
AcDbEntity
  8
Defpoints
 62
     0
100
AcDbPoint
 10
418.060441
 20
38.492251
 30
0.0
  0
ENDBLK
  5
5D2
330
5C7
100
AcDbEntity
  8
0
100
AcDbBlockEnd
  0
BLOCK
  5
5DF
330
5D4
100
AcDbEntity
  8
0
100
AcDbBlockBegin
  2
*D23
 70
     1
 71
     0
 10
0.0
 20
0.0
 30
0.0
  3
*D23
  1

  0
LINE
  5
5D5
330
5D4
100
AcDbEntity
  8
LC-005-003-----0
 62
     2
370
    -2
100
AcDbLine
 10
59.93568
 20
252.492251
 30
0.0
 11
31.665257
 21
252.492251
 31
0.0
  0
LINE
  5
5D6
330
5D4
100
AcDbEntity
  8
LC-005-003-----0
 62
     2
370
    -2
100
AcDbLine
 10
54.724088
 20
224.492251
 30
0.0
 11
31.665257
 21
224.492251
 31
0.0
  0
LINE
  5
5D7
330
5D4
100
AcDbEntity
  8
LC-005-003-----0
 62
     2
370
    -2
100
AcDbLine
 10
35.265257
 20
280.492251
 30
0.0
 11
35.265257
 21
308.492251
 31
0.0
  0
LINE
  5
5D8
330
5D4
100
AcDbEntity
  8
LC-005-003-----0
 62
     2
370
    -2
100
AcDbLine
 10
35.265257
 20
196.492251
 30
0.0
 11
35.265257
 21
130.12461
 31
0.0
  0
SOLID
  5
5D9
330
5D4
100
AcDbEntity
  8
LC-005-003-----0
 62
     2
100
AcDbTrace
 10
30.598591
 20
280.492251
 30
0.0
 11
39.931924
 21
280.492251
 31
0.0
 12
35.265257
 22
252.492251
 32
0.0
 13
35.265257
 23
252.492251
 33
0.0
  0
SOLID
  5
5DA
330
5D4
100
AcDbEntity
  8
LC-005-003-----0
 62
     2
100
AcDbTrace
 10
39.931924
 20
196.492251
 30
0.0
 11
30.598591
 21
196.492251
 31
0.0
 12
35.265257
 22
224.492251
 32
0.0
 13
35.265257
 23
224.492251
 33
0.0
  0
MTEXT
  5
5DB
330
5D4
100
AcDbEntity
  8
LC-005-003-----0
 62
     2
100
AcDbMText
 10
4.465257
 20
153.94
 30
0.0
 40
28.0
 41
0.0
 71
     5
 72
     1
  1
\A1;28
  7
LCTX15-400-0-0pDIN-Schrift
 11
6.123031769111886E-17
 21
1.0
 31
0.0
 73
     1
 44
1.0
  0
POINT
  5
5DC
330
5D4
100
AcDbEntity
  8
Defpoints
 62
     0
100
AcDbPoint
 10
59.93568
 20
252.492251
 30
0.0
  0
POINT
  5
5DD
330
5D4
100
AcDbEntity
  8
Defpoints
 62
     0
100
AcDbPoint
 10
54.724088
 20
224.492251
 30
0.0
  0
POINT
  5
5DE
330
5D4
100
AcDbEntity
  8
Defpoints
 62
     0
100
AcDbPoint
 10
35.265257
 20
224.492251
 30
0.0
  0
ENDBLK
  5
5E0
330
5D4
100
AcDbEntity
  8
0
100
AcDbBlockEnd
  0
BLOCK
  5
5F0
330
5E6
100
AcDbEntity
  8
0
100
AcDbBlockBegin
  2
*D24
 70
     1
 71
     0
 10
0.0
 20
0.0
 30
0.0
  3
*D24
  1

  0
LINE
  5
5E7
330
5E6
100
AcDbEntity
  8
LC-005-003-----0
 62
     2
370
    -2
100
AcDbLine
 10
309.512495
 20
252.492251
 30
0.0
 11
466.695168
 21
252.492251
 31
0.0
  0
LINE
  5
5E8
330
5E6
100
AcDbEntity
  8
LC-005-003-----0
 62
     2
370
    -2
100
AcDbLine
 10
354.724088
 20
93.492251
 30
0.0
 11
466.695168
 21
93.492251
 31
0.0
  0
LINE
  5
5E9
330
5E6
100
AcDbEntity
  8
LC-005-003-----0
 62
     2
370
    -2
100
AcDbLine
 10
463.095168
 20
224.492251
 30
0.0
 11
463.095168
 21
121.492251
 31
0.0
  0
SOLID
  5
5EA
330
5E6
100
AcDbEntity
  8
LC-005-003-----0
 62
     2
100
AcDbTrace
 10
467.761835
 20
224.492251
 30
0.0
 11
458.428502
 21
224.492251
 31
0.0
 12
463.095168
 22
252.492251
 32
0.0
 13
463.095168
 23
252.492251
 33
0.0
  0
SOLID
  5
5EB
330
5E6
100
AcDbEntity
  8
LC-005-003-----0
 62
     2
100
AcDbTrace
 10
458.428502
 20
121.492251
 30
0.0
 11
467.761835
 21
121.492251
 31
0.0
 12
463.095168
 22
93.492251
 32
0.0
 13
463.095168
 23
93.492251
 33
0.0
  0
MTEXT
  5
5EC
330
5E6
100
AcDbEntity
  8
LC-005-003-----0
 62
     2
100
AcDbMText
 10
432.295168
 20
188.392
 30
0.0
 40
28.0
 41
0.0
 71
     5
 72
     1
  1
\A1;159
  7
LCTX15-400-0-0pDIN-Schrift
 11
6.123031769111886E-17
 21
1.0
 31
0.0
 73
     1
 44
1.0
  0
POINT
  5
5ED
330
5E6
100
AcDbEntity
  8
Defpoints
 62
     0
100
AcDbPoint
 10
309.512495
 20
252.492251
 30
0.0
  0
POINT
  5
5EE
330
5E6
100
AcDbEntity
  8
Defpoints
 62
     0
100
AcDbPoint
 10
354.724088
 20
93.492251
 30
0.0
  0
POINT
  5
5EF
330
5E6
100
AcDbEntity
  8
Defpoints
 62
     0
100
AcDbPoint
 10
463.095168
 20
93.492251
 30
0.0
  0
ENDBLK
  5
5F1
330
5E6
100
AcDbEntity
  8
0
100
AcDbBlockEnd
  0
BLOCK
  5
5FD
330
5F3
100
AcDbEntity
  8
0
100
AcDbBlockBegin
  2
*D25
 70
     1
 71
     0
 10
0.0
 20
0.0
 30
0.0
  3
*D25
  1

  0
LINE
  5
5F4
330
5F3
100
AcDbEntity
  8
LC-005-003-----0
 62
     2
370
    -2
100
AcDbLine
 10
184.724088
 20
46.139232
 30
0.0
 11
184.724088
 21
-24.296
 31
0.0
  0
LINE
  5
5F5
330
5F3
100
AcDbEntity
  8
LC-005-003-----0
 62
     2
370
    -2
100
AcDbLine
 10
354.724088
 20
41.095137
 30
0.0
 11
354.724088
 21
-24.296
 31
0.0
  0
LINE
  5
5F6
330
5F3
100
AcDbEntity
  8
LC-005-003-----0
 62
     2
370
    -2
100
AcDbLine
 10
212.724088
 20
-20.696
 30
0.0
 11
326.724088
 21
-20.696
 31
0.0
  0
SOLID
  5
5F7
330
5F3
100
AcDbEntity
  8
LC-005-003-----0
 62
     2
100
AcDbTrace
 10
212.724088
 20
-16.029333
 30
0.0
 11
212.724088
 21
-25.362667
 31
0.0
 12
184.724088
 22
-20.696
 32
0.0
 13
184.724088
 23
-20.696
 33
0.0
  0
SOLID
  5
5F8
330
5F3
100
AcDbEntity
  8
LC-005-003-----0
 62
     2
100
AcDbTrace
 10
326.724088
 20
-25.362667
 30
0.0
 11
326.724088
 21
-16.029333
 31
0.0
 12
354.724088
 22
-20.696
 32
0.0
 13
354.724088
 23
-20.696
 33
0.0
  0
MTEXT
  5
5F9
330
5F3
100
AcDbEntity
  8
LC-005-003-----0
 62
     2
100
AcDbMText
 10
261.339589
 20
10.104
 30
0.0
 40
28.0
 41
0.0
 71
     5
 72
     1
  1
\A1;170
  7
LCTX15-400-0-0pDIN-Schrift
 73
     1
 44
1.0
  0
POINT
  5
5FA
330
5F3
100
AcDbEntity
  8
Defpoints
 62
     0
100
AcDbPoint
 10
184.724088
 20
46.139232
 30
0.0
  0
POINT
  5
5FB
330
5F3
100
AcDbEntity
  8
Defpoints
 62
     0
100
AcDbPoint
 10
354.724088
 20
41.095137
 30
0.0
  0
POINT
  5
5FC
330
5F3
100
AcDbEntity
  8
Defpoints
 62
     0
100
AcDbPoint
 10
354.724088
 20
-20.696
 30
0.0
  0
ENDBLK
  5
5FE
330
5F3
100
AcDbEntity
  8
0
100
AcDbBlockEnd
  0
BLOCK
  5
60E
330
604
100
AcDbEntity
  8
0
100
AcDbBlockBegin
  2
*D26
 70
     1
 71
     0
 10
0.0
 20
0.0
 30
0.0
  3
*D26
  1

  0
LINE
  5
605
330
604
100
AcDbEntity
  8
LC-005-003-----0
 62
     2
370
    -2
100
AcDbLine
 10
59.93568
 20
252.492251
 30
0.0
 11
-76.418088
 21
252.492251
 31
0.0
  0
LINE
  5
606
330
604
100
AcDbEntity
  8
LC-005-003-----0
 62
     2
370
    -2
100
AcDbLine
 10
272.12948
 20
38.492251
 30
0.0
 11
-76.418088
 21
38.492251
 31
0.0
  0
LINE
  5
607
330
604
100
AcDbEntity
  8
LC-005-003-----0
 62
     2
370
    -2
100
AcDbLine
 10
-72.818088
 20
224.492251
 30
0.0
 11
-72.818088
 21
66.492251
 31
0.0
  0
SOLID
  5
608
330
604
100
AcDbEntity
  8
LC-005-003-----0
 62
     2
100
AcDbTrace
 10
-68.151422
 20
224.492251
 30
0.0
 11
-77.484755
 21
224.492251
 31
0.0
 12
-72.818088
 22
252.492251
 32
0.0
 13
-72.818088
 23
252.492251
 33
0.0
  0
SOLID
  5
609
330
604
100
AcDbEntity
  8
LC-005-003-----0
 62
     2
100
AcDbTrace
 10
-77.484755
 20
66.492251
 30
0.0
 11
-68.151422
 21
66.492251
 31
0.0
 12
-72.818088
 22
38.492251
 32
0.0
 13
-72.818088
 23
38.492251
 33
0.0
  0
MTEXT
  5
60A
330
604
100
AcDbEntity
  8
LC-005-003-----0
 62
     2
100
AcDbMText
 10
-103.618088
 20
149.188
 30
0.0
 40
28.0
 41
0.0
 71
     5
 72
     1
  1
\A1;214
  7
LCTX15-400-0-0pDIN-Schrift
 11
6.123031769111886E-17
 21
1.0
 31
0.0
 73
     1
 44
1.0
  0
POINT
  5
60B
330
604
100
AcDbEntity
  8
Defpoints
 62
     0
100
AcDbPoint
 10
59.93568
 20
252.492251
 30
0.0
  0
POINT
  5
60C
330
604
100
AcDbEntity
  8
Defpoints
 62
     0
100
AcDbPoint
 10
272.12948
 20
38.492251
 30
0.0
  0
POINT
  5
60D
330
604
100
AcDbEntity
  8
Defpoints
 62
     0
100
AcDbPoint
 10
-72.818088
 20
38.492251
 30
0.0
  0
ENDBLK
  5
60F
330
604
100
AcDbEntity
  8
0
100
AcDbBlockEnd
  0
BLOCK
  5
61C
330
611
100
AcDbEntity
  8
0
100
AcDbBlockBegin
  2
*D27
 70
     1
 71
     0
 10
0.0
 20
0.0
 30
0.0
  3
*D27
  1

  0
LINE
  5
612
330
611
100
AcDbEntity
  8
LC-005-003-----0
 62
     2
370
    -2
100
AcDbLine
 10
69.191249
 20
194.292251
 30
0.0
 11
-20.575026
 21
194.292251
 31
0.0
  0
LINE
  5
613
330
611
100
AcDbEntity
  8
LC-005-003-----0
 62
     2
370
    -2
100
AcDbLine
 10
59.93568
 20
252.492251
 30
0.0
 11
-20.575026
 21
252.492251
 31
0.0
  0
LINE
  5
614
330
611
100
AcDbEntity
  8
LC-005-003-----0
 62
     2
370
    -2
100
AcDbLine
 10
-16.975026
 20
280.492251
 30
0.0
 11
-16.975026
 21
308.492251
 31
0.0
  0
LINE
  5
615
330
611
100
AcDbEntity
  8
LC-005-003-----0
 62
     2
370
    -2
100
AcDbLine
 10
-16.975026
 20
166.292251
 30
0.0
 11
-16.975026
 21
129.057141
 31
0.0
  0
SOLID
  5
616
330
611
100
AcDbEntity
  8
LC-005-003-----0
 62
     2
100
AcDbTrace
 10
-12.30836
 20
166.292251
 30
0.0
 11
-21.641693
 21
166.292251
 31
0.0
 12
-16.975026
 22
194.292251
 32
0.0
 13
-16.975026
 23
194.292251
 33
0.0
  0
SOLID
  5
617
330
611
100
AcDbEntity
  8
LC-005-003-----0
 62
     2
100
AcDbTrace
 10
-21.641693
 20
280.492251
 30
0.0
 11
-12.30836
 21
280.492251
 31
0.0
 12
-16.975026
 22
252.492251
 32
0.0
 13
-16.975026
 23
252.492251
 33
0.0
  0
MTEXT
  5
618
330
611
100
AcDbEntity
  8
LC-005-003-----0
 62
     2
100
AcDbMText
 10
-47.775026
 20
152.158
 30
0.0
 40
28.0
 41
0.0
 71
     5
 72
     1
  1
\A1;58
  7
LCTX15-400-0-0pDIN-Schrift
 11
6.123031769111886E-17
 21
1.0
 31
0.0
 73
     1
 44
1.0
  0
POINT
  5
619
330
611
100
AcDbEntity
  8
Defpoints
 62
     0
100
AcDbPoint
 10
69.191249
 20
194.292251
 30
0.0
  0
POINT
  5
61A
330
611
100
AcDbEntity
  8
Defpoints
 62
     0
100
AcDbPoint
 10
59.93568
 20
252.492251
 30
0.0
  0
POINT
  5
61B
330
611
100
AcDbEntity
  8
Defpoints
 62
     0
100
AcDbPoint
 10
-16.975026
 20
252.492251
 30
0.0
  0
ENDBLK
  5
61D
330
611
100
AcDbEntity
  8
0
100
AcDbBlockEnd
  0
ENDSEC
  0
SECTION
  2
ENTITIES
  0
LINE
  5
31
102
{ACAD_REACTORS
330
61F
102
}
330
1F
100
AcDbEntity
  8
LC-001-002-----0
 62
     7
370
    50
100
AcDbLine
 10
252.224088
 20
178.185652
 30
0.0
 11
254.542147
 21
180.503711
 31
0.0
  0
LINE
  5
32
102
{ACAD_REACTORS
330
61F
102
}
330
1F
100
AcDbEntity
  8
LC-001-002-----0
 62
     7
370
    50
100
AcDbLine
 10
114.906029
 20
180.503711
 30
0.0
 11
117.224088
 21
178.185652
 31
0.0
  0
LINE
  5
33
102
{ACAD_REACTORS
330
61F
102
}
330
1F
100
AcDbEntity
  8
LC-001-002-----0
 62
     7
370
    50
100
AcDbLine
 10
162.073422
 20
221.503711
 30
0.0
 11
118.745376
 21
221.503711
 31
0.0
  0
LINE
  5
36
102
{ACAD_REACTORS
330
61F
102
}
330
1F
100
AcDbEntity
  8
LC-002-100-D02-0
 62
     7
370
    25
100
AcDbLine
 10
188.024088
 20
211.503711
 30
0.0
 11
181.424088
 21
211.503711
 31
0.0
  0
LINE
  5
37
102
{ACAD_REACTORS
330
61F
102
}
330
1F
100
AcDbEntity
  8
LC-001-002-----0
 62
     7
370
    50
100
AcDbLine
 10
123.724088
 20
212.503711
 30
0.0
 11
129.724088
 21
212.503711
 31
0.0
  0
LINE
  5
38
102
{ACAD_REACTORS
330
61F
102
}
330
1F
100
AcDbEntity
  8
LC-001-002-----0
 62
     7
370
    50
100
AcDbLine
 10
117.190754
 20
212.503711
 30
0.0
 11
121.190754
 21
212.503711
 31
0.0
  0
LINE
  5
39
102
{ACAD_REACTORS
330
61F
102
}
330
1F
100
AcDbEntity
  8
LC-001-002-----0
 62
     7
370
    50
100
AcDbLine
 10
153.724088
 20
212.503711
 30
0.0
 11
139.724088
 21
212.503711
 31
0.0
  0
LINE
  5
3A
102
{ACAD_REACTORS
330
61F
102
}
330
1F
100
AcDbEntity
  8
LC-001-002-----0
 62
     7
370
    50
100
AcDbLine
 10
257.341784
 20
212.503711
 30
0.0
 11
257.589239
 21
215.332132
 31
0.0
  0
LINE
  5
3B
102
{ACAD_REACTORS
330
61F
102
}
330
1F
100
AcDbEntity
  8
LC-001-002-----0
 62
     7
370
    50
100
AcDbLine
 10
256.337964
 20
212.503711
 30
0.0
 11
257.341784
 21
212.503711
 31
0.0
  0
LINE
  5
3C
102
{ACAD_REACTORS
330
61F
102
}
330
1F
100
AcDbEntity
  8
LC-001-002-----0
 62
     7
370
    50
100
AcDbLine
 10
248.257421
 20
212.503711
 30
0.0
 11
252.257421
 21
212.503711
 31
0.0
  0
LINE
  5
3D
102
{ACAD_REACTORS
330
61F
102
}
330
1F
100
AcDbEntity
  8
LC-001-002-----0
 62
     7
370
    50
100
AcDbLine
 10
239.724088
 20
212.503711
 30
0.0
 11
245.724088
 21
212.503711
 31
0.0
  0
LINE
  5
3E
102
{ACAD_REACTORS
330
61F
102
}
330
1F
100
AcDbEntity
  8
LC-001-002-----0
 62
     7
370
    50
100
AcDbLine
 10
215.724088
 20
212.503711
 30
0.0
 11
229.724088
 21
212.503711
 31
0.0
  0
LINE
  5
3F
102
{ACAD_REACTORS
330
61F
102
}
330
1F
100
AcDbEntity
  8
LC-001-002-----0
 62
     7
370
    50
100
AcDbLine
 10
112.106391
 20
212.503711
 30
0.0
 11
114.906029
 21
180.503711
 31
0.0
  0
LINE
  5
40
102
{ACAD_REACTORS
330
61F
102
}
330
1F
100
AcDbEntity
  8
LC-001-002-----0
 62
     7
370
    50
100
AcDbLine
 10
112.106391
 20
212.503711
 30
0.0
 11
113.110211
 21
212.503711
 31
0.0
  0
LINE
  5
41
102
{ACAD_REACTORS
330
61F
102
}
330
1F
100
AcDbEntity
  8
LC-001-002-----0
 62
     7
370
    50
100
AcDbLine
 10
190.724088
 20
212.503711
 30
0.0
 11
202.724088
 21
212.503711
 31
0.0
  0
LINE
  5
42
102
{ACAD_REACTORS
330
61F
102
}
330
1F
100
AcDbEntity
  8
LC-001-002-----0
 62
     7
370
    50
100
AcDbLine
 10
190.724088
 20
206.503711
 30
0.0
 11
190.724088
 21
212.503711
 31
0.0
  0
LINE
  5
43
102
{ACAD_REACTORS
330
61F
102
}
330
1F
100
AcDbEntity
  8
LC-001-002-----0
 62
     7
370
    50
100
AcDbLine
 10
190.724088
 20
206.503711
 30
0.0
 11
187.039168
 21
209.595726
 31
0.0
  0
LINE
  5
44
102
{ACAD_REACTORS
330
61F
102
}
330
1F
100
AcDbEntity
  8
LC-001-002-----0
 62
     7
370
    50
100
AcDbLine
 10
190.724088
 20
201.503711
 30
0.0
 11
190.724088
 21
180.503711
 31
0.0
  0
LINE
  5
45
102
{ACAD_REACTORS
330
61F
102
}
330
1F
100
AcDbEntity
  8
LC-001-002-----0
 62
     7
370
    50
100
AcDbLine
 10
190.724088
 20
201.503711
 30
0.0
 11
182.635243
 21
209.350404
 31
0.0
  0
LINE
  5
46
102
{ACAD_REACTORS
330
61F
102
}
330
1F
100
AcDbEntity
  8
LC-001-002-----0
 62
     7
370
    50
100
AcDbLine
 10
262.395901
 20
216.888743
 30
0.0
 11
280.724088
 21
218.492251
 31
0.0
  0
LINE
  5
47
102
{ACAD_REACTORS
330
61F
102
}
330
1F
100
AcDbEntity
  8
LC-001-002-----0
 62
     7
370
    50
100
AcDbLine
 10
268.883207
 20
216.539977
 30
0.0
 11
271.068784
 21
204.144955
 31
0.0
  0
LINE
  5
48
102
{ACAD_REACTORS
330
61F
102
}
330
1F
100
AcDbEntity
  8
LC-001-002-----0
 62
     7
370
    50
100
AcDbLine
 10
273.038399
 20
202.492251
 30
0.0
 11
278.724088
 21
202.492251
 31
0.0
  0
LINE
  5
49
102
{ACAD_REACTORS
330
61F
102
}
330
1F
100
AcDbEntity
  8
LC-001-002-----0
 62
     7
370
    50
100
AcDbLine
 10
280.724088
 20
204.492251
 30
0.0
 11
280.724088
 21
218.492251
 31
0.0
  0
LINE
  5
4A
102
{ACAD_REACTORS
330
61F
102
}
330
1F
100
AcDbEntity
  8
LC-001-002-----0
 62
     7
370
    50
100
AcDbLine
 10
280.724088
 20
221.503711
 30
0.0
 11
262.134434
 21
219.877327
 31
0.0
  0
LINE
  5
4B
102
{ACAD_REACTORS
330
61F
102
}
330
1F
100
AcDbEntity
  8
LC-001-002-----0
 62
     7
370
    50
100
AcDbLine
 10
280.724088
 20
218.492251
 30
0.0
 11
280.724088
 21
221.503711
 31
0.0
  0
LINE
  5
4C
102
{ACAD_REACTORS
330
61F
102
}
330
1F
100
AcDbEntity
  8
LC-001-002-----0
 62
     7
370
    50
100
AcDbLine
 10
254.542147
 20
180.503711
 30
0.0
 11
257.341784
 21
212.503711
 31
0.0
  0
LINE
  5
4D
102
{ACAD_REACTORS
330
61F
102
}
330
1F
100
AcDbEntity
  8
LC-001-002-----0
 62
     7
370
    50
100
AcDbLine
 10
253.538327
 20
180.503711
 30
0.0
 11
254.542147
 21
180.503711
 31
0.0
  0
LINE
  5
4E
102
{ACAD_REACTORS
330
61F
102
}
330
1F
100
AcDbEntity
  8
LC-001-002-----0
 62
     7
370
    50
100
AcDbLine
 10
184.724088
 20
180.503711
 30
0.0
 11
190.724088
 21
180.503711
 31
0.0
  0
LINE
  5
4F
102
{ACAD_REACTORS
330
61F
102
}
330
1F
100
AcDbEntity
  8
LC-001-002-----0
 62
     7
370
    50
100
AcDbLine
 10
202.724088
 20
212.503711
 30
0.0
 11
202.724088
 21
180.503711
 31
0.0
  0
LINE
  5
50
102
{ACAD_REACTORS
330
61F
102
}
330
1F
100
AcDbEntity
  8
LC-001-002-----0
 62
     7
370
    50
100
AcDbLine
 10
190.724088
 20
180.503711
 30
0.0
 11
202.724088
 21
180.503711
 31
0.0
  0
LINE
  5
51
102
{ACAD_REACTORS
330
61F
102
}
330
1F
100
AcDbEntity
  8
LC-001-002-----0
 62
     7
370
    50
100
AcDbLine
 10
215.724088
 20
180.503711
 30
0.0
 11
215.724088
 21
212.503711
 31
0.0
  0
LINE
  5
52
102
{ACAD_REACTORS
330
61F
102
}
330
1F
100
AcDbEntity
  8
LC-001-002-----0
 62
     7
370
    50
100
AcDbLine
 10
202.724088
 20
180.503711
 30
0.0
 11
215.724088
 21
180.503711
 31
0.0
  0
LINE
  5
53
102
{ACAD_REACTORS
330
61F
102
}
330
1F
100
AcDbEntity
  8
LC-001-002-----0
 62
     7
370
    50
100
AcDbLine
 10
239.724088
 20
180.503711
 30
0.0
 11
239.724088
 21
212.503711
 31
0.0
  0
LINE
  5
54
102
{ACAD_REACTORS
330
61F
102
}
330
1F
100
AcDbEntity
  8
LC-001-002-----0
 62
     7
370
    50
100
AcDbLine
 10
229.724088
 20
180.503711
 30
0.0
 11
239.724088
 21
180.503711
 31
0.0
  0
LINE
  5
55
102
{ACAD_REACTORS
330
61F
102
}
330
1F
100
AcDbEntity
  8
LC-001-002-----0
 62
     7
370
    50
100
AcDbLine
 10
229.724088
 20
180.503711
 30
0.0
 11
229.724088
 21
212.503711
 31
0.0
  0
LINE
  5
56
102
{ACAD_REACTORS
330
61F
102
}
330
1F
100
AcDbEntity
  8
LC-001-002-----0
 62
     7
370
    50
100
AcDbLine
 10
227.724088
 20
180.503711
 30
0.0
 11
229.724088
 21
180.503711
 31
0.0
  0
LINE
  5
57
102
{ACAD_REACTORS
330
61F
102
}
330
1F
100
AcDbEntity
  8
LC-001-002-----0
 62
     7
370
    50
100
AcDbLine
 10
227.724088
 20
212.503711
 30
0.0
 11
227.724088
 21
180.503711
 31
0.0
  0
LINE
  5
58
102
{ACAD_REACTORS
330
61F
102
}
330
1F
100
AcDbEntity
  8
LC-001-002-----0
 62
     7
370
    50
100
AcDbLine
 10
215.724088
 20
180.503711
 30
0.0
 11
227.724088
 21
180.503711
 31
0.0
  0
LINE
  5
59
102
{ACAD_REACTORS
330
61F
102
}
330
1F
100
AcDbEntity
  8
LC-001-002-----0
 62
     7
370
    50
100
AcDbLine
 10
251.724088
 20
180.503711
 30
0.0
 11
252.257421
 21
212.503711
 31
0.0
  0
LINE
  5
5A
102
{ACAD_REACTORS
330
61F
102
}
330
1F
100
AcDbEntity
  8
LC-001-002-----0
 62
     7
370
    50
100
AcDbLine
 10
247.724088
 20
180.503711
 30
0.0
 11
251.724088
 21
180.503711
 31
0.0
  0
LINE
  5
5B
102
{ACAD_REACTORS
330
61F
102
}
330
1F
100
AcDbEntity
  8
LC-001-002-----0
 62
     7
370
    50
100
AcDbLine
 10
245.724088
 20
180.503711
 30
0.0
 11
245.724088
 21
212.503711
 31
0.0
  0
LINE
  5
5C
102
{ACAD_REACTORS
330
61F
102
}
330
1F
100
AcDbEntity
  8
LC-001-002-----0
 62
     7
370
    50
100
AcDbLine
 10
239.724088
 20
180.503711
 30
0.0
 11
245.724088
 21
180.503711
 31
0.0
  0
LINE
  5
5D
102
{ACAD_REACTORS
330
61F
102
}
330
1F
100
AcDbEntity
  8
LC-001-002-----0
 62
     7
370
    50
100
AcDbLine
 10
247.724088
 20
180.503711
 30
0.0
 11
248.257421
 21
212.503711
 31
0.0
  0
LINE
  5
5E
102
{ACAD_REACTORS
330
61F
102
}
330
1F
100
AcDbEntity
  8
LC-001-002-----0
 62
     7
370
    50
100
AcDbLine
 10
245.724088
 20
180.503711
 30
0.0
 11
247.724088
 21
180.503711
 31
0.0
  0
LINE
  5
5F
102
{ACAD_REACTORS
330
61F
102
}
330
1F
100
AcDbEntity
  8
LC-001-002-----0
 62
     7
370
    50
100
AcDbLine
 10
253.538327
 20
180.503711
 30
0.0
 11
256.337964
 21
212.503711
 31
0.0
  0
LINE
  5
60
102
{ACAD_REACTORS
330
61F
102
}
330
1F
100
AcDbEntity
  8
LC-001-002-----0
 62
     7
370
    50
100
AcDbLine
 10
251.724088
 20
180.503711
 30
0.0
 11
253.538327
 21
180.503711
 31
0.0
  0
LINE
  5
61
102
{ACAD_REACTORS
330
61F
102
}
330
1F
100
AcDbEntity
  8
LC-001-002-----0
 62
     7
370
    50
100
AcDbLine
 10
193.480148
 20
163.809479
 30
0.0
 11
193.655769
 21
165.816831
 31
0.0
  0
LINE
  5
62
102
{ACAD_REACTORS
330
61F
102
}
330
1F
100
AcDbEntity
  8
LC-001-002-----0
 62
     7
370
    50
100
AcDbLine
 10
280.724088
 20
221.503711
 30
0.0
 11
207.374754
 21
221.503711
 31
0.0
  0
LINE
  5
63
102
{ACAD_REACTORS
330
61F
102
}
330
1F
100
AcDbEntity
  8
LC-001-002-----0
 62
     7
370
    50
100
AcDbLine
 10
184.724088
 20
163.503711
 30
0.0
 11
193.480148
 21
163.809479
 31
0.0
  0
LINE
  5
64
102
{ACAD_REACTORS
330
61F
102
}
330
1F
100
AcDbEntity
  8
LC-002-100-D02-0
  6
ByBlock
 62
     7
370
    13
100
AcDbLine
 10
254.224088
 20
176.553281
 30
0.0
 11
254.224088
 21
176.623149
 31
0.0
  0
LINE
  5
65
102
{ACAD_REACTORS
330
61F
102
}
330
1F
100
AcDbEntity
  8
LC-001-002-----0
 62
     7
370
    50
100
AcDbLine
 10
184.724088
 20
165.50493
 30
0.0
 11
193.655769
 21
165.816831
 31
0.0
  0
LINE
  5
66
102
{ACAD_REACTORS
330
61F
102
}
330
1F
100
AcDbEntity
  8
LC-001-002-----0
 62
     7
370
    50
100
AcDbLine
 10
254.224088
 20
176.623149
 30
0.0
 11
257.500774
 21
179.899835
 31
0.0
  0
LINE
  5
67
102
{ACAD_REACTORS
330
61F
102
}
330
1F
100
AcDbEntity
  8
LC-001-002-----0
 62
     7
370
    50
100
AcDbLine
 10
257.500774
 20
179.899835
 30
0.0
 11
260.577823
 21
215.070665
 31
0.0
  0
LINE
  5
68
102
{ACAD_REACTORS
330
61F
102
}
330
1F
100
AcDbEntity
  8
LC-001-002-----0
 62
     7
370
    50
100
AcDbLine
 10
252.224088
 20
176.553281
 30
0.0
 11
252.224088
 21
178.185652
 31
0.0
  0
LINE
  5
69
102
{ACAD_REACTORS
330
61F
102
}
330
1F
100
AcDbEntity
  8
LC-001-002-----0
 62
     7
370
    50
100
AcDbLine
 10
252.224088
 20
178.185652
 30
0.0
 11
184.724088
 21
178.185652
 31
0.0
  0
LINE
  5
6A
102
{ACAD_REACTORS
330
61F
102
}
330
1F
100
AcDbEntity
  8
LC-001-002-----0
 62
     7
370
    50
100
AcDbLine
 10
193.655769
 20
165.816831
 30
0.0
 11
243.538183
 21
167.558763
 31
0.0
  0
LINE
  5
6B
102
{ACAD_REACTORS
330
61F
102
}
330
1F
100
AcDbEntity
  8
LC-001-002-----0
 62
     7
370
    50
100
AcDbLine
 10
195.991209
 20
163.897167
 30
0.0
 11
243.607982
 21
165.559982
 31
0.0
  0
LINE
  5
6C
102
{ACAD_REACTORS
330
61F
102
}
330
1F
100
AcDbEntity
  8
LC-001-002-----0
 62
     7
370
    50
100
AcDbLine
 10
193.480148
 20
163.809479
 30
0.0
 11
195.991209
 21
163.897167
 31
0.0
  0
LINE
  5
6D
102
{ACAD_REACTORS
330
61F
102
}
330
1F
100
AcDbEntity
  8
LC-002-100-D02-0
 62
     7
370
    25
100
AcDbLine
 10
194.739514
 20
163.091608
 30
0.0
 11
194.739514
 21
166.100906
 31
0.0
  0
LINE
  5
6E
102
{ACAD_REACTORS
330
61F
102
}
330
1F
100
AcDbEntity
  8
LC-001-002-----0
 62
     7
370
    50
100
AcDbLine
 10
88.724088
 20
218.492251
 30
0.0
 11
107.052275
 21
216.888743
 31
0.0
  0
LINE
  5
6F
102
{ACAD_REACTORS
330
61F
102
}
330
1F
100
AcDbEntity
  8
LC-001-002-----0
 62
     7
370
    50
100
AcDbLine
 10
98.379392
 20
204.144955
 30
0.0
 11
100.564969
 21
216.539977
 31
0.0
  0
LINE
  5
70
102
{ACAD_REACTORS
330
61F
102
}
330
1F
100
AcDbEntity
  8
LC-001-002-----0
 62
     7
370
    50
100
AcDbLine
 10
90.724088
 20
202.492251
 30
0.0
 11
96.409776
 21
202.492251
 31
0.0
  0
LINE
  5
71
102
{ACAD_REACTORS
330
61F
102
}
330
1F
100
AcDbEntity
  8
LC-001-002-----0
 62
     7
370
    50
100
AcDbLine
 10
88.724088
 20
218.492251
 30
0.0
 11
88.724088
 21
204.492251
 31
0.0
  0
LINE
  5
72
102
{ACAD_REACTORS
330
61F
102
}
330
1F
100
AcDbEntity
  8
LC-001-002-----0
 62
     7
370
    50
100
AcDbLine
 10
107.313742
 20
219.877327
 30
0.0
 11
88.724088
 21
221.503711
 31
0.0
  0
LINE
  5
73
102
{ACAD_REACTORS
330
61F
102
}
330
1F
100
AcDbEntity
  8
LC-001-002-----0
 62
     7
370
    50
100
AcDbLine
 10
88.724088
 20
221.503711
 30
0.0
 11
88.724088
 21
218.492251
 31
0.0
  0
LINE
  5
74
102
{ACAD_REACTORS
330
61F
102
}
330
1F
100
AcDbEntity
  8
LC-001-002-----0
 62
     7
370
    50
100
AcDbLine
 10
111.858937
 20
215.332132
 30
0.0
 11
112.106391
 21
212.503711
 31
0.0
  0
LINE
  5
75
102
{ACAD_REACTORS
330
61F
102
}
330
1F
100
AcDbEntity
  8
LC-001-002-----0
 62
     7
370
    50
100
AcDbLine
 10
114.906029
 20
180.503711
 30
0.0
 11
115.909848
 21
180.503711
 31
0.0
  0
LINE
  5
76
102
{ACAD_REACTORS
330
61F
102
}
330
1F
100
AcDbEntity
  8
LC-001-002-----0
 62
     7
370
    50
100
AcDbLine
 10
178.724088
 20
180.503711
 30
0.0
 11
178.724088
 21
210.215296
 31
0.0
  0
LINE
  5
77
102
{ACAD_REACTORS
330
61F
102
}
330
1F
100
AcDbEntity
  8
LC-001-002-----0
 62
     7
370
    50
100
AcDbLine
 10
178.724088
 20
180.503711
 30
0.0
 11
184.724088
 21
180.503711
 31
0.0
  0
LINE
  5
78
102
{ACAD_REACTORS
330
61F
102
}
330
1F
100
AcDbEntity
  8
LC-001-002-----0
 62
    70
370
    50
100
AcDbLine
 10
166.724088
 20
180.503711
 30
0.0
 11
166.724088
 21
211.667656
 31
0.0
  0
LINE
  5
79
102
{ACAD_REACTORS
330
61F
102
}
330
1F
100
AcDbEntity
  8
LC-001-002-----0
 62
     7
370
    50
100
AcDbLine
 10
166.724088
 20
180.503711
 30
0.0
 11
178.724088
 21
180.503711
 31
0.0
  0
LINE
  5
7A
102
{ACAD_REACTORS
330
61F
102
}
330
1F
100
AcDbEntity
  8
LC-001-002-----0
 62
     7
370
    50
100
AcDbLine
 10
153.724088
 20
212.503711
 30
0.0
 11
153.724088
 21
180.503711
 31
0.0
  0
LINE
  5
7B
102
{ACAD_REACTORS
330
61F
102
}
330
1F
100
AcDbEntity
  8
LC-001-002-----0
 62
     7
370
    50
100
AcDbLine
 10
153.724088
 20
180.503711
 30
0.0
 11
166.724088
 21
180.503711
 31
0.0
  0
LINE
  5
7C
102
{ACAD_REACTORS
330
61F
102
}
330
1F
100
AcDbEntity
  8
LC-001-002-----0
 62
     7
370
    50
100
AcDbLine
 10
129.724088
 20
212.503711
 30
0.0
 11
129.724088
 21
180.503711
 31
0.0
  0
LINE
  5
7D
102
{ACAD_REACTORS
330
61F
102
}
330
1F
100
AcDbEntity
  8
LC-001-002-----0
 62
     7
370
    50
100
AcDbLine
 10
129.724088
 20
180.503711
 30
0.0
 11
139.724088
 21
180.503711
 31
0.0
  0
LINE
  5
7E
102
{ACAD_REACTORS
330
61F
102
}
330
1F
100
AcDbEntity
  8
LC-001-002-----0
 62
     7
370
    50
100
AcDbLine
 10
139.724088
 20
212.503711
 30
0.0
 11
139.724088
 21
180.503711
 31
0.0
  0
LINE
  5
7F
102
{ACAD_REACTORS
330
61F
102
}
330
1F
100
AcDbEntity
  8
LC-001-002-----0
 62
     7
370
    50
100
AcDbLine
 10
139.724088
 20
180.503711
 30
0.0
 11
141.724088
 21
180.503711
 31
0.0
  0
LINE
  5
80
102
{ACAD_REACTORS
330
61F
102
}
330
1F
100
AcDbEntity
  8
LC-001-002-----0
 62
     7
370
    50
100
AcDbLine
 10
141.724088
 20
180.503711
 30
0.0
 11
141.724088
 21
212.503711
 31
0.0
  0
LINE
  5
81
102
{ACAD_REACTORS
330
61F
102
}
330
1F
100
AcDbEntity
  8
LC-001-002-----0
 62
     7
370
    50
100
AcDbLine
 10
141.724088
 20
180.503711
 30
0.0
 11
153.724088
 21
180.503711
 31
0.0
  0
LINE
  5
82
102
{ACAD_REACTORS
330
61F
102
}
330
1F
100
AcDbEntity
  8
LC-001-002-----0
 62
     7
370
    50
100
AcDbLine
 10
117.190754
 20
212.503711
 30
0.0
 11
117.724088
 21
180.503711
 31
0.0
  0
LINE
  5
83
102
{ACAD_REACTORS
330
61F
102
}
330
1F
100
AcDbEntity
  8
LC-001-002-----0
 62
     7
370
    50
100
AcDbLine
 10
117.724088
 20
180.503711
 30
0.0
 11
121.724088
 21
180.503711
 31
0.0
  0
LINE
  5
84
102
{ACAD_REACTORS
330
61F
102
}
330
1F
100
AcDbEntity
  8
LC-001-002-----0
 62
     7
370
    50
100
AcDbLine
 10
123.724088
 20
212.503711
 30
0.0
 11
123.724088
 21
180.503711
 31
0.0
  0
LINE
  5
85
102
{ACAD_REACTORS
330
61F
102
}
330
1F
100
AcDbEntity
  8
LC-001-002-----0
 62
     7
370
    50
100
AcDbLine
 10
123.724088
 20
180.503711
 30
0.0
 11
129.724088
 21
180.503711
 31
0.0
  0
LINE
  5
86
102
{ACAD_REACTORS
330
61F
102
}
330
1F
100
AcDbEntity
  8
LC-001-002-----0
 62
     7
370
    50
100
AcDbLine
 10
121.190754
 20
212.503711
 30
0.0
 11
121.724088
 21
180.503711
 31
0.0
  0
LINE
  5
87
102
{ACAD_REACTORS
330
61F
102
}
330
1F
100
AcDbEntity
  8
LC-001-002-----0
 62
     7
370
    50
100
AcDbLine
 10
121.724088
 20
180.503711
 30
0.0
 11
123.724088
 21
180.503711
 31
0.0
  0
LINE
  5
88
102
{ACAD_REACTORS
330
61F
102
}
330
1F
100
AcDbEntity
  8
LC-001-002-----0
 62
     7
370
    50
100
AcDbLine
 10
113.110211
 20
212.503711
 30
0.0
 11
115.909848
 21
180.503711
 31
0.0
  0
LINE
  5
89
102
{ACAD_REACTORS
330
61F
102
}
330
1F
100
AcDbEntity
  8
LC-001-002-----0
 62
     7
370
    50
100
AcDbLine
 10
115.909848
 20
180.503711
 30
0.0
 11
117.724088
 21
180.503711
 31
0.0
  0
LINE
  5
8A
102
{ACAD_REACTORS
330
61F
102
}
330
1F
100
AcDbEntity
  8
LC-001-002-----0
 62
     7
370
    50
100
AcDbLine
 10
173.456967
 20
163.897167
 30
0.0
 11
173.631518
 21
165.892291
 31
0.0
  0
LINE
  5
8B
102
{ACAD_REACTORS
330
61F
102
}
330
1F
100
AcDbEntity
  8
LC-001-002-----0
 62
     7
370
    50
100
AcDbLine
 10
175.792407
 20
165.816831
 30
0.0
 11
175.968027
 21
163.809479
 31
0.0
  0
LINE
  5
8C
102
{ACAD_REACTORS
330
61F
102
}
330
1F
100
AcDbEntity
  8
LC-001-002-----0
 62
     7
370
    50
100
AcDbLine
 10
175.968027
 20
163.809479
 30
0.0
 11
184.724088
 21
163.503711
 31
0.0
  0
LINE
  5
8D
102
{ACAD_REACTORS
330
61F
102
}
330
1F
100
AcDbEntity
  8
LC-002-100-D02-0
  6
ByBlock
 62
     7
370
    13
100
AcDbLine
 10
115.224088
 20
176.623149
 30
0.0
 11
115.224088
 21
176.553281
 31
0.0
  0
LINE
  5
8E
102
{ACAD_REACTORS
330
61F
102
}
330
1F
100
AcDbEntity
  8
LC-001-002-----0
 62
     7
370
    50
100
AcDbLine
 10
175.792407
 20
165.816831
 30
0.0
 11
184.724088
 21
165.50493
 31
0.0
  0
LINE
  5
8F
102
{ACAD_REACTORS
330
61F
102
}
330
1F
100
AcDbEntity
  8
LC-001-002-----0
 62
     7
370
    50
100
AcDbLine
 10
111.947401
 20
179.899835
 30
0.0
 11
115.224088
 21
176.623149
 31
0.0
  0
LINE
  5
90
102
{ACAD_REACTORS
330
61F
102
}
330
1F
100
AcDbEntity
  8
LC-001-002-----0
 62
     7
370
    50
100
AcDbLine
 10
108.870353
 20
215.070665
 30
0.0
 11
111.947401
 21
179.899835
 31
0.0
  0
LINE
  5
91
102
{ACAD_REACTORS
330
61F
102
}
330
1F
100
AcDbEntity
  8
LC-001-002-----0
 62
     7
370
    50
100
AcDbLine
 10
117.224088
 20
178.185652
 30
0.0
 11
117.224088
 21
176.553281
 31
0.0
  0
LINE
  5
92
102
{ACAD_REACTORS
330
61F
102
}
330
1F
100
AcDbEntity
  8
LC-001-002-----0
 62
     7
370
    50
100
AcDbLine
 10
184.724088
 20
178.185652
 30
0.0
 11
117.224088
 21
178.185652
 31
0.0
  0
LINE
  5
93
102
{ACAD_REACTORS
330
61F
102
}
330
1F
100
AcDbEntity
  8
LC-001-002-----0
 62
     7
370
    50
100
AcDbLine
 10
125.909992
 20
167.558763
 30
0.0
 11
173.631518
 21
165.892291
 31
0.0
  0
LINE
  5
94
102
{ACAD_REACTORS
330
61F
102
}
330
1F
100
AcDbEntity
  8
LC-001-002-----0
 62
     7
370
    50
100
AcDbLine
 10
173.631518
 20
165.892291
 30
0.0
 11
175.792407
 21
165.816831
 31
0.0
  0
LINE
  5
95
102
{ACAD_REACTORS
330
61F
102
}
330
1F
100
AcDbEntity
  8
LC-001-002-----0
 62
     7
370
    50
100
AcDbLine
 10
125.840193
 20
165.559982
 30
0.0
 11
173.456967
 21
163.897167
 31
0.0
  0
LINE
  5
96
102
{ACAD_REACTORS
330
61F
102
}
330
1F
100
AcDbEntity
  8
LC-001-002-----0
 62
     7
370
    50
100
AcDbLine
 10
173.456967
 20
163.897167
 30
0.0
 11
175.968027
 21
163.809479
 31
0.0
  0
LINE
  5
97
102
{ACAD_REACTORS
330
61F
102
}
330
1F
100
AcDbEntity
  8
LC-002-100-D02-0
 62
     7
370
    25
100
AcDbLine
 10
174.708661
 20
166.100906
 30
0.0
 11
174.708661
 21
163.091608
 31
0.0
  0
LINE
  5
98
102
{ACAD_REACTORS
330
61F
102
}
330
1F
100
AcDbEntity
  8
LC-001-002-----0
 62
     7
370
    50
100
AcDbLine
 10
110.616842
 20
221.503711
 30
0.0
 11
88.724088
 21
221.503711
 31
0.0
  0
ARC
  5
99
102
{ACAD_REACTORS
330
61F
102
}
330
1F
100
AcDbEntity
  8
LC-001-002-----0
 62
     7
370
    50
100
AcDbCircle
 10
184.724088
 20
211.503711
 30
0.0
 40
3.000000000000024
100
AcDbArc
 50
320.506185
 51
131.288741
  0
ARC
  5
9A
102
{ACAD_REACTORS
330
61F
102
}
330
1F
100
AcDbEntity
  8
LC-001-002-----0
 62
     7
370
    50
100
AcDbCircle
 10
184.724088
 20
211.503711
 30
0.0
 40
3.000000000000736
100
AcDbArc
 50
214.875714
 51
214.90937
  0
ARC
  5
9B
102
{ACAD_REACTORS
330
61F
102
}
330
1F
100
AcDbEntity
  8
LC-002-100-D02-0
  6
ByBlock
 62
     7
370
    13
100
AcDbCircle
 10
184.724088
 20
211.503711
 30
0.0
 40
2.999999999999277
100
AcDbArc
 50
214.90937
 51
225.87058
  0
ARC
  5
9C
102
{ACAD_REACTORS
330
61F
102
}
330
1F
100
AcDbEntity
  8
LC-001-002-----0
 62
     7
370
    50
100
AcDbCircle
 10
243.224088
 20
176.553281
 30
0.0
 40
9.000000000000059
100
AcDbArc
 50
272.0
 51
0.0
  0
ARC
  5
9D
102
{ACAD_REACTORS
330
61F
102
}
330
1F
100
AcDbEntity
  8
LC-001-002-----0
 62
     7
370
    50
100
AcDbCircle
 10
126.224088
 20
176.553281
 30
0.0
 40
9.0
100
AcDbArc
 50
180.0
 51
268.0
  0
ARC
  5
9E
102
{ACAD_REACTORS
330
61F
102
}
330
1F
100
AcDbEntity
  8
LC-001-002-----0
 62
     7
370
    50
100
AcDbCircle
 10
267.898399
 20
216.366329
 30
0.0
 40
0.9999999999997329
100
AcDbArc
 50
10.0
 51
95.0
  0
ARC
  5
9F
102
{ACAD_REACTORS
330
61F
102
}
330
1F
100
AcDbEntity
  8
LC-001-002-----0
 62
     7
370
    50
100
AcDbCircle
 10
273.038399
 20
204.492251
 30
0.0
 40
1.999999999999634
100
AcDbArc
 50
190.0
 51
270.0
  0
ARC
  5
A0
102
{ACAD_REACTORS
330
61F
102
}
330
1F
100
AcDbEntity
  8
LC-001-002-----0
 62
     7
370
    50
100
AcDbCircle
 10
278.724088
 20
204.492251
 30
0.0
 40
2.0
100
AcDbArc
 50
270.0
 51
0.0
  0
ARC
  5
A1
102
{ACAD_REACTORS
330
61F
102
}
330
1F
100
AcDbEntity
  8
LC-001-002-----0
 62
     7
370
    50
100
AcDbCircle
 10
262.570213
 20
214.896353
 30
0.0
 40
5.000000000000083
100
AcDbArc
 50
95.0
 51
175.0
  0
ARC
  5
A2
102
{ACAD_REACTORS
330
61F
102
}
330
1F
100
AcDbEntity
  8
LC-001-002-----0
 62
     7
370
    50
100
AcDbCircle
 10
262.570213
 20
214.896353
 30
0.0
 40
2.000000000000519
100
AcDbArc
 50
95.0
 51
175.0
  0
ARC
  5
A3
102
{ACAD_REACTORS
330
61F
102
}
330
1F
100
AcDbEntity
  8
LC-001-002-----0
 62
     7
370
    50
100
AcDbCircle
 10
243.224088
 20
176.553281
 30
0.0
 40
11.00000000000117
100
AcDbArc
 50
272.0
 51
0.0
  0
ARC
  5
A4
102
{ACAD_REACTORS
330
61F
102
}
330
1F
100
AcDbEntity
  8
LC-001-002-----0
 62
     7
370
    50
100
AcDbCircle
 10
101.549776
 20
216.366329
 30
0.0
 40
1.00000000000041
100
AcDbArc
 50
85.0
 51
170.0
  0
ARC
  5
A5
102
{ACAD_REACTORS
330
61F
102
}
330
1F
100
AcDbEntity
  8
LC-001-002-----0
 62
     7
370
    50
100
AcDbCircle
 10
96.409776
 20
204.492251
 30
0.0
 40
2.0
100
AcDbArc
 50
270.0
 51
350.0
  0
ARC
  5
A6
102
{ACAD_REACTORS
330
61F
102
}
330
1F
100
AcDbEntity
  8
LC-001-002-----0
 62
     7
370
    50
100
AcDbCircle
 10
90.724088
 20
204.492251
 30
0.0
 40
2.0
100
AcDbArc
 50
180.0
 51
270.0
  0
ARC
  5
A7
102
{ACAD_REACTORS
330
61F
102
}
330
1F
100
AcDbEntity
  8
LC-001-002-----0
 62
     7
370
    50
100
AcDbCircle
 10
106.877963
 20
214.896353
 30
0.0
 40
4.999999999998335
100
AcDbArc
 50
5.0
 51
85.0
  0
ARC
  5
A8
102
{ACAD_REACTORS
330
61F
102
}
330
1F
100
AcDbEntity
  8
LC-001-002-----0
 62
     7
370
    50
100
AcDbCircle
 10
106.877963
 20
214.896353
 30
0.0
 40
1.999999999998588
100
AcDbArc
 50
5.0
 51
85.0
  0
ARC
  5
A9
102
{ACAD_REACTORS
330
61F
102
}
330
1F
100
AcDbEntity
  8
LC-001-002-----0
 62
     7
370
    50
100
AcDbCircle
 10
126.224088
 20
176.553281
 30
0.0
 40
11.0
100
AcDbArc
 50
180.0
 51
268.0
  0
LINE
  5
AA
102
{ACAD_REACTORS
330
626
102
}
330
1F
100
AcDbEntity
  8
LC-001-002-----0
 62
     7
370
    50
100
AcDbLine
 10
314.297685
 20
232.492251
 30
0.0
 11
314.724088
 21
232.492251
 31
0.0
  0
LINE
  5
AB
102
{ACAD_REACTORS
330
626
102
}
330
1F
100
AcDbEntity
  8
LC-001-002-----0
 62
     7
370
    50
100
AcDbLine
 10
314.724088
 20
232.492251
 30
0.0
 11
314.724088
 21
224.492251
 31
0.0
  0
LINE
  5
AC
102
{ACAD_REACTORS
330
626
102
}
330
1F
100
AcDbEntity
  8
LC-001-002-----0
 62
     7
370
    50
100
AcDbLine
 10
293.224088
 20
194.292251
 30
0.0
 11
290.224088
 21
197.292251
 31
0.0
  0
LINE
  5
AD
102
{ACAD_REACTORS
330
626
102
}
330
1F
100
AcDbEntity
  8
LC-001-002-----0
 62
     7
370
    50
100
AcDbLine
 10
293.224088
 20
194.292251
 30
0.0
 11
300.256926
 21
194.292251
 31
0.0
  0
LINE
  5
AE
102
{ACAD_REACTORS
330
626
102
}
330
1F
100
AcDbEntity
  8
LC-001-002-----0
 62
     7
370
    50
100
AcDbLine
 10
302.256652
 20
196.259143
 30
0.0
 11
302.724088
 21
224.492251
 31
0.0
  0
LINE
  5
AF
102
{ACAD_REACTORS
330
626
102
}
330
1F
100
AcDbEntity
  8
LC-001-002-----0
 62
     7
370
    50
100
AcDbLine
 10
302.724088
 20
224.492251
 30
0.0
 11
314.724088
 21
224.492251
 31
0.0
  0
LINE
  5
B0
102
{ACAD_REACTORS
330
626
102
}
330
1F
100
AcDbEntity
  8
LC-001-002-----0
 62
     7
370
    50
100
AcDbLine
 10
312.820473
 20
233.731779
 30
0.0
 11
309.512495
 21
252.492251
 31
0.0
  0
LINE
  5
B1
102
{ACAD_REACTORS
330
626
102
}
330
1F
100
AcDbEntity
  8
LC-001-002-----0
 62
     7
370
    50
100
AcDbLine
 10
309.512495
 20
252.492251
 30
0.0
 11
294.225458
 21
252.492251
 31
0.0
  0
LINE
  5
B2
102
{ACAD_REACTORS
330
626
102
}
330
1F
100
AcDbEntity
  8
LC-001-002-----0
 62
     7
370
    50
100
AcDbLine
 10
298.724088
 20
252.492251
 30
0.0
 11
298.24395
 21
234.439079
 31
0.0
  0
LINE
  5
B3
102
{ACAD_REACTORS
330
626
102
}
330
1F
100
AcDbEntity
  8
LC-001-002-----0
 62
     7
370
    50
100
AcDbLine
 10
296.244657
 20
232.492251
 30
0.0
 11
287.224088
 21
232.492251
 31
0.0
  0
LINE
  5
B4
102
{ACAD_REACTORS
330
626
102
}
330
1F
100
AcDbEntity
  8
LC-001-002-----0
 62
     7
370
    50
100
AcDbLine
 10
285.224088
 20
230.492251
 30
0.0
 11
285.224088
 21
224.492251
 31
0.0
  0
LINE
  5
B5
102
{ACAD_REACTORS
330
626
102
}
330
1F
100
AcDbEntity
  8
LC-001-002-----0
 62
     7
370
    50
100
AcDbLine
 10
285.224088
 20
224.492251
 30
0.0
 11
288.724088
 21
224.492251
 31
0.0
  0
LINE
  5
B6
102
{ACAD_REACTORS
330
626
102
}
330
1F
100
AcDbEntity
  8
LC-001-002-----0
 62
     7
370
    50
100
AcDbLine
 10
290.224088
 20
222.992251
 30
0.0
 11
290.224088
 21
214.492251
 31
0.0
  0
LINE
  5
B7
102
{ACAD_REACTORS
330
626
102
}
330
1F
100
AcDbEntity
  8
LC-001-002-----0
 62
     7
370
    50
100
AcDbLine
 10
290.224088
 20
214.492251
 30
0.0
 11
293.974088
 21
214.492251
 31
0.0
  0
LINE
  5
B8
102
{ACAD_REACTORS
330
626
102
}
330
1F
100
AcDbEntity
  8
LC-001-002-----0
 62
     7
370
    50
100
AcDbLine
 10
295.474088
 20
212.992251
 30
0.0
 11
295.474088
 21
203.792251
 31
0.0
  0
LINE
  5
B9
102
{ACAD_REACTORS
330
626
102
}
330
1F
100
AcDbEntity
  8
LC-001-002-----0
 62
     7
370
    50
100
AcDbLine
 10
293.974088
 20
202.292251
 30
0.0
 11
290.224088
 21
202.292251
 31
0.0
  0
LINE
  5
BA
102
{ACAD_REACTORS
330
626
102
}
330
1F
100
AcDbEntity
  8
LC-001-002-----0
 62
     7
370
    50
100
AcDbLine
 10
290.224088
 20
202.292251
 30
0.0
 11
290.224088
 21
197.292251
 31
0.0
  0
LINE
  5
BB
102
{ACAD_REACTORS
330
626
102
}
330
1F
100
AcDbEntity
  8
LC-001-002-----0
 62
     7
370
    50
100
AcDbLine
 10
79.224088
 20
214.492251
 30
0.0
 11
81.724088
 21
214.492251
 31
0.0
  0
LINE
  5
BC
102
{ACAD_REACTORS
330
626
102
}
330
1F
100
AcDbEntity
  8
LC-001-002-----0
 62
     7
370
    50
100
AcDbLine
 10
84.224088
 20
224.492251
 30
0.0
 11
149.128631
 21
224.492251
 31
0.0
  0
LINE
  5
BD
102
{ACAD_REACTORS
330
626
102
}
330
1F
100
AcDbEntity
  8
LC-001-002-----0
 62
     7
370
    50
100
AcDbLine
 10
54.724088
 20
232.492251
 30
0.0
 11
55.150491
 21
232.492251
 31
0.0
  0
LINE
  5
BE
102
{ACAD_REACTORS
330
626
102
}
330
1F
100
AcDbEntity
  8
LC-001-002-----0
 62
     7
370
    50
100
AcDbLine
 10
54.724088
 20
224.492251
 30
0.0
 11
54.724088
 21
232.492251
 31
0.0
  0
LINE
  5
BF
102
{ACAD_REACTORS
330
626
102
}
330
1F
100
AcDbEntity
  8
LC-001-002-----0
 62
     7
370
    50
100
AcDbLine
 10
79.224088
 20
197.292251
 30
0.0
 11
76.224088
 21
194.292251
 31
0.0
  0
LINE
  5
C0
102
{ACAD_REACTORS
330
626
102
}
330
1F
100
AcDbEntity
  8
LC-001-002-----0
 62
     7
370
    50
100
AcDbLine
 10
69.191249
 20
194.292251
 30
0.0
 11
76.224088
 21
194.292251
 31
0.0
  0
LINE
  5
C1
102
{ACAD_REACTORS
330
626
102
}
330
1F
100
AcDbEntity
  8
LC-001-002-----0
 62
     7
370
    50
100
AcDbLine
 10
66.724088
 20
224.492251
 30
0.0
 11
67.191523
 21
196.259143
 31
0.0
  0
LINE
  5
C2
102
{ACAD_REACTORS
330
626
102
}
330
1F
100
AcDbEntity
  8
LC-001-002-----0
 62
     7
370
    50
100
AcDbLine
 10
54.724088
 20
224.492251
 30
0.0
 11
66.724088
 21
224.492251
 31
0.0
  0
LINE
  5
C3
102
{ACAD_REACTORS
330
626
102
}
330
1F
100
AcDbEntity
  8
LC-001-002-----0
 62
     7
370
    50
100
AcDbLine
 10
59.93568
 20
252.492251
 30
0.0
 11
56.627703
 21
233.731779
 31
0.0
  0
LINE
  5
C4
102
{ACAD_REACTORS
330
626
102
}
330
1F
100
AcDbEntity
  8
LC-001-002-----0
 62
     7
370
    50
100
AcDbLine
 10
75.222717
 20
252.492251
 30
0.0
 11
59.93568
 21
252.492251
 31
0.0
  0
LINE
  5
C5
102
{ACAD_REACTORS
330
626
102
}
330
1F
100
AcDbEntity
  8
LC-001-002-----0
 62
     7
370
    50
100
AcDbLine
 10
71.204225
 20
234.439079
 30
0.0
 11
70.724088
 21
252.492251
 31
0.0
  0
LINE
  5
C6
102
{ACAD_REACTORS
330
626
102
}
330
1F
100
AcDbEntity
  8
LC-001-002-----0
 62
     7
370
    50
100
AcDbLine
 10
82.224088
 20
232.492251
 30
0.0
 11
73.203518
 21
232.492251
 31
0.0
  0
LINE
  5
C7
102
{ACAD_REACTORS
330
626
102
}
330
1F
100
AcDbEntity
  8
LC-001-002-----0
 62
     7
370
    50
100
AcDbLine
 10
84.224088
 20
224.492251
 30
0.0
 11
84.224088
 21
230.492251
 31
0.0
  0
LINE
  5
C8
102
{ACAD_REACTORS
330
626
102
}
330
1F
100
AcDbEntity
  8
LC-001-002-----0
 62
     7
370
    50
100
AcDbLine
 10
80.724088
 20
224.492251
 30
0.0
 11
84.224088
 21
224.492251
 31
0.0
  0
LINE
  5
C9
102
{ACAD_REACTORS
330
626
102
}
330
1F
100
AcDbEntity
  8
LC-001-002-----0
 62
     7
370
    50
100
AcDbLine
 10
79.224088
 20
214.492251
 30
0.0
 11
79.224088
 21
222.992251
 31
0.0
  0
LINE
  5
CA
102
{ACAD_REACTORS
330
626
102
}
330
1F
100
AcDbEntity
  8
LC-001-002-----0
 62
     7
370
    50
100
AcDbLine
 10
75.474088
 20
214.492251
 30
0.0
 11
79.224088
 21
214.492251
 31
0.0
  0
LINE
  5
CC
102
{ACAD_REACTORS
330
626
102
}
330
1F
100
AcDbEntity
  8
LC-003-100-D00-0
 62
     7
370
    13
100
AcDbLine
 10
73.974088
 20
203.792251
 30
0.0
 11
73.974088
 21
212.992251
 31
0.0
  0
LINE
  5
CD
102
{ACAD_REACTORS
330
626
102
}
330
1F
100
AcDbEntity
  8
LC-001-002-----0
 62
     7
370
    50
100
AcDbLine
 10
79.224088
 20
202.292251
 30
0.0
 11
75.474088
 21
202.292251
 31
0.0
  0
LINE
  5
CE
102
{ACAD_REACTORS
330
626
102
}
330
1F
100
AcDbEntity
  8
LC-001-002-----0
 62
     7
370
    50
100
AcDbLine
 10
79.224088
 20
197.292251
 30
0.0
 11
79.224088
 21
202.292251
 31
0.0
  0
LINE
  5
CF
102
{ACAD_REACTORS
330
626
102
}
330
1F
100
AcDbEntity
  8
LC-001-002-----0
 62
     7
370
    50
100
AcDbLine
 10
89.724088
 20
194.292251
 30
0.0
 11
76.224088
 21
194.292251
 31
0.0
  0
LINE
  5
D0
102
{ACAD_REACTORS
330
626
102
}
330
1F
100
AcDbEntity
  8
LC-001-002-----0
 62
     7
370
    50
100
AcDbLine
 10
293.224088
 20
194.292251
 30
0.0
 11
279.124088
 21
194.292251
 31
0.0
  0
ARC
  5
D1
102
{ACAD_REACTORS
330
626
102
}
330
1F
100
AcDbEntity
  8
LC-001-002-----0
 62
     7
370
    50
100
AcDbCircle
 10
300.256926
 20
196.292251
 30
0.0
 40
2.0
100
AcDbArc
 50
270.0
 51
359.051481
  0
ARC
  5
D2
102
{ACAD_REACTORS
330
626
102
}
330
1F
100
AcDbEntity
  8
LC-001-002-----0
 62
     7
370
    50
100
AcDbCircle
 10
287.224088
 20
230.492251
 30
0.0
 40
2.0
100
AcDbArc
 50
90.0
 51
180.0
  0
ARC
  5
D3
102
{ACAD_REACTORS
330
626
102
}
330
1F
100
AcDbEntity
  8
LC-001-002-----0
 62
     7
370
    50
100
AcDbCircle
 10
288.724088
 20
222.992251
 30
0.0
 40
1.5
100
AcDbArc
 50
0.0
 51
90.0
  0
ARC
  5
D4
102
{ACAD_REACTORS
330
626
102
}
330
1F
100
AcDbEntity
  8
LC-001-002-----0
 62
     7
370
    50
100
AcDbCircle
 10
293.974088
 20
203.792251
 30
0.0
 40
1.5
100
AcDbArc
 50
270.0
 51
0.0
  0
ARC
  5
D5
102
{ACAD_REACTORS
330
626
102
}
330
1F
100
AcDbEntity
  8
LC-001-002-----0
 62
     7
370
    50
100
AcDbCircle
 10
293.974088
 20
212.992251
 30
0.0
 40
1.5
100
AcDbArc
 50
0.0
 51
90.0
  0
ARC
  5
D6
102
{ACAD_REACTORS
330
626
102
}
330
1F
100
AcDbEntity
  8
LC-001-002-----0
 62
     7
370
    50
100
AcDbCircle
 10
314.297685
 20
233.992251
 30
0.0
 40
1.499999999998383
100
AcDbArc
 50
190.0
 51
270.0
  0
ARC
  5
D7
102
{ACAD_REACTORS
330
626
102
}
330
1F
100
AcDbEntity
  8
LC-001-002-----0
 62
     7
370
    50
100
AcDbCircle
 10
296.244657
 20
234.492251
 30
0.0
 40
2.0
100
AcDbArc
 50
270.0
 51
358.476535
  0
ARC
  5
D8
102
{ACAD_REACTORS
330
626
102
}
330
1F
100
AcDbEntity
  8
LC-001-002-----0
 62
     7
370
    50
100
AcDbCircle
 10
69.191249
 20
196.292251
 30
0.0
 40
2.000000000000766
100
AcDbArc
 50
180.948519
 51
270.0
  0
ARC
  5
D9
102
{ACAD_REACTORS
330
626
102
}
330
1F
100
AcDbEntity
  8
LC-001-002-----0
 62
     7
370
    50
100
AcDbCircle
 10
82.224088
 20
230.492251
 30
0.0
 40
2.0
100
AcDbArc
 50
0.0
 51
90.0
  0
ARC
  5
DA
102
{ACAD_REACTORS
330
626
102
}
330
1F
100
AcDbEntity
  8
LC-001-002-----0
 62
     7
370
    50
100
AcDbCircle
 10
80.724088
 20
222.992251
 30
0.0
 40
1.5
100
AcDbArc
 50
90.0
 51
180.0
  0
ARC
  5
DB
102
{ACAD_REACTORS
330
626
102
}
330
1F
100
AcDbEntity
  8
LC-001-002-----0
 62
     7
370
    50
100
AcDbCircle
 10
75.474088
 20
203.792251
 30
0.0
 40
1.5
100
AcDbArc
 50
180.0
 51
270.0
  0
ARC
  5
DC
102
{ACAD_REACTORS
330
626
102
}
330
1F
100
AcDbEntity
  8
LC-001-002-----0
 62
     7
370
    50
100
AcDbCircle
 10
75.474088
 20
212.992251
 30
0.0
 40
1.5
100
AcDbArc
 50
90.0
 51
180.0
  0
ARC
  5
DD
102
{ACAD_REACTORS
330
626
102
}
330
1F
100
AcDbEntity
  8
LC-001-002-----0
 62
     7
370
    50
100
AcDbCircle
 10
55.150491
 20
233.992251
 30
0.0
 40
1.5
100
AcDbArc
 50
270.0
 51
350.0
  0
ARC
  5
DE
102
{ACAD_REACTORS
330
626
102
}
330
1F
100
AcDbEntity
  8
LC-001-002-----0
 62
     7
370
    50
100
AcDbCircle
 10
73.203518
 20
234.492251
 30
0.0
 40
2.000000000001546
100
AcDbArc
 50
181.523465
 51
270.0
  0
LINE
  5
DF
102
{ACAD_REACTORS
330
627
102
}
330
1F
100
AcDbEntity
  8
LC-002-100-D02-0
  6
ByBlock
 62
     7
370
    13
100
AcDbLine
 10
291.224088
 20
214.492251
 30
0.0
 11
293.474088
 21
214.492251
 31
0.0
  0
LINE
  5
E0
102
{ACAD_REACTORS
330
627
102
}
330
1F
100
AcDbEntity
  8
LC-002-100-D02-0
  6
ByBlock
 62
     7
370
    13
100
AcDbLine
 10
295.474088
 20
212.492251
 30
0.0
 11
295.474088
 21
204.292251
 31
0.0
  0
LINE
  5
E1
102
{ACAD_REACTORS
330
627
102
}
330
1F
100
AcDbEntity
  8
LC-001-002-----0
 62
     7
370
    50
100
AcDbLine
 10
293.474088
 20
202.292251
 30
0.0
 11
291.224088
 21
202.292251
 31
0.0
  0
LINE
  5
E2
102
{ACAD_REACTORS
330
627
102
}
330
1F
100
AcDbEntity
  8
LC-001-002-----0
 62
     7
370
    50
100
AcDbLine
 10
291.224088
 20
207.416607
 30
0.0
 11
287.724088
 21
208.354429
 31
0.0
  0
LINE
  5
E3
102
{ACAD_REACTORS
330
627
102
}
330
1F
100
AcDbEntity
  8
LC-001-002-----0
 62
     7
370
    50
100
AcDbLine
 10
291.224088
 20
207.416607
 30
0.0
 11
291.224088
 21
214.492251
 31
0.0
  0
LINE
  5
E4
102
{ACAD_REACTORS
330
627
102
}
330
1F
100
AcDbEntity
  8
LC-001-002-----0
 62
     7
370
    50
100
AcDbLine
 10
287.724088
 20
208.354429
 30
0.0
 11
291.224088
 21
202.292251
 31
0.0
  0
LINE
  5
E5
102
{ACAD_REACTORS
330
627
102
}
330
1F
100
AcDbEntity
  8
LC-001-002-----0
 62
     7
370
    50
100
AcDbLine
 10
75.974088
 20
214.492251
 30
0.0
 11
78.224088
 21
214.492251
 31
0.0
  0
LINE
  5
E6
102
{ACAD_REACTORS
330
627
102
}
330
1F
100
AcDbEntity
  8
LC-001-002-----0
 62
     7
370
    50
100
AcDbLine
 10
73.974088
 20
204.292251
 30
0.0
 11
73.974088
 21
212.492251
 31
0.0
  0
LINE
  5
E7
102
{ACAD_REACTORS
330
627
102
}
330
1F
100
AcDbEntity
  8
LC-001-002-----0
 62
     7
370
    50
100
AcDbLine
 10
78.224088
 20
202.292251
 30
0.0
 11
75.974088
 21
202.292251
 31
0.0
  0
LINE
  5
E8
102
{ACAD_REACTORS
330
627
102
}
330
1F
100
AcDbEntity
  8
LC-001-002-----0
 62
     7
370
    50
100
AcDbLine
 10
81.724088
 20
208.354429
 30
0.0
 11
78.224088
 21
207.416607
 31
0.0
  0
LINE
  5
E9
102
{ACAD_REACTORS
330
627
102
}
330
1F
100
AcDbEntity
  8
LC-001-002-----0
 62
     7
370
    50
100
AcDbLine
 10
78.224088
 20
214.492251
 30
0.0
 11
78.224088
 21
207.416607
 31
0.0
  0
LINE
  5
EA
102
{ACAD_REACTORS
330
627
102
}
330
1F
100
AcDbEntity
  8
LC-001-002-----0
 62
     7
370
    50
100
AcDbLine
 10
78.224088
 20
202.292251
 30
0.0
 11
81.724088
 21
208.354429
 31
0.0
  0
ARC
  5
EB
102
{ACAD_REACTORS
330
627
102
}
330
1F
100
AcDbEntity
  8
LC-001-002-----0
 62
     7
370
    50
100
AcDbCircle
 10
293.474088
 20
212.492251
 30
0.0
 40
2.0
100
AcDbArc
 50
0.0
 51
90.0
  0
ARC
  5
EC
102
{ACAD_REACTORS
330
627
102
}
330
1F
100
AcDbEntity
  8
LC-001-002-----0
 62
     7
370
    50
100
AcDbCircle
 10
293.474088
 20
204.292251
 30
0.0
 40
2.0
100
AcDbArc
 50
270.0
 51
0.0
  0
ARC
  5
ED
102
{ACAD_REACTORS
330
627
102
}
330
1F
100
AcDbEntity
  8
LC-001-002-----0
 62
     7
370
    50
100
AcDbCircle
 10
75.974088
 20
212.492251
 30
0.0
 40
2.0
100
AcDbArc
 50
90.0
 51
180.0
  0
ARC
  5
EE
102
{ACAD_REACTORS
330
627
102
}
330
1F
100
AcDbEntity
  8
LC-001-002-----0
 62
     7
370
    50
100
AcDbCircle
 10
75.974088
 20
204.292251
 30
0.0
 40
2.0
100
AcDbArc
 50
180.0
 51
270.0
  0
LINE
  5
EF
102
{ACAD_REACTORS
330
628
102
}
330
1F
100
AcDbEntity
  8
LC-001-002-----0
 62
     7
370
    50
100
AcDbLine
 10
78.724088
 20
220.492251
 30
0.0
 11
79.732136
 21
220.492251
 31
0.0
  0
LINE
  5
F0
102
{ACAD_REACTORS
330
628
102
}
330
1F
100
AcDbEntity
  8
LC-002-100-D02-0
  6
ByBlock
 62
     7
370
    13
100
AcDbLine
 10
81.724088
 20
224.492251
 30
0.0
 11
84.724088
 21
224.492251
 31
0.0
  0
LINE
  5
F1
102
{ACAD_REACTORS
330
628
102
}
330
1F
100
AcDbEntity
  8
LC-001-002-----0
 62
     7
370
    50
100
AcDbLine
 10
78.724088
 20
221.492251
 30
0.0
 11
78.724088
 21
220.492251
 31
0.0
  0
LINE
  5
F2
102
{ACAD_REACTORS
330
628
102
}
330
1F
100
AcDbEntity
  8
LC-001-002-----0
 62
     7
370
    50
100
AcDbLine
 10
81.724088
 20
224.492251
 30
0.0
 11
78.724088
 21
221.492251
 31
0.0
  0
LINE
  5
F3
102
{ACAD_REACTORS
330
628
102
}
330
1F
100
AcDbEntity
  8
LC-001-002-----0
 62
     7
370
    50
100
AcDbLine
 10
290.724088
 20
221.492251
 30
0.0
 11
290.724088
 21
220.492251
 31
0.0
  0
LINE
  5
F4
102
{ACAD_REACTORS
330
628
102
}
330
1F
100
AcDbEntity
  8
LC-001-002-----0
 62
     7
370
    50
100
AcDbLine
 10
287.724088
 20
224.492251
 30
0.0
 11
290.724088
 21
221.492251
 31
0.0
  0
LINE
  5
F5
102
{ACAD_REACTORS
330
628
102
}
330
1F
100
AcDbEntity
  8
LC-001-002-----0
 62
     7
370
    50
100
AcDbLine
 10
122.553048
 20
224.492251
 30
0.0
 11
84.724088
 21
224.492251
 31
0.0
  0
LINE
  5
F6
102
{ACAD_REACTORS
330
628
102
}
330
1F
100
AcDbEntity
  8
LC-001-002-----0
 62
     7
370
    50
100
AcDbLine
 10
86.724088
 20
198.492251
 30
0.0
 11
92.724088
 21
198.492251
 31
0.0
  0
LINE
  5
F7
102
{ACAD_REACTORS
330
628
102
}
330
1F
100
AcDbEntity
  8
LC-001-002-----0
 62
     7
370
    50
100
AcDbLine
 10
276.724088
 20
198.492251
 30
0.0
 11
282.724088
 21
198.492251
 31
0.0
  0
LINE
  5
F8
102
{ACAD_REACTORS
330
628
102
}
330
1F
100
AcDbEntity
  8
LC-001-002-----0
 62
     7
370
    50
100
AcDbLine
 10
94.724088
 20
167.992251
 30
0.0
 11
94.724088
 21
196.492251
 31
0.0
  0
LINE
  5
F9
102
{ACAD_REACTORS
330
628
102
}
330
1F
100
AcDbEntity
  8
LC-001-002-----0
 62
     7
370
    50
100
AcDbLine
 10
90.724088
 20
193.492251
 30
0.0
 11
90.724088
 21
172.636758
 31
0.0
  0
LINE
  5
FA
102
{ACAD_REACTORS
330
628
102
}
330
1F
100
AcDbEntity
  8
LC-001-002-----0
 62
     7
370
    50
100
AcDbLine
 10
272.12948
 20
38.492251
 30
0.0
 11
126.192881
 21
51.260049
 31
0.0
  0
LINE
  5
FB
102
{ACAD_REACTORS
330
628
102
}
330
1F
100
AcDbEntity
  8
LC-001-002-----0
 62
     7
370
    50
100
AcDbLine
 10
272.304124
 20
42.492251
 30
0.0
 11
106.194303
 21
57.024978
 31
0.0
  0
LINE
  5
FC
102
{ACAD_REACTORS
330
628
102
}
330
1F
100
AcDbEntity
  8
LC-001-002-----0
 62
     7
370
    50
100
AcDbLine
 10
95.224088
 20
162.492251
 30
0.0
 11
95.224088
 21
148.457344
 31
0.0
  0
LINE
  5
FD
102
{ACAD_REACTORS
330
628
102
}
330
1F
100
AcDbEntity
  8
LC-001-002-----0
 62
     7
370
    50
100
AcDbLine
 10
99.224088
 20
156.42657
 30
0.0
 11
99.224088
 21
148.492251
 31
0.0
  0
LINE
  5
FE
102
{ACAD_REACTORS
330
628
102
}
330
1F
100
AcDbEntity
  8
LC-001-002-----0
 62
     7
370
    50
100
AcDbLine
 10
87.7328
 20
194.492251
 30
0.0
 11
89.724088
 21
194.492251
 31
0.0
  0
LINE
  5
FF
102
{ACAD_REACTORS
330
628
102
}
330
1F
100
AcDbEntity
  8
LC-001-002-----0
 62
     7
370
    50
100
AcDbLine
 10
81.732292
 20
218.492251
 30
0.0
 11
81.732292
 21
200.492251
 31
0.0
  0
LINE
  5
100
102
{ACAD_REACTORS
330
628
102
}
330
1F
100
AcDbEntity
  8
LC-001-002-----0
 62
     7
370
    50
100
AcDbLine
 10
283.724088
 20
199.492251
 30
0.0
 11
283.724088
 21
202.492251
 31
0.0
  0
LINE
  5
101
102
{ACAD_REACTORS
330
628
102
}
330
1F
100
AcDbEntity
  8
LC-001-002-----0
 62
     7
370
    50
100
AcDbLine
 10
275.224088
 20
198.522536
 30
0.0
 11
275.224088
 21
197.815127
 31
0.0
  0
LINE
  5
102
102
{ACAD_REACTORS
330
628
102
}
330
1F
100
AcDbEntity
  8
LC-001-002-----0
 62
     7
370
    50
100
AcDbLine
 10
278.724088
 20
172.636758
 30
0.0
 11
278.724088
 21
193.492251
 31
0.0
  0
LINE
  5
103
102
{ACAD_REACTORS
330
628
102
}
330
1F
100
AcDbEntity
  8
LC-001-002-----0
 62
     7
370
    50
100
AcDbLine
 10
279.724088
 20
194.492251
 30
0.0
 11
281.715376
 21
194.492251
 31
0.0
  0
LINE
  5
104
102
{ACAD_REACTORS
330
628
102
}
330
1F
100
AcDbEntity
  8
LC-001-002-----0
 62
     7
370
    50
100
AcDbLine
 10
287.715884
 20
200.492251
 30
0.0
 11
287.715884
 21
218.492251
 31
0.0
  0
LINE
  5
105
102
{ACAD_REACTORS
330
628
102
}
330
1F
100
AcDbEntity
  8
LC-001-002-----0
 62
     7
370
    50
100
AcDbLine
 10
289.71604
 20
220.492251
 30
0.0
 11
290.724088
 21
220.492251
 31
0.0
  0
LINE
  5
106
102
{ACAD_REACTORS
330
628
102
}
330
1F
100
AcDbEntity
  8
LC-001-002-----0
 62
     7
370
    50
100
AcDbLine
 10
284.724088
 20
224.492251
 30
0.0
 11
220.319545
 21
224.492251
 31
0.0
  0
LINE
  5
107
102
{ACAD_REACTORS
330
628
102
}
330
1F
100
AcDbEntity
  8
LC-001-002-----0
 62
     7
370
    50
100
AcDbLine
 10
96.71876
 20
62.827622
 30
0.0
 11
95.224088
 21
148.457344
 31
0.0
  0
LINE
  5
108
102
{ACAD_REACTORS
330
628
102
}
330
1F
100
AcDbEntity
  8
LC-001-002-----0
 62
     7
370
    50
100
AcDbLine
 10
276.224088
 20
202.492251
 30
0.0
 11
283.724088
 21
202.492251
 31
0.0
  0
LINE
  5
109
102
{ACAD_REACTORS
330
628
102
}
330
1F
100
AcDbEntity
  8
LC-001-002-----0
 62
     7
370
    50
100
AcDbLine
 10
99.224088
 20
166.492251
 30
0.0
 11
99.224088
 21
156.42657
 31
0.0
  0
LINE
  5
10A
102
{ACAD_REACTORS
330
628
102
}
330
1F
100
AcDbEntity
  8
LC-001-002-----0
 62
     7
370
    50
100
AcDbLine
 10
100.718151
 20
62.897431
 30
0.0
 11
99.224088
 21
148.492251
 31
0.0
  0
LINE
  5
10B
102
{ACAD_REACTORS
330
628
102
}
330
1F
100
AcDbEntity
  8
LC-001-002-----0
 62
     7
370
    50
100
AcDbLine
 10
123.250802
 20
51.517448
 30
0.0
 11
123.456937
 21
39.707972
 31
0.0
  0
LINE
  5
10C
102
{ACAD_REACTORS
330
628
102
}
330
1F
100
AcDbEntity
  8
LC-001-002-----0
 62
     7
370
    50
100
AcDbLine
 10
125.991238
 20
39.707972
 30
0.0
 11
126.192881
 21
51.260049
 31
0.0
  0
LINE
  5
10D
102
{ACAD_REACTORS
330
628
102
}
330
1F
100
AcDbEntity
  8
LC-001-002-----0
 62
     7
370
    50
100
AcDbLine
 10
124.456785
 20
38.725425
 30
0.0
 11
124.991391
 21
38.725425
 31
0.0
  0
LINE
  5
10E
102
{ACAD_REACTORS
330
628
102
}
330
1F
100
AcDbEntity
  8
LC-001-002-----0
 62
     7
370
    50
100
AcDbLine
 10
240.611181
 20
96.457347
 30
0.0
 11
239.290046
 21
96.492251
 31
0.0
  0
LINE
  5
10F
102
{ACAD_REACTORS
330
628
102
}
330
1F
100
AcDbEntity
  8
LC-001-002-----0
 62
     7
370
    50
100
AcDbLine
 10
229.886767
 20
104.457347
 30
0.0
 11
194.707918
 21
104.457347
 31
0.0
  0
LINE
  5
110
102
{ACAD_REACTORS
330
628
102
}
330
1F
100
AcDbEntity
  8
LC-001-002-----0
 62
     7
370
    50
100
AcDbLine
 10
164.011286
 20
57.989566
 30
0.0
 11
198.072726
 21
55.009576
 31
0.0
  0
LINE
  5
111
102
{ACAD_REACTORS
330
628
102
}
330
1F
100
AcDbEntity
  8
LC-001-002-----0
 62
     7
370
    50
100
AcDbLine
 10
350.224088
 20
148.492251
 30
0.0
 11
274.224088
 21
148.492251
 31
0.0
  0
LINE
  5
112
102
{ACAD_REACTORS
330
628
102
}
330
1F
100
AcDbEntity
  8
LC-001-002-----0
 62
     7
370
    50
100
AcDbLine
 10
350.224088
 20
38.492251
 30
0.0
 11
272.12948
 21
38.492251
 31
0.0
  0
LINE
  5
113
102
{ACAD_REACTORS
330
628
102
}
330
1F
100
AcDbEntity
  8
LC-001-002-----0
 62
     7
370
    50
100
AcDbLine
 10
354.724088
 20
39.698023
 30
0.0
 11
350.224088
 21
38.492251
 31
0.0
  0
LINE
  5
114
102
{ACAD_REACTORS
330
628
102
}
330
1F
100
AcDbEntity
  8
LC-001-002-----0
 62
     7
370
    50
100
AcDbLine
 10
354.724088
 20
42.492251
 30
0.0
 11
272.304124
 21
42.492251
 31
0.0
  0
LINE
  5
115
102
{ACAD_REACTORS
330
628
102
}
330
1F
100
AcDbEntity
  8
LC-001-002-----0
 62
     7
370
    50
100
AcDbLine
 10
354.724088
 20
147.28648
 30
0.0
 11
350.224088
 21
148.492251
 31
0.0
  0
LINE
  5
116
102
{ACAD_REACTORS
330
628
102
}
330
1F
100
AcDbEntity
  8
LC-001-002-----0
 62
     7
370
    50
100
AcDbLine
 10
354.724088
 20
42.492251
 30
0.0
 11
354.724088
 21
39.698023
 31
0.0
  0
LINE
  5
117
102
{ACAD_REACTORS
330
628
102
}
330
1F
100
AcDbEntity
  8
LC-001-002-----0
 62
     7
370
    50
100
AcDbLine
 10
354.724088
 20
147.28648
 30
0.0
 11
354.724088
 21
144.492251
 31
0.0
  0
LINE
  5
118
102
{ACAD_REACTORS
330
628
102
}
330
1F
100
AcDbEntity
  8
LC-001-002-----0
 62
     7
370
    50
100
AcDbLine
 10
354.724088
 20
144.492251
 30
0.0
 11
354.724088
 21
133.4
 31
0.0
  0
LINE
  5
119
102
{ACAD_REACTORS
330
628
102
}
330
1F
100
AcDbEntity
  8
LC-001-002-----0
 62
     7
370
    50
100
AcDbLine
 10
354.724088
 20
83.0
 30
0.0
 11
354.724088
 21
42.492251
 31
0.0
  0
LINE
  5
11A
102
{ACAD_REACTORS
330
628
102
}
330
1F
100
AcDbEntity
  8
LC-001-002-----0
 62
     7
370
    50
100
AcDbLine
 10
354.724088
 20
144.492251
 30
0.0
 11
270.154268
 21
144.492251
 31
0.0
  0
LINE
  5
11B
102
{ACAD_REACTORS
330
628
102
}
330
1F
100
AcDbEntity
  8
LC-001-002-----0
 62
     7
370
    50
100
AcDbLine
 10
270.154268
 20
144.492251
 30
0.0
 11
270.224088
 21
148.492251
 31
0.0
  0
LINE
  5
11C
102
{ACAD_REACTORS
330
628
102
}
330
1F
100
AcDbEntity
  8
LC-001-002-----0
 62
     7
370
    50
100
AcDbLine
 10
274.224088
 20
162.492251
 30
0.0
 11
274.224088
 21
148.492251
 31
0.0
  0
LINE
  5
11D
102
{ACAD_REACTORS
330
628
102
}
330
1F
100
AcDbEntity
  8
LC-001-002-----0
 62
     7
370
    50
100
AcDbLine
 10
270.224088
 20
166.492251
 30
0.0
 11
270.224088
 21
148.492251
 31
0.0
  0
LINE
  5
11E
102
{ACAD_REACTORS
330
628
102
}
330
1F
100
AcDbEntity
  8
LC-001-002-----0
 62
     7
370
    50
100
AcDbLine
 10
123.250802
 20
51.517448
 30
0.0
 11
105.84568
 21
53.040199
 31
0.0
  0
LINE
  5
11F
102
{ACAD_REACTORS
330
628
102
}
330
1F
100
AcDbEntity
  8
LC-001-002-----0
 62
     7
370
    50
100
AcDbLine
 10
270.224088
 20
148.492251
 30
0.0
 11
194.892615
 21
148.492251
 31
0.0
  0
LINE
  5
120
102
{ACAD_REACTORS
330
628
102
}
330
1F
100
AcDbEntity
  8
LC-001-002-----0
 62
     7
370
    50
100
AcDbLine
 10
85.724088
 20
199.492251
 30
0.0
 11
85.724088
 21
223.492251
 31
0.0
  0
LINE
  5
121
102
{ACAD_REACTORS
330
628
102
}
330
1F
100
AcDbEntity
  8
LC-001-002-----0
 62
     7
370
    50
100
AcDbLine
 10
93.224088
 20
202.492251
 30
0.0
 11
85.724088
 21
202.492251
 31
0.0
  0
LINE
  5
122
102
{ACAD_REACTORS
330
628
102
}
330
1F
100
AcDbEntity
  8
LC-002-100-D02-0
  6
ByBlock
 62
     7
370
    13
100
AcDbLine
 10
284.724088
 20
224.492251
 30
0.0
 11
287.724088
 21
224.492251
 31
0.0
  0
LINE
  5
123
102
{ACAD_REACTORS
330
628
102
}
330
1F
100
AcDbEntity
  8
LC-001-002-----0
 62
     7
370
    50
100
AcDbLine
 10
274.724088
 20
167.992251
 30
0.0
 11
274.724088
 21
196.492251
 31
0.0
  0
LINE
  5
124
102
{ACAD_REACTORS
330
628
102
}
330
1F
100
AcDbEntity
  8
LC-001-002-----0
 62
     7
370
    50
100
AcDbLine
 10
278.724088
 20
167.992251
 30
0.0
 11
278.724088
 21
172.636758
 31
0.0
  0
LINE
  5
125
102
{ACAD_REACTORS
330
628
102
}
330
1F
100
AcDbEntity
  8
LC-001-002-----0
 62
     7
370
    50
100
AcDbLine
 10
283.724088
 20
202.492251
 30
0.0
 11
283.724088
 21
223.492251
 31
0.0
  0
LINE
  5
126
102
{ACAD_REACTORS
330
628
102
}
330
1F
100
AcDbEntity
  8
LC-001-002-----0
 62
     7
370
    50
100
AcDbLine
 10
275.224088
 20
201.492251
 30
0.0
 11
275.224088
 21
198.522536
 31
0.0
  0
LINE
  5
127
102
{ACAD_REACTORS
330
628
102
}
330
1F
100
AcDbEntity
  8
LC-001-002-----0
 62
     7
370
    50
100
AcDbLine
 10
274.224088
 20
167.492251
 30
0.0
 11
271.224088
 21
167.492251
 31
0.0
  0
LINE
  5
128
102
{ACAD_REACTORS
330
628
102
}
330
1F
100
AcDbEntity
  8
LC-001-002-----0
 62
     7
370
    50
100
AcDbLine
 10
275.224088
 20
163.492251
 30
0.0
 11
275.903537
 21
163.492251
 31
0.0
  0
LINE
  5
129
102
{ACAD_REACTORS
330
628
102
}
330
1F
100
AcDbEntity
  8
LC-001-002-----0
 62
     7
370
    50
100
AcDbLine
 10
98.224088
 20
167.492251
 30
0.0
 11
95.224088
 21
167.492251
 31
0.0
  0
LINE
  5
12A
102
{ACAD_REACTORS
330
628
102
}
330
1F
100
AcDbEntity
  8
LC-001-002-----0
 62
     7
370
    50
100
AcDbLine
 10
94.224088
 20
197.815127
 30
0.0
 11
94.224088
 21
201.492251
 31
0.0
  0
LINE
  5
12B
102
{ACAD_REACTORS
330
628
102
}
330
1F
100
AcDbEntity
  8
LC-001-002-----0
 62
     7
370
    50
100
AcDbLine
 10
93.544638
 20
163.492251
 30
0.0
 11
94.224088
 21
163.492251
 31
0.0
  0
LINE
  5
12C
102
{ACAD_REACTORS
330
628
102
}
330
1F
100
AcDbEntity
  8
LC-002-100-D02-0
  6
ByBlock
 62
     7
370
    13
100
AcDbLine
 10
96.409776
 20
202.492251
 30
0.0
 11
93.224088
 21
202.492251
 31
0.0
  0
LINE
  5
12D
102
{ACAD_REACTORS
330
628
102
}
330
1F
100
AcDbEntity
  8
LC-001-002-----0
 62
     7
370
    50
100
AcDbLine
 10
90.724088
 20
167.992251
 30
0.0
 11
90.724088
 21
172.636758
 31
0.0
  0
LINE
  5
12E
102
{ACAD_REACTORS
330
628
102
}
330
1F
100
AcDbEntity
  8
LC-001-002-----0
 62
     7
370
    50
100
AcDbLine
 10
100.724088
 20
166.492251
 30
0.0
 11
99.224088
 21
166.492251
 31
0.0
  0
LINE
  5
12F
102
{ACAD_REACTORS
330
628
102
}
330
1F
100
AcDbEntity
  8
LC-001-002-----0
 62
     7
370
    50
100
AcDbLine
 10
159.752418
 20
65.277472
 30
0.0
 11
157.66809
 21
57.498655
 31
0.0
  0
LINE
  5
130
102
{ACAD_REACTORS
330
628
102
}
330
1F
100
AcDbEntity
  8
LC-001-002-----0
 62
     7
370
    50
100
AcDbLine
 10
165.547973
 20
63.724558
 30
0.0
 11
164.011286
 21
57.989566
 31
0.0
  0
LINE
  5
131
102
{ACAD_REACTORS
330
628
102
}
330
1F
100
AcDbEntity
  8
LC-001-002-----0
 62
     7
370
    50
100
AcDbLine
 10
196.842159
 20
96.492251
 30
0.0
 11
239.290046
 21
96.492251
 31
0.0
  0
LINE
  5
132
102
{ACAD_REACTORS
330
628
102
}
330
1F
100
AcDbEntity
  8
LC-001-002-----0
 62
     7
370
    50
100
AcDbLine
 10
195.234464
 20
102.492251
 30
0.0
 11
228.820909
 21
102.492251
 31
0.0
  0
LINE
  5
133
102
{ACAD_REACTORS
330
628
102
}
330
1F
100
AcDbEntity
  8
LC-001-002-----0
 62
     7
370
    50
100
AcDbLine
 10
208.194693
 20
54.124019
 30
0.0
 11
238.094096
 21
51.50816
 31
0.0
  0
ARC
  5
134
102
{ACAD_REACTORS
330
628
102
}
330
1F
100
AcDbEntity
  8
LC-001-002-----0
 62
     7
370
    50
100
AcDbCircle
 10
92.724088
 20
196.492251
 30
0.0
 40
2.0
100
AcDbArc
 50
0.0
 51
90.0
  0
ARC
  5
135
102
{ACAD_REACTORS
330
628
102
}
330
1F
100
AcDbEntity
  8
LC-001-002-----0
 62
     7
370
    50
100
AcDbCircle
 10
95.224088
 20
167.992251
 30
0.0
 40
0.5
100
AcDbArc
 50
180.0
 51
270.0
  0
ARC
  5
136
102
{ACAD_REACTORS
330
628
102
}
330
1F
100
AcDbEntity
  8
LC-001-002-----0
 62
     7
370
    50
100
AcDbCircle
 10
98.224088
 20
166.492251
 30
0.0
 40
1.0
100
AcDbArc
 50
0.0
 51
90.0
  0
ARC
  5
137
102
{ACAD_REACTORS
330
628
102
}
330
1F
100
AcDbEntity
  8
LC-001-002-----0
 62
     7
370
    50
100
AcDbCircle
 10
124.991391
 20
39.725425
 30
0.0
 40
1.0
100
AcDbArc
 50
270.0
 51
359.0
  0
ARC
  5
138
102
{ACAD_REACTORS
330
628
102
}
330
1F
100
AcDbEntity
  8
LC-001-002-----0
 62
     7
370
    50
100
AcDbCircle
 10
124.456785
 20
39.725425
 30
0.0
 40
1.000000000000141
100
AcDbArc
 50
181.0
 51
270.0
  0
ARC
  5
139
102
{ACAD_REACTORS
330
628
102
}
330
1F
100
AcDbEntity
  8
LC-001-002-----0
 62
     7
370
    50
100
AcDbCircle
 10
151.872535
 20
59.051569
 30
0.0
 40
6.00000000000014
100
AcDbArc
 50
265.0
 51
345.0
  0
ARC
  5
13A
102
{ACAD_REACTORS
330
628
102
}
330
1F
100
AcDbEntity
  8
LC-001-002-----0
 62
     7
370
    50
100
AcDbCircle
 10
276.724088
 20
196.492251
 30
0.0
 40
2.0
100
AcDbArc
 50
90.0
 51
180.0
  0
ARC
  5
13B
102
{ACAD_REACTORS
330
628
102
}
330
1F
100
AcDbEntity
  8
LC-001-002-----0
 62
     7
370
    50
100
AcDbCircle
 10
273.724088
 20
167.992251
 30
0.0
 40
5.000000000000027
100
AcDbArc
 50
295.841933
 51
0.0
  0
ARC
  5
13C
102
{ACAD_REACTORS
330
628
102
}
330
1F
100
AcDbEntity
  8
LC-001-002-----0
 62
     7
370
    50
100
AcDbCircle
 10
271.224088
 20
166.492251
 30
0.0
 40
1.0
100
AcDbArc
 50
90.0
 51
180.0
  0
ARC
  5
13D
102
{ACAD_REACTORS
330
628
102
}
330
1F
100
AcDbEntity
  8
LC-001-002-----0
 62
     7
370
    50
100
AcDbCircle
 10
274.224088
 20
167.992251
 30
0.0
 40
0.5
100
AcDbArc
 50
270.0
 51
0.0
  0
ARC
  5
13E
102
{ACAD_REACTORS
330
628
102
}
330
1F
100
AcDbEntity
  8
LC-001-002-----0
 62
     7
370
    50
100
AcDbCircle
 10
275.224088
 20
162.492251
 30
0.0
 40
1.0
100
AcDbArc
 50
90.0
 51
180.0
  0
ARC
  5
13F
102
{ACAD_REACTORS
330
628
102
}
330
1F
100
AcDbEntity
  8
LC-001-002-----0
 62
     7
370
    50
100
AcDbCircle
 10
84.724088
 20
223.492251
 30
0.0
 40
1.0
100
AcDbArc
 50
0.0
 51
90.0
  0
ARC
  5
140
102
{ACAD_REACTORS
330
628
102
}
330
1F
100
AcDbEntity
  8
LC-001-002-----0
 62
     7
370
    50
100
AcDbCircle
 10
94.224088
 20
162.492251
 30
0.0
 40
1.0
100
AcDbArc
 50
0.0
 51
90.0
  0
ARC
  5
141
102
{ACAD_REACTORS
330
628
102
}
330
1F
100
AcDbEntity
  8
LC-001-002-----0
 62
     7
370
    50
100
AcDbCircle
 10
276.224088
 20
201.492251
 30
0.0
 40
1.0
100
AcDbArc
 50
90.0
 51
180.0
  0
ARC
  5
142
102
{ACAD_REACTORS
330
628
102
}
330
1F
100
AcDbEntity
  8
LC-001-002-----0
 62
     7
370
    50
100
AcDbCircle
 10
95.724088
 20
167.992251
 30
0.0
 40
4.999999999999901
100
AcDbArc
 50
180.0
 51
244.158067
  0
ARC
  5
143
102
{ACAD_REACTORS
330
628
102
}
330
1F
100
AcDbEntity
  8
LC-001-002-----0
 62
     7
370
    50
100
AcDbCircle
 10
93.224088
 20
201.492251
 30
0.0
 40
1.0
100
AcDbArc
 50
0.0
 51
90.0
  0
ARC
  5
144
102
{ACAD_REACTORS
330
628
102
}
330
1F
100
AcDbEntity
  8
LC-001-002-----0
 62
     7
370
    50
100
AcDbCircle
 10
284.724088
 20
223.492251
 30
0.0
 40
1.0
100
AcDbArc
 50
90.0
 51
180.0
  0
LINE
  5
145
102
{ACAD_REACTORS
330
628
102
}
330
1F
100
AcDbEntity
  8
LC-001-002-----0
 62
     7
370
    50
100
AcDbLine
 10
155.16394
 20
58.474038
 30
0.0
 11
146.227843
 21
59.2
 31
0.0
  0
LINE
  5
146
102
{ACAD_REACTORS
330
628
102
}
330
1F
100
AcDbEntity
  8
LC-001-002-----0
 62
     7
370
    50
100
AcDbLine
 10
146.227843
 20
59.2
 30
0.0
 11
138.048457
 21
59.864501
 31
0.0
  0
LINE
  5
147
102
{ACAD_REACTORS
330
628
102
}
330
1F
100
AcDbEntity
  8
LC-001-002-----0
 62
     7
370
    50
100
AcDbLine
 10
138.048457
 20
59.864501
 30
0.0
 11
122.764449
 21
61.106227
 31
0.0
  0
LINE
  5
148
102
{ACAD_REACTORS
330
628
102
}
330
1F
100
AcDbEntity
  8
LC-001-002-----0
 62
     7
370
    50
100
AcDbLine
 10
122.764449
 20
61.106227
 30
0.0
 11
115.687463
 21
61.681202
 31
0.0
  0
LINE
  5
149
102
{ACAD_REACTORS
330
628
102
}
330
1F
100
AcDbEntity
  8
LC-001-002-----0
 62
     7
370
    50
100
AcDbLine
 10
115.687463
 20
61.681202
 30
0.0
 11
109.11033
 21
62.215577
 31
0.0
  0
LINE
  5
14A
102
{ACAD_REACTORS
330
628
102
}
330
1F
100
AcDbEntity
  8
LC-001-002-----0
 62
     7
370
    50
100
AcDbLine
 10
109.11033
 20
62.215577
 30
0.0
 11
101.290709
 21
62.850911
 31
0.0
  0
LINE
  5
14B
102
{ACAD_REACTORS
330
628
102
}
330
1F
100
AcDbEntity
  8
LC-001-002-----0
 62
     7
370
    50
100
AcDbLine
 10
101.290709
 20
62.850911
 30
0.0
 11
101.00443
 21
62.874171
 31
0.0
  0
LINE
  5
14C
102
{ACAD_REACTORS
330
628
102
}
330
1F
100
AcDbEntity
  8
LC-001-002-----0
 62
     7
370
    50
100
AcDbLine
 10
101.00443
 20
62.874171
 30
0.0
 11
100.718151
 21
62.897431
 31
0.0
  0
ARC
  5
14D
102
{ACAD_REACTORS
330
628
102
}
330
1F
100
AcDbEntity
  8
LC-001-002-----0
 62
     7
370
    50
100
AcDbCircle
 10
87.738461
 20
200.492737
 30
0.0
 40
6.006169165266287
100
AcDbArc
 50
180.004634
 51
188.360198
  0
LINE
  5
14E
102
{ACAD_REACTORS
330
628
102
}
330
1F
100
AcDbEntity
  8
LC-001-002-----0
 62
     7
370
    50
100
AcDbLine
 10
81.796116
 20
199.619466
 30
0.0
 11
81.882068
 21
199.160057
 31
0.0
  0
LINE
  5
14F
102
{ACAD_REACTORS
330
628
102
}
330
1F
100
AcDbEntity
  8
LC-001-002-----0
 62
     7
370
    50
100
AcDbLine
 10
81.882068
 20
199.160057
 30
0.0
 11
81.987096
 21
198.76237
 31
0.0
  0
ARC
  5
150
102
{ACAD_REACTORS
330
628
102
}
330
1F
100
AcDbEntity
  8
LC-001-002-----0
 62
     7
370
    50
100
AcDbCircle
 10
88.054127
 20
200.611328
 30
0.0
 40
6.342515557205804
100
AcDbArc
 50
196.948864
 51
203.610714
  0
LINE
  5
151
102
{ACAD_REACTORS
330
628
102
}
330
1F
100
AcDbEntity
  8
LC-001-002-----0
 62
     7
370
    50
100
AcDbLine
 10
82.242557
 20
198.071021
 30
0.0
 11
82.393079
 21
197.755056
 31
0.0
  0
LINE
  5
152
102
{ACAD_REACTORS
330
628
102
}
330
1F
100
AcDbEntity
  8
LC-001-002-----0
 62
     7
370
    50
100
AcDbLine
 10
82.393079
 20
197.755056
 30
0.0
 11
82.582003
 21
197.414294
 31
0.0
  0
ARC
  5
153
102
{ACAD_REACTORS
330
628
102
}
330
1F
100
AcDbEntity
  8
LC-001-002-----0
 62
     7
370
    50
100
AcDbCircle
 10
88.0175
 20
200.687815
 30
0.0
 40
6.345121165088234
100
AcDbArc
 50
211.058406
 51
217.758415
  0
LINE
  5
154
102
{ACAD_REACTORS
330
628
102
}
330
1F
100
AcDbEntity
  8
LC-001-002-----0
 62
     7
370
    50
100
AcDbLine
 10
83.001049
 20
196.802486
 30
0.0
 11
83.236956
 21
196.51848
 31
0.0
  0
LINE
  5
155
102
{ACAD_REACTORS
330
628
102
}
330
1F
100
AcDbEntity
  8
LC-001-002-----0
 62
     7
370
    50
100
AcDbLine
 10
83.236956
 20
196.51848
 30
0.0
 11
83.489884
 21
196.24952
 31
0.0
  0
ARC
  5
156
102
{ACAD_REACTORS
330
628
102
}
330
1F
100
AcDbEntity
  8
LC-001-002-----0
 62
     7
370
    50
100
AcDbCircle
 10
87.73959
 20
200.501036
 30
0.0
 40
6.011271566283679
100
AcDbArc
 50
225.012197
 51
234.418822
  0
LINE
  5
157
102
{ACAD_REACTORS
330
628
102
}
330
1F
100
AcDbEntity
  8
LC-001-002-----0
 62
     7
370
    50
100
AcDbLine
 10
84.241897
 20
195.612117
 30
0.0
 11
84.654793
 21
195.341763
 31
0.0
  0
ARC
  5
158
102
{ACAD_REACTORS
330
628
102
}
330
1F
100
AcDbEntity
  8
LC-001-002-----0
 62
     7
370
    50
100
AcDbCircle
 10
87.737512
 20
200.502773
 30
0.0
 40
6.011586727734184
100
AcDbArc
 50
239.149733
 51
248.534568
  0
LINE
  5
159
102
{ACAD_REACTORS
330
628
102
}
330
1F
100
AcDbEntity
  8
LC-001-002-----0
 62
     7
370
    50
100
AcDbLine
 10
85.537634
 20
194.908159
 30
0.0
 11
86.002922
 21
194.746988
 31
0.0
  0
ARC
  5
15A
102
{ACAD_REACTORS
330
628
102
}
330
1F
100
AcDbEntity
  8
LC-001-002-----0
 62
     7
370
    50
100
AcDbCircle
 10
87.823177
 20
200.898992
 30
0.0
 40
6.415643613610576
100
AcDbArc
 50
253.517564
 51
261.365884
  0
LINE
  5
15B
102
{ACAD_REACTORS
330
628
102
}
330
1F
100
AcDbEntity
  8
LC-001-002-----0
 62
     7
370
    50
100
AcDbLine
 10
86.860035
 20
194.556056
 30
0.0
 11
87.323028
 21
194.506258
 31
0.0
  0
LINE
  5
15C
102
{ACAD_REACTORS
330
628
102
}
330
1F
100
AcDbEntity
  8
LC-001-002-----0
 62
     7
370
    50
100
AcDbLine
 10
87.323028
 20
194.506258
 30
0.0
 11
87.7328
 21
194.492251
 31
0.0
  0
ARC
  5
15D
102
{ACAD_REACTORS
330
628
102
}
330
1F
100
AcDbEntity
  8
LC-001-002-----0
 62
     7
370
    50
100
AcDbCircle
 10
79.740691
 20
218.608974
 30
0.0
 40
1.883296950444962
100
AcDbArc
 50
81.377381
 51
90.260281
  0
LINE
  5
15E
102
{ACAD_REACTORS
330
628
102
}
330
1F
100
AcDbEntity
  8
LC-001-002-----0
 62
     7
370
    50
100
AcDbLine
 10
80.023046
 20
220.470984
 30
0.0
 11
80.167055
 21
220.444397
 31
0.0
  0
LINE
  5
15F
102
{ACAD_REACTORS
330
628
102
}
330
1F
100
AcDbEntity
  8
LC-001-002-----0
 62
     7
370
    50
100
AcDbLine
 10
80.167055
 20
220.444397
 30
0.0
 11
80.308734
 21
220.407346
 31
0.0
  0
ARC
  5
160
102
{ACAD_REACTORS
330
628
102
}
330
1F
100
AcDbEntity
  8
LC-001-002-----0
 62
     7
370
    50
100
AcDbCircle
 10
79.730815
 20
218.488604
 30
0.0
 40
2.00388646307458
100
AcDbArc
 50
63.852853
 51
73.237884
  0
LINE
  5
161
102
{ACAD_REACTORS
330
628
102
}
330
1F
100
AcDbEntity
  8
LC-001-002-----0
 62
     7
370
    50
100
AcDbLine
 10
80.613884
 20
220.287423
 30
0.0
 11
80.758123
 21
220.209083
 31
0.0
  0
ARC
  5
162
102
{ACAD_REACTORS
330
628
102
}
330
1F
100
AcDbEntity
  8
LC-001-002-----0
 62
     7
370
    50
100
AcDbCircle
 10
79.788965
 20
218.574986
 30
0.0
 40
1.899879586622273
100
AcDbArc
 50
51.868428
 51
59.328446
  0
LINE
  5
163
102
{ACAD_REACTORS
330
628
102
}
330
1F
100
AcDbEntity
  8
LC-001-002-----0
 62
     7
370
    50
100
AcDbLine
 10
80.962082
 20
220.069422
 30
0.0
 11
81.051819
 21
219.995151
 31
0.0
  0
LINE
  5
164
102
{ACAD_REACTORS
330
628
102
}
330
1F
100
AcDbEntity
  8
LC-001-002-----0
 62
     7
370
    50
100
AcDbLine
 10
81.051819
 20
219.995151
 30
0.0
 11
81.146432
 21
219.906492
 31
0.0
  0
ARC
  5
165
102
{ACAD_REACTORS
330
628
102
}
330
1F
100
AcDbEntity
  8
LC-001-002-----0
 62
     7
370
    50
100
AcDbCircle
 10
79.729475
 20
218.489794
 30
0.0
 40
2.003696582721391
100
AcDbArc
 50
35.587633
 51
44.994757
  0
LINE
  5
166
102
{ACAD_REACTORS
330
628
102
}
330
1F
100
AcDbEntity
  8
LC-001-002-----0
 62
     7
370
    50
100
AcDbLine
 10
81.358934
 20
219.65584
 30
0.0
 11
81.449067
 21
219.518217
 31
0.0
  0
ARC
  5
167
102
{ACAD_REACTORS
330
628
102
}
330
1F
100
AcDbEntity
  8
LC-001-002-----0
 62
     7
370
    50
100
AcDbCircle
 10
79.821368
 20
218.538228
 30
0.0
 40
1.899943115162129
100
AcDbArc
 50
23.61434
 51
31.050896
  0
LINE
  5
168
102
{ACAD_REACTORS
330
628
102
}
330
1F
100
AcDbEntity
  8
LC-001-002-----0
 62
     7
370
    50
100
AcDbLine
 10
81.562215
 20
219.299304
 30
0.0
 11
81.606046
 21
219.191542
 31
0.0
  0
LINE
  5
169
102
{ACAD_REACTORS
330
628
102
}
330
1F
100
AcDbEntity
  8
LC-001-002-----0
 62
     7
370
    50
100
AcDbLine
 10
81.606046
 20
219.191542
 30
0.0
 11
81.647368
 21
219.068844
 31
0.0
  0
ARC
  5
16A
102
{ACAD_REACTORS
330
628
102
}
330
1F
100
AcDbEntity
  8
LC-001-002-----0
 62
     7
370
    50
100
AcDbCircle
 10
79.847328
 20
218.517849
 30
0.0
 40
1.882482123910789
100
AcDbArc
 50
8.102055
 51
17.019452
  0
LINE
  5
16B
102
{ACAD_REACTORS
330
628
102
}
330
1F
100
AcDbEntity
  8
LC-001-002-----0
 62
     7
370
    50
100
AcDbLine
 10
81.71102
 20
218.78316
 30
0.0
 11
81.726268
 21
218.647354
 31
0.0
  0
LINE
  5
16C
102
{ACAD_REACTORS
330
628
102
}
330
1F
100
AcDbEntity
  8
LC-001-002-----0
 62
     7
370
    50
100
AcDbLine
 10
81.726268
 20
218.647354
 30
0.0
 11
81.732292
 21
218.492251
 31
0.0
  0
ARC
  5
16D
102
{ACAD_REACTORS
330
628
102
}
330
1F
100
AcDbEntity
  8
LC-001-002-----0
 62
     7
370
    50
100
AcDbCircle
 10
281.709714
 20
200.492737
 30
0.0
 40
6.00616916526626
100
AcDbArc
 50
351.639802
 51
359.995366
  0
LINE
  5
16E
102
{ACAD_REACTORS
330
628
102
}
330
1F
100
AcDbEntity
  8
LC-001-002-----0
 62
     7
370
    50
100
AcDbLine
 10
287.65206
 20
199.619466
 30
0.0
 11
287.566107
 21
199.160057
 31
0.0
  0
LINE
  5
16F
102
{ACAD_REACTORS
330
628
102
}
330
1F
100
AcDbEntity
  8
LC-001-002-----0
 62
     7
370
    50
100
AcDbLine
 10
287.566107
 20
199.160057
 30
0.0
 11
287.46108
 21
198.76237
 31
0.0
  0
ARC
  5
170
102
{ACAD_REACTORS
330
628
102
}
330
1F
100
AcDbEntity
  8
LC-001-002-----0
 62
     7
370
    50
100
AcDbCircle
 10
281.394049
 20
200.611328
 30
0.0
 40
6.342515557214314
100
AcDbArc
 50
336.389286
 51
343.051136
  0
LINE
  5
171
102
{ACAD_REACTORS
330
628
102
}
330
1F
100
AcDbEntity
  8
LC-001-002-----0
 62
     7
370
    50
100
AcDbLine
 10
287.205619
 20
198.071021
 30
0.0
 11
287.055097
 21
197.755056
 31
0.0
  0
LINE
  5
172
102
{ACAD_REACTORS
330
628
102
}
330
1F
100
AcDbEntity
  8
LC-001-002-----0
 62
     7
370
    50
100
AcDbLine
 10
287.055097
 20
197.755056
 30
0.0
 11
286.866172
 21
197.414294
 31
0.0
  0
ARC
  5
173
102
{ACAD_REACTORS
330
628
102
}
330
1F
100
AcDbEntity
  8
LC-001-002-----0
 62
     7
370
    50
100
AcDbCircle
 10
281.430676
 20
200.687815
 30
0.0
 40
6.345121165101835
100
AcDbArc
 50
322.241585
 51
328.941594
  0
LINE
  5
174
102
{ACAD_REACTORS
330
628
102
}
330
1F
100
AcDbEntity
  8
LC-001-002-----0
 62
     7
370
    50
100
AcDbLine
 10
286.447127
 20
196.802486
 30
0.0
 11
286.21122
 21
196.51848
 31
0.0
  0
LINE
  5
175
102
{ACAD_REACTORS
330
628
102
}
330
1F
100
AcDbEntity
  8
LC-001-002-----0
 62
     7
370
    50
100
AcDbLine
 10
286.21122
 20
196.51848
 30
0.0
 11
285.958291
 21
196.24952
 31
0.0
  0
ARC
  5
176
102
{ACAD_REACTORS
330
628
102
}
330
1F
100
AcDbEntity
  8
LC-001-002-----0
 62
     7
370
    50
100
AcDbCircle
 10
281.708585
 20
200.501036
 30
0.0
 40
6.011271566279707
100
AcDbArc
 50
305.581178
 51
314.987803
  0
LINE
  5
177
102
{ACAD_REACTORS
330
628
102
}
330
1F
100
AcDbEntity
  8
LC-001-002-----0
 62
     7
370
    50
100
AcDbLine
 10
285.206279
 20
195.612117
 30
0.0
 11
284.793382
 21
195.341763
 31
0.0
  0
ARC
  5
178
102
{ACAD_REACTORS
330
628
102
}
330
1F
100
AcDbEntity
  8
LC-001-002-----0
 62
     7
370
    50
100
AcDbCircle
 10
281.710663
 20
200.502773
 30
0.0
 40
6.011586727731856
100
AcDbArc
 50
291.465432
 51
300.850267
  0
LINE
  5
179
102
{ACAD_REACTORS
330
628
102
}
330
1F
100
AcDbEntity
  8
LC-001-002-----0
 62
     7
370
    50
100
AcDbLine
 10
283.910542
 20
194.908159
 30
0.0
 11
283.445254
 21
194.746988
 31
0.0
  0
ARC
  5
17A
102
{ACAD_REACTORS
330
628
102
}
330
1F
100
AcDbEntity
  8
LC-001-002-----0
 62
     7
370
    50
100
AcDbCircle
 10
281.624999
 20
200.898992
 30
0.0
 40
6.415643613609882
100
AcDbArc
 50
278.634116
 51
286.482436
  0
LINE
  5
17B
102
{ACAD_REACTORS
330
628
102
}
330
1F
100
AcDbEntity
  8
LC-001-002-----0
 62
     7
370
    50
100
AcDbLine
 10
282.588141
 20
194.556056
 30
0.0
 11
282.125147
 21
194.506258
 31
0.0
  0
LINE
  5
17C
102
{ACAD_REACTORS
330
628
102
}
330
1F
100
AcDbEntity
  8
LC-001-002-----0
 62
     7
370
    50
100
AcDbLine
 10
282.125147
 20
194.506258
 30
0.0
 11
281.715376
 21
194.492251
 31
0.0
  0
ARC
  5
17D
102
{ACAD_REACTORS
330
628
102
}
330
1F
100
AcDbEntity
  8
LC-001-002-----0
 62
     7
370
    50
100
AcDbCircle
 10
289.707485
 20
218.608974
 30
0.0
 40
1.88329695044588
100
AcDbArc
 50
89.739719
 51
98.622619
  0
LINE
  5
17E
102
{ACAD_REACTORS
330
628
102
}
330
1F
100
AcDbEntity
  8
LC-001-002-----0
 62
     7
370
    50
100
AcDbLine
 10
289.42513
 20
220.470984
 30
0.0
 11
289.28112
 21
220.444397
 31
0.0
  0
LINE
  5
17F
102
{ACAD_REACTORS
330
628
102
}
330
1F
100
AcDbEntity
  8
LC-001-002-----0
 62
     7
370
    50
100
AcDbLine
 10
289.28112
 20
220.444397
 30
0.0
 11
289.139442
 21
220.407346
 31
0.0
  0
ARC
  5
180
102
{ACAD_REACTORS
330
628
102
}
330
1F
100
AcDbEntity
  8
LC-001-002-----0
 62
     7
370
    50
100
AcDbCircle
 10
289.71736
 20
218.488604
 30
0.0
 40
2.003886463072798
100
AcDbArc
 50
106.762116
 51
116.147147
  0
LINE
  5
181
102
{ACAD_REACTORS
330
628
102
}
330
1F
100
AcDbEntity
  8
LC-001-002-----0
 62
     7
370
    50
100
AcDbLine
 10
288.834292
 20
220.287423
 30
0.0
 11
288.690052
 21
220.209083
 31
0.0
  0
ARC
  5
182
102
{ACAD_REACTORS
330
628
102
}
330
1F
100
AcDbEntity
  8
LC-001-002-----0
 62
     7
370
    50
100
AcDbCircle
 10
289.659211
 20
218.574986
 30
0.0
 40
1.899879586645062
100
AcDbArc
 50
120.671554
 51
128.131572
  0
LINE
  5
183
102
{ACAD_REACTORS
330
628
102
}
330
1F
100
AcDbEntity
  8
LC-001-002-----0
 62
     7
370
    50
100
AcDbLine
 10
288.486094
 20
220.069422
 30
0.0
 11
288.396356
 21
219.995151
 31
0.0
  0
LINE
  5
184
102
{ACAD_REACTORS
330
628
102
}
330
1F
100
AcDbEntity
  8
LC-001-002-----0
 62
     7
370
    50
100
AcDbLine
 10
288.396356
 20
219.995151
 30
0.0
 11
288.301743
 21
219.906492
 31
0.0
  0
ARC
  5
185
102
{ACAD_REACTORS
330
628
102
}
330
1F
100
AcDbEntity
  8
LC-001-002-----0
 62
     7
370
    50
100
AcDbCircle
 10
289.7187
 20
218.489794
 30
0.0
 40
2.00369658271291
100
AcDbArc
 50
135.005243
 51
144.412367
  0
LINE
  5
186
102
{ACAD_REACTORS
330
628
102
}
330
1F
100
AcDbEntity
  8
LC-001-002-----0
 62
     7
370
    50
100
AcDbLine
 10
288.089241
 20
219.65584
 30
0.0
 11
287.999108
 21
219.518217
 31
0.0
  0
ARC
  5
187
102
{ACAD_REACTORS
330
628
102
}
330
1F
100
AcDbEntity
  8
LC-001-002-----0
 62
     7
370
    50
100
AcDbCircle
 10
289.626808
 20
218.538228
 30
0.0
 40
1.899943115155914
100
AcDbArc
 50
148.949104
 51
156.38566
  0
LINE
  5
188
102
{ACAD_REACTORS
330
628
102
}
330
1F
100
AcDbEntity
  8
LC-001-002-----0
 62
     7
370
    50
100
AcDbLine
 10
287.885961
 20
219.299304
 30
0.0
 11
287.842129
 21
219.191542
 31
0.0
  0
LINE
  5
189
102
{ACAD_REACTORS
330
628
102
}
330
1F
100
AcDbEntity
  8
LC-001-002-----0
 62
     7
370
    50
100
AcDbLine
 10
287.842129
 20
219.191542
 30
0.0
 11
287.800808
 21
219.068844
 31
0.0
  0
ARC
  5
18A
102
{ACAD_REACTORS
330
628
102
}
330
1F
100
AcDbEntity
  8
LC-001-002-----0
 62
     7
370
    50
100
AcDbCircle
 10
289.600848
 20
218.517849
 30
0.0
 40
1.88248212389238
100
AcDbArc
 50
162.980548
 51
171.897945
  0
LINE
  5
18B
102
{ACAD_REACTORS
330
628
102
}
330
1F
100
AcDbEntity
  8
LC-001-002-----0
 62
     7
370
    50
100
AcDbLine
 10
287.737155
 20
218.78316
 30
0.0
 11
287.721907
 21
218.647354
 31
0.0
  0
LINE
  5
18C
102
{ACAD_REACTORS
330
628
102
}
330
1F
100
AcDbEntity
  8
LC-001-002-----0
 62
     7
370
    50
100
AcDbLine
 10
287.721907
 20
218.647354
 30
0.0
 11
287.715884
 21
218.492251
 31
0.0
  0
ARC
  5
18D
102
{ACAD_REACTORS
330
628
102
}
330
1F
100
AcDbEntity
  8
LC-001-002-----0
 62
     7
370
    50
100
AcDbCircle
 10
106.633584
 20
61.966825
 30
0.0
 40
8.961330506046577
100
AcDbArc
 50
256.50236
 51
264.955885
  0
LINE
  5
18E
102
{ACAD_REACTORS
330
628
102
}
330
1F
100
AcDbEntity
  8
LC-001-002-----0
 62
     7
370
    50
100
AcDbLine
 10
104.541962
 20
53.25301
 30
0.0
 11
103.907675
 21
53.429145
 31
0.0
  0
ARC
  5
18F
102
{ACAD_REACTORS
330
628
102
}
330
1F
100
AcDbEntity
  8
LC-001-002-----0
 62
     7
370
    50
100
AcDbCircle
 10
106.648789
 20
62.166365
 30
0.0
 40
9.157112817215833
100
AcDbArc
 50
246.375695
 51
252.581883
  0
LINE
  5
190
102
{ACAD_REACTORS
330
628
102
}
330
1F
100
AcDbEntity
  8
LC-001-002-----0
 62
     7
370
    50
100
AcDbLine
 10
102.979188
 20
53.776684
 30
0.0
 11
102.513666
 21
53.993229
 31
0.0
  0
LINE
  5
191
102
{ACAD_REACTORS
330
628
102
}
330
1F
100
AcDbEntity
  8
LC-001-002-----0
 62
     7
370
    50
100
AcDbLine
 10
102.513666
 20
53.993229
 30
0.0
 11
102.095099
 21
54.21362
 31
0.0
  0
ARC
  5
192
102
{ACAD_REACTORS
330
628
102
}
330
1F
100
AcDbEntity
  8
LC-001-002-----0
 62
     7
370
    50
100
AcDbCircle
 10
107.42761
 20
63.726858
 30
0.0
 40
10.90584126935584
100
AcDbArc
 50
234.599311
 51
240.72781
  0
LINE
  5
193
102
{ACAD_REACTORS
330
628
102
}
330
1F
100
AcDbEntity
  8
LC-001-002-----0
 62
     7
370
    50
100
AcDbLine
 10
101.109954
 20
54.83728
 30
0.0
 11
100.710644
 21
55.136802
 31
0.0
  0
ARC
  5
194
102
{ACAD_REACTORS
330
628
102
}
330
1F
100
AcDbEntity
  8
LC-001-002-----0
 62
     7
370
    50
100
AcDbCircle
 10
107.429523
 20
63.664831
 30
0.0
 40
10.85682357488773
100
AcDbArc
 50
222.978558
 51
231.766895
  0
LINE
  5
195
102
{ACAD_REACTORS
330
628
102
}
330
1F
100
AcDbEntity
  8
LC-001-002-----0
 62
     7
370
    50
100
AcDbLine
 10
99.486575
 20
56.263467
 30
0.0
 11
99.157844
 21
56.632616
 31
0.0
  0
ARC
  5
196
102
{ACAD_REACTORS
330
628
102
}
330
1F
100
AcDbEntity
  8
LC-001-002-----0
 62
     7
370
    50
100
AcDbCircle
 10
107.008376
 20
63.346868
 30
0.0
 40
10.33015218707254
100
AcDbArc
 50
214.058964
 51
220.539073
  0
LINE
  5
197
102
{ACAD_REACTORS
330
628
102
}
330
1F
100
AcDbEntity
  8
LC-001-002-----0
 62
     7
370
    50
100
AcDbLine
 10
98.450241
 20
57.56151
 30
0.0
 11
98.116947
 21
58.084059
 31
0.0
  0
ARC
  5
198
102
{ACAD_REACTORS
330
628
102
}
330
1F
100
AcDbEntity
  8
LC-001-002-----0
 62
     7
370
    50
100
AcDbCircle
 10
107.64781
 20
63.74096
 30
0.0
 40
11.08322505550325
100
AcDbArc
 50
205.26364
 51
210.690614
  0
LINE
  5
199
102
{ACAD_REACTORS
330
628
102
}
330
1F
100
AcDbEntity
  8
LC-001-002-----0
 62
     7
370
    50
100
AcDbLine
 10
97.624656
 20
59.010816
 30
0.0
 11
97.250638
 21
59.924837
 31
0.0
  0
LINE
  5
19A
102
{ACAD_REACTORS
330
628
102
}
330
1F
100
AcDbEntity
  8
LC-001-002-----0
 62
     7
370
    50
100
AcDbLine
 10
97.250638
 20
59.924837
 30
0.0
 11
96.970716
 21
60.870758
 31
0.0
  0
ARC
  5
19B
102
{ACAD_REACTORS
330
628
102
}
330
1F
100
AcDbEntity
  8
LC-001-002-----0
 62
     7
370
    50
100
AcDbCircle
 10
105.87141
 20
63.016978
 30
0.0
 40
9.155796915513262
100
AcDbArc
 50
185.322946
 51
193.556911
  0
LINE
  5
19C
102
{ACAD_REACTORS
330
628
102
}
330
1F
100
AcDbEntity
  8
LC-001-002-----0
 62
     7
370
    50
100
AcDbLine
 10
96.755097
 20
62.167601
 30
0.0
 11
96.71876
 21
62.827622
 31
0.0
  0
ARC
  5
19D
102
{ACAD_REACTORS
330
628
102
}
330
1F
100
AcDbEntity
  8
LC-001-002-----0
 62
     7
370
    50
100
AcDbCircle
 10
153.523558
 20
60.124789
 30
0.0
 40
5.481371814304914
100
AcDbArc
 50
284.526951
 51
288.325527
  0
ARC
  5
19E
102
{ACAD_REACTORS
330
628
102
}
330
1F
100
AcDbEntity
  8
LC-001-002-----0
 62
     7
370
    50
100
AcDbCircle
 10
153.372518
 20
60.692425
 30
0.0
 40
6.068747346266509
100
AcDbArc
 50
281.164759
 51
284.563092
  0
ARC
  5
19F
102
{ACAD_REACTORS
330
628
102
}
330
1F
100
AcDbEntity
  8
LC-001-002-----0
 62
     7
370
    50
100
AcDbCircle
 10
153.424302
 20
60.434837
 30
0.0
 40
5.806007329304198
100
AcDbArc
 50
277.724
 51
281.155608
  0
ARC
  5
1A0
102
{ACAD_REACTORS
330
628
102
}
330
1F
100
AcDbEntity
  8
LC-001-002-----0
 62
     7
370
    50
100
AcDbCircle
 10
153.492122
 20
59.960308
 30
0.0
 40
5.326670624767688
100
AcDbArc
 50
274.084339
 51
277.687137
  0
ARC
  5
1A1
102
{ACAD_REACTORS
330
628
102
}
330
1F
100
AcDbEntity
  8
LC-001-002-----0
 62
     7
370
    50
100
AcDbCircle
 10
153.498042
 20
59.939954
 30
0.0
 40
5.305947980211633
100
AcDbArc
 50
270.473962
 51
274.036226
  0
ARC
  5
1A2
102
{ACAD_REACTORS
330
628
102
}
330
1F
100
AcDbEntity
  8
LC-001-002-----0
 62
     7
370
    50
100
AcDbCircle
 10
153.49061
 20
61.21535
 30
0.0
 40
6.581362274450583
100
AcDbArc
 50
267.480627
 51
270.446814
  0
ARC
  5
1A3
102
{ACAD_REACTORS
330
628
102
}
330
1F
100
AcDbEntity
  8
LC-001-002-----0
 62
     7
370
    50
100
AcDbCircle
 10
153.725636
 20
66.669216
 30
0.0
 40
12.04028889028485
100
AcDbArc
 50
265.718678
 51
267.504126
  0
LINE
  5
1A4
102
{ACAD_REACTORS
330
628
102
}
330
1F
100
AcDbEntity
  8
LC-001-002-----0
 62
     7
370
    50
100
AcDbLine
 10
152.826784
 20
54.662525
 30
0.0
 11
152.617397
 21
54.678396
 31
0.0
  0
LINE
  5
1A5
102
{ACAD_REACTORS
330
628
102
}
330
1F
100
AcDbEntity
  8
LC-001-002-----0
 62
     7
370
    50
100
AcDbLine
 10
155.246986
 20
54.921402
 30
0.0
 11
155.304074
 21
54.756468
 31
0.0
  0
ARC
  5
1A6
102
{ACAD_REACTORS
330
628
102
}
330
1F
100
AcDbEntity
  8
LC-001-002-----0
 62
     7
370
    50
100
AcDbCircle
 10
151.447332
 20
53.431199
 30
0.0
 40
4.078087714039347
100
AcDbArc
 50
16.792349
 51
18.963947
  0
ARC
  5
1A7
102
{ACAD_REACTORS
330
628
102
}
330
1F
100
AcDbEntity
  8
LC-001-002-----0
 62
     7
370
    50
100
AcDbCircle
 10
153.689515
 20
54.110505
 30
0.0
 40
1.735262731034679
100
AcDbArc
 50
12.360195
 51
16.707694
  0
ARC
  5
1A8
102
{ACAD_REACTORS
330
628
102
}
330
1F
100
AcDbEntity
  8
LC-001-002-----0
 62
     7
370
    50
100
AcDbCircle
 10
154.521759
 20
54.296274
 30
0.0
 40
0.8825510827812849
100
AcDbArc
 50
5.133508
 51
12.144917
  0
ARC
  5
1A9
102
{ACAD_REACTORS
330
628
102
}
330
1F
100
AcDbEntity
  8
LC-001-002-----0
 62
     7
370
    50
100
AcDbCircle
 10
154.922797
 20
54.336029
 30
0.0
 40
0.4795787794749385
100
AcDbArc
 50
354.434817
 51
4.69007
  0
ARC
  5
1AA
102
{ACAD_REACTORS
330
628
102
}
330
1F
100
AcDbEntity
  8
LC-001-002-----0
 62
     7
370
    50
100
AcDbCircle
 10
155.117291
 20
54.321031
 30
0.0
 40
0.2845740781376539
100
AcDbArc
 50
340.122933
 51
353.642704
  0
ARC
  5
1AB
102
{ACAD_REACTORS
330
628
102
}
330
1F
100
AcDbEntity
  8
LC-001-002-----0
 62
     7
370
    50
100
AcDbCircle
 10
155.198272
 20
54.296016
 30
0.0
 40
0.1999527703420892
100
AcDbArc
 50
323.904249
 51
338.974113
  0
ARC
  5
1AC
102
{ACAD_REACTORS
330
628
102
}
330
1F
100
AcDbEntity
  8
LC-001-002-----0
 62
     7
370
    50
100
AcDbCircle
 10
155.220138
 20
54.284956
 30
0.0
 40
0.1758123091571836
100
AcDbArc
 50
309.490955
 51
322.618218
  0
ARC
  5
1AD
102
{ACAD_REACTORS
330
628
102
}
330
1F
100
AcDbEntity
  8
LC-001-002-----0
 62
     7
370
    50
100
AcDbCircle
 10
151.362372
 20
53.263593
 30
0.0
 40
0.1896225879617971
100
AcDbArc
 50
266.138232
 51
297.724693
  0
ARC
  5
1AE
102
{ACAD_REACTORS
330
628
102
}
330
1F
100
AcDbEntity
  8
LC-001-002-----0
 62
     7
370
    50
100
AcDbCircle
 10
151.240363
 20
53.528342
 30
0.0
 40
0.4809768803635593
100
AcDbArc
 50
295.917703
 51
312.643862
  0
ARC
  5
1AF
102
{ACAD_REACTORS
330
628
102
}
330
1F
100
AcDbEntity
  8
LC-001-002-----0
 62
     7
370
    50
100
AcDbCircle
 10
150.726187
 20
54.13194
 30
0.0
 40
1.273663305161602
100
AcDbArc
 50
311.263417
 51
319.708902
  0
ARC
  5
1B0
102
{ACAD_REACTORS
330
628
102
}
330
1F
100
AcDbEntity
  8
LC-001-002-----0
 62
     7
370
    50
100
AcDbCircle
 10
149.441833
 20
55.26212
 30
0.0
 40
2.984349724319023
100
AcDbArc
 50
319.103917
 51
323.679383
  0
LINE
  5
1B1
102
{ACAD_REACTORS
330
628
102
}
330
1F
100
AcDbEntity
  8
LC-001-002-----0
 62
     7
370
    50
100
AcDbLine
 10
151.846369
 20
53.49448
 30
0.0
 11
151.937846
 21
53.621051
 31
0.0
  0
ARC
  5
1B2
102
{ACAD_REACTORS
330
628
102
}
330
1F
100
AcDbEntity
  8
LC-001-002-----0
 62
     7
370
    50
100
AcDbCircle
 10
143.718504
 20
59.380882
 30
0.0
 40
10.03659426410831
100
AcDbArc
 50
324.978556
 51
327.029459
  0
ARC
  5
1B3
102
{ACAD_REACTORS
330
628
102
}
330
1F
100
AcDbEntity
  8
LC-001-002-----0
 62
     7
370
    50
100
AcDbCircle
 10
132.283383
 20
66.849167
 30
0.0
 40
23.69443213066387
100
AcDbArc
 50
326.926835
 51
327.942185
  0
LINE
  5
1B4
102
{ACAD_REACTORS
330
628
102
}
330
1F
100
AcDbEntity
  8
LC-001-002-----0
 62
     7
370
    50
100
AcDbLine
 10
152.364721
 20
54.272761
 30
0.0
 11
152.617397
 21
54.678396
 31
0.0
  0
LINE
  5
1B5
102
{ACAD_REACTORS
330
628
102
}
330
1F
100
AcDbEntity
  8
LC-001-002-----0
 62
     7
370
    50
100
AcDbLine
 10
152.617397
 20
54.678396
 30
0.0
 11
153.119782
 21
55.486337
 31
0.0
  0
ARC
  5
1B6
102
{ACAD_REACTORS
330
628
102
}
330
1F
100
AcDbEntity
  8
LC-001-002-----0
 62
     7
370
    50
100
AcDbCircle
 10
197.862072
 20
27.47057
 30
0.0
 40
52.78973099777195
100
AcDbArc
 50
146.755398
 51
147.946908
  0
LINE
  5
1B7
102
{ACAD_REACTORS
330
628
102
}
330
1F
100
AcDbEntity
  8
LC-001-002-----0
 62
     7
370
    50
100
AcDbLine
 10
153.712024
 20
56.410662
 30
0.0
 11
154.037476
 21
56.899454
 31
0.0
  0
ARC
  5
1B8
102
{ACAD_REACTORS
330
628
102
}
330
1F
100
AcDbEntity
  8
LC-001-002-----0
 62
     7
370
    50
100
AcDbCircle
 10
183.664919
 20
36.907039
 30
0.0
 40
35.74188012944936
100
AcDbArc
 50
143.962194
 51
145.988768
  0
LINE
  5
1B9
102
{ACAD_REACTORS
330
628
102
}
330
1F
100
AcDbEntity
  8
LC-001-002-----0
 62
     7
370
    50
100
AcDbLine
 10
154.762999
 20
57.934665
 30
0.0
 11
155.16394
 21
58.474038
 31
0.0
  0
LINE
  5
1BA
102
{ACAD_REACTORS
330
628
102
}
330
1F
100
AcDbEntity
  8
LC-001-002-----0
 62
     7
370
    50
100
AcDbLine
 10
264.368741
 20
49.603694
 30
0.0
 11
259.690787
 21
49.983617
 31
0.0
  0
LINE
  5
1BB
102
{ACAD_REACTORS
330
628
102
}
330
1F
100
AcDbEntity
  8
LC-001-002-----0
 62
     7
370
    50
100
AcDbLine
 10
259.690787
 20
49.983617
 30
0.0
 11
254.447906
 21
50.409426
 31
0.0
  0
LINE
  5
1BC
102
{ACAD_REACTORS
330
628
102
}
330
1F
100
AcDbEntity
  8
LC-001-002-----0
 62
     7
370
    50
100
AcDbLine
 10
254.447906
 20
50.409426
 30
0.0
 11
251.143619
 21
50.677792
 31
0.0
  0
LINE
  5
1BD
102
{ACAD_REACTORS
330
628
102
}
330
1F
100
AcDbEntity
  8
LC-001-002-----0
 62
     7
370
    50
100
AcDbLine
 10
251.143619
 20
50.677792
 30
0.0
 11
244.966327
 21
51.179503
 31
0.0
  0
LINE
  5
1BE
102
{ACAD_REACTORS
330
628
102
}
330
1F
100
AcDbEntity
  8
LC-001-002-----0
 62
     7
370
    50
100
AcDbLine
 10
244.966327
 20
51.179503
 30
0.0
 11
239.402968
 21
51.631358
 31
0.0
  0
LINE
  5
1BF
102
{ACAD_REACTORS
330
628
102
}
330
1F
100
AcDbEntity
  8
LC-001-002-----0
 62
     7
370
    50
100
AcDbLine
 10
238.791556
 20
51.568608
 30
0.0
 11
239.009028
 21
51.589159
 31
0.0
  0
LINE
  5
1C0
102
{ACAD_REACTORS
330
628
102
}
330
1F
100
AcDbEntity
  8
LC-001-002-----0
 62
     7
370
    50
100
AcDbLine
 10
239.009028
 20
51.589159
 30
0.0
 11
239.113215
 21
51.599556
 31
0.0
  0
LINE
  5
1C1
102
{ACAD_REACTORS
330
628
102
}
330
1F
100
AcDbEntity
  8
LC-001-002-----0
 62
     7
370
    50
100
AcDbLine
 10
239.113215
 20
51.599556
 30
0.0
 11
239.310571
 21
51.620646
 31
0.0
  0
LINE
  5
1C2
102
{ACAD_REACTORS
330
628
102
}
330
1F
100
AcDbEntity
  8
LC-001-002-----0
 62
     7
370
    50
100
AcDbLine
 10
239.310571
 20
51.620646
 30
0.0
 11
239.402968
 21
51.631358
 31
0.0
  0
LINE
  5
1C3
102
{ACAD_REACTORS
330
628
102
}
330
1F
100
AcDbEntity
  8
LC-001-002-----0
 62
     7
370
    50
100
AcDbLine
 10
238.094096
 20
51.50816
 30
0.0
 11
238.448386
 21
51.538235
 31
0.0
  0
LINE
  5
1C4
102
{ACAD_REACTORS
330
628
102
}
330
1F
100
AcDbEntity
  8
LC-001-002-----0
 62
     7
370
    50
100
AcDbLine
 10
238.448386
 20
51.538235
 30
0.0
 11
238.622011
 21
51.553367
 31
0.0
  0
LINE
  5
1C5
102
{ACAD_REACTORS
330
628
102
}
330
1F
100
AcDbEntity
  8
LC-001-002-----0
 62
     7
370
    50
100
AcDbLine
 10
238.622011
 20
51.553367
 30
0.0
 11
238.791556
 21
51.568608
 31
0.0
  0
ARC
  5
1C6
102
{ACAD_REACTORS
330
628
102
}
330
1F
100
AcDbEntity
  8
LC-001-002-----0
 62
     7
370
    50
100
AcDbCircle
 10
229.890138
 20
87.353648
 30
0.0
 40
17.10369840464306
100
AcDbArc
 50
83.222427
 51
90.011295
  0
ARC
  5
1C7
102
{ACAD_REACTORS
330
628
102
}
330
1F
100
AcDbEntity
  8
LC-001-002-----0
 62
     7
370
    50
100
AcDbCircle
 10
230.039896
 20
88.348734
 30
0.0
 40
16.09792329641506
100
AcDbArc
 50
75.953024
 51
83.333745
  0
ARC
  5
1C8
102
{ACAD_REACTORS
330
628
102
}
330
1F
100
AcDbEntity
  8
LC-001-002-----0
 62
     7
370
    50
100
AcDbCircle
 10
230.757162
 20
91.182744
 30
0.0
 40
13.17456864239003
100
AcDbArc
 50
67.097868
 51
75.987615
  0
ARC
  5
1C9
102
{ACAD_REACTORS
330
628
102
}
330
1F
100
AcDbEntity
  8
LC-001-002-----0
 62
     7
370
    50
100
AcDbCircle
 10
231.84346
 20
93.814653
 30
0.0
 40
10.32741505526507
100
AcDbArc
 50
58.726618
 51
66.967141
  0
ARC
  5
1CA
102
{ACAD_REACTORS
330
628
102
}
330
1F
100
AcDbEntity
  8
LC-001-002-----0
 62
     7
370
    50
100
AcDbCircle
 10
232.879072
 20
95.5381
 30
0.0
 40
8.316780882492799
100
AcDbArc
 50
48.734321
 51
58.660884
  0
ARC
  5
1CB
102
{ACAD_REACTORS
330
628
102
}
330
1F
100
AcDbEntity
  8
LC-001-002-----0
 62
     7
370
    50
100
AcDbCircle
 10
233.782627
 20
96.584476
 30
0.0
 40
6.934331172420062
100
AcDbArc
 50
36.961168
 51
48.643652
  0
ARC
  5
1CC
102
{ACAD_REACTORS
330
628
102
}
330
1F
100
AcDbEntity
  8
LC-001-002-----0
 62
     7
370
    50
100
AcDbCircle
 10
234.300639
 20
96.984674
 30
0.0
 40
6.2797937952079
100
AcDbArc
 50
23.870424
 51
36.885365
  0
ARC
  5
1CD
102
{ACAD_REACTORS
330
628
102
}
330
1F
100
AcDbEntity
  8
LC-001-002-----0
 62
     7
370
    50
100
AcDbCircle
 10
234.170059
 20
96.924847
 30
0.0
 40
6.423415019309725
100
AcDbArc
 50
10.511372
 51
23.887079
  0
ARC
  5
1CE
102
{ACAD_REACTORS
330
628
102
}
330
1F
100
AcDbEntity
  8
LC-001-002-----0
 62
     7
370
    50
100
AcDbCircle
 10
233.131626
 20
96.709207
 30
0.0
 40
7.483795178838157
100
AcDbArc
 50
358.071395
 51
10.684239
  0
LINE
  5
1CF
102
{ACAD_REACTORS
330
628
102
}
330
1F
100
AcDbEntity
  8
LC-001-002-----0
 62
     7
370
    50
100
AcDbLine
 10
239.290046
 20
96.492251
 30
0.0
 11
237.894161
 21
97.739722
 31
0.0
  0
ARC
  5
1D0
102
{ACAD_REACTORS
330
628
102
}
330
1F
100
AcDbEntity
  8
LC-001-002-----0
 62
     7
370
    50
100
AcDbCircle
 10
201.4801
 20
56.54432
 30
0.0
 40
54.98222388985025
100
AcDbArc
 50
48.525406
 51
50.438956
  0
ARC
  5
1D1
102
{ACAD_REACTORS
330
628
102
}
330
1F
100
AcDbEntity
  8
LC-001-002-----0
 62
     7
370
    50
100
AcDbCircle
 10
217.071573
 20
75.409366
 30
0.0
 40
30.50807480636009
100
AcDbArc
 50
50.44843
 51
53.770727
  0
ARC
  5
1D2
102
{ACAD_REACTORS
330
628
102
}
330
1F
100
AcDbEntity
  8
LC-001-002-----0
 62
     7
370
    50
100
AcDbCircle
 10
223.55651
 20
84.240491
 30
0.0
 40
19.55166337408989
100
AcDbArc
 50
53.805237
 51
58.725604
  0
ARC
  5
1D3
102
{ACAD_REACTORS
330
628
102
}
330
1F
100
AcDbEntity
  8
LC-001-002-----0
 62
     7
370
    50
100
AcDbCircle
 10
226.724536
 20
89.422333
 30
0.0
 40
13.47816153261447
100
AcDbArc
 50
58.800406
 51
65.515029
  0
ARC
  5
1D4
102
{ACAD_REACTORS
330
628
102
}
330
1F
100
AcDbEntity
  8
LC-001-002-----0
 62
     7
370
    50
100
AcDbCircle
 10
228.20616
 20
92.623168
 30
0.0
 40
9.951135660378201
100
AcDbArc
 50
65.640439
 51
74.205514
  0
ARC
  5
1D5
102
{ACAD_REACTORS
330
628
102
}
330
1F
100
AcDbEntity
  8
LC-001-002-----0
 62
     7
370
    50
100
AcDbCircle
 10
228.740316
 20
94.426166
 30
0.0
 40
8.070854339179896
100
AcDbArc
 50
74.370463
 51
84.464498
  0
LINE
  5
1D6
102
{ACAD_REACTORS
330
628
102
}
330
1F
100
AcDbEntity
  8
LC-001-002-----0
 62
     7
370
    50
100
AcDbLine
 10
229.518851
 20
102.459383
 30
0.0
 11
228.820909
 21
102.492251
 31
0.0
  0
ARC
  5
1D7
102
{ACAD_REACTORS
330
628
102
}
330
1F
100
AcDbEntity
  8
LC-001-002-----0
 62
     7
370
    50
100
AcDbCircle
 10
228.819976
 20
103.076835
 30
0.0
 40
0.5845846454955176
100
AcDbArc
 50
270.091439
 51
288.346861
  0
ARC
  5
1D8
102
{ACAD_REACTORS
330
628
102
}
330
1F
100
AcDbEntity
  8
LC-001-002-----0
 62
     7
370
    50
100
AcDbCircle
 10
228.783004
 20
103.189605
 30
0.0
 40
0.7032595365455604
100
AcDbArc
 50
288.313962
 51
304.528344
  0
ARC
  5
1D9
102
{ACAD_REACTORS
330
628
102
}
330
1F
100
AcDbEntity
  8
LC-001-002-----0
 62
     7
370
    50
100
AcDbCircle
 10
228.642685
 20
103.402845
 30
0.0
 40
0.9584865505823524
100
AcDbArc
 50
304.213552
 51
317.427867
  0
ARC
  5
1DA
102
{ACAD_REACTORS
330
628
102
}
330
1F
100
AcDbEntity
  8
LC-001-002-----0
 62
     7
370
    50
100
AcDbCircle
 10
228.359546
 20
103.674547
 30
0.0
 40
1.350835546310898
100
AcDbArc
 50
317.065632
 51
327.575022
  0
ARC
  5
1DB
102
{ACAD_REACTORS
330
628
102
}
330
1F
100
AcDbEntity
  8
LC-001-002-----0
 62
     7
370
    50
100
AcDbCircle
 10
227.937188
 20
103.954145
 30
0.0
 40
1.857288469803827
100
AcDbArc
 50
327.280695
 51
335.768933
  0
ARC
  5
1DC
102
{ACAD_REACTORS
330
628
102
}
330
1F
100
AcDbEntity
  8
LC-001-002-----0
 62
     7
370
    50
100
AcDbCircle
 10
227.42346
 20
104.195127
 30
0.0
 40
2.424675970953986
100
AcDbArc
 50
335.55845
 51
342.652401
  0
ARC
  5
1DD
102
{ACAD_REACTORS
330
628
102
}
330
1F
100
AcDbEntity
  8
LC-001-002-----0
 62
     7
370
    50
100
AcDbCircle
 10
226.899693
 20
104.36647
 30
0.0
 40
2.975716935155087
100
AcDbArc
 50
342.510319
 51
348.68768
  0
ARC
  5
1DE
102
{ACAD_REACTORS
330
628
102
}
330
1F
100
AcDbEntity
  8
LC-001-002-----0
 62
     7
370
    50
100
AcDbCircle
 10
226.461057
 20
104.459772
 30
0.0
 40
3.424137366306003
100
AcDbArc
 50
348.596528
 51
354.211779
  0
ARC
  5
1DF
102
{ACAD_REACTORS
330
628
102
}
330
1F
100
AcDbEntity
  8
LC-001-002-----0
 62
     7
370
    50
100
AcDbCircle
 10
226.192906
 20
104.490372
 30
0.0
 40
3.694008191046487
100
AcDbArc
 50
354.159034
 51
359.487753
  0
ARC
  5
1E0
102
{ACAD_REACTORS
330
628
102
}
330
1F
100
AcDbEntity
  8
LC-001-002-----0
 62
     7
370
    50
100
AcDbCircle
 10
160.535637
 20
69.840188
 30
0.0
 40
12.57157398846329
100
AcDbArc
 50
244.704359
 51
246.825471
  0
ARC
  5
1E1
102
{ACAD_REACTORS
330
628
102
}
330
1F
100
AcDbEntity
  8
LC-001-002-----0
 62
     7
370
    50
100
AcDbCircle
 10
162.530722
 20
74.482209
 30
0.0
 40
17.62416594851324
100
AcDbArc
 50
246.801697
 51
248.323798
  0
ARC
  5
1E2
102
{ACAD_REACTORS
330
628
102
}
330
1F
100
AcDbEntity
  8
LC-001-002-----0
 62
     7
370
    50
100
AcDbCircle
 10
164.640717
 20
79.791486
 30
0.0
 40
23.33735321126931
100
AcDbArc
 50
248.324412
 51
249.432637
  0
ARC
  5
1E3
102
{ACAD_REACTORS
330
628
102
}
330
1F
100
AcDbEntity
  8
LC-001-002-----0
 62
     7
370
    50
100
AcDbCircle
 10
167.040107
 20
86.208371
 30
0.0
 40
30.18815077205241
100
AcDbArc
 50
249.447542
 51
250.234635
  0
ARC
  5
1E4
102
{ACAD_REACTORS
330
628
102
}
330
1F
100
AcDbEntity
  8
LC-001-002-----0
 62
     7
370
    50
100
AcDbCircle
 10
148.835647
 20
60.411079
 30
0.0
 40
8.440486506063271
100
AcDbArc
 50
319.428373
 51
321.81256
  0
ARC
  5
1E5
102
{ACAD_REACTORS
330
628
102
}
330
1F
100
AcDbEntity
  8
LC-001-002-----0
 62
     7
370
    50
100
AcDbCircle
 10
146.412326
 20
62.328145
 30
0.0
 40
11.53040161854321
100
AcDbArc
 50
321.769753
 51
323.522243
  0
ARC
  5
1E6
102
{ACAD_REACTORS
330
628
102
}
330
1F
100
AcDbEntity
  8
LC-001-002-----0
 62
     7
370
    50
100
AcDbCircle
 10
145.970282
 20
62.661813
 30
0.0
 40
12.08421408160352
100
AcDbArc
 50
323.496175
 51
325.148863
  0
ARC
  5
1E7
102
{ACAD_REACTORS
330
628
102
}
330
1F
100
AcDbEntity
  8
LC-001-002-----0
 62
     7
370
    50
100
AcDbCircle
 10
147.841091
 20
61.363107
 30
0.0
 40
9.806813491942146
100
AcDbArc
 50
325.129597
 51
327.133857
  0
ARC
  5
1E8
102
{ACAD_REACTORS
330
628
102
}
330
1F
100
AcDbEntity
  8
LC-001-002-----0
 62
     7
370
    50
100
AcDbCircle
 10
150.074205
 20
59.922294
 30
0.0
 40
7.149233507955311
100
AcDbArc
 50
327.120514
 51
329.850446
  0
ARC
  5
1E9
102
{ACAD_REACTORS
330
628
102
}
330
1F
100
AcDbEntity
  8
LC-001-002-----0
 62
     7
370
    50
100
AcDbCircle
 10
151.552645
 20
59.064584
 30
0.0
 40
5.440007899861412
100
AcDbArc
 50
329.841151
 51
333.487879
  0
ARC
  5
1EA
102
{ACAD_REACTORS
330
628
102
}
330
1F
100
AcDbEntity
  8
LC-001-002-----0
 62
     7
370
    50
100
AcDbCircle
 10
152.188122
 20
58.749368
 30
0.0
 40
4.730649629946734
100
AcDbArc
 50
333.468484
 51
337.892859
  0
ARC
  5
1EB
102
{ACAD_REACTORS
330
628
102
}
330
1F
100
AcDbEntity
  8
LC-001-002-----0
 62
     7
370
    50
100
AcDbCircle
 10
152.028462
 20
58.819548
 30
0.0
 40
4.904986116122137
100
AcDbArc
 50
337.835231
 51
342.549721
  0
ARC
  5
1EC
102
{ACAD_REACTORS
330
628
102
}
330
1F
100
AcDbEntity
  8
LC-001-002-----0
 62
     7
370
    50
100
AcDbCircle
 10
150.907138
 20
59.184856
 30
0.0
 40
6.084263743807962
100
AcDbArc
 50
342.434495
 51
346.831284
  0
LINE
  5
1ED
102
{ACAD_REACTORS
330
628
102
}
330
1F
100
AcDbEntity
  8
LC-001-002-----0
 62
     7
370
    50
100
AcDbLine
 10
156.831407
 20
57.798744
 30
0.0
 11
156.988971
 21
57.742531
 31
0.0
  0
LINE
  5
1EE
102
{ACAD_REACTORS
330
628
102
}
330
1F
100
AcDbEntity
  8
LC-001-002-----0
 62
     7
370
    50
100
AcDbLine
 10
156.988971
 20
57.742531
 30
0.0
 11
157.134518
 21
57.691274
 31
0.0
  0
LINE
  5
1EF
102
{ACAD_REACTORS
330
628
102
}
330
1F
100
AcDbEntity
  8
LC-001-002-----0
 62
     7
370
    50
100
AcDbLine
 10
157.134518
 20
57.691274
 30
0.0
 11
157.266279
 21
57.645301
 31
0.0
  0
LINE
  5
1F0
102
{ACAD_REACTORS
330
628
102
}
330
1F
100
AcDbEntity
  8
LC-001-002-----0
 62
     7
370
    50
100
AcDbLine
 10
157.266279
 20
57.645301
 30
0.0
 11
157.382484
 21
57.604936
 31
0.0
  0
LINE
  5
1F1
102
{ACAD_REACTORS
330
628
102
}
330
1F
100
AcDbEntity
  8
LC-001-002-----0
 62
     7
370
    50
100
AcDbLine
 10
157.382484
 20
57.604936
 30
0.0
 11
157.481359
 21
57.570505
 31
0.0
  0
LINE
  5
1F2
102
{ACAD_REACTORS
330
628
102
}
330
1F
100
AcDbEntity
  8
LC-001-002-----0
 62
     7
370
    50
100
AcDbLine
 10
157.481359
 20
57.570505
 30
0.0
 11
157.561133
 21
57.542336
 31
0.0
  0
ARC
  5
1F3
102
{ACAD_REACTORS
330
628
102
}
330
1F
100
AcDbEntity
  8
LC-001-002-----0
 62
     7
370
    50
100
AcDbCircle
 10
156.306916
 20
54.028542
 30
0.0
 40
3.730925832735504
100
AcDbArc
 50
69.393134
 51
70.356441
  0
ARC
  5
1F4
102
{ACAD_REACTORS
330
628
102
}
330
1F
100
AcDbEntity
  8
LC-001-002-----0
 62
     7
370
    50
100
AcDbCircle
 10
157.346139
 20
56.791905
 30
0.0
 40
0.7786114525135141
100
AcDbArc
 50
66.526916
 51
69.404527
  0
ARC
  5
1F5
102
{ACAD_REACTORS
330
628
102
}
330
1F
100
AcDbEntity
  8
LC-001-002-----0
 62
     7
370
    50
100
AcDbCircle
 10
157.641287
 20
57.469136
 30
0.0
 40
0.0398717043925986
100
AcDbArc
 50
47.760911
 51
67.921155
  0
ARC
  5
1F6
102
{ACAD_REACTORS
330
628
102
}
330
1F
100
AcDbEntity
  8
LC-001-002-----0
 62
     7
370
    50
100
AcDbCircle
 10
158.023875
 20
57.394555
 30
0.0
 40
0.3707018543400489
100
AcDbArc
 50
123.924453
 51
163.691018
  0
ARC
  5
1F7
102
{ACAD_REACTORS
330
628
102
}
330
1F
100
AcDbEntity
  8
LC-001-002-----0
 62
     7
370
    50
100
AcDbCircle
 10
158.419025
 20
56.875741
 30
0.0
 40
1.022452730596694
100
AcDbArc
 50
105.877407
 51
126.073166
  0
ARC
  5
1F8
102
{ACAD_REACTORS
330
628
102
}
330
1F
100
AcDbEntity
  8
LC-001-002-----0
 62
     7
370
    50
100
AcDbCircle
 10
159.055776
 20
55.004276
 30
0.0
 40
2.998405432701295
100
AcDbArc
 50
98.219742
 51
107.797491
  0
ARC
  5
1F9
102
{ACAD_REACTORS
330
628
102
}
330
1F
100
AcDbEntity
  8
LC-001-002-----0
 62
     7
370
    50
100
AcDbCircle
 10
159.74906
 20
50.860342
 30
0.0
 40
7.199497157400873
100
AcDbArc
 50
93.836154
 51
98.965487
  0
ARC
  5
1FA
102
{ACAD_REACTORS
330
628
102
}
330
1F
100
AcDbEntity
  8
LC-001-002-----0
 62
     7
370
    50
100
AcDbCircle
 10
160.334592
 20
43.298124
 30
0.0
 40
14.78415346898037
100
AcDbArc
 50
91.131765
 51
94.139531
  0
ARC
  5
1FB
102
{ACAD_REACTORS
330
628
102
}
330
1F
100
AcDbEntity
  8
LC-001-002-----0
 62
     7
370
    50
100
AcDbCircle
 10
160.653473
 20
30.425197
 30
0.0
 40
27.66094243480332
100
AcDbArc
 50
89.425211
 51
91.265484
  0
ARC
  5
1FC
102
{ACAD_REACTORS
330
628
102
}
330
1F
100
AcDbEntity
  8
LC-001-002-----0
 62
     7
370
    50
100
AcDbCircle
 10
160.479117
 20
7.745088
 30
0.0
 40
50.34168784504605
100
AcDbArc
 50
88.374209
 51
89.485732
  0
LINE
  5
1FD
102
{ACAD_REACTORS
330
628
102
}
330
1F
100
AcDbEntity
  8
LC-001-002-----0
 62
     7
370
    50
100
AcDbLine
 10
161.907392
 20
58.066511
 30
0.0
 11
162.944049
 21
58.032135
 31
0.0
  0
LINE
  5
1FE
102
{ACAD_REACTORS
330
628
102
}
330
1F
100
AcDbEntity
  8
LC-001-002-----0
 62
     7
370
    50
100
AcDbLine
 10
162.944049
 20
58.032135
 30
0.0
 11
164.011286
 21
57.989566
 31
0.0
  0
LINE
  5
1FF
102
{ACAD_REACTORS
330
628
102
}
330
1F
100
AcDbEntity
  8
LC-001-002-----0
 62
     7
370
    50
100
AcDbLine
 10
164.011286
 20
57.989566
 30
0.0
 11
163.859049
 21
56.249486
 31
0.0
  0
LINE
  5
200
102
{ACAD_REACTORS
330
628
102
}
330
1F
100
AcDbEntity
  8
LC-001-002-----0
 62
     7
370
    50
100
AcDbLine
 10
163.859049
 20
56.249486
 30
0.0
 11
163.810717
 21
55.697051
 31
0.0
  0
LINE
  5
201
102
{ACAD_REACTORS
330
628
102
}
330
1F
100
AcDbEntity
  8
LC-001-002-----0
 62
     7
370
    50
100
AcDbLine
 10
163.810717
 20
55.697051
 30
0.0
 11
163.720658
 21
54.667669
 31
0.0
  0
LINE
  5
202
102
{ACAD_REACTORS
330
628
102
}
330
1F
100
AcDbEntity
  8
LC-001-002-----0
 62
     7
370
    50
100
AcDbLine
 10
163.720658
 20
54.667669
 30
0.0
 11
163.641516
 21
53.76307
 31
0.0
  0
LINE
  5
203
102
{ACAD_REACTORS
330
628
102
}
330
1F
100
AcDbEntity
  8
LC-001-002-----0
 62
     7
370
    50
100
AcDbLine
 10
163.641516
 20
53.76307
 30
0.0
 11
163.619928
 21
53.516321
 31
0.0
  0
LINE
  5
204
102
{ACAD_REACTORS
330
628
102
}
330
1F
100
AcDbEntity
  8
LC-001-002-----0
 62
     7
370
    50
100
AcDbLine
 10
163.619928
 20
53.516321
 30
0.0
 11
163.584376
 21
53.109957
 31
0.0
  0
LINE
  5
205
102
{ACAD_REACTORS
330
628
102
}
330
1F
100
AcDbEntity
  8
LC-001-002-----0
 62
     7
370
    50
100
AcDbLine
 10
163.584376
 20
53.109957
 30
0.0
 11
163.554851
 21
52.772481
 31
0.0
  0
LINE
  5
206
102
{ACAD_REACTORS
330
628
102
}
330
1F
100
AcDbEntity
  8
LC-001-002-----0
 62
     7
370
    50
100
AcDbLine
 10
163.554851
 20
52.772481
 30
0.0
 11
163.526387
 21
52.447143
 31
0.0
  0
LINE
  5
207
102
{ACAD_REACTORS
330
628
102
}
330
1F
100
AcDbEntity
  8
LC-001-002-----0
 62
     7
370
    50
100
AcDbLine
 10
163.526387
 20
52.447143
 30
0.0
 11
163.511002
 21
52.271292
 31
0.0
  0
LINE
  5
208
102
{ACAD_REACTORS
330
628
102
}
330
1F
100
AcDbEntity
  8
LC-001-002-----0
 62
     7
370
    50
100
AcDbLine
 10
163.511002
 20
52.271292
 30
0.0
 11
163.488352
 21
52.012398
 31
0.0
  0
LINE
  5
209
102
{ACAD_REACTORS
330
628
102
}
330
1F
100
AcDbEntity
  8
LC-001-002-----0
 62
     7
370
    50
100
AcDbLine
 10
239.402968
 20
51.631358
 30
0.0
 11
240.006452
 21
73.948688
 31
0.0
  0
LINE
  5
20A
102
{ACAD_REACTORS
330
628
102
}
330
1F
100
AcDbEntity
  8
LC-001-002-----0
 62
     7
370
    50
100
AcDbLine
 10
240.006452
 20
73.948688
 30
0.0
 11
240.611181
 21
96.457347
 31
0.0
  0
LINE
  5
20B
102
{ACAD_REACTORS
330
628
102
}
330
1F
100
AcDbEntity
  8
LC-001-002-----0
 62
     7
370
    50
100
AcDbLine
 10
238.094096
 20
51.50816
 30
0.0
 11
238.693514
 21
73.983593
 31
0.0
  0
LINE
  5
20C
102
{ACAD_REACTORS
330
628
102
}
330
1F
100
AcDbEntity
  8
LC-001-002-----0
 62
     7
370
    50
100
AcDbLine
 10
238.693514
 20
73.983593
 30
0.0
 11
239.290046
 21
96.492251
 31
0.0
  0
ARC
  5
20D
102
{ACAD_REACTORS
330
628
102
}
330
1F
100
AcDbEntity
  8
LC-001-002-----0
 62
     7
370
    50
100
AcDbCircle
 10
246.914624
 20
50.20311
 30
0.0
 40
8.884480739074339
100
AcDbArc
 50
191.10869
 51
192.24349
  0
ARC
  5
20E
102
{ACAD_REACTORS
330
628
102
}
330
1F
100
AcDbEntity
  8
LC-001-002-----0
 62
     7
370
    50
100
AcDbCircle
 10
248.023181
 20
50.44535
 30
0.0
 40
10.01919479396027
100
AcDbArc
 50
192.252885
 51
193.193192
  0
ARC
  5
20F
102
{ACAD_REACTORS
330
628
102
}
330
1F
100
AcDbEntity
  8
LC-001-002-----0
 62
     7
370
    50
100
AcDbCircle
 10
248.42421
 20
50.542572
 30
0.0
 40
10.43182933331411
100
AcDbArc
 50
193.210364
 51
194.035345
  0
ARC
  5
210
102
{ACAD_REACTORS
330
628
102
}
330
1F
100
AcDbEntity
  8
LC-001-002-----0
 62
     7
370
    50
100
AcDbCircle
 10
248.757265
 20
50.629907
 30
0.0
 40
10.77612242004443
100
AcDbArc
 50
194.056376
 51
194.781795
  0
LINE
  5
211
102
{ACAD_REACTORS
330
628
102
}
330
1F
100
AcDbEntity
  8
LC-001-002-----0
 62
     7
370
    50
100
AcDbLine
 10
238.337784
 20
47.880503
 30
0.0
 11
238.370659
 21
47.758577
 31
0.0
  0
LINE
  5
212
102
{ACAD_REACTORS
330
628
102
}
330
1F
100
AcDbEntity
  8
LC-001-002-----0
 62
     7
370
    50
100
AcDbLine
 10
238.370659
 20
47.758577
 30
0.0
 11
238.403609
 21
47.640178
 31
0.0
  0
LINE
  5
213
102
{ACAD_REACTORS
330
628
102
}
330
1F
100
AcDbEntity
  8
LC-001-002-----0
 62
     7
370
    50
100
AcDbLine
 10
238.403609
 20
47.640178
 30
0.0
 11
238.438682
 21
47.515569
 31
0.0
  0
LINE
  5
214
102
{ACAD_REACTORS
330
628
102
}
330
1F
100
AcDbEntity
  8
LC-001-002-----0
 62
     7
370
    50
100
AcDbLine
 10
238.438682
 20
47.515569
 30
0.0
 11
238.478793
 21
47.371955
 31
0.0
  0
ARC
  5
215
102
{ACAD_REACTORS
330
628
102
}
330
1F
100
AcDbEntity
  8
LC-001-002-----0
 62
     7
370
    50
100
AcDbCircle
 10
232.891951
 20
52.78339
 30
0.0
 40
6.823574877673488
100
AcDbArc
 50
319.150218
 51
321.023275
  0
ARC
  5
216
102
{ACAD_REACTORS
330
628
102
}
330
1F
100
AcDbEntity
  8
LC-001-002-----0
 62
     7
370
    50
100
AcDbCircle
 10
231.555636
 20
53.935861
 30
0.0
 40
8.588205785563938
100
AcDbArc
 50
317.728197
 51
319.165524
  0
ARC
  5
217
102
{ACAD_REACTORS
330
628
102
}
330
1F
100
AcDbEntity
  8
LC-001-002-----0
 62
     7
370
    50
100
AcDbCircle
 10
231.789473
 20
53.721674
 30
0.0
 40
8.27110222175663
100
AcDbArc
 50
316.314592
 51
317.736506
  0
ARC
  5
218
102
{ACAD_REACTORS
330
628
102
}
330
1F
100
AcDbEntity
  8
LC-001-002-----0
 62
     7
370
    50
100
AcDbCircle
 10
233.243001
 20
52.332671
 30
0.0
 40
6.26061181952402
100
AcDbArc
 50
314.524964
 51
316.319155
  0
ARC
  5
219
102
{ACAD_REACTORS
330
628
102
}
330
1F
100
AcDbEntity
  8
LC-001-002-----0
 62
     7
370
    50
100
AcDbCircle
 10
234.517587
 20
51.03703
 30
0.0
 40
4.443125510675957
100
AcDbArc
 50
312.053589
 51
314.522648
  0
ARC
  5
21A
102
{ACAD_REACTORS
330
628
102
}
330
1F
100
AcDbEntity
  8
LC-001-002-----0
 62
     7
370
    50
100
AcDbCircle
 10
235.139131
 20
50.348491
 30
0.0
 40
3.515546874458149
100
AcDbArc
 50
308.864349
 51
312.048588
  0
ARC
  5
21B
102
{ACAD_REACTORS
330
628
102
}
330
1F
100
AcDbEntity
  8
LC-001-002-----0
 62
     7
370
    50
100
AcDbCircle
 10
235.194742
 20
50.277731
 30
0.0
 40
3.425556174446278
100
AcDbArc
 50
305.340304
 51
308.882745
  0
ARC
  5
21C
102
{ACAD_REACTORS
330
628
102
}
330
1F
100
AcDbEntity
  8
LC-001-002-----0
 62
     7
370
    50
100
AcDbCircle
 10
234.726737
 20
50.928366
 30
0.0
 40
4.22701177337063
100
AcDbArc
 50
302.096135
 51
305.413733
  0
ARC
  5
21D
102
{ACAD_REACTORS
330
628
102
}
330
1F
100
AcDbEntity
  8
LC-001-002-----0
 62
     7
370
    50
100
AcDbCircle
 10
236.081062
 20
45.837835
 30
0.0
 40
0.1758185616872321
100
AcDbArc
 50
265.725935
 51
298.583216
  0
ARC
  5
21E
102
{ACAD_REACTORS
330
628
102
}
330
1F
100
AcDbEntity
  8
LC-001-002-----0
 62
     7
370
    50
100
AcDbCircle
 10
235.995297
 20
46.008746
 30
0.0
 40
0.3669891483500881
100
AcDbArc
 50
297.574956
 51
317.716158
  0
ARC
  5
21F
102
{ACAD_REACTORS
330
628
102
}
330
1F
100
AcDbEntity
  8
LC-001-002-----0
 62
     7
370
    50
100
AcDbCircle
 10
235.619857
 20
46.382188
 30
0.0
 40
0.896313734017144
100
AcDbArc
 50
316.202068
 51
327.157267
  0
ARC
  5
220
102
{ACAD_REACTORS
330
628
102
}
330
1F
100
AcDbEntity
  8
LC-001-002-----0
 62
     7
370
    50
100
AcDbCircle
 10
234.743952
 20
46.978971
 30
0.0
 40
1.956050292800268
100
AcDbArc
 50
326.385091
 51
332.791654
  0
LINE
  5
221
102
{ACAD_REACTORS
330
628
102
}
330
1F
100
AcDbEntity
  8
LC-001-002-----0
 62
     7
370
    50
100
AcDbLine
 10
236.483565
 20
46.084611
 30
0.0
 11
236.541726
 21
46.201033
 31
0.0
  0
ARC
  5
222
102
{ACAD_REACTORS
330
628
102
}
330
1F
100
AcDbEntity
  8
LC-001-002-----0
 62
     7
370
    50
100
AcDbCircle
 10
231.968366
 20
48.373304
 30
0.0
 40
5.063040820800547
100
AcDbArc
 50
334.59305
 51
337.938609
  0
ARC
  5
223
102
{ACAD_REACTORS
330
628
102
}
330
1F
100
AcDbEntity
  8
LC-001-002-----0
 62
     7
370
    50
100
AcDbCircle
 10
228.811825
 20
49.675409
 30
0.0
 40
8.477562960171762
100
AcDbArc
 50
337.795522
 51
340.09819
  0
ARC
  5
224
102
{ACAD_REACTORS
330
628
102
}
330
1F
100
AcDbEntity
  8
LC-001-002-----0
 62
     7
370
    50
100
AcDbCircle
 10
224.32475
 20
51.319775
 30
0.0
 40
13.25642928490047
100
AcDbArc
 50
340.017289
 51
341.672314
  0
LINE
  5
225
102
{ACAD_REACTORS
330
628
102
}
330
1F
100
AcDbEntity
  8
LC-001-002-----0
 62
     7
370
    50
100
AcDbLine
 10
236.908729
 20
47.151275
 30
0.0
 11
236.972724
 21
47.34742
 31
0.0
  0
ARC
  5
226
102
{ACAD_REACTORS
330
628
102
}
330
1F
100
AcDbEntity
  8
LC-001-002-----0
 62
     7
370
    50
100
AcDbCircle
 10
233.833484
 20
50.044334
 30
0.0
 40
5.359151923204621
100
AcDbArc
 50
324.404183
 51
330.088803
  0
ARC
  5
227
102
{ACAD_REACTORS
330
628
102
}
330
1F
100
AcDbEntity
  8
LC-001-002-----0
 62
     7
370
    50
100
AcDbCircle
 10
234.558284
 20
49.532887
 30
0.0
 40
4.472095461662006
100
AcDbArc
 50
317.920134
 51
324.327315
  0
ARC
  5
228
102
{ACAD_REACTORS
330
628
102
}
330
1F
100
AcDbEntity
  8
LC-001-002-----0
 62
     7
370
    50
100
AcDbCircle
 10
235.195646
 20
48.965674
 30
0.0
 40
3.618916387104591
100
AcDbArc
 50
310.416711
 51
317.822822
  0
ARC
  5
229
102
{ACAD_REACTORS
330
628
102
}
330
1F
100
AcDbEntity
  8
LC-001-002-----0
 62
     7
370
    50
100
AcDbCircle
 10
235.688705
 20
48.396215
 30
0.0
 40
2.865694436263273
100
AcDbArc
 50
301.565637
 51
310.293031
  0
ARC
  5
22A
102
{ACAD_REACTORS
330
628
102
}
330
1F
100
AcDbEntity
  8
LC-001-002-----0
 62
     7
370
    50
100
AcDbCircle
 10
236.009522
 20
47.885678
 30
0.0
 40
2.262764105330627
100
AcDbArc
 50
291.057111
 51
301.411287
  0
ARC
  5
22B
102
{ACAD_REACTORS
330
628
102
}
330
1F
100
AcDbEntity
  8
LC-001-002-----0
 62
     7
370
    50
100
AcDbCircle
 10
236.166688
 20
47.493485
 30
0.0
 40
1.840300438415838
100
AcDbArc
 50
278.775117
 51
290.877882
  0
ARC
  5
22C
102
{ACAD_REACTORS
330
628
102
}
330
1F
100
AcDbEntity
  8
LC-001-002-----0
 62
     7
370
    50
100
AcDbCircle
 10
236.206159
 20
47.269051
 30
0.0
 40
1.612478769086495
100
AcDbArc
 50
265.083336
 51
278.605643
  0
ARC
  5
22D
102
{ACAD_REACTORS
330
628
102
}
330
1F
100
AcDbEntity
  8
LC-001-002-----0
 62
     7
370
    50
100
AcDbCircle
 10
224.058086
 20
52.77199
 30
0.0
 40
14.77233434921192
100
AcDbArc
 50
343.155486
 51
344.514751
  0
ARC
  5
22E
102
{ACAD_REACTORS
330
628
102
}
330
1F
100
AcDbEntity
  8
LC-001-002-----0
 62
     7
370
    50
100
AcDbCircle
 10
219.684395
 20
53.992131
 30
0.0
 40
19.31302481984879
100
AcDbArc
 50
344.490673
 51
345.536305
  0
ARC
  5
22F
102
{ACAD_REACTORS
330
628
102
}
330
1F
100
AcDbEntity
  8
LC-001-002-----0
 62
     7
370
    50
100
AcDbCircle
 10
219.204094
 20
54.120507
 30
0.0
 40
19.81016691682219
100
AcDbArc
 50
345.523739
 51
346.531527
  0
ARC
  5
230
102
{ACAD_REACTORS
330
628
102
}
330
1F
100
AcDbEntity
  8
LC-001-002-----0
 62
     7
370
    50
100
AcDbCircle
 10
222.267994
 20
53.38901
 30
0.0
 40
16.66015710468878
100
AcDbArc
 50
346.523844
 51
347.70601
  0
ARC
  5
231
102
{ACAD_REACTORS
330
628
102
}
330
1F
100
AcDbEntity
  8
LC-001-002-----0
 62
     7
370
    50
100
AcDbCircle
 10
225.7346
 20
52.634596
 30
0.0
 40
13.11241150772512
100
AcDbArc
 50
347.701537
 51
349.203696
  0
ARC
  5
232
102
{ACAD_REACTORS
330
628
102
}
330
1F
100
AcDbEntity
  8
LC-001-002-----0
 62
     7
370
    50
100
AcDbCircle
 10
227.828544
 20
52.236223
 30
0.0
 40
10.98090894758539
100
AcDbArc
 50
349.198942
 51
351.046369
  0
ARC
  5
233
102
{ACAD_REACTORS
330
628
102
}
330
1F
100
AcDbEntity
  8
LC-001-002-----0
 62
     7
370
    50
100
AcDbCircle
 10
228.207321
 20
52.179306
 30
0.0
 40
10.59789012675815
100
AcDbArc
 50
351.031619
 51
353.087209
  0
ARC
  5
234
102
{ACAD_REACTORS
330
628
102
}
330
1F
100
AcDbEntity
  8
LC-001-002-----0
 62
     7
370
    50
100
AcDbCircle
 10
226.639392
 20
52.377188
 30
0.0
 40
12.1782402847837
100
AcDbArc
 50
353.050844
 51
355.063894
  0
LINE
  5
235
102
{ACAD_REACTORS
330
628
102
}
330
1F
100
AcDbEntity
  8
LC-001-002-----0
 62
     7
370
    50
100
AcDbLine
 10
238.772466
 20
51.329314
 30
0.0
 11
238.791556
 21
51.568608
 31
0.0
  0
ARC
  5
236
102
{ACAD_REACTORS
330
628
102
}
330
1F
100
AcDbEntity
  8
LC-001-002-----0
 62
     7
370
    50
100
AcDbCircle
 10
211.95231
 20
55.332749
 30
0.0
 40
26.26378798600461
100
AcDbArc
 50
342.299385
 51
343.906696
  0
ARC
  5
237
102
{ACAD_REACTORS
330
628
102
}
330
1F
100
AcDbEntity
  8
LC-001-002-----0
 62
     7
370
    50
100
AcDbCircle
 10
193.138632
 20
60.807409
 30
0.0
 40
45.85779807660251
100
AcDbArc
 50
343.850571
 51
344.868881
  0
LINE
  5
238
102
{ACAD_REACTORS
330
628
102
}
330
1F
100
AcDbEntity
  8
LC-001-002-----0
 62
     7
370
    50
100
AcDbLine
 10
237.406586
 20
48.837201
 30
0.0
 11
237.518177
 21
49.253675
 31
0.0
  0
LINE
  5
239
102
{ACAD_REACTORS
330
628
102
}
330
1F
100
AcDbEntity
  8
LC-001-002-----0
 62
     7
370
    50
100
AcDbLine
 10
237.518177
 20
49.253675
 30
0.0
 11
237.804734
 21
50.360708
 31
0.0
  0
LINE
  5
23A
102
{ACAD_REACTORS
330
628
102
}
330
1F
100
AcDbEntity
  8
LC-001-002-----0
 62
     7
370
    50
100
AcDbLine
 10
237.804734
 20
50.360708
 30
0.0
 11
238.094096
 21
51.50816
 31
0.0
  0
ARC
  5
23B
102
{ACAD_REACTORS
330
628
102
}
330
1F
100
AcDbEntity
  8
LC-001-002-----0
 62
     7
370
    50
100
AcDbCircle
 10
231.052806
 20
51.11923
 30
0.0
 40
8.365851686929265
100
AcDbArc
 50
356.931715
 51
3.509643
  0
ARC
  5
23C
102
{ACAD_REACTORS
330
628
102
}
330
1F
100
AcDbEntity
  8
LC-001-002-----0
 62
     7
370
    50
100
AcDbCircle
 10
231.095073
 20
51.124188
 30
0.0
 40
8.323914120993637
100
AcDbArc
 50
350.494557
 51
356.882064
  0
ARC
  5
23D
102
{ACAD_REACTORS
330
628
102
}
330
1F
100
AcDbEntity
  8
LC-001-002-----0
 62
     7
370
    50
100
AcDbCircle
 10
231.405039
 20
51.080101
 30
0.0
 40
8.010926743110774
100
AcDbArc
 50
344.072287
 51
350.439437
  0
ARC
  5
23E
102
{ACAD_REACTORS
330
628
102
}
330
1F
100
AcDbEntity
  8
LC-001-002-----0
 62
     7
370
    50
100
AcDbCircle
 10
232.028142
 20
50.911135
 30
0.0
 40
7.365382368334525
100
AcDbArc
 50
337.42686
 51
344.006043
  0
ARC
  5
23F
102
{ACAD_REACTORS
330
628
102
}
330
1F
100
AcDbEntity
  8
LC-001-002-----0
 62
     7
370
    50
100
AcDbCircle
 10
232.924002
 20
50.548863
 30
0.0
 40
6.399097409506358
100
AcDbArc
 50
330.23381
 51
337.342981
  0
LINE
  5
240
102
{ACAD_REACTORS
330
628
102
}
330
1F
100
AcDbEntity
  8
LC-001-002-----0
 62
     7
370
    50
100
AcDbLine
 10
264.368741
 20
49.603694
 30
0.0
 11
263.762683
 21
50.752648
 31
0.0
  0
LINE
  5
241
102
{ACAD_REACTORS
330
628
102
}
330
1F
100
AcDbEntity
  8
LC-001-002-----0
 62
     7
370
    50
100
AcDbLine
 10
263.762683
 20
50.752648
 30
0.0
 11
260.72089
 21
56.927038
 31
0.0
  0
ARC
  5
242
102
{ACAD_REACTORS
330
628
102
}
330
1F
100
AcDbEntity
  8
LC-001-002-----0
 62
     7
370
    50
100
AcDbCircle
 10
362.203739
 20
103.987012
 30
0.0
 40
111.8633528341891
100
AcDbArc
 50
198.415623
 51
204.878259
  0
LINE
  5
243
102
{ACAD_REACTORS
330
628
102
}
330
1F
100
AcDbEntity
  8
LC-001-002-----0
 62
     7
370
    50
100
AcDbLine
 10
256.068919
 20
68.648511
 30
0.0
 11
254.705434
 21
73.216751
 31
0.0
  0
LINE
  5
244
102
{ACAD_REACTORS
330
628
102
}
330
1F
100
AcDbEntity
  8
LC-001-002-----0
 62
     7
370
    50
100
AcDbLine
 10
254.705434
 20
73.216751
 30
0.0
 11
253.63483
 21
77.706283
 31
0.0
  0
ARC
  5
245
102
{ACAD_REACTORS
330
628
102
}
330
1F
100
AcDbEntity
  8
LC-001-002-----0
 62
     7
370
    50
100
AcDbCircle
 10
324.399854
 20
92.462123
 30
0.0
 40
72.28709034909645
100
AcDbArc
 50
183.92377
 51
191.778474
  0
LINE
  5
246
102
{ACAD_REACTORS
330
628
102
}
330
1F
100
AcDbEntity
  8
LC-001-002-----0
 62
     7
370
    50
100
AcDbLine
 10
252.282206
 20
87.515576
 30
0.0
 11
252.133672
 21
92.488316
 31
0.0
  0
LINE
  5
247
102
{ACAD_REACTORS
330
628
102
}
330
1F
100
AcDbEntity
  8
LC-001-002-----0
 62
     7
370
    50
100
AcDbLine
 10
252.133672
 20
92.488316
 30
0.0
 11
252.351775
 21
97.463621
 31
0.0
  0
ARC
  5
248
102
{ACAD_REACTORS
330
628
102
}
330
1F
100
AcDbEntity
  8
LC-001-002-----0
 62
     7
370
    50
100
AcDbCircle
 10
323.748043
 20
91.666524
 30
0.0
 40
71.63123186598224
100
AcDbArc
 50
167.494637
 51
175.357991
  0
LINE
  5
249
102
{ACAD_REACTORS
330
628
102
}
330
1F
100
AcDbEntity
  8
LC-001-002-----0
 62
     7
370
    50
100
AcDbLine
 10
253.816208
 20
107.176905
 30
0.0
 11
255.427215
 21
113.346928
 31
0.0
  0
ARC
  5
24A
102
{ACAD_REACTORS
330
628
102
}
330
1F
100
AcDbEntity
  8
LC-001-002-----0
 62
     7
370
    50
100
AcDbCircle
 10
352.638166
 20
83.800462
 30
0.0
 40
101.601982258313
100
AcDbArc
 50
155.308108
 51
163.093784
  0
LINE
  5
24B
102
{ACAD_REACTORS
330
628
102
}
330
1F
100
AcDbEntity
  8
LC-001-002-----0
 62
     7
370
    50
100
AcDbLine
 10
260.325928
 20
126.243522
 30
0.0
 11
263.223624
 21
132.23961
 31
0.0
  0
LINE
  5
24C
102
{ACAD_REACTORS
330
628
102
}
330
1F
100
AcDbEntity
  8
LC-001-002-----0
 62
     7
370
    50
100
AcDbLine
 10
263.223624
 20
132.23961
 30
0.0
 11
266.59763
 21
138.479823
 31
0.0
  0
ARC
  5
24D
102
{ACAD_REACTORS
330
628
102
}
330
1F
100
AcDbEntity
  8
LC-001-002-----0
 62
     7
370
    50
100
AcDbCircle
 10
434.959452
 20
42.877126
 30
0.0
 40
193.6119282374924
100
AcDbArc
 50
149.01333
 51
150.410326
  0
LINE
  5
24E
102
{ACAD_REACTORS
330
628
102
}
330
1F
100
AcDbEntity
  8
LC-001-002-----0
 62
     7
370
    50
100
AcDbLine
 10
268.978443
 20
142.556029
 30
0.0
 11
269.41361
 21
143.277997
 31
0.0
  0
LINE
  5
24F
102
{ACAD_REACTORS
330
628
102
}
330
1F
100
AcDbEntity
  8
LC-001-002-----0
 62
     7
370
    50
100
AcDbLine
 10
269.41361
 20
143.277997
 30
0.0
 11
269.854831
 21
144.003492
 31
0.0
  0
LINE
  5
250
102
{ACAD_REACTORS
330
628
102
}
330
1F
100
AcDbEntity
  8
LC-001-002-----0
 62
     7
370
    50
100
AcDbLine
 10
269.854831
 20
144.003492
 30
0.0
 11
270.079029
 21
144.369711
 31
0.0
  0
LINE
  5
251
102
{ACAD_REACTORS
330
628
102
}
330
1F
100
AcDbEntity
  8
LC-001-002-----0
 62
     7
370
    50
100
AcDbLine
 10
270.079029
 20
144.369711
 30
0.0
 11
270.116638
 21
144.430987
 31
0.0
  0
LINE
  5
252
102
{ACAD_REACTORS
330
628
102
}
330
1F
100
AcDbEntity
  8
LC-001-002-----0
 62
     7
370
    50
100
AcDbLine
 10
270.116638
 20
144.430987
 30
0.0
 11
270.154268
 21
144.492251
 31
0.0
  0
ARC
  5
253
102
{ACAD_REACTORS
330
628
102
}
330
1F
100
AcDbEntity
  8
LC-001-002-----0
 62
     7
370
    50
100
AcDbCircle
 10
257.570816
 20
45.979935
 30
0.0
 40
7.703467060073964
100
AcDbArc
 50
20.655129
 51
28.06067
  0
ARC
  5
254
102
{ACAD_REACTORS
330
628
102
}
330
1F
100
AcDbEntity
  8
LC-001-002-----0
 62
     7
370
    50
100
AcDbCircle
 10
258.697823
 20
46.425761
 30
0.0
 40
6.49167154812667
100
AcDbArc
 50
12.442482
 51
20.481912
  0
LINE
  5
255
102
{ACAD_REACTORS
330
628
102
}
330
1F
100
AcDbEntity
  8
LC-001-002-----0
 62
     7
370
    50
100
AcDbLine
 10
265.037024
 20
47.824453
 30
0.0
 11
265.111462
 21
47.40482
 31
0.0
  0
ARC
  5
256
102
{ACAD_REACTORS
330
628
102
}
330
1F
100
AcDbEntity
  8
LC-001-002-----0
 62
     7
370
    50
100
AcDbCircle
 10
260.284911
 20
46.735787
 30
0.0
 40
4.87269963819267
100
AcDbArc
 50
356.498431
 51
7.891772
  0
LINE
  5
257
102
{ACAD_REACTORS
330
628
102
}
330
1F
100
AcDbEntity
  8
LC-001-002-----0
 62
     7
370
    50
100
AcDbLine
 10
265.148514
 20
46.438182
 30
0.0
 11
265.122243
 21
46.174865
 31
0.0
  0
ARC
  5
258
102
{ACAD_REACTORS
330
628
102
}
330
1F
100
AcDbEntity
  8
LC-001-002-----0
 62
     7
370
    50
100
AcDbCircle
 10
261.59227
 20
46.624812
 30
0.0
 40
3.558533472750595
100
AcDbArc
 50
342.841911
 51
352.735988
  0
LINE
  5
259
102
{ACAD_REACTORS
330
628
102
}
330
1F
100
AcDbEntity
  8
LC-001-002-----0
 62
     7
370
    50
100
AcDbLine
 10
264.992429
 20
45.575012
 30
0.0
 11
264.844104
 21
45.182557
 31
0.0
  0
LINE
  5
25A
102
{ACAD_REACTORS
330
628
102
}
330
1F
100
AcDbEntity
  8
LC-001-002-----0
 62
     7
370
    50
100
AcDbLine
 10
264.844104
 20
45.182557
 30
0.0
 11
264.649767
 21
44.821127
 31
0.0
  0
ARC
  5
25B
102
{ACAD_REACTORS
330
628
102
}
330
1F
100
AcDbEntity
  8
LC-001-002-----0
 62
     7
370
    50
100
AcDbCircle
 10
262.115372
 20
46.427695
 30
0.0
 40
3.000702998056751
100
AcDbArc
 50
319.691434
 51
327.629158
  0
LINE
  5
25C
102
{ACAD_REACTORS
330
628
102
}
330
1F
100
AcDbEntity
  8
LC-001-002-----0
 62
     7
370
    50
100
AcDbLine
 10
264.403623
 20
44.486529
 30
0.0
 11
264.249391
 21
44.32036
 31
0.0
  0
LINE
  5
25D
102
{ACAD_REACTORS
330
628
102
}
330
1F
100
AcDbEntity
  8
LC-001-002-----0
 62
     7
370
    50
100
AcDbLine
 10
264.249391
 20
44.32036
 30
0.0
 11
264.097164
 21
44.18006
 31
0.0
  0
ARC
  5
25E
102
{ACAD_REACTORS
330
628
102
}
330
1F
100
AcDbEntity
  8
LC-001-002-----0
 62
     7
370
    50
100
AcDbCircle
 10
262.255666
 20
46.333886
 30
0.0
 40
2.833739180064785
100
AcDbArc
 50
296.879353
 51
310.530076
  0
LINE
  5
25F
102
{ACAD_REACTORS
330
628
102
}
330
1F
100
AcDbEntity
  8
LC-001-002-----0
 62
     7
370
    50
100
AcDbLine
 10
263.536838
 20
43.806302
 30
0.0
 11
263.212453
 21
43.663568
 31
0.0
  0
ARC
  5
260
102
{ACAD_REACTORS
330
628
102
}
330
1F
100
AcDbEntity
  8
LC-001-002-----0
 62
     7
370
    50
100
AcDbCircle
 10
262.046588
 20
46.759725
 30
0.0
 40
3.308387248658077
100
AcDbArc
 50
282.146803
 51
290.633978
  0
LINE
  5
261
102
{ACAD_REACTORS
330
628
102
}
330
1F
100
AcDbEntity
  8
LC-001-002-----0
 62
     7
370
    50
100
AcDbLine
 10
262.742729
 20
43.525407
 30
0.0
 11
262.46642
 21
43.47507
 31
0.0
  0
ARC
  5
262
102
{ACAD_REACTORS
330
628
102
}
330
1F
100
AcDbEntity
  8
LC-001-002-----0
 62
     7
370
    50
100
AcDbCircle
 10
261.856892
 20
47.671027
 30
0.0
 40
4.239997843714627
100
AcDbArc
 50
273.418064
 51
278.265283
  0
LINE
  5
263
102
{ACAD_REACTORS
330
628
102
}
330
1F
100
AcDbEntity
  8
LC-001-002-----0
 62
     7
370
    50
100
AcDbLine
 10
262.109685
 20
43.438572
 30
0.0
 11
261.925979
 21
43.430992
 31
0.0
  0
LINE
  5
264
102
{ACAD_REACTORS
330
628
102
}
330
1F
100
AcDbEntity
  8
LC-001-002-----0
 62
     7
370
    50
100
AcDbLine
 10
261.925979
 20
43.430992
 30
0.0
 11
261.746453
 21
43.43033
 31
0.0
  0
ARC
  5
265
102
{ACAD_REACTORS
330
628
102
}
330
1F
100
AcDbEntity
  8
LC-001-002-----0
 62
     7
370
    50
100
AcDbCircle
 10
261.831838
 20
48.983829
 30
0.0
 40
5.554155710605578
100
AcDbArc
 50
264.979124
 51
269.119144
  0
ARC
  5
266
102
{ACAD_REACTORS
330
628
102
}
330
1F
100
AcDbEntity
  8
LC-001-002-----0
 62
     7
370
    50
100
AcDbCircle
 10
106.671541
 20
62.409835
 30
0.0
 40
5.405963811997183
100
AcDbArc
 50
254.844093
 51
264.935341
  0
ARC
  5
267
102
{ACAD_REACTORS
330
628
102
}
330
1F
100
AcDbEntity
  8
LC-001-002-----0
 62
     7
370
    50
100
AcDbCircle
 10
106.763903
 20
62.739557
 30
0.0
 40
5.74836573692119
100
AcDbArc
 50
245.36093
 51
254.814734
  0
LINE
  5
268
102
{ACAD_REACTORS
330
628
102
}
330
1F
100
AcDbEntity
  8
LC-001-002-----0
 62
     7
370
    50
100
AcDbLine
 10
104.367406
 20
57.514568
 30
0.0
 11
103.943954
 21
57.72903
 31
0.0
  0
ARC
  5
269
102
{ACAD_REACTORS
330
628
102
}
330
1F
100
AcDbEntity
  8
LC-001-002-----0
 62
     7
370
    50
100
AcDbCircle
 10
107.14346
 20
63.436972
 30
0.0
 40
6.543503265107683
100
AcDbArc
 50
234.599312
 51
240.727812
  0
LINE
  5
26A
102
{ACAD_REACTORS
330
628
102
}
330
1F
100
AcDbEntity
  8
LC-001-002-----0
 62
     7
370
    50
100
AcDbLine
 10
103.352867
 20
58.103226
 30
0.0
 11
103.113281
 21
58.28294
 31
0.0
  0
ARC
  5
26B
102
{ACAD_REACTORS
330
628
102
}
330
1F
100
AcDbEntity
  8
LC-001-002-----0
 62
     7
370
    50
100
AcDbCircle
 10
107.350043
 20
63.633374
 30
0.0
 40
6.824756357964832
100
AcDbArc
 50
225.731383
 51
231.625925
  0
LINE
  5
26C
102
{ACAD_REACTORS
330
628
102
}
330
1F
100
AcDbEntity
  8
LC-001-002-----0
 62
     7
370
    50
100
AcDbLine
 10
102.586205
 20
58.746335
 30
0.0
 11
102.37884
 21
58.958939
 31
0.0
  0
ARC
  5
26D
102
{ACAD_REACTORS
330
628
102
}
330
1F
100
AcDbEntity
  8
LC-001-002-----0
 62
     7
370
    50
100
AcDbCircle
 10
107.147274
 20
63.403598
 30
0.0
 40
6.518663192406611
100
AcDbArc
 50
214.219148
 51
222.987288
  0
LINE
  5
26E
102
{ACAD_REACTORS
330
628
102
}
330
1F
100
AcDbEntity
  8
LC-001-002-----0
 62
     7
370
    50
100
AcDbLine
 10
101.757039
 20
59.737764
 30
0.0
 11
101.594219
 21
59.989897
 31
0.0
  0
ARC
  5
26F
102
{ACAD_REACTORS
330
628
102
}
330
1F
100
AcDbEntity
  8
LC-001-002-----0
 62
     7
370
    50
100
AcDbCircle
 10
106.684834
 20
63.129734
 30
0.0
 40
5.981048389990211
100
AcDbArc
 50
204.943833
 51
211.665834
  0
LINE
  5
270
102
{ACAD_REACTORS
330
628
102
}
330
1F
100
AcDbEntity
  8
LC-001-002-----0
 62
     7
370
    50
100
AcDbLine
 10
101.261688
 20
60.607348
 30
0.0
 11
101.122001
 21
60.930053
 31
0.0
  0
ARC
  5
271
102
{ACAD_REACTORS
330
628
102
}
330
1F
100
AcDbEntity
  8
LC-001-002-----0
 62
     7
370
    50
100
AcDbCircle
 10
106.274807
 20
63.008243
 30
0.0
 40
5.556103378022411
100
AcDbArc
 50
193.371533
 51
201.964827
  0
LINE
  5
272
102
{ACAD_REACTORS
330
628
102
}
330
1F
100
AcDbEntity
  8
LC-001-002-----0
 62
     7
370
    50
100
AcDbLine
 10
100.869325
 20
61.723313
 30
0.0
 11
100.797078
 21
62.072292
 31
0.0
  0
ARC
  5
273
102
{ACAD_REACTORS
330
628
102
}
330
1F
100
AcDbEntity
  8
LC-001-002-----0
 62
     7
370
    50
100
AcDbCircle
 10
105.865637
 20
62.973456
 30
0.0
 40
5.148047354653825
100
AcDbArc
 50
180.84616
 51
190.081555
  0
LINE
  5
274
102
{ACAD_REACTORS
330
628
102
}
330
1F
100
AcDbEntity
  8
LC-001-002-----0
 62
     7
370
    50
100
AcDbLine
 10
157.218798
 20
65.956353
 30
0.0
 11
155.16394
 21
58.474038
 31
0.0
  0
ARC
  5
275
102
{ACAD_REACTORS
330
628
102
}
330
1F
100
AcDbEntity
  8
LC-001-002-----0
 62
     7
370
    50
100
AcDbCircle
 10
282.724088
 20
199.492251
 30
0.0
 40
1.0
100
AcDbArc
 50
270.0
 51
0.0
  0
ARC
  5
276
102
{ACAD_REACTORS
330
628
102
}
330
1F
100
AcDbEntity
  8
LC-001-002-----0
 62
     7
370
    50
100
AcDbCircle
 10
89.724088
 20
193.492251
 30
0.0
 40
1.0
100
AcDbArc
 50
0.0
 51
90.0
  0
ARC
  5
277
102
{ACAD_REACTORS
330
628
102
}
330
1F
100
AcDbEntity
  8
LC-001-002-----0
 62
     7
370
    50
100
AcDbCircle
 10
279.724088
 20
193.492251
 30
0.0
 40
1.0
100
AcDbArc
 50
90.0
 51
180.0
  0
ARC
  5
278
102
{ACAD_REACTORS
330
628
102
}
330
1F
100
AcDbEntity
  8
LC-001-002-----0
 62
     7
370
    50
100
AcDbCircle
 10
86.724088
 20
199.492251
 30
0.0
 40
1.0
100
AcDbArc
 50
180.0
 51
270.0
  0
LINE
  5
279
102
{ACAD_REACTORS
330
629
102
}
330
1F
100
AcDbEntity
  8
LC-001-002-----0
 62
     7
370
    50
100
AcDbLine
 10
184.494716
 20
209.5182
 30
0.0
 11
176.446703
 21
210.492251
 31
0.0
  0
LINE
  5
27A
102
{ACAD_REACTORS
330
629
102
}
330
1F
100
AcDbEntity
  8
LC-001-002-----0
 62
     7
370
    50
100
AcDbLine
 10
176.446703
 20
210.492251
 30
0.0
 11
123.203768
 21
216.936245
 31
0.0
  0
LINE
  5
27B
102
{ACAD_REACTORS
330
629
102
}
330
1F
100
AcDbEntity
  8
LC-001-002-----0
 62
     7
370
    50
100
AcDbLine
 10
123.684381
 20
220.907266
 30
0.0
 11
184.736763
 21
213.518095
 31
0.0
  0
LINE
  5
27C
102
{ACAD_REACTORS
330
629
102
}
330
1F
100
AcDbEntity
  8
LC-001-002-----0
 62
     7
370
    50
100
AcDbLine
 10
123.203768
 20
216.936245
 30
0.0
 11
111.290704
 21
218.378083
 31
0.0
  0
LINE
  5
27D
102
{ACAD_REACTORS
330
629
102
}
330
1F
100
AcDbEntity
  8
LC-001-002-----0
 62
     7
370
    50
100
AcDbLine
 10
124.556983
 20
219.794358
 30
0.0
 11
124.316677
 21
217.808847
 31
0.0
  0
LINE
  5
27E
102
{ACAD_REACTORS
330
629
102
}
330
1F
100
AcDbEntity
  8
LC-001-002-----0
 62
     7
370
    50
100
AcDbLine
 10
111.771317
 20
222.349105
 30
0.0
 11
123.684381
 21
220.907266
 31
0.0
  0
LINE
  5
27F
102
{ACAD_REACTORS
330
629
102
}
330
1F
100
AcDbEntity
  8
LC-001-002-----0
 62
     7
370
    50
100
AcDbLine
 10
110.418102
 20
219.490992
 30
0.0
 11
110.658408
 21
221.476503
 31
0.0
  0
LINE
  5
280
102
{ACAD_REACTORS
330
629
102
}
330
1F
100
AcDbEntity
  8
LC-002-100-D02-0
 62
     7
370
    25
100
AcDbLine
 10
184.735023
 20
215.903711
 30
0.0
 11
184.735023
 21
207.103711
 31
0.0
  0
ARC
  5
281
102
{ACAD_REACTORS
330
629
102
}
330
1F
100
AcDbEntity
  8
LC-001-002-----0
  6
DASHED
 62
     7
370
    25
100
AcDbCircle
 10
184.735023
 20
211.503711
 30
0.0
 40
4.0
100
AcDbArc
 50
0.0
 51
263.099056
  0
ARC
  5
282
102
{ACAD_REACTORS
330
629
102
}
330
1F
100
AcDbEntity
  8
LC-001-002-----0
  6
DASHED
 62
     7
370
    25
100
AcDbCircle
 10
184.735023
 20
211.503711
 30
0.0
 40
3.999999999998142
100
AcDbArc
 50
263.099056
 51
320.379637
  0
ARC
  5
283
102
{ACAD_REACTORS
330
629
102
}
330
1F
100
AcDbEntity
  8
LC-001-002-----0
  6
DASHED
 62
     7
370
    25
100
AcDbCircle
 10
184.735023
 20
211.503711
 30
0.0
 40
4.000000000000819
100
AcDbArc
 50
320.379637
 51
0.0
  0
ARC
  5
284
102
{ACAD_REACTORS
330
629
102
}
330
1F
100
AcDbEntity
  8
LC-001-002-----0
 62
     7
370
    50
100
AcDbCircle
 10
184.735023
 20
211.503711
 30
0.0
 40
1.999999998963277
100
AcDbArc
 50
263.099056
 51
90.313257
  0
ARC
  5
285
102
{ACAD_REACTORS
330
629
102
}
330
1F
100
AcDbEntity
  8
LC-001-002-----0
 62
     7
370
    50
100
AcDbCircle
 10
123.323922
 20
217.929
 30
0.0
 40
1.000000000003855
100
AcDbArc
 50
263.099056
 51
353.099056
  0
ARC
  5
286
102
{ACAD_REACTORS
330
629
102
}
330
1F
100
AcDbEntity
  8
LC-001-002-----0
 62
     7
370
    50
100
AcDbCircle
 10
123.564228
 20
219.914511
 30
0.0
 40
1.000000000002296
100
AcDbArc
 50
353.099056
 51
83.099056
  0
ARC
  5
287
102
{ACAD_REACTORS
330
629
102
}
330
1F
100
AcDbEntity
  8
LC-001-002-----0
 62
     7
370
    50
100
AcDbCircle
 10
111.410857
 20
219.370839
 30
0.0
 40
1.000000000000943
100
AcDbArc
 50
173.099056
 51
263.099056
  0
ARC
  5
288
102
{ACAD_REACTORS
330
629
102
}
330
1F
100
AcDbEntity
  8
LC-001-002-----0
 62
     7
370
    50
100
AcDbCircle
 10
111.651164
 20
221.356349
 30
0.0
 40
0.9999999999979865
100
AcDbArc
 50
83.099056
 51
173.099056
  0
LINE
  5
289
102
{ACAD_REACTORS
330
61E
102
}
330
1F
100
AcDbEntity
  8
LC-001-002-----0
 62
     7
370
    50
100
AcDbLine
 10
184.724088
 20
218.492251
 30
0.0
 11
194.33069
 21
218.492251
 31
0.0
  0
LINE
  5
28A
102
{ACAD_REACTORS
330
61E
102
}
330
1F
100
AcDbEntity
  8
LC-001-002-----0
 62
     7
370
    50
100
AcDbLine
 10
247.722717
 20
252.492251
 30
0.0
 11
121.718199
 21
252.492251
 31
0.0
  0
LINE
  5
28B
102
{ACAD_REACTORS
330
61E
102
}
330
1F
100
AcDbEntity
  8
LC-001-002-----0
 62
     7
370
    50
100
AcDbLine
 10
175.117486
 20
218.492251
 30
0.0
 11
122.556724
 21
230.62686
 31
0.0
  0
LINE
  5
28C
102
{ACAD_REACTORS
330
61E
102
}
330
1F
100
AcDbEntity
  8
LC-001-002-----0
 62
     7
370
    50
100
AcDbLine
 10
175.117486
 20
218.492251
 30
0.0
 11
184.724088
 21
218.492251
 31
0.0
  0
LINE
  5
28D
102
{ACAD_REACTORS
330
61E
102
}
330
1F
100
AcDbEntity
  8
LC-001-002-----0
 62
     7
370
    50
100
AcDbLine
 10
295.384193
 20
234.387579
 30
0.0
 11
296.222717
 21
250.387579
 31
0.0
  0
LINE
  5
28E
102
{ACAD_REACTORS
330
61E
102
}
330
1F
100
AcDbEntity
  8
LC-001-002-----0
 62
     7
370
    50
100
AcDbLine
 10
248.881452
 20
234.387579
 30
0.0
 11
249.719976
 21
250.387579
 31
0.0
  0
LINE
  5
28F
102
{ACAD_REACTORS
330
61E
102
}
330
1F
100
AcDbEntity
  8
LC-001-002-----0
 62
     7
370
    50
100
AcDbLine
 10
279.725458
 20
250.387579
 30
0.0
 11
280.563983
 21
234.387579
 31
0.0
  0
LINE
  5
290
102
{ACAD_REACTORS
330
61E
102
}
330
1F
100
AcDbEntity
  8
LC-001-002-----0
 62
     7
370
    50
100
AcDbLine
 10
294.225458
 20
252.492251
 30
0.0
 11
247.722717
 21
252.492251
 31
0.0
  0
LINE
  5
291
102
{ACAD_REACTORS
330
61E
102
}
330
1F
100
AcDbEntity
  8
LC-001-002-----0
 62
     7
370
    50
100
AcDbLine
 10
282.561242
 20
232.492251
 30
0.0
 11
293.386934
 21
232.492251
 31
0.0
  0
LINE
  5
292
102
{ACAD_REACTORS
330
61E
102
}
330
1F
100
AcDbEntity
  8
LC-001-002-----0
 62
     7
370
    50
100
AcDbLine
 10
73.225458
 20
250.387579
 30
0.0
 11
74.063983
 21
234.387579
 31
0.0
  0
LINE
  5
293
102
{ACAD_REACTORS
330
61E
102
}
330
1F
100
AcDbEntity
  8
LC-001-002-----0
 62
     7
370
    50
100
AcDbLine
 10
121.718199
 20
252.492251
 30
0.0
 11
75.222717
 21
252.492251
 31
0.0
  0
LINE
  5
294
102
{ACAD_REACTORS
330
61E
102
}
330
1F
100
AcDbEntity
  8
LC-001-002-----0
 62
     7
370
    50
100
AcDbLine
 10
119.72094
 20
250.387579
 30
0.0
 11
120.559465
 21
234.387579
 31
0.0
  0
LINE
  5
295
102
{ACAD_REACTORS
330
61E
102
}
330
1F
100
AcDbEntity
  8
LC-001-002-----0
 62
     7
370
    50
100
AcDbLine
 10
84.882416
 20
234.387579
 30
0.0
 11
85.72094
 21
250.387579
 31
0.0
  0
LINE
  5
296
102
{ACAD_REACTORS
330
61E
102
}
330
1F
100
AcDbEntity
  8
LC-003-100-D00-0
 62
     7
370
    13
100
AcDbLine
 10
76.061242
 20
232.492251
 30
0.0
 11
82.885157
 21
232.492251
 31
0.0
  0
LINE
  5
297
102
{ACAD_REACTORS
330
61E
102
}
330
1F
100
AcDbEntity
  8
LC-001-002-----0
 62
     7
370
    50
100
AcDbLine
 10
82.885157
 20
232.492251
 30
0.0
 11
122.556724
 21
232.492251
 31
0.0
  0
LINE
  5
298
102
{ACAD_REACTORS
330
61E
102
}
330
1F
100
AcDbEntity
  8
LC-001-002-----0
 62
     7
370
    50
100
AcDbLine
 10
246.884193
 20
232.492251
 30
0.0
 11
282.561242
 21
232.492251
 31
0.0
  0
LINE
  5
299
102
{ACAD_REACTORS
330
61E
102
}
330
1F
100
AcDbEntity
  8
LC-001-002-----0
 62
     7
370
    50
100
AcDbLine
 10
246.884193
 20
232.492251
 30
0.0
 11
246.884193
 21
230.625184
 31
0.0
  0
LINE
  5
29A
102
{ACAD_REACTORS
330
61E
102
}
330
1F
100
AcDbEntity
  8
LC-001-002-----0
 62
     7
370
    50
100
AcDbLine
 10
246.884193
 20
230.625184
 30
0.0
 11
194.33069
 21
218.492251
 31
0.0
  0
LINE
  5
29B
102
{ACAD_REACTORS
330
61E
102
}
330
1F
100
AcDbEntity
  8
LC-001-002-----0
 62
     7
370
    50
100
AcDbLine
 10
122.556724
 20
232.492251
 30
0.0
 11
122.556724
 21
230.62686
 31
0.0
  0
ARC
  5
29C
102
{ACAD_REACTORS
330
61E
102
}
330
1F
100
AcDbEntity
  8
LC-001-002-----0
 62
     7
370
    50
100
AcDbCircle
 10
294.225458
 20
250.492251
 30
0.0
 40
2.000000000001479
100
AcDbArc
 50
357.0
 51
90.0
  0
ARC
  5
29D
102
{ACAD_REACTORS
330
61E
102
}
330
1F
100
AcDbEntity
  8
LC-001-002-----0
 62
     7
370
    50
100
AcDbCircle
 10
293.386934
 20
234.492251
 30
0.0
 40
2.0
100
AcDbArc
 50
270.0
 51
357.0
  0
ARC
  5
29E
102
{ACAD_REACTORS
330
61E
102
}
330
1F
100
AcDbEntity
  8
LC-001-002-----0
 62
     7
370
    50
100
AcDbCircle
 10
247.722717
 20
250.492251
 30
0.0
 40
2.000000000001536
100
AcDbArc
 50
357.0
 51
90.0
  0
ARC
  5
29F
102
{ACAD_REACTORS
330
61E
102
}
330
1F
100
AcDbEntity
  8
LC-001-002-----0
 62
     7
370
    50
100
AcDbCircle
 10
246.884193
 20
234.492251
 30
0.0
 40
2.0
100
AcDbArc
 50
270.0
 51
357.0
  0
ARC
  5
2A0
102
{ACAD_REACTORS
330
61E
102
}
330
1F
100
AcDbEntity
  8
LC-001-002-----0
 62
     7
370
    50
100
AcDbCircle
 10
281.722717
 20
250.492251
 30
0.0
 40
2.0
100
AcDbArc
 50
90.0
 51
183.0
  0
ARC
  5
2A1
102
{ACAD_REACTORS
330
61E
102
}
330
1F
100
AcDbEntity
  8
LC-001-002-----0
 62
     7
370
    50
100
AcDbCircle
 10
282.561242
 20
234.492251
 30
0.0
 40
2.000000000008745
100
AcDbArc
 50
183.0
 51
270.0
  0
ARC
  5
2A2
102
{ACAD_REACTORS
330
61E
102
}
330
1F
100
AcDbEntity
  8
LC-001-002-----0
 62
     7
370
    50
100
AcDbCircle
 10
75.222717
 20
250.492251
 30
0.0
 40
2.0
100
AcDbArc
 50
90.0
 51
183.0
  0
ARC
  5
2A3
102
{ACAD_REACTORS
330
61E
102
}
330
1F
100
AcDbEntity
  8
LC-001-002-----0
 62
     7
370
    50
100
AcDbCircle
 10
76.061242
 20
234.492251
 30
0.0
 40
2.000000000001479
100
AcDbArc
 50
183.0
 51
270.0
  0
ARC
  5
2A4
102
{ACAD_REACTORS
330
61E
102
}
330
1F
100
AcDbEntity
  8
LC-001-002-----0
 62
     7
370
    50
100
AcDbCircle
 10
121.718199
 20
250.492251
 30
0.0
 40
2.0
100
AcDbArc
 50
90.0
 51
183.0
  0
ARC
  5
2A5
102
{ACAD_REACTORS
330
61E
102
}
330
1F
100
AcDbEntity
  8
LC-001-002-----0
 62
     7
370
    50
100
AcDbCircle
 10
122.556724
 20
234.492251
 30
0.0
 40
1.999999999994214
100
AcDbArc
 50
183.0
 51
270.0
  0
ARC
  5
2A6
102
{ACAD_REACTORS
330
61E
102
}
330
1F
100
AcDbEntity
  8
LC-001-002-----0
 62
     7
370
    50
100
AcDbCircle
 10
83.723681
 20
250.492251
 30
0.0
 40
1.999999999994214
100
AcDbArc
 50
357.0
 51
90.0
  0
ARC
  5
2A7
102
{ACAD_REACTORS
330
61E
102
}
330
1F
100
AcDbEntity
  8
LC-001-002-----0
 62
     7
370
    50
100
AcDbCircle
 10
82.885157
 20
234.492251
 30
0.0
 40
2.0
100
AcDbArc
 50
270.0
 51
357.0
  0
LINE
  5
2A8
102
{ACAD_REACTORS
330
622
102
}
330
1F
100
AcDbEntity
  8
LC-003-100-D00-0
 62
     7
370
    35
100
AcDbLine
 10
88.724088
 20
221.460971
 30
0.0
 11
88.763389
 21
221.500272
 31
0.0
  0
LINE
  5
2A9
102
{ACAD_REACTORS
330
625
102
}
330
1F
100
AcDbEntity
  8
LC-002-100-D02-0
  6
ByBlock
 62
     7
370
    35
100
AcDbLine
 10
287.733419
 20
208.338268
 30
0.0
 11
287.744193
 21
208.349042
 31
0.0
  0
ARC
  5
2AA
102
{ACAD_REACTORS
330
621
102
}
330
1F
100
AcDbEntity
  8
LC-001-002-----0
 62
     7
370
    50
100
AcDbCircle
 10
101.424088
 20
160.492251
 30
0.0
 40
2.0
100
AcDbArc
 50
270.0
 51
90.0
  0
ARC
  5
2AB
102
{ACAD_REACTORS
330
621
102
}
330
1F
100
AcDbEntity
  8
LC-001-002-----0
 62
     7
370
    50
100
AcDbCircle
 10
268.024088
 20
160.492251
 30
0.0
 40
2.0
100
AcDbArc
 50
90.0
 51
270.0
  0
ARC
  5
2AC
102
{ACAD_REACTORS
330
621
102
}
330
1F
100
AcDbEntity
  8
LC-001-002-----0
 62
     7
370
    50
100
AcDbCircle
 10
101.424088
 20
160.492251
 30
0.0
 40
2.0
100
AcDbArc
 50
90.0
 51
270.0
  0
ARC
  5
2AD
102
{ACAD_REACTORS
330
621
102
}
330
1F
100
AcDbEntity
  8
LC-001-002-----0
 62
     7
370
    50
100
AcDbCircle
 10
268.024088
 20
160.492251
 30
0.0
 40
2.0
100
AcDbArc
 50
270.0
 51
90.0
  0
LINE
  5
2AE
102
{ACAD_REACTORS
330
620
102
}
330
1F
100
AcDbEntity
  8
LC-001-002-----0
 62
     7
370
    50
100
AcDbLine
 10
263.474088
 20
164.327188
 30
0.0
 11
209.088999
 21
164.327188
 31
0.0
  0
LINE
  5
2AF
102
{ACAD_REACTORS
330
620
102
}
330
1F
100
AcDbEntity
  8
LC-001-002-----0
 62
     7
370
    50
100
AcDbLine
 10
247.660139
 20
166.492251
 30
0.0
 11
267.224088
 21
166.492251
 31
0.0
  0
LINE
  5
2B0
102
{ACAD_REACTORS
330
620
102
}
330
1F
100
AcDbEntity
  8
LC-001-002-----0
 62
     7
370
    50
100
AcDbLine
 10
252.392691
 20
170.492251
 30
0.0
 11
267.224088
 21
170.492251
 31
0.0
  0
LINE
  5
2B1
102
{ACAD_REACTORS
330
620
102
}
330
1F
100
AcDbEntity
  8
LC-001-002-----0
 62
     7
370
    50
100
AcDbLine
 10
160.359176
 20
164.327188
 30
0.0
 11
105.974088
 21
164.327188
 31
0.0
  0
LINE
  5
2B2
102
{ACAD_REACTORS
330
620
102
}
330
1F
100
AcDbEntity
  8
LC-001-002-----0
 62
     7
370
    50
100
AcDbLine
 10
96.724088
 20
167.492251
 30
0.0
 11
96.724088
 21
170.492251
 31
0.0
  0
LINE
  5
2B3
102
{ACAD_REACTORS
330
620
102
}
330
1F
100
AcDbEntity
  8
LC-001-002-----0
 62
     7
370
    50
100
AcDbLine
 10
267.224088
 20
170.492251
 30
0.0
 11
267.224088
 21
166.492251
 31
0.0
  0
LINE
  5
2B4
102
{ACAD_REACTORS
330
620
102
}
330
1F
100
AcDbEntity
  8
LC-001-002-----0
 62
     7
370
    50
100
AcDbLine
 10
100.724088
 20
157.492251
 30
0.0
 11
100.724088
 21
154.992251
 31
0.0
  0
LINE
  5
2B5
102
{ACAD_REACTORS
330
620
102
}
330
1F
100
AcDbEntity
  8
LC-001-002-----0
 62
     7
370
    50
100
AcDbLine
 10
112.019074
 20
87.467682
 30
0.0
 11
105.974088
 21
156.562194
 31
0.0
  0
LINE
  5
2B6
102
{ACAD_REACTORS
330
620
102
}
330
1F
100
AcDbEntity
  8
LC-001-002-----0
 62
     7
370
    50
100
AcDbLine
 10
103.624088
 20
154.738534
 30
0.0
 11
100.724088
 21
154.992251
 31
0.0
  0
LINE
  5
2B7
102
{ACAD_REACTORS
330
620
102
}
330
1F
100
AcDbEntity
  8
LC-001-002-----0
 62
     7
370
    50
100
AcDbLine
 10
189.733425
 20
144.207284
 30
0.0
 11
186.933226
 21
144.957595
 31
0.0
  0
LINE
  5
2B8
102
{ACAD_REACTORS
330
620
102
}
330
1F
100
AcDbEntity
  8
LC-001-002-----0
 62
     7
370
    50
100
AcDbLine
 10
200.155214
 20
72.536651
 30
0.0
 11
159.669052
 21
83.384886
 31
0.0
  0
LINE
  5
2B9
102
{ACAD_REACTORS
330
620
102
}
330
1F
100
AcDbEntity
  8
LC-001-002-----0
 62
     7
370
    50
100
AcDbLine
 10
198.386335
 20
79.138197
 30
0.0
 11
161.200946
 21
89.101992
 31
0.0
  0
LINE
  5
2BA
102
{ACAD_REACTORS
330
620
102
}
330
1F
100
AcDbEntity
  8
LC-001-002-----0
 62
     7
370
    50
100
AcDbLine
 10
184.007544
 20
132.800577
 30
0.0
 11
183.260398
 21
135.588965
 31
0.0
  0
LINE
  5
2BB
102
{ACAD_REACTORS
330
620
102
}
330
1F
100
AcDbEntity
  8
LC-001-002-----0
 62
     7
370
    50
100
AcDbLine
 10
186.248983
 20
124.435414
 30
0.0
 11
184.007544
 21
132.800577
 31
0.0
  0
LINE
  5
2BC
102
{ACAD_REACTORS
330
620
102
}
330
1F
100
AcDbEntity
  8
LC-001-002-----0
 62
     7
370
    50
100
AcDbLine
 10
198.386335
 20
79.138197
 30
0.0
 11
186.248983
 21
124.435414
 31
0.0
  0
LINE
  5
2BD
102
{ACAD_REACTORS
330
620
102
}
330
1F
100
AcDbEntity
  8
LC-001-002-----0
 62
     7
370
    50
100
AcDbLine
 10
205.375926
 20
53.05269
 30
0.0
 11
204.62878
 21
55.841077
 31
0.0
  0
LINE
  5
2BE
102
{ACAD_REACTORS
330
620
102
}
330
1F
100
AcDbEntity
  8
LC-001-002-----0
 62
     7
370
    50
100
AcDbLine
 10
204.62878
 20
55.841077
 30
0.0
 11
155.794831
 21
68.926094
 31
0.0
  0
LINE
  5
2BF
102
{ACAD_REACTORS
330
620
102
}
330
1F
100
AcDbEntity
  8
LC-001-002-----0
 62
     7
370
    50
100
AcDbLine
 10
109.528588
 20
87.249792
 30
0.0
 11
103.624088
 21
154.738534
 31
0.0
  0
LINE
  5
2C0
102
{ACAD_REACTORS
330
620
102
}
330
1F
100
AcDbEntity
  8
LC-001-002-----0
 62
     7
370
    50
100
AcDbLine
 10
175.982448
 20
144.267307
 30
0.0
 11
173.653345
 21
135.574976
 31
0.0
  0
LINE
  5
2C1
102
{ACAD_REACTORS
330
620
102
}
330
1F
100
AcDbEntity
  8
LC-001-002-----0
 62
     7
370
    50
100
AcDbLine
 10
160.763034
 20
87.467682
 30
0.0
 11
112.019074
 21
87.467682
 31
0.0
  0
LINE
  5
2C2
102
{ACAD_REACTORS
330
620
102
}
330
1F
100
AcDbEntity
  8
LC-001-002-----0
 62
     7
370
    50
100
AcDbLine
 10
171.712202
 20
128.330533
 30
0.0
 11
186.248983
 21
124.435414
 31
0.0
  0
LINE
  5
2C3
102
{ACAD_REACTORS
330
620
102
}
330
1F
100
AcDbEntity
  8
LC-001-002-----0
 62
     7
370
    50
100
AcDbLine
 10
158.408377
 20
78.679981
 30
0.0
 11
119.392831
 21
78.679981
 31
0.0
  0
LINE
  5
2C4
102
{ACAD_REACTORS
330
620
102
}
330
1F
100
AcDbEntity
  8
LC-001-002-----0
 62
     7
370
    50
100
AcDbLine
 10
173.653345
 20
135.574976
 30
0.0
 11
184.007544
 21
132.800577
 31
0.0
  0
LINE
  5
2C5
102
{ACAD_REACTORS
330
620
102
}
330
1F
100
AcDbEntity
  8
LC-001-002-----0
 62
     7
370
    50
100
AcDbLine
 10
183.260398
 20
135.588965
 30
0.0
 11
176.715207
 21
137.342743
 31
0.0
  0
LINE
  5
2C6
102
{ACAD_REACTORS
330
620
102
}
330
1F
100
AcDbEntity
  8
LC-001-002-----0
 62
     7
370
    50
100
AcDbLine
 10
176.921286
 20
138.111841
 30
0.0
 11
182.081174
 21
139.989886
 31
0.0
  0
LINE
  5
2C7
102
{ACAD_REACTORS
330
620
102
}
330
1F
100
AcDbEntity
  8
LC-002-100-D02-0
  6
ByBlock
 62
     7
370
    13
100
AcDbLine
 10
176.921286
 20
138.111841
 30
0.0
 11
176.715207
 21
137.342743
 31
0.0
  0
LINE
  5
2C8
102
{ACAD_REACTORS
330
620
102
}
330
1F
100
AcDbEntity
  8
LC-001-002-----0
 62
     7
370
    50
100
AcDbLine
 10
155.794831
 20
68.926094
 30
0.0
 11
119.392831
 21
78.679981
 31
0.0
  0
LINE
  5
2C9
102
{ACAD_REACTORS
330
620
102
}
330
1F
100
AcDbEntity
  8
LC-001-002-----0
 62
     7
370
    50
100
AcDbLine
 10
155.794831
 20
68.926094
 30
0.0
 11
158.408377
 21
78.679981
 31
0.0
  0
LINE
  5
2CA
102
{ACAD_REACTORS
330
620
102
}
330
1F
100
AcDbEntity
  8
LC-001-002-----0
 62
     7
370
    50
100
AcDbLine
 10
158.408377
 20
78.679981
 30
0.0
 11
159.669052
 21
83.384886
 31
0.0
  0
LINE
  5
2CB
102
{ACAD_REACTORS
330
620
102
}
330
1F
100
AcDbEntity
  8
LC-001-002-----0
 62
     7
370
    50
100
AcDbLine
 10
171.712202
 20
128.330533
 30
0.0
 11
161.200946
 21
89.101992
 31
0.0
  0
LINE
  5
2CC
102
{ACAD_REACTORS
330
620
102
}
330
1F
100
AcDbEntity
  8
LC-001-002-----0
 62
     7
370
    50
100
AcDbLine
 10
160.763034
 20
87.467682
 30
0.0
 11
161.200946
 21
89.101992
 31
0.0
  0
LINE
  5
2CD
102
{ACAD_REACTORS
330
620
102
}
330
1F
100
AcDbEntity
  8
LC-001-002-----0
 62
     7
370
    50
100
AcDbLine
 10
159.669052
 20
83.384886
 30
0.0
 11
160.763034
 21
87.467682
 31
0.0
  0
LINE
  5
2CE
102
{ACAD_REACTORS
330
620
102
}
330
1F
100
AcDbEntity
  8
LC-001-002-----0
 62
     7
370
    50
100
AcDbLine
 10
173.653345
 20
135.574976
 30
0.0
 11
171.712202
 21
128.330533
 31
0.0
  0
LINE
  5
2CF
102
{ACAD_REACTORS
330
620
102
}
330
1F
100
AcDbEntity
  8
LC-001-002-----0
 62
     7
370
    50
100
AcDbLine
 10
178.397262
 20
143.620259
 30
0.0
 11
176.921286
 21
138.111841
 31
0.0
  0
LINE
  5
2D0
102
{ACAD_REACTORS
330
620
102
}
330
1F
100
AcDbEntity
  8
LC-001-002-----0
 62
     7
370
    50
100
AcDbLine
 10
102.224088
 20
170.492251
 30
0.0
 11
117.055484
 21
170.492251
 31
0.0
  0
LINE
  5
2D1
102
{ACAD_REACTORS
330
620
102
}
330
1F
100
AcDbEntity
  8
LC-001-002-----0
 62
     7
370
    50
100
AcDbLine
 10
263.474088
 20
156.875532
 30
0.0
 11
259.892618
 21
156.562194
 31
0.0
  0
LINE
  5
2D2
102
{ACAD_REACTORS
330
620
102
}
330
1F
100
AcDbEntity
  8
LC-001-002-----0
 62
     7
370
    50
100
AcDbLine
 10
102.224088
 20
170.492251
 30
0.0
 11
102.224088
 21
166.492251
 31
0.0
  0
LINE
  5
2D3
102
{ACAD_REACTORS
330
620
102
}
330
1F
100
AcDbEntity
  8
LC-001-002-----0
 62
     7
370
    50
100
AcDbLine
 10
259.892618
 20
156.562194
 30
0.0
 11
182.573223
 21
149.797624
 31
0.0
  0
LINE
  5
2D4
102
{ACAD_REACTORS
330
620
102
}
330
1F
100
AcDbEntity
  8
LC-001-002-----0
 62
     7
370
    50
100
AcDbLine
 10
264.973462
 20
154.497161
 30
0.0
 11
182.791113
 21
147.307137
 31
0.0
  0
LINE
  5
2D5
102
{ACAD_REACTORS
330
620
102
}
330
1F
100
AcDbEntity
  8
LC-001-002-----0
 62
     7
370
    50
100
AcDbLine
 10
102.224088
 20
170.492251
 30
0.0
 11
96.724088
 21
170.492251
 31
0.0
  0
LINE
  5
2D6
102
{ACAD_REACTORS
330
620
102
}
330
1F
100
AcDbEntity
  8
LC-001-002-----0
 62
     7
370
    50
100
AcDbLine
 10
100.724088
 20
167.492251
 30
0.0
 11
96.724088
 21
167.492251
 31
0.0
  0
LINE
  5
2D7
102
{ACAD_REACTORS
330
620
102
}
330
1F
100
AcDbEntity
  8
LC-001-002-----0
 62
     7
370
    50
100
AcDbLine
 10
100.724088
 20
163.492251
 30
0.0
 11
100.724088
 21
167.492251
 31
0.0
  0
LINE
  5
2D8
102
{ACAD_REACTORS
330
620
102
}
330
1F
100
AcDbEntity
  8
LC-001-002-----0
 62
     7
370
    50
100
AcDbLine
 10
265.524088
 20
159.626226
 30
0.0
 11
265.524088
 21
158.349689
 31
0.0
  0
LINE
  5
2D9
102
{ACAD_REACTORS
330
620
102
}
330
1F
100
AcDbEntity
  8
LC-001-002-----0
 62
     7
370
    50
100
AcDbLine
 10
265.524088
 20
161.358277
 30
0.0
 11
265.524088
 21
162.634814
 31
0.0
  0
LINE
  5
2DA
102
{ACAD_REACTORS
330
620
102
}
330
1F
100
AcDbEntity
  8
LC-001-002-----0
 62
     7
370
    50
100
AcDbLine
 10
268.724088
 20
157.492251
 30
0.0
 11
268.724088
 21
154.992251
 31
0.0
  0
LINE
  5
2DB
102
{ACAD_REACTORS
330
620
102
}
330
1F
100
AcDbEntity
  8
LC-001-002-----0
 62
     7
370
    50
100
AcDbLine
 10
268.724088
 20
163.492251
 30
0.0
 11
268.724088
 21
167.492251
 31
0.0
  0
LINE
  5
2DC
102
{ACAD_REACTORS
330
620
102
}
330
1F
100
AcDbEntity
  8
LC-001-002-----0
 62
     7
370
    50
100
AcDbLine
 10
265.524088
 20
158.349689
 30
0.0
 11
268.724088
 21
157.492251
 31
0.0
  0
LINE
  5
2DD
102
{ACAD_REACTORS
330
620
102
}
330
1F
100
AcDbEntity
  8
LC-001-002-----0
 62
     7
370
    50
100
AcDbLine
 10
265.524088
 20
162.634814
 30
0.0
 11
268.724088
 21
163.492251
 31
0.0
  0
LINE
  5
2DE
102
{ACAD_REACTORS
330
620
102
}
330
1F
100
AcDbEntity
  8
LC-001-002-----0
 62
     7
370
    50
100
AcDbLine
 10
105.974088
 20
156.562194
 30
0.0
 11
105.974088
 21
164.327188
 31
0.0
  0
LINE
  5
2DF
102
{ACAD_REACTORS
330
620
102
}
330
1F
100
AcDbEntity
  8
LC-001-002-----0
 62
     7
370
    50
100
AcDbLine
 10
263.474088
 20
156.875532
 30
0.0
 11
263.474088
 21
164.327188
 31
0.0
  0
LINE
  5
2E0
102
{ACAD_REACTORS
330
620
102
}
330
1F
100
AcDbEntity
  8
LC-001-002-----0
 62
     7
370
    50
100
AcDbLine
 10
103.924088
 20
159.626226
 30
0.0
 11
103.924088
 21
158.349689
 31
0.0
  0
LINE
  5
2E1
102
{ACAD_REACTORS
330
620
102
}
330
1F
100
AcDbEntity
  8
LC-001-002-----0
 62
     7
370
    50
100
AcDbLine
 10
103.924088
 20
158.349689
 30
0.0
 11
100.724088
 21
157.492251
 31
0.0
  0
LINE
  5
2E2
102
{ACAD_REACTORS
330
620
102
}
330
1F
100
AcDbEntity
  8
LC-001-002-----0
 62
     7
370
    50
100
AcDbLine
 10
103.924088
 20
162.634814
 30
0.0
 11
100.724088
 21
163.492251
 31
0.0
  0
LINE
  5
2E3
102
{ACAD_REACTORS
330
620
102
}
330
1F
100
AcDbEntity
  8
LC-001-002-----0
 62
     7
370
    50
100
AcDbLine
 10
103.924088
 20
161.358277
 30
0.0
 11
103.924088
 21
162.634814
 31
0.0
  0
LINE
  5
2E4
102
{ACAD_REACTORS
330
620
102
}
330
1F
100
AcDbEntity
  8
LC-001-002-----0
 62
     7
370
    50
100
AcDbLine
 10
259.892618
 20
156.562194
 30
0.0
 11
105.974088
 21
156.562194
 31
0.0
  0
LINE
  5
2E5
102
{ACAD_REACTORS
330
620
102
}
330
1F
100
AcDbEntity
  8
LC-001-002-----0
 62
     7
370
    50
100
AcDbLine
 10
102.224088
 20
166.492251
 30
0.0
 11
121.788036
 21
166.492251
 31
0.0
  0
LINE
  5
2E6
102
{ACAD_REACTORS
330
620
102
}
330
1F
100
AcDbEntity
  8
LC-001-002-----0
 62
     7
370
    50
100
AcDbLine
 10
105.974088
 20
164.327188
 30
0.0
 11
102.224088
 21
166.492251
 31
0.0
  0
LINE
  5
2E7
102
{ACAD_REACTORS
330
620
102
}
330
1F
100
AcDbEntity
  8
LC-001-002-----0
 62
     7
370
    50
100
AcDbLine
 10
263.474088
 20
164.327188
 30
0.0
 11
267.224088
 21
166.492251
 31
0.0
  0
LINE
  5
2E8
102
{ACAD_REACTORS
330
620
102
}
330
1F
100
AcDbEntity
  8
LC-001-002-----0
 62
     7
370
    50
100
AcDbLine
 10
265.49285
 20
154.709555
 30
0.0
 11
268.724088
 21
154.992251
 31
0.0
  0
LINE
  5
2E9
102
{ACAD_REACTORS
330
620
102
}
330
1F
100
AcDbEntity
  8
LC-001-002-----0
 62
     7
370
    50
100
AcDbLine
 10
272.724088
 20
167.492251
 30
0.0
 11
272.724088
 21
170.492251
 31
0.0
  0
LINE
  5
2EA
102
{ACAD_REACTORS
330
620
102
}
330
1F
100
AcDbEntity
  8
LC-001-002-----0
 62
     7
370
    50
100
AcDbLine
 10
272.724088
 20
167.492251
 30
0.0
 11
268.724088
 21
167.492251
 31
0.0
  0
LINE
  5
2EB
102
{ACAD_REACTORS
330
620
102
}
330
1F
100
AcDbEntity
  8
LC-001-002-----0
 62
     7
370
    50
100
AcDbLine
 10
272.724088
 20
170.492251
 30
0.0
 11
267.224088
 21
170.492251
 31
0.0
  0
LINE
  5
2EC
102
{ACAD_REACTORS
330
620
102
}
330
1F
100
AcDbEntity
  8
LC-001-002-----0
 62
     7
370
    50
100
AcDbLine
 10
205.375926
 20
53.05269
 30
0.0
 11
118.745783
 21
76.265166
 31
0.0
  0
ARC
  5
2ED
102
{ACAD_REACTORS
330
620
102
}
330
1F
100
AcDbEntity
  8
LC-001-002-----0
 62
     7
370
    50
100
AcDbCircle
 10
181.942356
 20
145.259619
 30
0.0
 40
4.99999999999844
100
AcDbArc
 50
305.73439
 51
356.536959
  0
ARC
  5
2EE
102
{ACAD_REACTORS
330
620
102
}
330
1F
100
AcDbEntity
  8
LC-001-002-----0
 62
     7
370
    50
100
AcDbCircle
 10
179.751685
 20
144.811331
 30
0.0
 40
10.00000000000071
100
AcDbArc
 50
308.592133
 51
356.536959
  0
ARC
  5
2EF
102
{ACAD_REACTORS
330
620
102
}
330
1F
100
AcDbEntity
  8
LC-001-002-----0
 62
     7
370
    50
100
AcDbCircle
 10
121.981021
 20
88.339239
 30
0.0
 40
12.49999999999932
100
AcDbArc
 50
185.0
 51
255.0
  0
ARC
  5
2F0
102
{ACAD_REACTORS
330
620
102
}
330
1F
100
AcDbEntity
  8
LC-001-002-----0
 62
     7
370
    50
100
AcDbCircle
 10
121.981021
 20
88.339239
 30
0.0
 40
9.999999999997488
100
AcDbArc
 50
185.0
 51
255.0
  0
ARC
  5
2F1
102
{ACAD_REACTORS
330
620
102
}
330
1F
100
AcDbEntity
  8
LC-001-002-----0
 62
     7
370
    50
100
AcDbCircle
 10
183.226891
 20
142.326164
 30
0.0
 40
5.000000000000521
100
AcDbArc
 50
95.0
 51
165.0
  0
ARC
  5
2F2
102
{ACAD_REACTORS
330
620
102
}
330
1F
100
AcDbEntity
  8
LC-001-002-----0
 62
     7
370
    50
100
AcDbCircle
 10
183.226891
 20
142.326164
 30
0.0
 40
7.500000000002576
100
AcDbArc
 50
95.0
 51
165.0
  0
ARC
  5
2F3
102
{ACAD_REACTORS
330
620
102
}
330
1F
100
AcDbEntity
  8
LC-001-002-----0
 62
     7
370
    50
100
AcDbCircle
 10
265.024088
 20
160.492251
 30
0.0
 40
1.000000000001288
100
AcDbArc
 50
300.0
 51
60.0
  0
ARC
  5
2F4
102
{ACAD_REACTORS
330
620
102
}
330
1F
100
AcDbEntity
  8
LC-001-002-----0
 62
     7
370
    50
100
AcDbCircle
 10
104.424088
 20
160.492251
 30
0.0
 40
1.000000000001263
100
AcDbArc
 50
120.0
 51
240.0
  0
ARC
  5
2F5
102
{ACAD_REACTORS
330
620
102
}
330
1F
100
AcDbEntity
  8
LC-002-100-D02-0
  6
ByBlock
 62
     7
370
    13
100
AcDbCircle
 10
264.811706
 20
155.573199
 30
0.0
 40
1.099926978313435
100
AcDbArc
 50
304.273232
 51
308.262355
  0
ARC
  5
2F6
102
{ACAD_REACTORS
330
620
102
}
330
1F
100
AcDbEntity
  8
LC-001-002-----0
 62
     7
370
    50
100
AcDbCircle
 10
264.819011
 20
155.567309
 30
0.0
 40
1.090949385947997
100
AcDbArc
 50
300.657401
 51
304.130418
  0
LINE
  5
2F7
102
{ACAD_REACTORS
330
620
102
}
330
1F
100
AcDbEntity
  8
LC-002-100-D02-0
  6
ByBlock
 62
     7
370
    13
100
AcDbLine
 10
265.37529
 20
154.62884
 30
0.0
 11
265.333781
 21
154.605589
 31
0.0
  0
ARC
  5
2F8
102
{ACAD_REACTORS
330
620
102
}
330
1F
100
AcDbEntity
  8
LC-002-100-D02-0
  6
ByBlock
 62
     7
370
    13
100
AcDbCircle
 10
264.863706
 20
155.491958
 30
0.0
 40
1.003303965846929
100
AcDbArc
 50
292.510952
 51
297.938704
  0
LINE
  5
2F9
102
{ACAD_REACTORS
330
620
102
}
330
1F
100
AcDbEntity
  8
LC-002-100-D02-0
  6
ByBlock
 62
     7
370
    13
100
AcDbLine
 10
265.247831
 20
154.565099
 30
0.0
 11
265.207105
 21
154.549292
 31
0.0
  0
ARC
  5
2FA
102
{ACAD_REACTORS
330
620
102
}
330
1F
100
AcDbEntity
  8
LC-002-100-D02-0
  6
ByBlock
 62
     7
370
    13
100
AcDbCircle
 10
264.892908
 20
155.410359
 30
0.0
 40
0.9165999958234239
100
AcDbArc
 50
283.910926
 51
290.046628
  0
LINE
  5
2FB
102
{ACAD_REACTORS
330
620
102
}
330
1F
100
AcDbEntity
  8
LC-002-100-D02-0
  6
ByBlock
 62
     7
370
    13
100
AcDbLine
 10
265.113271
 20
154.520642
 30
0.0
 11
265.07037
 21
154.511031
 31
0.0
  0
ARC
  5
2FC
102
{ACAD_REACTORS
330
620
102
}
330
1F
100
AcDbEntity
  8
LC-001-002-----0
 62
     7
370
    50
100
AcDbCircle
 10
264.898934
 20
155.363364
 30
0.0
 40
0.8694034878274897
100
AcDbArc
 50
274.917608
 51
281.372562
  0
LINE
  5
2FD
102
{ACAD_REACTORS
330
624
102
}
330
1F
100
AcDbEntity
  8
LC-001-002-----0
 62
     7
370
    50
100
AcDbLine
 10
183.048138
 20
136.38113
 30
0.0
 11
182.012862
 21
140.244833
 31
0.0
  0
LINE
  5
2FE
102
{ACAD_REACTORS
330
624
102
}
330
1F
100
AcDbEntity
  8
LC-001-002-----0
 62
     7
370
    50
100
AcDbLine
 10
208.721991
 20
52.156114
 30
0.0
 11
185.945915
 21
137.157587
 31
0.0
  0
LINE
  5
2FF
102
{ACAD_REACTORS
330
624
102
}
330
1F
100
AcDbEntity
  8
LC-001-002-----0
 62
     7
370
    50
100
AcDbLine
 10
205.824214
 20
51.379657
 30
0.0
 11
208.721991
 21
52.156114
 31
0.0
  0
LINE
  5
300
102
{ACAD_REACTORS
330
624
102
}
330
1F
100
AcDbEntity
  8
LC-001-002-----0
 62
     7
370
    50
100
AcDbLine
 10
183.260398
 20
135.588965
 30
0.0
 11
183.048138
 21
136.38113
 31
0.0
  0
LINE
  5
301
102
{ACAD_REACTORS
330
624
102
}
330
1F
100
AcDbEntity
  8
LC-002-100-D02-0
  6
ByBlock
 62
     7
370
    13
100
AcDbLine
 10
184.007544
 20
132.800577
 30
0.0
 11
183.260398
 21
135.588965
 31
0.0
  0
LINE
  5
302
102
{ACAD_REACTORS
330
624
102
}
330
1F
100
AcDbEntity
  8
LC-001-002-----0
 62
     7
370
    50
100
AcDbLine
 10
205.824214
 20
51.379657
 30
0.0
 11
205.375926
 21
53.05269
 31
0.0
  0
LINE
  5
303
102
{ACAD_REACTORS
330
624
102
}
330
1F
100
AcDbEntity
  8
LC-001-002-----0
 62
     7
370
    50
100
AcDbLine
 10
186.248983
 20
124.435414
 30
0.0
 11
184.007544
 21
132.800577
 31
0.0
  0
LINE
  5
304
102
{ACAD_REACTORS
330
624
102
}
330
1F
100
AcDbEntity
  8
LC-001-002-----0
 62
     7
370
    50
100
AcDbLine
 10
198.386335
 20
79.138197
 30
0.0
 11
186.248983
 21
124.435414
 31
0.0
  0
LINE
  5
305
102
{ACAD_REACTORS
330
624
102
}
330
1F
100
AcDbEntity
  8
LC-001-002-----0
 62
     7
370
    50
100
AcDbLine
 10
200.155214
 20
72.536651
 30
0.0
 11
198.386335
 21
79.138197
 31
0.0
  0
LINE
  5
306
102
{ACAD_REACTORS
330
624
102
}
330
1F
100
AcDbEntity
  8
LC-001-002-----0
 62
     7
370
    50
100
AcDbLine
 10
204.62878
 20
55.841077
 30
0.0
 11
200.155214
 21
72.536651
 31
0.0
  0
LINE
  5
307
102
{ACAD_REACTORS
330
624
102
}
330
1F
100
AcDbEntity
  8
LC-001-002-----0
 62
     7
370
    50
100
AcDbLine
 10
205.375926
 20
53.05269
 30
0.0
 11
204.62878
 21
55.841077
 31
0.0
  0
LINE
  5
308
102
{ACAD_REACTORS
330
624
102
}
330
1F
100
AcDbEntity
  8
LC-001-002-----0
 62
     7
370
    50
100
AcDbLine
 10
185.945915
 20
137.157587
 30
0.0
 11
183.048138
 21
136.38113
 31
0.0
  0
LINE
  5
309
102
{ACAD_REACTORS
330
624
102
}
330
1F
100
AcDbEntity
  8
LC-001-002-----0
 62
     7
370
    50
100
AcDbLine
 10
184.65182
 20
141.987216
 30
0.0
 11
185.945915
 21
137.157587
 31
0.0
  0
LINE
  5
30A
102
{ACAD_REACTORS
330
624
102
}
330
1F
100
AcDbEntity
  8
LC-001-002-----0
 62
     7
370
    50
100
AcDbLine
 10
180.46738
 20
139.830722
 30
0.0
 11
182.012862
 21
140.244833
 31
0.0
  0
LINE
  5
30B
102
{ACAD_REACTORS
330
624
102
}
330
1F
100
AcDbEntity
  8
LC-001-002-----0
 62
     7
370
    50
100
AcDbLine
 10
180.46738
 20
139.830722
 30
0.0
 11
179.846215
 21
142.148944
 31
0.0
  0
ARC
  5
30C
102
{ACAD_REACTORS
330
624
102
}
330
1F
100
AcDbEntity
  8
LC-001-002-----0
 62
     7
370
    50
100
AcDbCircle
 10
181.754043
 20
141.210759
 30
0.0
 40
3.000000000001709
100
AcDbArc
 50
15.0
 51
105.0
  0
ARC
  5
30D
102
{ACAD_REACTORS
330
624
102
}
330
1F
100
AcDbEntity
  8
LC-001-002-----0
 62
     7
370
    50
100
AcDbCircle
 10
181.391696
 20
142.563055
 30
0.0
 40
1.600000000001351
100
AcDbArc
 50
105.0
 51
195.0
  0
LINE
  5
30E
102
{ACAD_REACTORS
330
623
102
}
330
1F
100
AcDbEntity
  8
LC-003-100-D00-0
 62
     7
370
    35
100
AcDbLine
 10
183.052455
 20
136.365019
 30
0.0
 11
183.076043
 21
136.388607
 31
0.0
  0
INSERT
  5
316
330
1F
100
AcDbEntity
  8
LC-004-005-----0
 62
     7
370
    25
100
AcDbBlockReference
  2
*X11
 10
0.0
 20
0.0
 30
0.0
  0
INSERT
  5
31D
330
1F
100
AcDbEntity
  8
LC-004-005-----0
 62
     7
370
    25
100
AcDbBlockReference
  2
*X22
 10
0.0
 20
0.0
 30
0.0
  0
INSERT
  5
337
330
1F
100
AcDbEntity
  8
LC-004-005-----0
 62
     7
370
    25
100
AcDbBlockReference
  2
*X33
 10
0.0
 20
0.0
 30
0.0
  0
INSERT
  5
342
330
1F
100
AcDbEntity
  8
LC-004-005-----0
 62
     7
370
    25
100
AcDbBlockReference
  2
*X44
 10
0.0
 20
0.0
 30
0.0
  0
INSERT
  5
369
330
1F
100
AcDbEntity
  8
LC-004-005-----0
 62
     7
370
    25
100
AcDbBlockReference
  2
*X55
 10
0.0
 20
0.0
 30
0.0
  0
INSERT
  5
37F
330
1F
100
AcDbEntity
  8
LC-004-005-----0
 62
     7
370
    25
100
AcDbBlockReference
  2
*X66
 10
0.0
 20
0.0
 30
0.0
  0
INSERT
  5
387
330
1F
100
AcDbEntity
  8
LC-004-005-----0
 62
     7
370
    25
100
AcDbBlockReference
  2
*X77
 10
0.0
 20
0.0
 30
0.0
  0
LINE
  5
388
330
1F
100
AcDbEntity
  8
LC-001-002-----0
 62
     7
370
    50
100
AcDbLine
 10
79.224088
 20
202.292251
 30
0.0
 11
81.732292
 21
202.292251
 31
0.0
  0
LINE
  5
389
330
1F
100
AcDbEntity
  8
LC-001-002-----0
 62
     7
370
    50
100
AcDbLine
 10
79.224088
 20
197.292251
 30
0.0
 11
82.657396
 21
197.292251
 31
0.0
  0
LINE
  5
38A
330
1F
100
AcDbEntity
  8
LC-001-002-----0
 62
     7
370
    50
100
AcDbLine
 10
290.224088
 20
214.492251
 30
0.0
 11
287.715884
 21
214.492251
 31
0.0
  0
LINE
  5
38B
330
1F
100
AcDbEntity
  8
LC-001-002-----0
 62
     7
370
    50
100
AcDbLine
 10
290.224088
 20
202.292251
 30
0.0
 11
287.715884
 21
202.292251
 31
0.0
  0
LINE
  5
38C
330
1F
100
AcDbEntity
  8
LC-001-002-----0
 62
     7
370
    50
100
AcDbLine
 10
290.224088
 20
197.292251
 30
0.0
 11
286.665595
 21
197.292251
 31
0.0
  0
INSERT
  5
393
330
1F
100
AcDbEntity
  8
LC-004-005-----0
 62
     7
370
    25
100
AcDbBlockReference
  2
*X88
 10
0.0
 20
0.0
 30
0.0
  0
INSERT
  5
43D
330
1F
100
AcDbEntity
  8
LC-004-005-----0
 62
     7
370
    25
100
AcDbBlockReference
  2
*X99
 10
0.0
 20
0.0
 30
0.0
  0
INSERT
  5
47B
330
1F
100
AcDbEntity
  8
LC-004-005-----0
 62
     7
370
    25
100
AcDbBlockReference
  2
*X1010
 10
0.0
 20
0.0
 30
0.0
  0
LINE
  5
47C
330
1F
100
AcDbEntity
  8
LC-001-002-----0
  6
DASHDOT
 62
     7
370
    25
100
AcDbLine
 10
252.177682
 20
93.492251
 30
0.0
 11
270.221672
 21
93.492251
 31
0.0
  0
LINE
  5
47D
330
1F
100
AcDbEntity
  8
LC-001-002-----0
  6
DASHDOT
 62
     7
370
    25
100
AcDbLine
 10
184.724088
 20
252.492251
 30
0.0
 11
184.724088
 21
46.139232
 31
0.0
  0
INSERT
  5
489
330
1F
100
AcDbEntity
  8
LC-004-005-----0
 62
     7
370
    25
100
AcDbBlockReference
  2
*X1111
 10
0.0
 20
0.0
 30
0.0
  0
INSERT
  5
4BF
330
1F
100
AcDbEntity
  8
LC-004-005-----0
 62
     7
370
    25
100
AcDbBlockReference
  2
*X1212
 10
0.0
 20
0.0
 30
0.0
  0
INSERT
  5
4CA
330
1F
100
AcDbEntity
  8
LC-004-005-----0
 62
     7
370
    25
100
AcDbBlockReference
  2
*X1313
 10
0.0
 20
0.0
 30
0.0
  0
INSERT
  5
4D3
330
1F
100
AcDbEntity
  8
LC-004-005-----0
 62
     7
370
    25
100
AcDbBlockReference
  2
*X1414
 10
0.0
 20
0.0
 30
0.0
  0
INSERT
  5
50D
330
1F
100
AcDbEntity
  8
LC-004-005-----0
 62
     7
370
    25
100
AcDbBlockReference
  2
*X1515
 10
0.0
 20
0.0
 30
0.0
  0
INSERT
  5
542
330
1F
100
AcDbEntity
  8
LC-004-005-----0
 62
     7
370
    25
100
AcDbBlockReference
  2
*X1616
 10
0.0
 20
0.0
 30
0.0
  0
LINE
  5
543
330
1F
100
AcDbEntity
  8
LC-001-002-----0
 62
     7
370
    50
100
AcDbLine
 10
195.998881
 20
163.809479
 30
0.0
 11
195.82326
 21
165.816831
 31
0.0
  0
INSERT
  5
56F
330
1F
100
AcDbEntity
  8
LC-004-005-----0
 62
     7
370
    25
100
AcDbBlockReference
  2
*X1717
 10
0.0
 20
0.0
 30
0.0
  0
INSERT
  5
59A
330
1F
100
AcDbEntity
  8
LC-004-005-----0
 62
     7
370
    25
100
AcDbBlockReference
  2
*X1818
 10
0.0
 20
0.0
 30
0.0
  0
DIMENSION
  5
59E
330
1F
100
AcDbEntity
  8
LC-005-003-----0
 62
     7
370
    25
100
AcDbDimension
  2
*D19
 10
314.724088
 20
320.26
 30
0.0
 11
194.688193
 21
351.06
 31
0.0
 70
   160
  1
260
 71
     5
 42
259.573597
  3
LC-DIM-L-0140-02-02
100
AcDbAlignedDimension
 13
55.150491
 23
232.492251
 33
0.0
 14
314.724088
 24
232.492251
 34
0.0
100
AcDbRotatedDimension
  0
DIMENSION
  5
5AC
330
1F
100
AcDbEntity
  8
LC-005-003-----0
 62
     7
370
    25
100
AcDbDimension
  2
*D20
 10
296.222717
 20
268.582
 30
0.0
 11
194.688193
 21
299.382
 31
0.0
 70
   160
  1
226
 71
     5
 42
222.997259
  3
LC-DIM-L-0140-02-02
100
AcDbAlignedDimension
 13
73.225458
 23
250.387579
 33
0.0
 14
296.222717
 24
250.387579
 34
0.0
100
AcDbRotatedDimension
  0
DIMENSION
  5
5B9
330
1F
100
AcDbEntity
  8
LC-005-003-----0
 62
     7
370
    25
100
AcDbDimension
  2
*D21
 10
354.724088
 20
88.6
 30
0.0
 11
305.473622
 21
119.4
 31
0.0
 70
   160
  1
80,5
 71
     5
 42
80.5
  3
LC-DIM-L-0140-02-02
100
AcDbAlignedDimension
 13
274.224088
 23
148.492251
 33
0.0
 14
354.724088
 24
147.28648
 34
0.0
100
AcDbRotatedDimension
  0
DIMENSION
  5
5C6
330
1F
100
AcDbEntity
  8
LC-005-003-----0
 62
     7
370
    25
100
AcDbDimension
  2
*D22
 10
418.060441
 20
38.492251
 30
0.0
 11
387.260441
 21
76.72
 31
0.0
 70
   160
  1
DN100
 71
     5
 42
110.0
 53
90.0
  3
LC-DIM-L-0140-02-02
100
AcDbAlignedDimension
 13
350.224088
 23
148.492251
 33
0.0
 14
350.224088
 24
38.492251
 34
0.0
 50
90.0
100
AcDbRotatedDimension
  0
DIMENSION
  5
5D3
330
1F
100
AcDbEntity
  8
LC-005-003-----0
 62
     7
370
    25
100
AcDbDimension
  2
*D23
 10
35.265257
 20
224.492251
 30
0.0
 11
4.465257
 21
153.94
 31
0.0
 70
   160
  1
28
 71
     5
 42
28.0
 53
90.0
  3
LC-DIM-L-0140-02-02
100
AcDbAlignedDimension
 13
59.93568
 23
252.492251
 33
0.0
 14
54.724088
 24
224.492251
 34
0.0
 50
90.0
100
AcDbRotatedDimension
  0
LINE
  5
5E1
330
1F
100
AcDbEntity
  8
LC-001-002-----0
 62
     7
370
    25
100
AcDbLine
 10
144.092392
 20
284.606646
 30
0.0
 11
159.092392
 21
284.606646
 31
0.0
  0
LINE
  5
5E2
330
1F
100
AcDbEntity
  8
LC-001-002-----0
 62
     7
370
    25
100
AcDbLine
 10
159.092392
 20
284.606646
 30
0.0
 11
159.092392
 21
299.606646
 31
0.0
  0
LINE
  5
5E3
330
1F
100
AcDbEntity
  8
LC-001-002-----0
 62
     7
370
    25
100
AcDbLine
 10
144.092392
 20
299.606646
 30
0.0
 11
159.092392
 21
299.606646
 31
0.0
  0
LINE
  5
5E4
330
1F
100
AcDbEntity
  8
LC-001-002-----0
 62
     7
370
    25
100
AcDbLine
 10
144.092392
 20
284.606646
 30
0.0
 11
144.092392
 21
299.606646
 31
0.0
  0
DIMENSION
  5
5E5
330
1F
100
AcDbEntity
  8
LC-005-003-----0
 62
     7
370
    25
100
AcDbDimension
  2
*D24
 10
463.095168
 20
93.492251
 30
0.0
 11
432.295168
 21
188.392
 31
0.0
 70
   160
 71
     5
 42
159.0
 53
90.0
  3
LC-DIM-L-0140-02-02
100
AcDbAlignedDimension
 13
309.512495
 23
252.492251
 33
0.0
 14
354.724088
 24
93.492251
 34
0.0
 50
90.0
100
AcDbRotatedDimension
  0
DIMENSION
  5
5F2
330
1F
100
AcDbEntity
  8
LC-005-003-----0
 62
     7
370
    25
100
AcDbDimension
  2
*D25
 10
354.724088
 20
-20.696
 30
0.0
 11
261.339589
 21
10.104
 31
0.0
 70
   160
 71
     5
 42
170.0
  3
LC-DIM-L-0140-02-02
100
AcDbAlignedDimension
 13
184.724088
 23
46.139232
 33
0.0
 14
354.724088
 24
41.095137
 34
0.0
100
AcDbRotatedDimension
  0
LINE
  5
5FF
330
1F
100
AcDbEntity
  8
LC-001-002-----0
 62
     7
370
    25
100
AcDbLine
 10
144.305594
 20
330.748162
 30
0.0
 11
159.305594
 21
330.748162
 31
0.0
  0
LINE
  5
600
330
1F
100
AcDbEntity
  8
LC-001-002-----0
 62
     7
370
    25
100
AcDbLine
 10
159.305594
 20
330.748162
 30
0.0
 11
159.305594
 21
345.748162
 31
0.0
  0
LINE
  5
601
330
1F
100
AcDbEntity
  8
LC-001-002-----0
 62
     7
370
    25
100
AcDbLine
 10
144.305594
 20
345.748162
 30
0.0
 11
159.305594
 21
345.748162
 31
0.0
  0
LINE
  5
602
330
1F
100
AcDbEntity
  8
LC-001-002-----0
 62
     7
370
    25
100
AcDbLine
 10
144.305594
 20
330.748162
 30
0.0
 11
144.305594
 21
345.748162
 31
0.0
  0
DIMENSION
  5
603
330
1F
100
AcDbEntity
  8
LC-005-003-----0
 62
     7
370
    25
100
AcDbDimension
  2
*D26
 10
-72.818088
 20
38.492251
 30
0.0
 11
-103.618088
 21
149.188
 31
0.0
 70
   160
 71
     5
 42
214.0
 53
90.0
  3
LC-DIM-L-0140-02-02
100
AcDbAlignedDimension
 13
59.93568
 23
252.492251
 33
0.0
 14
272.12948
 24
38.492251
 34
0.0
 50
90.0
100
AcDbRotatedDimension
  0
DIMENSION
  5
610
330
1F
100
AcDbEntity
  8
LC-005-003-----0
 62
     7
370
    25
100
AcDbDimension
  2
*D27
 10
-16.975026
 20
252.492251
 30
0.0
 11
-47.775026
 21
152.158
 31
0.0
 70
   160
  1
58
 71
     5
 42
58.2
 53
90.0
  3
LC-DIM-L-0140-02-02
100
AcDbAlignedDimension
 13
69.191249
 23
194.292251
 33
0.0
 14
59.93568
 24
252.492251
 34
0.0
 50
90.0
100
AcDbRotatedDimension
  0
ENDSEC
  0
SECTION
  2
OBJECTS
  0
DICTIONARY
  5
C
330
0
100
AcDbDictionary
281
     1
  3
ACAD_GROUP
350
D
  3
ACAD_LAYOUT
350
1A
  3
ACAD_MLINESTYLE
350
17
  3
ACAD_PLOTSETTINGS
350
19
  3
ACAD_PLOTSTYLENAME
350
E
  0
DICTIONARY
  5
D
102
{ACAD_REACTORS
330
C
102
}
330
C
100
AcDbDictionary
281
     1
  3
LCGROUP1123
350
621
  3
LCGROUP1134
350
620
  3
LCGROUP1219
350
624
  3
LCGROUP1423
350
623
  3
LCGROUP145
350
626
  3
LCGROUP17
350
61F
  3
LCGROUP209
350
627
  3
LCGROUP228
350
628
  3
LCGROUP796
350
629
  3
LCGROUP822
350
61E
  3
LCGROUP861
350
622
  3
LCGROUP953
350
625
  0
DICTIONARY
  5
1A
102
{ACAD_REACTORS
330
C
102
}
330
C
100
AcDbDictionary
281
     1
  3
Layout1
350
1E
  3
Layout2
350
26
  3
Model
350
22
  0
DICTIONARY
  5
17
102
{ACAD_REACTORS
330
C
102
}
330
C
100
AcDbDictionary
281
     1
  3
Standard
350
18
  0
DICTIONARY
  5
19
102
{ACAD_REACTORS
330
C
102
}
330
C
100
AcDbDictionary
281
     1
  0
ACDBDICTIONARYWDFLT
  5
E
102
{ACAD_REACTORS
330
C
102
}
330
C
100
AcDbDictionary
281
     1
  3
Normal
350
F
100
AcDbDictionaryWithDefault
340
F
  0
GROUP
  5
621
102
{ACAD_REACTORS
330
D
102
}
330
D
100
AcDbGroup
300
GRP1123-LCMaster-LCGROUP818
 70
     1
 71
     1
340
2AA
340
2AB
340
2AC
340
2AD
  0
GROUP
  5
620
102
{ACAD_REACTORS
330
D
102
}
330
D
100
AcDbGroup
300
GRP1134-LCMaster-LCGROUP818
 70
     1
 71
     1
340
2AE
340
2AF
340
2B0
340
2B1
340
2B2
340
2B3
340
2B4
340
2B5
340
2B6
340
2B7
340
2B8
340
2B9
340
2BA
340
2BB
340
2BC
340
2BD
340
2BE
340
2BF
340
2C0
340
2C1
340
2C2
340
2C3
340
2C4
340
2C5
340
2C6
340
2C7
340
2C8
340
2C9
340
2CA
340
2CB
340
2CC
340
2CD
340
2CE
340
2CF
340
2D0
340
2D1
340
2D2
340
2D3
340
2D4
340
2D5
340
2D6
340
2D7
340
2D8
340
2D9
340
2DA
340
2DB
340
2DC
340
2DD
340
2DE
340
2DF
340
2E0
340
2E1
340
2E2
340
2E3
340
2E4
340
2E5
340
2E6
340
2E7
340
2E8
340
2E9
340
2EA
340
2EB
340
2EC
340
2ED
340
2EE
340
2EF
340
2F0
340
2F1
340
2F2
340
2F3
340
2F4
340
2F5
340
2F6
340
2F7
340
2F8
340
2F9
340
2FA
340
2FB
340
2FC
  0
GROUP
  5
624
102
{ACAD_REACTORS
330
D
102
}
330
D
100
AcDbGroup
300
GRP1219-LCMaster-LCGROUP818
 70
     1
 71
     1
340
2FD
340
2FE
340
2FF
340
300
340
301
340
302
340
303
340
304
340
305
340
306
340
307
340
308
340
309
340
30A
340
30B
340
30C
340
30D
  0
GROUP
  5
623
102
{ACAD_REACTORS
330
D
102
}
330
D
100
AcDbGroup
300
GRP1423-LCMaster-LCGROUP1219
 70
     1
 71
     1
340
30E
  0
GROUP
  5
626
102
{ACAD_REACTORS
330
D
102
}
330
D
100
AcDbGroup
300
GRP145
 70
     1
 71
     1
340
AA
340
AB
340
AC
340
AD
340
AE
340
AF
340
B0
340
B1
340
B2
340
B3
340
B4
340
B5
340
B6
340
B7
340
B8
340
B9
340
BA
340
BB
340
BC
340
BD
340
BE
340
BF
340
C0
340
C1
340
C2
340
C3
340
C4
340
C5
340
C6
340
C7
340
C8
340
C9
340
CA
340
CC
340
CD
340
CE
340
CF
340
D0
340
D1
340
D2
340
D3
340
D4
340
D5
340
D6
340
D7
340
D8
340
D9
340
DA
340
DB
340
DC
340
DD
340
DE
  0
GROUP
  5
61F
102
{ACAD_REACTORS
330
D
102
}
330
D
100
AcDbGroup
300
GRP17
 70
     1
 71
     1
340
31
340
32
340
33
340
36
340
37
340
38
340
39
340
3A
340
3B
340
3C
340
3D
340
3E
340
3F
340
40
340
41
340
42
340
43
340
44
340
45
340
46
340
47
340
48
340
49
340
4A
340
4B
340
4C
340
4D
340
4E
340
4F
340
50
340
51
340
52
340
53
340
54
340
55
340
56
340
57
340
58
340
59
340
5A
340
5B
340
5C
340
5D
340
5E
340
5F
340
60
340
61
340
62
340
63
340
64
340
65
340
66
340
67
340
68
340
69
340
6A
340
6B
340
6C
340
6D
340
6E
340
6F
340
70
340
71
340
72
340
73
340
74
340
75
340
76
340
77
340
78
340
79
340
7A
340
7B
340
7C
340
7D
340
7E
340
7F
340
80
340
81
340
82
340
83
340
84
340
85
340
86
340
87
340
88
340
89
340
8A
340
8B
340
8C
340
8D
340
8E
340
8F
340
90
340
91
340
92
340
93
340
94
340
95
340
96
340
97
340
98
340
99
340
9A
340
9B
340
9C
340
9D
340
9E
340
9F
340
A0
340
A1
340
A2
340
A3
340
A4
340
A5
340
A6
340
A7
340
A8
340
A9
  0
GROUP
  5
627
102
{ACAD_REACTORS
330
D
102
}
330
D
100
AcDbGroup
300
GRP209
 70
     1
 71
     1
340
DF
340
E0
340
E1
340
E2
340
E3
340
E4
340
E5
340
E6
340
E7
340
E8
340
E9
340
EA
340
EB
340
EC
340
ED
340
EE
  0
GROUP
  5
628
102
{ACAD_REACTORS
330
D
102
}
330
D
100
AcDbGroup
300
GRP228
 70
     1
 71
     1
340
EF
340
F0
340
F1
340
F2
340
F3
340
F4
340
F5
340
F6
340
F7
340
F8
340
F9
340
FA
340
FB
340
FC
340
FD
340
FE
340
FF
340
100
340
101
340
102
340
103
340
104
340
105
340
106
340
107
340
108
340
109
340
10A
340
10B
340
10C
340
10D
340
10E
340
10F
340
110
340
111
340
112
340
113
340
114
340
115
340
116
340
117
340
118
340
119
340
11A
340
11B
340
11C
340
11D
340
11E
340
11F
340
120
340
121
340
122
340
123
340
124
340
125
340
126
340
127
340
128
340
129
340
12A
340
12B
340
12C
340
12D
340
12E
340
12F
340
130
340
131
340
132
340
133
340
134
340
135
340
136
340
137
340
138
340
139
340
13A
340
13B
340
13C
340
13D
340
13E
340
13F
340
140
340
141
340
142
340
143
340
144
340
145
340
146
340
147
340
148
340
149
340
14A
340
14B
340
14C
340
14D
340
14E
340
14F
340
150
340
151
340
152
340
153
340
154
340
155
340
156
340
157
340
158
340
159
340
15A
340
15B
340
15C
340
15D
340
15E
340
15F
340
160
340
161
340
162
340
163
340
164
340
165
340
166
340
167
340
168
340
169
340
16A
340
16B
340
16C
340
16D
340
16E
340
16F
340
170
340
171
340
172
340
173
340
174
340
175
340
176
340
177
340
178
340
179
340
17A
340
17B
340
17C
340
17D
340
17E
340
17F
340
180
340
181
340
182
340
183
340
184
340
185
340
186
340
187
340
188
340
189
340
18A
340
18B
340
18C
340
18D
340
18E
340
18F
340
190
340
191
340
192
340
193
340
194
340
195
340
196
340
197
340
198
340
199
340
19A
340
19B
340
19C
340
19D
340
19E
340
19F
340
1A0
340
1A1
340
1A2
340
1A3
340
1A4
340
1A5
340
1A6
340
1A7
340
1A8
340
1A9
340
1AA
340
1AB
340
1AC
340
1AD
340
1AE
340
1AF
340
1B0
340
1B1
340
1B2
340
1B3
340
1B4
340
1B5
340
1B6
340
1B7
340
1B8
340
1B9
340
1BA
340
1BB
340
1BC
340
1BD
340
1BE
340
1BF
340
1C0
340
1C1
340
1C2
340
1C3
340
1C4
340
1C5
340
1C6
340
1C7
340
1C8
340
1C9
340
1CA
340
1CB
340
1CC
340
1CD
340
1CE
340
1CF
340
1D0
340
1D1
340
1D2
340
1D3
340
1D4
340
1D5
340
1D6
340
1D7
340
1D8
340
1D9
340
1DA
340
1DB
340
1DC
340
1DD
340
1DE
340
1DF
340
1E0
340
1E1
340
1E2
340
1E3
340
1E4
340
1E5
340
1E6
340
1E7
340
1E8
340
1E9
340
1EA
340
1EB
340
1EC
340
1ED
340
1EE
340
1EF
340
1F0
340
1F1
340
1F2
340
1F3
340
1F4
340
1F5
340
1F6
340
1F7
340
1F8
340
1F9
340
1FA
340
1FB
340
1FC
340
1FD
340
1FE
340
1FF
340
200
340
201
340
202
340
203
340
204
340
205
340
206
340
207
340
208
340
209
340
20A
340
20B
340
20C
340
20D
340
20E
340
20F
340
210
340
211
340
212
340
213
340
214
340
215
340
216
340
217
340
218
340
219
340
21A
340
21B
340
21C
340
21D
340
21E
340
21F
340
220
340
221
340
222
340
223
340
224
340
225
340
226
340
227
340
228
340
229
340
22A
340
22B
340
22C
340
22D
340
22E
340
22F
340
230
340
231
340
232
340
233
340
234
340
235
340
236
340
237
340
238
340
239
340
23A
340
23B
340
23C
340
23D
340
23E
340
23F
340
240
340
241
340
242
340
243
340
244
340
245
340
246
340
247
340
248
340
249
340
24A
340
24B
340
24C
340
24D
340
24E
340
24F
340
250
340
251
340
252
340
253
340
254
340
255
340
256
340
257
340
258
340
259
340
25A
340
25B
340
25C
340
25D
340
25E
340
25F
340
260
340
261
340
262
340
263
340
264
340
265
340
266
340
267
340
268
340
269
340
26A
340
26B
340
26C
340
26D
340
26E
340
26F
340
270
340
271
340
272
340
273
340
274
340
275
340
276
340
277
340
278
  0
GROUP
  5
629
102
{ACAD_REACTORS
330
D
102
}
330
D
100
AcDbGroup
300
GRP796
 70
     1
 71
     1
340
279
340
27A
340
27B
340
27C
340
27D
340
27E
340
27F
340
280
340
281
340
282
340
283
340
284
340
285
340
286
340
287
340
288
  0
GROUP
  5
61E
102
{ACAD_REACTORS
330
D
102
}
330
D
100
AcDbGroup
300
GRP822
 70
     1
 71
     1
340
289
340
28A
340
28B
340
28C
340
28D
340
28E
340
28F
340
290
340
291
340
292
340
293
340
294
340
295
340
296
340
297
340
298
340
299
340
29A
340
29B
340
29C
340
29D
340
29E
340
29F
340
2A0
340
2A1
340
2A2
340
2A3
340
2A4
340
2A5
340
2A6
340
2A7
  0
GROUP
  5
622
102
{ACAD_REACTORS
330
D
102
}
330
D
100
AcDbGroup
300
GRP861-LCMaster-LCGROUP17
 70
     1
 71
     1
340
2A8
  0
GROUP
  5
625
102
{ACAD_REACTORS
330
D
102
}
330
D
100
AcDbGroup
300
GRP953-LCMaster-LCGROUP209
 70
     1
 71
     1
340
2A9
  0
LAYOUT
  5
1E
102
{ACAD_REACTORS
330
1A
102
}
330
1A
100
AcDbPlotSettings
  1

  2

  4

  6

 40
0.0
 41
0.0
 42
0.0
 43
0.0
 44
0.0
 45
0.0
 46
0.0
 47
0.0
 48
0.0
 49
0.0
140
0.0
141
0.0
142
1.0
143
1.0
 70
   688
 72
     0
 73
     0
 74
     5
  7

 75
    16
147
1.0
148
0.0
149
0.0
100
AcDbLayout
  1
Layout1
 70
     1
 71
     1
 10
-210.0
 20
-149.0
 11
630.0
 21
445.0
 12
0.0
 22
0.0
 32
0.0
 14
-210.0
 24
-149.0
 34
0.0
 15
630.0
 25
445.0
 35
0.0
146
0.0
 13
0.0
 23
0.0
 33
0.0
 16
1.0
 26
0.0
 36
0.0
 17
0.0
 27
1.0
 37
0.0
 76
     0
330
1B
  0
LAYOUT
  5
26
102
{ACAD_REACTORS
330
1A
102
}
330
1A
100
AcDbPlotSettings
  1

  2

  4

  6

 40
0.0
 41
0.0
 42
0.0
 43
0.0
 44
0.0
 45
0.0
 46
0.0
 47
0.0
 48
0.0
 49
0.0
140
0.0
141
0.0
142
1.0
143
1.0
 70
   688
 72
     0
 73
     0
 74
     5
  7

 75
    16
147
1.0
148
0.0
149
0.0
100
AcDbLayout
  1
Layout2
 70
     1
 71
     2
 10
0.0
 20
0.0
 11
0.0
 21
0.0
 12
0.0
 22
0.0
 32
0.0
 14
0.0
 24
0.0
 34
0.0
 15
0.0
 25
0.0
 35
0.0
146
0.0
 13
0.0
 23
0.0
 33
0.0
 16
1.0
 26
0.0
 36
0.0
 17
0.0
 27
1.0
 37
0.0
 76
     0
330
23
  0
LAYOUT
  5
22
102
{ACAD_REACTORS
330
1A
102
}
330
1A
100
AcDbPlotSettings
  1

  2

  4

  6

 40
0.0
 41
0.0
 42
0.0
 43
0.0
 44
0.0
 45
0.0
 46
0.0
 47
0.0
 48
0.0
 49
0.0
140
0.0
141
0.0
142
1.0
143
1.0
 70
  1776
 72
     0
 73
     0
 74
     0
  7

 75
     0
147
1.0
148
0.0
149
0.0
100
AcDbLayout
  1
Model
 70
     1
 71
     0
 10
-210.0
 20
-149.0
 11
630.0
 21
445.0
 12
147.430832
 22
284.410356
 32
0.0
 14
-210.0
 24
-149.0
 34
0.0
 15
630.0
 25
445.0
 35
0.0
146
0.0
 13
0.0
 23
0.0
 33
0.0
 16
1.0
 26
0.0
 36
0.0
 17
0.0
 27
1.0
 37
0.0
 76
     0
330
1F
  0
MLINESTYLE
  5
18
102
{ACAD_REACTORS
330
17
102
}
330
17
100
AcDbMlineStyle
  2
Standard
 70
     0
  3

 62
   256
 51
90.0
 52
90.0
 71
     2
 49
0.5
 62
   256
  6
BYLAYER
 49
-0.5
 62
   256
  6
BYLAYER
  0
ACDBPLACEHOLDER
  5
F
102
{ACAD_REACTORS
330
E
102
}
330
E
  0
ENDSEC
  0
EOF
