  0
SECTION
  2
HEADER
  9
$ACADVER
  1
AC1015
  9
$ACADMAINTVER
 70
     6
  9
$DWGCODEPAGE
  3
DOS850
  9
$INSBASE
 10
-100.454823
 20
78.132
 30
0.0
  9
$EXTMIN
 10
-100.454823
 20
78.132
 30
0.0
  9
$EXTMAX
 10
739.545177
 20
672.132
 30
0.0
  9
$LIMMIN
 10
-100.454823
 20
78.132
  9
$LIMMAX
 10
739.545177
 20
672.132
  9
$ORTHOMODE
 70
     0
  9
$REGENMODE
 70
     1
  9
$FILLMODE
 70
     1
  9
$QTEXTMODE
 70
     0
  9
$MIRRTEXT
 70
     1
  9
$LTSCALE
 40
2.0
  9
$ATTMODE
 70
     1
  9
$TEXTSIZE
 40
0.2
  9
$TRACEWID
 40
0.05
  9
$TEXTSTYLE
  7
Standard
  9
$CLAYER
  8
0
  9
$CELTYPE
  6
ByBlock
  9
$CECOLOR
 62
     7
  9
$CELTSCALE
 40
1.0
  9
$DISPSILH
 70
     0
  9
$DIMSCALE
 40
2.0
  9
$DIMASZ
 40
3.5
  9
$DIMEXO
 40
0.0625
  9
$DIMDLI
 40
0.38
  9
$DIMRND
 40
0.0
  9
$DIMDLE
 40
0.0
  9
$DIMEXE
 40
0.18
  9
$DIMTP
 40
0.0
  9
$DIMTM
 40
0.0
  9
$DIMTXT
 40
3.5
  9
$DIMCEN
 40
0.09
  9
$DIMTSZ
 40
0.0
  9
$DIMTOL
 70
     0
  9
$DIMLIM
 70
     0
  9
$DIMTIH
 70
     1
  9
$DIMTOH
 70
     1
  9
$DIMSE1
 70
     0
  9
$DIMSE2
 70
     0
  9
$DIMTAD
 70
     1
  9
$DIMZIN
 70
     0
  9
$DIMBLK
  1

  9
$DIMASO
 70
     1
  9
$DIMSHO
 70
     1
  9
$DIMPOST
  1

  9
$DIMAPOST
  1

  9
$DIMALT
 70
     0
  9
$DIMALTD
 70
     2
  9
$DIMALTF
 40
25.4
  9
$DIMLFAC
 40
1.0
  9
$DIMTOFL
 70
     0
  9
$DIMTVP
 40
0.0
  9
$DIMTIX
 70
     0
  9
$DIMSOXD
 70
     0
  9
$DIMSAH
 70
     0
  9
$DIMBLK1
  1

  9
$DIMBLK2
  1

  9
$DIMSTYLE
  2
Standard
  9
$DIMCLRD
 70
     0
  9
$DIMCLRE
 70
     0
  9
$DIMCLRT
 70
     0
  9
$DIMTFAC
 40
1.0
  9
$DIMGAP
 40
0.09
  9
$DIMJUST
 70
     0
  9
$DIMSD1
 70
     0
  9
$DIMSD2
 70
     0
  9
$DIMTOLJ
 70
     1
  9
$DIMTZIN
 70
     0
  9
$DIMALTZ
 70
     0
  9
$DIMALTTZ
 70
     0
  9
$DIMUPT
 70
     0
  9
$DIMDEC
 70
     4
  9
$DIMTDEC
 70
     4
  9
$DIMALTU
 70
     2
  9
$DIMALTTD
 70
     2
  9
$DIMTXSTY
  7
Standard
  9
$DIMAUNIT
 70
     0
  9
$DIMADEC
 70
     0
  9
$DIMALTRND
 40
0.0
  9
$DIMAZIN
 70
     0
  9
$DIMDSEP
 70
     0
  9
$DIMATFIT
 70
     3
  9
$DIMFRAC
 70
     0
  9
$DIMLDRBLK
  1

  9
$DIMLUNIT
 70
     2
  9
$DIMLWD
 70
     0
  9
$DIMLWE
 70
     0
  9
$DIMTMOVE
 70
     0
  9
$LUNITS
 70
     2
  9
$LUPREC
 70
     6
  9
$SKETCHINC
 40
0.1
  9
$FILLETRAD
 40
0.0
  9
$AUNITS
 70
     0
  9
$AUPREC
 70
     0
  9
$MENU
  1
acad
  9
$ELEVATION
 40
0.0
  9
$PELEVATION
 40
0.0
  9
$THICKNESS
 40
0.0
  9
$LIMCHECK
 70
     0
  9
$CHAMFERA
 40
0.0
  9
$CHAMFERB
 40
0.0
  9
$CHAMFERC
 40
0.0
  9
$CHAMFERD
 40
0.0
  9
$SKPOLY
 70
     0
  9
$TDCREATE
 40
0.000000000
  9
$TDUCREATE
 40
0.000000000
  9
$TDUPDATE
 40
0.000000000
  9
$TDUUPDATE
 40
0.000000000
  9
$TDINDWG
 40
0.0000000000
  9
$TDUSRTIMER
 40
0.0000000000
  9
$USRTIMER
 70
     1
  9
$ANGBASE
 50
0.0
  9
$ANGDIR
 70
     0
  9
$PDMODE
 70
     0
  9
$PDSIZE
 40
0.0
  9
$PLINEWID
 40
0.0
  9
$SPLFRAME
 70
     0
  9
$SPLINETYPE
 70
     6
  9
$SPLINESEGS
 70
     8
  9
$HANDSEED
  5
1D1
  9
$SURFTAB1
 70
     6
  9
$SURFTAB2
 70
     6
  9
$SURFTYPE
 70
     6
  9
$SURFU
 70
     6
  9
$SURFV
 70
     6
  9
$UCSBASE
  2

  9
$UCSNAME
  2

  9
$UCSORG
 10
0.0
 20
0.0
 30
0.0
  9
$UCSXDIR
 10
1.0
 20
0.0
 30
0.0
  9
$UCSYDIR
 10
0.0
 20
1.0
 30
0.0
  9
$UCSORTHOREF
  2

  9
$UCSORTHOVIEW
 70
     0
  9
$UCSORGTOP
 10
0.0
 20
0.0
 30
0.0
  9
$UCSORGBOTTOM
 10
0.0
 20
0.0
 30
0.0
  9
$UCSORGLEFT
 10
0.0
 20
0.0
 30
0.0
  9
$UCSORGRIGHT
 10
0.0
 20
0.0
 30
0.0
  9
$UCSORGFRONT
 10
0.0
 20
0.0
 30
0.0
  9
$UCSORGBACK
 10
0.0
 20
0.0
 30
0.0
  9
$PUCSBASE
  2

  9
$PUCSNAME
  2

  9
$PUCSORG
 10
0.0
 20
0.0
 30
0.0
  9
$PUCSXDIR
 10
1.0
 20
0.0
 30
0.0
  9
$PUCSYDIR
 10
0.0
 20
1.0
 30
0.0
  9
$PUCSORTHOREF
  2

  9
$PUCSORTHOVIEW
 70
     0
  9
$PUCSORGTOP
 10
0.0
 20
0.0
 30
0.0
  9
$PUCSORGBOTTOM
 10
0.0
 20
0.0
 30
0.0
  9
$PUCSORGLEFT
 10
0.0
 20
0.0
 30
0.0
  9
$PUCSORGRIGHT
 10
0.0
 20
0.0
 30
0.0
  9
$PUCSORGFRONT
 10
0.0
 20
0.0
 30
0.0
  9
$PUCSORGBACK
 10
0.0
 20
0.0
 30
0.0
  9
$USERI1
 70
     0
  9
$USERI2
 70
     0
  9
$USERI3
 70
     0
  9
$USERI4
 70
     0
  9
$USERI5
 70
     0
  9
$USERR1
 40
0.0
  9
$USERR2
 40
0.0
  9
$USERR3
 40
0.0
  9
$USERR4
 40
0.0
  9
$USERR5
 40
0.0
  9
$WORLDVIEW
 70
     1
  9
$SHADEDGE
 70
     3
  9
$SHADEDIF
 70
    70
  9
$TILEMODE
 70
     1
  9
$MAXACTVP
 70
    16
  9
$PINSBASE
 10
0.0
 20
0.0
 30
0.0
  9
$PLIMCHECK
 70
     0
  9
$PEXTMIN
 10
-100.454823
 20
78.132
 30
0.0
  9
$PEXTMAX
 10
739.545177
 20
672.132
 30
0.0
  9
$PLIMMIN
 10
-100.454823
 20
78.132
  9
$PLIMMAX
 10
739.545177
 20
672.132
  9
$UNITMODE
 70
     0
  9
$VISRETAIN
 70
     0
  9
$PLINEGEN
 70
     1
  9
$PSLTSCALE
 70
     0
  9
$TREEDEPTH
 70
  3020
  9
$CMLSTYLE
  2
Standard
  9
$CMLJUST
 70
     0
  9
$CMLSCALE
 40
1.0
  9
$PROXYGRAPHICS
 70
     0
  9
$MEASUREMENT
 70
     0
  9
$CELWEIGHT
370
     0
  9
$ENDCAPS
280
     0
  9
$JOINSTYLE
280
     0
  9
$LWDISPLAY
290
     0
  9
$INSUNITS
 70
     0
  9
$HYPERLINKBASE
  1

  9
$STYLESHEET
  1

  9
$XEDIT
290
     1
  9
$CEPSNTYPE
380
     0
  9
$PSTYLEMODE
290
     1
  9
$FINGERPRINTGUID
  2

  9
$VERSIONGUID
  2

  9
$EXTNAMES
290
     1
  9
$PSVPSCALE
 40
0.0
  0
ENDSEC
  0
SECTION
  2
CLASSES
  0
CLASS
  1
LWPOLYLINE
  2
AcDbPolyline
  3
AutoCAD 2000
 90
        0
280
     0
281
     1
  0
CLASS
  1
IMAGE
  2
AcDbRasterImage
  3
ISM
 90
      127
280
     0
281
     1
  0
CLASS
  1
OLE2FRAME
  2
AcDbOle2Frame
  3
AutoCAD 2000
 90
        0
280
     0
281
     1
  0
CLASS
  1
HATCH
  2
AcDbHatch
  3
AutoCAD 2000
 90
        0
280
     0
281
     1
  0
CLASS
  1
DICTIONARYVAR
  2
AcDbDictionaryVar
  3
AutoCAD 2000
 90
        0
280
     0
281
     0
  0
CLASS
  1
RASTERVARIABLES
  2
AcDbRasterVariables
  3
ISM
 90
        0
280
     0
281
     0
  0
CLASS
  1
IMAGEDEF
  2
AcDbRasterImageDef
  3
ISM
 90
        0
280
     0
281
     0
  0
CLASS
  1
IMAGEDEF_REACTOR
  2
AcDbRasterImageDefReactor
  3
ISM
 90
        1
280
     0
281
     0
  0
CLASS
  1
IDBUFFER
  2
AcDbIdBuffer
  3
AutoCAD 2000
 90
        0
280
     0
281
     0
  0
CLASS
  1
SPATIAL_FILTER
  2
AcDbSpatialFilter
  3
AutoCAD 2000
 90
        0
280
     0
281
     0
  0
CLASS
  1
XRECORD
  2
AcDbXrecord
  3
AutoCAD 2000
 90
        0
280
     0
281
     0
  0
CLASS
  1
SORTENTSTABLE
  2
AcDbSortentsTable
  3
AutoCAD 2000
 90
        0
280
     0
281
     0
  0
CLASS
  1
LAYER_INDEX
  2
AcDbLayerIndex
  3
AutoCAD 2000
 90
        0
280
     0
281
     0
  0
CLASS
  1
SPATIAL_INDEX
  2
AcDbSpatialIndex
  3
AutoCAD 2000
 90
        0
280
     0
281
     0
  0
CLASS
  1
OBJECT_PTR
  2
CAseDLPNTableRecord
  3
"ASE-LPNTableRecord"
 90
        1
280
     0
281
     0
  0
CLASS
  1
LAYOUT
  2
AcDbLayout
  3
AutoCAD 2000
 90
        0
280
     0
281
     0
  0
CLASS
  1
PLOTSETTINGS
  2
AcDbPlotSettings
  3
AutoCAD 2000
 90
        0
280
     0
281
     0
  0
CLASS
  1
ACDBDICTIONARYWDFLT
  2
AcDbDictionaryWithDefault
  3
AutoCAD 2000
 90
        0
280
     0
281
     0
  0
CLASS
  1
ACDBPLACEHOLDER
  2
AcDbPlaceHolder
  3
AutoCAD 2000
 90
        0
280
     0
281
     0
  0
ENDSEC
  0
SECTION
  2
TABLES
  0
TABLE
  2
VPORT
  5
7
100
AcDbSymbolTable
 70
     1
  0
VPORT
  5
15
100
AcDbSymbolTableRecord
100
AcDbViewportTableRecord
  2
*ACTIVE
 70
     0
 10
0.0
 20
0.0
 11
1.0
 21
1.0
 12
420.0
 22
297.0
 13
0.0
 23
0.0
 14
1.0
 24
1.0
 15
0.0
 25
0.0
 16
0.0
 26
0.0
 36
1.0
 17
-100.454823
 27
78.132
 37
0.0
 40
594.0
 41
1.604229
 42
50.0
 43
0.0
 44
0.0
 50
0.0
 51
0.0
 71
     0
 72
   100
 73
     1
 74
     1
 75
     0
 76
     0
 77
     0
 78
     0
281
     0
 65
     0
110
0.0
120
0.0
130
0.0
111
1.0
121
0.0
131
0.0
112
0.0
122
1.0
132
0.0
345
0
346
0
 79
     0
146
0.0
  0
ENDTAB
  0
TABLE
  2
LTYPE
  5
4
100
AcDbSymbolTable
 70
     5
  0
LTYPE
  5
11
100
AcDbSymbolTableRecord
100
AcDbLinetypeTableRecord
  2
ByBlock
 70
    64
  3

 72
    65
 73
     0
 40
0.0
  0
LTYPE
  5
12
100
AcDbSymbolTableRecord
100
AcDbLinetypeTableRecord
  2
ByLayer
 70
    64
  3

 72
    65
 73
     0
 40
0.0
  0
LTYPE
  5
13
100
AcDbSymbolTableRecord
100
AcDbLinetypeTableRecord
  2
Continuous
 70
    64
  3
Solid line
 72
    65
 73
     0
 40
0.0
  0
LTYPE
  5
23
100
AcDbSymbolTableRecord
100
AcDbLinetypeTableRecord
  2
DASHED
 70
    64
  3
__ __ __ __ __
 72
    65
 73
     2
 40
6.25
 49
5.0
 74
     0
 49
-1.25
 74
     0
  0
LTYPE
  5
2A
100
AcDbSymbolTableRecord
100
AcDbLinetypeTableRecord
  2
DASHDOT
 70
    64
  3
__ . __ . __ . __ . __
 72
    65
 73
     4
 40
7.5
 49
5.0
 74
     0
 49
-1.25
 74
     0
 49
0.0
 74
     0
 49
-1.25
 74
     0
  0
ENDTAB
  0
TABLE
  2
LAYER
  5
2
100
AcDbSymbolTable
 70
    11
  0
LAYER
  5
14
100
AcDbSymbolTableRecord
100
AcDbLayerTableRecord
  2
0
 70
     0
 62
     7
  6
Continuous
290
     1
370
    -3
390
1D
  0
LAYER
  5
24
100
AcDbSymbolTableRecord
100
AcDbLayerTableRecord
  2
LC-INFO-1-2-mm-A3-0
 70
     1
 62
   255
  6
ByBlock
290
     1
370
    -3
390
1D
  0
LAYER
  5
25
100
AcDbSymbolTableRecord
100
AcDbLayerTableRecord
  2
LC-3D-HIDDEN
 70
     0
 62
     9
  6
DASHED
290
     1
370
    -3
390
1D
  0
LAYER
  5
26
100
AcDbSymbolTableRecord
100
AcDbLayerTableRecord
  2
LC-CUT-HIDDEN
 70
     0
 62
     9
  6
DASHED
290
     1
370
    -3
390
1D
  0
LAYER
  5
27
100
AcDbSymbolTableRecord
100
AcDbLayerTableRecord
  2
LC-VIEWPORT
 70
     0
 62
     7
  6
ByBlock
290
     1
370
    -3
390
1D
  0
LAYER
  5
2B
100
AcDbSymbolTableRecord
100
AcDbLayerTableRecord
  2
LC-001-002-----0
 70
     0
 62
     2
  6
DASHDOT
290
     1
370
    -3
390
1D
  0
LAYER
  5
33
100
AcDbSymbolTableRecord
100
AcDbLayerTableRecord
  2
LC-002-003-MTH-0
 70
     0
 62
     2
  6
ByBlock
290
     1
370
    -3
390
1D
  0
LAYER
  5
36
100
AcDbSymbolTableRecord
100
AcDbLayerTableRecord
  2
LC-003-003-----0
 70
     0
 62
     2
  6
ByBlock
290
     1
370
    -3
390
1D
  0
LAYER
  5
49
100
AcDbSymbolTableRecord
100
AcDbLayerTableRecord
  2
LC-004-003-MTG-0
 70
     0
 62
     2
  6
ByBlock
290
     1
370
    -3
390
1D
  0
LAYER
  5
CD
100
AcDbSymbolTableRecord
100
AcDbLayerTableRecord
  2
LC-005-002-RND-0
 70
     0
 62
     1
  6
ByBlock
290
     1
370
    -3
390
1D
  0
LAYER
  5
D6
100
AcDbSymbolTableRecord
100
AcDbLayerTableRecord
  2
LC-006-005-----0
 70
     0
 62
     2
  6
ByBlock
290
     1
370
    -3
390
1D
  0
ENDTAB
  0
TABLE
  2
STYLE
  5
3
100
AcDbSymbolTable
 70
     3
  0
STYLE
  5
17
100
AcDbSymbolTableRecord
100
AcDbTextStyleTableRecord
  2
Standard
 70
     0
 40
0.0
 41
1.0
 50
0.0
 71
     0
 42
0.0
  3
txt
  4

  0
STYLE
  5
29
100
AcDbSymbolTableRecord
100
AcDbTextStyleTableRecord
  2
LCTX15-400-0-0-ARIAL
 70
    64
 40
3.5
 41
1.0
 50
0.0
 71
     0
 42
0.0
  3
Arial
  4

1001
ACAD
1000
Arial
1071
 16777216
  0
STYLE
  5
30
100
AcDbSymbolTableRecord
100
AcDbTextStyleTableRecord
  2
LCTX15-400-0-0-DIN-SCHRIFTP
 70
    64
 40
0.0
 41
1.0
 50
1.5
 71
     0
 42
3.5
  3
STANDARD
  4

  0
ENDTAB
  0
TABLE
  2
VIEW
  5
5
100
AcDbSymbolTable
 70
     0
  0
ENDTAB
  0
TABLE
  2
UCS
  5
6
100
AcDbSymbolTable
 70
     0
  0
ENDTAB
  0
TABLE
  2
APPID
  5
8
100
AcDbSymbolTable
 70
     1
  0
APPID
  5
16
100
AcDbSymbolTableRecord
100
AcDbRegAppTableRecord
  2
ACAD
 70
     0
  0
ENDTAB
  0
TABLE
  2
DIMSTYLE
  5
9
100
AcDbSymbolTable
 70
     3
100
AcDbDimStyleTable
 71
     0
  0
DIMSTYLE
105
18
100
AcDbSymbolTableRecord
100
AcDbDimStyleTableRecord
  2
Standard
 70
     0
  3

  4

 40
1.0
 41
0.18
 42
0.0625
 43
0.38
 44
0.18
 45
0.0
 46
0.0
 47
0.0
 48
0.0
 71
     0
 72
     0
 73
     1
 74
     1
 75
     0
 76
     0
 77
     0
 78
     0
 79
     0
140
0.18
141
0.09
142
0.0
143
25.4
144
1.0
145
0.0
146
1.0
147
0.09
148
0.0
170
     0
171
     2
172
     0
173
     0
174
     0
175
     0
176
     0
177
     0
178
     0
179
     0
271
     4
272
     4
273
     2
274
     2
275
     0
276
     0
277
     2
278
    46
279
     0
280
     0
281
     0
282
     0
283
     1
284
     0
285
     0
286
     0
288
     0
289
     0
340
17
341
0
342
0
343
0
344
0
371
    -2
372
    -2
  0
DIMSTYLE
105
2F
100
AcDbSymbolTableRecord
100
AcDbDimStyleTableRecord
  2
LC-DIM-L-0140-02-02
 70
     0
  3

  4

 40
2.0
 41
3.5
 42
0.0
 43
7.5
 44
1.8
 45
0.0
 46
0.0
 47
0.0
 48
0.0
 71
     0
 72
     0
 73
     0
 74
     0
 75
     0
 76
     0
 77
     1
 78
     8
 79
     0
140
14.0
141
0.0
142
0.0
143
25.4
144
1.0
145
0.0
146
0.71
147
1.5
148
0.0
170
     0
171
     2
172
     0
173
     0
174
     0
175
     0
176
     2
177
     2
178
     2
179
     2
271
     2
272
     4
273
     2
274
     2
275
     0
276
     0
277
     2
278
    44
279
     0
280
     0
281
     0
282
     0
283
     1
284
     0
285
     0
286
     0
288
     0
289
     0
340
30
341
0
342
0
343
0
344
0
371
    -3
372
     0
  0
DIMSTYLE
105
50
100
AcDbSymbolTableRecord
100
AcDbDimStyleTableRecord
  2
LC-DIM-L-0140-01-02
 70
     0
  3

  4

 40
2.0
 41
3.5
 42
0.0
 43
7.5
 44
1.8
 45
0.0
 46
0.0
 47
0.0
 48
0.0
 71
     0
 72
     0
 73
     0
 74
     0
 75
     0
 76
     0
 77
     1
 78
     8
 79
     0
140
14.0
141
0.0
142
0.0
143
25.4
144
1.0
145
0.0
146
0.71
147
1.5
148
0.0
170
     0
171
     2
172
     0
173
     0
174
     0
175
     0
176
     2
177
     2
178
     2
179
     1
271
     1
272
     4
273
     2
274
     2
275
     0
276
     0
277
     2
278
    44
279
     0
280
     0
281
     0
282
     0
283
     1
284
     0
285
     0
286
     0
288
     0
289
     0
340
30
341
0
342
0
343
0
344
0
371
    -3
372
     0
  0
ENDTAB
  0
TABLE
  2
BLOCK_RECORD
  5
1
100
AcDbSymbolTable
 70
     6
  0
BLOCK_RECORD
  5
A
100
AcDbSymbolTableRecord
100
AcDbBlockTableRecord
  2
*MODEL_SPACE
340
20
  0
BLOCK_RECORD
  5
B
100
AcDbSymbolTableRecord
100
AcDbBlockTableRecord
  2
*PAPER_SPACE
340
21
  0
BLOCK_RECORD
  5
31
100
AcDbSymbolTableRecord
100
AcDbBlockTableRecord
  2
*D0
340
0
  0
BLOCK_RECORD
  5
51
100
AcDbSymbolTableRecord
100
AcDbBlockTableRecord
  2
*D1
340
0
  0
BLOCK_RECORD
  5
D4
100
AcDbSymbolTableRecord
100
AcDbBlockTableRecord
  2
*X2
340
0
102
{BLKREFS
331
121
102
}
  0
BLOCK_RECORD
  5
122
100
AcDbSymbolTableRecord
100
AcDbBlockTableRecord
  2
*X3
340
0
102
{BLKREFS
331
1A9
102
}
  0
BLOCK_RECORD
  5
1AA
100
AcDbSymbolTableRecord
100
AcDbBlockTableRecord
  2
*D4
340
0
  0
BLOCK_RECORD
  5
1C5
100
AcDbSymbolTableRecord
100
AcDbBlockTableRecord
  2
*D5
340
0
  0
ENDTAB
  0
ENDSEC
  0
SECTION
  2
BLOCKS
  0
BLOCK
  5
D
100
AcDbEntity
  8
0
390
0
100
AcDbBlockBegin
  2
*MODEL_SPACE
 70
     0
 10
0.0
 20
0.0
 30
0.0
  3
*MODEL_SPACE
  1

  0
ENDBLK
  5
E
100
AcDbEntity
  8
0
390
0
100
AcDbBlockEnd
  0
BLOCK
  5
F
100
AcDbEntity
 67
     1
  8
0
390
0
100
AcDbBlockBegin
  2
*PAPER_SPACE
 70
     0
 10
0.0
 20
0.0
 30
0.0
  3
*PAPER_SPACE
  1

  0
ENDBLK
  5
10
100
AcDbEntity
 67
     1
  8
0
390
0
100
AcDbBlockEnd
  0
BLOCK
  5
32
100
AcDbEntity
  8
0
390
0
100
AcDbBlockBegin
  2
*D0
 70
    65
 10
0.0
 20
0.0
 30
0.0
  3
*D0
  1

  0
LINE
  5
34
100
AcDbEntity
  8
LC-002-003-MTH-0
370
    25
390
0
 62
     2
100
AcDbLine
 10
286.739439
 20
324.681959
 30
0.0
 11
344.780046
 21
322.147852
 31
0.0
  0
LINE
  5
35
100
AcDbEntity
  8
LC-002-003-MTH-0
370
    25
390
0
 62
     2
100
AcDbLine
 10
288.920408
 20
374.634367
 30
0.0
 11
346.961015
 21
372.10026
 31
0.0
  0
LINE
  5
37
100
AcDbEntity
  8
LC-003-003-----0
370
    25
390
0
 62
     2
100
AcDbLine
 10
330.436397
 20
294.987206
 30
0.0
 11
327.996036
 21
322.880657
 31
0.0
  0
LINE
  5
38
100
AcDbEntity
  8
LC-003-003-----0
370
    25
390
0
 62
     2
100
AcDbLine
 10
327.996036
 20
322.880657
 30
0.0
 11
323.133887
 21
295.30604
 31
0.0
  0
LINE
  5
39
100
AcDbEntity
  8
LC-003-003-----0
370
    25
390
0
 62
     2
100
AcDbLine
 10
323.133887
 20
295.30604
 30
0.0
 11
330.436397
 21
294.987206
 31
0.0
  0
LINE
  5
3A
100
AcDbEntity
  8
LC-003-003-----0
370
    25
390
0
 62
     2
100
AcDbLine
 10
329.484354
 20
294.966432
 30
0.0
 11
327.678487
 21
315.607586
 31
0.0
  0
LINE
  5
3B
100
AcDbEntity
  8
LC-003-003-----0
370
    25
390
0
 62
     2
100
AcDbLine
 10
327.678487
 20
315.607586
 30
0.0
 11
324.080497
 21
295.20237
 31
0.0
  0
LINE
  5
3C
100
AcDbEntity
  8
LC-003-003-----0
370
    25
390
0
 62
     2
100
AcDbLine
 10
328.532311
 20
294.945658
 30
0.0
 11
327.360938
 21
308.334515
 31
0.0
  0
LINE
  5
3D
100
AcDbEntity
  8
LC-003-003-----0
370
    25
390
0
 62
     2
100
AcDbLine
 10
327.360938
 20
308.334515
 30
0.0
 11
325.027106
 21
295.098699
 31
0.0
  0
LINE
  5
3E
100
AcDbEntity
  8
LC-003-003-----0
370
    25
390
0
 62
     2
100
AcDbLine
 10
327.580268
 20
294.924885
 30
0.0
 11
327.043389
 21
301.061444
 31
0.0
  0
LINE
  5
3F
100
AcDbEntity
  8
LC-003-003-----0
370
    25
390
0
 62
     2
100
AcDbLine
 10
327.043389
 20
301.061444
 30
0.0
 11
325.973716
 21
294.995028
 31
0.0
  0
LINE
  5
40
100
AcDbEntity
  8
LC-003-003-----0
370
    25
390
0
 62
     2
100
AcDbLine
 10
327.736644
 20
400.726517
 30
0.0
 11
330.177005
 21
372.833065
 31
0.0
  0
LINE
  5
41
100
AcDbEntity
  8
LC-003-003-----0
370
    25
390
0
 62
     2
100
AcDbLine
 10
330.177005
 20
372.833065
 30
0.0
 11
335.039154
 21
400.407682
 31
0.0
  0
LINE
  5
42
100
AcDbEntity
  8
LC-003-003-----0
370
    25
390
0
 62
     2
100
AcDbLine
 10
335.039154
 20
400.407682
 30
0.0
 11
327.736644
 21
400.726517
 31
0.0
  0
LINE
  5
43
100
AcDbEntity
  8
LC-003-003-----0
370
    25
390
0
 62
     2
100
AcDbLine
 10
328.688687
 20
400.747291
 30
0.0
 11
330.494554
 21
380.106136
 31
0.0
  0
LINE
  5
44
100
AcDbEntity
  8
LC-003-003-----0
370
    25
390
0
 62
     2
100
AcDbLine
 10
330.494554
 20
380.106136
 30
0.0
 11
334.092545
 21
400.511353
 31
0.0
  0
LINE
  5
45
100
AcDbEntity
  8
LC-003-003-----0
370
    25
390
0
 62
     2
100
AcDbLine
 10
329.64073
 20
400.768064
 30
0.0
 11
330.812104
 21
387.379207
 31
0.0
  0
LINE
  5
46
100
AcDbEntity
  8
LC-003-003-----0
370
    25
390
0
 62
     2
100
AcDbLine
 10
330.812104
 20
387.379207
 30
0.0
 11
333.145935
 21
400.615024
 31
0.0
  0
LINE
  5
47
100
AcDbEntity
  8
LC-003-003-----0
370
    25
390
0
 62
     2
100
AcDbLine
 10
330.592773
 20
400.788838
 30
0.0
 11
331.129653
 21
394.652278
 31
0.0
  0
LINE
  5
48
100
AcDbEntity
  8
LC-003-003-----0
370
    25
390
0
 62
     2
100
AcDbLine
 10
331.129653
 20
394.652278
 30
0.0
 11
332.199325
 21
400.718694
 31
0.0
  0
LINE
  5
4A
100
AcDbEntity
  8
LC-004-003-MTG-0
370
    25
390
0
 62
     2
100
AcDbLine
 10
326.286156
 20
283.717967
 30
0.0
 11
335.936858
 21
504.755385
 31
0.0
  0
TEXT
  5
4B
100
AcDbEntity
  8
LC-003-003-----0
370
    -2
390
0
 62
     7
100
AcDbText
 10
324.256446
 20
416.68121
 30
0.0
 40
28.0
  1
DN50
 50
87.5
 41
0.9
 51
15.0
  7
LCTX15-400-0-0-ARIAL
100
AcDbText
  0
ENDBLK
  5
4C
100
AcDbEntity
  8
0
390
0
100
AcDbBlockEnd
  0
BLOCK
  5
52
100
AcDbEntity
  8
0
390
0
100
AcDbBlockBegin
  2
*D1
 70
    65
 10
0.0
 20
0.0
 30
0.0
  3
*D1
  1

  0
LINE
  5
53
100
AcDbEntity
  8
LC-002-003-MTH-0
370
    25
390
0
 62
     2
100
AcDbLine
 10
141.348429
 20
331.029865
 30
0.0
 11
141.348429
 21
257.6
 31
0.0
  0
LINE
  5
54
100
AcDbEntity
  8
LC-002-003-MTH-0
370
    25
390
0
 62
     2
100
AcDbLine
 10
291.348381
 20
349.504543
 30
0.0
 11
291.348381
 21
257.6
 31
0.0
  0
LINE
  5
55
100
AcDbEntity
  8
LC-004-003-MTG-0
370
    25
390
0
 62
     2
100
AcDbLine
 10
141.348429
 20
274.4
 30
0.0
 11
182.143872
 21
274.4
 31
0.0
  0
LINE
  5
56
100
AcDbEntity
  8
LC-004-003-MTG-0
370
    25
390
0
 62
     2
100
AcDbLine
 10
265.046805
 20
274.4
 30
0.0
 11
291.348381
 21
274.4
 31
0.0
  0
LINE
  5
57
100
AcDbEntity
  8
LC-003-003-----0
370
    25
390
0
 62
     2
100
AcDbLine
 10
169.108885
 20
278.054733
 30
0.0
 11
141.348429
 21
274.4
 31
0.0
  0
LINE
  5
58
100
AcDbEntity
  8
LC-003-003-----0
370
    25
390
0
 62
     2
100
AcDbLine
 10
141.348429
 20
274.4
 30
0.0
 11
169.108885
 21
270.745267
 31
0.0
  0
LINE
  5
59
100
AcDbEntity
  8
LC-003-003-----0
370
    25
390
0
 62
     2
100
AcDbLine
 10
169.108885
 20
270.745267
 30
0.0
 11
169.108885
 21
278.054733
 31
0.0
  0
LINE
  5
5A
100
AcDbEntity
  8
LC-003-003-----0
370
    25
390
0
 62
     2
100
AcDbLine
 10
169.171167
 20
277.104503
 30
0.0
 11
148.628429
 21
274.4
 31
0.0
  0
LINE
  5
5B
100
AcDbEntity
  8
LC-003-003-----0
370
    25
390
0
 62
     2
100
AcDbLine
 10
148.628429
 20
274.4
 30
0.0
 11
169.171167
 21
271.695497
 31
0.0
  0
LINE
  5
5C
100
AcDbEntity
  8
LC-003-003-----0
370
    25
390
0
 62
     2
100
AcDbLine
 10
169.233448
 20
276.154272
 30
0.0
 11
155.908429
 21
274.4
 31
0.0
  0
LINE
  5
5D
100
AcDbEntity
  8
LC-003-003-----0
370
    25
390
0
 62
     2
100
AcDbLine
 10
155.908429
 20
274.4
 30
0.0
 11
169.233448
 21
272.645728
 31
0.0
  0
LINE
  5
5E
100
AcDbEntity
  8
LC-003-003-----0
370
    25
390
0
 62
     2
100
AcDbLine
 10
169.295729
 20
275.204041
 30
0.0
 11
163.188429
 21
274.4
 31
0.0
  0
LINE
  5
5F
100
AcDbEntity
  8
LC-003-003-----0
370
    25
390
0
 62
     2
100
AcDbLine
 10
163.188429
 20
274.4
 30
0.0
 11
169.295729
 21
273.595959
 31
0.0
  0
LINE
  5
60
100
AcDbEntity
  8
LC-003-003-----0
370
    25
390
0
 62
     2
100
AcDbLine
 10
265.046805
 20
270.937332
 30
0.0
 11
291.348381
 21
274.4
 31
0.0
  0
LINE
  5
61
100
AcDbEntity
  8
LC-003-003-----0
370
    25
390
0
 62
     2
100
AcDbLine
 10
291.348381
 20
274.4
 30
0.0
 11
265.046805
 21
277.862668
 31
0.0
  0
LINE
  5
62
100
AcDbEntity
  8
LC-003-003-----0
370
    25
390
0
 62
     2
100
AcDbLine
 10
265.046805
 20
271.895762
 30
0.0
 11
284.068381
 21
274.4
 31
0.0
  0
LINE
  5
63
100
AcDbEntity
  8
LC-003-003-----0
370
    25
390
0
 62
     2
100
AcDbLine
 10
284.068381
 20
274.4
 30
0.0
 11
265.046805
 21
276.904238
 31
0.0
  0
LINE
  5
64
100
AcDbEntity
  8
LC-003-003-----0
370
    25
390
0
 62
     2
100
AcDbLine
 10
265.046805
 20
272.854192
 30
0.0
 11
276.788381
 21
274.4
 31
0.0
  0
LINE
  5
65
100
AcDbEntity
  8
LC-003-003-----0
370
    25
390
0
 62
     2
100
AcDbLine
 10
276.788381
 20
274.4
 30
0.0
 11
265.046805
 21
275.945808
 31
0.0
  0
LINE
  5
66
100
AcDbEntity
  8
LC-003-003-----0
370
    25
390
0
 62
     2
100
AcDbLine
 10
265.046805
 20
273.812622
 30
0.0
 11
269.508381
 21
274.4
 31
0.0
  0
LINE
  5
67
100
AcDbEntity
  8
LC-003-003-----0
370
    25
390
0
 62
     2
100
AcDbLine
 10
269.508381
 20
274.4
 30
0.0
 11
265.046805
 21
274.987378
 31
0.0
  0
TEXT
  5
68
100
AcDbEntity
  8
LC-003-003-----0
370
    -2
390
0
 62
     7
100
AcDbText
 10
194.068565
 20
282.227554
 30
0.0
 40
28.0
  1
150
 41
0.9
 51
15.0
  7
LCTX15-400-0-0-ARIAL
 72
     1
 11
220.696565
 21
282.227554
 31
0.0
100
AcDbText
  0
ENDBLK
  5
69
100
AcDbEntity
  8
0
390
0
100
AcDbBlockEnd
  0
BLOCK
  5
D5
100
AcDbEntity
  8
0
390
0
100
AcDbBlockBegin
  2
*X2
 70
    65
 10
0.0
 20
0.0
 30
0.0
  3
*X2
  1

  0
LINE
  5
D7
100
AcDbEntity
  8
LC-006-005-----0
370
    25
390
0
 62
     2
100
AcDbLine
 10
290.059834
 20
372.084221
 30
0.0
 11
291.725529
 21
373.749916
 31
0.0
  0
LINE
  5
D8
100
AcDbEntity
  8
LC-006-005-----0
370
    25
390
0
 62
     2
100
AcDbLine
 10
287.352022
 20
372.204836
 30
0.0
 11
289.575123
 21
374.427936
 31
0.0
  0
LINE
  5
D9
100
AcDbEntity
  8
LC-006-005-----0
370
    25
390
0
 62
     2
100
AcDbLine
 10
284.64421
 20
372.325451
 30
0.0
 11
287.035426
 21
374.716667
 31
0.0
  0
LINE
  5
DA
100
AcDbEntity
  8
LC-006-005-----0
370
    25
390
0
 62
     2
100
AcDbLine
 10
281.936398
 20
372.446066
 30
0.0
 11
284.325325
 21
374.834993
 31
0.0
  0
LINE
  5
DB
100
AcDbEntity
  8
LC-006-005-----0
370
    25
390
0
 62
     2
100
AcDbLine
 10
279.228586
 20
372.566681
 30
0.0
 11
281.615223
 21
374.953319
 31
0.0
  0
LINE
  5
DC
100
AcDbEntity
  8
LC-006-005-----0
370
    25
390
0
 62
     2
100
AcDbLine
 10
276.520774
 20
372.687296
 30
0.0
 11
278.905122
 21
375.071644
 31
0.0
  0
LINE
  5
DD
100
AcDbEntity
  8
LC-006-005-----0
370
    25
390
0
 62
     2
100
AcDbLine
 10
273.812962
 20
372.807911
 30
0.0
 11
276.19502
 21
375.18997
 31
0.0
  0
LINE
  5
DE
100
AcDbEntity
  8
LC-006-005-----0
370
    25
390
0
 62
     2
100
AcDbLine
 10
292.170834
 20
391.165783
 30
0.0
 11
292.787625
 21
391.782574
 31
0.0
  0
LINE
  5
DF
100
AcDbEntity
  8
LC-006-005-----0
370
    25
390
0
 62
     2
100
AcDbLine
 10
271.105149
 20
372.928526
 30
0.0
 11
273.484919
 21
375.308295
 31
0.0
  0
LINE
  5
E0
100
AcDbEntity
  8
LC-006-005-----0
370
    25
390
0
 62
     2
100
AcDbLine
 10
289.959198
 20
391.782574
 30
0.0
 11
291.396509
 21
393.219886
 31
0.0
  0
LINE
  5
E1
100
AcDbEntity
  8
LC-006-005-----0
370
    25
390
0
 62
     2
100
AcDbLine
 10
292.910802
 20
394.734178
 30
0.0
 11
292.959198
 21
394.782574
 31
0.0
  0
LINE
  5
E2
100
AcDbEntity
  8
LC-006-005-----0
370
    25
390
0
 62
     2
100
AcDbLine
 10
268.397337
 20
373.049141
 30
0.0
 11
270.774817
 21
375.426621
 31
0.0
  0
LINE
  5
E3
100
AcDbEntity
  8
LC-006-005-----0
370
    25
390
0
 62
     2
100
AcDbLine
 10
287.130771
 20
391.782574
 30
0.0
 11
290.130771
 21
394.782574
 31
0.0
  0
LINE
  5
E4
100
AcDbEntity
  8
LC-006-005-----0
370
    25
390
0
 62
     2
100
AcDbLine
 10
265.689525
 20
373.169756
 30
0.0
 11
268.064716
 21
375.544946
 31
0.0
  0
LINE
  5
E5
100
AcDbEntity
  8
LC-006-005-----0
370
    25
390
0
 62
     2
100
AcDbLine
 10
284.302343
 20
391.782574
 30
0.0
 11
287.302343
 21
394.782574
 31
0.0
  0
LINE
  5
E6
100
AcDbEntity
  8
LC-006-005-----0
370
    25
390
0
 62
     2
100
AcDbLine
 10
262.981713
 20
373.290371
 30
0.0
 11
265.354614
 21
375.663272
 31
0.0
  0
LINE
  5
E7
100
AcDbEntity
  8
LC-006-005-----0
370
    25
390
0
 62
     2
100
AcDbLine
 10
281.473916
 20
391.782574
 30
0.0
 11
284.473916
 21
394.782574
 31
0.0
  0
LINE
  5
E8
100
AcDbEntity
  8
LC-006-005-----0
370
    25
390
0
 62
     2
100
AcDbLine
 10
260.273901
 20
373.410986
 30
0.0
 11
262.644513
 21
375.781598
 31
0.0
  0
LINE
  5
E9
100
AcDbEntity
  8
LC-006-005-----0
370
    25
390
0
 62
     2
100
AcDbLine
 10
278.645489
 20
391.782574
 30
0.0
 11
281.645489
 21
394.782574
 31
0.0
  0
LINE
  5
EA
100
AcDbEntity
  8
LC-006-005-----0
370
    25
390
0
 62
     2
100
AcDbLine
 10
257.566089
 20
373.531601
 30
0.0
 11
259.934411
 21
375.899923
 31
0.0
  0
LINE
  5
EB
100
AcDbEntity
  8
LC-006-005-----0
370
    25
390
0
 62
     2
100
AcDbLine
 10
275.817062
 20
391.782574
 30
0.0
 11
278.817062
 21
394.782574
 31
0.0
  0
LINE
  5
EC
100
AcDbEntity
  8
LC-006-005-----0
370
    25
390
0
 62
     2
100
AcDbLine
 10
254.858277
 20
373.652216
 30
0.0
 11
257.22431
 21
376.018249
 31
0.0
  0
LINE
  5
ED
100
AcDbEntity
  8
LC-006-005-----0
370
    25
390
0
 62
     2
100
AcDbLine
 10
272.988635
 20
391.782574
 30
0.0
 11
275.988635
 21
394.782574
 31
0.0
  0
LINE
  5
EE
100
AcDbEntity
  8
LC-006-005-----0
370
    25
390
0
 62
     2
100
AcDbLine
 10
252.150465
 20
373.772831
 30
0.0
 11
254.514208
 21
376.136574
 31
0.0
  0
LINE
  5
EF
100
AcDbEntity
  8
LC-006-005-----0
370
    25
390
0
 62
     2
100
AcDbLine
 10
270.160208
 20
391.782574
 30
0.0
 11
273.160208
 21
394.782574
 31
0.0
  0
LINE
  5
F0
100
AcDbEntity
  8
LC-006-005-----0
370
    25
390
0
 62
     2
100
AcDbLine
 10
249.442652
 20
373.893446
 30
0.0
 11
251.804106
 21
376.2549
 31
0.0
  0
LINE
  5
F1
100
AcDbEntity
  8
LC-006-005-----0
370
    25
390
0
 62
     2
100
AcDbLine
 10
267.331781
 20
391.782574
 30
0.0
 11
270.331781
 21
394.782574
 31
0.0
  0
LINE
  5
F2
100
AcDbEntity
  8
LC-006-005-----0
370
    25
390
0
 62
     2
100
AcDbLine
 10
246.73484
 20
374.014061
 30
0.0
 11
249.094005
 21
376.373226
 31
0.0
  0
LINE
  5
F3
100
AcDbEntity
  8
LC-006-005-----0
370
    25
390
0
 62
     2
100
AcDbLine
 10
264.503354
 20
391.782574
 30
0.0
 11
267.503354
 21
394.782574
 31
0.0
  0
LINE
  5
F4
100
AcDbEntity
  8
LC-006-005-----0
370
    25
390
0
 62
     2
100
AcDbLine
 10
244.027028
 20
374.134676
 30
0.0
 11
246.383903
 21
376.491551
 31
0.0
  0
LINE
  5
F5
100
AcDbEntity
  8
LC-006-005-----0
370
    25
390
0
 62
     2
100
AcDbLine
 10
261.674926
 20
391.782574
 30
0.0
 11
264.674926
 21
394.782574
 31
0.0
  0
LINE
  5
F6
100
AcDbEntity
  8
LC-006-005-----0
370
    25
390
0
 62
     2
100
AcDbLine
 10
241.319216
 20
374.255291
 30
0.0
 11
243.673802
 21
376.609877
 31
0.0
  0
LINE
  5
F7
100
AcDbEntity
  8
LC-006-005-----0
370
    25
390
0
 62
     2
100
AcDbLine
 10
258.846499
 20
391.782574
 30
0.0
 11
261.846499
 21
394.782574
 31
0.0
  0
LINE
  5
F8
100
AcDbEntity
  8
LC-006-005-----0
370
    25
390
0
 62
     2
100
AcDbLine
 10
238.611404
 20
374.375906
 30
0.0
 11
240.9637
 21
376.728202
 31
0.0
  0
LINE
  5
F9
100
AcDbEntity
  8
LC-006-005-----0
370
    25
390
0
 62
     2
100
AcDbLine
 10
256.018072
 20
391.782574
 30
0.0
 11
259.018072
 21
394.782574
 31
0.0
  0
LINE
  5
FA
100
AcDbEntity
  8
LC-006-005-----0
370
    25
390
0
 62
     2
100
AcDbLine
 10
235.903592
 20
374.496521
 30
0.0
 11
238.253599
 21
376.846528
 31
0.0
  0
LINE
  5
FB
100
AcDbEntity
  8
LC-006-005-----0
370
    25
390
0
 62
     2
100
AcDbLine
 10
253.189645
 20
391.782574
 30
0.0
 11
256.189645
 21
394.782574
 31
0.0
  0
LINE
  5
FC
100
AcDbEntity
  8
LC-006-005-----0
370
    25
390
0
 62
     2
100
AcDbLine
 10
233.19578
 20
374.617136
 30
0.0
 11
235.543497
 21
376.964854
 31
0.0
  0
LINE
  5
FD
100
AcDbEntity
  8
LC-006-005-----0
370
    25
390
0
 62
     2
100
AcDbLine
 10
250.361218
 20
391.782574
 30
0.0
 11
253.361218
 21
394.782574
 31
0.0
  0
LINE
  5
FE
100
AcDbEntity
  8
LC-006-005-----0
370
    25
390
0
 62
     2
100
AcDbLine
 10
230.487968
 20
374.737751
 30
0.0
 11
232.833396
 21
377.083179
 31
0.0
  0
LINE
  5
FF
100
AcDbEntity
  8
LC-006-005-----0
370
    25
390
0
 62
     2
100
AcDbLine
 10
247.202768
 20
391.452552
 30
0.0
 11
250.482778
 21
394.732562
 31
0.0
  0
LINE
  5
100
100
AcDbEntity
  8
LC-006-005-----0
370
    25
390
0
 62
     2
100
AcDbLine
 10
227.780155
 20
374.858366
 30
0.0
 11
230.123294
 21
377.201505
 31
0.0
  0
LINE
  5
101
100
AcDbEntity
  8
LC-006-005-----0
370
    25
390
0
 62
     2
100
AcDbLine
 10
243.503376
 20
390.581586
 30
0.0
 11
247.534455
 21
394.612665
 31
0.0
  0
LINE
  5
102
100
AcDbEntity
  8
LC-006-005-----0
370
    25
390
0
 62
     2
100
AcDbLine
 10
225.072343
 20
374.978981
 30
0.0
 11
227.413193
 21
377.31983
 31
0.0
  0
LINE
  5
103
100
AcDbEntity
  8
LC-006-005-----0
370
    25
390
0
 62
     2
100
AcDbLine
 10
239.803983
 20
389.710621
 30
0.0
 11
243.835062
 21
393.7417
 31
0.0
  0
LINE
  5
104
100
AcDbEntity
  8
LC-006-005-----0
370
    25
390
0
 62
     2
100
AcDbLine
 10
222.364531
 20
375.099596
 30
0.0
 11
224.703091
 21
377.438156
 31
0.0
  0
LINE
  5
105
100
AcDbEntity
  8
LC-006-005-----0
370
    25
390
0
 62
     2
100
AcDbLine
 10
236.104591
 20
388.839655
 30
0.0
 11
240.135669
 21
392.870734
 31
0.0
  0
LINE
  5
106
100
AcDbEntity
  8
LC-006-005-----0
370
    25
390
0
 62
     2
100
AcDbLine
 10
219.656719
 20
375.220211
 30
0.0
 11
221.99299
 21
377.556481
 31
0.0
  0
LINE
  5
107
100
AcDbEntity
  8
LC-006-005-----0
370
    25
390
0
 62
     2
100
AcDbLine
 10
232.405198
 20
387.96869
 30
0.0
 11
236.436277
 21
391.999769
 31
0.0
  0
LINE
  5
108
100
AcDbEntity
  8
LC-006-005-----0
370
    25
390
0
 62
     2
100
AcDbLine
 10
216.948907
 20
375.340826
 30
0.0
 11
219.282888
 21
377.674807
 31
0.0
  0
LINE
  5
109
100
AcDbEntity
  8
LC-006-005-----0
370
    25
390
0
 62
     2
100
AcDbLine
 10
225.360255
 20
383.752174
 30
0.0
 11
232.736884
 21
391.128803
 31
0.0
  0
LINE
  5
10A
100
AcDbEntity
  8
LC-006-005-----0
370
    25
390
0
 62
     2
100
AcDbLine
 10
214.241095
 20
375.461441
 30
0.0
 11
216.572787
 21
377.793133
 31
0.0
  0
LINE
  5
10B
100
AcDbEntity
  8
LC-006-005-----0
370
    25
390
0
 62
     2
100
AcDbLine
 10
222.531828
 20
383.752174
 30
0.0
 11
229.037492
 21
390.257838
 31
0.0
  0
LINE
  5
10C
100
AcDbEntity
  8
LC-006-005-----0
370
    25
390
0
 62
     2
100
AcDbLine
 10
211.533283
 20
375.582056
 30
0.0
 11
213.862685
 21
377.911458
 31
0.0
  0
LINE
  5
10D
100
AcDbEntity
  8
LC-006-005-----0
370
    25
390
0
 62
     2
100
AcDbLine
 10
219.703401
 20
383.752174
 30
0.0
 11
222.248401
 21
386.297174
 31
0.0
  0
LINE
  5
10E
100
AcDbEntity
  8
LC-006-005-----0
370
    25
390
0
 62
     2
100
AcDbLine
 10
223.792961
 20
387.841735
 30
0.0
 11
225.811401
 21
389.860174
 31
0.0
  0
LINE
  5
10F
100
AcDbEntity
  8
LC-006-005-----0
370
    25
390
0
 62
     2
100
AcDbLine
 10
208.825471
 20
375.702671
 30
0.0
 11
211.152583
 21
378.029784
 31
0.0
  0
LINE
  5
110
100
AcDbEntity
  8
LC-006-005-----0
370
    25
390
0
 62
     2
100
AcDbLine
 10
216.874974
 20
383.752174
 30
0.0
 11
219.419974
 21
386.297174
 31
0.0
  0
LINE
  5
111
100
AcDbEntity
  8
LC-006-005-----0
370
    25
390
0
 62
     2
100
AcDbLine
 10
206.117658
 20
375.823286
 30
0.0
 11
208.442482
 21
378.148109
 31
0.0
  0
LINE
  5
112
100
AcDbEntity
  8
LC-006-005-----0
370
    25
390
0
 62
     2
100
AcDbLine
 10
214.046547
 20
383.752174
 30
0.0
 11
217.06643
 21
386.772058
 31
0.0
  0
LINE
  5
113
100
AcDbEntity
  8
LC-006-005-----0
370
    25
390
0
 62
     2
100
AcDbLine
 10
203.409846
 20
375.943901
 30
0.0
 11
205.73238
 21
378.266435
 31
0.0
  0
LINE
  5
114
100
AcDbEntity
  8
LC-006-005-----0
370
    25
390
0
 62
     2
100
AcDbLine
 10
211.21812
 20
383.752174
 30
0.0
 11
217.06643
 21
389.600485
 31
0.0
  0
LINE
  5
115
100
AcDbEntity
  8
LC-006-005-----0
370
    25
390
0
 62
     2
100
AcDbLine
 10
200.702034
 20
376.064516
 30
0.0
 11
204.348499
 21
379.710981
 31
0.0
  0
LINE
  5
116
100
AcDbEntity
  8
LC-006-005-----0
370
    25
390
0
 62
     2
100
AcDbLine
 10
208.389692
 20
383.752174
 30
0.0
 11
214.497692
 21
389.860174
 31
0.0
  0
LINE
  5
117
100
AcDbEntity
  8
LC-006-005-----0
370
    25
390
0
 62
     2
100
AcDbLine
 10
197.994222
 20
376.185131
 30
0.0
 11
200.201163
 21
378.392072
 31
0.0
  0
LINE
  5
118
100
AcDbEntity
  8
LC-006-005-----0
370
    25
390
0
 62
     2
100
AcDbLine
 10
201.098457
 20
379.289366
 30
0.0
 11
204.348499
 21
382.539408
 31
0.0
  0
LINE
  5
119
100
AcDbEntity
  8
LC-006-005-----0
370
    25
390
0
 62
     2
100
AcDbLine
 10
205.561265
 20
383.752174
 30
0.0
 11
211.669265
 21
389.860174
 31
0.0
  0
LINE
  5
11A
100
AcDbEntity
  8
LC-006-005-----0
370
    25
390
0
 62
     2
100
AcDbLine
 10
195.28641
 20
376.305746
 30
0.0
 11
197.372736
 21
378.392072
 31
0.0
  0
LINE
  5
11B
100
AcDbEntity
  8
LC-006-005-----0
370
    25
390
0
 62
     2
100
AcDbLine
 10
201.098457
 20
382.117793
 30
0.0
 11
208.840838
 21
389.860174
 31
0.0
  0
LINE
  5
11C
100
AcDbEntity
  8
LC-006-005-----0
370
    25
390
0
 62
     2
100
AcDbLine
 10
193.348386
 20
377.196149
 30
0.0
 11
194.544309
 21
378.392072
 31
0.0
  0
LINE
  5
11D
100
AcDbEntity
  8
LC-006-005-----0
370
    25
390
0
 62
     2
100
AcDbLine
 10
201.098457
 20
384.94622
 30
0.0
 11
206.012008
 21
389.859771
 31
0.0
  0
LINE
  5
11E
100
AcDbEntity
  8
LC-006-005-----0
370
    25
390
0
 62
     2
100
AcDbLine
 10
201.098457
 20
387.774647
 30
0.0
 11
204.710281
 21
391.386471
 31
0.0
  0
LINE
  5
11F
100
AcDbEntity
  8
LC-006-005-----0
370
    25
390
0
 62
     2
100
AcDbLine
 10
201.098457
 20
390.603074
 30
0.0
 11
201.881854
 21
391.386471
 31
0.0
  0
ENDBLK
  5
120
100
AcDbEntity
  8
0
390
0
100
AcDbBlockEnd
  0
BLOCK
  5
123
100
AcDbEntity
  8
0
390
0
100
AcDbBlockBegin
  2
*X3
 70
    65
 10
0.0
 20
0.0
 30
0.0
  3
*X3
  1

  0
LINE
  5
124
100
AcDbEntity
  8
LC-006-005-----0
370
    25
390
0
 62
     2
100
AcDbLine
 10
288.246518
 20
325.016071
 30
0.0
 11
290.261032
 21
327.030585
 31
0.0
  0
LINE
  5
125
100
AcDbEntity
  8
LC-006-005-----0
370
    25
390
0
 62
     2
100
AcDbLine
 10
285.153235
 20
324.751214
 30
0.0
 11
287.550931
 21
327.14891
 31
0.0
  0
LINE
  5
126
100
AcDbEntity
  8
LC-006-005-----0
370
    25
390
0
 62
     2
100
AcDbLine
 10
282.443133
 20
324.86954
 30
0.0
 11
284.840829
 21
327.267236
 31
0.0
  0
LINE
  5
127
100
AcDbEntity
  8
LC-006-005-----0
370
    25
390
0
 62
     2
100
AcDbLine
 10
279.733031
 20
324.987865
 30
0.0
 11
282.130727
 21
327.385561
 31
0.0
  0
LINE
  5
128
100
AcDbEntity
  8
LC-006-005-----0
370
    25
390
0
 62
     2
100
AcDbLine
 10
277.02293
 20
325.106191
 30
0.0
 11
279.420626
 21
327.503887
 31
0.0
  0
LINE
  5
129
100
AcDbEntity
  8
LC-006-005-----0
370
    25
390
0
 62
     2
100
AcDbLine
 10
274.312828
 20
325.224516
 30
0.0
 11
276.710524
 21
327.622212
 31
0.0
  0
LINE
  5
12A
100
AcDbEntity
  8
LC-006-005-----0
370
    25
390
0
 62
     2
100
AcDbLine
 10
271.602727
 20
325.342842
 30
0.0
 11
274.000423
 21
327.740538
 31
0.0
  0
LINE
  5
12B
100
AcDbEntity
  8
LC-006-005-----0
370
    25
390
0
 62
     2
100
AcDbLine
 10
268.892625
 20
325.461168
 30
0.0
 11
271.290321
 21
327.858864
 31
0.0
  0
LINE
  5
12C
100
AcDbEntity
  8
LC-006-005-----0
370
    25
390
0
 62
     2
100
AcDbLine
 10
266.182523
 20
325.579493
 30
0.0
 11
268.580219
 21
327.977189
 31
0.0
  0
LINE
  5
12D
100
AcDbEntity
  8
LC-006-005-----0
370
    25
390
0
 62
     2
100
AcDbLine
 10
263.472422
 20
325.697819
 30
0.0
 11
265.870118
 21
328.095515
 31
0.0
  0
LINE
  5
12E
100
AcDbEntity
  8
LC-006-005-----0
370
    25
390
0
 62
     2
100
AcDbLine
 10
260.76232
 20
325.816144
 30
0.0
 11
263.160016
 21
328.21384
 31
0.0
  0
LINE
  5
12F
100
AcDbEntity
  8
LC-006-005-----0
370
    25
390
0
 62
     2
100
AcDbLine
 10
258.052219
 20
325.93447
 30
0.0
 11
260.449915
 21
328.332166
 31
0.0
  0
LINE
  5
130
100
AcDbEntity
  8
LC-006-005-----0
370
    25
390
0
 62
     2
100
AcDbLine
 10
255.342117
 20
326.052795
 30
0.0
 11
257.739813
 21
328.450491
 31
0.0
  0
LINE
  5
131
100
AcDbEntity
  8
LC-006-005-----0
370
    25
390
0
 62
     2
100
AcDbLine
 10
252.632016
 20
326.171121
 30
0.0
 11
255.029712
 21
328.568817
 31
0.0
  0
LINE
  5
132
100
AcDbEntity
  8
LC-006-005-----0
370
    25
390
0
 62
     2
100
AcDbLine
 10
249.921914
 20
326.289446
 30
0.0
 11
252.31961
 21
328.687142
 31
0.0
  0
LINE
  5
133
100
AcDbEntity
  8
LC-006-005-----0
370
    25
390
0
 62
     2
100
AcDbLine
 10
247.211812
 20
326.407772
 30
0.0
 11
249.609508
 21
328.805468
 31
0.0
  0
LINE
  5
134
100
AcDbEntity
  8
LC-006-005-----0
370
    25
390
0
 62
     2
100
AcDbLine
 10
244.501711
 20
326.526097
 30
0.0
 11
246.899407
 21
328.923793
 31
0.0
  0
LINE
  5
135
100
AcDbEntity
  8
LC-006-005-----0
370
    25
390
0
 62
     2
100
AcDbLine
 10
241.791609
 20
326.644423
 30
0.0
 11
244.189305
 21
329.042119
 31
0.0
  0
LINE
  5
136
100
AcDbEntity
  8
LC-006-005-----0
370
    25
390
0
 62
     2
100
AcDbLine
 10
239.081508
 20
326.762748
 30
0.0
 11
241.479204
 21
329.160444
 31
0.0
  0
LINE
  5
137
100
AcDbEntity
  8
LC-006-005-----0
370
    25
390
0
 62
     2
100
AcDbLine
 10
236.371406
 20
326.881074
 30
0.0
 11
238.769102
 21
329.27877
 31
0.0
  0
LINE
  5
138
100
AcDbEntity
  8
LC-006-005-----0
370
    25
390
0
 62
     2
100
AcDbLine
 10
233.661304
 20
326.999399
 30
0.0
 11
236.059
 21
329.397096
 31
0.0
  0
LINE
  5
139
100
AcDbEntity
  8
LC-006-005-----0
370
    25
390
0
 62
     2
100
AcDbLine
 10
230.951203
 20
327.117725
 30
0.0
 11
233.348899
 21
329.515421
 31
0.0
  0
LINE
  5
13A
100
AcDbEntity
  8
LC-006-005-----0
370
    25
390
0
 62
     2
100
AcDbLine
 10
228.241101
 20
327.236051
 30
0.0
 11
230.638797
 21
329.633747
 31
0.0
  0
LINE
  5
13B
100
AcDbEntity
  8
LC-006-005-----0
370
    25
390
0
 62
     2
100
AcDbLine
 10
225.531
 20
327.354376
 30
0.0
 11
227.928696
 21
329.752072
 31
0.0
  0
LINE
  5
13C
100
AcDbEntity
  8
LC-006-005-----0
370
    25
390
0
 62
     2
100
AcDbLine
 10
222.820898
 20
327.472702
 30
0.0
 11
225.218594
 21
329.870398
 31
0.0
  0
LINE
  5
13D
100
AcDbEntity
  8
LC-006-005-----0
370
    25
390
0
 62
     2
100
AcDbLine
 10
220.110796
 20
327.591027
 30
0.0
 11
222.508492
 21
329.988723
 31
0.0
  0
LINE
  5
13E
100
AcDbEntity
  8
LC-006-005-----0
370
    25
390
0
 62
     2
100
AcDbLine
 10
217.400695
 20
327.709353
 30
0.0
 11
219.798391
 21
330.107049
 31
0.0
  0
LINE
  5
13F
100
AcDbEntity
  8
LC-006-005-----0
370
    25
390
0
 62
     2
100
AcDbLine
 10
214.690593
 20
327.827678
 30
0.0
 11
217.088289
 21
330.225374
 31
0.0
  0
LINE
  5
140
100
AcDbEntity
  8
LC-006-005-----0
370
    25
390
0
 62
     2
100
AcDbLine
 10
211.980492
 20
327.946004
 30
0.0
 11
214.378188
 21
330.3437
 31
0.0
  0
LINE
  5
141
100
AcDbEntity
  8
LC-006-005-----0
370
    25
390
0
 62
     2
100
AcDbLine
 10
209.27039
 20
328.064329
 30
0.0
 11
211.668086
 21
330.462025
 31
0.0
  0
LINE
  5
142
100
AcDbEntity
  8
LC-006-005-----0
370
    25
390
0
 62
     2
100
AcDbLine
 10
206.560288
 20
328.182655
 30
0.0
 11
208.957985
 21
330.580351
 31
0.0
  0
LINE
  5
143
100
AcDbEntity
  8
LC-006-005-----0
370
    25
390
0
 62
     2
100
AcDbLine
 10
203.850187
 20
328.30098
 30
0.0
 11
206.247883
 21
330.698676
 31
0.0
  0
LINE
  5
144
100
AcDbEntity
  8
LC-006-005-----0
370
    25
390
0
 62
     2
100
AcDbLine
 10
201.140085
 20
328.419306
 30
0.0
 11
203.537781
 21
330.817002
 31
0.0
  0
LINE
  5
145
100
AcDbEntity
  8
LC-006-005-----0
370
    25
390
0
 62
     2
100
AcDbLine
 10
198.429984
 20
328.537631
 30
0.0
 11
200.82768
 21
330.935328
 31
0.0
  0
LINE
  5
146
100
AcDbEntity
  8
LC-006-005-----0
370
    25
390
0
 62
     2
100
AcDbLine
 10
195.719882
 20
328.655957
 30
0.0
 11
198.117578
 21
331.053653
 31
0.0
  0
LINE
  5
147
100
AcDbEntity
  8
LC-006-005-----0
370
    25
390
0
 62
     2
100
AcDbLine
 10
193.009781
 20
328.774283
 30
0.0
 11
195.407477
 21
331.171979
 31
0.0
  0
LINE
  5
148
100
AcDbEntity
  8
LC-006-005-----0
370
    25
390
0
 62
     2
100
AcDbLine
 10
190.299679
 20
328.892608
 30
0.0
 11
192.697375
 21
331.290304
 31
0.0
  0
LINE
  5
149
100
AcDbEntity
  8
LC-006-005-----0
370
    25
390
0
 62
     2
100
AcDbLine
 10
187.589577
 20
329.010934
 30
0.0
 11
189.987273
 21
331.40863
 31
0.0
  0
LINE
  5
14A
100
AcDbEntity
  8
LC-006-005-----0
370
    25
390
0
 62
     2
100
AcDbLine
 10
184.879476
 20
329.129259
 30
0.0
 11
187.277172
 21
331.526955
 31
0.0
  0
LINE
  5
14B
100
AcDbEntity
  8
LC-006-005-----0
370
    25
390
0
 62
     2
100
AcDbLine
 10
182.169374
 20
329.247585
 30
0.0
 11
184.56707
 21
331.645281
 31
0.0
  0
LINE
  5
14C
100
AcDbEntity
  8
LC-006-005-----0
370
    25
390
0
 62
     2
100
AcDbLine
 10
179.459273
 20
329.36591
 30
0.0
 11
181.856969
 21
331.763606
 31
0.0
  0
LINE
  5
14D
100
AcDbEntity
  8
LC-006-005-----0
370
    25
390
0
 62
     2
100
AcDbLine
 10
176.749171
 20
329.484236
 30
0.0
 11
179.146867
 21
331.881932
 31
0.0
  0
LINE
  5
14E
100
AcDbEntity
  8
LC-006-005-----0
370
    25
390
0
 62
     2
100
AcDbLine
 10
174.039069
 20
329.602561
 30
0.0
 11
176.436765
 21
332.000257
 31
0.0
  0
LINE
  5
14F
100
AcDbEntity
  8
LC-006-005-----0
370
    25
390
0
 62
     2
100
AcDbLine
 10
171.328968
 20
329.720887
 30
0.0
 11
173.726664
 21
332.118583
 31
0.0
  0
LINE
  5
150
100
AcDbEntity
  8
LC-006-005-----0
370
    25
390
0
 62
     2
100
AcDbLine
 10
168.618866
 20
329.839212
 30
0.0
 11
171.016562
 21
332.236908
 31
0.0
  0
LINE
  5
151
100
AcDbEntity
  8
LC-006-005-----0
370
    25
390
0
 62
     2
100
AcDbLine
 10
165.908765
 20
329.957538
 30
0.0
 11
168.306461
 21
332.355234
 31
0.0
  0
LINE
  5
152
100
AcDbEntity
  8
LC-006-005-----0
370
    25
390
0
 62
     2
100
AcDbLine
 10
163.198663
 20
330.075863
 30
0.0
 11
165.596359
 21
332.473559
 31
0.0
  0
LINE
  5
153
100
AcDbEntity
  8
LC-006-005-----0
370
    25
390
0
 62
     2
100
AcDbLine
 10
160.488561
 20
330.194189
 30
0.0
 11
162.886258
 21
332.591885
 31
0.0
  0
LINE
  5
154
100
AcDbEntity
  8
LC-006-005-----0
370
    25
390
0
 62
     2
100
AcDbLine
 10
157.77846
 20
330.312514
 30
0.0
 11
160.176156
 21
332.710211
 31
0.0
  0
LINE
  5
155
100
AcDbEntity
  8
LC-006-005-----0
370
    25
390
0
 62
     2
100
AcDbLine
 10
155.068358
 20
330.43084
 30
0.0
 11
157.466054
 21
332.828536
 31
0.0
  0
LINE
  5
156
100
AcDbEntity
  8
LC-006-005-----0
370
    25
390
0
 62
     2
100
AcDbLine
 10
152.358257
 20
330.549166
 30
0.0
 11
154.755953
 21
332.946862
 31
0.0
  0
LINE
  5
157
100
AcDbEntity
  8
LC-006-005-----0
370
    25
390
0
 62
     2
100
AcDbLine
 10
149.648155
 20
330.667491
 30
0.0
 11
152.045851
 21
333.065187
 31
0.0
  0
LINE
  5
158
100
AcDbEntity
  8
LC-006-005-----0
370
    25
390
0
 62
     2
100
AcDbLine
 10
146.938054
 20
330.785817
 30
0.0
 11
149.33575
 21
333.183513
 31
0.0
  0
LINE
  5
159
100
AcDbEntity
  8
LC-006-005-----0
370
    25
390
0
 62
     2
100
AcDbLine
 10
144.227952
 20
330.904142
 30
0.0
 11
146.625648
 21
333.301838
 31
0.0
  0
LINE
  5
15A
100
AcDbEntity
  8
LC-006-005-----0
370
    25
390
0
 62
     2
100
AcDbLine
 10
141.51785
 20
331.022468
 30
0.0
 11
143.915546
 21
333.420164
 31
0.0
  0
LINE
  5
15B
100
AcDbEntity
  8
LC-006-005-----0
370
    25
390
0
 62
     2
100
AcDbLine
 10
138.846179
 20
331.179224
 30
0.0
 11
141.205445
 21
333.538489
 31
0.0
  0
LINE
  5
15C
100
AcDbEntity
  8
LC-006-005-----0
370
    25
390
0
 62
     2
100
AcDbLine
 10
136.389065
 20
331.550537
 30
0.0
 11
138.565039
 21
333.72651
 31
0.0
  0
LINE
  5
15D
100
AcDbEntity
  8
LC-006-005-----0
370
    25
390
0
 62
     2
100
AcDbLine
 10
134.128928
 20
332.118826
 30
0.0
 11
136.168239
 21
334.158138
 31
0.0
  0
LINE
  5
15E
100
AcDbEntity
  8
LC-006-005-----0
370
    25
390
0
 62
     2
100
AcDbLine
 10
132.034988
 20
332.853313
 30
0.0
 11
133.977131
 21
334.795456
 31
0.0
  0
LINE
  5
15F
100
AcDbEntity
  8
LC-006-005-----0
370
    25
390
0
 62
     2
100
AcDbLine
 10
130.087048
 20
333.733801
 30
0.0
 11
131.959542
 21
335.606295
 31
0.0
  0
LINE
  5
160
100
AcDbEntity
  8
LC-006-005-----0
370
    25
390
0
 62
     2
100
AcDbLine
 10
128.271506
 20
334.746686
 30
0.0
 11
130.095022
 21
336.570202
 31
0.0
  0
LINE
  5
161
100
AcDbEntity
  8
LC-006-005-----0
370
    25
390
0
 62
     2
100
AcDbLine
 10
126.579234
 20
335.882841
 30
0.0
 11
128.370376
 21
337.673983
 31
0.0
  0
LINE
  5
162
100
AcDbEntity
  8
LC-006-005-----0
370
    25
390
0
 62
     2
100
AcDbLine
 10
125.004398
 20
337.136432
 30
0.0
 11
126.777387
 21
338.909421
 31
0.0
  0
LINE
  5
163
100
AcDbEntity
  8
LC-006-005-----0
370
    25
390
0
 62
     2
100
AcDbLine
 10
123.543796
 20
338.504258
 30
0.0
 11
125.311615
 21
340.272076
 31
0.0
  0
LINE
  5
164
100
AcDbEntity
  8
LC-006-005-----0
370
    25
390
0
 62
     2
100
AcDbLine
 10
122.166629
 20
339.955517
 30
0.0
 11
123.935149
 21
341.724038
 31
0.0
  0
LINE
  5
165
100
AcDbEntity
  8
LC-006-005-----0
370
    25
390
0
 62
     2
100
AcDbLine
 10
120.793723
 20
341.411039
 30
0.0
 11
122.562244
 21
343.17956
 31
0.0
  0
LINE
  5
166
100
AcDbEntity
  8
LC-006-005-----0
370
    25
390
0
 62
     2
100
AcDbLine
 10
119.420818
 20
342.866561
 30
0.0
 11
121.189339
 21
344.635082
 31
0.0
  0
LINE
  5
167
100
AcDbEntity
  8
LC-006-005-----0
370
    25
390
0
 62
     2
100
AcDbLine
 10
118.047913
 20
344.322083
 30
0.0
 11
119.816434
 21
346.090604
 31
0.0
  0
LINE
  5
168
100
AcDbEntity
  8
LC-006-005-----0
370
    25
390
0
 62
     2
100
AcDbLine
 10
116.675008
 20
345.777605
 30
0.0
 11
118.443529
 21
347.546126
 31
0.0
  0
LINE
  5
169
100
AcDbEntity
  8
LC-006-005-----0
370
    25
390
0
 62
     2
100
AcDbLine
 10
115.302103
 20
347.233127
 30
0.0
 11
117.070624
 21
349.001648
 31
0.0
  0
LINE
  5
16A
100
AcDbEntity
  8
LC-006-005-----0
370
    25
390
0
 62
     2
100
AcDbLine
 10
113.929198
 20
348.688649
 30
0.0
 11
115.697719
 21
350.45717
 31
0.0
  0
LINE
  5
16B
100
AcDbEntity
  8
LC-006-005-----0
370
    25
390
0
 62
     2
100
AcDbLine
 10
112.556293
 20
350.144171
 30
0.0
 11
114.324814
 21
351.912692
 31
0.0
  0
LINE
  5
16C
100
AcDbEntity
  8
LC-006-005-----0
370
    25
390
0
 62
     2
100
AcDbLine
 10
111.183387
 20
351.599693
 30
0.0
 11
112.951908
 21
353.368214
 31
0.0
  0
LINE
  5
16D
100
AcDbEntity
  8
LC-006-005-----0
370
    25
390
0
 62
     2
100
AcDbLine
 10
109.810482
 20
353.055215
 30
0.0
 11
111.579003
 21
354.823736
 31
0.0
  0
LINE
  5
16E
100
AcDbEntity
  8
LC-006-005-----0
370
    25
390
0
 62
     2
100
AcDbLine
 10
108.437577
 20
354.510737
 30
0.0
 11
110.206098
 21
356.279258
 31
0.0
  0
LINE
  5
16F
100
AcDbEntity
  8
LC-006-005-----0
370
    25
390
0
 62
     2
100
AcDbLine
 10
107.064672
 20
355.966259
 30
0.0
 11
108.833193
 21
357.73478
 31
0.0
  0
LINE
  5
170
100
AcDbEntity
  8
LC-006-005-----0
370
    25
390
0
 62
     2
100
AcDbLine
 10
105.691767
 20
357.421781
 30
0.0
 11
107.460288
 21
359.190302
 31
0.0
  0
LINE
  5
171
100
AcDbEntity
  8
LC-006-005-----0
370
    25
390
0
 62
     2
100
AcDbLine
 10
104.318862
 20
358.877303
 30
0.0
 11
106.087383
 21
360.645824
 31
0.0
  0
LINE
  5
172
100
AcDbEntity
  8
LC-006-005-----0
370
    25
390
0
 62
     2
100
AcDbLine
 10
102.945957
 20
360.332825
 30
0.0
 11
104.714478
 21
362.101346
 31
0.0
  0
LINE
  5
173
100
AcDbEntity
  8
LC-006-005-----0
370
    25
390
0
 62
     2
100
AcDbLine
 10
101.573052
 20
361.788347
 30
0.0
 11
103.341572
 21
363.556868
 31
0.0
  0
LINE
  5
174
100
AcDbEntity
  8
LC-006-005-----0
370
    25
390
0
 62
     2
100
AcDbLine
 10
100.200146
 20
363.243869
 30
0.0
 11
101.968667
 21
365.01239
 31
0.0
  0
LINE
  5
175
100
AcDbEntity
  8
LC-006-005-----0
370
    25
390
0
 62
     2
100
AcDbLine
 10
98.827241
 20
364.699391
 30
0.0
 11
100.595762
 21
366.467912
 31
0.0
  0
LINE
  5
176
100
AcDbEntity
  8
LC-006-005-----0
370
    25
390
0
 62
     2
100
AcDbLine
 10
97.454336
 20
366.154913
 30
0.0
 11
99.222857
 21
367.923434
 31
0.0
  0
LINE
  5
177
100
AcDbEntity
  8
LC-006-005-----0
370
    25
390
0
 62
     2
100
AcDbLine
 10
96.081431
 20
367.610435
 30
0.0
 11
97.849952
 21
369.378956
 31
0.0
  0
LINE
  5
178
100
AcDbEntity
  8
LC-006-005-----0
370
    25
390
0
 62
     2
100
AcDbLine
 10
94.708526
 20
369.065957
 30
0.0
 11
96.477047
 21
370.834478
 31
0.0
  0
LINE
  5
179
100
AcDbEntity
  8
LC-006-005-----0
370
    25
390
0
 62
     2
100
AcDbLine
 10
93.335621
 20
370.521479
 30
0.0
 11
95.104142
 21
372.29
 31
0.0
  0
LINE
  5
17A
100
AcDbEntity
  8
LC-006-005-----0
370
    25
390
0
 62
     2
100
AcDbLine
 10
91.962716
 20
371.977001
 30
0.0
 11
93.731237
 21
373.745522
 31
0.0
  0
LINE
  5
17B
100
AcDbEntity
  8
LC-006-005-----0
370
    25
390
0
 62
     2
100
AcDbLine
 10
90.58981
 20
373.432523
 30
0.0
 11
92.358331
 21
375.201044
 31
0.0
  0
LINE
  5
17C
100
AcDbEntity
  8
LC-006-005-----0
370
    25
390
0
 62
     2
100
AcDbLine
 10
89.216905
 20
374.888045
 30
0.0
 11
90.985426
 21
376.656566
 31
0.0
  0
LINE
  5
17D
100
AcDbEntity
  8
LC-006-005-----0
370
    25
390
0
 62
     2
100
AcDbLine
 10
86.891815
 20
375.391382
 30
0.0
 11
89.612521
 21
378.112088
 31
0.0
  0
LINE
  5
17E
100
AcDbEntity
  8
LC-006-005-----0
370
    25
390
0
 62
     2
100
AcDbLine
 10
84.063388
 20
375.391382
 30
0.0
 11
87.063576
 21
378.39157
 31
0.0
  0
LINE
  5
17F
100
AcDbEntity
  8
LC-006-005-----0
370
    25
390
0
 62
     2
100
AcDbLine
 10
81.234961
 20
375.391382
 30
0.0
 11
84.234527
 21
378.390948
 31
0.0
  0
LINE
  5
180
100
AcDbEntity
  8
LC-006-005-----0
370
    25
390
0
 62
     2
100
AcDbLine
 10
78.406534
 20
375.391382
 30
0.0
 11
81.598316
 21
378.583164
 31
0.0
  0
LINE
  5
181
100
AcDbEntity
  8
LC-006-005-----0
370
    25
390
0
 62
     2
100
AcDbLine
 10
78.148275
 20
377.96155
 30
0.0
 11
81.598316
 21
381.411591
 31
0.0
  0
LINE
  5
182
100
AcDbEntity
  8
LC-006-005-----0
370
    25
390
0
 62
     2
100
AcDbLine
 10
78.148275
 20
380.789977
 30
0.0
 11
81.598316
 21
384.240018
 31
0.0
  0
LINE
  5
183
100
AcDbEntity
  8
LC-006-005-----0
370
    25
390
0
 62
     2
100
AcDbLine
 10
78.148275
 20
383.618405
 30
0.0
 11
81.598316
 21
387.068446
 31
0.0
  0
LINE
  5
184
100
AcDbEntity
  8
LC-006-005-----0
370
    25
390
0
 62
     2
100
AcDbLine
 10
75.453618
 20
383.752174
 30
0.0
 11
81.598316
 21
389.896873
 31
0.0
  0
LINE
  5
185
100
AcDbEntity
  8
LC-006-005-----0
370
    25
390
0
 62
     2
100
AcDbLine
 10
72.62519
 20
383.752174
 30
0.0
 11
80.259937
 21
391.38692
 31
0.0
  0
LINE
  5
186
100
AcDbEntity
  8
LC-006-005-----0
370
    25
390
0
 62
     2
100
AcDbLine
 10
69.796763
 20
383.752174
 30
0.0
 11
75.904763
 21
389.860174
 31
0.0
  0
LINE
  5
187
100
AcDbEntity
  8
LC-006-005-----0
370
    25
390
0
 62
     2
100
AcDbLine
 10
66.968336
 20
383.752174
 30
0.0
 11
73.076336
 21
389.860174
 31
0.0
  0
LINE
  5
188
100
AcDbEntity
  8
LC-006-005-----0
370
    25
390
0
 62
     2
100
AcDbLine
 10
64.139909
 20
383.752174
 30
0.0
 11
70.247909
 21
389.860174
 31
0.0
  0
LINE
  5
189
100
AcDbEntity
  8
LC-006-005-----0
370
    25
390
0
 62
     2
100
AcDbLine
 10
61.311482
 20
383.752174
 30
0.0
 11
63.856482
 21
386.297174
 31
0.0
  0
LINE
  5
18A
100
AcDbEntity
  8
LC-006-005-----0
370
    25
390
0
 62
     2
100
AcDbLine
 10
65.63043
 20
388.071122
 30
0.0
 11
67.419482
 21
389.860174
 31
0.0
  0
LINE
  5
18B
100
AcDbEntity
  8
LC-006-005-----0
370
    25
390
0
 62
     2
100
AcDbLine
 10
58.483055
 20
383.752174
 30
0.0
 11
61.028055
 21
386.297174
 31
0.0
  0
LINE
  5
18C
100
AcDbEntity
  8
LC-006-005-----0
370
    25
390
0
 62
     2
100
AcDbLine
 10
56.254263
 20
384.35181
 30
0.0
 11
58.803899
 21
386.901446
 31
0.0
  0
LINE
  5
18D
100
AcDbEntity
  8
LC-006-005-----0
370
    25
390
0
 62
     2
100
AcDbLine
 10
54.84005
 20
385.766023
 30
0.0
 11
58.803899
 21
389.729873
 31
0.0
  0
LINE
  5
18E
100
AcDbEntity
  8
LC-006-005-----0
370
    25
390
0
 62
     2
100
AcDbLine
 10
53.425836
 20
387.180237
 30
0.0
 11
56.105773
 21
389.860174
 31
0.0
  0
LINE
  5
18F
100
AcDbEntity
  8
LC-006-005-----0
370
    25
390
0
 62
     2
100
AcDbLine
 10
51.177326
 20
387.760153
 30
0.0
 11
53.672029
 21
390.254857
 31
0.0
  0
LINE
  5
190
100
AcDbEntity
  8
LC-006-005-----0
370
    25
390
0
 62
     2
100
AcDbLine
 10
48.887907
 20
388.299162
 30
0.0
 11
51.382611
 21
390.793866
 31
0.0
  0
LINE
  5
191
100
AcDbEntity
  8
LC-006-005-----0
370
    25
390
0
 62
     2
100
AcDbLine
 10
46.598489
 20
388.838171
 30
0.0
 11
49.093192
 21
391.332874
 31
0.0
  0
LINE
  5
192
100
AcDbEntity
  8
LC-006-005-----0
370
    25
390
0
 62
     2
100
AcDbLine
 10
44.30907
 20
389.377179
 30
0.0
 11
46.803774
 21
391.871883
 31
0.0
  0
LINE
  5
193
100
AcDbEntity
  8
LC-006-005-----0
370
    25
390
0
 62
     2
100
AcDbLine
 10
42.019651
 20
389.916188
 30
0.0
 11
44.514355
 21
392.410892
 31
0.0
  0
LINE
  5
194
100
AcDbEntity
  8
LC-006-005-----0
370
    25
390
0
 62
     2
100
AcDbLine
 10
39.730233
 20
390.455196
 30
0.0
 11
42.224937
 21
392.9499
 31
0.0
  0
LINE
  5
195
100
AcDbEntity
  8
LC-006-005-----0
370
    25
390
0
 62
     2
100
AcDbLine
 10
37.440814
 20
390.994205
 30
0.0
 11
39.935518
 21
393.488909
 31
0.0
  0
LINE
  5
196
100
AcDbEntity
  8
LC-006-005-----0
370
    25
390
0
 62
     2
100
AcDbLine
 10
35.151396
 20
391.533214
 30
0.0
 11
37.6461
 21
394.027917
 31
0.0
  0
LINE
  5
197
100
AcDbEntity
  8
LC-006-005-----0
370
    25
390
0
 62
     2
100
AcDbLine
 10
32.572329
 20
391.782574
 30
0.0
 11
35.356681
 21
394.566926
 31
0.0
  0
LINE
  5
198
100
AcDbEntity
  8
LC-006-005-----0
370
    25
390
0
 62
     2
100
AcDbLine
 10
29.743902
 20
391.782574
 30
0.0
 11
32.685909
 21
394.724581
 31
0.0
  0
LINE
  5
199
100
AcDbEntity
  8
LC-006-005-----0
370
    25
390
0
 62
     2
100
AcDbLine
 10
26.915475
 20
391.782574
 30
0.0
 11
29.906004
 21
394.773103
 31
0.0
  0
LINE
  5
19A
100
AcDbEntity
  8
LC-006-005-----0
370
    25
390
0
 62
     2
100
AcDbLine
 10
24.087048
 20
391.782574
 30
0.0
 11
27.087048
 21
394.782574
 31
0.0
  0
LINE
  5
19B
100
AcDbEntity
  8
LC-006-005-----0
370
    25
390
0
 62
     2
100
AcDbLine
 10
21.258621
 20
391.782574
 30
0.0
 11
24.258621
 21
394.782574
 31
0.0
  0
LINE
  5
19C
100
AcDbEntity
  8
LC-006-005-----0
370
    25
390
0
 62
     2
100
AcDbLine
 10
18.430194
 20
391.782574
 30
0.0
 11
21.430194
 21
394.782574
 31
0.0
  0
LINE
  5
19D
100
AcDbEntity
  8
LC-006-005-----0
370
    25
390
0
 62
     2
100
AcDbLine
 10
15.601767
 20
391.782574
 30
0.0
 11
18.601767
 21
394.782574
 31
0.0
  0
LINE
  5
19E
100
AcDbEntity
  8
LC-006-005-----0
370
    25
390
0
 62
     2
100
AcDbLine
 10
12.773339
 20
391.782574
 30
0.0
 11
15.773339
 21
394.782574
 31
0.0
  0
LINE
  5
19F
100
AcDbEntity
  8
LC-006-005-----0
370
    25
390
0
 62
     2
100
AcDbLine
 10
9.944912
 20
391.782574
 30
0.0
 11
12.944912
 21
394.782574
 31
0.0
  0
LINE
  5
1A0
100
AcDbEntity
  8
LC-006-005-----0
370
    25
390
0
 62
     2
100
AcDbLine
 10
7.116485
 20
391.782574
 30
0.0
 11
10.116485
 21
394.782574
 31
0.0
  0
LINE
  5
1A1
100
AcDbEntity
  8
LC-006-005-----0
370
    25
390
0
 62
     2
100
AcDbLine
 10
4.288058
 20
391.782574
 30
0.0
 11
7.288058
 21
394.782574
 31
0.0
  0
LINE
  5
1A2
100
AcDbEntity
  8
LC-006-005-----0
370
    25
390
0
 62
     2
100
AcDbLine
 10
1.459631
 20
391.782574
 30
0.0
 11
4.459631
 21
394.782574
 31
0.0
  0
LINE
  5
1A3
100
AcDbEntity
  8
LC-006-005-----0
370
    25
390
0
 62
     2
100
AcDbLine
 10
-1.368796
 20
391.782574
 30
0.0
 11
1.631204
 21
394.782574
 31
0.0
  0
LINE
  5
1A4
100
AcDbEntity
  8
LC-006-005-----0
370
    25
390
0
 62
     2
100
AcDbLine
 10
-4.197223
 20
391.782574
 30
0.0
 11
-1.197223
 21
394.782574
 31
0.0
  0
LINE
  5
1A5
100
AcDbEntity
  8
LC-006-005-----0
370
    25
390
0
 62
     2
100
AcDbLine
 10
-7.02565
 20
391.782574
 30
0.0
 11
-4.02565
 21
394.782574
 31
0.0
  0
LINE
  5
1A6
100
AcDbEntity
  8
LC-006-005-----0
370
    25
390
0
 62
     2
100
AcDbLine
 10
-9.854078
 20
391.782574
 30
0.0
 11
-6.854078
 21
394.782574
 31
0.0
  0
LINE
  5
1A7
100
AcDbEntity
  8
LC-006-005-----0
370
    25
390
0
 62
     2
100
AcDbLine
 10
-12.65134
 20
391.813738
 30
0.0
 11
-9.682505
 21
394.782574
 31
0.0
  0
ENDBLK
  5
1A8
100
AcDbEntity
  8
0
390
0
100
AcDbBlockEnd
  0
BLOCK
  5
1AB
100
AcDbEntity
  8
0
390
0
100
AcDbBlockBegin
  2
*D4
 70
    65
 10
0.0
 20
0.0
 30
0.0
  3
*D4
  1

  0
LINE
  5
1AC
100
AcDbEntity
  8
LC-002-003-MTH-0
370
    25
390
0
 62
     2
100
AcDbLine
 10
-12.65134
 20
391.782574
 30
0.0
 11
-12.65134
 21
436.8
 31
0.0
  0
LINE
  5
1AD
100
AcDbEntity
  8
LC-002-003-MTH-0
370
    25
390
0
 62
     2
100
AcDbLine
 10
295.348113
 20
391.782574
 30
0.0
 11
295.348113
 21
436.8
 31
0.0
  0
LINE
  5
1AE
100
AcDbEntity
  8
LC-004-003-MTG-0
370
    25
390
0
 62
     2
100
AcDbLine
 10
-12.65134
 20
420.0
 30
0.0
 11
94.711853
 21
420.0
 31
0.0
  0
LINE
  5
1AF
100
AcDbEntity
  8
LC-004-003-MTG-0
370
    25
390
0
 62
     2
100
AcDbLine
 10
202.478786
 20
420.0
 30
0.0
 11
295.348113
 21
420.0
 31
0.0
  0
LINE
  5
1B0
100
AcDbEntity
  8
LC-003-003-----0
370
    25
390
0
 62
     2
100
AcDbLine
 10
15.109116
 20
423.654733
 30
0.0
 11
-12.65134
 21
420.0
 31
0.0
  0
LINE
  5
1B1
100
AcDbEntity
  8
LC-003-003-----0
370
    25
390
0
 62
     2
100
AcDbLine
 10
-12.65134
 20
420.0
 30
0.0
 11
15.109116
 21
416.345267
 31
0.0
  0
LINE
  5
1B2
100
AcDbEntity
  8
LC-003-003-----0
370
    25
390
0
 62
     2
100
AcDbLine
 10
15.109116
 20
416.345267
 30
0.0
 11
15.109116
 21
423.654733
 31
0.0
  0
LINE
  5
1B3
100
AcDbEntity
  8
LC-003-003-----0
370
    25
390
0
 62
     2
100
AcDbLine
 10
15.171397
 20
422.704503
 30
0.0
 11
-5.37134
 21
420.0
 31
0.0
  0
LINE
  5
1B4
100
AcDbEntity
  8
LC-003-003-----0
370
    25
390
0
 62
     2
100
AcDbLine
 10
-5.37134
 20
420.0
 30
0.0
 11
15.171397
 21
417.295497
 31
0.0
  0
LINE
  5
1B5
100
AcDbEntity
  8
LC-003-003-----0
370
    25
390
0
 62
     2
100
AcDbLine
 10
15.233679
 20
421.754272
 30
0.0
 11
1.90866
 21
420.0
 31
0.0
  0
LINE
  5
1B6
100
AcDbEntity
  8
LC-003-003-----0
370
    25
390
0
 62
     2
100
AcDbLine
 10
1.90866
 20
420.0
 30
0.0
 11
15.233679
 21
418.245728
 31
0.0
  0
LINE
  5
1B7
100
AcDbEntity
  8
LC-003-003-----0
370
    25
390
0
 62
     2
100
AcDbLine
 10
15.29596
 20
420.804041
 30
0.0
 11
9.18866
 21
420.0
 31
0.0
  0
LINE
  5
1B8
100
AcDbEntity
  8
LC-003-003-----0
370
    25
390
0
 62
     2
100
AcDbLine
 10
9.18866
 20
420.0
 30
0.0
 11
15.29596
 21
419.195959
 31
0.0
  0
LINE
  5
1B9
100
AcDbEntity
  8
LC-003-003-----0
370
    25
390
0
 62
     2
100
AcDbLine
 10
267.587657
 20
416.345267
 30
0.0
 11
295.348113
 21
420.0
 31
0.0
  0
LINE
  5
1BA
100
AcDbEntity
  8
LC-003-003-----0
370
    25
390
0
 62
     2
100
AcDbLine
 10
295.348113
 20
420.0
 30
0.0
 11
267.587657
 21
423.654733
 31
0.0
  0
LINE
  5
1BB
100
AcDbEntity
  8
LC-003-003-----0
370
    25
390
0
 62
     2
100
AcDbLine
 10
267.587657
 20
423.654733
 30
0.0
 11
267.587657
 21
416.345267
 31
0.0
  0
LINE
  5
1BC
100
AcDbEntity
  8
LC-003-003-----0
370
    25
390
0
 62
     2
100
AcDbLine
 10
267.525376
 20
417.295497
 30
0.0
 11
288.068113
 21
420.0
 31
0.0
  0
LINE
  5
1BD
100
AcDbEntity
  8
LC-003-003-----0
370
    25
390
0
 62
     2
100
AcDbLine
 10
288.068113
 20
420.0
 30
0.0
 11
267.525376
 21
422.704503
 31
0.0
  0
LINE
  5
1BE
100
AcDbEntity
  8
LC-003-003-----0
370
    25
390
0
 62
     2
100
AcDbLine
 10
267.463094
 20
418.245728
 30
0.0
 11
280.788113
 21
420.0
 31
0.0
  0
LINE
  5
1BF
100
AcDbEntity
  8
LC-003-003-----0
370
    25
390
0
 62
     2
100
AcDbLine
 10
280.788113
 20
420.0
 30
0.0
 11
267.463094
 21
421.754272
 31
0.0
  0
LINE
  5
1C0
100
AcDbEntity
  8
LC-003-003-----0
370
    25
390
0
 62
     2
100
AcDbLine
 10
267.400813
 20
419.195959
 30
0.0
 11
273.508113
 21
420.0
 31
0.0
  0
LINE
  5
1C1
100
AcDbEntity
  8
LC-003-003-----0
370
    25
390
0
 62
     2
100
AcDbLine
 10
273.508113
 20
420.0
 30
0.0
 11
267.400813
 21
420.804041
 31
0.0
  0
TEXT
  5
1C2
100
AcDbEntity
  8
LC-003-003-----0
370
    -2
390
0
 62
     7
100
AcDbText
 10
82.696546
 20
427.827554
 30
0.0
 40
28.0
  1
%%c308
 41
0.9
 51
15.0
  7
LCTX15-400-0-0-ARIAL
 72
     1
 11
145.696546
 21
427.827554
 31
0.0
100
AcDbText
  0
ENDBLK
  5
1C3
100
AcDbEntity
  8
0
390
0
100
AcDbBlockEnd
  0
BLOCK
  5
1C6
100
AcDbEntity
  8
0
390
0
100
AcDbBlockBegin
  2
*D5
 70
    65
 10
0.0
 20
0.0
 30
0.0
  3
*D5
  1

  0
LINE
  5
1C7
100
AcDbEntity
  8
LC-002-003-MTH-0
370
    25
390
0
 62
     2
100
AcDbLine
 10
141.348429
 20
331.029865
 30
0.0
 11
-44.8
 21
331.029865
 31
0.0
  0
LINE
  5
1C8
100
AcDbEntity
  8
LC-002-003-MTH-0
370
    25
390
0
 62
     2
100
AcDbLine
 10
-12.65134
 20
391.782574
 30
0.0
 11
-22.4
 21
391.782574
 31
0.0
  0
LINE
  5
1C9
100
AcDbEntity
  8
LC-004-003-MTG-0
370
    25
390
0
 62
     2
100
AcDbLine
 10
-28.0
 20
331.029865
 30
0.0
 11
-28.0
 21
336.077686
 31
0.0
  0
LINE
  5
1CA
100
AcDbEntity
  8
LC-003-003-----0
370
    25
390
0
 62
     2
100
AcDbLine
 10
-28.664558
 20
336.077686
 30
0.0
 11
-28.0
 21
331.029865
 31
0.0
  0
LINE
  5
1CB
100
AcDbEntity
  8
LC-003-003-----0
370
    25
390
0
 62
     2
100
AcDbLine
 10
-28.0
 20
331.029865
 30
0.0
 11
-27.335442
 21
336.077686
 31
0.0
  0
TEXT
  5
1CC
100
AcDbEntity
  8
LC-003-003-----0
370
    -2
390
0
 62
     7
100
AcDbText
 10
-35.827554
 20
348.002379
 30
0.0
 40
28.0
  1
60
 50
90.0
 41
0.9
 51
15.0
  7
LCTX15-400-0-0-ARIAL
 72
     1
 11
-35.827554
 21
365.754379
 31
0.0
100
AcDbText
  0
ENDBLK
  5
1CD
100
AcDbEntity
  8
0
390
0
100
AcDbBlockEnd
  0
ENDSEC
  0
SECTION
  2
ENTITIES
  0
VIEWPORT
  5
1CF
100
AcDbEntity
 67
     1
  8
LC-VIEWPORT
390
0
100
AcDbViewport
 10
420.0
 20
297.0
 30
0.0
 40
840.0
 41
594.0
 68
     1
 69
     1
 12
420.0
 22
297.0
 13
0.0
 23
0.0
 14
1.0
 24
1.0
 15
0.0
 25
0.0
 16
0.0
 26
0.0
 36
1.0
 17
0.0
 27
0.0
 37
0.0
 42
50.0
 43
0.0
 44
0.0
 45
594.0
 50
0.0
 51
0.0
 72
   100
 90
    32928
340
0
  1

281
     0
 71
     0
 74
     1
110
0.0
120
0.0
130
0.0
111
1.0
121
0.0
131
0.0
112
0.0
122
1.0
132
0.0
345
0
346
0
 79
     0
146
0.0
  0
LINE
  5
2C
100
AcDbEntity
  8
LC-001-002-----0
370
    25
390
0
 62
     2
100
AcDbLine
 10
141.348386
 20
397.623721
 30
0.0
 11
141.348386
 21
354.739904
 31
0.0
  0
LINE
  5
2D
100
AcDbEntity
  8
LC-001-002-----0
370
    25
390
0
 62
     2
100
AcDbLine
 10
141.370175
 20
356.052732
 30
0.0
 11
291.326592
 21
349.505495
 31
0.0
  0
LINE
  5
2E
102
{ACAD_REACTORS
330
1D0
102
}
100
AcDbEntity
  8
LC-001-002-----0
370
    50
390
0
  6
ByBlock
 62
     7
100
AcDbLine
 10
29.363394
 20
394.782574
 30
0.0
 11
34.848438
 21
394.686834
 31
0.0
  0
DIMENSION
  5
4D
100
AcDbEntity
  8
LC-003-003-----0
370
    25
390
0
 62
     2
100
AcDbDimension
  2
*D0
 10
329.086521
 20
347.856861
 30
0.0
 11
329.086521
 21
347.856861
 31
0.0
 70
     1
 71
     5
 72
     1
 41
1.0
 42
0.0
  1
DN50
  3
LC-DIM-L-0140-02-02
100
AcDbAlignedDimension
 13
288.920408
 23
374.634367
 33
0.0
 14
286.739439
 24
324.681959
 34
0.0
  0
LINE
  5
4E
100
AcDbEntity
  8
LC-001-002-----0
370
    25
390
0
 62
     2
100
AcDbLine
 10
71.59843
 20
390.895793
 30
0.0
 11
71.59843
 21
383.752174
 31
0.0
  0
LINE
  5
4F
100
AcDbEntity
  8
LC-001-002-----0
370
    25
390
0
 62
     2
100
AcDbLine
 10
211.09843
 20
390.702552
 30
0.0
 11
211.09843
 21
383.998922
 31
0.0
  0
DIMENSION
  5
6A
100
AcDbEntity
  8
LC-003-003-----0
370
    25
390
0
 62
     2
100
AcDbDimension
  2
*D1
 10
216.348405
 20
274.4
 30
0.0
 11
216.348405
 21
274.4
 31
0.0
 71
     5
 72
     1
 41
1.0
 42
0.0
  3
LC-DIM-L-0140-01-02
100
AcDbAlignedDimension
 13
291.348381
 23
349.504543
 33
0.0
 14
141.348429
 24
331.029865
 34
0.0
100
AcDbRotatedDimension
  0
LINE
  5
6B
102
{ACAD_REACTORS
330
1D0
102
}
100
AcDbEntity
  8
LC-001-002-----0
370
    50
390
0
  6
ByBlock
 62
     7
100
AcDbLine
 10
292.37617
 20
373.54477
 30
0.0
 11
292.308028
 21
371.984079
 31
0.0
  0
ARC
  5
6C
102
{ACAD_REACTORS
330
1D0
102
}
100
AcDbEntity
  8
LC-001-002-----0
370
    50
390
0
  6
ByBlock
 62
     7
100
AcDbCircle
 10
141.348415
 20
329.566097
 30
0.0
 40
48.825975
100
AcDbArc
 50
15.619219
 51
90.0
  0
ARC
  5
6D
102
{ACAD_REACTORS
330
1D0
102
}
100
AcDbEntity
  8
LC-001-002-----0
370
    50
390
0
  6
ByBlock
 62
     7
100
AcDbCircle
 10
141.348389
 20
356.052732
 30
0.0
 40
24.99905
100
AcDbArc
 50
223.326896
 51
267.500001
  0
ARC
  5
6E
102
{ACAD_REACTORS
330
1D0
102
}
100
AcDbEntity
  8
LC-001-002-----0
370
    50
390
0
  6
ByBlock
 62
     7
100
AcDbCircle
 10
141.348389
 20
356.052732
 30
0.0
 40
22.49905
100
AcDbArc
 50
223.326896
 51
267.500001
  0
ELLIPSE
  5
6F
102
{ACAD_REACTORS
330
1D0
102
}
100
AcDbEntity
  8
LC-001-002-----0
370
    50
390
0
  6
ByBlock
 62
     7
100
AcDbEllipse
 10
193.348381
 20
353.783315
 30
0.0
 11
0.0000054815184523
 21
22.608757423956423
 31
0.0
210
0.0
220
0.0
230
1.0
 40
0.251994
 41
6.2607317574009533
 42
8.8630739845429645
  0
LINE
  5
70
102
{ACAD_REACTORS
330
1D0
102
}
100
AcDbEntity
  8
LC-001-002-----0
370
    50
390
0
  6
ByBlock
 62
     7
100
AcDbLine
 10
124.981439
 20
340.614786
 30
0.0
 11
89.348429
 21
378.392072
 31
0.0
  0
LINE
  5
71
102
{ACAD_REACTORS
330
1D0
102
}
100
AcDbEntity
  8
LC-001-002-----0
370
    50
390
0
  6
ByBlock
 62
     7
100
AcDbLine
 10
123.162812
 20
338.899387
 30
0.0
 11
88.742139
 21
375.391382
 31
0.0
  0
LINE
  5
72
102
{ACAD_REACTORS
330
1D0
102
}
100
AcDbEntity
  8
LC-001-002-----0
370
    50
390
0
  6
ByBlock
 62
     7
100
AcDbLine
 10
290.345156
 20
327.026912
 30
0.0
 11
140.366995
 21
333.575097
 31
0.0
  0
LINE
  5
73
100
AcDbEntity
  8
LC-003-003-----0
370
    25
390
0
 62
     2
100
AcDbLine
 10
290.277015
 20
325.466221
 30
0.0
 11
290.236108
 21
324.529291
 31
0.0
  0
LINE
  5
74
102
{ACAD_REACTORS
330
1D0
102
}
100
AcDbEntity
  8
LC-001-002-----0
370
    50
390
0
  6
ByBlock
 62
     7
100
AcDbLine
 10
290.345156
 20
327.026912
 30
0.0
 11
290.277015
 21
325.466221
 31
0.0
  0
LINE
  5
75
102
{ACAD_REACTORS
330
1D0
102
}
100
AcDbEntity
  8
LC-001-002-----0
370
    50
390
0
  6
ByBlock
 62
     7
100
AcDbLine
 10
193.348386
 20
378.392072
 30
0.0
 11
201.098457
 21
378.392072
 31
0.0
  0
LINE
  5
76
102
{ACAD_REACTORS
330
1D0
102
}
100
AcDbEntity
  8
LC-001-002-----0
370
    50
390
0
  6
ByBlock
 62
     7
100
AcDbLine
 10
193.348386
 20
376.392072
 30
0.0
 11
193.348386
 21
378.392072
 31
0.0
  0
LINE
  5
77
102
{ACAD_REACTORS
330
1D0
102
}
100
AcDbEntity
  8
LC-001-002-----0
370
    50
390
0
  6
ByBlock
 62
     7
100
AcDbLine
 10
288.920408
 20
374.634367
 30
0.0
 11
204.348498
 21
378.326857
 31
0.0
  0
LINE
  5
78
102
{ACAD_REACTORS
330
1D0
102
}
100
AcDbEntity
  8
LC-001-002-----0
370
    50
390
0
  6
ByBlock
 62
     7
100
AcDbLine
 10
292.308028
 20
371.984079
 30
0.0
 11
290.345156
 21
327.026912
 31
0.0
  0
LINE
  5
79
102
{ACAD_REACTORS
330
1D0
102
}
100
AcDbEntity
  8
LC-001-002-----0
370
    50
390
0
  6
ByBlock
 62
     7
100
AcDbLine
 10
292.37617
 20
373.54477
 30
0.0
 11
288.920408
 21
374.634367
 31
0.0
  0
LINE
  5
7A
102
{ACAD_REACTORS
330
1D0
102
}
100
AcDbEntity
  8
LC-001-002-----0
370
    50
390
0
  6
ByBlock
 62
     7
100
AcDbLine
 10
290.277015
 20
325.466221
 30
0.0
 11
286.739439
 21
324.681959
 31
0.0
  0
LINE
  5
7B
102
{ACAD_REACTORS
330
1D0
102
}
100
AcDbEntity
  8
LC-001-002-----0
370
    50
390
0
  6
ByBlock
 62
     7
100
AcDbLine
 10
78.148274
 20
375.391382
 30
0.0
 11
88.742139
 21
375.391382
 31
0.0
  0
LINE
  5
7C
102
{ACAD_REACTORS
330
1D0
102
}
100
AcDbEntity
  8
LC-001-002-----0
370
    50
390
0
  6
ByBlock
 62
     7
100
AcDbLine
 10
292.308028
 20
371.984079
 30
0.0
 11
193.348386
 21
376.392072
 31
0.0
  0
LINE
  5
7D
102
{ACAD_REACTORS
330
1D0
102
}
100
AcDbEntity
  8
LC-001-002-----0
370
    50
390
0
  6
ByBlock
 62
     7
100
AcDbLine
 10
286.739439
 20
324.681959
 30
0.0
 11
140.257946
 21
331.077476
 31
0.0
  0
LINE
  5
7E
102
{ACAD_REACTORS
330
1D0
102
}
100
AcDbEntity
  8
LC-001-002-----0
370
    50
390
0
  6
ByBlock
 62
     7
100
AcDbLine
 10
204.348499
 20
378.325153
 30
0.0
 11
204.348499
 21
383.752174
 31
0.0
  0
LINE
  5
7F
102
{ACAD_REACTORS
330
1D0
102
}
100
AcDbEntity
  8
LC-001-002-----0
370
    50
390
0
  6
ByBlock
 62
     7
100
AcDbLine
 10
193.34843
 20
378.392072
 30
0.0
 11
201.098457
 21
378.392072
 31
0.0
  0
LINE
  5
80
102
{ACAD_REACTORS
330
1D0
102
}
100
AcDbEntity
  8
LC-001-002-----0
370
    50
390
0
  6
ByBlock
 62
     7
100
AcDbLine
 10
74.14843
 20
389.860174
 30
0.0
 11
69.04843
 21
389.860174
 31
0.0
  0
LINE
  5
81
102
{ACAD_REACTORS
330
1D0
102
}
100
AcDbEntity
  8
LC-001-002-----0
370
    50
390
0
  6
ByBlock
 62
     7
100
AcDbLine
 10
89.34843
 20
378.392072
 30
0.0
 11
81.598316
 21
378.390369
 31
0.0
  0
LINE
  5
82
102
{ACAD_REACTORS
330
1D0
102
}
100
AcDbEntity
  8
LC-001-002-----0
370
    50
390
0
  6
ByBlock
 62
     7
100
AcDbLine
 10
213.64843
 20
389.860174
 30
0.0
 11
208.54843
 21
389.860174
 31
0.0
  0
LINE
  5
83
102
{ACAD_REACTORS
330
1D0
102
}
100
AcDbEntity
  8
LC-001-002-----0
370
    50
390
0
  6
ByBlock
 62
     7
100
AcDbLine
 10
58.803899
 20
386.297173
 30
0.0
 11
58.803899
 21
389.860173
 31
0.0
  0
LINE
  5
84
102
{ACAD_REACTORS
330
1D0
102
}
100
AcDbEntity
  8
LC-001-002-----0
370
    50
390
0
  6
ByBlock
 62
     7
100
AcDbLine
 10
253.348438
 20
394.782574
 30
0.0
 11
29.363394
 21
394.782574
 31
0.0
  0
LINE
  5
85
102
{ACAD_REACTORS
330
1D0
102
}
100
AcDbEntity
  8
LC-001-002-----0
370
    50
390
0
  6
ByBlock
 62
     7
100
AcDbLine
 10
65.63043
 20
389.860174
 30
0.0
 11
65.63043
 21
386.297174
 31
0.0
  0
LINE
  5
86
102
{ACAD_REACTORS
330
1D0
102
}
100
AcDbEntity
  8
LC-001-002-----0
370
    50
390
0
  6
ByBlock
 62
     7
100
AcDbLine
 10
223.792961
 20
386.297174
 30
0.0
 11
223.792961
 21
389.860174
 31
0.0
  0
LINE
  5
87
102
{ACAD_REACTORS
330
1D0
102
}
100
AcDbEntity
  8
LC-001-002-----0
370
    50
390
0
  6
ByBlock
 62
     7
100
AcDbLine
 10
215.33043
 20
390.369174
 30
0.0
 11
215.624302
 21
389.860174
 31
0.0
  0
LINE
  5
88
102
{ACAD_REACTORS
330
1D0
102
}
100
AcDbEntity
  8
LC-001-002-----0
370
    50
390
0
  6
ByBlock
 62
     7
100
AcDbLine
 10
215.036559
 20
389.860174
 30
0.0
 11
213.64843
 21
389.860174
 31
0.0
  0
LINE
  5
89
102
{ACAD_REACTORS
330
1D0
102
}
100
AcDbEntity
  8
LC-001-002-----0
370
    50
390
0
  6
ByBlock
 62
     7
100
AcDbLine
 10
215.036559
 20
389.860174
 30
0.0
 11
215.33043
 21
390.369174
 31
0.0
  0
LINE
  5
8A
102
{ACAD_REACTORS
330
1D0
102
}
100
AcDbEntity
  8
LC-001-002-----0
370
    50
390
0
  6
ByBlock
 62
     7
100
AcDbLine
 10
213.63043
 20
390.369174
 30
0.0
 11
213.924302
 21
389.860174
 31
0.0
  0
LINE
  5
8B
102
{ACAD_REACTORS
330
1D0
102
}
100
AcDbEntity
  8
LC-001-002-----0
370
    50
390
0
  6
ByBlock
 62
     7
100
AcDbLine
 10
74.460302
 20
389.860174
 30
0.0
 11
74.16643
 21
390.369174
 31
0.0
  0
LINE
  5
8C
102
{ACAD_REACTORS
330
1D0
102
}
100
AcDbEntity
  8
LC-001-002-----0
370
    50
390
0
  6
ByBlock
 62
     7
100
AcDbLine
 10
227.34843
 20
389.860174
 30
0.0
 11
217.06643
 21
389.860174
 31
0.0
  0
LINE
  5
8D
102
{ACAD_REACTORS
330
1D0
102
}
100
AcDbEntity
  8
LC-001-002-----0
370
    50
390
0
  6
ByBlock
 62
     7
100
AcDbLine
 10
205.13043
 20
391.386471
 30
0.0
 11
205.13043
 21
389.859471
 31
0.0
  0
LINE
  5
8E
102
{ACAD_REACTORS
330
1D0
102
}
100
AcDbEntity
  8
LC-001-002-----0
370
    50
390
0
  6
ByBlock
 62
     7
100
AcDbLine
 10
247.84843
 20
394.686586
 30
0.0
 11
34.84843
 21
394.686586
 31
0.0
  0
LINE
  5
8F
102
{ACAD_REACTORS
330
1D0
102
}
100
AcDbEntity
  8
LC-001-002-----0
370
    50
390
0
  6
ByBlock
 62
     7
100
AcDbLine
 10
201.098457
 20
391.386471
 30
0.0
 11
141.34843
 21
391.386471
 31
0.0
  0
LINE
  5
90
102
{ACAD_REACTORS
330
1D0
102
}
100
AcDbEntity
  8
LC-001-002-----0
370
    50
390
0
  6
ByBlock
 62
     7
100
AcDbLine
 10
217.06643
 20
389.860174
 30
0.0
 11
217.06643
 21
386.297174
 31
0.0
  0
LINE
  5
91
102
{ACAD_REACTORS
330
1D0
102
}
100
AcDbEntity
  8
LC-001-002-----0
370
    50
390
0
  6
ByBlock
 62
     7
100
AcDbLine
 10
47.133237
 20
394.782622
 30
0.0
 11
141.34843
 21
394.782873
 31
0.0
  0
LINE
  5
92
102
{ACAD_REACTORS
330
1D0
102
}
100
AcDbEntity
  8
LC-001-002-----0
370
    50
390
0
  6
ByBlock
 62
     7
100
AcDbLine
 10
34.84843
 20
394.686586
 30
0.0
 11
55.34843
 21
389.860174
 31
0.0
  0
LINE
  5
93
102
{ACAD_REACTORS
330
1D0
102
}
100
AcDbEntity
  8
LC-001-002-----0
370
    50
390
0
  6
ByBlock
 62
     7
100
AcDbLine
 10
253.348438
 20
394.782574
 30
0.0
 11
247.84843
 21
394.686586
 31
0.0
  0
LINE
  5
94
102
{ACAD_REACTORS
330
1D0
102
}
100
AcDbEntity
  8
LC-001-002-----0
370
    50
390
0
  6
ByBlock
 62
     7
100
AcDbLine
 10
-12.65134
 20
391.782574
 30
0.0
 11
34.092246
 21
391.782574
 31
0.0
  0
LINE
  5
95
102
{ACAD_REACTORS
330
1D0
102
}
100
AcDbEntity
  8
LC-001-002-----0
370
    50
390
0
  6
ByBlock
 62
     7
100
AcDbLine
 10
65.63043
 20
389.860174
 30
0.0
 11
58.803899
 21
389.860174
 31
0.0
  0
LINE
  5
96
102
{ACAD_REACTORS
330
1D0
102
}
100
AcDbEntity
  8
LC-001-002-----0
370
    50
390
0
  6
ByBlock
 62
     7
100
AcDbLine
 10
205.13043
 20
389.859477
 30
0.0
 11
207.124321
 21
389.860141
 31
0.0
  0
LINE
  5
97
102
{ACAD_REACTORS
330
1D0
102
}
100
AcDbEntity
  8
LC-001-002-----0
370
    50
390
0
  6
ByBlock
 62
     7
100
AcDbLine
 10
65.63043
 20
386.297174
 30
0.0
 11
58.803899
 21
386.297174
 31
0.0
  0
LINE
  5
98
102
{ACAD_REACTORS
330
1D0
102
}
100
AcDbEntity
  8
LC-001-002-----0
370
    50
390
0
  6
ByBlock
 62
     7
100
AcDbLine
 10
217.06643
 20
386.297174
 30
0.0
 11
223.792961
 21
386.297174
 31
0.0
  0
LINE
  5
99
102
{ACAD_REACTORS
330
1D0
102
}
100
AcDbEntity
  8
LC-001-002-----0
370
    50
390
0
  6
ByBlock
 62
     7
100
AcDbLine
 10
78.148275
 20
383.752174
 30
0.0
 11
56.853899
 21
383.752174
 31
0.0
  0
LINE
  5
9A
102
{ACAD_REACTORS
330
1D0
102
}
100
AcDbEntity
  8
LC-001-002-----0
370
    50
390
0
  6
ByBlock
 62
     7
100
AcDbLine
 10
56.853899
 20
383.752174
 30
0.0
 11
53.359735
 21
387.246339
 31
0.0
  0
LINE
  5
9B
102
{ACAD_REACTORS
330
1D0
102
}
100
AcDbEntity
  8
LC-001-002-----0
370
    50
390
0
  6
ByBlock
 62
     7
100
AcDbLine
 10
76.160302
 20
389.860174
 30
0.0
 11
75.86643
 21
390.369174
 31
0.0
  0
LINE
  5
9C
102
{ACAD_REACTORS
330
1D0
102
}
100
AcDbEntity
  8
LC-001-002-----0
370
    50
390
0
  6
ByBlock
 62
     7
100
AcDbLine
 10
75.86643
 20
390.369174
 30
0.0
 11
75.572559
 21
389.860174
 31
0.0
  0
LINE
  5
9D
102
{ACAD_REACTORS
330
1D0
102
}
100
AcDbEntity
  8
LC-001-002-----0
370
    50
390
0
  6
ByBlock
 62
     7
100
AcDbLine
 10
77.56643
 20
389.860174
 30
0.0
 11
75.572559
 21
389.860174
 31
0.0
  0
LINE
  5
9E
102
{ACAD_REACTORS
330
1D0
102
}
100
AcDbEntity
  8
LC-001-002-----0
370
    50
390
0
  6
ByBlock
 62
     7
100
AcDbLine
 10
213.336559
 20
389.860174
 30
0.0
 11
213.63043
 21
390.369174
 31
0.0
  0
LINE
  5
9F
102
{ACAD_REACTORS
330
1D0
102
}
100
AcDbEntity
  8
LC-001-002-----0
370
    50
390
0
  6
ByBlock
 62
     7
100
AcDbLine
 10
204.348499
 20
383.752174
 30
0.0
 11
225.842961
 21
383.752174
 31
0.0
  0
LINE
  5
A0
102
{ACAD_REACTORS
330
1D0
102
}
100
AcDbEntity
  8
LC-001-002-----0
370
    50
390
0
  6
ByBlock
 62
     7
100
AcDbLine
 10
225.842961
 20
383.752174
 30
0.0
 11
229.337153
 21
387.246365
 31
0.0
  0
LINE
  5
A1
102
{ACAD_REACTORS
330
1D0
102
}
100
AcDbEntity
  8
LC-001-002-----0
370
    50
390
0
  6
ByBlock
 62
     7
100
AcDbLine
 10
211.93043
 20
390.369174
 30
0.0
 11
212.224302
 21
389.860174
 31
0.0
  0
LINE
  5
A2
102
{ACAD_REACTORS
330
1D0
102
}
100
AcDbEntity
  8
LC-001-002-----0
370
    50
390
0
  6
ByBlock
 62
     7
100
AcDbLine
 10
211.636559
 20
389.860174
 30
0.0
 11
211.93043
 21
390.369174
 31
0.0
  0
LINE
  5
A3
102
{ACAD_REACTORS
330
1D0
102
}
100
AcDbEntity
  8
LC-001-002-----0
370
    50
390
0
  6
ByBlock
 62
     7
100
AcDbLine
 10
210.23043
 20
390.369174
 30
0.0
 11
210.524302
 21
389.860174
 31
0.0
  0
LINE
  5
A4
102
{ACAD_REACTORS
330
1D0
102
}
100
AcDbEntity
  8
LC-001-002-----0
370
    50
390
0
  6
ByBlock
 62
     7
100
AcDbLine
 10
209.936559
 20
389.860174
 30
0.0
 11
210.23043
 21
390.369174
 31
0.0
  0
LINE
  5
A5
102
{ACAD_REACTORS
330
1D0
102
}
100
AcDbEntity
  8
LC-001-002-----0
370
    50
390
0
  6
ByBlock
 62
     7
100
AcDbLine
 10
215.036559
 20
389.860174
 30
0.0
 11
217.06643
 21
389.860174
 31
0.0
  0
LINE
  5
A6
102
{ACAD_REACTORS
330
1D0
102
}
100
AcDbEntity
  8
LC-001-002-----0
370
    50
390
0
  6
ByBlock
 62
     7
100
AcDbLine
 10
295.348113
 20
391.782574
 30
0.0
 11
248.604526
 21
391.782574
 31
0.0
  0
LINE
  5
A7
102
{ACAD_REACTORS
330
1D0
102
}
100
AcDbEntity
  8
LC-001-002-----0
370
    50
390
0
  6
ByBlock
 62
     7
100
AcDbLine
 10
247.84843
 20
394.686586
 30
0.0
 11
227.34843
 21
389.860174
 31
0.0
  0
LINE
  5
A8
102
{ACAD_REACTORS
330
1D0
102
}
100
AcDbEntity
  8
LC-001-002-----0
370
    50
390
0
  6
ByBlock
 62
     7
100
AcDbLine
 10
208.53043
 20
390.369174
 30
0.0
 11
208.824302
 21
389.860174
 31
0.0
  0
LINE
  5
A9
102
{ACAD_REACTORS
330
1D0
102
}
100
AcDbEntity
  8
LC-001-002-----0
370
    50
390
0
  6
ByBlock
 62
     7
100
AcDbLine
 10
69.04843
 20
389.860174
 30
0.0
 11
65.63043
 21
389.860174
 31
0.0
  0
LINE
  5
AA
102
{ACAD_REACTORS
330
1D0
102
}
100
AcDbEntity
  8
LC-001-002-----0
370
    50
390
0
  6
ByBlock
 62
     7
100
AcDbLine
 10
205.13043
 20
391.386471
 30
0.0
 11
201.098457
 21
391.386471
 31
0.0
  0
LINE
  5
AB
102
{ACAD_REACTORS
330
1D0
102
}
100
AcDbEntity
  8
LC-001-002-----0
370
    50
390
0
  6
ByBlock
 62
     7
100
AcDbLine
 10
208.236559
 20
389.860174
 30
0.0
 11
208.53043
 21
390.369174
 31
0.0
  0
LINE
  5
AC
102
{ACAD_REACTORS
330
1D0
102
}
100
AcDbEntity
  8
LC-001-002-----0
370
    50
390
0
  6
ByBlock
 62
     7
100
AcDbLine
 10
201.098457
 20
391.386471
 30
0.0
 11
201.098457
 21
378.392072
 31
0.0
  0
LINE
  5
AD
102
{ACAD_REACTORS
330
1D0
102
}
100
AcDbEntity
  8
LC-001-002-----0
370
    50
390
0
  6
ByBlock
 62
     7
100
AcDbLine
 10
77.56643
 20
391.386398
 30
0.0
 11
81.568316
 21
391.387174
 31
0.0
  0
LINE
  5
AE
102
{ACAD_REACTORS
330
1D0
102
}
100
AcDbEntity
  8
LC-001-002-----0
370
    50
390
0
  6
ByBlock
 62
     7
100
AcDbLine
 10
58.803899
 20
389.860174
 30
0.0
 11
55.34843
 21
389.860174
 31
0.0
  0
LINE
  5
AF
102
{ACAD_REACTORS
330
1D0
102
}
100
AcDbEntity
  8
LC-001-002-----0
370
    50
390
0
  6
ByBlock
 62
     7
100
AcDbLine
 10
81.598316
 20
391.386471
 30
0.0
 11
81.598316
 21
378.390369
 31
0.0
  0
LINE
  5
B0
102
{ACAD_REACTORS
330
1D0
102
}
100
AcDbEntity
  8
LC-001-002-----0
370
    50
390
0
  6
ByBlock
 62
     7
100
AcDbLine
 10
141.34843
 20
391.386471
 30
0.0
 11
81.598316
 21
391.386471
 31
0.0
  0
LINE
  5
B1
102
{ACAD_REACTORS
330
1D0
102
}
100
AcDbEntity
  8
LC-001-002-----0
370
    50
390
0
  6
ByBlock
 62
     7
100
AcDbLine
 10
206.83043
 20
390.369174
 30
0.0
 11
207.124302
 21
389.860174
 31
0.0
  0
LINE
  5
B2
102
{ACAD_REACTORS
330
1D0
102
}
100
AcDbEntity
  8
LC-001-002-----0
370
    50
390
0
  6
ByBlock
 62
     7
100
AcDbLine
 10
206.536427
 20
389.859945
 30
0.0
 11
206.83043
 21
390.369174
 31
0.0
  0
LINE
  5
B3
102
{ACAD_REACTORS
330
1D0
102
}
100
AcDbEntity
  8
LC-001-002-----0
370
    50
390
0
  6
ByBlock
 62
     7
100
AcDbLine
 10
208.54843
 20
389.860174
 30
0.0
 11
207.124302
 21
389.860174
 31
0.0
  0
LINE
  5
B4
102
{ACAD_REACTORS
330
1D0
102
}
100
AcDbEntity
  8
LC-001-002-----0
370
    50
390
0
  6
ByBlock
 62
     7
100
AcDbLine
 10
72.760302
 20
389.860174
 30
0.0
 11
72.46643
 21
390.369174
 31
0.0
  0
LINE
  5
B5
102
{ACAD_REACTORS
330
1D0
102
}
100
AcDbEntity
  8
LC-001-002-----0
370
    50
390
0
  6
ByBlock
 62
     7
100
AcDbLine
 10
77.56643
 20
391.386471
 30
0.0
 11
77.56643
 21
389.860174
 31
0.0
  0
LINE
  5
B6
102
{ACAD_REACTORS
330
1D0
102
}
100
AcDbEntity
  8
LC-001-002-----0
370
    50
390
0
  6
ByBlock
 62
     7
100
AcDbLine
 10
215.33043
 20
390.369174
 30
0.0
 11
205.13043
 21
390.369174
 31
0.0
  0
LINE
  5
B7
102
{ACAD_REACTORS
330
1D0
102
}
100
AcDbEntity
  8
LC-001-002-----0
370
    50
390
0
  6
ByBlock
 62
     7
100
AcDbLine
 10
67.36643
 20
390.369174
 30
0.0
 11
77.56643
 21
390.369174
 31
0.0
  0
LINE
  5
B8
102
{ACAD_REACTORS
330
1D0
102
}
100
AcDbEntity
  8
LC-001-002-----0
370
    50
390
0
  6
ByBlock
 62
     7
100
AcDbLine
 10
71.060302
 20
389.860174
 30
0.0
 11
70.76643
 21
390.369174
 31
0.0
  0
LINE
  5
B9
102
{ACAD_REACTORS
330
1D0
102
}
100
AcDbEntity
  8
LC-001-002-----0
370
    50
390
0
  6
ByBlock
 62
     7
100
AcDbLine
 10
69.360302
 20
389.860174
 30
0.0
 11
69.06643
 21
390.369174
 31
0.0
  0
LINE
  5
BA
102
{ACAD_REACTORS
330
1D0
102
}
100
AcDbEntity
  8
LC-001-002-----0
370
    50
390
0
  6
ByBlock
 62
     7
100
AcDbLine
 10
67.660302
 20
389.860174
 30
0.0
 11
67.36643
 21
390.369174
 31
0.0
  0
LINE
  5
BB
102
{ACAD_REACTORS
330
1D0
102
}
100
AcDbEntity
  8
LC-001-002-----0
370
    50
390
0
  6
ByBlock
 62
     7
100
AcDbLine
 10
67.36643
 20
390.369174
 30
0.0
 11
67.072559
 21
389.860174
 31
0.0
  0
LINE
  5
BC
102
{ACAD_REACTORS
330
1D0
102
}
100
AcDbEntity
  8
LC-001-002-----0
370
    50
390
0
  6
ByBlock
 62
     7
100
AcDbLine
 10
69.06643
 20
390.369174
 30
0.0
 11
68.772559
 21
389.860174
 31
0.0
  0
LINE
  5
BD
102
{ACAD_REACTORS
330
1D0
102
}
100
AcDbEntity
  8
LC-001-002-----0
370
    50
390
0
  6
ByBlock
 62
     7
100
AcDbLine
 10
70.76643
 20
390.369174
 30
0.0
 11
70.472559
 21
389.860174
 31
0.0
  0
LINE
  5
BE
102
{ACAD_REACTORS
330
1D0
102
}
100
AcDbEntity
  8
LC-001-002-----0
370
    50
390
0
  6
ByBlock
 62
     7
100
AcDbLine
 10
72.46643
 20
390.369174
 30
0.0
 11
72.172559
 21
389.860174
 31
0.0
  0
LINE
  5
BF
102
{ACAD_REACTORS
330
1D0
102
}
100
AcDbEntity
  8
LC-001-002-----0
370
    50
390
0
  6
ByBlock
 62
     7
100
AcDbLine
 10
74.16643
 20
390.369174
 30
0.0
 11
73.872559
 21
389.860174
 31
0.0
  0
LINE
  5
C0
102
{ACAD_REACTORS
330
1D0
102
}
100
AcDbEntity
  8
LC-001-002-----0
370
    50
390
0
  6
ByBlock
 62
     7
100
AcDbLine
 10
75.572559
 20
389.860174
 30
0.0
 11
74.14843
 21
389.860174
 31
0.0
  0
LINE
  5
C1
102
{ACAD_REACTORS
330
1D0
102
}
100
AcDbEntity
  8
LC-001-002-----0
370
    50
390
0
  6
ByBlock
 62
     7
100
AcDbLine
 10
196.309934
 20
391.386471
 30
0.0
 11
196.309934
 21
394.386471
 31
0.0
  0
LINE
  5
C2
102
{ACAD_REACTORS
330
1D0
102
}
100
AcDbEntity
  8
LC-001-002-----0
370
    50
390
0
  6
ByBlock
 62
     7
100
AcDbLine
 10
196.309934
 20
394.386471
 30
0.0
 11
191.745154
 21
394.386471
 31
0.0
  0
LINE
  5
C3
102
{ACAD_REACTORS
330
1D0
102
}
100
AcDbEntity
  8
LC-001-002-----0
370
    50
390
0
  6
ByBlock
 62
     7
100
AcDbLine
 10
191.745154
 20
394.386471
 30
0.0
 11
191.745154
 21
391.386471
 31
0.0
  0
LINE
  5
C4
102
{ACAD_REACTORS
330
1D0
102
}
100
AcDbEntity
  8
LC-001-002-----0
370
    50
390
0
  6
ByBlock
 62
     7
100
AcDbLine
 10
194.744217
 20
391.386471
 30
0.0
 11
194.744217
 21
394.386471
 31
0.0
  0
LINE
  5
C5
102
{ACAD_REACTORS
330
1D0
102
}
100
AcDbEntity
  8
LC-001-002-----0
370
    50
390
0
  6
ByBlock
 62
     7
100
AcDbLine
 10
86.386926
 20
391.385012
 30
0.0
 11
86.386847
 21
394.385012
 31
0.0
  0
LINE
  5
C6
102
{ACAD_REACTORS
330
1D0
102
}
100
AcDbEntity
  8
LC-001-002-----0
370
    50
390
0
  6
ByBlock
 62
     7
100
AcDbLine
 10
90.951626
 20
394.385133
 30
0.0
 11
90.951706
 21
391.385133
 31
0.0
  0
LINE
  5
C7
102
{ACAD_REACTORS
330
1D0
102
}
100
AcDbEntity
  8
LC-001-002-----0
370
    50
390
0
  6
ByBlock
 62
     7
100
AcDbLine
 10
87.952644
 20
391.385054
 30
0.0
 11
87.952564
 21
394.385054
 31
0.0
  0
LINE
  5
C8
102
{ACAD_REACTORS
330
1D0
102
}
100
AcDbEntity
  8
LC-001-002-----0
370
    50
390
0
  6
ByBlock
 62
     7
100
AcDbLine
 10
86.386847
 20
394.385012
 30
0.0
 11
90.951626
 21
394.385133
 31
0.0
  0
LINE
  5
C9
102
{ACAD_REACTORS
330
1D0
102
}
100
AcDbEntity
  8
LC-001-002-----0
370
    50
390
0
  6
ByBlock
 62
     7
100
AcDbLine
 10
78.148275
 20
383.752174
 30
0.0
 11
78.148275
 21
375.389678
 31
0.0
  0
LINE
  5
CA
102
{ACAD_REACTORS
330
1D0
102
}
100
AcDbEntity
  8
LC-001-002-----0
370
    50
390
0
  6
ByBlock
 62
     7
100
AcDbLine
 10
89.350036
 20
378.390369
 30
0.0
 11
193.348386
 21
378.390369
 31
0.0
  0
LINE
  5
CB
102
{ACAD_REACTORS
330
1D0
102
}
100
AcDbEntity
  8
LC-001-002-----0
370
    50
390
0
  6
ByBlock
 62
     7
100
AcDbLine
 10
293.348113
 20
394.782574
 30
0.0
 11
253.348438
 21
394.782574
 31
0.0
  0
LINE
  5
CC
102
{ACAD_REACTORS
330
1D0
102
}
100
AcDbEntity
  8
LC-001-002-----0
370
    50
390
0
  6
ByBlock
 62
     7
100
AcDbLine
 10
295.348113
 20
391.782574
 30
0.0
 11
295.348113
 21
392.782574
 31
0.0
  0
ARC
  5
CE
102
{ACAD_REACTORS
330
1D0
102
}
100
AcDbEntity
  8
LC-005-002-RND-0
370
    50
390
0
 62
     1
100
AcDbCircle
 10
293.348113
 20
392.782574
 30
0.0
 40
2.0
100
AcDbArc
 50
0.0
 51
90.0
  0
LINE
  5
CF
102
{ACAD_REACTORS
330
1D0
102
}
100
AcDbEntity
  8
LC-001-002-----0
370
    50
390
0
  6
ByBlock
 62
     1
100
AcDbLine
 10
-12.65134
 20
391.782574
 30
0.0
 11
-12.65134
 21
392.782574
 31
0.0
  0
ARC
  5
D0
102
{ACAD_REACTORS
330
1D0
102
}
100
AcDbEntity
  8
LC-005-002-RND-0
370
    50
390
0
 62
     1
100
AcDbCircle
 10
-10.65134
 20
392.782574
 30
0.0
 40
2.0
100
AcDbArc
 50
90.0
 51
180.0
  0
LINE
  5
D1
102
{ACAD_REACTORS
330
1D0
102
}
100
AcDbEntity
  8
LC-001-002-----0
370
    50
390
0
  6
ByBlock
 62
     1
100
AcDbLine
 10
-10.65134
 20
394.782574
 30
0.0
 11
29.363394
 21
394.782574
 31
0.0
  0
LINE
  5
D2
102
{ACAD_REACTORS
330
1D0
102
}
100
AcDbEntity
  8
LC-001-002-----0
370
    50
390
0
  6
ByBlock
 62
     1
100
AcDbLine
 10
248.535937
 20
391.766426
 30
0.0
 11
229.337153
 21
387.246365
 31
0.0
  0
LINE
  5
D3
102
{ACAD_REACTORS
330
1D0
102
}
100
AcDbEntity
  8
LC-001-002-----0
370
    50
390
0
  6
ByBlock
 62
     1
100
AcDbLine
 10
34.092246
 20
391.782574
 30
0.0
 11
53.35962
 21
387.246365
 31
0.0
  0
INSERT
  5
121
102
{ACAD_REACTORS
330
1D0
102
}
100
AcDbEntity
  8
LC-006-005-----0
370
    25
390
0
 62
     2
100
AcDbBlockReference
  2
*X2
 10
0.0
 20
0.0
 30
0.0
  0
INSERT
  5
1A9
100
AcDbEntity
  8
LC-006-005-----0
370
    25
390
0
 62
     2
100
AcDbBlockReference
  2
*X3
 10
0.0
 20
0.0
 30
0.0
  0
DIMENSION
  5
1C4
100
AcDbEntity
  8
LC-003-003-----0
370
    25
390
0
 62
     2
100
AcDbDimension
  2
*D4
 10
141.348386
 20
420.0
 30
0.0
 11
141.348386
 21
420.0
 31
0.0
 71
     5
 72
     1
 41
1.0
 42
0.0
  1
%%c<>
  3
LC-DIM-L-0140-02-02
100
AcDbAlignedDimension
 13
-12.65134
 23
391.782574
 33
0.0
 14
295.348113
 24
391.782574
 34
0.0
100
AcDbRotatedDimension
  0
DIMENSION
  5
1CE
100
AcDbEntity
  8
LC-003-003-----0
370
    25
390
0
 62
     2
100
AcDbDimension
  2
*D5
 10
-28.0
 20
361.406219
 30
0.0
 11
-28.0
 21
361.406219
 31
0.0
 71
     5
 72
     1
 41
1.0
 42
0.0
  1
60
  3
LC-DIM-L-0140-02-02
100
AcDbAlignedDimension
 13
-12.65134
 23
391.782574
 33
0.0
 14
141.348429
 24
331.029865
 34
0.0
 50
90.0
100
AcDbRotatedDimension
  0
ENDSEC
  0
SECTION
  2
OBJECTS
  0
DICTIONARY
  5
19
100
AcDbDictionary
280
     0
281
     1
  3
ACAD_GROUP
350
1A
  3
ACAD_MLINESTYLE
350
1B
  3
ACAD_LAYOUT
350
1E
  3
ACAD_PLOTSETTINGS
350
22
  3
ACAD_PLOTSTYLENAME
350
1F
  0
DICTIONARY
  5
1A
102
{ACAD_REACTORS
330
19
102
}
100
AcDbDictionary
280
     0
281
     1
  3
GRP458
350
1D0
  0
DICTIONARY
  5
1B
102
{ACAD_REACTORS
330
19
102
}
100
AcDbDictionary
280
     0
281
     1
  3
Standard
350
1C
  0
MLINESTYLE
  5
1C
102
{ACAD_REACTORS
330
1B
102
}
100
AcDbMlineStyle
  2
Standard
 70
     0
  3

 62
     0
 51
90.0
 52
90.0
 71
     2
 49
0.5
 62
   256
  6
ByLayer
 49
-0.5
 62
   256
  6
ByLayer
  0
ACDBDICTIONARYWDFLT
  5
1F
102
{ACAD_REACTORS
330
19
102
}
100
AcDbDictionary
281
     1
  3
Normal
350
1D
100
AcDbDictionaryWithDefault
340
1D
  0
ACDBPLACEHOLDER
  5
1D
102
{ACAD_REACTORS
330
1F
102
}
  0
LAYOUT
  5
20
102
{ACAD_REACTORS
330
1E
102
}
100
AcDbPlotSettings
  1

  2

  4

  6

 40
0.0
 41
0.0
 42
0.0
 43
0.0
 44
0.0
 45
0.0
 46
0.0
 47
0.0
 48
0.0
 49
0.0
140
0.0
141
0.0
142
1.0
143
1.0
 70
  1152
 72
     0
 73
     0
 74
     0
  7

 75
     0
147
1.0
148
0.0
149
0.0
100
AcDbLayout
  1
Model
 70
     0
 71
     0
 10
0.0
 20
0.0
 11
0.0
 21
0.0
 12
0.0
 22
0.0
 32
0.0
 14
0.0
 24
0.0
 34
0.0
 15
0.0
 25
0.0
 35
0.0
146
0.0
 13
0.0
 23
0.0
 33
0.0
 16
0.0
 26
0.0
 36
0.0
 17
0.0
 27
0.0
 37
0.0
 76
     0
330
A
331
0
345
0
346
0
  0
LAYOUT
  5
21
102
{ACAD_REACTORS
330
1E
102
}
100
AcDbPlotSettings
  1

  2

  4

  6

 40
0.0
 41
0.0
 42
0.0
 43
0.0
 44
0.0
 45
0.0
 46
0.0
 47
0.0
 48
0.0
 49
0.0
140
0.0
141
0.0
142
1.0
143
1.0
 70
   128
 72
     0
 73
     0
 74
     0
  7

 75
     0
147
1.0
148
0.0
149
0.0
100
AcDbLayout
  1
Layout1
 70
     0
 71
     0
 10
0.0
 20
0.0
 11
0.0
 21
0.0
 12
0.0
 22
0.0
 32
0.0
 14
0.0
 24
0.0
 34
0.0
 15
0.0
 25
0.0
 35
0.0
146
0.0
 13
0.0
 23
0.0
 33
0.0
 16
0.0
 26
0.0
 36
0.0
 17
0.0
 27
0.0
 37
0.0
 76
     0
330
B
331
0
345
0
346
0
  0
DICTIONARY
  5
1E
102
{ACAD_REACTORS
330
19
102
}
100
AcDbDictionary
280
     0
281
     1
  3
Layout1
350
21
  3
Model
350
20
  0
DICTIONARY
  5
22
102
{ACAD_REACTORS
330
19
102
}
100
AcDbDictionary
280
     0
281
     1
  0
GROUP
  5
1D0
102
{ACAD_REACTORS
330
1A
102
}
100
AcDbGroup
300
GRP458
 70
     0
 71
     1
340
2E
340
6B
340
6C
340
6D
340
6E
340
6F
340
70
340
71
340
72
340
74
340
75
340
76
340
77
340
78
340
79
340
7A
340
7B
340
7C
340
7D
340
7E
340
7F
340
80
340
81
340
82
340
83
340
84
340
85
340
86
340
87
340
88
340
89
340
8A
340
8B
340
8C
340
8D
340
8E
340
8F
340
90
340
91
340
92
340
93
340
94
340
95
340
96
340
97
340
98
340
99
340
9A
340
9B
340
9C
340
9D
340
9E
340
9F
340
A0
340
A1
340
A2
340
A3
340
A4
340
A5
340
A6
340
A7
340
A8
340
A9
340
AA
340
AB
340
AC
340
AD
340
AE
340
AF
340
B0
340
B1
340
B2
340
B3
340
B4
340
B5
340
B6
340
B7
340
B8
340
B9
340
BA
340
BB
340
BC
340
BD
340
BE
340
BF
340
C0
340
C1
340
C2
340
C3
340
C4
340
C5
340
C6
340
C7
340
C8
340
C9
340
CA
340
CB
340
CC
340
CE
340
CF
340
D0
340
D1
340
D2
340
D3
340
121
  0
ENDSEC
  0
EOF
