  0
SECTION
  2
HEADER
  9
$ACADVER
  1
AC1009
  9
$INSBASE
 10
0.0
 20
0.0
 30
0.0
  9
$EXTMIN
 10
0.0
 20
0.0
 30
0.0
  9
$EXTMAX
 10
840.0
 20
594.0
 30
0.0
  9
$LIMMIN
 10
0.0
 20
0.0
  9
$LIMMAX
 10
840.0
 20
594.0
  9
$ORTHOMODE
 70
     0
  9
$REGENMODE
 70
     1
  9
$FILLMODE
 70
     1
  9
$QTEXTMODE
 70
     0
  9
$MIRRTEXT
 70
     1
  9
$DRAGMODE
 70
     2
  9
$LTSCALE
 40
2.0
  9
$OSMODE
 70
     0
  9
$ATTMODE
 70
     1
  9
$TEXTSIZE
 40
0.2
  9
$TRACEWID
 40
0.05
  9
$TEXTSTYLE
  7
STANDARD
  9
$CLAYER
  8
0
  9
$CELTYPE
  6
BYLAYER
  9
$CECOLOR
 62
     7
  9
$DIMSCALE
 40
2.0
  9
$DIMASZ
 40
3.5
  9
$DIMEXO
 40
0.0625
  9
$DIMDLI
 40
0.38
  9
$DIMRND
 40
0.0
  9
$DIMDLE
 40
0.0
  9
$DIMEXE
 40
0.18
  9
$DIMTP
 40
0.0
  9
$DIMTM
 40
0.0
  9
$DIMTXT
 40
3.5
  9
$DIMCEN
 40
0.09
  9
$DIMTSZ
 40
0.0
  9
$DIMTOL
 70
     0
  9
$DIMLIM
 70
     0
  9
$DIMTIH
 70
     1
  9
$DIMTOH
 70
     1
  9
$DIMSE1
 70
     0
  9
$DIMSE2
 70
     0
  9
$DIMTAD
 70
     1
  9
$DIMZIN
 70
     0
  9
$DIMBLK
  1

  9
$DIMASO
 70
     1
  9
$DIMSHO
 70
     1
  9
$DIMPOST
  1

  9
$DIMAPOST
  1

  9
$DIMALT
 70
     0
  9
$DIMALTD
 70
     2
  9
$DIMALTF
 40
25.4
  9
$DIMLFAC
 40
1.0
  9
$DIMTOFL
 70
     0
  9
$DIMTVP
 40
0.0
  9
$DIMTIX
 70
     0
  9
$DIMSOXD
 70
     0
  9
$DIMSAH
 70
     0
  9
$DIMBLK1
  1

  9
$DIMBLK2
  1

  9
$DIMSTYLE
  2
STANDARD
  9
$DIMCLRD
 70
     0
  9
$DIMCLRE
 70
     0
  9
$DIMCLRT
 70
     0
  9
$DIMTFAC
 40
1.0
  9
$DIMGAP
 40
0.09
  9
$LUNITS
 70
     2
  9
$LUPREC
 70
     2
  9
$AXISMODE
 70
     0
  9
$AXISUNIT
 10
0.0
 20
0.0
  9
$SKETCHINC
 40
0.1
  9
$FILLETRAD
 40
0.0
  9
$AUNITS
 70
     0
  9
$AUPREC
 70
     0
  9
$MENU
  1
acad
  9
$ELEVATION
 40
0.0
  9
$PELEVATION
 40
0.0
  9
$THICKNESS
 40
0.0
  9
$LIMCHECK
 70
     0
  9
$BLIPMODE
 70
     1
  9
$CHAMFERA
 40
0.0
  9
$CHAMFERB
 40
0.0
  9
$SKPOLY
 70
     0
  9
$TDCREATE
 40
0.000000000
  9
$TDUPDATE
 40
0.000000000
  9
$TDINDWG
 40
0.0000000000
  9
$TDUSRTIMER
 40
0.0000000000
  9
$USRTIMER
 70
     1
  9
$ANGBASE
 50
0.0
  9
$ANGDIR
 70
     0
  9
$PDMODE
 70
     0
  9
$PDSIZE
 40
0.0
  9
$PLINEWID
 40
0.0
  9
$COORDS
 70
     0
  9
$SPLFRAME
 70
     0
  9
$SPLINETYPE
 70
     6
  9
$SPLINESEGS
 70
     8
  9
$ATTDIA
 70
     0
  9
$ATTREQ
 70
     1
  9
$HANDLING
 70
     1
  9
$HANDSEED
  5
240
  9
$SURFTAB1
 70
     6
  9
$SURFTAB2
 70
     6
  9
$SURFTYPE
 70
     6
  9
$SURFU
 70
     6
  9
$SURFV
 70
     6
  9
$UCSNAME
  2

  9
$UCSORG
 10
0.0
 20
0.0
 30
0.0
  9
$UCSXDIR
 10
1.0
 20
0.0
 30
0.0
  9
$UCSYDIR
 10
0.0
 20
1.0
 30
0.0
  9
$PUCSNAME
  2

  9
$PUCSORG
 10
0.0
 20
0.0
 30
0.0
  9
$PUCSXDIR
 10
1.0
 20
0.0
 30
0.0
  9
$PUCSYDIR
 10
0.0
 20
1.0
 30
0.0
  9
$USERI1
 70
     0
  9
$USERI2
 70
     0
  9
$USERI3
 70
     0
  9
$USERI4
 70
     0
  9
$USERI5
 70
     0
  9
$USERR1
 40
0.0
  9
$USERR2
 40
0.0
  9
$USERR3
 40
0.0
  9
$USERR4
 40
0.0
  9
$USERR5
 40
0.0
  9
$WORLDVIEW
 70
     1
  9
$SHADEDGE
 70
     3
  9
$SHADEDIF
 70
    70
  9
$TILEMODE
 70
     1
  9
$MAXACTVP
 70
    16
  9
$PINSBASE
 10
0.0
 20
0.0
 30
0.0
  9
$PLIMCHECK
 70
     0
  9
$PEXTMIN
 10
1.000000E+20
 20
1.000000E+20
 30
1.000000E+20
  9
$PEXTMAX
 10
-1.000000E+20
 20
-1.000000E+20
 30
-1.000000E+20
  9
$PLIMMIN
 10
0.0
 20
0.0
  9
$PLIMMAX
 10
840.0
 20
594.0
  9
$UNITMODE
 70
     0
  9
$VISRETAIN
 70
     0
  9
$PLINEGEN
 70
     1
  9
$PSLTSCALE
 70
     0
  9
$TREEDEPTH
 70
  3020
  9
$DWGCODEPAGE
  3
dos850
  0
ENDSEC
  0
SECTION
  2
TABLES
  0
TABLE
  2
VPORT
 70
     1
  0
VPORT
  2
*ACTIVE
 70
     0
 10
0.0
 20
0.0
 11
1.0
 21
1.0
 12
420.0
 22
297.0
 13
0.0
 23
0.0
 14
1.0
 24
1.0
 15
0.0
 25
0.0
 16
0.0
 26
0.0
 36
1.0
 17
0.0
 27
0.0
 37
0.0
 40
594.0
 41
1.604229
 42
50.0
 43
0.0
 44
0.0
 50
0.0
 51
0.0
 71
     0
 72
   100
 73
     1
 74
     1
 75
     0
 76
     0
 77
     0
 78
     0
  0
ENDTAB
  0
TABLE
  2
LTYPE
 70
     3
  0
LTYPE
  2
CONTINUOUS
 70
    64
  3
Solid line
 72
    65
 73
     0
 40
0.0
  0
LTYPE
  2
DASHDOT
 70
    64
  3
__ . __ . __ . __ . __
 72
    65
 73
     4
 40
7.5
 49
5.0
 49
-1.25
 49
0.0
 49
-1.25
  0
LTYPE
  2
CENTER
 70
    64
  3
__ . __ . __ . __ . __
 72
    65
 73
     4
 40
7.5
 49
5.0
 49
-1.25
 49
0.0
 49
-1.25
  0
ENDTAB
  0
TABLE
  2
LAYER
 70
    11
  0
LAYER
  2
0
 70
     0
 62
     7
  6
CONTINUOUS
  0
LAYER
  2
LC-INFO-1-2-MM-A3-0
 70
     1
 62
    -1
  6
CONTINUOUS
  0
LAYER
  2
LC-004-003-MTH-0
 70
     0
 62
     2
  6
CONTINUOUS
  0
LAYER
  2
LC-003-003-----0
 70
     0
 62
     2
  6
CONTINUOUS
  0
LAYER
  2
LC-005-003-MTG-0
 70
     0
 62
     2
  6
CONTINUOUS
  0
LAYER
  2
LC-001-000-----0
 70
     0
 62
     7
  6
CONTINUOUS
  0
LAYER
  2
LC-002-002-----0
 70
     0
 62
     1
  6
CONTINUOUS
  0
LAYER
  2
LC-006-002-RND-0
 70
     0
 62
     1
  6
CONTINUOUS
  0
LAYER
  2
LC-007-005-----0
 70
     0
 62
     2
  6
CONTINUOUS
  0
LAYER
  2
LC-008-006-MLN-0
 70
     0
 62
     2
  6
CENTER
  0
LAYER
  2
LC-000
 70
     0
 62
     7
  6
CONTINUOUS
  0
ENDTAB
  0
TABLE
  2
STYLE
 70
     4
  0
STYLE
  2
STANDARD
 70
     0
 40
0.0
 41
1.0
 50
0.0
 71
     0
 42
0.0
  3
txt
  4

  0
STYLE
  2
LC-STANDARD
 70
    64
 40
0.0
 41
1.0
 50
0.0
 71
     0
 42
3.5
  3
MONOTXT
  4

  0
STYLE
  2
LC-TXTSTYLE-150-400-0-0-D2
 70
    64
 40
0.0
 41
1.0
 50
15.0
 71
     0
 42
3.5
  3
MONOTXT
  4

  0
STYLE
  2
LC-TXTSTYLE-150-400-0-0-D3
 70
    64
 40
0.0
 41
1.0
 50
15.0
 71
     0
 42
3.5
  3
LC-STANDARD
  4

  0
ENDTAB
  0
TABLE
  2
VIEW
 70
     0
  0
ENDTAB
  0
TABLE
  2
UCS
 70
     0
  0
ENDTAB
  0
TABLE
  2
APPID
 70
     1
  0
APPID
  2
ACAD
 70
     0
  0
ENDTAB
  0
TABLE
  2
DIMSTYLE
 70
     3
  0
DIMSTYLE
  2
STANDARD
 70
     0
  3

  4

  5

  6

  7

 40
1.0
 41
0.18
 42
0.0625
 43
0.38
 44
0.18
 45
0.0
 46
0.0
 47
0.0
 48
0.0
 71
     0
 72
     0
 73
     1
 74
     1
 75
     0
 76
     0
 77
     0
 78
     0
140
0.18
141
0.09
142
0.0
143
25.4
144
1.0
145
0.0
146
1.0
147
0.09
170
     0
171
     2
172
     0
173
     0
174
     0
175
     0
176
     0
177
     0
178
     0
  0
DIMSTYLE
  2
LC-STANDARD
 70
     0
  3

  4

  5

  6

  7

 40
1.0
 41
3.5
 42
0.0
 43
7.5
 44
1.8
 45
0.0
 46
0.0
 47
0.0
 48
0.0
 71
     0
 72
     0
 73
     0
 74
     0
 75
     0
 76
     0
 77
     1
 78
     8
140
3.5
141
0.0
142
0.0
143
25.4
144
1.0
145
0.0
146
0.71
147
1.5
170
     0
171
     2
172
     1
173
     0
174
     0
175
     0
176
     0
177
     0
178
     3
  0
DIMSTYLE
  2
LC-DIM-L-0090-02-02
 70
     0
  3

  4

  5

  6

  7

 40
2.0
 41
3.5
 42
0.0
 43
7.5
 44
1.8
 45
0.0
 46
0.0
 47
0.0
 48
0.0
 71
     0
 72
     0
 73
     0
 74
     0
 75
     0
 76
     0
 77
     1
 78
     8
140
9.0
141
0.0
142
0.0
143
25.4
144
1.0
145
0.0
146
0.71
147
1.5
170
     0
171
     2
172
     0
173
     0
174
     0
175
     0
176
     2
177
     2
178
     6
  0
ENDTAB
  0
ENDSEC
  0
SECTION
  2
BLOCKS
  0
BLOCK
  8
0
  5
23
  2
BLK1
 70
    64
 10
0.0
 20
0.0
 30
0.0
  3
BLK1
  0
ENDBLK
  8
0
  5
24
  0
BLOCK
  8
0
  5
26
  2
*D1
 70
    65
 10
0.0
 20
0.0
 30
0.0
  3
*D1
  0
LINE
  8
LC-004-003-MTH-0
  6
CONTINUOUS
  5
28
 10
254.670703
 20
301.978833
 30
0.0
 11
254.670703
 21
255.2
 31
0.0
  0
LINE
  8
LC-004-003-MTH-0
  6
CONTINUOUS
  5
29
 10
304.670703
 20
301.978833
 30
0.0
 11
304.670703
 21
255.2
 31
0.0
  0
LINE
  8
LC-003-003-----0
  6
CONTINUOUS
  5
2B
 10
236.824696
 20
263.650529
 30
0.0
 11
254.670703
 21
266.0
 31
0.0
  0
LINE
  8
LC-003-003-----0
  6
CONTINUOUS
  5
2C
 10
254.670703
 20
266.0
 30
0.0
 11
236.824696
 21
268.349471
 31
0.0
  0
LINE
  8
LC-003-003-----0
  6
CONTINUOUS
  5
2D
 10
236.824696
 20
268.349471
 30
0.0
 11
236.824696
 21
263.650529
 31
0.0
  0
LINE
  8
LC-003-003-----0
  6
CONTINUOUS
  5
2E
 10
236.784658
 20
264.261391
 30
0.0
 11
249.990703
 21
266.0
 31
0.0
  0
LINE
  8
LC-003-003-----0
  6
CONTINUOUS
  5
2F
 10
249.990703
 20
266.0
 30
0.0
 11
236.784658
 21
267.738609
 31
0.0
  0
LINE
  8
LC-003-003-----0
  6
CONTINUOUS
  5
30
 10
236.74462
 20
264.872254
 30
0.0
 11
245.310703
 21
266.0
 31
0.0
  0
LINE
  8
LC-003-003-----0
  6
CONTINUOUS
  5
31
 10
245.310703
 20
266.0
 30
0.0
 11
236.74462
 21
267.127746
 31
0.0
  0
LINE
  8
LC-003-003-----0
  6
CONTINUOUS
  5
32
 10
236.704582
 20
265.483116
 30
0.0
 11
240.630703
 21
266.0
 31
0.0
  0
LINE
  8
LC-003-003-----0
  6
CONTINUOUS
  5
33
 10
240.630703
 20
266.0
 30
0.0
 11
236.704582
 21
266.516884
 31
0.0
  0
LINE
  8
LC-003-003-----0
  6
CONTINUOUS
  5
34
 10
322.516711
 20
268.349471
 30
0.0
 11
304.670703
 21
266.0
 31
0.0
  0
LINE
  8
LC-003-003-----0
  6
CONTINUOUS
  5
35
 10
304.670703
 20
266.0
 30
0.0
 11
322.516711
 21
263.650529
 31
0.0
  0
LINE
  8
LC-003-003-----0
  6
CONTINUOUS
  5
36
 10
322.516711
 20
263.650529
 30
0.0
 11
322.516711
 21
268.349471
 31
0.0
  0
LINE
  8
LC-003-003-----0
  6
CONTINUOUS
  5
37
 10
322.556749
 20
267.738609
 30
0.0
 11
309.350703
 21
266.0
 31
0.0
  0
LINE
  8
LC-003-003-----0
  6
CONTINUOUS
  5
38
 10
309.350703
 20
266.0
 30
0.0
 11
322.556749
 21
264.261391
 31
0.0
  0
LINE
  8
LC-003-003-----0
  6
CONTINUOUS
  5
39
 10
322.596787
 20
267.127746
 30
0.0
 11
314.030703
 21
266.0
 31
0.0
  0
LINE
  8
LC-003-003-----0
  6
CONTINUOUS
  5
3A
 10
314.030703
 20
266.0
 30
0.0
 11
322.596787
 21
264.872254
 31
0.0
  0
LINE
  8
LC-003-003-----0
  6
CONTINUOUS
  5
3B
 10
322.636825
 20
266.516884
 30
0.0
 11
318.710703
 21
266.0
 31
0.0
  0
LINE
  8
LC-003-003-----0
  6
CONTINUOUS
  5
3C
 10
318.710703
 20
266.0
 30
0.0
 11
322.636825
 21
265.483116
 31
0.0
  0
LINE
  8
LC-005-003-MTG-0
  6
CONTINUOUS
  5
3E
 10
229.470703
 20
266.0
 30
0.0
 11
395.073223
 21
266.0
 31
0.0
  0
TEXT
  8
LC-003-003-----0
  6
CONTINUOUS
 62
     6
  5
40
 10
331.945949
 20
271.031999
 30
0.0
 40
18.0
  1
DN50
 41
0.9
 51
15.0
  7
LC-TXTSTYLE-150-400-0-0-D0
  0
ENDBLK
  8
0
  5
41
  0
BLOCK
  8
0
  5
43
  2
*D2
 70
    65
 10
0.0
 20
0.0
 30
0.0
  3
*D2
  0
LINE
  8
LC-004-003-MTH-0
  6
CONTINUOUS
  5
44
 10
301.670703
 20
297.478833
 30
0.0
 11
370.8
 21
297.478833
 31
0.0
  0
LINE
  8
LC-004-003-MTH-0
  6
CONTINUOUS
  5
45
 10
355.671225
 20
497.478833
 30
0.0
 11
370.8
 21
497.478833
 31
0.0
  0
LINE
  8
LC-005-003-MTG-0
  6
CONTINUOUS
  5
46
 10
360.0
 20
297.478833
 30
0.0
 11
360.0
 21
497.478833
 31
0.0
  0
LINE
  8
LC-003-003-----0
  6
CONTINUOUS
  5
47
 10
357.650529
 20
315.324841
 30
0.0
 11
360.0
 21
297.478833
 31
0.0
  0
LINE
  8
LC-003-003-----0
  6
CONTINUOUS
  5
48
 10
360.0
 20
297.478833
 30
0.0
 11
362.349471
 21
315.324841
 31
0.0
  0
LINE
  8
LC-003-003-----0
  6
CONTINUOUS
  5
49
 10
362.349471
 20
315.324841
 30
0.0
 11
357.650529
 21
315.324841
 31
0.0
  0
LINE
  8
LC-003-003-----0
  6
CONTINUOUS
  5
4A
 10
358.261391
 20
315.364879
 30
0.0
 11
360.0
 21
302.158833
 31
0.0
  0
LINE
  8
LC-003-003-----0
  6
CONTINUOUS
  5
4B
 10
360.0
 20
302.158833
 30
0.0
 11
361.738609
 21
315.364879
 31
0.0
  0
LINE
  8
LC-003-003-----0
  6
CONTINUOUS
  5
4C
 10
358.872254
 20
315.404917
 30
0.0
 11
360.0
 21
306.838833
 31
0.0
  0
LINE
  8
LC-003-003-----0
  6
CONTINUOUS
  5
4D
 10
360.0
 20
306.838833
 30
0.0
 11
361.127746
 21
315.404917
 31
0.0
  0
LINE
  8
LC-003-003-----0
  6
CONTINUOUS
  5
4E
 10
359.483116
 20
315.444955
 30
0.0
 11
360.0
 21
311.518833
 31
0.0
  0
LINE
  8
LC-003-003-----0
  6
CONTINUOUS
  5
4F
 10
360.0
 20
311.518833
 30
0.0
 11
360.516884
 21
315.444955
 31
0.0
  0
LINE
  8
LC-003-003-----0
  6
CONTINUOUS
  5
50
 10
362.349471
 20
479.632826
 30
0.0
 11
360.0
 21
497.478833
 31
0.0
  0
LINE
  8
LC-003-003-----0
  6
CONTINUOUS
  5
51
 10
360.0
 20
497.478833
 30
0.0
 11
357.650529
 21
479.632826
 31
0.0
  0
LINE
  8
LC-003-003-----0
  6
CONTINUOUS
  5
52
 10
357.650529
 20
479.632826
 30
0.0
 11
362.349471
 21
479.632826
 31
0.0
  0
LINE
  8
LC-003-003-----0
  6
CONTINUOUS
  5
53
 10
361.738609
 20
479.592788
 30
0.0
 11
360.0
 21
492.798833
 31
0.0
  0
LINE
  8
LC-003-003-----0
  6
CONTINUOUS
  5
54
 10
360.0
 20
492.798833
 30
0.0
 11
358.261391
 21
479.592788
 31
0.0
  0
LINE
  8
LC-003-003-----0
  6
CONTINUOUS
  5
55
 10
361.127746
 20
479.55275
 30
0.0
 11
360.0
 21
488.118833
 31
0.0
  0
LINE
  8
LC-003-003-----0
  6
CONTINUOUS
  5
56
 10
360.0
 20
488.118833
 30
0.0
 11
358.872254
 21
479.55275
 31
0.0
  0
LINE
  8
LC-003-003-----0
  6
CONTINUOUS
  5
57
 10
360.516884
 20
479.512712
 30
0.0
 11
360.0
 21
483.438833
 31
0.0
  0
LINE
  8
LC-003-003-----0
  6
CONTINUOUS
  5
58
 10
360.0
 20
483.438833
 30
0.0
 11
359.483116
 21
479.512712
 31
0.0
  0
TEXT
  8
LC-003-003-----0
  6
CONTINUOUS
 62
     6
  5
59
 10
349.568001
 20
378.077387
 30
0.0
 40
18.0
  1
200
 50
90.0
 51
15.0
  7
LC-TXTSTYLE-150-400-0-0-D0
 72
     1
 11
349.568001
 21
397.211246
 31
0.0
  0
ENDBLK
  8
0
  5
5A
  0
BLOCK
  8
0
  5
5C
  2
*D3
 70
    65
 10
0.0
 20
0.0
 30
0.0
  3
*D3
  0
LINE
  8
LC-004-003-MTH-0
  6
CONTINUOUS
  5
5D
 10
301.670703
 20
297.478833
 30
0.0
 11
416.8
 21
297.478833
 31
0.0
  0
LINE
  8
LC-004-003-MTH-0
  6
CONTINUOUS
  5
5E
 10
385.296354
 20
513.5988
 30
0.0
 11
416.8
 21
513.5988
 31
0.0
  0
LINE
  8
LC-005-003-MTG-0
  6
CONTINUOUS
  5
5F
 10
406.0
 20
297.478833
 30
0.0
 11
406.0
 21
513.5988
 31
0.0
  0
LINE
  8
LC-003-003-----0
  6
CONTINUOUS
  5
60
 10
403.650529
 20
315.324841
 30
0.0
 11
406.0
 21
297.478833
 31
0.0
  0
LINE
  8
LC-003-003-----0
  6
CONTINUOUS
  5
61
 10
406.0
 20
297.478833
 30
0.0
 11
408.349471
 21
315.324841
 31
0.0
  0
LINE
  8
LC-003-003-----0
  6
CONTINUOUS
  5
62
 10
408.349471
 20
315.324841
 30
0.0
 11
403.650529
 21
315.324841
 31
0.0
  0
LINE
  8
LC-003-003-----0
  6
CONTINUOUS
  5
63
 10
404.261391
 20
315.364879
 30
0.0
 11
406.0
 21
302.158833
 31
0.0
  0
LINE
  8
LC-003-003-----0
  6
CONTINUOUS
  5
64
 10
406.0
 20
302.158833
 30
0.0
 11
407.738609
 21
315.364879
 31
0.0
  0
LINE
  8
LC-003-003-----0
  6
CONTINUOUS
  5
65
 10
404.872254
 20
315.404917
 30
0.0
 11
406.0
 21
306.838833
 31
0.0
  0
LINE
  8
LC-003-003-----0
  6
CONTINUOUS
  5
66
 10
406.0
 20
306.838833
 30
0.0
 11
407.127746
 21
315.404917
 31
0.0
  0
LINE
  8
LC-003-003-----0
  6
CONTINUOUS
  5
67
 10
405.483116
 20
315.444955
 30
0.0
 11
406.0
 21
311.518833
 31
0.0
  0
LINE
  8
LC-003-003-----0
  6
CONTINUOUS
  5
68
 10
406.0
 20
311.518833
 30
0.0
 11
406.516884
 21
315.444955
 31
0.0
  0
LINE
  8
LC-003-003-----0
  6
CONTINUOUS
  5
69
 10
408.349471
 20
495.752792
 30
0.0
 11
406.0
 21
513.5988
 31
0.0
  0
LINE
  8
LC-003-003-----0
  6
CONTINUOUS
  5
6A
 10
406.0
 20
513.5988
 30
0.0
 11
403.650529
 21
495.752792
 31
0.0
  0
LINE
  8
LC-003-003-----0
  6
CONTINUOUS
  5
6B
 10
403.650529
 20
495.752792
 30
0.0
 11
408.349471
 21
495.752792
 31
0.0
  0
LINE
  8
LC-003-003-----0
  6
CONTINUOUS
  5
6C
 10
407.738609
 20
495.712754
 30
0.0
 11
406.0
 21
508.9188
 31
0.0
  0
LINE
  8
LC-003-003-----0
  6
CONTINUOUS
  5
6D
 10
406.0
 20
508.9188
 30
0.0
 11
404.261391
 21
495.712754
 31
0.0
  0
LINE
  8
LC-003-003-----0
  6
CONTINUOUS
  5
6E
 10
407.127746
 20
495.672716
 30
0.0
 11
406.0
 21
504.2388
 31
0.0
  0
LINE
  8
LC-003-003-----0
  6
CONTINUOUS
  5
6F
 10
406.0
 20
504.2388
 30
0.0
 11
404.872254
 21
495.672716
 31
0.0
  0
LINE
  8
LC-003-003-----0
  6
CONTINUOUS
  5
70
 10
406.516884
 20
495.632678
 30
0.0
 11
406.0
 21
499.5588
 31
0.0
  0
LINE
  8
LC-003-003-----0
  6
CONTINUOUS
  5
71
 10
406.0
 20
499.5588
 30
0.0
 11
405.483116
 21
495.632678
 31
0.0
  0
TEXT
  8
LC-003-003-----0
  6
CONTINUOUS
 62
     6
  5
72
 10
395.568001
 20
389.200204
 30
0.0
 40
18.0
  1
216
 50
90.0
 51
15.0
  7
LC-TXTSTYLE-150-400-0-0-D0
 72
     1
 11
395.568001
 21
408.334062
 31
0.0
  0
ENDBLK
  8
0
  5
73
  0
BLOCK
  8
0
  5
75
  2
*D4
 70
    65
 10
0.0
 20
0.0
 30
0.0
  3
*D4
  0
LINE
  8
LC-004-003-MTH-0
  6
CONTINUOUS
  5
76
 10
164.670703
 20
515.436556
 30
0.0
 11
164.670703
 21
550.8
 31
0.0
  0
LINE
  8
LC-004-003-MTH-0
  6
CONTINUOUS
  5
77
 10
394.670703
 20
515.436556
 30
0.0
 11
394.670703
 21
550.8
 31
0.0
  0
LINE
  8
LC-005-003-MTG-0
  6
CONTINUOUS
  5
78
 10
164.670703
 20
540.0
 30
0.0
 11
394.670703
 21
540.0
 31
0.0
  0
LINE
  8
LC-003-003-----0
  6
CONTINUOUS
  5
79
 10
182.516711
 20
542.349471
 30
0.0
 11
164.670703
 21
540.0
 31
0.0
  0
LINE
  8
LC-003-003-----0
  6
CONTINUOUS
  5
7A
 10
164.670703
 20
540.0
 30
0.0
 11
182.516711
 21
537.650529
 31
0.0
  0
LINE
  8
LC-003-003-----0
  6
CONTINUOUS
  5
7B
 10
182.516711
 20
537.650529
 30
0.0
 11
182.516711
 21
542.349471
 31
0.0
  0
LINE
  8
LC-003-003-----0
  6
CONTINUOUS
  5
7C
 10
182.556749
 20
541.738609
 30
0.0
 11
169.350703
 21
540.0
 31
0.0
  0
LINE
  8
LC-003-003-----0
  6
CONTINUOUS
  5
7D
 10
169.350703
 20
540.0
 30
0.0
 11
182.556749
 21
538.261391
 31
0.0
  0
LINE
  8
LC-003-003-----0
  6
CONTINUOUS
  5
7E
 10
182.596787
 20
541.127746
 30
0.0
 11
174.030703
 21
540.0
 31
0.0
  0
LINE
  8
LC-003-003-----0
  6
CONTINUOUS
  5
7F
 10
174.030703
 20
540.0
 30
0.0
 11
182.596787
 21
538.872254
 31
0.0
  0
LINE
  8
LC-003-003-----0
  6
CONTINUOUS
  5
80
 10
182.636825
 20
540.516884
 30
0.0
 11
178.710703
 21
540.0
 31
0.0
  0
LINE
  8
LC-003-003-----0
  6
CONTINUOUS
  5
81
 10
178.710703
 20
540.0
 30
0.0
 11
182.636825
 21
539.483116
 31
0.0
  0
LINE
  8
LC-003-003-----0
  6
CONTINUOUS
  5
82
 10
376.824696
 20
537.650529
 30
0.0
 11
394.670703
 21
540.0
 31
0.0
  0
LINE
  8
LC-003-003-----0
  6
CONTINUOUS
  5
83
 10
394.670703
 20
540.0
 30
0.0
 11
376.824696
 21
542.349471
 31
0.0
  0
LINE
  8
LC-003-003-----0
  6
CONTINUOUS
  5
84
 10
376.824696
 20
542.349471
 30
0.0
 11
376.824696
 21
537.650529
 31
0.0
  0
LINE
  8
LC-003-003-----0
  6
CONTINUOUS
  5
85
 10
376.784658
 20
538.261391
 30
0.0
 11
389.990703
 21
540.0
 31
0.0
  0
LINE
  8
LC-003-003-----0
  6
CONTINUOUS
  5
86
 10
389.990703
 20
540.0
 30
0.0
 11
376.784658
 21
541.738609
 31
0.0
  0
LINE
  8
LC-003-003-----0
  6
CONTINUOUS
  5
87
 10
376.74462
 20
538.872254
 30
0.0
 11
385.310703
 21
540.0
 31
0.0
  0
LINE
  8
LC-003-003-----0
  6
CONTINUOUS
  5
88
 10
385.310703
 20
540.0
 30
0.0
 11
376.74462
 21
541.127746
 31
0.0
  0
LINE
  8
LC-003-003-----0
  6
CONTINUOUS
  5
89
 10
376.704582
 20
539.483116
 30
0.0
 11
380.630703
 21
540.0
 31
0.0
  0
LINE
  8
LC-003-003-----0
  6
CONTINUOUS
  5
8A
 10
380.630703
 20
540.0
 30
0.0
 11
376.704582
 21
540.516884
 31
0.0
  0
TEXT
  8
LC-003-003-----0
  6
CONTINUOUS
 62
     6
  5
8B
 10
257.97461
 20
550.431999
 30
0.0
 40
18.0
  1
Ø230
 51
15.0
  7
LC-TXTSTYLE-150-400-0-0-D0
 72
     1
 11
282.465949
 21
550.431999
 31
0.0
  0
ENDBLK
  8
0
  5
8C
  0
BLOCK
  8
0
  5
8E
  2
BLK2
 70
    64
 10
0.0
 20
0.0
 30
0.0
  3
BLK2
  0
ENDBLK
  8
0
  5
8F
  0
BLOCK
  8
0
  5
91
  2
BLK3
 70
    64
 10
0.0
 20
0.0
 30
0.0
  3
BLK3
  0
ENDBLK
  8
0
  5
92
  0
BLOCK
  8
0
  5
94
  2
BLK4
 70
    64
 10
0.0
 20
0.0
 30
0.0
  3
BLK4
  0
ENDBLK
  8
0
  5
95
  0
BLOCK
  8
0
  5
97
  2
BLK5
 70
    64
 10
0.0
 20
0.0
 30
0.0
  3
BLK5
  0
ENDBLK
  8
0
  5
98
  0
BLOCK
  8
0
  5
9A
  2
BLK6
 70
    64
 10
0.0
 20
0.0
 30
0.0
  3
BLK6
  0
ENDBLK
  8
0
  5
9B
  0
BLOCK
  8
0
  5
9D
  2
BLK7
 70
    64
 10
0.0
 20
0.0
 30
0.0
  3
BLK7
  0
ENDBLK
  8
0
  5
9E
  0
ENDSEC
  0
SECTION
  2
ENTITIES
  0
VIEWPORT
  8
LC-000
  5
234
 67
     1
 68
     1
 10
420.0
 20
297.0
 30
0.0
 40
840.0
 41
594.0
 69
     1
1001
ACAD
1000
MVIEW
1002
{
1070
    16
1010
0.0
1020
0.0
1030
0.0
1010
0.0
1020
0.0
1030
1.0
1040
0.0
1040
594.0
1040
420.0
1040
297.0
1040
50.0
1040
0.0
1040
0.0
1070
     0
1070
   100
1070
     1
1070
     1
1070
     0
1070
     0
1070
     0
1070
     0
1040
0.0
1040
0.0
1040
0.0
1040
1.0
1040
1.0
1040
0.0
1040
0.0
1070
     0
1002
{
1002
}
1002
}
  0
VIEWPORT
  8
0
  5
235
 67
     1
 68
     1
 10
0.0
 20
0.0
 30
0.0
 40
0.0
 41
0.0
 69
     1
1001
ACAD
1000
MVIEW
1002
{
1070
    16
1010
0.0
1020
0.0
1030
0.0
1010
0.0
1020
0.0
1030
1.0
1040
0.0
1040
594.0
1040
0.0
1040
0.0
1040
50.0
1040
0.0
1040
0.0
1070
     0
1070
   100
1070
     0
1070
     1
1070
     0
1070
     0
1070
     0
1070
     0
1040
0.0
1040
0.0
1040
0.0
1040
0.5
1040
0.5
1040
0.5
1040
0.5
1070
     0
1002
{
1002
}
1002
}
  0
INSERT
  8
0
  5
A0
  2
BLK1
 10
0.0
 20
0.0
 30
0.0
  0
DIMENSION
  8
0
  5
A1
  2
*D1
 10
279.670703
 20
266.0
 30
0.0
 11
279.670703
 21
266.0
 31
0.0
  1
DN50
 13
254.670703
 23
301.978833
 33
0.0
 14
304.670703
 24
301.978833
 34
0.0
  3
LC-DIM-L-0090-02-02
  0
DIMENSION
  8
0
  5
A2
  2
*D2
 10
360.0
 20
394.416
 30
0.0
 11
360.0
 21
394.416
 31
0.0
 13
355.671225
 23
497.478833
 33
0.0
 14
301.670703
 24
297.478833
 34
0.0
 50
90.0
  3
LC-DIM-L-0090-02-02
  0
DIMENSION
  8
0
  5
A3
  2
*D3
 10
406.0
 20
405.538816
 30
0.0
 11
406.0
 21
405.538816
 31
0.0
  1
216
 13
301.670703
 23
297.478833
 33
0.0
 14
385.296354
 24
513.5988
 34
0.0
 50
90.0
  3
LC-DIM-L-0090-02-02
  0
DIMENSION
  8
0
  5
A4
  2
*D4
 10
279.670703
 20
540.0
 30
0.0
 11
279.670703
 21
540.0
 31
0.0
  1
%%c<>
 13
164.670703
 23
515.436556
 33
0.0
 14
394.670703
 24
515.436556
 34
0.0
  3
LC-DIM-L-0090-02-02
  0
INSERT
  8
0
  5
A5
  2
BLK2
 10
0.0
 20
0.0
 30
0.0
  0
INSERT
  8
0
  5
A6
  2
BLK3
 10
0.0
 20
0.0
 30
0.0
  0
INSERT
  8
0
  5
A7
  2
BLK4
 10
0.0
 20
0.0
 30
0.0
  0
INSERT
  8
0
  5
A8
  2
BLK5
 10
0.0
 20
0.0
 30
0.0
  0
INSERT
  8
0
  5
A9
  2
BLK6
 10
0.0
 20
0.0
 30
0.0
  0
INSERT
  8
0
  5
AA
  2
BLK7
 10
0.0
 20
0.0
 30
0.0
  0
LINE
  8
LC-002-002-----0
  6
CONTINUOUS
  5
AC
 10
205.670214
 20
510.980214
 30
0.0
 11
205.670214
 21
512.479524
 31
0.0
  0
LINE
  8
LC-002-002-----0
  6
CONTINUOUS
  5
AD
 10
353.671193
 20
510.980214
 30
0.0
 11
353.671193
 21
512.479524
 31
0.0
  0
LINE
  8
LC-002-002-----0
  6
CONTINUOUS
  5
AE
 10
218.670591
 20
512.47961
 30
0.0
 11
218.670591
 21
515.47961
 31
0.0
  0
LINE
  8
LC-002-002-----0
  6
CONTINUOUS
  5
AF
 10
394.670703
 20
513.955412
 30
0.0
 11
394.670703
 21
515.436556
 31
0.0
  0
ARC
  8
LC-006-002-RND-0
  6
CONTINUOUS
  5
B1
 10
392.670703
 20
515.436556
 30
0.0
 40
2.0
 50
360.0
 51
91.898364
  0
ARC
  8
LC-002-002-----0
  6
CONTINUOUS
  5
B2
 10
209.670214
 20
506.479534
 30
0.0
 40
10.0
 50
244.158193
 51
295.842059
  0
LINE
  8
LC-002-002-----0
  6
CONTINUOUS
  5
B3
 10
164.670703
 20
513.955412
 30
0.0
 11
164.670703
 21
515.436556
 31
0.0
  0
ARC
  8
LC-006-002-RND-0
  6
CONTINUOUS
  5
B4
 10
166.670703
 20
515.436556
 30
0.0
 40
2.0
 50
88.101636
 51
180.0
  0
LINE
  8
LC-007-005-----0
  6
CONTINUOUS
  5
B6
 10
255.702333
 20
298.12874
 30
0.0
 11
257.670703
 21
300.09711
 31
0.0
  0
LINE
  8
LC-002-002-----0
  6
CONTINUOUS
  5
B7
 10
255.876475
 20
297.478833
 30
0.0
 11
254.670703
 21
301.978833
 31
0.0
  0
LINE
  8
LC-007-005-----0
  6
CONTINUOUS
  5
B8
 10
255.104616
 20
300.35945
 30
0.0
 11
257.670703
 21
302.925537
 31
0.0
  0
LINE
  8
LC-002-002-----0
  6
CONTINUOUS
  5
B9
 10
205.670214
 20
512.479524
 30
0.0
 11
207.170214
 21
512.479524
 31
0.0
  0
LINE
  8
LC-002-002-----0
  6
CONTINUOUS
  5
BA
 10
207.170214
 20
512.479524
 30
0.0
 11
212.170214
 21
512.479524
 31
0.0
  0
LINE
  8
LC-002-002-----0
  6
CONTINUOUS
  5
BB
 10
213.670214
 20
512.479524
 30
0.0
 11
213.670214
 21
510.980214
 31
0.0
  0
LINE
  8
LC-002-002-----0
  6
CONTINUOUS
  5
BC
 10
213.670214
 20
512.479524
 30
0.0
 11
212.170214
 21
512.479524
 31
0.0
  0
LINE
  8
LC-002-002-----0
  6
CONTINUOUS
  5
BD
 10
203.670182
 20
497.478833
 30
0.0
 11
205.312762
 21
497.478833
 31
0.0
  0
LINE
  8
LC-007-005-----0
  6
CONTINUOUS
  5
BE
 10
254.670703
 20
302.753964
 30
0.0
 11
257.670703
 21
305.753964
 31
0.0
  0
LINE
  8
LC-002-002-----0
  6
CONTINUOUS
  5
BF
 10
218.670591
 20
515.47961
 30
0.0
 11
216.670591
 21
515.47961
 31
0.0
  0
LINE
  8
LC-002-002-----0
  6
CONTINUOUS
  5
C0
 10
205.670214
 20
510.980214
 30
0.0
 11
204.959378
 21
510.980214
 31
0.0
  0
LINE
  8
LC-002-002-----0
  6
CONTINUOUS
  5
C1
 10
204.670703
 20
511.480214
 30
0.0
 11
205.670214
 21
511.480214
 31
0.0
  0
LINE
  8
LC-002-002-----0
  6
CONTINUOUS
  5
C2
 10
214.670703
 20
511.480214
 30
0.0
 11
213.670214
 21
511.480214
 31
0.0
  0
LINE
  8
LC-002-002-----0
  6
CONTINUOUS
  5
C3
 10
214.670703
 20
511.480214
 30
0.0
 11
215.670703
 21
511.480214
 31
0.0
  0
LINE
  8
LC-002-002-----0
  6
CONTINUOUS
  5
C4
 10
214.027666
 20
497.478833
 30
0.0
 11
227.670703
 21
497.478833
 31
0.0
  0
LINE
  8
LC-007-005-----0
  6
CONTINUOUS
  5
C5
 10
254.670703
 20
305.582392
 30
0.0
 11
257.670703
 21
308.582392
 31
0.0
  0
LINE
  8
LC-002-002-----0
  6
CONTINUOUS
  5
C6
 10
301.670703
 20
499.695074
 30
0.0
 11
257.670703
 21
499.694284
 31
0.0
  0
LINE
  8
LC-007-005-----0
  6
CONTINUOUS
  5
C7
 10
254.670703
 20
308.410819
 30
0.0
 11
257.670703
 21
311.410819
 31
0.0
  0
LINE
  8
LC-002-002-----0
  6
CONTINUOUS
  5
C8
 10
174.385774
 20
517.181939
 30
0.0
 11
166.67074
 21
517.437653
 31
0.0
  0
LINE
  8
LC-002-002-----0
  6
CONTINUOUS
  5
C9
 10
257.670703
 20
499.694284
 30
0.0
 11
227.592192
 21
500.481917
 31
0.0
  0
LINE
  8
LC-007-005-----0
  6
CONTINUOUS
  5
CA
 10
254.670703
 20
311.239246
 30
0.0
 11
257.670703
 21
314.239246
 31
0.0
  0
LINE
  8
LC-007-005-----0
  6
CONTINUOUS
  5
CB
 10
254.670703
 20
314.067673
 30
0.0
 11
257.670703
 21
317.067673
 31
0.0
  0
LINE
  8
LC-002-002-----0
  6
CONTINUOUS
  5
CC
 10
166.67074
 20
517.437653
 30
0.0
 11
392.60445
 21
517.437653
 31
0.0
  0
LINE
  8
LC-007-005-----0
  6
CONTINUOUS
  5
CD
 10
254.670703
 20
316.8961
 30
0.0
 11
257.670703
 21
319.8961
 31
0.0
  0
LINE
  8
LC-002-002-----0
  6
CONTINUOUS
  5
CE
 10
279.670703
 20
297.478833
 30
0.0
 11
301.670703
 21
297.478833
 31
0.0
  0
LINE
  8
LC-007-005-----0
  6
CONTINUOUS
  5
CF
 10
254.670703
 20
319.724527
 30
0.0
 11
257.670703
 21
322.724527
 31
0.0
  0
LINE
  8
LC-007-005-----0
  6
CONTINUOUS
  5
D0
 10
254.670703
 20
322.552954
 30
0.0
 11
257.670703
 21
325.552954
 31
0.0
  0
ARC
  8
LC-002-002-----0
  6
CONTINUOUS
  5
D1
 10
349.671193
 20
506.479534
 30
0.0
 40
10.0
 50
244.157941
 51
295.841807
  0
LINE
  8
LC-008-006-MLN-0
  6
DASHDOT
  5
D5
 10
279.670703
 20
518.749846
 30
0.0
 11
279.670703
 21
287.478833
 31
0.0
  0
LINE
  8
LC-002-002-----0
  6
CONTINUOUS
  5
D6
 10
194.670703
 20
510.980214
 30
0.0
 11
174.385774
 21
517.181939
 31
0.0
  0
LINE
  8
LC-007-005-----0
  6
CONTINUOUS
  5
D7
 10
254.670703
 20
325.381381
 30
0.0
 11
257.670703
 21
328.381381
 31
0.0
  0
LINE
  8
LC-007-005-----0
  6
CONTINUOUS
  5
D8
 10
254.670703
 20
328.209809
 30
0.0
 11
257.670703
 21
331.209809
 31
0.0
  0
LINE
  8
LC-002-002-----0
  6
CONTINUOUS
  5
D9
 10
394.670703
 20
513.955412
 30
0.0
 11
394.670703
 21
515.436556
 31
0.0
  0
LINE
  8
LC-002-002-----0
  6
CONTINUOUS
  5
DA
 10
194.221554
 20
507.428841
 30
0.0
 11
174.045052
 21
513.5988
 31
0.0
  0
LINE
  8
LC-007-005-----0
  6
CONTINUOUS
  5
DB
 10
254.670703
 20
331.038236
 30
0.0
 11
257.670703
 21
334.038236
 31
0.0
  0
LINE
  8
LC-002-002-----0
  6
CONTINUOUS
  5
DC
 10
339.670815
 20
500.480214
 30
0.0
 11
331.65661
 21
500.480214
 31
0.0
  0
LINE
  8
LC-007-005-----0
  6
CONTINUOUS
  5
DD
 10
254.670703
 20
333.866663
 30
0.0
 11
257.670703
 21
336.866663
 31
0.0
  0
LINE
  8
LC-007-005-----0
  6
CONTINUOUS
  5
DE
 10
254.670703
 20
336.69509
 30
0.0
 11
257.670703
 21
339.69509
 31
0.0
  0
LINE
  8
LC-007-005-----0
  6
CONTINUOUS
  5
DF
 10
254.670703
 20
339.523517
 30
0.0
 11
257.670703
 21
342.523517
 31
0.0
  0
LINE
  8
LC-002-002-----0
  6
CONTINUOUS
  5
E0
 10
174.045052
 20
513.5988
 30
0.0
 11
164.670703
 21
513.955412
 31
0.0
  0
LINE
  8
LC-007-005-----0
  6
CONTINUOUS
  5
E1
 10
254.670703
 20
342.351944
 30
0.0
 11
257.670703
 21
345.351944
 31
0.0
  0
LINE
  8
LC-002-002-----0
  6
CONTINUOUS
  5
E2
 10
353.671193
 20
512.479524
 30
0.0
 11
352.171193
 21
512.479524
 31
0.0
  0
LINE
  8
LC-007-005-----0
  6
CONTINUOUS
  5
E3
 10
254.670703
 20
345.180371
 30
0.0
 11
257.670703
 21
348.180371
 31
0.0
  0
LINE
  8
LC-007-005-----0
  6
CONTINUOUS
  5
E4
 10
254.670703
 20
348.008798
 30
0.0
 11
257.670703
 21
351.008798
 31
0.0
  0
LINE
  8
LC-002-002-----0
  6
CONTINUOUS
  5
E5
 10
279.670703
 20
297.478833
 30
0.0
 11
257.670703
 21
297.478833
 31
0.0
  0
LINE
  8
LC-002-002-----0
  6
CONTINUOUS
  5
E6
 10
385.296354
 20
513.5988
 30
0.0
 11
394.670703
 21
513.955412
 31
0.0
  0
LINE
  8
LC-002-002-----0
  6
CONTINUOUS
  5
E7
 10
365.119852
 20
507.428841
 30
0.0
 11
385.296354
 21
513.5988
 31
0.0
  0
LINE
  8
LC-007-005-----0
  6
CONTINUOUS
  5
E8
 10
254.670703
 20
350.837226
 30
0.0
 11
257.670703
 21
353.837226
 31
0.0
  0
LINE
  8
LC-007-005-----0
  6
CONTINUOUS
  5
E9
 10
254.670703
 20
353.665653
 30
0.0
 11
257.670703
 21
356.665653
 31
0.0
  0
LINE
  8
LC-002-002-----0
  6
CONTINUOUS
  5
EA
 10
364.670703
 20
510.980214
 30
0.0
 11
384.955633
 21
517.181939
 31
0.0
  0
LINE
  8
LC-002-002-----0
  6
CONTINUOUS
  5
EB
 10
384.955633
 20
517.181939
 30
0.0
 11
392.783169
 21
517.437653
 31
0.0
  0
LINE
  8
LC-002-002-----0
  6
CONTINUOUS
  5
EC
 10
352.171193
 20
512.479524
 30
0.0
 11
347.171193
 21
512.479524
 31
0.0
  0
LINE
  8
LC-007-005-----0
  6
CONTINUOUS
  5
ED
 10
254.670703
 20
356.49408
 30
0.0
 11
257.670703
 21
359.49408
 31
0.0
  0
LINE
  8
LC-002-002-----0
  6
CONTINUOUS
  5
EE
 10
301.670703
 20
499.695074
 30
0.0
 11
301.770703
 21
499.695074
 31
0.0
  0
LINE
  8
LC-002-002-----0
  6
CONTINUOUS
  5
EF
 10
304.670703
 20
496.77256
 30
0.0
 11
304.670703
 21
496.772535
 31
0.0
  0
LINE
  8
LC-007-005-----0
  6
CONTINUOUS
  5
F0
 10
254.670703
 20
359.322507
 30
0.0
 11
257.670703
 21
362.322507
 31
0.0
  0
ARC
  8
LC-006-002-RND-0
  6
CONTINUOUS
  5
F1
 10
392.670703
 20
515.436556
 30
0.0
 40
2.0
 50
360.0
 51
91.898364
  0
LINE
  8
LC-002-002-----0
  6
CONTINUOUS
  5
F2
 10
254.670703
 20
496.771813
 30
0.0
 11
254.670703
 21
301.978833
 31
0.0
  0
LINE
  8
LC-002-002-----0
  6
CONTINUOUS
  5
F3
 10
304.670713
 20
496.772604
 30
0.0
 11
304.670703
 21
301.978833
 31
0.0
  0
LINE
  8
LC-002-002-----0
  6
CONTINUOUS
  5
F4
 10
257.670703
 20
499.694284
 30
0.0
 11
257.670703
 21
297.478833
 31
0.0
  0
LINE
  8
LC-002-002-----0
  6
CONTINUOUS
  5
F5
 10
301.670713
 20
499.692443
 30
0.0
 11
301.670703
 21
297.478833
 31
0.0
  0
LINE
  8
LC-002-002-----0
  6
CONTINUOUS
  5
F6
 10
303.464932
 20
297.478833
 30
0.0
 11
304.670703
 21
301.978833
 31
0.0
  0
LINE
  8
LC-007-005-----0
  6
CONTINUOUS
  5
F7
 10
254.670703
 20
362.150934
 30
0.0
 11
257.670703
 21
365.150934
 31
0.0
  0
LINE
  8
LC-002-002-----0
  6
CONTINUOUS
  5
F8
 10
219.670591
 20
512.479524
 30
0.0
 11
339.670815
 21
512.479524
 31
0.0
  0
LINE
  8
LC-007-005-----0
  6
CONTINUOUS
  5
F9
 10
254.670703
 20
364.979361
 30
0.0
 11
257.670703
 21
367.979361
 31
0.0
  0
LINE
  8
LC-007-005-----0
  6
CONTINUOUS
  5
FA
 10
254.670703
 20
367.807788
 30
0.0
 11
257.670703
 21
370.807788
 31
0.0
  0
LINE
  8
LC-007-005-----0
  6
CONTINUOUS
  5
FB
 10
254.670703
 20
370.636215
 30
0.0
 11
257.670703
 21
373.636215
 31
0.0
  0
LINE
  8
LC-002-002-----0
  6
CONTINUOUS
  5
FC
 10
227.592192
 20
500.481917
 30
0.0
 11
331.65661
 21
500.481917
 31
0.0
  0
LINE
  8
LC-002-002-----0
  6
CONTINUOUS
  5
FD
 10
345.671193
 20
512.479524
 30
0.0
 11
345.671193
 21
510.980214
 31
0.0
  0
LINE
  8
LC-002-002-----0
  6
CONTINUOUS
  5
FE
 10
345.671193
 20
512.479524
 30
0.0
 11
347.171193
 21
512.479524
 31
0.0
  0
LINE
  8
LC-002-002-----0
  6
CONTINUOUS
  5
FF
 10
355.671225
 20
497.478833
 30
0.0
 11
354.028645
 21
497.478833
 31
0.0
  0
LINE
  8
LC-002-002-----0
  6
CONTINUOUS
  5
100
 10
196.670182
 20
510.980214
 30
0.0
 11
203.670703
 21
510.980214
 31
0.0
  0
LINE
  8
LC-002-002-----0
  6
CONTINUOUS
  5
101
 10
215.670703
 20
512.480214
 30
0.0
 11
215.670703
 21
510.980214
 31
0.0
  0
LINE
  8
LC-002-002-----0
  6
CONTINUOUS
  5
102
 10
203.670703
 20
510.980214
 30
0.0
 11
203.670703
 21
507.480214
 31
0.0
  0
LINE
  8
LC-002-002-----0
  6
CONTINUOUS
  5
103
 10
257.670703
 20
297.478833
 30
0.0
 11
255.876475
 21
297.478833
 31
0.0
  0
LINE
  8
LC-002-002-----0
  6
CONTINUOUS
  5
104
 10
215.670703
 20
510.980214
 30
0.0
 11
214.959378
 21
510.980214
 31
0.0
  0
LINE
  8
LC-002-002-----0
  6
CONTINUOUS
  5
105
 10
301.670703
 20
297.478833
 30
0.0
 11
303.464932
 21
297.478833
 31
0.0
  0
LINE
  8
LC-002-002-----0
  6
CONTINUOUS
  5
106
 10
203.670182
 20
507.480214
 30
0.0
 11
196.670182
 21
507.480214
 31
0.0
  0
LINE
  8
LC-002-002-----0
  6
CONTINUOUS
  5
107
 10
196.670182
 20
507.480214
 30
0.0
 11
196.670182
 21
510.980214
 31
0.0
  0
LINE
  8
LC-002-002-----0
  6
CONTINUOUS
  5
108
 10
203.670182
 20
504.980214
 30
0.0
 11
196.670182
 21
504.980214
 31
0.0
  0
LINE
  8
LC-002-002-----0
  6
CONTINUOUS
  5
109
 10
196.670182
 20
504.980214
 30
0.0
 11
194.221554
 21
507.428841
 31
0.0
  0
LINE
  8
LC-007-005-----0
  6
CONTINUOUS
  5
10A
 10
254.670703
 20
373.464643
 30
0.0
 11
257.670703
 21
376.464643
 31
0.0
  0
LINE
  8
LC-007-005-----0
  6
CONTINUOUS
  5
10B
 10
254.670703
 20
376.29307
 30
0.0
 11
257.670703
 21
379.29307
 31
0.0
  0
LINE
  8
LC-007-005-----0
  6
CONTINUOUS
  5
10C
 10
254.670703
 20
379.121497
 30
0.0
 11
257.670703
 21
382.121497
 31
0.0
  0
LINE
  8
LC-007-005-----0
  6
CONTINUOUS
  5
10D
 10
254.670703
 20
381.949924
 30
0.0
 11
257.670703
 21
384.949924
 31
0.0
  0
LINE
  8
LC-007-005-----0
  6
CONTINUOUS
  5
10E
 10
254.670703
 20
384.778351
 30
0.0
 11
257.670703
 21
387.778351
 31
0.0
  0
LINE
  8
LC-007-005-----0
  6
CONTINUOUS
  5
10F
 10
254.670703
 20
387.606778
 30
0.0
 11
257.670703
 21
390.606778
 31
0.0
  0
LINE
  8
LC-007-005-----0
  6
CONTINUOUS
  5
110
 10
254.670703
 20
390.435205
 30
0.0
 11
257.670703
 21
393.435205
 31
0.0
  0
LINE
  8
LC-007-005-----0
  6
CONTINUOUS
  5
111
 10
254.670703
 20
393.263632
 30
0.0
 11
257.670703
 21
396.263632
 31
0.0
  0
LINE
  8
LC-007-005-----0
  6
CONTINUOUS
  5
112
 10
254.670703
 20
396.09206
 30
0.0
 11
257.670703
 21
399.09206
 31
0.0
  0
LINE
  8
LC-007-005-----0
  6
CONTINUOUS
  5
113
 10
254.670703
 20
398.920487
 30
0.0
 11
257.670703
 21
401.920487
 31
0.0
  0
LINE
  8
LC-007-005-----0
  6
CONTINUOUS
  5
114
 10
254.670703
 20
401.748914
 30
0.0
 11
257.670703
 21
404.748914
 31
0.0
  0
LINE
  8
LC-007-005-----0
  6
CONTINUOUS
  5
115
 10
254.670703
 20
404.577341
 30
0.0
 11
257.670703
 21
407.577341
 31
0.0
  0
LINE
  8
LC-007-005-----0
  6
CONTINUOUS
  5
116
 10
254.670703
 20
407.405768
 30
0.0
 11
257.670703
 21
410.405768
 31
0.0
  0
LINE
  8
LC-007-005-----0
  6
CONTINUOUS
  5
117
 10
254.670703
 20
410.234195
 30
0.0
 11
257.670703
 21
413.234195
 31
0.0
  0
LINE
  8
LC-007-005-----0
  6
CONTINUOUS
  5
118
 10
254.670703
 20
413.062622
 30
0.0
 11
257.670703
 21
416.062622
 31
0.0
  0
LINE
  8
LC-007-005-----0
  6
CONTINUOUS
  5
119
 10
254.670703
 20
415.891049
 30
0.0
 11
257.670703
 21
418.891049
 31
0.0
  0
LINE
  8
LC-007-005-----0
  6
CONTINUOUS
  5
11A
 10
254.670703
 20
418.719477
 30
0.0
 11
257.670703
 21
421.719477
 31
0.0
  0
LINE
  8
LC-007-005-----0
  6
CONTINUOUS
  5
11B
 10
254.670703
 20
421.547904
 30
0.0
 11
257.670703
 21
424.547904
 31
0.0
  0
LINE
  8
LC-007-005-----0
  6
CONTINUOUS
  5
11C
 10
254.670703
 20
424.376331
 30
0.0
 11
257.670703
 21
427.376331
 31
0.0
  0
LINE
  8
LC-007-005-----0
  6
CONTINUOUS
  5
11D
 10
254.670703
 20
427.204758
 30
0.0
 11
257.670703
 21
430.204758
 31
0.0
  0
LINE
  8
LC-007-005-----0
  6
CONTINUOUS
  5
11E
 10
254.670703
 20
430.033185
 30
0.0
 11
257.670703
 21
433.033185
 31
0.0
  0
LINE
  8
LC-007-005-----0
  6
CONTINUOUS
  5
11F
 10
254.670703
 20
432.861612
 30
0.0
 11
257.670703
 21
435.861612
 31
0.0
  0
LINE
  8
LC-007-005-----0
  6
CONTINUOUS
  5
120
 10
254.670703
 20
435.690039
 30
0.0
 11
257.670703
 21
438.690039
 31
0.0
  0
LINE
  8
LC-007-005-----0
  6
CONTINUOUS
  5
121
 10
254.670703
 20
438.518466
 30
0.0
 11
257.670703
 21
441.518466
 31
0.0
  0
LINE
  8
LC-007-005-----0
  6
CONTINUOUS
  5
122
 10
254.670703
 20
441.346894
 30
0.0
 11
257.670703
 21
444.346894
 31
0.0
  0
LINE
  8
LC-007-005-----0
  6
CONTINUOUS
  5
123
 10
254.670703
 20
444.175321
 30
0.0
 11
257.670703
 21
447.175321
 31
0.0
  0
LINE
  8
LC-007-005-----0
  6
CONTINUOUS
  5
124
 10
254.670703
 20
447.003748
 30
0.0
 11
257.670703
 21
450.003748
 31
0.0
  0
LINE
  8
LC-007-005-----0
  6
CONTINUOUS
  5
125
 10
254.670703
 20
449.832175
 30
0.0
 11
257.670703
 21
452.832175
 31
0.0
  0
LINE
  8
LC-007-005-----0
  6
CONTINUOUS
  5
126
 10
254.670703
 20
452.660602
 30
0.0
 11
257.670703
 21
455.660602
 31
0.0
  0
LINE
  8
LC-007-005-----0
  6
CONTINUOUS
  5
127
 10
254.670703
 20
455.489029
 30
0.0
 11
257.670703
 21
458.489029
 31
0.0
  0
LINE
  8
LC-007-005-----0
  6
CONTINUOUS
  5
128
 10
254.670703
 20
458.317456
 30
0.0
 11
257.670703
 21
461.317456
 31
0.0
  0
LINE
  8
LC-007-005-----0
  6
CONTINUOUS
  5
129
 10
254.670703
 20
461.145883
 30
0.0
 11
257.670703
 21
464.145883
 31
0.0
  0
LINE
  8
LC-007-005-----0
  6
CONTINUOUS
  5
12A
 10
254.670703
 20
463.974311
 30
0.0
 11
257.670703
 21
466.974311
 31
0.0
  0
LINE
  8
LC-007-005-----0
  6
CONTINUOUS
  5
12B
 10
254.670703
 20
466.802738
 30
0.0
 11
257.670703
 21
469.802738
 31
0.0
  0
LINE
  8
LC-007-005-----0
  6
CONTINUOUS
  5
12C
 10
254.670703
 20
469.631165
 30
0.0
 11
257.670703
 21
472.631165
 31
0.0
  0
LINE
  8
LC-007-005-----0
  6
CONTINUOUS
  5
12D
 10
254.670703
 20
472.459592
 30
0.0
 11
257.670703
 21
475.459592
 31
0.0
  0
LINE
  8
LC-007-005-----0
  6
CONTINUOUS
  5
12E
 10
254.670703
 20
475.288019
 30
0.0
 11
257.670703
 21
478.288019
 31
0.0
  0
LINE
  8
LC-007-005-----0
  6
CONTINUOUS
  5
12F
 10
254.670703
 20
478.116446
 30
0.0
 11
257.670703
 21
481.116446
 31
0.0
  0
LINE
  8
LC-007-005-----0
  6
CONTINUOUS
  5
130
 10
254.670703
 20
480.944873
 30
0.0
 11
257.670703
 21
483.944873
 31
0.0
  0
LINE
  8
LC-007-005-----0
  6
CONTINUOUS
  5
131
 10
254.670703
 20
483.7733
 30
0.0
 11
257.670703
 21
486.7733
 31
0.0
  0
LINE
  8
LC-007-005-----0
  6
CONTINUOUS
  5
132
 10
254.670703
 20
486.601728
 30
0.0
 11
257.670703
 21
489.601728
 31
0.0
  0
LINE
  8
LC-007-005-----0
  6
CONTINUOUS
  5
133
 10
254.670703
 20
489.430155
 30
0.0
 11
257.670703
 21
492.430155
 31
0.0
  0
LINE
  8
LC-007-005-----0
  6
CONTINUOUS
  5
134
 10
254.670703
 20
492.258582
 30
0.0
 11
257.670703
 21
495.258582
 31
0.0
  0
LINE
  8
LC-007-005-----0
  6
CONTINUOUS
  5
135
 10
254.670703
 20
495.087009
 30
0.0
 11
257.670703
 21
498.087009
 31
0.0
  0
LINE
  8
LC-007-005-----0
  6
CONTINUOUS
  5
136
 10
253.546635
 20
496.791367
 30
0.0
 11
253.54666
 21
496.791393
 31
0.0
  0
LINE
  8
LC-007-005-----0
  6
CONTINUOUS
  5
137
 10
253.556263
 20
496.800996
 30
0.0
 11
256.480712
 21
499.725445
 31
0.0
  0
LINE
  8
LC-007-005-----0
  6
CONTINUOUS
  5
138
 10
250.766569
 20
496.839729
 30
0.0
 11
250.766658
 21
496.839818
 31
0.0
  0
LINE
  8
LC-007-005-----0
  6
CONTINUOUS
  5
139
 10
250.800011
 20
496.873171
 30
0.0
 11
253.72446
 21
499.79762
 31
0.0
  0
LINE
  8
LC-007-005-----0
  6
CONTINUOUS
  5
13A
 10
247.986504
 20
496.888091
 30
0.0
 11
247.986656
 21
496.888243
 31
0.0
  0
LINE
  8
LC-007-005-----0
  6
CONTINUOUS
  5
13B
 10
248.043759
 20
496.945346
 30
0.0
 11
250.968208
 21
499.869795
 31
0.0
  0
LINE
  8
LC-007-005-----0
  6
CONTINUOUS
  5
13C
 10
245.206438
 20
496.936452
 30
0.0
 11
245.206653
 21
496.936667
 31
0.0
  0
LINE
  8
LC-007-005-----0
  6
CONTINUOUS
  5
13D
 10
245.287507
 20
497.017521
 30
0.0
 11
248.211956
 21
499.94197
 31
0.0
  0
LINE
  8
LC-007-005-----0
  6
CONTINUOUS
  5
13E
 10
242.426373
 20
496.984814
 30
0.0
 11
242.426651
 21
496.985092
 31
0.0
  0
LINE
  8
LC-007-005-----0
  6
CONTINUOUS
  5
13F
 10
242.531255
 20
497.089696
 30
0.0
 11
245.455704
 21
500.014145
 31
0.0
  0
LINE
  8
LC-007-005-----0
  6
CONTINUOUS
  5
140
 10
239.646307
 20
497.033175
 30
0.0
 11
239.646649
 21
497.033517
 31
0.0
  0
LINE
  8
LC-007-005-----0
  6
CONTINUOUS
  5
141
 10
239.775003
 20
497.161871
 30
0.0
 11
242.699452
 21
500.08632
 31
0.0
  0
LINE
  8
LC-007-005-----0
  6
CONTINUOUS
  5
142
 10
236.866241
 20
497.081537
 30
0.0
 11
236.866646
 21
497.081942
 31
0.0
  0
LINE
  8
LC-007-005-----0
  6
CONTINUOUS
  5
143
 10
237.01875
 20
497.234046
 30
0.0
 11
239.943199
 21
500.158495
 31
0.0
  0
LINE
  8
LC-007-005-----0
  6
CONTINUOUS
  5
144
 10
234.086176
 20
497.129898
 30
0.0
 11
234.086644
 21
497.130367
 31
0.0
  0
LINE
  8
LC-007-005-----0
  6
CONTINUOUS
  5
145
 10
234.262498
 20
497.306221
 30
0.0
 11
237.186947
 21
500.23067
 31
0.0
  0
LINE
  8
LC-007-005-----0
  6
CONTINUOUS
  5
146
 10
231.30611
 20
497.17826
 30
0.0
 11
231.306642
 21
497.178792
 31
0.0
  0
LINE
  8
LC-007-005-----0
  6
CONTINUOUS
  5
147
 10
231.506246
 20
497.378396
 30
0.0
 11
234.430695
 21
500.302845
 31
0.0
  0
LINE
  8
LC-007-005-----0
  6
CONTINUOUS
  5
148
 10
228.526045
 20
497.226622
 30
0.0
 11
228.52664
 21
497.227216
 31
0.0
  0
LINE
  8
LC-007-005-----0
  6
CONTINUOUS
  5
149
 10
228.749994
 20
497.450571
 30
0.0
 11
231.674443
 21
500.37502
 31
0.0
  0
LINE
  8
LC-007-005-----0
  6
CONTINUOUS
  5
14A
 10
225.745979
 20
497.274983
 30
0.0
 11
225.746637
 21
497.275641
 31
0.0
  0
LINE
  8
LC-007-005-----0
  6
CONTINUOUS
  5
14B
 10
225.949829
 20
497.478833
 30
0.0
 11
228.918191
 21
500.447195
 31
0.0
  0
LINE
  8
LC-007-005-----0
  6
CONTINUOUS
  5
14C
 10
222.965914
 20
497.323345
 30
0.0
 11
222.966635
 21
497.324066
 31
0.0
  0
LINE
  8
LC-007-005-----0
  6
CONTINUOUS
  5
14D
 10
223.121402
 20
497.478833
 30
0.0
 11
226.124171
 21
500.481602
 31
0.0
  0
LINE
  8
LC-007-005-----0
  6
CONTINUOUS
  5
14E
 10
220.185848
 20
497.371706
 30
0.0
 11
220.186633
 21
497.372491
 31
0.0
  0
LINE
  8
LC-007-005-----0
  6
CONTINUOUS
  5
14F
 10
220.292975
 20
497.478833
 30
0.0
 11
223.295135
 21
500.480993
 31
0.0
  0
LINE
  8
LC-007-005-----0
  6
CONTINUOUS
  5
150
 10
217.405783
 20
497.420068
 30
0.0
 11
217.40663
 21
497.420916
 31
0.0
  0
LINE
  8
LC-007-005-----0
  6
CONTINUOUS
  5
151
 10
217.464548
 20
497.478833
 30
0.0
 11
220.4661
 21
500.480385
 31
0.0
  0
LINE
  8
LC-007-005-----0
  6
CONTINUOUS
  5
152
 10
214.625717
 20
497.46843
 30
0.0
 11
214.626628
 21
497.469341
 31
0.0
  0
LINE
  8
LC-007-005-----0
  6
CONTINUOUS
  5
153
 10
214.636121
 20
497.478833
 30
0.0
 11
219.670591
 21
502.513304
 31
0.0
  0
LINE
  8
LC-007-005-----0
  6
CONTINUOUS
  5
154
 10
210.882099
 20
496.553239
 30
0.0
 11
219.670591
 21
505.341731
 31
0.0
  0
LINE
  8
LC-002-002-----0
  6
CONTINUOUS
  5
155
 10
216.670591
 20
512.479149
 30
0.0
 11
216.670591
 21
515.47961
 31
0.0
  0
LINE
  8
LC-007-005-----0
  6
CONTINUOUS
  5
156
 10
208.103465
 20
496.603031
 30
0.0
 11
209.479957
 21
497.979524
 31
0.0
  0
LINE
  8
LC-002-002-----0
  6
CONTINUOUS
  5
157
 10
218.670591
 20
512.480214
 30
0.0
 11
219.670591
 21
512.480214
 31
0.0
  0
LINE
  8
LC-007-005-----0
  6
CONTINUOUS
  5
158
 10
212.170214
 20
500.669781
 30
0.0
 11
219.670591
 21
508.170158
 31
0.0
  0
LINE
  8
LC-007-005-----0
  6
CONTINUOUS
  5
159
 10
205.892536
 20
497.22053
 30
0.0
 11
207.170214
 21
498.498208
 31
0.0
  0
LINE
  8
LC-002-002-----0
  6
CONTINUOUS
  5
15A
 10
307.721227
 20
512.479524
 30
0.0
 11
307.721227
 21
515.479524
 31
0.0
  0
LINE
  8
LC-002-002-----0
  6
CONTINUOUS
  5
15B
 10
307.721227
 20
515.479524
 30
0.0
 11
312.670716
 21
515.479524
 31
0.0
  0
LINE
  8
LC-007-005-----0
  6
CONTINUOUS
  5
15C
 10
212.170214
 20
503.498208
 30
0.0
 11
219.670591
 21
510.998585
 31
0.0
  0
LINE
  8
LC-007-005-----0
  6
CONTINUOUS
  5
15D
 10
203.670182
 20
497.826603
 30
0.0
 11
207.170214
 21
501.326635
 31
0.0
  0
LINE
  8
LC-007-005-----0
  6
CONTINUOUS
  5
15E
 10
212.170214
 20
506.326635
 30
0.0
 11
218.323109
 21
512.47953
 31
0.0
  0
LINE
  8
LC-007-005-----0
  6
CONTINUOUS
  5
15F
 10
218.323793
 20
512.480214
 30
0.0
 11
218.670591
 21
512.827012
 31
0.0
  0
LINE
  8
LC-007-005-----0
  6
CONTINUOUS
  5
160
 10
203.670182
 20
500.65503
 30
0.0
 11
207.170214
 21
504.155062
 31
0.0
  0
LINE
  8
LC-007-005-----0
  6
CONTINUOUS
  5
161
 10
212.170214
 20
509.155062
 30
0.0
 11
213.995366
 21
510.980214
 31
0.0
  0
LINE
  8
LC-007-005-----0
  6
CONTINUOUS
  5
162
 10
216.670591
 20
513.655439
 30
0.0
 11
218.494762
 21
515.47961
 31
0.0
  0
LINE
  8
LC-007-005-----0
  6
CONTINUOUS
  5
163
 10
203.670182
 20
503.483457
 30
0.0
 11
207.170214
 21
506.983489
 31
0.0
  0
LINE
  8
LC-007-005-----0
  6
CONTINUOUS
  5
164
 10
212.170214
 20
511.983489
 30
0.0
 11
212.666248
 21
512.479524
 31
0.0
  0
LINE
  8
LC-007-005-----0
  6
CONTINUOUS
  5
165
 10
202.338512
 20
504.980214
 30
0.0
 11
207.170214
 21
509.811916
 31
0.0
  0
LINE
  8
LC-007-005-----0
  6
CONTINUOUS
  5
166
 10
199.510085
 20
504.980214
 30
0.0
 11
202.010085
 21
507.480214
 31
0.0
  0
LINE
  8
LC-007-005-----0
  6
CONTINUOUS
  5
167
 10
203.670703
 20
509.140833
 30
0.0
 11
205.510085
 21
510.980214
 31
0.0
  0
LINE
  8
LC-007-005-----0
  6
CONTINUOUS
  5
168
 10
205.670214
 20
511.140343
 30
0.0
 11
207.009394
 21
512.479524
 31
0.0
  0
LINE
  8
LC-007-005-----0
  6
CONTINUOUS
  5
169
 10
196.681657
 20
504.980214
 30
0.0
 11
199.181657
 21
507.480214
 31
0.0
  0
LINE
  8
LC-007-005-----0
  6
CONTINUOUS
  5
16A
 10
195.261706
 20
506.38869
 30
0.0
 11
196.670182
 21
507.797165
 31
0.0
  0
LINE
  8
LC-007-005-----0
  6
CONTINUOUS
  5
16B
 10
193.64863
 20
507.604041
 30
0.0
 11
196.670182
 21
510.625592
 31
0.0
  0
LINE
  8
LC-007-005-----0
  6
CONTINUOUS
  5
16C
 10
191.482579
 20
508.266417
 30
0.0
 11
194.307438
 21
511.091275
 31
0.0
  0
LINE
  8
LC-007-005-----0
  6
CONTINUOUS
  5
16D
 10
189.316529
 20
508.928794
 30
0.0
 11
192.141273
 21
511.753538
 31
0.0
  0
LINE
  8
LC-007-005-----0
  6
CONTINUOUS
  5
16E
 10
187.150478
 20
509.591171
 30
0.0
 11
189.975109
 21
512.415801
 31
0.0
  0
LINE
  8
LC-007-005-----0
  6
CONTINUOUS
  5
16F
 10
184.984428
 20
510.253547
 30
0.0
 11
187.808945
 21
513.078064
 31
0.0
  0
LINE
  8
LC-007-005-----0
  6
CONTINUOUS
  5
170
 10
182.818377
 20
510.915924
 30
0.0
 11
185.64278
 21
513.740327
 31
0.0
  0
LINE
  8
LC-007-005-----0
  6
CONTINUOUS
  5
171
 10
180.652327
 20
511.5783
 30
0.0
 11
183.476616
 21
514.40259
 31
0.0
  0
LINE
  8
LC-007-005-----0
  6
CONTINUOUS
  5
172
 10
178.486276
 20
512.240677
 30
0.0
 11
181.310452
 21
515.064853
 31
0.0
  0
LINE
  8
LC-007-005-----0
  6
CONTINUOUS
  5
173
 10
176.320226
 20
512.903053
 30
0.0
 11
179.144288
 21
515.727116
 31
0.0
  0
LINE
  8
LC-007-005-----0
  6
CONTINUOUS
  5
174
 10
174.154175
 20
513.56543
 30
0.0
 11
176.978123
 21
516.389378
 31
0.0
  0
LINE
  8
LC-007-005-----0
  6
CONTINUOUS
  5
175
 10
171.45755
 20
513.697232
 30
0.0
 11
174.811959
 21
517.051641
 31
0.0
  0
LINE
  8
LC-007-005-----0
  6
CONTINUOUS
  5
176
 10
168.732777
 20
513.800886
 30
0.0
 11
172.186717
 21
517.254827
 31
0.0
  0
LINE
  8
LC-007-005-----0
  6
CONTINUOUS
  5
177
 10
166.008003
 20
513.90454
 30
0.0
 11
169.449031
 21
517.345567
 31
0.0
  0
LINE
  8
LC-007-005-----0
  6
CONTINUOUS
  5
178
 10
164.670703
 20
515.395667
 30
0.0
 11
166.711344
 21
517.436307
 31
0.0
  0
LINE
  8
LC-007-005-----0
  6
CONTINUOUS
  5
179
 10
303.135687
 20
297.478833
 30
0.0
 11
303.585444
 21
297.92859
 31
0.0
  0
LINE
  8
LC-007-005-----0
  6
CONTINUOUS
  5
17A
 10
301.670703
 20
298.842276
 30
0.0
 11
304.62072
 21
301.792293
 31
0.0
  0
LINE
  8
LC-007-005-----0
  6
CONTINUOUS
  5
17B
 10
301.670703
 20
301.670703
 30
0.0
 11
304.670703
 21
304.670703
 31
0.0
  0
LINE
  8
LC-007-005-----0
  6
CONTINUOUS
  5
17C
 10
301.670703
 20
304.49913
 30
0.0
 11
304.670703
 21
307.49913
 31
0.0
  0
LINE
  8
LC-007-005-----0
  6
CONTINUOUS
  5
17D
 10
301.670703
 20
307.327558
 30
0.0
 11
304.670703
 21
310.327558
 31
0.0
  0
LINE
  8
LC-007-005-----0
  6
CONTINUOUS
  5
17E
 10
301.670703
 20
310.155985
 30
0.0
 11
304.670703
 21
313.155985
 31
0.0
  0
LINE
  8
LC-007-005-----0
  6
CONTINUOUS
  5
17F
 10
301.670703
 20
312.984412
 30
0.0
 11
304.670703
 21
315.984412
 31
0.0
  0
LINE
  8
LC-007-005-----0
  6
CONTINUOUS
  5
180
 10
301.670703
 20
315.812839
 30
0.0
 11
304.670703
 21
318.812839
 31
0.0
  0
LINE
  8
LC-002-002-----0
  6
CONTINUOUS
  5
181
 10
312.670716
 20
515.479524
 30
0.0
 11
312.670716
 21
512.479524
 31
0.0
  0
LINE
  8
LC-007-005-----0
  6
CONTINUOUS
  5
182
 10
301.670703
 20
318.641266
 30
0.0
 11
304.670703
 21
321.641266
 31
0.0
  0
LINE
  8
LC-007-005-----0
  6
CONTINUOUS
  5
183
 10
301.670703
 20
321.469693
 30
0.0
 11
304.670703
 21
324.469693
 31
0.0
  0
LINE
  8
LC-007-005-----0
  6
CONTINUOUS
  5
184
 10
301.670703
 20
324.29812
 30
0.0
 11
304.670703
 21
327.29812
 31
0.0
  0
LINE
  8
LC-007-005-----0
  6
CONTINUOUS
  5
185
 10
301.670703
 20
327.126547
 30
0.0
 11
304.670703
 21
330.126547
 31
0.0
  0
LINE
  8
LC-007-005-----0
  6
CONTINUOUS
  5
186
 10
301.670703
 20
329.954975
 30
0.0
 11
304.670703
 21
332.954975
 31
0.0
  0
LINE
  8
LC-007-005-----0
  6
CONTINUOUS
  5
187
 10
301.670703
 20
332.783402
 30
0.0
 11
304.670703
 21
335.783402
 31
0.0
  0
LINE
  8
LC-007-005-----0
  6
CONTINUOUS
  5
188
 10
301.670703
 20
335.611829
 30
0.0
 11
304.670703
 21
338.611829
 31
0.0
  0
LINE
  8
LC-007-005-----0
  6
CONTINUOUS
  5
189
 10
301.670703
 20
338.440256
 30
0.0
 11
304.670703
 21
341.440256
 31
0.0
  0
LINE
  8
LC-007-005-----0
  6
CONTINUOUS
  5
18A
 10
301.670703
 20
341.268683
 30
0.0
 11
304.670703
 21
344.268683
 31
0.0
  0
LINE
  8
LC-007-005-----0
  6
CONTINUOUS
  5
18B
 10
301.670703
 20
344.09711
 30
0.0
 11
304.670703
 21
347.09711
 31
0.0
  0
LINE
  8
LC-007-005-----0
  6
CONTINUOUS
  5
18C
 10
301.670703
 20
346.925537
 30
0.0
 11
304.670703
 21
349.925537
 31
0.0
  0
LINE
  8
LC-007-005-----0
  6
CONTINUOUS
  5
18D
 10
301.670703
 20
349.753964
 30
0.0
 11
304.670703
 21
352.753964
 31
0.0
  0
LINE
  8
LC-007-005-----0
  6
CONTINUOUS
  5
18E
 10
301.670703
 20
352.582392
 30
0.0
 11
304.670703
 21
355.582392
 31
0.0
  0
LINE
  8
LC-007-005-----0
  6
CONTINUOUS
  5
18F
 10
301.670703
 20
355.410819
 30
0.0
 11
304.670703
 21
358.410819
 31
0.0
  0
LINE
  8
LC-007-005-----0
  6
CONTINUOUS
  5
190
 10
301.670703
 20
358.239246
 30
0.0
 11
304.670703
 21
361.239246
 31
0.0
  0
LINE
  8
LC-007-005-----0
  6
CONTINUOUS
  5
191
 10
301.670703
 20
361.067673
 30
0.0
 11
304.670703
 21
364.067673
 31
0.0
  0
LINE
  8
LC-007-005-----0
  6
CONTINUOUS
  5
192
 10
301.670703
 20
363.8961
 30
0.0
 11
304.670703
 21
366.8961
 31
0.0
  0
LINE
  8
LC-007-005-----0
  6
CONTINUOUS
  5
193
 10
301.670703
 20
366.724527
 30
0.0
 11
304.670703
 21
369.724527
 31
0.0
  0
LINE
  8
LC-007-005-----0
  6
CONTINUOUS
  5
194
 10
301.670703
 20
369.552954
 30
0.0
 11
304.670703
 21
372.552954
 31
0.0
  0
LINE
  8
LC-007-005-----0
  6
CONTINUOUS
  5
195
 10
301.670703
 20
372.381381
 30
0.0
 11
304.670703
 21
375.381381
 31
0.0
  0
LINE
  8
LC-007-005-----0
  6
CONTINUOUS
  5
196
 10
301.670703
 20
375.209809
 30
0.0
 11
304.670703
 21
378.209809
 31
0.0
  0
LINE
  8
LC-007-005-----0
  6
CONTINUOUS
  5
197
 10
301.670703
 20
378.038236
 30
0.0
 11
304.670703
 21
381.038236
 31
0.0
  0
LINE
  8
LC-007-005-----0
  6
CONTINUOUS
  5
198
 10
301.670703
 20
380.866663
 30
0.0
 11
304.670703
 21
383.866663
 31
0.0
  0
LINE
  8
LC-007-005-----0
  6
CONTINUOUS
  5
199
 10
301.670703
 20
383.69509
 30
0.0
 11
304.670703
 21
386.69509
 31
0.0
  0
LINE
  8
LC-007-005-----0
  6
CONTINUOUS
  5
19A
 10
301.670703
 20
386.523517
 30
0.0
 11
304.670703
 21
389.523517
 31
0.0
  0
LINE
  8
LC-002-002-----0
  6
CONTINUOUS
  5
19B
 10
214.959378
 20
510.980214
 30
0.0
 11
214.670703
 21
511.480214
 31
0.0
  0
LINE
  8
LC-002-002-----0
  6
CONTINUOUS
  5
19C
 10
214.670703
 20
511.480214
 30
0.0
 11
214.382028
 21
510.980214
 31
0.0
  0
LINE
  8
LC-007-005-----0
  6
CONTINUOUS
  5
19D
 10
301.670703
 20
389.351944
 30
0.0
 11
304.670703
 21
392.351944
 31
0.0
  0
LINE
  8
LC-002-002-----0
  6
CONTINUOUS
  5
19E
 10
214.382028
 20
510.980214
 30
0.0
 11
213.670214
 21
510.980214
 31
0.0
  0
LINE
  8
LC-002-002-----0
  6
CONTINUOUS
  5
19F
 10
204.670703
 20
511.480214
 30
0.0
 11
204.382028
 21
510.980214
 31
0.0
  0
LINE
  8
LC-002-002-----0
  6
CONTINUOUS
  5
1A0
 10
204.959378
 20
510.980214
 30
0.0
 11
204.670703
 21
511.480214
 31
0.0
  0
LINE
  8
LC-002-002-----0
  6
CONTINUOUS
  5
1A1
 10
204.382028
 20
510.980214
 30
0.0
 11
203.670703
 21
510.980214
 31
0.0
  0
LINE
  8
LC-002-002-----0
  6
CONTINUOUS
  5
1A2
 10
353.671193
 20
510.980214
 30
0.0
 11
354.382028
 21
510.980214
 31
0.0
  0
LINE
  8
LC-007-005-----0
  6
CONTINUOUS
  5
1A3
 10
301.670703
 20
392.180371
 30
0.0
 11
304.670703
 21
395.180371
 31
0.0
  0
LINE
  8
LC-002-002-----0
  6
CONTINUOUS
  5
1A4
 10
207.170214
 20
497.979524
 30
0.0
 11
212.170214
 21
497.979524
 31
0.0
  0
LINE
  8
LC-007-005-----0
  6
CONTINUOUS
  5
1A5
 10
301.670703
 20
395.008798
 30
0.0
 11
304.670703
 21
398.008798
 31
0.0
  0
LINE
  8
LC-002-002-----0
  6
CONTINUOUS
  5
1A6
 10
354.670703
 20
511.480214
 30
0.0
 11
353.671193
 21
511.480214
 31
0.0
  0
LINE
  8
LC-002-002-----0
  6
CONTINUOUS
  5
1A7
 10
344.670703
 20
511.480214
 30
0.0
 11
345.671193
 21
511.480214
 31
0.0
  0
LINE
  8
LC-002-002-----0
  6
CONTINUOUS
  5
1A8
 10
344.670703
 20
511.480214
 30
0.0
 11
343.670703
 21
511.480214
 31
0.0
  0
LINE
  8
LC-007-005-----0
  6
CONTINUOUS
  5
1A9
 10
301.670703
 20
397.837226
 30
0.0
 11
304.670703
 21
400.837226
 31
0.0
  0
LINE
  8
LC-002-002-----0
  6
CONTINUOUS
  5
1AA
 10
362.671225
 20
510.980214
 30
0.0
 11
355.670703
 21
510.980214
 31
0.0
  0
LINE
  8
LC-002-002-----0
  6
CONTINUOUS
  5
1AB
 10
304.670703
 20
496.77256
 30
0.0
 11
304.670703
 21
496.77256
 31
0.0
  0
LINE
  8
LC-002-002-----0
  6
CONTINUOUS
  5
1AC
 10
301.670703
 20
499.695074
 30
0.0
 11
301.770703
 21
499.695074
 31
0.0
  0
LINE
  8
LC-002-002-----0
  6
CONTINUOUS
  5
1AD
 10
343.670703
 20
512.480214
 30
0.0
 11
343.670703
 21
510.980214
 31
0.0
  0
LINE
  8
LC-002-002-----0
  6
CONTINUOUS
  5
1AE
 10
355.670703
 20
510.980214
 30
0.0
 11
355.670703
 21
507.480214
 31
0.0
  0
LINE
  8
LC-002-002-----0
  6
CONTINUOUS
  5
1AF
 10
343.670703
 20
510.980214
 30
0.0
 11
344.382028
 21
510.980214
 31
0.0
  0
LINE
  8
LC-002-002-----0
  6
CONTINUOUS
  5
1B0
 10
355.671225
 20
507.480214
 30
0.0
 11
362.671225
 21
507.480214
 31
0.0
  0
LINE
  8
LC-002-002-----0
  6
CONTINUOUS
  5
1B1
 10
362.671225
 20
507.480214
 30
0.0
 11
362.671225
 21
510.980214
 31
0.0
  0
LINE
  8
LC-002-002-----0
  6
CONTINUOUS
  5
1B2
 10
355.671225
 20
504.980214
 30
0.0
 11
362.671225
 21
504.980214
 31
0.0
  0
LINE
  8
LC-002-002-----0
  6
CONTINUOUS
  5
1B3
 10
362.671225
 20
504.980214
 30
0.0
 11
365.119852
 21
507.428841
 31
0.0
  0
LINE
  8
LC-007-005-----0
  6
CONTINUOUS
  5
1B4
 10
301.670703
 20
400.665653
 30
0.0
 11
304.670703
 21
403.665653
 31
0.0
  0
LINE
  8
LC-002-002-----0
  6
CONTINUOUS
  5
1B5
 10
340.670815
 20
512.480214
 30
0.0
 11
339.670815
 21
512.480214
 31
0.0
  0
LINE
  8
LC-007-005-----0
  6
CONTINUOUS
  5
1B6
 10
301.670703
 20
403.49408
 30
0.0
 11
304.670703
 21
406.49408
 31
0.0
  0
LINE
  8
LC-007-005-----0
  6
CONTINUOUS
  5
1B7
 10
301.670703
 20
406.322507
 30
0.0
 11
304.670703
 21
409.322507
 31
0.0
  0
LINE
  8
LC-007-005-----0
  6
CONTINUOUS
  5
1B8
 10
301.670703
 20
409.150934
 30
0.0
 11
304.670703
 21
412.150934
 31
0.0
  0
LINE
  8
LC-007-005-----0
  6
CONTINUOUS
  5
1B9
 10
301.670703
 20
411.979361
 30
0.0
 11
304.670703
 21
414.979361
 31
0.0
  0
LINE
  8
LC-007-005-----0
  6
CONTINUOUS
  5
1BA
 10
301.670703
 20
414.807788
 30
0.0
 11
304.670703
 21
417.807788
 31
0.0
  0
LINE
  8
LC-007-005-----0
  6
CONTINUOUS
  5
1BB
 10
301.670703
 20
417.636215
 30
0.0
 11
304.670703
 21
420.636215
 31
0.0
  0
LINE
  8
LC-007-005-----0
  6
CONTINUOUS
  5
1BC
 10
301.670703
 20
420.464643
 30
0.0
 11
304.670703
 21
423.464643
 31
0.0
  0
LINE
  8
LC-007-005-----0
  6
CONTINUOUS
  5
1BD
 10
301.670703
 20
423.29307
 30
0.0
 11
304.670703
 21
426.29307
 31
0.0
  0
LINE
  8
LC-007-005-----0
  6
CONTINUOUS
  5
1BE
 10
392.240602
 20
513.862968
 30
0.0
 11
394.535934
 21
516.1583
 31
0.0
  0
LINE
  8
LC-007-005-----0
  6
CONTINUOUS
  5
1BF
 10
301.670703
 20
426.121497
 30
0.0
 11
304.670703
 21
429.121497
 31
0.0
  0
LINE
  8
LC-007-005-----0
  6
CONTINUOUS
  5
1C0
 10
389.300322
 20
513.751116
 30
0.0
 11
392.997699
 21
517.448492
 31
0.0
  0
LINE
  8
LC-007-005-----0
  6
CONTINUOUS
  5
1C1
 10
301.670703
 20
428.949924
 30
0.0
 11
304.670703
 21
431.949924
 31
0.0
  0
LINE
  8
LC-002-002-----0
  6
CONTINUOUS
  5
1C2
 10
212.170214
 20
512.479524
 30
0.0
 11
212.170214
 21
497.979524
 31
0.0
  0
LINE
  8
LC-002-002-----0
  6
CONTINUOUS
  5
1C3
 10
207.170214
 20
512.479524
 30
0.0
 11
207.170214
 21
497.979524
 31
0.0
  0
LINE
  8
LC-002-002-----0
  6
CONTINUOUS
  5
1C4
 10
203.670182
 20
504.980214
 30
0.0
 11
203.670182
 21
497.478833
 31
0.0
  0
LINE
  8
LC-002-002-----0
  6
CONTINUOUS
  5
1C5
 10
215.670703
 20
512.480214
 30
0.0
 11
216.670591
 21
512.480214
 31
0.0
  0
LINE
  8
LC-002-002-----0
  6
CONTINUOUS
  5
1C6
 10
196.670182
 20
510.980214
 30
0.0
 11
194.670703
 21
510.980214
 31
0.0
  0
LINE
  8
LC-007-005-----0
  6
CONTINUOUS
  5
1C7
 10
386.360043
 20
513.639264
 30
0.0
 11
390.07231
 21
517.351531
 31
0.0
  0
LINE
  8
LC-002-002-----0
  6
CONTINUOUS
  5
1C8
 10
344.382028
 20
510.980214
 30
0.0
 11
344.670703
 21
511.480214
 31
0.0
  0
LINE
  8
LC-002-002-----0
  6
CONTINUOUS
  5
1C9
 10
344.670703
 20
511.480214
 30
0.0
 11
344.959378
 21
510.980214
 31
0.0
  0
LINE
  8
LC-002-002-----0
  6
CONTINUOUS
  5
1CA
 10
344.959378
 20
510.980214
 30
0.0
 11
345.671193
 21
510.980214
 31
0.0
  0
LINE
  8
LC-002-002-----0
  6
CONTINUOUS
  5
1CB
 10
345.312274
 20
497.479543
 30
0.0
 11
331.670703
 21
497.479555
 31
0.0
  0
LINE
  8
LC-007-005-----0
  6
CONTINUOUS
  5
1CC
 10
301.670703
 20
431.778351
 30
0.0
 11
304.670703
 21
434.778351
 31
0.0
  0
LINE
  8
LC-007-005-----0
  6
CONTINUOUS
  5
1CD
 10
382.69595
 20
512.803598
 30
0.0
 11
387.146921
 21
517.254569
 31
0.0
  0
LINE
  8
LC-007-005-----0
  6
CONTINUOUS
  5
1CE
 10
301.670703
 20
434.606778
 30
0.0
 11
304.670703
 21
437.606778
 31
0.0
  0
LINE
  8
LC-007-005-----0
  6
CONTINUOUS
  5
1CF
 10
378.621586
 20
511.557661
 30
0.0
 11
383.933309
 21
516.869383
 31
0.0
  0
LINE
  8
LC-007-005-----0
  6
CONTINUOUS
  5
1D0
 10
301.670703
 20
437.435205
 30
0.0
 11
304.670703
 21
440.435205
 31
0.0
  0
LINE
  8
LC-007-005-----0
  6
CONTINUOUS
  5
1D1
 10
374.547221
 20
510.311723
 30
0.0
 11
379.859346
 21
515.623848
 31
0.0
  0
LINE
  8
LC-007-005-----0
  6
CONTINUOUS
  5
1D2
 10
301.670703
 20
440.263632
 30
0.0
 11
304.670703
 21
443.263632
 31
0.0
  0
LINE
  8
LC-007-005-----0
  6
CONTINUOUS
  5
1D3
 10
370.472856
 20
509.065786
 30
0.0
 11
375.785384
 21
514.378313
 31
0.0
  0
LINE
  8
LC-007-005-----0
  6
CONTINUOUS
  5
1D4
 10
301.670703
 20
443.09206
 30
0.0
 11
304.670703
 21
446.09206
 31
0.0
  0
LINE
  8
LC-007-005-----0
  6
CONTINUOUS
  5
1D5
 10
366.398492
 20
507.819848
 30
0.0
 11
371.711421
 21
513.132777
 31
0.0
  0
LINE
  8
LC-007-005-----0
  6
CONTINUOUS
  5
1D6
 10
301.670703
 20
445.920487
 30
0.0
 11
304.670703
 21
448.920487
 31
0.0
  0
LINE
  8
LC-007-005-----0
  6
CONTINUOUS
  5
1D7
 10
352.699217
 20
496.949
 30
0.0
 11
355.671225
 21
499.921008
 31
0.0
  0
LINE
  8
LC-007-005-----0
  6
CONTINUOUS
  5
1D8
 10
360.730431
 20
504.980214
 30
0.0
 11
367.637459
 21
511.887242
 31
0.0
  0
LINE
  8
LC-007-005-----0
  6
CONTINUOUS
  5
1D9
 10
301.670703
 20
448.748914
 30
0.0
 11
304.670703
 21
451.748914
 31
0.0
  0
LINE
  8
LC-007-005-----0
  6
CONTINUOUS
  5
1DA
 10
349.40487
 20
496.483081
 30
0.0
 11
350.901313
 21
497.979524
 31
0.0
  0
LINE
  8
LC-007-005-----0
  6
CONTINUOUS
  5
1DB
 10
352.171193
 20
499.249403
 30
0.0
 11
355.671225
 21
502.749436
 31
0.0
  0
LINE
  8
LC-007-005-----0
  6
CONTINUOUS
  5
1DC
 10
357.902003
 20
504.980214
 30
0.0
 11
360.402003
 21
507.480214
 31
0.0
  0
LINE
  8
LC-007-005-----0
  6
CONTINUOUS
  5
1DD
 10
362.671225
 20
509.749436
 30
0.0
 11
363.902003
 21
510.980214
 31
0.0
  0
LINE
  8
LC-007-005-----0
  6
CONTINUOUS
  5
1DE
 10
301.670703
 20
451.577341
 30
0.0
 11
304.670703
 21
454.577341
 31
0.0
  0
LINE
  8
LC-007-005-----0
  6
CONTINUOUS
  5
1DF
 10
346.950203
 20
496.856841
 30
0.0
 11
348.072886
 21
497.979524
 31
0.0
  0
LINE
  8
LC-007-005-----0
  6
CONTINUOUS
  5
1E0
 10
352.171193
 20
502.07783
 30
0.0
 11
357.573576
 21
507.480214
 31
0.0
  0
LINE
  8
LC-007-005-----0
  6
CONTINUOUS
  5
1E1
 10
301.670703
 20
454.405768
 30
0.0
 11
304.670703
 21
457.405768
 31
0.0
  0
LINE
  8
LC-002-002-----0
  6
CONTINUOUS
  5
1E2
 10
219.670591
 20
512.480214
 30
0.0
 11
219.670591
 21
500.480214
 31
0.0
  0
LINE
  8
LC-002-002-----0
  6
CONTINUOUS
  5
1E3
 10
354.670703
 20
511.480214
 30
0.0
 11
354.959378
 21
510.980214
 31
0.0
  0
LINE
  8
LC-002-002-----0
  6
CONTINUOUS
  5
1E4
 10
354.382028
 20
510.980214
 30
0.0
 11
354.670703
 21
511.480214
 31
0.0
  0
LINE
  8
LC-002-002-----0
  6
CONTINUOUS
  5
1E5
 10
354.959378
 20
510.980214
 30
0.0
 11
355.670703
 21
510.980214
 31
0.0
  0
LINE
  8
LC-002-002-----0
  6
CONTINUOUS
  5
1E6
 10
352.171193
 20
497.979524
 30
0.0
 11
347.171193
 21
497.979524
 31
0.0
  0
LINE
  8
LC-002-002-----0
  6
CONTINUOUS
  5
1E7
 10
347.171193
 20
512.479524
 30
0.0
 11
347.171193
 21
497.979524
 31
0.0
  0
LINE
  8
LC-002-002-----0
  6
CONTINUOUS
  5
1E8
 10
352.171193
 20
512.479524
 30
0.0
 11
352.171193
 21
497.979524
 31
0.0
  0
LINE
  8
LC-002-002-----0
  6
CONTINUOUS
  5
1E9
 10
355.671225
 20
504.980214
 30
0.0
 11
355.671225
 21
497.478833
 31
0.0
  0
LINE
  8
LC-002-002-----0
  6
CONTINUOUS
  5
1EA
 10
343.670703
 20
512.480214
 30
0.0
 11
342.670815
 21
512.480214
 31
0.0
  0
LINE
  8
LC-002-002-----0
  6
CONTINUOUS
  5
1EB
 10
362.671225
 20
510.980214
 30
0.0
 11
364.670703
 21
510.980214
 31
0.0
  0
LINE
  8
LC-002-002-----0
  6
CONTINUOUS
  5
1EC
 10
339.670815
 20
512.480214
 30
0.0
 11
339.670815
 21
500.480214
 31
0.0
  0
LINE
  8
LC-002-002-----0
  6
CONTINUOUS
  5
1ED
 10
340.670815
 20
512.480214
 30
0.0
 11
342.670815
 21
512.480214
 31
0.0
  0
LINE
  8
LC-007-005-----0
  6
CONTINUOUS
  5
1EE
 10
344.733679
 20
497.468743
 30
0.0
 11
344.734427
 21
497.469492
 31
0.0
  0
LINE
  8
LC-007-005-----0
  6
CONTINUOUS
  5
1EF
 10
344.744479
 20
497.479544
 30
0.0
 11
347.171193
 21
499.906257
 31
0.0
  0
LINE
  8
LC-007-005-----0
  6
CONTINUOUS
  5
1F0
 10
352.171193
 20
504.906257
 30
0.0
 11
355.670703
 21
508.405768
 31
0.0
  0
LINE
  8
LC-007-005-----0
  6
CONTINUOUS
  5
1F1
 10
301.670703
 20
457.234195
 30
0.0
 11
304.670703
 21
460.234195
 31
0.0
  0
LINE
  8
LC-007-005-----0
  6
CONTINUOUS
  5
1F2
 10
341.855182
 20
497.418673
 30
0.0
 11
341.85593
 21
497.419422
 31
0.0
  0
LINE
  8
LC-007-005-----0
  6
CONTINUOUS
  5
1F3
 10
341.916054
 20
497.479546
 30
0.0
 11
347.171193
 21
502.734685
 31
0.0
  0
LINE
  8
LC-007-005-----0
  6
CONTINUOUS
  5
1F4
 10
352.171193
 20
507.734685
 30
0.0
 11
355.416722
 21
510.980214
 31
0.0
  0
LINE
  8
LC-007-005-----0
  6
CONTINUOUS
  5
1F5
 10
301.670703
 20
460.062622
 30
0.0
 11
304.670703
 21
463.062622
 31
0.0
  0
LINE
  8
LC-007-005-----0
  6
CONTINUOUS
  5
1F6
 10
338.976685
 20
497.368604
 30
0.0
 11
338.977433
 21
497.369352
 31
0.0
  0
LINE
  8
LC-007-005-----0
  6
CONTINUOUS
  5
1F7
 10
339.087629
 20
497.479548
 30
0.0
 11
347.171193
 21
505.563112
 31
0.0
  0
LINE
  8
LC-007-005-----0
  6
CONTINUOUS
  5
1F8
 10
352.171193
 20
510.563112
 30
0.0
 11
353.671193
 21
512.063112
 31
0.0
  0
LINE
  8
LC-007-005-----0
  6
CONTINUOUS
  5
1F9
 10
301.670703
 20
462.891049
 30
0.0
 11
304.670703
 21
465.891049
 31
0.0
  0
LINE
  8
LC-007-005-----0
  6
CONTINUOUS
  5
1FA
 10
336.098188
 20
497.318534
 30
0.0
 11
336.098936
 21
497.319282
 31
0.0
  0
LINE
  8
LC-007-005-----0
  6
CONTINUOUS
  5
1FB
 10
336.259205
 20
497.479551
 30
0.0
 11
339.251175
 21
500.471521
 31
0.0
  0
LINE
  8
LC-007-005-----0
  6
CONTINUOUS
  5
1FC
 10
339.2512
 20
500.471546
 30
0.0
 11
339.259868
 21
500.480214
 31
0.0
  0
LINE
  8
LC-007-005-----0
  6
CONTINUOUS
  5
1FD
 10
339.670815
 20
500.891162
 30
0.0
 11
347.171193
 21
508.391539
 31
0.0
  0
LINE
  8
LC-007-005-----0
  6
CONTINUOUS
  5
1FE
 10
301.670703
 20
465.719477
 30
0.0
 11
304.670703
 21
468.719477
 31
0.0
  0
LINE
  8
LC-007-005-----0
  6
CONTINUOUS
  5
1FF
 10
333.219691
 20
497.268464
 30
0.0
 11
333.220439
 21
497.269212
 31
0.0
  0
LINE
  8
LC-002-002-----0
  6
CONTINUOUS
  5
200
 10
331.670703
 20
500.480214
 30
0.0
 11
301.770703
 21
499.695074
 31
0.0
  0
LINE
  8
LC-007-005-----0
  6
CONTINUOUS
  5
201
 10
333.43078
 20
497.479553
 30
0.0
 11
336.362914
 21
500.411687
 31
0.0
  0
LINE
  8
LC-002-002-----0
  6
CONTINUOUS
  5
202
 10
331.670703
 20
497.479555
 30
0.0
 11
304.670713
 21
496.772604
 31
0.0
  0
LINE
  8
LC-007-005-----0
  6
CONTINUOUS
  5
203
 10
336.3631
 20
500.411873
 30
0.0
 11
336.431441
 21
500.480214
 31
0.0
  0
LINE
  8
LC-007-005-----0
  6
CONTINUOUS
  5
204
 10
339.670815
 20
503.719589
 30
0.0
 11
347.171193
 21
511.219966
 31
0.0
  0
LINE
  8
LC-002-002-----0
  6
CONTINUOUS
  5
205
 10
227.592192
 20
500.481917
 30
0.0
 11
219.670677
 21
500.480214
 31
0.0
  0
LINE
  8
LC-002-002-----0
  6
CONTINUOUS
  5
206
 10
227.670703
 20
497.478833
 30
0.0
 11
254.670703
 21
496.771813
 31
0.0
  0
LINE
  8
LC-007-005-----0
  6
CONTINUOUS
  5
207
 10
301.670703
 20
468.547904
 30
0.0
 11
304.670703
 21
471.547904
 31
0.0
  0
LINE
  8
LC-007-005-----0
  6
CONTINUOUS
  5
208
 10
330.341194
 20
497.218394
 30
0.0
 11
330.341941
 21
497.219142
 31
0.0
  0
LINE
  8
LC-007-005-----0
  6
CONTINUOUS
  5
209
 10
330.573629
 20
497.45083
 30
0.0
 11
333.474654
 21
500.351854
 31
0.0
  0
LINE
  8
LC-007-005-----0
  6
CONTINUOUS
  5
20A
 10
333.475
 20
500.352201
 30
0.0
 11
333.603014
 21
500.480214
 31
0.0
  0
LINE
  8
LC-007-005-----0
  6
CONTINUOUS
  5
20B
 10
339.670815
 20
506.548016
 30
0.0
 11
344.103014
 21
510.980214
 31
0.0
  0
LINE
  8
LC-007-005-----0
  6
CONTINUOUS
  5
20C
 10
301.670703
 20
471.376331
 30
0.0
 11
304.670703
 21
474.376331
 31
0.0
  0
LINE
  8
LC-007-005-----0
  6
CONTINUOUS
  5
20D
 10
327.462697
 20
497.168324
 30
0.0
 11
327.463444
 21
497.169072
 31
0.0
  0
LINE
  8
LC-007-005-----0
  6
CONTINUOUS
  5
20E
 10
327.669153
 20
497.374781
 30
0.0
 11
330.586393
 21
500.292021
 31
0.0
  0
LINE
  8
LC-007-005-----0
  6
CONTINUOUS
  5
20F
 10
330.5869
 20
500.292528
 30
0.0
 11
330.750789
 21
500.456417
 31
0.0
  0
LINE
  8
LC-007-005-----0
  6
CONTINUOUS
  5
210
 10
339.670815
 20
509.376443
 30
0.0
 11
342.774586
 21
512.480214
 31
0.0
  0
LINE
  8
LC-007-005-----0
  6
CONTINUOUS
  5
211
 10
301.670703
 20
474.204758
 30
0.0
 11
304.670703
 21
477.204758
 31
0.0
  0
LINE
  8
LC-007-005-----0
  6
CONTINUOUS
  5
212
 10
324.5842
 20
497.118254
 30
0.0
 11
324.584947
 21
497.119002
 31
0.0
  0
LINE
  8
LC-007-005-----0
  6
CONTINUOUS
  5
213
 10
324.764677
 20
497.298732
 30
0.0
 11
327.698133
 21
500.232188
 31
0.0
  0
LINE
  8
LC-007-005-----0
  6
CONTINUOUS
  5
214
 10
327.698801
 20
500.232855
 30
0.0
 11
327.846051
 21
500.380106
 31
0.0
  0
LINE
  8
LC-007-005-----0
  6
CONTINUOUS
  5
215
 10
339.670815
 20
512.20487
 30
0.0
 11
339.946159
 21
512.480214
 31
0.0
  0
LINE
  8
LC-007-005-----0
  6
CONTINUOUS
  5
216
 10
301.670703
 20
477.033185
 30
0.0
 11
304.670703
 21
480.033185
 31
0.0
  0
LINE
  8
LC-007-005-----0
  6
CONTINUOUS
  5
217
 10
321.705703
 20
497.068184
 30
0.0
 11
321.70645
 21
497.068932
 31
0.0
  0
LINE
  8
LC-007-005-----0
  6
CONTINUOUS
  5
218
 10
321.860201
 20
497.222682
 30
0.0
 11
324.809873
 21
500.172354
 31
0.0
  0
LINE
  8
LC-007-005-----0
  6
CONTINUOUS
  5
219
 10
324.810701
 20
500.173183
 30
0.0
 11
324.941313
 21
500.303795
 31
0.0
  0
LINE
  8
LC-007-005-----0
  6
CONTINUOUS
  5
21A
 10
301.670703
 20
479.861612
 30
0.0
 11
304.670703
 21
482.861612
 31
0.0
  0
LINE
  8
LC-007-005-----0
  6
CONTINUOUS
  5
21B
 10
318.827206
 20
497.018115
 30
0.0
 11
318.827953
 21
497.018862
 31
0.0
  0
LINE
  8
LC-007-005-----0
  6
CONTINUOUS
  5
21C
 10
318.955725
 20
497.146633
 30
0.0
 11
321.921612
 21
500.112521
 31
0.0
  0
LINE
  8
LC-007-005-----0
  6
CONTINUOUS
  5
21D
 10
321.922601
 20
500.11351
 30
0.0
 11
322.036575
 21
500.227484
 31
0.0
  0
LINE
  8
LC-007-005-----0
  6
CONTINUOUS
  5
21E
 10
301.670703
 20
482.690039
 30
0.0
 11
304.670703
 21
485.690039
 31
0.0
  0
LINE
  8
LC-007-005-----0
  6
CONTINUOUS
  5
21F
 10
315.948709
 20
496.968045
 30
0.0
 11
315.949456
 21
496.968792
 31
0.0
  0
LINE
  8
LC-007-005-----0
  6
CONTINUOUS
  5
220
 10
316.051248
 20
497.070584
 30
0.0
 11
319.033352
 21
500.052688
 31
0.0
  0
LINE
  8
LC-007-005-----0
  6
CONTINUOUS
  5
221
 10
319.034501
 20
500.053837
 30
0.0
 11
319.131837
 21
500.151173
 31
0.0
  0
LINE
  8
LC-007-005-----0
  6
CONTINUOUS
  5
222
 10
301.670703
 20
485.518466
 30
0.0
 11
304.670703
 21
488.518466
 31
0.0
  0
LINE
  8
LC-007-005-----0
  6
CONTINUOUS
  5
223
 10
313.070212
 20
496.917975
 30
0.0
 11
313.070959
 21
496.918722
 31
0.0
  0
LINE
  8
LC-007-005-----0
  6
CONTINUOUS
  5
224
 10
313.146772
 20
496.994535
 30
0.0
 11
316.145091
 21
499.992854
 31
0.0
  0
LINE
  8
LC-007-005-----0
  6
CONTINUOUS
  5
225
 10
316.146402
 20
499.994165
 30
0.0
 11
316.227098
 21
500.074862
 31
0.0
  0
LINE
  8
LC-007-005-----0
  6
CONTINUOUS
  5
226
 10
301.670703
 20
488.346894
 30
0.0
 11
304.670703
 21
491.346894
 31
0.0
  0
LINE
  8
LC-007-005-----0
  6
CONTINUOUS
  5
227
 10
310.191715
 20
496.867905
 30
0.0
 11
310.192461
 21
496.868652
 31
0.0
  0
LINE
  8
LC-007-005-----0
  6
CONTINUOUS
  5
228
 10
310.242296
 20
496.918486
 30
0.0
 11
313.256831
 21
499.933021
 31
0.0
  0
LINE
  8
LC-007-005-----0
  6
CONTINUOUS
  5
229
 10
313.258302
 20
499.934492
 30
0.0
 11
313.32236
 21
499.998551
 31
0.0
  0
LINE
  8
LC-007-005-----0
  6
CONTINUOUS
  5
22A
 10
301.670703
 20
491.175321
 30
0.0
 11
304.670703
 21
494.175321
 31
0.0
  0
LINE
  8
LC-007-005-----0
  6
CONTINUOUS
  5
22B
 10
307.313218
 20
496.817835
 30
0.0
 11
307.313964
 21
496.818582
 31
0.0
  0
LINE
  8
LC-007-005-----0
  6
CONTINUOUS
  5
22C
 10
307.33782
 20
496.842437
 30
0.0
 11
310.36857
 21
499.873188
 31
0.0
  0
LINE
  8
LC-007-005-----0
  6
CONTINUOUS
  5
22D
 10
310.370202
 20
499.874819
 30
0.0
 11
310.417622
 21
499.922239
 31
0.0
  0
LINE
  8
LC-007-005-----0
  6
CONTINUOUS
  5
22E
 10
301.670703
 20
494.003748
 30
0.0
 11
307.48031
 21
499.813355
 31
0.0
  0
LINE
  8
LC-007-005-----0
  6
CONTINUOUS
  5
22F
 10
307.482102
 20
499.815147
 30
0.0
 11
307.512884
 21
499.845928
 31
0.0
  0
LINE
  8
LC-007-005-----0
  6
CONTINUOUS
  5
230
 10
301.670703
 20
496.832175
 30
0.0
 11
304.59205
 21
499.753521
 31
0.0
  0
LINE
  8
LC-007-005-----0
  6
CONTINUOUS
  5
231
 10
304.594002
 20
499.755474
 30
0.0
 11
304.608146
 21
499.769617
 31
0.0
  0
LINE
  8
LC-007-005-----0
  6
CONTINUOUS
  5
232
 10
301.670703
 20
499.660602
 30
0.0
 11
301.705903
 21
499.695801
 31
0.0
  0
ENDSEC
  0
EOF
