  0
SECTION
  2
HEADER
  9
$ACADVER
  1
AC1009
  9
$INSBASE
 10
1214.085971
 20
542.025
 30
0.0
  9
$EXTMIN
 10
1214.085971
 20
542.025
 30
0.0
  9
$EXTMAX
 10
2054.085971
 20
1136.025
 30
0.0
  9
$LIMMIN
 10
1214.085971
 20
542.025
  9
$LIMMAX
 10
2054.085971
 20
1136.025
  9
$ORTHOMODE
 70
     0
  9
$REGENMODE
 70
     1
  9
$FILLMODE
 70
     1
  9
$QTEXTMODE
 70
     0
  9
$MIRRTEXT
 70
     1
  9
$DRAGMODE
 70
     2
  9
$LTSCALE
 40
2.0
  9
$OSMODE
 70
     0
  9
$ATTMODE
 70
     1
  9
$TEXTSIZE
 40
0.2
  9
$TRACEWID
 40
0.05
  9
$TEXTSTYLE
  7
STANDARD
  9
$CLAYER
  8
0
  9
$CELTYPE
  6
BYLAYER
  9
$CECOLOR
 62
     7
  9
$DIMSCALE
 40
2.0
  9
$DIMASZ
 40
3.5
  9
$DIMEXO
 40
0.0625
  9
$DIMDLI
 40
0.38
  9
$DIMRND
 40
0.0
  9
$DIMDLE
 40
0.0
  9
$DIMEXE
 40
0.18
  9
$DIMTP
 40
0.0
  9
$DIMTM
 40
0.0
  9
$DIMTXT
 40
3.5
  9
$DIMCEN
 40
0.09
  9
$DIMTSZ
 40
0.0
  9
$DIMTOL
 70
     0
  9
$DIMLIM
 70
     0
  9
$DIMTIH
 70
     1
  9
$DIMTOH
 70
     1
  9
$DIMSE1
 70
     0
  9
$DIMSE2
 70
     0
  9
$DIMTAD
 70
     1
  9
$DIMZIN
 70
     0
  9
$DIMBLK
  1

  9
$DIMASO
 70
     1
  9
$DIMSHO
 70
     1
  9
$DIMPOST
  1

  9
$DIMAPOST
  1

  9
$DIMALT
 70
     0
  9
$DIMALTD
 70
     2
  9
$DIMALTF
 40
25.4
  9
$DIMLFAC
 40
1.0
  9
$DIMTOFL
 70
     0
  9
$DIMTVP
 40
0.0
  9
$DIMTIX
 70
     0
  9
$DIMSOXD
 70
     0
  9
$DIMSAH
 70
     0
  9
$DIMBLK1
  1

  9
$DIMBLK2
  1

  9
$DIMSTYLE
  2
STANDARD
  9
$DIMCLRD
 70
     0
  9
$DIMCLRE
 70
     0
  9
$DIMCLRT
 70
     0
  9
$DIMTFAC
 40
1.0
  9
$DIMGAP
 40
0.09
  9
$LUNITS
 70
     2
  9
$LUPREC
 70
     2
  9
$AXISMODE
 70
     0
  9
$AXISUNIT
 10
0.0
 20
0.0
  9
$SKETCHINC
 40
0.1
  9
$FILLETRAD
 40
0.0
  9
$AUNITS
 70
     0
  9
$AUPREC
 70
     0
  9
$MENU
  1
acad
  9
$ELEVATION
 40
0.0
  9
$PELEVATION
 40
0.0
  9
$THICKNESS
 40
0.0
  9
$LIMCHECK
 70
     0
  9
$BLIPMODE
 70
     1
  9
$CHAMFERA
 40
0.0
  9
$CHAMFERB
 40
0.0
  9
$SKPOLY
 70
     0
  9
$TDCREATE
 40
0.000000000
  9
$TDUPDATE
 40
0.000000000
  9
$TDINDWG
 40
0.0000000000
  9
$TDUSRTIMER
 40
0.0000000000
  9
$USRTIMER
 70
     1
  9
$ANGBASE
 50
0.0
  9
$ANGDIR
 70
     0
  9
$PDMODE
 70
     0
  9
$PDSIZE
 40
0.0
  9
$PLINEWID
 40
0.0
  9
$COORDS
 70
     0
  9
$SPLFRAME
 70
     0
  9
$SPLINETYPE
 70
     6
  9
$SPLINESEGS
 70
     8
  9
$ATTDIA
 70
     0
  9
$ATTREQ
 70
     1
  9
$HANDLING
 70
     1
  9
$HANDSEED
  5
125
  9
$SURFTAB1
 70
     6
  9
$SURFTAB2
 70
     6
  9
$SURFTYPE
 70
     6
  9
$SURFU
 70
     6
  9
$SURFV
 70
     6
  9
$UCSNAME
  2

  9
$UCSORG
 10
0.0
 20
0.0
 30
0.0
  9
$UCSXDIR
 10
1.0
 20
0.0
 30
0.0
  9
$UCSYDIR
 10
0.0
 20
1.0
 30
0.0
  9
$PUCSNAME
  2

  9
$PUCSORG
 10
0.0
 20
0.0
 30
0.0
  9
$PUCSXDIR
 10
1.0
 20
0.0
 30
0.0
  9
$PUCSYDIR
 10
0.0
 20
1.0
 30
0.0
  9
$USERI1
 70
     0
  9
$USERI2
 70
     0
  9
$USERI3
 70
     0
  9
$USERI4
 70
     0
  9
$USERI5
 70
     0
  9
$USERR1
 40
0.0
  9
$USERR2
 40
0.0
  9
$USERR3
 40
0.0
  9
$USERR4
 40
0.0
  9
$USERR5
 40
0.0
  9
$WORLDVIEW
 70
     1
  9
$SHADEDGE
 70
     3
  9
$SHADEDIF
 70
    70
  9
$TILEMODE
 70
     1
  9
$MAXACTVP
 70
    16
  9
$PINSBASE
 10
0.0
 20
0.0
 30
0.0
  9
$PLIMCHECK
 70
     0
  9
$PEXTMIN
 10
1.000000E+20
 20
1.000000E+20
 30
1.000000E+20
  9
$PEXTMAX
 10
-1.000000E+20
 20
-1.000000E+20
 30
-1.000000E+20
  9
$PLIMMIN
 10
1214.085971
 20
542.025
  9
$PLIMMAX
 10
2054.085971
 20
1136.025
  9
$UNITMODE
 70
     0
  9
$VISRETAIN
 70
     0
  9
$PLINEGEN
 70
     1
  9
$PSLTSCALE
 70
     0
  9
$TREEDEPTH
 70
  3020
  9
$DWGCODEPAGE
  3
dos850
  0
ENDSEC
  0
SECTION
  2
TABLES
  0
TABLE
  2
VPORT
 70
     1
  0
VPORT
  2
*ACTIVE
 70
     0
 10
0.0
 20
0.0
 11
1.0
 21
1.0
 12
420.0
 22
297.0
 13
0.0
 23
0.0
 14
1.0
 24
1.0
 15
0.0
 25
0.0
 16
0.0
 26
0.0
 36
1.0
 17
1214.085971
 27
542.025
 37
0.0
 40
594.0
 41
1.604229
 42
50.0
 43
0.0
 44
0.0
 50
0.0
 51
0.0
 71
     0
 72
   100
 73
     1
 74
     1
 75
     0
 76
     0
 77
     0
 78
     0
  0
ENDTAB
  0
TABLE
  2
LTYPE
 70
     2
  0
LTYPE
  2
CONTINUOUS
 70
    64
  3
Solid line
 72
    65
 73
     0
 40
0.0
  0
LTYPE
  2
DASHDOT
 70
    64
  3
__ . __ . __ . __ . __
 72
    65
 73
     4
 40
7.5
 49
5.0
 49
-1.25
 49
0.0
 49
-1.25
  0
ENDTAB
  0
TABLE
  2
LAYER
 70
     8
  0
LAYER
  2
0
 70
     0
 62
     7
  6
CONTINUOUS
  0
LAYER
  2
LC-INFO-1-2-MM-A3-0
 70
     1
 62
    -1
  6
CONTINUOUS
  0
LAYER
  2
LC-002-005-----0
 70
     0
 62
     2
  6
CONTINUOUS
  0
LAYER
  2
LC-004-003-MTH-0
 70
     0
 62
     2
  6
CONTINUOUS
  0
LAYER
  2
LC-003-003-----0
 70
     0
 62
     2
  6
CONTINUOUS
  0
LAYER
  2
LC-005-003-MTG-0
 70
     0
 62
     2
  6
CONTINUOUS
  0
LAYER
  2
LC-001-002-----0
 70
     0
 62
     1
  6
CONTINUOUS
  0
LAYER
  2
LC-000
 70
     0
 62
     7
  6
CONTINUOUS
  0
ENDTAB
  0
TABLE
  2
STYLE
 70
     5
  0
STYLE
  2
STANDARD
 70
     0
 40
0.0
 41
1.0
 50
0.0
 71
     0
 42
0.0
  3
txt
  4

  0
STYLE
  2
LC-STANDARD
 70
    64
 40
0.0
 41
1.0
 50
0.0
 71
     0
 42
3.5
  3
MONOTXT
  4

  0
STYLE
  2
LC-TXTSTYLE-150-400-0-0-D2
 70
    64
 40
0.0
 41
1.0
 50
15.0
 71
     0
 42
3.5
  3
MONOTXT
  4

  0
STYLE
  2
LC-TXTSTYLE-0-400-0-0-DIN3
 70
    64
 40
0.0
 41
1.0
 50
0.0
 71
     0
 42
3.5
  3
MONOTXT
  4

  0
STYLE
  2
LC-TXTSTYLE-150-400-0-0-D4
 70
    64
 40
0.0
 41
1.0
 50
15.0
 71
     0
 42
3.5
  3
LC-STANDARD
  4

  0
ENDTAB
  0
TABLE
  2
VIEW
 70
     0
  0
ENDTAB
  0
TABLE
  2
UCS
 70
     0
  0
ENDTAB
  0
TABLE
  2
APPID
 70
     1
  0
APPID
  2
ACAD
 70
     0
  0
ENDTAB
  0
TABLE
  2
DIMSTYLE
 70
     3
  0
DIMSTYLE
  2
STANDARD
 70
     0
  3

  4

  5

  6

  7

 40
1.0
 41
0.18
 42
0.0625
 43
0.38
 44
0.18
 45
0.0
 46
0.0
 47
0.0
 48
0.0
 71
     0
 72
     0
 73
     1
 74
     1
 75
     0
 76
     0
 77
     0
 78
     0
140
0.18
141
0.09
142
0.0
143
25.4
144
1.0
145
0.0
146
1.0
147
0.09
170
     0
171
     2
172
     0
173
     0
174
     0
175
     0
176
     0
177
     0
178
     0
  0
DIMSTYLE
  2
LC-STANDARD
 70
     0
  3

  4

  5

  6

  7

 40
1.0
 41
3.5
 42
0.0
 43
7.5
 44
1.8
 45
0.0
 46
0.0
 47
0.0
 48
0.0
 71
     0
 72
     0
 73
     0
 74
     0
 75
     0
 76
     0
 77
     1
 78
     8
140
3.5
141
0.0
142
0.0
143
25.4
144
1.0
145
0.0
146
0.71
147
1.5
170
     0
171
     2
172
     1
173
     0
174
     0
175
     0
176
     0
177
     0
178
     3
  0
DIMSTYLE
  2
LC-DIM-L-0090-02-02
 70
     0
  3

  4

  5

  6

  7

 40
2.0
 41
3.5
 42
0.0
 43
7.5
 44
1.8
 45
0.0
 46
0.0
 47
0.0
 48
0.0
 71
     0
 72
     0
 73
     0
 74
     0
 75
     0
 76
     0
 77
     1
 78
     8
140
9.0
141
0.0
142
0.0
143
25.4
144
1.0
145
0.0
146
0.71
147
1.5
170
     0
171
     2
172
     0
173
     0
174
     0
175
     0
176
     2
177
     2
178
     6
  0
ENDTAB
  0
ENDSEC
  0
SECTION
  2
BLOCKS
  0
BLOCK
  8
0
  5
24
  2
*X0
 70
    65
 10
1636.427248
 20
688.269948
 30
0.0
  3
*X0
  0
LINE
  8
LC-002-005-----0
  6
CONTINUOUS
  5
26
 10
1639.427248
 20
690.065332
 30
0.0
 11
1639.222632
 21
690.269948
 31
0.0
  0
LINE
  8
LC-002-005-----0
  6
CONTINUOUS
  5
27
 10
1639.427248
 20
689.499646
 30
0.0
 11
1638.656947
 21
690.269948
 31
0.0
  0
LINE
  8
LC-002-005-----0
  6
CONTINUOUS
  5
28
 10
1639.427248
 20
688.933961
 30
0.0
 11
1638.091261
 21
690.269948
 31
0.0
  0
LINE
  8
LC-002-005-----0
  6
CONTINUOUS
  5
29
 10
1639.427248
 20
688.368276
 30
0.0
 11
1637.525576
 21
690.269948
 31
0.0
  0
LINE
  8
LC-002-005-----0
  6
CONTINUOUS
  5
2A
 10
1638.95989
 20
688.269948
 30
0.0
 11
1636.95989
 21
690.269948
 31
0.0
  0
LINE
  8
LC-002-005-----0
  6
CONTINUOUS
  5
2B
 10
1638.394205
 20
688.269948
 30
0.0
 11
1636.427248
 21
690.236905
 31
0.0
  0
LINE
  8
LC-002-005-----0
  6
CONTINUOUS
  5
2C
 10
1637.828519
 20
688.269948
 30
0.0
 11
1636.427248
 21
689.671219
 31
0.0
  0
LINE
  8
LC-002-005-----0
  6
CONTINUOUS
  5
2D
 10
1637.262834
 20
688.269948
 30
0.0
 11
1636.427248
 21
689.105534
 31
0.0
  0
LINE
  8
LC-002-005-----0
  6
CONTINUOUS
  5
2E
 10
1636.697149
 20
688.269948
 30
0.0
 11
1636.427248
 21
688.539848
 31
0.0
  0
ENDBLK
  8
0
  5
2F
  0
BLOCK
  8
0
  5
31
  2
*X1
 70
    65
 10
1661.427248
 20
688.269948
 30
0.0
  3
*X1
  0
LINE
  8
LC-002-005-----0
  6
CONTINUOUS
  5
32
 10
1664.427248
 20
689.955491
 30
0.0
 11
1664.112791
 21
690.269948
 31
0.0
  0
LINE
  8
LC-002-005-----0
  6
CONTINUOUS
  5
33
 10
1664.427248
 20
689.389805
 30
0.0
 11
1663.547105
 21
690.269948
 31
0.0
  0
LINE
  8
LC-002-005-----0
  6
CONTINUOUS
  5
34
 10
1664.427248
 20
688.82412
 30
0.0
 11
1662.98142
 21
690.269948
 31
0.0
  0
LINE
  8
LC-002-005-----0
  6
CONTINUOUS
  5
35
 10
1664.415734
 20
688.269948
 30
0.0
 11
1662.415734
 21
690.269948
 31
0.0
  0
LINE
  8
LC-002-005-----0
  6
CONTINUOUS
  5
36
 10
1663.850049
 20
688.269948
 30
0.0
 11
1661.850049
 21
690.269948
 31
0.0
  0
LINE
  8
LC-002-005-----0
  6
CONTINUOUS
  5
37
 10
1663.284364
 20
688.269948
 30
0.0
 11
1661.427248
 21
690.127063
 31
0.0
  0
LINE
  8
LC-002-005-----0
  6
CONTINUOUS
  5
38
 10
1662.718678
 20
688.269948
 30
0.0
 11
1661.427248
 21
689.561378
 31
0.0
  0
LINE
  8
LC-002-005-----0
  6
CONTINUOUS
  5
39
 10
1662.152993
 20
688.269948
 30
0.0
 11
1661.427248
 21
688.995693
 31
0.0
  0
LINE
  8
LC-002-005-----0
  6
CONTINUOUS
  5
3A
 10
1661.587307
 20
688.269948
 30
0.0
 11
1661.427248
 21
688.430007
 31
0.0
  0
ENDBLK
  8
0
  5
3B
  0
BLOCK
  8
0
  5
3D
  2
*X2
 70
    65
 10
1623.427248
 20
680.769948
 30
0.0
  3
*X2
  0
LINE
  8
LC-002-005-----0
  6
CONTINUOUS
  5
3E
 10
1625.427248
 20
838.132778
 30
0.0
 11
1623.427248
 21
840.132778
 31
0.0
  0
LINE
  8
LC-002-005-----0
  6
CONTINUOUS
  5
3F
 10
1625.427248
 20
835.30435
 30
0.0
 11
1623.427248
 21
837.30435
 31
0.0
  0
LINE
  8
LC-002-005-----0
  6
CONTINUOUS
  5
40
 10
1625.427248
 20
832.475923
 30
0.0
 11
1623.427248
 21
834.475923
 31
0.0
  0
LINE
  8
LC-002-005-----0
  6
CONTINUOUS
  5
41
 10
1625.427248
 20
829.647496
 30
0.0
 11
1623.427248
 21
831.647496
 31
0.0
  0
LINE
  8
LC-002-005-----0
  6
CONTINUOUS
  5
42
 10
1625.427248
 20
826.819069
 30
0.0
 11
1623.427248
 21
828.819069
 31
0.0
  0
LINE
  8
LC-002-005-----0
  6
CONTINUOUS
  5
43
 10
1625.427248
 20
823.990642
 30
0.0
 11
1623.427248
 21
825.990642
 31
0.0
  0
LINE
  8
LC-002-005-----0
  6
CONTINUOUS
  5
44
 10
1625.427248
 20
821.162215
 30
0.0
 11
1623.427248
 21
823.162215
 31
0.0
  0
LINE
  8
LC-002-005-----0
  6
CONTINUOUS
  5
45
 10
1625.427248
 20
818.333788
 30
0.0
 11
1623.427248
 21
820.333788
 31
0.0
  0
LINE
  8
LC-002-005-----0
  6
CONTINUOUS
  5
46
 10
1625.427248
 20
815.505361
 30
0.0
 11
1623.427248
 21
817.505361
 31
0.0
  0
LINE
  8
LC-002-005-----0
  6
CONTINUOUS
  5
47
 10
1625.427248
 20
812.676933
 30
0.0
 11
1623.427248
 21
814.676933
 31
0.0
  0
LINE
  8
LC-002-005-----0
  6
CONTINUOUS
  5
48
 10
1634.942144
 20
800.333611
 30
0.0
 11
1626.365128
 21
808.910627
 31
0.0
  0
LINE
  8
LC-002-005-----0
  6
CONTINUOUS
  5
49
 10
1625.427248
 20
809.848506
 30
0.0
 11
1623.427248
 21
811.848506
 31
0.0
  0
LINE
  8
LC-002-005-----0
  6
CONTINUOUS
  5
4A
 10
1635.035097
 20
797.412231
 30
0.0
 11
1632.968324
 21
799.479004
 31
0.0
  0
LINE
  8
LC-002-005-----0
  6
CONTINUOUS
  5
4B
 10
1625.011412
 20
807.435915
 30
0.0
 11
1623.427248
 21
809.020079
 31
0.0
  0
LINE
  8
LC-002-005-----0
  6
CONTINUOUS
  5
4C
 10
1635.12805
 20
794.49085
 30
0.0
 11
1633.061277
 21
796.557624
 31
0.0
  0
LINE
  8
LC-002-005-----0
  6
CONTINUOUS
  5
4D
 10
1635.221003
 20
791.56947
 30
0.0
 11
1633.15423
 21
793.636243
 31
0.0
  0
LINE
  8
LC-002-005-----0
  6
CONTINUOUS
  5
4E
 10
1635.313956
 20
788.64809
 30
0.0
 11
1633.247183
 21
790.714863
 31
0.0
  0
LINE
  8
LC-002-005-----0
  6
CONTINUOUS
  5
4F
 10
1635.406909
 20
785.72671
 30
0.0
 11
1633.340136
 21
787.793483
 31
0.0
  0
LINE
  8
LC-002-005-----0
  6
CONTINUOUS
  5
50
 10
1635.499862
 20
782.80533
 30
0.0
 11
1633.433089
 21
784.872103
 31
0.0
  0
LINE
  8
LC-002-005-----0
  6
CONTINUOUS
  5
51
 10
1635.592815
 20
779.88395
 30
0.0
 11
1633.526042
 21
781.950723
 31
0.0
  0
LINE
  8
LC-002-005-----0
  6
CONTINUOUS
  5
52
 10
1635.685768
 20
776.96257
 30
0.0
 11
1633.618995
 21
779.029343
 31
0.0
  0
LINE
  8
LC-002-005-----0
  6
CONTINUOUS
  5
53
 10
1635.778721
 20
774.04119
 30
0.0
 11
1633.711948
 21
776.107963
 31
0.0
  0
LINE
  8
LC-002-005-----0
  6
CONTINUOUS
  5
54
 10
1635.871674
 20
771.119809
 30
0.0
 11
1633.804901
 21
773.186583
 31
0.0
  0
LINE
  8
LC-002-005-----0
  6
CONTINUOUS
  5
55
 10
1635.964627
 20
768.198429
 30
0.0
 11
1633.897854
 21
770.265202
 31
0.0
  0
LINE
  8
LC-002-005-----0
  6
CONTINUOUS
  5
56
 10
1636.05758
 20
765.277049
 30
0.0
 11
1633.990807
 21
767.343822
 31
0.0
  0
LINE
  8
LC-002-005-----0
  6
CONTINUOUS
  5
57
 10
1636.150533
 20
762.355669
 30
0.0
 11
1634.08376
 21
764.422442
 31
0.0
  0
LINE
  8
LC-002-005-----0
  6
CONTINUOUS
  5
58
 10
1636.243486
 20
759.434289
 30
0.0
 11
1634.176713
 21
761.501062
 31
0.0
  0
LINE
  8
LC-002-005-----0
  6
CONTINUOUS
  5
59
 10
1636.336439
 20
756.512909
 30
0.0
 11
1634.269666
 21
758.579682
 31
0.0
  0
LINE
  8
LC-002-005-----0
  6
CONTINUOUS
  5
5A
 10
1636.429392
 20
753.591529
 30
0.0
 11
1634.362619
 21
755.658302
 31
0.0
  0
LINE
  8
LC-002-005-----0
  6
CONTINUOUS
  5
5B
 10
1636.522345
 20
750.670149
 30
0.0
 11
1634.455572
 21
752.736922
 31
0.0
  0
LINE
  8
LC-002-005-----0
  6
CONTINUOUS
  5
5C
 10
1636.615298
 20
747.748768
 30
0.0
 11
1634.548525
 21
749.815541
 31
0.0
  0
LINE
  8
LC-002-005-----0
  6
CONTINUOUS
  5
5D
 10
1636.708251
 20
744.827388
 30
0.0
 11
1634.641478
 21
746.894161
 31
0.0
  0
LINE
  8
LC-002-005-----0
  6
CONTINUOUS
  5
5E
 10
1636.801204
 20
741.906008
 30
0.0
 11
1634.734431
 21
743.972781
 31
0.0
  0
LINE
  8
LC-002-005-----0
  6
CONTINUOUS
  5
5F
 10
1636.894157
 20
738.984628
 30
0.0
 11
1634.827384
 21
741.051401
 31
0.0
  0
LINE
  8
LC-002-005-----0
  6
CONTINUOUS
  5
60
 10
1636.98711
 20
736.063248
 30
0.0
 11
1634.920337
 21
738.130021
 31
0.0
  0
LINE
  8
LC-002-005-----0
  6
CONTINUOUS
  5
61
 10
1637.080063
 20
733.141868
 30
0.0
 11
1635.01329
 21
735.208641
 31
0.0
  0
LINE
  8
LC-002-005-----0
  6
CONTINUOUS
  5
62
 10
1637.173016
 20
730.220488
 30
0.0
 11
1635.106243
 21
732.287261
 31
0.0
  0
LINE
  8
LC-002-005-----0
  6
CONTINUOUS
  5
63
 10
1637.265969
 20
727.299107
 30
0.0
 11
1635.199196
 21
729.365881
 31
0.0
  0
LINE
  8
LC-002-005-----0
  6
CONTINUOUS
  5
64
 10
1637.358922
 20
724.377727
 30
0.0
 11
1635.292149
 21
726.4445
 31
0.0
  0
LINE
  8
LC-002-005-----0
  6
CONTINUOUS
  5
65
 10
1637.451875
 20
721.456347
 30
0.0
 11
1635.385102
 21
723.52312
 31
0.0
  0
LINE
  8
LC-002-005-----0
  6
CONTINUOUS
  5
66
 10
1637.544828
 20
718.534967
 30
0.0
 11
1635.478055
 21
720.60174
 31
0.0
  0
LINE
  8
LC-002-005-----0
  6
CONTINUOUS
  5
67
 10
1637.637781
 20
715.613587
 30
0.0
 11
1635.571008
 21
717.68036
 31
0.0
  0
LINE
  8
LC-002-005-----0
  6
CONTINUOUS
  5
68
 10
1637.730734
 20
712.692207
 30
0.0
 11
1635.663961
 21
714.75898
 31
0.0
  0
LINE
  8
LC-002-005-----0
  6
CONTINUOUS
  5
69
 10
1637.823687
 20
709.770827
 30
0.0
 11
1635.756914
 21
711.8376
 31
0.0
  0
LINE
  8
LC-002-005-----0
  6
CONTINUOUS
  5
6A
 10
1637.91664
 20
706.849447
 30
0.0
 11
1635.849867
 21
708.91622
 31
0.0
  0
LINE
  8
LC-002-005-----0
  6
CONTINUOUS
  5
6B
 10
1638.009593
 20
703.928066
 30
0.0
 11
1635.94282
 21
705.99484
 31
0.0
  0
LINE
  8
LC-002-005-----0
  6
CONTINUOUS
  5
6C
 10
1638.102546
 20
701.006686
 30
0.0
 11
1636.035773
 21
703.073459
 31
0.0
  0
LINE
  8
LC-002-005-----0
  6
CONTINUOUS
  5
6D
 10
1638.195499
 20
698.085306
 30
0.0
 11
1636.128726
 21
700.152079
 31
0.0
  0
LINE
  8
LC-002-005-----0
  6
CONTINUOUS
  5
6E
 10
1643.427248
 20
690.02513
 30
0.0
 11
1640.68243
 21
692.769948
 31
0.0
  0
LINE
  8
LC-002-005-----0
  6
CONTINUOUS
  5
6F
 10
1638.288452
 20
695.163926
 30
0.0
 11
1636.221679
 21
697.230699
 31
0.0
  0
LINE
  8
LC-002-005-----0
  6
CONTINUOUS
  5
70
 10
1643.427248
 20
687.196703
 30
0.0
 11
1641.427248
 21
689.196703
 31
0.0
  0
LINE
  8
LC-002-005-----0
  6
CONTINUOUS
  5
71
 10
1639.854003
 20
690.769948
 30
0.0
 11
1636.314632
 21
694.309319
 31
0.0
  0
LINE
  8
LC-002-005-----0
  6
CONTINUOUS
  5
72
 10
1643.427248
 20
684.368276
 30
0.0
 11
1641.427248
 21
686.368276
 31
0.0
  0
LINE
  8
LC-002-005-----0
  6
CONTINUOUS
  5
73
 10
1637.025576
 20
690.769948
 30
0.0
 11
1636.407585
 21
691.387939
 31
0.0
  0
LINE
  8
LC-002-005-----0
  6
CONTINUOUS
  5
74
 10
1643.427248
 20
681.539848
 30
0.0
 11
1641.427248
 21
683.539848
 31
0.0
  0
ENDBLK
  8
0
  5
75
  0
BLOCK
  8
0
  5
77
  2
*X3
 70
    65
 10
1657.427248
 20
680.769948
 30
0.0
  3
*X3
  0
LINE
  8
LC-002-005-----0
  6
CONTINUOUS
  5
78
 10
1677.427248
 20
839.872893
 30
0.0
 11
1676.530193
 21
840.769948
 31
0.0
  0
LINE
  8
LC-002-005-----0
  6
CONTINUOUS
  5
79
 10
1677.427248
 20
837.044466
 30
0.0
 11
1675.427248
 21
839.044466
 31
0.0
  0
LINE
  8
LC-002-005-----0
  6
CONTINUOUS
  5
7A
 10
1677.427248
 20
834.216039
 30
0.0
 11
1675.427248
 21
836.216039
 31
0.0
  0
LINE
  8
LC-002-005-----0
  6
CONTINUOUS
  5
7B
 10
1677.427248
 20
831.387612
 30
0.0
 11
1675.427248
 21
833.387612
 31
0.0
  0
LINE
  8
LC-002-005-----0
  6
CONTINUOUS
  5
7C
 10
1677.427248
 20
828.559184
 30
0.0
 11
1675.427248
 21
830.559184
 31
0.0
  0
LINE
  8
LC-002-005-----0
  6
CONTINUOUS
  5
7D
 10
1677.427248
 20
825.730757
 30
0.0
 11
1675.427248
 21
827.730757
 31
0.0
  0
LINE
  8
LC-002-005-----0
  6
CONTINUOUS
  5
7E
 10
1677.427248
 20
822.90233
 30
0.0
 11
1675.427248
 21
824.90233
 31
0.0
  0
LINE
  8
LC-002-005-----0
  6
CONTINUOUS
  5
7F
 10
1677.427248
 20
820.073903
 30
0.0
 11
1675.427248
 21
822.073903
 31
0.0
  0
LINE
  8
LC-002-005-----0
  6
CONTINUOUS
  5
80
 10
1677.427248
 20
817.245476
 30
0.0
 11
1675.427248
 21
819.245476
 31
0.0
  0
LINE
  8
LC-002-005-----0
  6
CONTINUOUS
  5
81
 10
1677.427248
 20
814.417049
 30
0.0
 11
1675.427248
 21
816.417049
 31
0.0
  0
LINE
  8
LC-002-005-----0
  6
CONTINUOUS
  5
82
 10
1677.427248
 20
811.588622
 30
0.0
 11
1675.427248
 21
813.588622
 31
0.0
  0
LINE
  8
LC-002-005-----0
  6
CONTINUOUS
  5
83
 10
1677.421953
 20
808.765489
 30
0.0
 11
1675.427248
 21
810.760195
 31
0.0
  0
LINE
  8
LC-002-005-----0
  6
CONTINUOUS
  5
84
 10
1675.886522
 20
807.472494
 30
0.0
 11
1674.467122
 21
808.891893
 31
0.0
  0
LINE
  8
LC-002-005-----0
  6
CONTINUOUS
  5
85
 10
1674.35109
 20
806.179499
 30
0.0
 11
1672.931691
 21
807.598898
 31
0.0
  0
LINE
  8
LC-002-005-----0
  6
CONTINUOUS
  5
86
 10
1672.815658
 20
804.886504
 30
0.0
 11
1671.396259
 21
806.305903
 31
0.0
  0
LINE
  8
LC-002-005-----0
  6
CONTINUOUS
  5
87
 10
1671.280226
 20
803.593508
 30
0.0
 11
1669.860827
 21
805.012907
 31
0.0
  0
LINE
  8
LC-002-005-----0
  6
CONTINUOUS
  5
88
 10
1669.744794
 20
802.300513
 30
0.0
 11
1668.325395
 21
803.719912
 31
0.0
  0
LINE
  8
LC-002-005-----0
  6
CONTINUOUS
  5
89
 10
1668.209362
 20
801.007518
 30
0.0
 11
1666.789963
 21
802.426917
 31
0.0
  0
LINE
  8
LC-002-005-----0
  6
CONTINUOUS
  5
8A
 10
1667.856053
 20
798.532399
 30
0.0
 11
1665.916746
 21
800.471706
 31
0.0
  0
LINE
  8
LC-002-005-----0
  6
CONTINUOUS
  5
8B
 10
1667.768833
 20
795.791193
 30
0.0
 11
1665.829526
 21
797.730499
 31
0.0
  0
LINE
  8
LC-002-005-----0
  6
CONTINUOUS
  5
8C
 10
1667.681613
 20
793.049986
 30
0.0
 11
1665.742306
 21
794.989293
 31
0.0
  0
LINE
  8
LC-002-005-----0
  6
CONTINUOUS
  5
8D
 10
1667.594393
 20
790.308779
 30
0.0
 11
1665.655086
 21
792.248086
 31
0.0
  0
LINE
  8
LC-002-005-----0
  6
CONTINUOUS
  5
8E
 10
1667.507172
 20
787.567572
 30
0.0
 11
1665.567866
 21
789.506879
 31
0.0
  0
LINE
  8
LC-002-005-----0
  6
CONTINUOUS
  5
8F
 10
1667.419952
 20
784.826365
 30
0.0
 11
1665.480645
 21
786.765672
 31
0.0
  0
LINE
  8
LC-002-005-----0
  6
CONTINUOUS
  5
90
 10
1667.332732
 20
782.085158
 30
0.0
 11
1665.393425
 21
784.024465
 31
0.0
  0
LINE
  8
LC-002-005-----0
  6
CONTINUOUS
  5
91
 10
1667.245512
 20
779.343951
 30
0.0
 11
1665.306205
 21
781.283258
 31
0.0
  0
LINE
  8
LC-002-005-----0
  6
CONTINUOUS
  5
92
 10
1667.158292
 20
776.602744
 30
0.0
 11
1665.218985
 21
778.542051
 31
0.0
  0
LINE
  8
LC-002-005-----0
  6
CONTINUOUS
  5
93
 10
1667.071071
 20
773.861537
 30
0.0
 11
1665.131764
 21
775.800844
 31
0.0
  0
LINE
  8
LC-002-005-----0
  6
CONTINUOUS
  5
94
 10
1666.983851
 20
771.12033
 30
0.0
 11
1665.044544
 21
773.059637
 31
0.0
  0
LINE
  8
LC-002-005-----0
  6
CONTINUOUS
  5
95
 10
1666.896631
 20
768.379123
 30
0.0
 11
1664.957324
 21
770.31843
 31
0.0
  0
LINE
  8
LC-002-005-----0
  6
CONTINUOUS
  5
96
 10
1666.809411
 20
765.637917
 30
0.0
 11
1664.870104
 21
767.577223
 31
0.0
  0
LINE
  8
LC-002-005-----0
  6
CONTINUOUS
  5
97
 10
1666.722191
 20
762.89671
 30
0.0
 11
1664.782884
 21
764.836017
 31
0.0
  0
LINE
  8
LC-002-005-----0
  6
CONTINUOUS
  5
98
 10
1666.63497
 20
760.155503
 30
0.0
 11
1664.695663
 21
762.09481
 31
0.0
  0
LINE
  8
LC-002-005-----0
  6
CONTINUOUS
  5
99
 10
1666.54775
 20
757.414296
 30
0.0
 11
1664.608443
 21
759.353603
 31
0.0
  0
LINE
  8
LC-002-005-----0
  6
CONTINUOUS
  5
9A
 10
1666.46053
 20
754.673089
 30
0.0
 11
1664.521223
 21
756.612396
 31
0.0
  0
LINE
  8
LC-002-005-----0
  6
CONTINUOUS
  5
9B
 10
1666.37331
 20
751.931882
 30
0.0
 11
1664.434003
 21
753.871189
 31
0.0
  0
LINE
  8
LC-002-005-----0
  6
CONTINUOUS
  5
9C
 10
1666.286089
 20
749.190675
 30
0.0
 11
1664.346782
 21
751.129982
 31
0.0
  0
LINE
  8
LC-002-005-----0
  6
CONTINUOUS
  5
9D
 10
1666.198869
 20
746.449468
 30
0.0
 11
1664.259562
 21
748.388775
 31
0.0
  0
LINE
  8
LC-002-005-----0
  6
CONTINUOUS
  5
9E
 10
1666.111649
 20
743.708261
 30
0.0
 11
1664.172342
 21
745.647568
 31
0.0
  0
LINE
  8
LC-002-005-----0
  6
CONTINUOUS
  5
9F
 10
1666.024429
 20
740.967054
 30
0.0
 11
1664.085122
 21
742.906361
 31
0.0
  0
LINE
  8
LC-002-005-----0
  6
CONTINUOUS
  5
A0
 10
1665.937209
 20
738.225848
 30
0.0
 11
1663.997902
 21
740.165154
 31
0.0
  0
LINE
  8
LC-002-005-----0
  6
CONTINUOUS
  5
A1
 10
1665.849988
 20
735.484641
 30
0.0
 11
1663.910681
 21
737.423948
 31
0.0
  0
LINE
  8
LC-002-005-----0
  6
CONTINUOUS
  5
A2
 10
1665.762768
 20
732.743434
 30
0.0
 11
1663.823461
 21
734.682741
 31
0.0
  0
LINE
  8
LC-002-005-----0
  6
CONTINUOUS
  5
A3
 10
1665.675548
 20
730.002227
 30
0.0
 11
1663.736241
 21
731.941534
 31
0.0
  0
LINE
  8
LC-002-005-----0
  6
CONTINUOUS
  5
A4
 10
1665.588328
 20
727.26102
 30
0.0
 11
1663.649021
 21
729.200327
 31
0.0
  0
LINE
  8
LC-002-005-----0
  6
CONTINUOUS
  5
A5
 10
1665.501107
 20
724.519813
 30
0.0
 11
1663.561801
 21
726.45912
 31
0.0
  0
LINE
  8
LC-002-005-----0
  6
CONTINUOUS
  5
A6
 10
1665.413887
 20
721.778606
 30
0.0
 11
1663.47458
 21
723.717913
 31
0.0
  0
LINE
  8
LC-002-005-----0
  6
CONTINUOUS
  5
A7
 10
1665.326667
 20
719.037399
 30
0.0
 11
1663.38736
 21
720.976706
 31
0.0
  0
LINE
  8
LC-002-005-----0
  6
CONTINUOUS
  5
A8
 10
1665.239447
 20
716.296192
 30
0.0
 11
1663.30014
 21
718.235499
 31
0.0
  0
LINE
  8
LC-002-005-----0
  6
CONTINUOUS
  5
A9
 10
1665.152227
 20
713.554985
 30
0.0
 11
1663.21292
 21
715.494292
 31
0.0
  0
LINE
  8
LC-002-005-----0
  6
CONTINUOUS
  5
AA
 10
1665.065006
 20
710.813778
 30
0.0
 11
1663.125699
 21
712.753085
 31
0.0
  0
LINE
  8
LC-002-005-----0
  6
CONTINUOUS
  5
AB
 10
1664.977786
 20
708.072572
 30
0.0
 11
1663.038479
 21
710.011878
 31
0.0
  0
LINE
  8
LC-002-005-----0
  6
CONTINUOUS
  5
AC
 10
1664.890566
 20
705.331365
 30
0.0
 11
1662.951259
 21
707.270672
 31
0.0
  0
LINE
  8
LC-002-005-----0
  6
CONTINUOUS
  5
AD
 10
1664.803346
 20
702.590158
 30
0.0
 11
1662.864039
 21
704.529465
 31
0.0
  0
LINE
  8
LC-002-005-----0
  6
CONTINUOUS
  5
AE
 10
1664.716125
 20
699.848951
 30
0.0
 11
1662.776819
 21
701.788258
 31
0.0
  0
LINE
  8
LC-002-005-----0
  6
CONTINUOUS
  5
AF
 10
1664.628905
 20
697.107744
 30
0.0
 11
1662.689598
 21
699.047051
 31
0.0
  0
LINE
  8
LC-002-005-----0
  6
CONTINUOUS
  5
B0
 10
1664.541685
 20
694.366537
 30
0.0
 11
1662.602378
 21
696.305844
 31
0.0
  0
LINE
  8
LC-002-005-----0
  6
CONTINUOUS
  5
B1
 10
1664.454465
 20
691.62533
 30
0.0
 11
1662.515158
 21
693.564637
 31
0.0
  0
LINE
  8
LC-002-005-----0
  6
CONTINUOUS
  5
B2
 10
1662.48142
 20
690.769948
 30
0.0
 11
1660.48142
 21
692.769948
 31
0.0
  0
LINE
  8
LC-002-005-----0
  6
CONTINUOUS
  5
B3
 10
1659.652993
 20
690.769948
 30
0.0
 11
1657.652993
 21
692.769948
 31
0.0
  0
LINE
  8
LC-002-005-----0
  6
CONTINUOUS
  5
B4
 10
1659.427248
 20
688.167265
 30
0.0
 11
1657.427248
 21
690.167265
 31
0.0
  0
LINE
  8
LC-002-005-----0
  6
CONTINUOUS
  5
B5
 10
1659.427248
 20
685.338838
 30
0.0
 11
1657.427248
 21
687.338838
 31
0.0
  0
LINE
  8
LC-002-005-----0
  6
CONTINUOUS
  5
B6
 10
1659.427248
 20
682.510411
 30
0.0
 11
1657.427248
 21
684.510411
 31
0.0
  0
LINE
  8
LC-002-005-----0
  6
CONTINUOUS
  5
B7
 10
1658.339284
 20
680.769948
 30
0.0
 11
1657.427248
 21
681.681984
 31
0.0
  0
ENDBLK
  8
0
  5
B8
  0
BLOCK
  8
0
  5
BA
  2
*D4
 70
    65
 10
0.0
 20
0.0
 30
0.0
  3
*D4
  0
LINE
  8
LC-004-003-MTH-0
  6
CONTINUOUS
  5
BC
 10
1623.427248
 20
840.769948
 30
0.0
 11
1623.427248
 21
864.8
 31
0.0
  0
LINE
  8
LC-004-003-MTH-0
  6
CONTINUOUS
  5
BD
 10
1677.427248
 20
840.769948
 30
0.0
 11
1677.427248
 21
864.8
 31
0.0
  0
LINE
  8
LC-003-003-----0
  6
CONTINUOUS
  5
BF
 10
1605.581241
 20
851.650529
 30
0.0
 11
1623.427248
 21
854.0
 31
0.0
  0
LINE
  8
LC-003-003-----0
  6
CONTINUOUS
  5
C0
 10
1623.427248
 20
854.0
 30
0.0
 11
1605.581241
 21
856.349471
 31
0.0
  0
LINE
  8
LC-003-003-----0
  6
CONTINUOUS
  5
C1
 10
1605.581241
 20
856.349471
 30
0.0
 11
1605.581241
 21
851.650529
 31
0.0
  0
LINE
  8
LC-003-003-----0
  6
CONTINUOUS
  5
C2
 10
1605.541203
 20
852.261391
 30
0.0
 11
1618.747248
 21
854.0
 31
0.0
  0
LINE
  8
LC-003-003-----0
  6
CONTINUOUS
  5
C3
 10
1618.747248
 20
854.0
 30
0.0
 11
1605.541203
 21
855.738609
 31
0.0
  0
LINE
  8
LC-003-003-----0
  6
CONTINUOUS
  5
C4
 10
1605.501164
 20
852.872254
 30
0.0
 11
1614.067248
 21
854.0
 31
0.0
  0
LINE
  8
LC-003-003-----0
  6
CONTINUOUS
  5
C5
 10
1614.067248
 20
854.0
 30
0.0
 11
1605.501164
 21
855.127746
 31
0.0
  0
LINE
  8
LC-003-003-----0
  6
CONTINUOUS
  5
C6
 10
1605.461126
 20
853.483116
 30
0.0
 11
1609.387248
 21
854.0
 31
0.0
  0
LINE
  8
LC-003-003-----0
  6
CONTINUOUS
  5
C7
 10
1609.387248
 20
854.0
 30
0.0
 11
1605.461126
 21
854.516884
 31
0.0
  0
LINE
  8
LC-003-003-----0
  6
CONTINUOUS
  5
C8
 10
1695.273256
 20
856.349471
 30
0.0
 11
1677.427248
 21
854.0
 31
0.0
  0
LINE
  8
LC-003-003-----0
  6
CONTINUOUS
  5
C9
 10
1677.427248
 20
854.0
 30
0.0
 11
1695.273256
 21
851.650529
 31
0.0
  0
LINE
  8
LC-003-003-----0
  6
CONTINUOUS
  5
CA
 10
1695.273256
 20
851.650529
 30
0.0
 11
1695.273256
 21
856.349471
 31
0.0
  0
LINE
  8
LC-003-003-----0
  6
CONTINUOUS
  5
CB
 10
1695.313294
 20
855.738609
 30
0.0
 11
1682.107248
 21
854.0
 31
0.0
  0
LINE
  8
LC-003-003-----0
  6
CONTINUOUS
  5
CC
 10
1682.107248
 20
854.0
 30
0.0
 11
1695.313294
 21
852.261391
 31
0.0
  0
LINE
  8
LC-003-003-----0
  6
CONTINUOUS
  5
CD
 10
1695.353332
 20
855.127746
 30
0.0
 11
1686.787248
 21
854.0
 31
0.0
  0
LINE
  8
LC-003-003-----0
  6
CONTINUOUS
  5
CE
 10
1686.787248
 20
854.0
 30
0.0
 11
1695.353332
 21
852.872254
 31
0.0
  0
LINE
  8
LC-003-003-----0
  6
CONTINUOUS
  5
CF
 10
1695.39337
 20
854.516884
 30
0.0
 11
1691.467248
 21
854.0
 31
0.0
  0
LINE
  8
LC-003-003-----0
  6
CONTINUOUS
  5
D0
 10
1691.467248
 20
854.0
 30
0.0
 11
1695.39337
 21
853.483116
 31
0.0
  0
LINE
  8
LC-005-003-MTG-0
  6
CONTINUOUS
  5
D2
 10
1598.227248
 20
854.0
 30
0.0
 11
1751.629768
 21
854.0
 31
0.0
  0
TEXT
  8
LC-003-003-----0
  6
CONTINUOUS
 62
     6
  5
D4
 10
1704.702494
 20
864.431999
 30
0.0
 40
18.0
  1
Ø54
 41
0.9
 51
15.0
  7
LC-TXTSTYLE-150-400-0-0-D0
  0
ENDBLK
  8
0
  5
D5
  0
BLOCK
  8
0
  5
D7
  2
*D5
 70
    65
 10
0.0
 20
0.0
 30
0.0
  3
*D5
  0
LINE
  8
LC-004-003-MTH-0
  6
CONTINUOUS
  5
D8
 10
1636.427248
 20
690.769948
 30
0.0
 11
1599.2
 21
690.769948
 31
0.0
  0
LINE
  8
LC-004-003-MTH-0
  6
CONTINUOUS
  5
D9
 10
1623.427248
 20
840.769948
 30
0.0
 11
1599.2
 21
840.769948
 31
0.0
  0
LINE
  8
LC-005-003-MTG-0
  6
CONTINUOUS
  5
DA
 10
1610.0
 20
690.769948
 30
0.0
 11
1610.0
 21
840.769948
 31
0.0
  0
LINE
  8
LC-003-003-----0
  6
CONTINUOUS
  5
DB
 10
1607.650529
 20
708.615955
 30
0.0
 11
1610.0
 21
690.769948
 31
0.0
  0
LINE
  8
LC-003-003-----0
  6
CONTINUOUS
  5
DC
 10
1610.0
 20
690.769948
 30
0.0
 11
1612.349471
 21
708.615955
 31
0.0
  0
LINE
  8
LC-003-003-----0
  6
CONTINUOUS
  5
DD
 10
1612.349471
 20
708.615955
 30
0.0
 11
1607.650529
 21
708.615955
 31
0.0
  0
LINE
  8
LC-003-003-----0
  6
CONTINUOUS
  5
DE
 10
1608.261391
 20
708.655994
 30
0.0
 11
1610.0
 21
695.449948
 31
0.0
  0
LINE
  8
LC-003-003-----0
  6
CONTINUOUS
  5
DF
 10
1610.0
 20
695.449948
 30
0.0
 11
1611.738609
 21
708.655994
 31
0.0
  0
LINE
  8
LC-003-003-----0
  6
CONTINUOUS
  5
E0
 10
1608.872254
 20
708.696032
 30
0.0
 11
1610.0
 21
700.129948
 31
0.0
  0
LINE
  8
LC-003-003-----0
  6
CONTINUOUS
  5
E1
 10
1610.0
 20
700.129948
 30
0.0
 11
1611.127746
 21
708.696032
 31
0.0
  0
LINE
  8
LC-003-003-----0
  6
CONTINUOUS
  5
E2
 10
1609.483116
 20
708.73607
 30
0.0
 11
1610.0
 21
704.809948
 31
0.0
  0
LINE
  8
LC-003-003-----0
  6
CONTINUOUS
  5
E3
 10
1610.0
 20
704.809948
 30
0.0
 11
1610.516884
 21
708.73607
 31
0.0
  0
LINE
  8
LC-003-003-----0
  6
CONTINUOUS
  5
E4
 10
1612.349471
 20
822.92394
 30
0.0
 11
1610.0
 21
840.769948
 31
0.0
  0
LINE
  8
LC-003-003-----0
  6
CONTINUOUS
  5
E5
 10
1610.0
 20
840.769948
 30
0.0
 11
1607.650529
 21
822.92394
 31
0.0
  0
LINE
  8
LC-003-003-----0
  6
CONTINUOUS
  5
E6
 10
1607.650529
 20
822.92394
 30
0.0
 11
1612.349471
 21
822.92394
 31
0.0
  0
LINE
  8
LC-003-003-----0
  6
CONTINUOUS
  5
E7
 10
1611.738609
 20
822.883902
 30
0.0
 11
1610.0
 21
836.089948
 31
0.0
  0
LINE
  8
LC-003-003-----0
  6
CONTINUOUS
  5
E8
 10
1610.0
 20
836.089948
 30
0.0
 11
1608.261391
 21
822.883902
 31
0.0
  0
LINE
  8
LC-003-003-----0
  6
CONTINUOUS
  5
E9
 10
1611.127746
 20
822.843864
 30
0.0
 11
1610.0
 21
831.409948
 31
0.0
  0
LINE
  8
LC-003-003-----0
  6
CONTINUOUS
  5
EA
 10
1610.0
 20
831.409948
 30
0.0
 11
1608.872254
 21
822.843864
 31
0.0
  0
LINE
  8
LC-003-003-----0
  6
CONTINUOUS
  5
EB
 10
1610.516884
 20
822.803826
 30
0.0
 11
1610.0
 21
826.729948
 31
0.0
  0
LINE
  8
LC-003-003-----0
  6
CONTINUOUS
  5
EC
 10
1610.0
 20
826.729948
 30
0.0
 11
1609.483116
 21
822.803826
 31
0.0
  0
TEXT
  8
LC-003-003-----0
  6
CONTINUOUS
 62
     6
  5
ED
 10
1599.568001
 20
749.431335
 30
0.0
 40
18.0
  1
150
 50
90.0
 51
15.0
  7
LC-TXTSTYLE-150-400-0-0-D0
 72
     1
 11
1599.568001
 21
768.565194
 31
0.0
  0
ENDBLK
  8
0
  5
EE
  0
ENDSEC
  0
SECTION
  2
ENTITIES
  0
VIEWPORT
  8
LC-000
  5
121
 67
     1
 68
     1
 10
420.0
 20
297.0
 30
0.0
 40
840.0
 41
594.0
 69
     1
1001
ACAD
1000
MVIEW
1002
{
1070
    16
1010
0.0
1020
0.0
1030
0.0
1010
0.0
1020
0.0
1030
1.0
1040
0.0
1040
594.0
1040
420.0
1040
297.0
1040
50.0
1040
0.0
1040
0.0
1070
     0
1070
   100
1070
     1
1070
     1
1070
     0
1070
     0
1070
     0
1070
     0
1040
0.0
1040
0.0
1040
0.0
1040
1.0
1040
1.0
1040
0.0
1040
0.0
1070
     0
1002
{
1002
}
1002
}
  0
VIEWPORT
  8
0
  5
122
 67
     1
 68
     1
 10
0.0
 20
0.0
 30
0.0
 40
0.0
 41
0.0
 69
     1
1001
ACAD
1000
MVIEW
1002
{
1070
    16
1010
0.0
1020
0.0
1030
0.0
1010
0.0
1020
0.0
1030
1.0
1040
0.0
1040
594.0
1040
0.0
1040
0.0
1040
50.0
1040
0.0
1040
0.0
1070
     0
1070
   100
1070
     0
1070
     1
1070
     0
1070
     0
1070
     0
1070
     0
1040
0.0
1040
0.0
1040
0.0
1040
0.5
1040
0.5
1040
0.5
1040
0.5
1070
     0
1002
{
1002
}
1002
}
  0
INSERT
  8
0
  5
EF
  2
*X0
 10
1636.427248
 20
688.269948
 30
0.0
  0
INSERT
  8
0
  5
F0
  2
*X1
 10
1661.427248
 20
688.269948
 30
0.0
  0
INSERT
  8
0
  5
F1
  2
*X2
 10
1623.427248
 20
680.769948
 30
0.0
  0
INSERT
  8
0
  5
F2
  2
*X3
 10
1657.427248
 20
680.769948
 30
0.0
  0
DIMENSION
  8
0
  5
F3
  2
*D4
 10
1650.427248
 20
854.0
 30
0.0
 11
1650.427248
 21
854.0
 31
0.0
  1
%%c<>
 13
1623.427248
 23
840.769948
 33
0.0
 14
1677.427248
 24
840.769948
 34
0.0
  3
LC-DIM-L-0090-02-02
  0
DIMENSION
  8
0
  5
F4
  2
*D5
 10
1610.0
 20
765.769948
 30
0.0
 11
1610.0
 21
765.769948
 31
0.0
 13
1623.427248
 23
840.769948
 33
0.0
 14
1636.427248
 24
690.769948
 34
0.0
 50
90.0
  3
LC-DIM-L-0090-02-02
  0
LINE
  8
LC-001-002-----0
  6
CONTINUOUS
  5
F6
 10
1677.427248
 20
808.769948
 30
0.0
 11
1677.427248
 21
840.769948
 31
0.0
  0
LINE
  8
LC-001-002-----0
  6
CONTINUOUS
  5
F7
 10
1623.427248
 20
808.769948
 30
0.0
 11
1623.427248
 21
840.769948
 31
0.0
  0
LINE
  8
LC-001-002-----0
  6
CONTINUOUS
  5
F8
 10
1641.427248
 20
680.769948
 30
0.0
 11
1659.427248
 21
680.769948
 31
0.0
  0
LINE
  8
LC-001-002-----0
  6
CONTINUOUS
  5
F9
 10
1636.427248
 20
690.769948
 30
0.0
 11
1641.427248
 21
690.769948
 31
0.0
  0
LINE
  8
LC-001-002-----0
  6
CONTINUOUS
  5
FA
 10
1632.927248
 20
800.769948
 30
0.0
 11
1636.427248
 21
690.769948
 31
0.0
  0
LINE
  8
LC-001-002-----0
  6
CONTINUOUS
  5
FB
 10
1664.427248
 20
690.769948
 30
0.0
 11
1667.927248
 21
800.769948
 31
0.0
  0
LINE
  8
LC-001-002-----0
  6
CONTINUOUS
  5
FC
 10
1623.427248
 20
808.769948
 30
0.0
 11
1632.927248
 21
800.769948
 31
0.0
  0
LINE
  8
LC-001-002-----0
  6
CONTINUOUS
  5
FD
 10
1667.927248
 20
800.769948
 30
0.0
 11
1677.427248
 21
808.769948
 31
0.0
  0
LINE
  8
LC-001-002-----0
  6
CONTINUOUS
  5
FE
 10
1659.427248
 20
690.769948
 30
0.0
 11
1664.427248
 21
690.769948
 31
0.0
  0
LINE
  8
LC-001-002-----0
  6
CONTINUOUS
  5
FF
 10
1639.927248
 20
682.269948
 30
0.0
 11
1639.927248
 21
689.269948
 31
0.0
  0
LINE
  8
LC-001-002-----0
  6
CONTINUOUS
  5
100
 10
1641.427248
 20
680.769948
 30
0.0
 11
1641.427248
 21
690.769948
 31
0.0
  0
LINE
  8
LC-001-002-----0
  6
CONTINUOUS
  5
101
 10
1659.427248
 20
680.769948
 30
0.0
 11
1659.427248
 21
690.769948
 31
0.0
  0
LINE
  8
LC-001-002-----0
  6
CONTINUOUS
  5
102
 10
1641.427248
 20
690.769948
 30
0.0
 11
1639.927248
 21
689.269948
 31
0.0
  0
LINE
  8
LC-001-002-----0
  6
CONTINUOUS
  5
103
 10
1641.427248
 20
680.769948
 30
0.0
 11
1639.927248
 21
682.269948
 31
0.0
  0
LINE
  8
LC-001-002-----0
  6
CONTINUOUS
  5
104
 10
1659.427248
 20
690.769948
 30
0.0
 11
1660.927248
 21
689.269948
 31
0.0
  0
LINE
  8
LC-001-002-----0
  6
CONTINUOUS
  5
105
 10
1660.927248
 20
682.269948
 30
0.0
 11
1660.927248
 21
689.269948
 31
0.0
  0
LINE
  8
LC-001-002-----0
  6
CONTINUOUS
  5
106
 10
1659.427248
 20
680.769948
 30
0.0
 11
1660.927248
 21
682.269948
 31
0.0
  0
LINE
  8
LC-001-002-----0
  6
CONTINUOUS
  5
107
 10
1636.427248
 20
690.269948
 30
0.0
 11
1639.427248
 21
690.269948
 31
0.0
  0
LINE
  8
LC-001-002-----0
  6
CONTINUOUS
  5
108
 10
1636.427248
 20
688.269948
 30
0.0
 11
1639.427248
 21
688.269948
 31
0.0
  0
LINE
  8
LC-001-002-----0
  6
CONTINUOUS
  5
109
 10
1636.427248
 20
690.269948
 30
0.0
 11
1636.427248
 21
688.345305
 31
0.0
  0
LINE
  8
LC-001-002-----0
  6
CONTINUOUS
  5
10A
 10
1639.427248
 20
688.269948
 30
0.0
 11
1639.427248
 21
690.269948
 31
0.0
  0
LINE
  8
LC-001-002-----0
  6
CONTINUOUS
  5
10B
 10
1664.427248
 20
690.269948
 30
0.0
 11
1661.427248
 21
690.269948
 31
0.0
  0
LINE
  8
LC-001-002-----0
  6
CONTINUOUS
  5
10C
 10
1664.427248
 20
690.269948
 30
0.0
 11
1664.427248
 21
688.345305
 31
0.0
  0
LINE
  8
LC-001-002-----0
  6
CONTINUOUS
  5
10D
 10
1664.427248
 20
688.269948
 30
0.0
 11
1661.427248
 21
688.269948
 31
0.0
  0
LINE
  8
LC-001-002-----0
  6
CONTINUOUS
  5
10E
 10
1661.427248
 20
688.269948
 30
0.0
 11
1661.427248
 21
690.269948
 31
0.0
  0
LINE
  8
LC-001-002-----0
  6
CONTINUOUS
  5
10F
 10
1634.897867
 20
801.725162
 30
0.0
 11
1638.364624
 21
692.769948
 31
0.0
  0
LINE
  8
LC-001-002-----0
  6
CONTINUOUS
  5
110
 10
1638.364624
 20
692.769948
 30
0.0
 11
1643.427248
 21
692.769948
 31
0.0
  0
LINE
  8
LC-001-002-----0
  6
CONTINUOUS
  5
111
 10
1643.427248
 20
680.769948
 30
0.0
 11
1643.427248
 21
692.769948
 31
0.0
  0
LINE
  8
LC-001-002-----0
  6
CONTINUOUS
  5
112
 10
1625.427248
 20
809.70042
 30
0.0
 11
1625.427248
 21
840.769948
 31
0.0
  0
LINE
  8
LC-001-002-----0
  6
CONTINUOUS
  5
113
 10
1625.427248
 20
809.70042
 30
0.0
 11
1634.897867
 21
801.725162
 31
0.0
  0
LINE
  8
LC-001-002-----0
  6
CONTINUOUS
  5
114
 10
1675.427248
 20
809.70042
 30
0.0
 11
1675.427248
 21
840.769948
 31
0.0
  0
LINE
  8
LC-001-002-----0
  6
CONTINUOUS
  5
115
 10
1675.427248
 20
809.70042
 30
0.0
 11
1665.956629
 21
801.725162
 31
0.0
  0
LINE
  8
LC-001-002-----0
  6
CONTINUOUS
  5
116
 10
1665.956629
 20
801.725162
 30
0.0
 11
1662.489872
 21
692.769948
 31
0.0
  0
LINE
  8
LC-001-002-----0
  6
CONTINUOUS
  5
117
 10
1625.427248
 20
809.70042
 30
0.0
 11
1675.427248
 21
809.70042
 31
0.0
  0
LINE
  8
LC-001-002-----0
  6
CONTINUOUS
  5
118
 10
1634.897867
 20
801.725162
 30
0.0
 11
1665.956629
 21
801.725162
 31
0.0
  0
LINE
  8
LC-001-002-----0
  6
CONTINUOUS
  5
119
 10
1662.489872
 20
692.769948
 30
0.0
 11
1657.427248
 21
692.769948
 31
0.0
  0
LINE
  8
LC-001-002-----0
  6
CONTINUOUS
  5
11A
 10
1657.427248
 20
680.769948
 30
0.0
 11
1657.427248
 21
692.769948
 31
0.0
  0
LINE
  8
LC-001-002-----0
  6
CONTINUOUS
  5
11B
 10
1643.427248
 20
692.769948
 30
0.0
 11
1657.427248
 21
692.769948
 31
0.0
  0
LINE
  8
LC-001-002-----0
  6
CONTINUOUS
  5
11C
 10
292.63322
 20
-76.592334
 30
0.0
 11
298.13322
 21
-76.592334
 31
0.0
  0
LINE
  8
LC-001-002-----0
  6
DASHDOT
 62
     2
  5
11E
 10
1650.427248
 20
680.769948
 30
0.0
 11
1650.427248
 21
840.769948
 31
0.0
  0
LINE
  8
LC-001-002-----0
  6
CONTINUOUS
  5
11F
 10
1623.427248
 20
840.769948
 30
0.0
 11
1677.427248
 21
840.769948
 31
0.0
  0
ENDSEC
  0
EOF
