  0
SECTION
  2
HEADER
  9
$ACADVER
  1
AC1015
  9
$ACADMAINTVER
 70
     6
  9
$DWGCODEPAGE
  3
ANSI_1252
  9
$INSBASE
 10
0.0
 20
0.0
 30
0.0
  9
$EXTMIN
 10
0.0
 20
0.0
 30
0.0
  9
$EXTMAX
 10
840.0
 20
594.0
 30
0.0
  9
$LIMMIN
 10
0.0
 20
0.0
  9
$LIMMAX
 10
840.0
 20
594.0
  9
$ORTHOMODE
 70
     0
  9
$REGENMODE
 70
     1
  9
$FILLMODE
 70
     1
  9
$QTEXTMODE
 70
     0
  9
$MIRRTEXT
 70
     1
  9
$LTSCALE
 40
2.0
  9
$ATTMODE
 70
     1
  9
$TEXTSIZE
 40
2.5
  9
$TRACEWID
 40
1.0
  9
$TEXTSTYLE
  7
Standard
  9
$CLAYER
  8
0
  9
$CELTYPE
  6
ByLayer
  9
$CECOLOR
 62
     7
  9
$CELTSCALE
 40
1.0
  9
$DISPSILH
 70
     0
  9
$DIMSCALE
 40
2.0
  9
$DIMASZ
 40
3.5
  9
$DIMEXO
 40
0.625
  9
$DIMDLI
 40
3.75
  9
$DIMRND
 40
0.0
  9
$DIMDLE
 40
0.0
  9
$DIMEXE
 40
1.25
  9
$DIMTP
 40
0.0
  9
$DIMTM
 40
0.0
  9
$DIMTXT
 40
3.5
  9
$DIMCEN
 40
2.5
  9
$DIMTSZ
 40
0.0
  9
$DIMTOL
 70
     0
  9
$DIMLIM
 70
     0
  9
$DIMTIH
 70
     0
  9
$DIMTOH
 70
     0
  9
$DIMSE1
 70
     0
  9
$DIMSE2
 70
     0
  9
$DIMTAD
 70
     1
  9
$DIMZIN
 70
     8
  9
$DIMBLK
  1

  9
$DIMASO
 70
     1
  9
$DIMSHO
 70
     1
  9
$DIMPOST
  1

  9
$DIMAPOST
  1

  9
$DIMALT
 70
     0
  9
$DIMALTD
 70
     3
  9
$DIMALTF
 40
0.03937
  9
$DIMLFAC
 40
1.0
  9
$DIMTOFL
 70
     1
  9
$DIMTVP
 40
0.0
  9
$DIMTIX
 70
     0
  9
$DIMSOXD
 70
     0
  9
$DIMSAH
 70
     0
  9
$DIMBLK1
  1

  9
$DIMBLK2
  1

  9
$DIMSTYLE
  2
ISO-25
  9
$DIMCLRD
 70
     0
  9
$DIMCLRE
 70
     0
  9
$DIMCLRT
 70
     0
  9
$DIMTFAC
 40
1.0
  9
$DIMGAP
 40
0.625
  9
$DIMJUST
 70
     0
  9
$DIMSD1
 70
     0
  9
$DIMSD2
 70
     0
  9
$DIMTOLJ
 70
     0
  9
$DIMTZIN
 70
     8
  9
$DIMALTZ
 70
     0
  9
$DIMALTTZ
 70
     0
  9
$DIMUPT
 70
     0
  9
$DIMDEC
 70
     2
  9
$DIMTDEC
 70
     2
  9
$DIMALTU
 70
     2
  9
$DIMALTTD
 70
     3
  9
$DIMTXSTY
  7
Standard
  9
$DIMAUNIT
 70
     0
  9
$DIMADEC
 70
     0
  9
$DIMALTRND
 40
0.0
  9
$DIMAZIN
 70
     0
  9
$DIMDSEP
 70
    44
  9
$DIMATFIT
 70
     3
  9
$DIMFRAC
 70
     0
  9
$DIMLDRBLK
  1

  9
$DIMLUNIT
 70
     2
  9
$DIMLWD
 70
    -2
  9
$DIMLWE
 70
    -2
  9
$DIMTMOVE
 70
     0
  9
$LUNITS
 70
     2
  9
$LUPREC
 70
     4
  9
$SKETCHINC
 40
1.0
  9
$FILLETRAD
 40
10.0
  9
$AUNITS
 70
     0
  9
$AUPREC
 70
     0
  9
$MENU
  1
.
  9
$ELEVATION
 40
0.0
  9
$PELEVATION
 40
0.0
  9
$THICKNESS
 40
0.0
  9
$LIMCHECK
 70
     0
  9
$CHAMFERA
 40
10.0
  9
$CHAMFERB
 40
10.0
  9
$CHAMFERC
 40
20.0
  9
$CHAMFERD
 40
0.0
  9
$SKPOLY
 70
     0
  9
$TDCREATE
 40
2456223.423213576
  9
$TDUCREATE
 40
2456223.339880243
  9
$TDUPDATE
 40
2456223.423213588
  9
$TDUUPDATE
 40
2456223.339880255
  9
$TDINDWG
 40
0.0000000116
  9
$TDUSRTIMER
 40
0.0000000116
  9
$USRTIMER
 70
     1
  9
$ANGBASE
 50
0.0
  9
$ANGDIR
 70
     0
  9
$PDMODE
 70
     0
  9
$PDSIZE
 40
0.0
  9
$PLINEWID
 40
0.0
  9
$SPLFRAME
 70
     0
  9
$SPLINETYPE
 70
     6
  9
$SPLINESEGS
 70
     8
  9
$HANDSEED
  5
C3
  9
$SURFTAB1
 70
     6
  9
$SURFTAB2
 70
     6
  9
$SURFTYPE
 70
     6
  9
$SURFU
 70
     6
  9
$SURFV
 70
     6
  9
$UCSBASE
  2

  9
$UCSNAME
  2

  9
$UCSORG
 10
0.0
 20
0.0
 30
0.0
  9
$UCSXDIR
 10
1.0
 20
0.0
 30
0.0
  9
$UCSYDIR
 10
0.0
 20
1.0
 30
0.0
  9
$UCSORTHOREF
  2

  9
$UCSORTHOVIEW
 70
     0
  9
$UCSORGTOP
 10
0.0
 20
0.0
 30
0.0
  9
$UCSORGBOTTOM
 10
0.0
 20
0.0
 30
0.0
  9
$UCSORGLEFT
 10
0.0
 20
0.0
 30
0.0
  9
$UCSORGRIGHT
 10
0.0
 20
0.0
 30
0.0
  9
$UCSORGFRONT
 10
0.0
 20
0.0
 30
0.0
  9
$UCSORGBACK
 10
0.0
 20
0.0
 30
0.0
  9
$PUCSBASE
  2

  9
$PUCSNAME
  2

  9
$PUCSORG
 10
0.0
 20
0.0
 30
0.0
  9
$PUCSXDIR
 10
1.0
 20
0.0
 30
0.0
  9
$PUCSYDIR
 10
0.0
 20
1.0
 30
0.0
  9
$PUCSORTHOREF
  2

  9
$PUCSORTHOVIEW
 70
     0
  9
$PUCSORGTOP
 10
0.0
 20
0.0
 30
0.0
  9
$PUCSORGBOTTOM
 10
0.0
 20
0.0
 30
0.0
  9
$PUCSORGLEFT
 10
0.0
 20
0.0
 30
0.0
  9
$PUCSORGRIGHT
 10
0.0
 20
0.0
 30
0.0
  9
$PUCSORGFRONT
 10
0.0
 20
0.0
 30
0.0
  9
$PUCSORGBACK
 10
0.0
 20
0.0
 30
0.0
  9
$USERI1
 70
     0
  9
$USERI2
 70
     0
  9
$USERI3
 70
     0
  9
$USERI4
 70
     0
  9
$USERI5
 70
     0
  9
$USERR1
 40
0.0
  9
$USERR2
 40
0.0
  9
$USERR3
 40
0.0
  9
$USERR4
 40
0.0
  9
$USERR5
 40
0.0
  9
$WORLDVIEW
 70
     1
  9
$SHADEDGE
 70
     3
  9
$SHADEDIF
 70
    70
  9
$TILEMODE
 70
     1
  9
$MAXACTVP
 70
    64
  9
$PINSBASE
 10
0.0
 20
0.0
 30
0.0
  9
$PLIMCHECK
 70
     0
  9
$PEXTMIN
 10
0.0
 20
0.0
 30
0.0
  9
$PEXTMAX
 10
840.0
 20
594.0
 30
0.0
  9
$PLIMMIN
 10
0.0
 20
0.0
  9
$PLIMMAX
 10
840.0
 20
594.0
  9
$UNITMODE
 70
     0
  9
$VISRETAIN
 70
     1
  9
$PLINEGEN
 70
     0
  9
$PSLTSCALE
 70
     1
  9
$TREEDEPTH
 70
  3020
  9
$CMLSTYLE
  2
Standard
  9
$CMLJUST
 70
     0
  9
$CMLSCALE
 40
20.0
  9
$PROXYGRAPHICS
 70
     1
  9
$MEASUREMENT
 70
     1
  9
$CELWEIGHT
370
    -1
  9
$ENDCAPS
280
     0
  9
$JOINSTYLE
280
     0
  9
$LWDISPLAY
290
     0
  9
$INSUNITS
 70
     4
  9
$HYPERLINKBASE
  1

  9
$STYLESHEET
  1

  9
$XEDIT
290
     1
  9
$CEPSNTYPE
380
     0
  9
$PSTYLEMODE
290
     1
  9
$FINGERPRINTGUID
  2
{FAEB1C30-E019-11D5-929B-00C0DF256EC4}
  9
$VERSIONGUID
  2
{FAEB1C32-E019-11D5-929B-00C0DF256EC4}
  9
$EXTNAMES
290
     1
  9
$PSVPSCALE
 40
0.0
  9
$OLESTARTUP
290
     0
  0
ENDSEC
  0
SECTION
  2
CLASSES
  0
CLASS
  1
ACDBDICTIONARYWDFLT
  2
AcDbDictionaryWithDefault
  3
ObjectDBX Classes
 90
        0
280
     0
281
     0
  0
CLASS
  1
ACDBPLACEHOLDER
  2
AcDbPlaceHolder
  3
ObjectDBX Classes
 90
        0
280
     0
281
     0
  0
CLASS
  1
LAYOUT
  2
AcDbLayout
  3
ObjectDBX Classes
 90
        0
280
     0
281
     0
  0
ENDSEC
  0
SECTION
  2
TABLES
  0
TABLE
  2
VPORT
  5
8
330
0
100
AcDbSymbolTable
 70
     2
  0
VPORT
  5
29
330
8
100
AcDbSymbolTableRecord
100
AcDbViewportTableRecord
  2
*ACTIVE
 70
     0
 10
0.0
 20
0.0
 11
1.0
 21
1.0
 12
420.0
 22
297.0
 13
0.0
 23
0.0
 14
1.0
 24
1.0
 15
0.0
 25
0.0
 16
0.0
 26
0.0
 36
1.0
 17
0.0
 27
0.0
 37
0.0
 40
594.0
 41
1.414141
 42
50.0
 43
0.0
 44
0.0
 50
0.0
 51
0.0
 71
    16
 72
   100
 73
     1
 74
     0
 75
     0
 76
     0
 77
     0
 78
     0
281
     0
 65
     0
110
0.0
120
0.0
130
0.0
111
1.0
121
0.0
131
0.0
112
0.0
122
1.0
132
0.0
 79
     0
146
0.0
  0
ENDTAB
  0
TABLE
  2
LTYPE
  5
5
330
0
100
AcDbSymbolTable
 70
     3
  0
LTYPE
  5
14
330
5
100
AcDbSymbolTableRecord
100
AcDbLinetypeTableRecord
  2
ByBlock
 70
     0
  3

 72
    65
 73
     0
 40
0.0
  0
LTYPE
  5
15
330
5
100
AcDbSymbolTableRecord
100
AcDbLinetypeTableRecord
  2
ByLayer
 70
     0
  3

 72
    65
 73
     0
 40
0.0
  0
LTYPE
  5
16
330
5
100
AcDbSymbolTableRecord
100
AcDbLinetypeTableRecord
  2
Continuous
 70
     0
  3
Solid line
 72
    65
 73
     0
 40
0.0
  0
LTYPE
  5
2A
330
5
100
AcDbSymbolTableRecord
100
AcDbLinetypeTableRecord
  2
DASHED
 70
     0
  3
__ __ __ __ __
 72
    65
 73
     2
 40
6.25
 49
5.0
 74
     4
 75
     0
340
0
 46
1.0
 50
0.0
 44
0.0
 45
0.0
 49
-1.25
 74
     4
 75
     0
340
0
 46
1.0
 50
0.0
 44
0.0
 45
0.0
  0
LTYPE
  5
B2
330
5
100
AcDbSymbolTableRecord
100
AcDbLinetypeTableRecord
  2
DASHDOT
 70
     0
  3
__ . __ . __ . __ . __
 72
    65
 73
     4
 40
7.5
 49
5.0
 74
     4
 75
     0
340
0
 46
1.0
 50
0.0
 44
0.0
 45
0.0
 49
-1.25
 74
     4
 75
     0
340
0
 46
1.0
 50
0.0
 44
0.0
 45
0.0
 49
0.0
 74
     4
 75
     0
340
0
 46
1.0
 50
0.0
 44
0.0
 45
0.0
 49
-1.25
 74
     4
 75
     0
340
0
 46
1.0
 50
0.0
 44
0.0
 45
0.0
  0
ENDTAB
  0
TABLE
  2
LAYER
  5
2
330
0
100
AcDbSymbolTable
 70
     8
  0
LAYER
  5
10
330
2
100
AcDbSymbolTableRecord
100
AcDbLayerTableRecord
  2
0
 70
     0
 62
     7
  6
Continuous
370
    -3
390
F
  0
LAYER
  5
2B
330
2
100
AcDbSymbolTableRecord
100
AcDbLayerTableRecord
  2
LC-INFO-1-2-mm-A3-0
 70
     1
 62
     7
  6
ByBlock
370
    -3
390
F
  0
LAYER
  5
2C
330
2
100
AcDbSymbolTableRecord
100
AcDbLayerTableRecord
  2
LC-CUT-HIDDEN
 70
     0
 62
     7
  6
DASHED
370
    -3
390
F
  0
LAYER
  5
2D
330
2
100
AcDbSymbolTableRecord
100
AcDbLayerTableRecord
  2
LC-VIEWPORT
 70
     0
 62
     7
  6
ByBlock
370
    -3
390
F
  0
LAYER
  5
2E
330
2
100
AcDbSymbolTableRecord
100
AcDbLayerTableRecord
  2
LC-3D-HIDDEN
 70
     0
 62
     9
  6
DASHED
370
    -3
390
F
  0
LAYER
  5
30
330
2
100
AcDbSymbolTableRecord
100
AcDbLayerTableRecord
  2
LC-001-002-----0
 70
     0
 62
     1
  6
ByBlock
370
    -3
390
F
  0
LAYER
  5
3E
330
2
100
AcDbSymbolTableRecord
100
AcDbLayerTableRecord
  2
LC-002-003-----0
 70
     0
 62
     2
  6
ByBlock
370
    -3
390
F
  0
LAYER
  5
40
330
2
100
AcDbSymbolTableRecord
100
AcDbLayerTableRecord
  2
Defpoints
 70
     0
 62
     7
  6
Continuous
290
     0
370
    -3
390
F
  0
ENDTAB
  0
TABLE
  2
STYLE
  5
3
330
0
100
AcDbSymbolTable
 70
     3
  0
STYLE
  5
11
330
3
100
AcDbSymbolTableRecord
100
AcDbTextStyleTableRecord
  2
Standard
 70
     0
 40
0.0
 41
1.0
 50
0.0
 71
     0
 42
2.5
  3
txt
  4

  0
STYLE
  5
2F
330
3
100
AcDbSymbolTableRecord
100
AcDbTextStyleTableRecord
  2
LCTX15-400-0-0-Arial
 70
     0
 40
0.0
 41
0.9
 50
0.0
 71
     0
 42
3.5
  3

  4

1001
ACAD
1000
Arial
1071
 16777218
  0
STYLE
  5
3C
330
3
100
AcDbSymbolTableRecord
100
AcDbTextStyleTableRecord
  2
LCTX15-400-0-0pDIN-Schrift
 70
     0
 40
2.5
 41
0.8
 50
15.0
 71
     0
 42
3.5
  3
STANDARD
  4

  0
ENDTAB
  0
TABLE
  2
VIEW
  5
6
330
0
100
AcDbSymbolTable
 70
     0
  0
ENDTAB
  0
TABLE
  2
UCS
  5
7
330
0
100
AcDbSymbolTable
 70
     0
  0
ENDTAB
  0
TABLE
  2
APPID
  5
9
330
0
100
AcDbSymbolTable
 70
     1
  0
APPID
  5
12
330
9
100
AcDbSymbolTableRecord
100
AcDbRegAppTableRecord
  2
ACAD
 70
     0
  0
ENDTAB
  0
TABLE
  2
DIMSTYLE
  5
A
330
0
100
AcDbSymbolTable
 70
     2
100
AcDbDimStyleTable
  0
DIMSTYLE
105
27
330
A
100
AcDbSymbolTableRecord
100
AcDbDimStyleTableRecord
  2
ISO-25
 70
     0
 41
2.5
 42
0.625
 43
3.75
 44
1.25
 73
     0
 74
     0
 77
     1
 78
     8
140
2.5
141
2.5
143
0.03937
147
0.625
171
     3
172
     1
271
     2
272
     2
274
     3
278
    44
283
     0
284
     8
340
11
  0
DIMSTYLE
105
3D
102
{ACAD_REACTORS
330
3F
330
4D
330
B4
102
}
330
A
100
AcDbSymbolTableRecord
100
AcDbDimStyleTableRecord
  2
LC-DIM-L-0140-02-02
 70
     0
 40
2.0
 41
14.0
 42
0.0
 43
7.5
 44
1.8
 73
     0
 74
     0
 77
     1
 78
     8
 79
     2
140
14.0
141
0.0
146
0.71
147
1.5
176
     2
177
     2
178
     2
179
     2
271
     2
278
    44
289
     1
340
3C
  0
ENDTAB
  0
TABLE
  2
BLOCK_RECORD
  5
1
330
0
100
AcDbSymbolTable
 70
     4
  0
BLOCK_RECORD
  5
1F
330
1
100
AcDbSymbolTableRecord
100
AcDbBlockTableRecord
  2
*Model_Space
340
22
  0
BLOCK_RECORD
  5
1B
330
1
100
AcDbSymbolTableRecord
100
AcDbBlockTableRecord
  2
*Paper_Space
340
1E
  0
BLOCK_RECORD
  5
23
330
1
100
AcDbSymbolTableRecord
100
AcDbBlockTableRecord
  2
*Paper_Space0
340
26
  0
BLOCK_RECORD
  5
41
330
1
100
AcDbSymbolTableRecord
100
AcDbBlockTableRecord
  2
*D1
340
0
  0
BLOCK_RECORD
  5
4E
330
1
100
AcDbSymbolTableRecord
100
AcDbBlockTableRecord
  2
*D2
340
0
  0
BLOCK_RECORD
  5
B5
330
1
100
AcDbSymbolTableRecord
100
AcDbBlockTableRecord
  2
*D3
340
0
  0
ENDTAB
  0
ENDSEC
  0
SECTION
  2
BLOCKS
  0
BLOCK
  5
20
330
1F
100
AcDbEntity
  8
0
100
AcDbBlockBegin
  2
*Model_Space
 70
     0
 71
     0
 10
0.0
 20
0.0
 30
0.0
  3
*Model_Space
  1

  0
ENDBLK
  5
21
330
1F
100
AcDbEntity
  8
0
100
AcDbBlockEnd
  0
BLOCK
  5
1C
330
1B
100
AcDbEntity
 67
     1
  8
0
100
AcDbBlockBegin
  2
*Paper_Space
 70
     0
 71
     0
 10
0.0
 20
0.0
 30
0.0
  3
*Paper_Space
  1

  0
ENDBLK
  5
1D
330
1B
100
AcDbEntity
 67
     1
  8
0
100
AcDbBlockEnd
  0
BLOCK
  5
24
330
23
100
AcDbEntity
  8
0
100
AcDbBlockBegin
  2
*Paper_Space0
 70
     0
 71
     0
 10
0.0
 20
0.0
 30
0.0
  3
*Paper_Space0
  1

  0
ENDBLK
  5
25
330
23
100
AcDbEntity
  8
0
100
AcDbBlockEnd
  0
BLOCK
  5
4B
330
41
100
AcDbEntity
  8
0
100
AcDbBlockBegin
  2
*D1
 70
     1
 71
     0
 10
0.0
 20
0.0
 30
0.0
  3
*D1
  1

  0
LINE
  5
42
330
41
100
AcDbEntity
  8
LC-002-003-----0
 62
     2
370
    -2
100
AcDbLine
 10
214.206667
 20
394.392036
 30
0.0
 11
214.206667
 21
443.6
 31
0.0
  0
LINE
  5
43
330
41
100
AcDbEntity
  8
LC-002-003-----0
 62
     2
370
    -2
100
AcDbLine
 10
464.706667
 20
387.392036
 30
0.0
 11
464.706667
 21
443.6
 31
0.0
  0
LINE
  5
44
330
41
100
AcDbEntity
  8
LC-002-003-----0
 62
     2
370
    -2
100
AcDbLine
 10
242.206667
 20
440.0
 30
0.0
 11
436.706667
 21
440.0
 31
0.0
  0
SOLID
  5
45
330
41
100
AcDbEntity
  8
LC-002-003-----0
 62
     2
100
AcDbTrace
 10
242.206667
 20
444.666667
 30
0.0
 11
242.206667
 21
435.333333
 31
0.0
 12
214.206667
 22
440.0
 32
0.0
 13
214.206667
 23
440.0
 33
0.0
  0
SOLID
  5
46
330
41
100
AcDbEntity
  8
LC-002-003-----0
 62
     2
100
AcDbTrace
 10
436.706667
 20
435.333333
 30
0.0
 11
436.706667
 21
444.666667
 31
0.0
 12
464.706667
 22
440.0
 32
0.0
 13
464.706667
 23
440.0
 33
0.0
  0
MTEXT
  5
47
330
41
100
AcDbEntity
  8
LC-002-003-----0
 62
     2
100
AcDbMText
 10
339.461584
 20
470.8
 30
0.0
 40
28.0
 41
0.0
 71
     5
 72
     1
  1
\A1;250
  7
LCTX15-400-0-0pDIN-Schrift
 73
     1
 44
1.0
  0
POINT
  5
48
330
41
100
AcDbEntity
  8
Defpoints
 62
     0
100
AcDbPoint
 10
214.206667
 20
394.392036
 30
0.0
  0
POINT
  5
49
330
41
100
AcDbEntity
  8
Defpoints
 62
     0
100
AcDbPoint
 10
464.706667
 20
387.392036
 30
0.0
  0
POINT
  5
4A
330
41
100
AcDbEntity
  8
Defpoints
 62
     0
100
AcDbPoint
 10
464.706667
 20
440.0
 30
0.0
  0
ENDBLK
  5
4C
330
41
100
AcDbEntity
  8
0
100
AcDbBlockEnd
  0
BLOCK
  5
58
330
4E
100
AcDbEntity
  8
0
100
AcDbBlockBegin
  2
*D2
 70
     1
 71
     0
 10
0.0
 20
0.0
 30
0.0
  3
*D2
  1

  0
LINE
  5
4F
330
4E
100
AcDbEntity
  8
LC-002-003-----0
 62
     2
370
    -2
100
AcDbLine
 10
457.706667
 20
394.392036
 30
0.0
 11
533.6
 21
394.392036
 31
0.0
  0
LINE
  5
50
330
4E
100
AcDbEntity
  8
LC-002-003-----0
 62
     2
370
    -2
100
AcDbLine
 10
457.706667
 20
214.392036
 30
0.0
 11
533.6
 21
214.392036
 31
0.0
  0
LINE
  5
51
330
4E
100
AcDbEntity
  8
LC-002-003-----0
 62
     2
370
    -2
100
AcDbLine
 10
530.0
 20
366.392036
 30
0.0
 11
530.0
 21
242.392036
 31
0.0
  0
SOLID
  5
52
330
4E
100
AcDbEntity
  8
LC-002-003-----0
 62
     2
100
AcDbTrace
 10
534.666667
 20
366.392036
 30
0.0
 11
525.333333
 21
366.392036
 31
0.0
 12
530.0
 22
394.392036
 32
0.0
 13
530.0
 23
394.392036
 33
0.0
  0
SOLID
  5
53
330
4E
100
AcDbEntity
  8
LC-002-003-----0
 62
     2
100
AcDbTrace
 10
525.333333
 20
242.392036
 30
0.0
 11
534.666667
 21
242.392036
 31
0.0
 12
530.0
 22
214.392036
 32
0.0
 13
530.0
 23
214.392036
 33
0.0
  0
MTEXT
  5
54
330
4E
100
AcDbEntity
  8
LC-002-003-----0
 62
     2
100
AcDbMText
 10
499.2
 20
303.00313
 30
0.0
 40
28.0
 41
0.0
 71
     5
 72
     1
  1
\A1;180
  7
LCTX15-400-0-0pDIN-Schrift
 11
6.123031769111886E-17
 21
1.0
 31
0.0
 73
     1
 44
1.0
  0
POINT
  5
55
330
4E
100
AcDbEntity
  8
Defpoints
 62
     0
100
AcDbPoint
 10
457.706667
 20
394.392036
 30
0.0
  0
POINT
  5
56
330
4E
100
AcDbEntity
  8
Defpoints
 62
     0
100
AcDbPoint
 10
457.706667
 20
214.392036
 30
0.0
  0
POINT
  5
57
330
4E
100
AcDbEntity
  8
Defpoints
 62
     0
100
AcDbPoint
 10
530.0
 20
214.392036
 30
0.0
  0
ENDBLK
  5
59
330
4E
100
AcDbEntity
  8
0
100
AcDbBlockEnd
  0
BLOCK
  5
C0
330
B5
100
AcDbEntity
  8
0
100
AcDbBlockBegin
  2
*D3
 70
     1
 71
     0
 10
0.0
 20
0.0
 30
0.0
  3
*D3
  1

  0
LINE
  5
B6
330
B5
100
AcDbEntity
  8
LC-002-003-----0
 62
     2
370
    -2
100
AcDbLine
 10
213.579004
 20
490.026764
 30
0.0
 11
175.756612
 21
490.026764
 31
0.0
  0
LINE
  5
B7
330
B5
100
AcDbEntity
  8
LC-002-003-----0
 62
     2
370
    -2
100
AcDbLine
 10
212.706517
 20
515.026767
 30
0.0
 11
175.756612
 21
515.026767
 31
0.0
  0
LINE
  5
B8
330
B5
100
AcDbEntity
  8
LC-002-003-----0
 62
     2
370
    -2
100
AcDbLine
 10
179.356612
 20
543.026767
 30
0.0
 11
179.356612
 21
571.026767
 31
0.0
  0
LINE
  5
B9
330
B5
100
AcDbEntity
  8
LC-002-003-----0
 62
     2
370
    -2
100
AcDbLine
 10
179.356612
 20
462.026764
 30
0.0
 11
179.356612
 21
448.718908
 31
0.0
  0
SOLID
  5
BA
330
B5
100
AcDbEntity
  8
LC-002-003-----0
 62
     2
100
AcDbTrace
 10
184.023278
 20
462.026764
 30
0.0
 11
174.689945
 21
462.026764
 31
0.0
 12
179.356612
 22
490.026764
 32
0.0
 13
179.356612
 23
490.026764
 33
0.0
  0
SOLID
  5
BB
330
B5
100
AcDbEntity
  8
LC-002-003-----0
 62
     2
100
AcDbTrace
 10
174.689945
 20
543.026767
 30
0.0
 11
184.023278
 21
543.026767
 31
0.0
 12
179.356612
 22
515.026767
 32
0.0
 13
179.356612
 23
515.026767
 33
0.0
  0
MTEXT
  5
BC
330
B5
100
AcDbEntity
  8
LC-002-003-----0
 62
     2
100
AcDbMText
 10
148.556612
 20
471.636004
 30
0.0
 40
28.0
 41
0.0
 71
     5
 72
     1
  1
\A1;24
  7
LCTX15-400-0-0pDIN-Schrift
 11
6.123031769111886E-17
 21
1.0
 31
0.0
 73
     1
 44
1.0
  0
POINT
  5
BD
330
B5
100
AcDbEntity
  8
Defpoints
 62
     0
100
AcDbPoint
 10
213.579004
 20
490.026764
 30
0.0
  0
POINT
  5
BE
330
B5
100
AcDbEntity
  8
Defpoints
 62
     0
100
AcDbPoint
 10
212.706517
 20
515.026767
 30
0.0
  0
POINT
  5
BF
330
B5
100
AcDbEntity
  8
Defpoints
 62
     0
100
AcDbPoint
 10
179.356612
 20
515.026767
 30
0.0
  0
ENDBLK
  5
C1
330
B5
100
AcDbEntity
  8
0
100
AcDbBlockEnd
  0
ENDSEC
  0
SECTION
  2
ENTITIES
  0
LINE
  5
31
330
1F
100
AcDbEntity
  8
LC-001-002-----0
 62
     7
370
    50
100
AcDbLine
 10
219.206667
 20
394.392036
 30
0.0
 11
339.206667
 21
394.392036
 31
0.0
  0
LINE
  5
32
330
1F
100
AcDbEntity
  8
LC-001-002-----0
 62
     7
370
    50
100
AcDbLine
 10
214.206667
 20
389.392036
 30
0.0
 11
214.206667
 21
304.392036
 31
0.0
  0
ARC
  5
33
330
1F
100
AcDbEntity
  8
LC-001-002-----0
 62
     7
370
    50
100
AcDbCircle
 10
238.206679
 20
356.392036
 30
0.0
 40
4.000000000000172
100
AcDbArc
 50
179.999829
 51
0.0
  0
ARC
  5
34
330
1F
100
AcDbEntity
  8
LC-001-002-----0
 62
     7
370
    50
100
AcDbCircle
 10
238.206667
 20
373.392036
 30
0.0
 40
4.000000000000171
100
AcDbArc
 50
0.0
 51
179.999829
  0
LINE
  5
35
330
1F
100
AcDbEntity
  8
LC-001-002-----0
 62
     7
370
    50
100
AcDbLine
 10
234.206667
 20
373.392036
 30
0.0
 11
234.206667
 21
356.392048
 31
0.0
  0
LINE
  5
36
330
1F
100
AcDbEntity
  8
LC-001-002-----0
 62
     7
370
    50
100
AcDbLine
 10
242.206667
 20
373.392036
 30
0.0
 11
242.206667
 21
356.38227
 31
0.0
  0
LINE
  5
37
102
{ACAD_REACTORS
330
C2
102
}
330
1F
100
AcDbEntity
  8
LC-001-002-----0
 62
     7
370
    50
100
AcDbLine
 10
219.206667
 20
214.39141
 30
0.0
 11
339.204705
 21
214.390773
 31
0.0
  0
LINE
  5
38
102
{ACAD_REACTORS
330
C2
102
}
330
1F
100
AcDbEntity
  8
LC-001-002-----0
 62
     7
370
    50
100
AcDbLine
 10
214.204732
 20
219.392036
 30
0.0
 11
214.205183
 21
304.391436
 31
0.0
  0
LINE
  5
39
330
1F
100
AcDbEntity
  8
LC-001-002-----0
 62
     7
370
    50
100
AcDbLine
 10
339.706667
 20
394.392036
 30
0.0
 11
459.706667
 21
394.392036
 31
0.0
  0
LINE
  5
3A
330
1F
100
AcDbEntity
  8
LC-001-002-----0
 62
     7
370
    50
100
AcDbLine
 10
464.706667
 20
389.392036
 30
0.0
 11
464.706667
 21
219.392036
 31
0.0
  0
LINE
  5
3B
330
1F
100
AcDbEntity
  8
LC-001-002-----0
 62
     7
370
    50
100
AcDbLine
 10
459.706667
 20
214.392036
 30
0.0
 11
339.706667
 21
214.392036
 31
0.0
  0
DIMENSION
  5
3F
330
1F
100
AcDbEntity
  8
LC-002-003-----0
 62
     7
370
    25
100
AcDbDimension
  2
*D1
 10
464.706667
 20
440.0
 30
0.0
 11
339.461584
 21
470.8
 31
0.0
 70
   160
  1
250
 71
     5
 42
250.5
  3
LC-DIM-L-0140-02-02
100
AcDbAlignedDimension
 13
214.206667
 23
394.392036
 33
0.0
 14
464.706667
 24
387.392036
 34
0.0
100
AcDbRotatedDimension
  0
DIMENSION
  5
4D
330
1F
100
AcDbEntity
  8
LC-002-003-----0
 62
     7
370
    25
100
AcDbDimension
  2
*D2
 10
530.0
 20
214.392036
 30
0.0
 11
499.2
 21
303.00313
 31
0.0
 70
   160
 71
     5
 42
180.0
 53
90.0
  3
LC-DIM-L-0140-02-02
100
AcDbAlignedDimension
 13
457.706667
 23
394.392036
 33
0.0
 14
457.706667
 24
214.392036
 34
0.0
 50
90.0
100
AcDbRotatedDimension
  0
LINE
  5
5A
330
1F
100
AcDbEntity
  8
LC-001-002-----0
 62
     7
370
    50
100
AcDbLine
 10
459.706667
 20
214.392036
 30
0.0
 11
464.706667
 21
219.392036
 31
0.0
  0
LINE
  5
5B
330
1F
100
AcDbEntity
  8
LC-001-002-----0
 62
     7
370
    50
100
AcDbLine
 10
459.706667
 20
394.392036
 30
0.0
 11
464.706667
 21
389.392036
 31
0.0
  0
LINE
  5
5C
330
1F
100
AcDbEntity
  8
LC-001-002-----0
 62
     7
370
    50
100
AcDbLine
 10
219.206667
 20
394.392036
 30
0.0
 11
214.206667
 21
389.392036
 31
0.0
  0
LINE
  5
5D
330
1F
100
AcDbEntity
  8
LC-001-002-----0
 62
     7
370
    50
100
AcDbLine
 10
219.206667
 20
214.392036
 30
0.0
 11
214.206667
 21
219.392036
 31
0.0
  0
LINE
  5
5E
330
1F
100
AcDbEntity
  8
LC-001-002-----0
 62
     7
370
    25
100
AcDbLine
 10
214.206667
 20
389.392036
 30
0.0
 11
214.206667
 21
394.392036
 31
0.0
  0
LINE
  5
5F
330
1F
100
AcDbEntity
  8
LC-001-002-----0
 62
     7
370
    50
100
AcDbLine
 10
257.206667
 20
373.392024
 30
0.0
 11
257.206667
 21
356.392024
 31
0.0
  0
ARC
  5
60
330
1F
100
AcDbEntity
  8
LC-001-002-----0
 62
     7
370
    50
100
AcDbCircle
 10
261.206667
 20
373.392024
 30
0.0
 40
4.000000000000114
100
AcDbArc
 50
0.0
 51
179.999829
  0
ARC
  5
61
330
1F
100
AcDbEntity
  8
LC-001-002-----0
 62
     7
370
    50
100
AcDbCircle
 10
284.206667
 20
373.392012
 30
0.0
 40
4.000000000000114
100
AcDbArc
 50
0.0
 51
179.999829
  0
ARC
  5
62
330
1F
100
AcDbEntity
  8
LC-001-002-----0
 62
     7
370
    50
100
AcDbCircle
 10
307.206667
 20
373.392
 30
0.0
 40
4.000000000000114
100
AcDbArc
 50
0.0
 51
179.999829
  0
ARC
  5
63
330
1F
100
AcDbEntity
  8
LC-001-002-----0
 62
     7
370
    50
100
AcDbCircle
 10
330.206667
 20
373.391988
 30
0.0
 40
4.000000000000114
100
AcDbArc
 50
0.0
 51
179.999829
  0
LINE
  5
64
330
1F
100
AcDbEntity
  8
LC-001-002-----0
 62
     7
370
    50
100
AcDbLine
 10
265.206667
 20
373.392024
 30
0.0
 11
265.206667
 21
356.382258
 31
0.0
  0
LINE
  5
65
330
1F
100
AcDbEntity
  8
LC-001-002-----0
 62
     7
370
    50
100
AcDbLine
 10
288.206667
 20
373.392012
 30
0.0
 11
288.206667
 21
356.382246
 31
0.0
  0
LINE
  5
66
330
1F
100
AcDbEntity
  8
LC-001-002-----0
 62
     7
370
    50
100
AcDbLine
 10
280.206667
 20
373.392012
 30
0.0
 11
280.206667
 21
356.392012
 31
0.0
  0
LINE
  5
67
330
1F
100
AcDbEntity
  8
LC-001-002-----0
 62
     7
370
    50
100
AcDbLine
 10
303.206667
 20
373.392
 30
0.0
 11
303.206667
 21
356.392
 31
0.0
  0
LINE
  5
68
330
1F
100
AcDbEntity
  8
LC-001-002-----0
 62
     7
370
    50
100
AcDbLine
 10
311.206667
 20
373.392
 30
0.0
 11
311.206667
 21
356.382234
 31
0.0
  0
LINE
  5
69
330
1F
100
AcDbEntity
  8
LC-001-002-----0
 62
     7
370
    50
100
AcDbLine
 10
326.206667
 20
373.391988
 30
0.0
 11
326.206667
 21
356.391988
 31
0.0
  0
LINE
  5
6A
330
1F
100
AcDbEntity
  8
LC-001-002-----0
 62
     7
370
    50
100
AcDbLine
 10
334.206667
 20
373.391988
 30
0.0
 11
334.206667
 21
356.382222
 31
0.0
  0
ARC
  5
6B
330
1F
100
AcDbEntity
  8
LC-001-002-----0
 62
     7
370
    50
100
AcDbCircle
 10
261.206679
 20
356.392024
 30
0.0
 40
4.000000000000201
100
AcDbArc
 50
179.999829
 51
0.0
  0
ARC
  5
6C
330
1F
100
AcDbEntity
  8
LC-001-002-----0
 62
     7
370
    50
100
AcDbCircle
 10
284.206679
 20
356.392012
 30
0.0
 40
4.000000000000144
100
AcDbArc
 50
179.999829
 51
0.0
  0
ARC
  5
6D
330
1F
100
AcDbEntity
  8
LC-001-002-----0
 62
     7
370
    50
100
AcDbCircle
 10
307.206679
 20
356.392
 30
0.0
 40
4.000000000000144
100
AcDbArc
 50
179.999829
 51
0.0
  0
ARC
  5
6E
330
1F
100
AcDbEntity
  8
LC-001-002-----0
 62
     7
370
    50
100
AcDbCircle
 10
330.206679
 20
356.391988
 30
0.0
 40
4.000000000000144
100
AcDbArc
 50
179.999829
 51
0.0
  0
ARC
  5
6F
330
1F
100
AcDbEntity
  8
LC-001-002-----0
 62
     7
370
    50
100
AcDbCircle
 10
238.206679
 20
333.392036
 30
0.0
 40
4.000000000000171
100
AcDbArc
 50
0.0
 51
180.000171
  0
ARC
  5
70
330
1F
100
AcDbEntity
  8
LC-001-002-----0
 62
     7
370
    50
100
AcDbCircle
 10
238.206667
 20
316.392036
 30
0.0
 40
4.000000000000172
100
AcDbArc
 50
180.000171
 51
0.0
  0
LINE
  5
71
330
1F
100
AcDbEntity
  8
LC-001-002-----0
 62
     7
370
    50
100
AcDbLine
 10
234.206667
 20
316.392036
 30
0.0
 11
234.206667
 21
333.392024
 31
0.0
  0
LINE
  5
72
330
1F
100
AcDbEntity
  8
LC-001-002-----0
 62
     7
370
    50
100
AcDbLine
 10
242.206667
 20
316.392036
 30
0.0
 11
242.206667
 21
333.401802
 31
0.0
  0
LINE
  5
73
330
1F
100
AcDbEntity
  8
LC-001-002-----0
 62
     7
370
    50
100
AcDbLine
 10
257.206667
 20
316.392048
 30
0.0
 11
257.206667
 21
333.392048
 31
0.0
  0
ARC
  5
74
330
1F
100
AcDbEntity
  8
LC-001-002-----0
 62
     7
370
    50
100
AcDbCircle
 10
261.206667
 20
316.392048
 30
0.0
 40
4.000000000000087
100
AcDbArc
 50
180.000171
 51
0.0
  0
ARC
  5
75
330
1F
100
AcDbEntity
  8
LC-001-002-----0
 62
     7
370
    50
100
AcDbCircle
 10
284.206667
 20
316.39206
 30
0.0
 40
4.000000000000087
100
AcDbArc
 50
180.000171
 51
0.0
  0
ARC
  5
76
330
1F
100
AcDbEntity
  8
LC-001-002-----0
 62
     7
370
    50
100
AcDbCircle
 10
307.206667
 20
316.392072
 30
0.0
 40
4.000000000000087
100
AcDbArc
 50
180.000171
 51
0.0
  0
ARC
  5
77
330
1F
100
AcDbEntity
  8
LC-001-002-----0
 62
     7
370
    50
100
AcDbCircle
 10
330.206667
 20
316.392084
 30
0.0
 40
4.000000000000087
100
AcDbArc
 50
180.000171
 51
0.0
  0
LINE
  5
78
330
1F
100
AcDbEntity
  8
LC-001-002-----0
 62
     7
370
    50
100
AcDbLine
 10
265.206667
 20
316.392048
 30
0.0
 11
265.206667
 21
333.401814
 31
0.0
  0
LINE
  5
79
330
1F
100
AcDbEntity
  8
LC-001-002-----0
 62
     7
370
    50
100
AcDbLine
 10
288.206667
 20
316.39206
 30
0.0
 11
288.206667
 21
333.401826
 31
0.0
  0
LINE
  5
7A
330
1F
100
AcDbEntity
  8
LC-001-002-----0
 62
     7
370
    50
100
AcDbLine
 10
280.206667
 20
316.39206
 30
0.0
 11
280.206667
 21
333.39206
 31
0.0
  0
LINE
  5
7B
330
1F
100
AcDbEntity
  8
LC-001-002-----0
 62
     7
370
    50
100
AcDbLine
 10
303.206667
 20
316.392072
 30
0.0
 11
303.206667
 21
333.392072
 31
0.0
  0
LINE
  5
7C
330
1F
100
AcDbEntity
  8
LC-001-002-----0
 62
     7
370
    50
100
AcDbLine
 10
311.206667
 20
316.392072
 30
0.0
 11
311.206667
 21
333.401838
 31
0.0
  0
LINE
  5
7D
330
1F
100
AcDbEntity
  8
LC-001-002-----0
 62
     7
370
    50
100
AcDbLine
 10
326.206667
 20
316.392084
 30
0.0
 11
326.206667
 21
333.392084
 31
0.0
  0
LINE
  5
7E
330
1F
100
AcDbEntity
  8
LC-001-002-----0
 62
     7
370
    50
100
AcDbLine
 10
334.206667
 20
316.392084
 30
0.0
 11
334.206667
 21
333.401849
 31
0.0
  0
ARC
  5
7F
330
1F
100
AcDbEntity
  8
LC-001-002-----0
 62
     7
370
    50
100
AcDbCircle
 10
261.206679
 20
333.392048
 30
0.0
 40
4.000000000000227
100
AcDbArc
 50
0.0
 51
180.000171
  0
ARC
  5
80
330
1F
100
AcDbEntity
  8
LC-001-002-----0
 62
     7
370
    50
100
AcDbCircle
 10
284.206679
 20
333.39206
 30
0.0
 40
4.000000000000171
100
AcDbArc
 50
0.0
 51
180.000171
  0
ARC
  5
81
330
1F
100
AcDbEntity
  8
LC-001-002-----0
 62
     7
370
    50
100
AcDbCircle
 10
307.206679
 20
333.392072
 30
0.0
 40
4.000000000000171
100
AcDbArc
 50
0.0
 51
180.000171
  0
ARC
  5
82
330
1F
100
AcDbEntity
  8
LC-001-002-----0
 62
     7
370
    50
100
AcDbCircle
 10
330.206679
 20
333.392084
 30
0.0
 40
4.000000000000171
100
AcDbArc
 50
0.0
 51
180.000171
  0
ARC
  5
83
330
1F
100
AcDbEntity
  8
LC-001-002-----0
 62
     7
370
    50
100
AcDbCircle
 10
238.206679
 20
252.392036
 30
0.0
 40
4.000000000000171
100
AcDbArc
 50
0.0
 51
180.000171
  0
ARC
  5
84
330
1F
100
AcDbEntity
  8
LC-001-002-----0
 62
     7
370
    50
100
AcDbCircle
 10
238.206667
 20
235.392036
 30
0.0
 40
4.000000000000172
100
AcDbArc
 50
180.000171
 51
0.0
  0
LINE
  5
85
330
1F
100
AcDbEntity
  8
LC-001-002-----0
 62
     7
370
    50
100
AcDbLine
 10
234.206667
 20
235.392036
 30
0.0
 11
234.206667
 21
252.392024
 31
0.0
  0
LINE
  5
86
330
1F
100
AcDbEntity
  8
LC-001-002-----0
 62
     7
370
    50
100
AcDbLine
 10
242.206667
 20
235.392036
 30
0.0
 11
242.206667
 21
252.401802
 31
0.0
  0
LINE
  5
87
330
1F
100
AcDbEntity
  8
LC-001-002-----0
 62
     7
370
    50
100
AcDbLine
 10
257.206667
 20
235.392048
 30
0.0
 11
257.206667
 21
252.392048
 31
0.0
  0
ARC
  5
88
330
1F
100
AcDbEntity
  8
LC-001-002-----0
 62
     7
370
    50
100
AcDbCircle
 10
261.206667
 20
235.392048
 30
0.0
 40
4.000000000000087
100
AcDbArc
 50
180.000171
 51
0.0
  0
ARC
  5
89
330
1F
100
AcDbEntity
  8
LC-001-002-----0
 62
     7
370
    50
100
AcDbCircle
 10
284.206667
 20
235.39206
 30
0.0
 40
4.000000000000087
100
AcDbArc
 50
180.000171
 51
0.0
  0
ARC
  5
8A
330
1F
100
AcDbEntity
  8
LC-001-002-----0
 62
     7
370
    50
100
AcDbCircle
 10
307.206667
 20
235.392072
 30
0.0
 40
4.000000000000087
100
AcDbArc
 50
180.000171
 51
0.0
  0
ARC
  5
8B
330
1F
100
AcDbEntity
  8
LC-001-002-----0
 62
     7
370
    50
100
AcDbCircle
 10
330.206667
 20
235.392084
 30
0.0
 40
4.000000000000087
100
AcDbArc
 50
180.000171
 51
0.0
  0
LINE
  5
8C
330
1F
100
AcDbEntity
  8
LC-001-002-----0
 62
     7
370
    50
100
AcDbLine
 10
265.206667
 20
235.392048
 30
0.0
 11
265.206667
 21
252.401814
 31
0.0
  0
LINE
  5
8D
330
1F
100
AcDbEntity
  8
LC-001-002-----0
 62
     7
370
    50
100
AcDbLine
 10
288.206667
 20
235.39206
 30
0.0
 11
288.206667
 21
252.401826
 31
0.0
  0
LINE
  5
8E
330
1F
100
AcDbEntity
  8
LC-001-002-----0
 62
     7
370
    50
100
AcDbLine
 10
280.206667
 20
235.39206
 30
0.0
 11
280.206667
 21
252.39206
 31
0.0
  0
LINE
  5
8F
330
1F
100
AcDbEntity
  8
LC-001-002-----0
 62
     7
370
    50
100
AcDbLine
 10
303.206667
 20
235.392072
 30
0.0
 11
303.206667
 21
252.392072
 31
0.0
  0
LINE
  5
90
330
1F
100
AcDbEntity
  8
LC-001-002-----0
 62
     7
370
    50
100
AcDbLine
 10
311.206667
 20
235.392072
 30
0.0
 11
311.206667
 21
252.401838
 31
0.0
  0
LINE
  5
91
330
1F
100
AcDbEntity
  8
LC-001-002-----0
 62
     7
370
    50
100
AcDbLine
 10
326.206667
 20
235.392084
 30
0.0
 11
326.206667
 21
252.392084
 31
0.0
  0
LINE
  5
92
330
1F
100
AcDbEntity
  8
LC-001-002-----0
 62
     7
370
    50
100
AcDbLine
 10
334.206667
 20
235.392084
 30
0.0
 11
334.206667
 21
252.401849
 31
0.0
  0
ARC
  5
93
330
1F
100
AcDbEntity
  8
LC-001-002-----0
 62
     7
370
    50
100
AcDbCircle
 10
261.206679
 20
252.392048
 30
0.0
 40
4.000000000000227
100
AcDbArc
 50
0.0
 51
180.000171
  0
ARC
  5
94
330
1F
100
AcDbEntity
  8
LC-001-002-----0
 62
     7
370
    50
100
AcDbCircle
 10
284.206679
 20
252.39206
 30
0.0
 40
4.000000000000171
100
AcDbArc
 50
0.0
 51
180.000171
  0
ARC
  5
95
330
1F
100
AcDbEntity
  8
LC-001-002-----0
 62
     7
370
    50
100
AcDbCircle
 10
307.206679
 20
252.392072
 30
0.0
 40
4.000000000000171
100
AcDbArc
 50
0.0
 51
180.000171
  0
ARC
  5
96
330
1F
100
AcDbEntity
  8
LC-001-002-----0
 62
     7
370
    50
100
AcDbCircle
 10
330.206679
 20
252.392084
 30
0.0
 40
4.000000000000171
100
AcDbArc
 50
0.0
 51
180.000171
  0
ARC
  5
97
330
1F
100
AcDbEntity
  8
LC-001-002-----0
 62
     7
370
    50
100
AcDbCircle
 10
238.206679
 20
275.392036
 30
0.0
 40
4.000000000000172
100
AcDbArc
 50
179.999829
 51
0.0
  0
ARC
  5
98
330
1F
100
AcDbEntity
  8
LC-001-002-----0
 62
     7
370
    50
100
AcDbCircle
 10
238.206667
 20
292.392036
 30
0.0
 40
4.000000000000171
100
AcDbArc
 50
0.0
 51
179.999829
  0
LINE
  5
99
330
1F
100
AcDbEntity
  8
LC-001-002-----0
 62
     7
370
    50
100
AcDbLine
 10
234.206667
 20
292.392036
 30
0.0
 11
234.206667
 21
275.392048
 31
0.0
  0
LINE
  5
9A
330
1F
100
AcDbEntity
  8
LC-001-002-----0
 62
     7
370
    50
100
AcDbLine
 10
242.206667
 20
292.392036
 30
0.0
 11
242.206667
 21
275.38227
 31
0.0
  0
LINE
  5
9B
330
1F
100
AcDbEntity
  8
LC-001-002-----0
 62
     7
370
    50
100
AcDbLine
 10
257.206667
 20
292.392024
 30
0.0
 11
257.206667
 21
275.392024
 31
0.0
  0
ARC
  5
9C
330
1F
100
AcDbEntity
  8
LC-001-002-----0
 62
     7
370
    50
100
AcDbCircle
 10
261.206667
 20
292.392024
 30
0.0
 40
4.000000000000114
100
AcDbArc
 50
0.0
 51
179.999829
  0
ARC
  5
9D
330
1F
100
AcDbEntity
  8
LC-001-002-----0
 62
     7
370
    50
100
AcDbCircle
 10
284.206667
 20
292.392012
 30
0.0
 40
4.000000000000114
100
AcDbArc
 50
0.0
 51
179.999829
  0
ARC
  5
9E
330
1F
100
AcDbEntity
  8
LC-001-002-----0
 62
     7
370
    50
100
AcDbCircle
 10
307.206667
 20
292.392
 30
0.0
 40
4.000000000000114
100
AcDbArc
 50
0.0
 51
179.999829
  0
ARC
  5
9F
330
1F
100
AcDbEntity
  8
LC-001-002-----0
 62
     7
370
    50
100
AcDbCircle
 10
330.206667
 20
292.391988
 30
0.0
 40
4.000000000000114
100
AcDbArc
 50
0.0
 51
179.999829
  0
LINE
  5
A0
330
1F
100
AcDbEntity
  8
LC-001-002-----0
 62
     7
370
    50
100
AcDbLine
 10
265.206667
 20
292.392024
 30
0.0
 11
265.206667
 21
275.382258
 31
0.0
  0
LINE
  5
A1
330
1F
100
AcDbEntity
  8
LC-001-002-----0
 62
     7
370
    50
100
AcDbLine
 10
288.206667
 20
292.392012
 30
0.0
 11
288.206667
 21
275.382246
 31
0.0
  0
LINE
  5
A2
330
1F
100
AcDbEntity
  8
LC-001-002-----0
 62
     7
370
    50
100
AcDbLine
 10
280.206667
 20
292.392012
 30
0.0
 11
280.206667
 21
275.392012
 31
0.0
  0
LINE
  5
A3
330
1F
100
AcDbEntity
  8
LC-001-002-----0
 62
     7
370
    50
100
AcDbLine
 10
303.206667
 20
292.392
 30
0.0
 11
303.206667
 21
275.392
 31
0.0
  0
LINE
  5
A4
330
1F
100
AcDbEntity
  8
LC-001-002-----0
 62
     7
370
    50
100
AcDbLine
 10
311.206667
 20
292.392
 30
0.0
 11
311.206667
 21
275.382234
 31
0.0
  0
LINE
  5
A5
330
1F
100
AcDbEntity
  8
LC-001-002-----0
 62
     7
370
    50
100
AcDbLine
 10
326.206667
 20
292.391988
 30
0.0
 11
326.206667
 21
275.391988
 31
0.0
  0
LINE
  5
A6
330
1F
100
AcDbEntity
  8
LC-001-002-----0
 62
     7
370
    50
100
AcDbLine
 10
334.206667
 20
292.391988
 30
0.0
 11
334.206667
 21
275.382222
 31
0.0
  0
ARC
  5
A7
330
1F
100
AcDbEntity
  8
LC-001-002-----0
 62
     7
370
    50
100
AcDbCircle
 10
261.206679
 20
275.392024
 30
0.0
 40
4.000000000000201
100
AcDbArc
 50
179.999829
 51
0.0
  0
ARC
  5
A8
330
1F
100
AcDbEntity
  8
LC-001-002-----0
 62
     7
370
    50
100
AcDbCircle
 10
284.206679
 20
275.392012
 30
0.0
 40
4.000000000000144
100
AcDbArc
 50
179.999829
 51
0.0
  0
ARC
  5
A9
330
1F
100
AcDbEntity
  8
LC-001-002-----0
 62
     7
370
    50
100
AcDbCircle
 10
307.206679
 20
275.392
 30
0.0
 40
4.000000000000144
100
AcDbArc
 50
179.999829
 51
0.0
  0
ARC
  5
AA
330
1F
100
AcDbEntity
  8
LC-001-002-----0
 62
     7
370
    50
100
AcDbCircle
 10
330.206679
 20
275.391988
 30
0.0
 40
4.000000000000144
100
AcDbArc
 50
179.999829
 51
0.0
  0
LINE
  5
AB
330
1F
100
AcDbEntity
  8
LC-001-002-----0
 62
     7
370
    50
100
AcDbLine
 10
218.956517
 20
490.026766
 30
0.0
 11
459.956816
 21
490.026887
 31
0.0
  0
LINE
  5
AC
330
1F
100
AcDbEntity
  8
LC-001-002-----0
 62
     7
370
    50
100
AcDbLine
 10
212.706517
 20
515.026767
 30
0.0
 11
466.206833
 21
515.026882
 31
0.0
  0
LINE
  5
AD
330
1F
100
AcDbEntity
  8
LC-001-002-----0
 62
     7
370
    50
100
AcDbLine
 10
213.579004
 20
490.026764
 30
0.0
 11
465.333814
 21
490.026889
 31
0.0
  0
LINE
  5
AE
330
1F
100
AcDbEntity
  8
LC-001-002-----0
 62
     7
370
    50
100
AcDbLine
 10
212.706517
 20
515.026767
 30
0.0
 11
466.206833
 21
515.026882
 31
0.0
  0
LINE
  5
AF
330
1F
100
AcDbEntity
  8
LC-001-002-----0
 62
     7
370
    50
100
AcDbLine
 10
212.706517
 20
515.026766
 30
0.0
 11
213.579004
 21
490.041996
 31
0.0
  0
LINE
  5
B0
330
1F
100
AcDbEntity
  8
LC-001-002-----0
 62
     7
370
    50
100
AcDbLine
 10
466.206833
 20
515.026882
 30
0.0
 11
465.648441
 21
499.036629
 31
0.0
  0
LINE
  5
B1
330
1F
100
AcDbEntity
  8
LC-001-002-----0
 62
     7
370
    50
100
AcDbLine
 10
465.648441
 20
499.036629
 30
0.0
 11
465.334345
 21
490.042112
 31
0.0
  0
LINE
  5
B3
330
1F
100
AcDbEntity
  8
LC-001-002-----0
  6
DASHDOT
 62
     7
370
    25
100
AcDbLine
 10
339.456251
 20
490.026826
 30
0.0
 11
339.456251
 21
514.026882
 31
0.0
  0
DIMENSION
  5
B4
330
1F
100
AcDbEntity
  8
LC-002-003-----0
 62
     7
370
    25
100
AcDbDimension
  2
*D3
 10
179.356612
 20
515.026767
 30
0.0
 11
148.556612
 21
471.636004
 31
0.0
 70
   160
  1
24
 71
     5
 42
25.000003
 53
90.0
  3
LC-DIM-L-0140-02-02
100
AcDbAlignedDimension
 13
213.579004
 23
490.026764
 33
0.0
 14
212.706517
 24
515.026767
 34
0.0
 50
90.0
100
AcDbRotatedDimension
  0
ENDSEC
  0
SECTION
  2
OBJECTS
  0
DICTIONARY
  5
C
330
0
100
AcDbDictionary
281
     1
  3
ACAD_GROUP
350
D
  3
ACAD_LAYOUT
350
1A
  3
ACAD_MLINESTYLE
350
17
  3
ACAD_PLOTSETTINGS
350
19
  3
ACAD_PLOTSTYLENAME
350
E
  0
DICTIONARY
  5
D
102
{ACAD_REACTORS
330
C
102
}
330
C
100
AcDbDictionary
281
     1
  3
LCGROUP48
350
C2
  0
DICTIONARY
  5
1A
102
{ACAD_REACTORS
330
C
102
}
330
C
100
AcDbDictionary
281
     1
  3
Layout1
350
1E
  3
Layout2
350
26
  3
Model
350
22
  0
DICTIONARY
  5
17
102
{ACAD_REACTORS
330
C
102
}
330
C
100
AcDbDictionary
281
     1
  3
Standard
350
18
  0
DICTIONARY
  5
19
102
{ACAD_REACTORS
330
C
102
}
330
C
100
AcDbDictionary
281
     1
  0
ACDBDICTIONARYWDFLT
  5
E
102
{ACAD_REACTORS
330
C
102
}
330
C
100
AcDbDictionary
281
     1
  3
Normal
350
F
100
AcDbDictionaryWithDefault
340
F
  0
GROUP
  5
C2
102
{ACAD_REACTORS
330
D
102
}
330
D
100
AcDbGroup
300
GRP48
 70
     1
 71
     1
340
37
340
38
  0
LAYOUT
  5
1E
102
{ACAD_REACTORS
330
1A
102
}
330
1A
100
AcDbPlotSettings
  1

  2

  4

  6

 40
0.0
 41
0.0
 42
0.0
 43
0.0
 44
0.0
 45
0.0
 46
0.0
 47
0.0
 48
0.0
 49
0.0
140
0.0
141
0.0
142
1.0
143
1.0
 70
   688
 72
     0
 73
     0
 74
     5
  7

 75
    16
147
1.0
148
0.0
149
0.0
100
AcDbLayout
  1
Layout1
 70
     1
 71
     1
 10
0.0
 20
0.0
 11
840.0
 21
594.0
 12
0.0
 22
0.0
 32
0.0
 14
0.0
 24
0.0
 34
0.0
 15
840.0
 25
594.0
 35
0.0
146
0.0
 13
0.0
 23
0.0
 33
0.0
 16
1.0
 26
0.0
 36
0.0
 17
0.0
 27
1.0
 37
0.0
 76
     0
330
1B
  0
LAYOUT
  5
26
102
{ACAD_REACTORS
330
1A
102
}
330
1A
100
AcDbPlotSettings
  1

  2

  4

  6

 40
0.0
 41
0.0
 42
0.0
 43
0.0
 44
0.0
 45
0.0
 46
0.0
 47
0.0
 48
0.0
 49
0.0
140
0.0
141
0.0
142
1.0
143
1.0
 70
   688
 72
     0
 73
     0
 74
     5
  7

 75
    16
147
1.0
148
0.0
149
0.0
100
AcDbLayout
  1
Layout2
 70
     1
 71
     2
 10
0.0
 20
0.0
 11
0.0
 21
0.0
 12
0.0
 22
0.0
 32
0.0
 14
0.0
 24
0.0
 34
0.0
 15
0.0
 25
0.0
 35
0.0
146
0.0
 13
0.0
 23
0.0
 33
0.0
 16
1.0
 26
0.0
 36
0.0
 17
0.0
 27
1.0
 37
0.0
 76
     0
330
23
  0
LAYOUT
  5
22
102
{ACAD_REACTORS
330
1A
102
}
330
1A
100
AcDbPlotSettings
  1

  2

  4

  6

 40
0.0
 41
0.0
 42
0.0
 43
0.0
 44
0.0
 45
0.0
 46
0.0
 47
0.0
 48
0.0
 49
0.0
140
0.0
141
0.0
142
1.0
143
1.0
 70
  1776
 72
     0
 73
     0
 74
     0
  7

 75
     0
147
1.0
148
0.0
149
0.0
100
AcDbLayout
  1
Model
 70
     1
 71
     0
 10
0.0
 20
0.0
 11
840.0
 21
594.0
 12
0.0
 22
0.0
 32
0.0
 14
0.0
 24
0.0
 34
0.0
 15
840.0
 25
594.0
 35
0.0
146
0.0
 13
0.0
 23
0.0
 33
0.0
 16
1.0
 26
0.0
 36
0.0
 17
0.0
 27
1.0
 37
0.0
 76
     0
330
1F
  0
MLINESTYLE
  5
18
102
{ACAD_REACTORS
330
17
102
}
330
17
100
AcDbMlineStyle
  2
Standard
 70
     0
  3

 62
   256
 51
90.0
 52
90.0
 71
     2
 49
0.5
 62
   256
  6
BYLAYER
 49
-0.5
 62
   256
  6
BYLAYER
  0
ACDBPLACEHOLDER
  5
F
102
{ACAD_REACTORS
330
E
102
}
330
E
  0
ENDSEC
  0
EOF
