  0
SECTION
  2
HEADER
  9
$ACADVER
  1
AC1009
  9
$INSBASE
 10
408.121648
 20
230.266
 30
0.0
  9
$EXTMIN
 10
408.121648
 20
230.266
 30
0.0
  9
$EXTMAX
 10
1248.121648
 20
824.266
 30
0.0
  9
$LIMMIN
 10
408.121648
 20
230.266
  9
$LIMMAX
 10
1248.121648
 20
824.266
  9
$ORTHOMODE
 70
     0
  9
$REGENMODE
 70
     1
  9
$FILLMODE
 70
     1
  9
$QTEXTMODE
 70
     0
  9
$MIRRTEXT
 70
     1
  9
$DRAGMODE
 70
     2
  9
$LTSCALE
 40
2.0
  9
$OSMODE
 70
     0
  9
$ATTMODE
 70
     1
  9
$TEXTSIZE
 40
0.2
  9
$TRACEWID
 40
0.05
  9
$TEXTSTYLE
  7
STANDARD
  9
$CLAYER
  8
0
  9
$CELTYPE
  6
BYLAYER
  9
$CECOLOR
 62
     7
  9
$DIMSCALE
 40
2.0
  9
$DIMASZ
 40
3.5
  9
$DIMEXO
 40
0.0625
  9
$DIMDLI
 40
0.38
  9
$DIMRND
 40
0.0
  9
$DIMDLE
 40
0.0
  9
$DIMEXE
 40
0.18
  9
$DIMTP
 40
0.0
  9
$DIMTM
 40
0.0
  9
$DIMTXT
 40
3.5
  9
$DIMCEN
 40
0.09
  9
$DIMTSZ
 40
0.0
  9
$DIMTOL
 70
     0
  9
$DIMLIM
 70
     0
  9
$DIMTIH
 70
     1
  9
$DIMTOH
 70
     1
  9
$DIMSE1
 70
     0
  9
$DIMSE2
 70
     0
  9
$DIMTAD
 70
     1
  9
$DIMZIN
 70
     0
  9
$DIMBLK
  1

  9
$DIMASO
 70
     1
  9
$DIMSHO
 70
     1
  9
$DIMPOST
  1

  9
$DIMAPOST
  1

  9
$DIMALT
 70
     0
  9
$DIMALTD
 70
     2
  9
$DIMALTF
 40
25.4
  9
$DIMLFAC
 40
1.0
  9
$DIMTOFL
 70
     0
  9
$DIMTVP
 40
0.0
  9
$DIMTIX
 70
     0
  9
$DIMSOXD
 70
     0
  9
$DIMSAH
 70
     0
  9
$DIMBLK1
  1

  9
$DIMBLK2
  1

  9
$DIMSTYLE
  2
STANDARD
  9
$DIMCLRD
 70
     0
  9
$DIMCLRE
 70
     0
  9
$DIMCLRT
 70
     0
  9
$DIMTFAC
 40
1.0
  9
$DIMGAP
 40
0.09
  9
$LUNITS
 70
     2
  9
$LUPREC
 70
     2
  9
$AXISMODE
 70
     0
  9
$AXISUNIT
 10
0.0
 20
0.0
  9
$SKETCHINC
 40
0.1
  9
$FILLETRAD
 40
0.0
  9
$AUNITS
 70
     0
  9
$AUPREC
 70
     0
  9
$MENU
  1
acad
  9
$ELEVATION
 40
0.0
  9
$PELEVATION
 40
0.0
  9
$THICKNESS
 40
0.0
  9
$LIMCHECK
 70
     0
  9
$BLIPMODE
 70
     1
  9
$CHAMFERA
 40
0.0
  9
$CHAMFERB
 40
0.0
  9
$SKPOLY
 70
     0
  9
$TDCREATE
 40
0.000000000
  9
$TDUPDATE
 40
0.000000000
  9
$TDINDWG
 40
0.0000000000
  9
$TDUSRTIMER
 40
0.0000000000
  9
$USRTIMER
 70
     1
  9
$ANGBASE
 50
0.0
  9
$ANGDIR
 70
     0
  9
$PDMODE
 70
     0
  9
$PDSIZE
 40
0.0
  9
$PLINEWID
 40
0.0
  9
$COORDS
 70
     0
  9
$SPLFRAME
 70
     0
  9
$SPLINETYPE
 70
     6
  9
$SPLINESEGS
 70
     8
  9
$ATTDIA
 70
     0
  9
$ATTREQ
 70
     1
  9
$HANDLING
 70
     1
  9
$HANDSEED
  5
533
  9
$SURFTAB1
 70
     6
  9
$SURFTAB2
 70
     6
  9
$SURFTYPE
 70
     6
  9
$SURFU
 70
     6
  9
$SURFV
 70
     6
  9
$UCSNAME
  2

  9
$UCSORG
 10
0.0
 20
0.0
 30
0.0
  9
$UCSXDIR
 10
1.0
 20
0.0
 30
0.0
  9
$UCSYDIR
 10
0.0
 20
1.0
 30
0.0
  9
$PUCSNAME
  2

  9
$PUCSORG
 10
0.0
 20
0.0
 30
0.0
  9
$PUCSXDIR
 10
1.0
 20
0.0
 30
0.0
  9
$PUCSYDIR
 10
0.0
 20
1.0
 30
0.0
  9
$USERI1
 70
     0
  9
$USERI2
 70
     0
  9
$USERI3
 70
     0
  9
$USERI4
 70
     0
  9
$USERI5
 70
     0
  9
$USERR1
 40
0.0
  9
$USERR2
 40
0.0
  9
$USERR3
 40
0.0
  9
$USERR4
 40
0.0
  9
$USERR5
 40
0.0
  9
$WORLDVIEW
 70
     1
  9
$SHADEDGE
 70
     3
  9
$SHADEDIF
 70
    70
  9
$TILEMODE
 70
     1
  9
$MAXACTVP
 70
    16
  9
$PINSBASE
 10
0.0
 20
0.0
 30
0.0
  9
$PLIMCHECK
 70
     0
  9
$PEXTMIN
 10
1.000000E+20
 20
1.000000E+20
 30
1.000000E+20
  9
$PEXTMAX
 10
-1.000000E+20
 20
-1.000000E+20
 30
-1.000000E+20
  9
$PLIMMIN
 10
408.121648
 20
230.266
  9
$PLIMMAX
 10
1248.121648
 20
824.266
  9
$UNITMODE
 70
     0
  9
$VISRETAIN
 70
     0
  9
$PLINEGEN
 70
     1
  9
$PSLTSCALE
 70
     0
  9
$TREEDEPTH
 70
  3020
  9
$DWGCODEPAGE
  3
dos850
  0
ENDSEC
  0
SECTION
  2
TABLES
  0
TABLE
  2
VPORT
 70
     1
  0
VPORT
  2
*ACTIVE
 70
     0
 10
0.0
 20
0.0
 11
1.0
 21
1.0
 12
420.0
 22
297.0
 13
0.0
 23
0.0
 14
1.0
 24
1.0
 15
0.0
 25
0.0
 16
0.0
 26
0.0
 36
1.0
 17
408.121648
 27
230.266
 37
0.0
 40
594.0
 41
1.604229
 42
50.0
 43
0.0
 44
0.0
 50
0.0
 51
0.0
 71
     0
 72
   100
 73
     1
 74
     1
 75
     0
 76
     0
 77
     0
 78
     0
  0
ENDTAB
  0
TABLE
  2
LTYPE
 70
     3
  0
LTYPE
  2
CONTINUOUS
 70
    64
  3
Solid line
 72
    65
 73
     0
 40
0.0
  0
LTYPE
  2
DASHED
 70
    64
  3
__ __ __ __ __
 72
    65
 73
     2
 40
6.25
 49
5.0
 49
-1.25
  0
LTYPE
  2
DASHDOT
 70
    64
  3
__ . __ . __ . __ . __
 72
    65
 73
     4
 40
7.5
 49
5.0
 49
-1.25
 49
0.0
 49
-1.25
  0
ENDTAB
  0
TABLE
  2
LAYER
 70
    18
  0
LAYER
  2
0
 70
     0
 62
     7
  6
CONTINUOUS
  0
LAYER
  2
LC-INFO-1-2-MM-A3-0
 70
     1
 62
    -1
  6
CONTINUOUS
  0
LAYER
  2
LC-011-003-MTH-0
 70
     0
 62
     2
  6
CONTINUOUS
  0
LAYER
  2
LC-012-003-MTG-0
 70
     0
 62
     2
  6
CONTINUOUS
  0
LAYER
  2
LC-010-003-----0
 70
     0
 62
     2
  6
CONTINUOUS
  0
LAYER
  2
LC-013-005-----0
 70
     0
 62
     2
  6
CONTINUOUS
  0
LAYER
  2
LC-001-100-D02-0
 70
     0
 62
     4
  6
CONTINUOUS
  0
LAYER
  2
LC-006-000-----0
 70
     0
 62
     7
  6
CONTINUOUS
  0
LAYER
  2
LC-002-002-----0
 70
     0
 62
     1
  6
CONTINUOUS
  0
LAYER
  2
LC-003-100-D03-0
 70
     0
 62
     1
  6
CONTINUOUS
  0
LAYER
  2
LC-004-100-D16-0
 70
     0
 62
     1
  6
CONTINUOUS
  0
LAYER
  2
LC-005-100-D00-0
 70
     0
 62
     1
  6
CONTINUOUS
  0
LAYER
  2
LC-007-100-D01-0
 70
     0
 62
     1
  6
CONTINUOUS
  0
LAYER
  2
LC-008-001-----0
 70
     0
 62
     1
  6
CONTINUOUS
  0
LAYER
  2
LC-009-002-RND-0
 70
     0
 62
     1
  6
CONTINUOUS
  0
LAYER
  2
LC-014-007-KH--0
 70
     0
 62
     7
  6
DASHDOT
  0
LAYER
  2
LC-015-100-D04-0
 70
     0
 62
     1
  6
CONTINUOUS
  0
LAYER
  2
LC-000
 70
     0
 62
     7
  6
CONTINUOUS
  0
ENDTAB
  0
TABLE
  2
STYLE
 70
     4
  0
STYLE
  2
STANDARD
 70
     0
 40
0.0
 41
1.0
 50
0.0
 71
     0
 42
0.0
  3
txt
  4

  0
STYLE
  2
LC-STANDARD
 70
    64
 40
0.0
 41
1.0
 50
0.0
 71
     0
 42
3.5
  3
MONOTXT
  4

  0
STYLE
  2
LC-TXTSTYLE-150-400-0-0-D2
 70
    64
 40
0.0
 41
1.0
 50
15.0
 71
     0
 42
3.5
  3
MONOTXT
  4

  0
STYLE
  2
LC-TXTSTYLE-150-400-0-0-D3
 70
    64
 40
0.0
 41
1.0
 50
15.0
 71
     0
 42
3.5
  3
LC-STANDARD
  4

  0
ENDTAB
  0
TABLE
  2
VIEW
 70
     0
  0
ENDTAB
  0
TABLE
  2
UCS
 70
     0
  0
ENDTAB
  0
TABLE
  2
APPID
 70
     1
  0
APPID
  2
ACAD
 70
     0
  0
ENDTAB
  0
TABLE
  2
DIMSTYLE
 70
     3
  0
DIMSTYLE
  2
STANDARD
 70
     0
  3

  4

  5

  6

  7

 40
1.0
 41
0.18
 42
0.0625
 43
0.38
 44
0.18
 45
0.0
 46
0.0
 47
0.0
 48
0.0
 71
     0
 72
     0
 73
     1
 74
     1
 75
     0
 76
     0
 77
     0
 78
     0
140
0.18
141
0.09
142
0.0
143
25.4
144
1.0
145
0.0
146
1.0
147
0.09
170
     0
171
     2
172
     0
173
     0
174
     0
175
     0
176
     0
177
     0
178
     0
  0
DIMSTYLE
  2
LC-STANDARD
 70
     0
  3

  4

  5

  6

  7

 40
1.0
 41
3.5
 42
0.0
 43
7.5
 44
1.8
 45
0.0
 46
0.0
 47
0.0
 48
0.0
 71
     0
 72
     0
 73
     0
 74
     0
 75
     0
 76
     0
 77
     1
 78
     8
140
3.5
141
0.0
142
0.0
143
25.4
144
1.0
145
0.0
146
0.71
147
1.5
170
     0
171
     2
172
     1
173
     0
174
     0
175
     0
176
     0
177
     0
178
     3
  0
DIMSTYLE
  2
LC-DIM-L-0090-02-02
 70
     0
  3

  4

  5

  6

  7

 40
2.0
 41
3.5
 42
0.0
 43
7.5
 44
1.8
 45
0.0
 46
0.0
 47
0.0
 48
0.0
 71
     0
 72
     0
 73
     0
 74
     0
 75
     0
 76
     0
 77
     1
 78
     8
140
9.0
141
0.0
142
0.0
143
25.4
144
1.0
145
0.0
146
0.71
147
1.5
170
     0
171
     2
172
     0
173
     0
174
     0
175
     0
176
     2
177
     2
178
     6
  0
ENDTAB
  0
ENDSEC
  0
SECTION
  2
BLOCKS
  0
BLOCK
  8
0
  5
23
  2
SYM1
 70
    64
 10
778.335274
 20
1865.143847
 30
0.0
  3
SYM1
  0
ENDBLK
  8
0
  5
24
  0
BLOCK
  8
0
  5
26
  2
BLK1
 70
    64
 10
0.0
 20
0.0
 30
0.0
  3
BLK1
  0
ENDBLK
  8
0
  5
27
  0
BLOCK
  8
0
  5
29
  2
*D2
 70
    65
 10
0.0
 20
0.0
 30
0.0
  3
*D2
  0
LINE
  8
LC-011-003-MTH-0
  6
CONTINUOUS
  5
2B
 10
517.495989
 20
425.366237
 30
0.0
 11
517.495989
 21
349.2
 31
0.0
  0
LINE
  8
LC-011-003-MTH-0
  6
CONTINUOUS
  5
2C
 10
831.670178
 20
414.646692
 30
0.0
 11
831.670178
 21
349.2
 31
0.0
  0
LINE
  8
LC-012-003-MTG-0
  6
CONTINUOUS
  5
2E
 10
517.495989
 20
360.0
 30
0.0
 11
831.670178
 21
360.0
 31
0.0
  0
LINE
  8
LC-010-003-----0
  6
CONTINUOUS
  5
30
 10
535.341997
 20
362.349471
 30
0.0
 11
517.495989
 21
360.0
 31
0.0
  0
LINE
  8
LC-010-003-----0
  6
CONTINUOUS
  5
31
 10
517.495989
 20
360.0
 30
0.0
 11
535.341997
 21
357.650529
 31
0.0
  0
LINE
  8
LC-010-003-----0
  6
CONTINUOUS
  5
32
 10
535.341997
 20
357.650529
 30
0.0
 11
535.341997
 21
362.349471
 31
0.0
  0
LINE
  8
LC-010-003-----0
  6
CONTINUOUS
  5
33
 10
535.382035
 20
361.738609
 30
0.0
 11
522.175989
 21
360.0
 31
0.0
  0
LINE
  8
LC-010-003-----0
  6
CONTINUOUS
  5
34
 10
522.175989
 20
360.0
 30
0.0
 11
535.382035
 21
358.261391
 31
0.0
  0
LINE
  8
LC-010-003-----0
  6
CONTINUOUS
  5
35
 10
535.422073
 20
361.127746
 30
0.0
 11
526.855989
 21
360.0
 31
0.0
  0
LINE
  8
LC-010-003-----0
  6
CONTINUOUS
  5
36
 10
526.855989
 20
360.0
 30
0.0
 11
535.422073
 21
358.872254
 31
0.0
  0
LINE
  8
LC-010-003-----0
  6
CONTINUOUS
  5
37
 10
535.462111
 20
360.516884
 30
0.0
 11
531.535989
 21
360.0
 31
0.0
  0
LINE
  8
LC-010-003-----0
  6
CONTINUOUS
  5
38
 10
531.535989
 20
360.0
 30
0.0
 11
535.462111
 21
359.483116
 31
0.0
  0
LINE
  8
LC-010-003-----0
  6
CONTINUOUS
  5
39
 10
813.824171
 20
357.650529
 30
0.0
 11
831.670178
 21
360.0
 31
0.0
  0
LINE
  8
LC-010-003-----0
  6
CONTINUOUS
  5
3A
 10
831.670178
 20
360.0
 30
0.0
 11
813.824171
 21
362.349471
 31
0.0
  0
LINE
  8
LC-010-003-----0
  6
CONTINUOUS
  5
3B
 10
813.824171
 20
362.349471
 30
0.0
 11
813.824171
 21
357.650529
 31
0.0
  0
LINE
  8
LC-010-003-----0
  6
CONTINUOUS
  5
3C
 10
813.784133
 20
358.261391
 30
0.0
 11
826.990178
 21
360.0
 31
0.0
  0
LINE
  8
LC-010-003-----0
  6
CONTINUOUS
  5
3D
 10
826.990178
 20
360.0
 30
0.0
 11
813.784133
 21
361.738609
 31
0.0
  0
LINE
  8
LC-010-003-----0
  6
CONTINUOUS
  5
3E
 10
813.744095
 20
358.872254
 30
0.0
 11
822.310178
 21
360.0
 31
0.0
  0
LINE
  8
LC-010-003-----0
  6
CONTINUOUS
  5
3F
 10
822.310178
 20
360.0
 30
0.0
 11
813.744095
 21
361.127746
 31
0.0
  0
LINE
  8
LC-010-003-----0
  6
CONTINUOUS
  5
40
 10
813.704057
 20
359.483116
 30
0.0
 11
817.630178
 21
360.0
 31
0.0
  0
LINE
  8
LC-010-003-----0
  6
CONTINUOUS
  5
41
 10
817.630178
 20
360.0
 30
0.0
 11
813.704057
 21
360.516884
 31
0.0
  0
TEXT
  8
LC-010-003-----0
  6
CONTINUOUS
 62
     6
  5
43
 10
658.244471
 20
370.431999
 30
0.0
 40
18.0
  1
315
 41
0.9
 51
15.0
  7
LC-TXTSTYLE-150-400-0-0-D0
 72
     1
 11
677.378329
 21
370.431999
 31
0.0
  0
ENDBLK
  8
0
  5
44
  0
BLOCK
  8
0
  5
46
  2
SYM2
 70
    64
 10
1356.381777
 20
827.598303
 30
0.0
  3
SYM2
  0
ENDBLK
  8
0
  5
47
  0
BLOCK
  8
0
  5
49
  2
*X4
 70
    65
 10
517.495989
 20
551.807987
 30
0.0
  3
*X4
  0
LINE
  8
LC-013-005-----0
  6
CONTINUOUS
  5
4B
 10
583.976217
 20
595.477894
 30
0.0
 11
582.142973
 21
597.311139
 31
0.0
  0
LINE
  8
LC-013-005-----0
  6
CONTINUOUS
  5
4C
 10
584.026464
 20
592.59922
 30
0.0
 11
580.476543
 21
596.149141
 31
0.0
  0
LINE
  8
LC-013-005-----0
  6
CONTINUOUS
  5
4D
 10
584.076712
 20
589.720545
 30
0.0
 11
580.335693
 21
593.461563
 31
0.0
  0
LINE
  8
LC-013-005-----0
  6
CONTINUOUS
  5
4E
 10
584.126959
 20
586.841871
 30
0.0
 11
580.194844
 21
590.773986
 31
0.0
  0
LINE
  8
LC-013-005-----0
  6
CONTINUOUS
  5
4F
 10
584.177206
 20
583.963196
 30
0.0
 11
579.329264
 21
588.811139
 31
0.0
  0
LINE
  8
LC-013-005-----0
  6
CONTINUOUS
  5
50
 10
584.227454
 20
581.084522
 30
0.0
 11
579.143857
 21
586.168118
 31
0.0
  0
LINE
  8
LC-013-005-----0
  6
CONTINUOUS
  5
51
 10
584.277701
 20
578.205847
 30
0.0
 11
579.194105
 21
583.289443
 31
0.0
  0
LINE
  8
LC-013-005-----0
  6
CONTINUOUS
  5
52
 10
584.327949
 20
575.327172
 30
0.0
 11
579.244352
 21
580.410769
 31
0.0
  0
LINE
  8
LC-013-005-----0
  6
CONTINUOUS
  5
53
 10
584.378196
 20
572.448498
 30
0.0
 11
579.2946
 21
577.532094
 31
0.0
  0
LINE
  8
LC-013-005-----0
  6
CONTINUOUS
  5
54
 10
584.428444
 20
569.569823
 30
0.0
 11
579.344847
 21
574.653419
 31
0.0
  0
LINE
  8
LC-013-005-----0
  6
CONTINUOUS
  5
55
 10
584.478691
 20
566.691149
 30
0.0
 11
579.395095
 21
571.774745
 31
0.0
  0
LINE
  8
LC-013-005-----0
  6
CONTINUOUS
  5
56
 10
584.528939
 20
563.812474
 30
0.0
 11
579.445342
 21
568.89607
 31
0.0
  0
LINE
  8
LC-013-005-----0
  6
CONTINUOUS
  5
57
 10
584.579186
 20
560.9338
 30
0.0
 11
579.49559
 21
566.017396
 31
0.0
  0
LINE
  8
LC-013-005-----0
  6
CONTINUOUS
  5
58
 10
584.629433
 20
558.055125
 30
0.0
 11
579.545838
 21
563.138721
 31
0.0
  0
LINE
  8
LC-013-005-----0
  6
CONTINUOUS
  5
59
 10
584.679681
 20
555.17645
 30
0.0
 11
579.596085
 21
560.260046
 31
0.0
  0
LINE
  8
LC-013-005-----0
  6
CONTINUOUS
  5
5A
 10
584.729928
 20
552.297776
 30
0.0
 11
577.916582
 21
559.111123
 31
0.0
  0
LINE
  8
LC-013-005-----0
  6
CONTINUOUS
  5
5B
 10
580.373749
 20
553.825528
 30
0.0
 11
575.088154
 21
559.111123
 31
0.0
  0
LINE
  8
LC-013-005-----0
  6
CONTINUOUS
  5
5C
 10
576.510047
 20
554.860803
 30
0.0
 11
572.259727
 21
559.111123
 31
0.0
  0
LINE
  8
LC-013-005-----0
  6
CONTINUOUS
  5
5D
 10
573.677747
 20
554.864676
 30
0.0
 11
569.4313
 21
559.111123
 31
0.0
  0
LINE
  8
LC-013-005-----0
  6
CONTINUOUS
  5
5E
 10
570.84932
 20
554.864676
 30
0.0
 11
566.602873
 21
559.111123
 31
0.0
  0
LINE
  8
LC-013-005-----0
  6
CONTINUOUS
  5
5F
 10
568.020893
 20
554.864676
 30
0.0
 11
563.774446
 21
559.111123
 31
0.0
  0
LINE
  8
LC-013-005-----0
  6
CONTINUOUS
  5
60
 10
565.192465
 20
554.864676
 30
0.0
 11
560.946018
 21
559.111123
 31
0.0
  0
LINE
  8
LC-013-005-----0
  6
CONTINUOUS
  5
61
 10
562.364038
 20
554.864676
 30
0.0
 11
558.117591
 21
559.111123
 31
0.0
  0
LINE
  8
LC-013-005-----0
  6
CONTINUOUS
  5
62
 10
559.535611
 20
554.864676
 30
0.0
 11
555.289164
 21
559.111123
 31
0.0
  0
LINE
  8
LC-013-005-----0
  6
CONTINUOUS
  5
63
 10
556.707184
 20
554.864676
 30
0.0
 11
552.460737
 21
559.111123
 31
0.0
  0
LINE
  8
LC-013-005-----0
  6
CONTINUOUS
  5
64
 10
553.878756
 20
554.864677
 30
0.0
 11
549.63231
 21
559.111123
 31
0.0
  0
LINE
  8
LC-013-005-----0
  6
CONTINUOUS
  5
65
 10
551.050329
 20
554.864677
 30
0.0
 11
546.803882
 21
559.111123
 31
0.0
  0
LINE
  8
LC-013-005-----0
  6
CONTINUOUS
  5
66
 10
548.221902
 20
554.864677
 30
0.0
 11
543.975455
 21
559.111123
 31
0.0
  0
LINE
  8
LC-013-005-----0
  6
CONTINUOUS
  5
67
 10
545.393474
 20
554.864677
 30
0.0
 11
535.278898
 21
564.979254
 31
0.0
  0
LINE
  8
LC-013-005-----0
  6
CONTINUOUS
  5
68
 10
542.565047
 20
554.864677
 30
0.0
 11
532.59132
 21
564.838404
 31
0.0
  0
LINE
  8
LC-013-005-----0
  6
CONTINUOUS
  5
69
 10
539.73662
 20
554.864677
 30
0.0
 11
536.495595
 21
558.105702
 31
0.0
  0
LINE
  8
LC-013-005-----0
  6
CONTINUOUS
  5
6A
 10
533.775003
 20
560.826295
 30
0.0
 11
529.903743
 21
564.697555
 31
0.0
  0
LINE
  8
LC-013-005-----0
  6
CONTINUOUS
  5
6B
 10
536.908193
 20
554.864677
 30
0.0
 11
536.495595
 21
555.277275
 31
0.0
  0
LINE
  8
LC-013-005-----0
  6
CONTINUOUS
  5
6C
 10
531.087425
 20
560.685446
 30
0.0
 11
527.216165
 21
564.556705
 31
0.0
  0
LINE
  8
LC-013-005-----0
  6
CONTINUOUS
  5
6D
 10
528.399847
 20
560.544596
 30
0.0
 11
524.640253
 21
564.30419
 31
0.0
  0
LINE
  8
LC-013-005-----0
  6
CONTINUOUS
  5
6E
 10
526.373466
 20
559.74255
 30
0.0
 11
522.784032
 21
563.331984
 31
0.0
  0
LINE
  8
LC-013-005-----0
  6
CONTINUOUS
  5
6F
 10
524.959252
 20
558.328337
 30
0.0
 11
521.530805
 21
561.756784
 31
0.0
  0
LINE
  8
LC-013-005-----0
  6
CONTINUOUS
  5
70
 10
523.545039
 20
556.914123
 30
0.0
 11
520.995989
 21
559.463172
 31
0.0
  0
LINE
  8
LC-013-005-----0
  6
CONTINUOUS
  5
71
 10
521.559021
 20
556.071714
 30
0.0
 11
518.642928
 21
558.987807
 31
0.0
  0
LINE
  8
LC-013-005-----0
  6
CONTINUOUS
  5
72
 10
518.871443
 20
555.930864
 30
0.0
 11
517.495989
 21
557.306318
 31
0.0
  0
ENDBLK
  8
0
  5
73
  0
BLOCK
  8
0
  5
75
  2
*X5
 70
    65
 10
517.495989
 20
408.315414
 30
0.0
  3
*X5
  0
LINE
  8
LC-013-005-----0
  6
CONTINUOUS
  5
76
 10
831.670178
 20
415.666184
 30
0.0
 11
830.020704
 21
417.315659
 31
0.0
  0
LINE
  8
LC-013-005-----0
  6
CONTINUOUS
  5
77
 10
830.243516
 20
414.264419
 30
0.0
 11
827.192276
 21
417.315659
 31
0.0
  0
LINE
  8
LC-013-005-----0
  6
CONTINUOUS
  5
78
 10
828.012805
 20
413.666702
 30
0.0
 11
824.363849
 21
417.315659
 31
0.0
  0
LINE
  8
LC-013-005-----0
  6
CONTINUOUS
  5
79
 10
825.536605
 20
413.314476
 30
0.0
 11
821.535422
 21
417.315659
 31
0.0
  0
LINE
  8
LC-013-005-----0
  6
CONTINUOUS
  5
7A
 10
822.708162
 20
413.314492
 30
0.0
 11
818.706995
 21
417.315659
 31
0.0
  0
LINE
  8
LC-013-005-----0
  6
CONTINUOUS
  5
7B
 10
819.879718
 20
413.314508
 30
0.0
 11
815.878568
 21
417.315659
 31
0.0
  0
LINE
  8
LC-013-005-----0
  6
CONTINUOUS
  5
7C
 10
817.051275
 20
413.314524
 30
0.0
 11
813.050141
 21
417.315659
 31
0.0
  0
LINE
  8
LC-013-005-----0
  6
CONTINUOUS
  5
7D
 10
814.222832
 20
413.31454
 30
0.0
 11
810.221714
 21
417.315659
 31
0.0
  0
LINE
  8
LC-013-005-----0
  6
CONTINUOUS
  5
7E
 10
811.394389
 20
413.314556
 30
0.0
 11
807.393287
 21
417.315659
 31
0.0
  0
LINE
  8
LC-013-005-----0
  6
CONTINUOUS
  5
7F
 10
808.565946
 20
413.314572
 30
0.0
 11
804.564859
 21
417.315659
 31
0.0
  0
LINE
  8
LC-013-005-----0
  6
CONTINUOUS
  5
80
 10
805.737503
 20
413.314588
 30
0.0
 11
801.736432
 21
417.315659
 31
0.0
  0
LINE
  8
LC-013-005-----0
  6
CONTINUOUS
  5
81
 10
802.90906
 20
413.314604
 30
0.0
 11
798.908005
 21
417.315659
 31
0.0
  0
LINE
  8
LC-013-005-----0
  6
CONTINUOUS
  5
82
 10
800.080617
 20
413.31462
 30
0.0
 11
796.079578
 21
417.315659
 31
0.0
  0
LINE
  8
LC-013-005-----0
  6
CONTINUOUS
  5
83
 10
797.252174
 20
413.314635
 30
0.0
 11
793.251151
 21
417.315659
 31
0.0
  0
LINE
  8
LC-013-005-----0
  6
CONTINUOUS
  5
84
 10
794.423731
 20
413.314651
 30
0.0
 11
790.422724
 21
417.315659
 31
0.0
  0
LINE
  8
LC-013-005-----0
  6
CONTINUOUS
  5
85
 10
791.595288
 20
413.314667
 30
0.0
 11
787.594297
 21
417.315659
 31
0.0
  0
LINE
  8
LC-013-005-----0
  6
CONTINUOUS
  5
86
 10
788.766845
 20
413.314683
 30
0.0
 11
784.76587
 21
417.315659
 31
0.0
  0
LINE
  8
LC-013-005-----0
  6
CONTINUOUS
  5
87
 10
785.938402
 20
413.314699
 30
0.0
 11
781.937442
 21
417.315659
 31
0.0
  0
LINE
  8
LC-013-005-----0
  6
CONTINUOUS
  5
88
 10
783.109959
 20
413.314715
 30
0.0
 11
779.109015
 21
417.315659
 31
0.0
  0
LINE
  8
LC-013-005-----0
  6
CONTINUOUS
  5
89
 10
780.281516
 20
413.314731
 30
0.0
 11
776.280588
 21
417.315659
 31
0.0
  0
LINE
  8
LC-013-005-----0
  6
CONTINUOUS
  5
8A
 10
777.453072
 20
413.314747
 30
0.0
 11
773.452161
 21
417.315659
 31
0.0
  0
LINE
  8
LC-013-005-----0
  6
CONTINUOUS
  5
8B
 10
774.624629
 20
413.314763
 30
0.0
 11
770.623734
 21
417.315659
 31
0.0
  0
LINE
  8
LC-013-005-----0
  6
CONTINUOUS
  5
8C
 10
771.796186
 20
413.314779
 30
0.0
 11
767.795307
 21
417.315659
 31
0.0
  0
LINE
  8
LC-013-005-----0
  6
CONTINUOUS
  5
8D
 10
768.967743
 20
413.314795
 30
0.0
 11
764.96688
 21
417.315659
 31
0.0
  0
LINE
  8
LC-013-005-----0
  6
CONTINUOUS
  5
8E
 10
766.1393
 20
413.314811
 30
0.0
 11
762.138453
 21
417.315659
 31
0.0
  0
LINE
  8
LC-013-005-----0
  6
CONTINUOUS
  5
8F
 10
763.310857
 20
413.314827
 30
0.0
 11
759.310025
 21
417.315659
 31
0.0
  0
LINE
  8
LC-013-005-----0
  6
CONTINUOUS
  5
90
 10
760.482414
 20
413.314843
 30
0.0
 11
756.481598
 21
417.315659
 31
0.0
  0
LINE
  8
LC-013-005-----0
  6
CONTINUOUS
  5
91
 10
757.653971
 20
413.314859
 30
0.0
 11
753.653171
 21
417.315659
 31
0.0
  0
LINE
  8
LC-013-005-----0
  6
CONTINUOUS
  5
92
 10
754.825528
 20
413.314874
 30
0.0
 11
750.824744
 21
417.315659
 31
0.0
  0
LINE
  8
LC-013-005-----0
  6
CONTINUOUS
  5
93
 10
751.997085
 20
413.31489
 30
0.0
 11
747.996317
 21
417.315659
 31
0.0
  0
LINE
  8
LC-013-005-----0
  6
CONTINUOUS
  5
94
 10
749.168642
 20
413.314906
 30
0.0
 11
745.16789
 21
417.315659
 31
0.0
  0
LINE
  8
LC-013-005-----0
  6
CONTINUOUS
  5
95
 10
746.340199
 20
413.314922
 30
0.0
 11
742.339463
 21
417.315659
 31
0.0
  0
LINE
  8
LC-013-005-----0
  6
CONTINUOUS
  5
96
 10
743.511757
 20
413.314937
 30
0.0
 11
739.511036
 21
417.315659
 31
0.0
  0
LINE
  8
LC-013-005-----0
  6
CONTINUOUS
  5
97
 10
740.683314
 20
413.314953
 30
0.0
 11
736.682608
 21
417.315659
 31
0.0
  0
LINE
  8
LC-013-005-----0
  6
CONTINUOUS
  5
98
 10
737.854871
 20
413.314969
 30
0.0
 11
733.854181
 21
417.315659
 31
0.0
  0
LINE
  8
LC-013-005-----0
  6
CONTINUOUS
  5
99
 10
735.026428
 20
413.314985
 30
0.0
 11
731.025754
 21
417.315659
 31
0.0
  0
LINE
  8
LC-013-005-----0
  6
CONTINUOUS
  5
9A
 10
732.197985
 20
413.315001
 30
0.0
 11
728.197327
 21
417.315659
 31
0.0
  0
LINE
  8
LC-013-005-----0
  6
CONTINUOUS
  5
9B
 10
729.369542
 20
413.315016
 30
0.0
 11
725.3689
 21
417.315659
 31
0.0
  0
LINE
  8
LC-013-005-----0
  6
CONTINUOUS
  5
9C
 10
726.541099
 20
413.315032
 30
0.0
 11
722.540473
 21
417.315659
 31
0.0
  0
LINE
  8
LC-013-005-----0
  6
CONTINUOUS
  5
9D
 10
723.712656
 20
413.315048
 30
0.0
 11
719.712046
 21
417.315659
 31
0.0
  0
LINE
  8
LC-013-005-----0
  6
CONTINUOUS
  5
9E
 10
720.884213
 20
413.315064
 30
0.0
 11
716.883619
 21
417.315659
 31
0.0
  0
LINE
  8
LC-013-005-----0
  6
CONTINUOUS
  5
9F
 10
718.055771
 20
413.315079
 30
0.0
 11
714.055191
 21
417.315659
 31
0.0
  0
LINE
  8
LC-013-005-----0
  6
CONTINUOUS
  5
A0
 10
715.227328
 20
413.315095
 30
0.0
 11
711.226764
 21
417.315659
 31
0.0
  0
LINE
  8
LC-013-005-----0
  6
CONTINUOUS
  5
A1
 10
712.398885
 20
413.315111
 30
0.0
 11
708.398337
 21
417.315659
 31
0.0
  0
LINE
  8
LC-013-005-----0
  6
CONTINUOUS
  5
A2
 10
709.570442
 20
413.315127
 30
0.0
 11
705.56991
 21
417.315659
 31
0.0
  0
LINE
  8
LC-013-005-----0
  6
CONTINUOUS
  5
A3
 10
706.741999
 20
413.315142
 30
0.0
 11
702.741483
 21
417.315659
 31
0.0
  0
LINE
  8
LC-013-005-----0
  6
CONTINUOUS
  5
A4
 10
703.913556
 20
413.315158
 30
0.0
 11
699.913056
 21
417.315659
 31
0.0
  0
LINE
  8
LC-013-005-----0
  6
CONTINUOUS
  5
A5
 10
701.085113
 20
413.315174
 30
0.0
 11
697.084629
 21
417.315659
 31
0.0
  0
LINE
  8
LC-013-005-----0
  6
CONTINUOUS
  5
A6
 10
698.25667
 20
413.31519
 30
0.0
 11
694.256202
 21
417.315659
 31
0.0
  0
LINE
  8
LC-013-005-----0
  6
CONTINUOUS
  5
A7
 10
695.428227
 20
413.315206
 30
0.0
 11
691.427774
 21
417.315659
 31
0.0
  0
LINE
  8
LC-013-005-----0
  6
CONTINUOUS
  5
A8
 10
692.599784
 20
413.315221
 30
0.0
 11
688.599347
 21
417.315659
 31
0.0
  0
LINE
  8
LC-013-005-----0
  6
CONTINUOUS
  5
A9
 10
689.771342
 20
413.315237
 30
0.0
 11
685.77092
 21
417.315659
 31
0.0
  0
LINE
  8
LC-013-005-----0
  6
CONTINUOUS
  5
AA
 10
686.942899
 20
413.315253
 30
0.0
 11
682.942493
 21
417.315659
 31
0.0
  0
LINE
  8
LC-013-005-----0
  6
CONTINUOUS
  5
AB
 10
684.114456
 20
413.315269
 30
0.0
 11
680.114066
 21
417.315659
 31
0.0
  0
LINE
  8
LC-013-005-----0
  6
CONTINUOUS
  5
AC
 10
681.286013
 20
413.315284
 30
0.0
 11
677.285639
 21
417.315659
 31
0.0
  0
LINE
  8
LC-013-005-----0
  6
CONTINUOUS
  5
AD
 10
678.45757
 20
413.3153
 30
0.0
 11
674.457212
 21
417.315659
 31
0.0
  0
LINE
  8
LC-013-005-----0
  6
CONTINUOUS
  5
AE
 10
675.629127
 20
413.315316
 30
0.0
 11
671.628785
 21
417.315659
 31
0.0
  0
LINE
  8
LC-013-005-----0
  6
CONTINUOUS
  5
AF
 10
672.800684
 20
413.315332
 30
0.0
 11
668.800357
 21
417.315659
 31
0.0
  0
LINE
  8
LC-013-005-----0
  6
CONTINUOUS
  5
B0
 10
669.972241
 20
413.315347
 30
0.0
 11
665.97193
 21
417.315659
 31
0.0
  0
LINE
  8
LC-013-005-----0
  6
CONTINUOUS
  5
B1
 10
667.143798
 20
413.315363
 30
0.0
 11
663.143503
 21
417.315659
 31
0.0
  0
LINE
  8
LC-013-005-----0
  6
CONTINUOUS
  5
B2
 10
664.315356
 20
413.315379
 30
0.0
 11
660.315076
 21
417.315659
 31
0.0
  0
LINE
  8
LC-013-005-----0
  6
CONTINUOUS
  5
B3
 10
661.486913
 20
413.315395
 30
0.0
 11
657.486649
 21
417.315659
 31
0.0
  0
LINE
  8
LC-013-005-----0
  6
CONTINUOUS
  5
B4
 10
658.65847
 20
413.31541
 30
0.0
 11
654.658222
 21
417.315659
 31
0.0
  0
LINE
  8
LC-013-005-----0
  6
CONTINUOUS
  5
B5
 10
655.830027
 20
413.315426
 30
0.0
 11
651.829795
 21
417.315659
 31
0.0
  0
LINE
  8
LC-013-005-----0
  6
CONTINUOUS
  5
B6
 10
653.001584
 20
413.315442
 30
0.0
 11
649.001368
 21
417.315659
 31
0.0
  0
LINE
  8
LC-013-005-----0
  6
CONTINUOUS
  5
B7
 10
650.173141
 20
413.315458
 30
0.0
 11
646.17294
 21
417.315659
 31
0.0
  0
LINE
  8
LC-013-005-----0
  6
CONTINUOUS
  5
B8
 10
647.344698
 20
413.315474
 30
0.0
 11
643.344513
 21
417.315659
 31
0.0
  0
LINE
  8
LC-013-005-----0
  6
CONTINUOUS
  5
B9
 10
644.516255
 20
413.315489
 30
0.0
 11
640.516086
 21
417.315659
 31
0.0
  0
LINE
  8
LC-013-005-----0
  6
CONTINUOUS
  5
BA
 10
641.687812
 20
413.315505
 30
0.0
 11
637.687659
 21
417.315659
 31
0.0
  0
LINE
  8
LC-013-005-----0
  6
CONTINUOUS
  5
BB
 10
638.85937
 20
413.315521
 30
0.0
 11
634.859232
 21
417.315659
 31
0.0
  0
LINE
  8
LC-013-005-----0
  6
CONTINUOUS
  5
BC
 10
636.030927
 20
413.315537
 30
0.0
 11
632.030805
 21
417.315659
 31
0.0
  0
LINE
  8
LC-013-005-----0
  6
CONTINUOUS
  5
BD
 10
633.202484
 20
413.315552
 30
0.0
 11
629.202378
 21
417.315659
 31
0.0
  0
LINE
  8
LC-013-005-----0
  6
CONTINUOUS
  5
BE
 10
630.374041
 20
413.315568
 30
0.0
 11
626.373951
 21
417.315659
 31
0.0
  0
LINE
  8
LC-013-005-----0
  6
CONTINUOUS
  5
BF
 10
627.545598
 20
413.315584
 30
0.0
 11
623.545523
 21
417.315659
 31
0.0
  0
LINE
  8
LC-013-005-----0
  6
CONTINUOUS
  5
C0
 10
624.717155
 20
413.3156
 30
0.0
 11
620.717096
 21
417.315659
 31
0.0
  0
LINE
  8
LC-013-005-----0
  6
CONTINUOUS
  5
C1
 10
621.888712
 20
413.315615
 30
0.0
 11
617.888669
 21
417.315659
 31
0.0
  0
LINE
  8
LC-013-005-----0
  6
CONTINUOUS
  5
C2
 10
619.060269
 20
413.315631
 30
0.0
 11
615.060242
 21
417.315659
 31
0.0
  0
LINE
  8
LC-013-005-----0
  6
CONTINUOUS
  5
C3
 10
616.231826
 20
413.315647
 30
0.0
 11
612.231815
 21
417.315659
 31
0.0
  0
LINE
  8
LC-013-005-----0
  6
CONTINUOUS
  5
C4
 10
613.71129
 20
413.007756
 30
0.0
 11
609.842941
 21
416.876105
 31
0.0
  0
LINE
  8
LC-013-005-----0
  6
CONTINUOUS
  5
C5
 10
613.672073
 20
410.218547
 30
0.0
 11
609.673894
 21
414.216725
 31
0.0
  0
LINE
  8
LC-013-005-----0
  6
CONTINUOUS
  5
C6
 10
612.549383
 20
408.512809
 30
0.0
 11
608.74466
 21
412.317532
 31
0.0
  0
LINE
  8
LC-013-005-----0
  6
CONTINUOUS
  5
C7
 10
609.918351
 20
408.315414
 30
0.0
 11
605.918351
 21
412.315414
 31
0.0
  0
LINE
  8
LC-013-005-----0
  6
CONTINUOUS
  5
C8
 10
586.840321
 20
431.393444
 30
0.0
 11
586.169621
 21
432.064144
 31
0.0
  0
LINE
  8
LC-013-005-----0
  6
CONTINUOUS
  5
C9
 10
607.089924
 20
408.315414
 30
0.0
 11
603.089924
 21
412.315414
 31
0.0
  0
LINE
  8
LC-013-005-----0
  6
CONTINUOUS
  5
CA
 10
586.890569
 20
428.514769
 30
0.0
 11
583.341194
 21
432.064144
 31
0.0
  0
LINE
  8
LC-013-005-----0
  6
CONTINUOUS
  5
CB
 10
604.261497
 20
408.315414
 30
0.0
 11
600.261497
 21
412.315414
 31
0.0
  0
LINE
  8
LC-013-005-----0
  6
CONTINUOUS
  5
CC
 10
586.940816
 20
425.636095
 30
0.0
 11
582.113911
 21
430.463
 31
0.0
  0
LINE
  8
LC-013-005-----0
  6
CONTINUOUS
  5
CD
 10
601.43307
 20
408.315414
 30
0.0
 11
597.43307
 21
412.315414
 31
0.0
  0
LINE
  8
LC-013-005-----0
  6
CONTINUOUS
  5
CE
 10
586.991063
 20
422.75742
 30
0.0
 11
579.883201
 21
429.865283
 31
0.0
  0
LINE
  8
LC-013-005-----0
  6
CONTINUOUS
  5
CF
 10
598.604642
 20
408.315414
 30
0.0
 11
594.604643
 21
412.315414
 31
0.0
  0
LINE
  8
LC-013-005-----0
  6
CONTINUOUS
  5
D0
 10
587.041311
 20
419.878746
 30
0.0
 11
577.65249
 21
429.267566
 31
0.0
  0
LINE
  8
LC-013-005-----0
  6
CONTINUOUS
  5
D1
 10
595.776215
 20
408.315414
 30
0.0
 11
591.776216
 21
412.315414
 31
0.0
  0
LINE
  8
LC-013-005-----0
  6
CONTINUOUS
  5
D2
 10
587.091558
 20
417.000071
 30
0.0
 11
582.007966
 21
422.083663
 31
0.0
  0
LINE
  8
LC-013-005-----0
  6
CONTINUOUS
  5
D3
 10
579.373397
 20
424.718232
 30
0.0
 11
575.12695
 21
428.964679
 31
0.0
  0
LINE
  8
LC-013-005-----0
  6
CONTINUOUS
  5
D4
 10
592.947788
 20
408.315414
 30
0.0
 11
588.947789
 21
412.315414
 31
0.0
  0
LINE
  8
LC-013-005-----0
  6
CONTINUOUS
  5
D5
 10
587.141805
 20
414.121397
 30
0.0
 11
582.058214
 21
419.204989
 31
0.0
  0
LINE
  8
LC-013-005-----0
  6
CONTINUOUS
  5
D6
 10
576.54497
 20
424.718232
 30
0.0
 11
572.298523
 21
428.964679
 31
0.0
  0
LINE
  8
LC-013-005-----0
  6
CONTINUOUS
  5
D7
 10
590.119361
 20
408.315414
 30
0.0
 11
582.108461
 21
416.326314
 31
0.0
  0
LINE
  8
LC-013-005-----0
  6
CONTINUOUS
  5
D8
 10
573.716543
 20
424.718232
 30
0.0
 11
569.470096
 21
428.964679
 31
0.0
  0
LINE
  8
LC-013-005-----0
  6
CONTINUOUS
  5
D9
 10
587.290933
 20
408.315414
 30
0.0
 11
582.158709
 21
413.447639
 31
0.0
  0
LINE
  8
LC-013-005-----0
  6
CONTINUOUS
  5
DA
 10
570.888116
 20
424.718232
 30
0.0
 11
566.641669
 21
428.964679
 31
0.0
  0
LINE
  8
LC-013-005-----0
  6
CONTINUOUS
  5
DB
 10
584.342913
 20
408.435008
 30
0.0
 11
582.316284
 21
410.461637
 31
0.0
  0
LINE
  8
LC-013-005-----0
  6
CONTINUOUS
  5
DC
 10
568.059689
 20
424.718232
 30
0.0
 11
563.813242
 21
428.964679
 31
0.0
  0
LINE
  8
LC-013-005-----0
  6
CONTINUOUS
  5
DD
 10
565.231262
 20
424.718232
 30
0.0
 11
560.984815
 21
428.964679
 31
0.0
  0
LINE
  8
LC-013-005-----0
  6
CONTINUOUS
  5
DE
 10
562.402835
 20
424.718232
 30
0.0
 11
558.156388
 21
428.964679
 31
0.0
  0
LINE
  8
LC-013-005-----0
  6
CONTINUOUS
  5
DF
 10
559.574407
 20
424.718232
 30
0.0
 11
555.327961
 21
428.964678
 31
0.0
  0
LINE
  8
LC-013-005-----0
  6
CONTINUOUS
  5
E0
 10
556.74598
 20
424.718232
 30
0.0
 11
552.499534
 21
428.964678
 31
0.0
  0
LINE
  8
LC-013-005-----0
  6
CONTINUOUS
  5
E1
 10
553.917553
 20
424.718232
 30
0.0
 11
549.671107
 21
428.964678
 31
0.0
  0
LINE
  8
LC-013-005-----0
  6
CONTINUOUS
  5
E2
 10
551.089126
 20
424.718232
 30
0.0
 11
546.84268
 21
428.964678
 31
0.0
  0
LINE
  8
LC-013-005-----0
  6
CONTINUOUS
  5
E3
 10
548.260699
 20
424.718232
 30
0.0
 11
544.014253
 21
428.964678
 31
0.0
  0
LINE
  8
LC-013-005-----0
  6
CONTINUOUS
  5
E4
 10
545.432272
 20
424.718232
 30
0.0
 11
541.185826
 21
428.964678
 31
0.0
  0
LINE
  8
LC-013-005-----0
  6
CONTINUOUS
  5
E5
 10
542.603845
 20
424.718232
 30
0.0
 11
538.357399
 21
428.964678
 31
0.0
  0
LINE
  8
LC-013-005-----0
  6
CONTINUOUS
  5
E6
 10
540.718729
 20
423.774921
 30
0.0
 11
536.495595
 21
427.998054
 31
0.0
  0
LINE
  8
LC-013-005-----0
  6
CONTINUOUS
  5
E7
 10
539.683453
 20
421.98177
 30
0.0
 11
536.495595
 21
425.169627
 31
0.0
  0
LINE
  8
LC-013-005-----0
  6
CONTINUOUS
  5
E8
 10
538.648177
 20
420.188619
 30
0.0
 11
535.570882
 21
423.265914
 31
0.0
  0
LINE
  8
LC-013-005-----0
  6
CONTINUOUS
  5
E9
 10
537.269702
 20
418.738666
 30
0.0
 11
532.970234
 21
423.038134
 31
0.0
  0
LINE
  8
LC-013-005-----0
  6
CONTINUOUS
  5
EA
 10
534.284846
 20
418.895095
 30
0.0
 11
529.985378
 21
423.194563
 31
0.0
  0
LINE
  8
LC-013-005-----0
  6
CONTINUOUS
  5
EB
 10
531.299989
 20
419.051525
 30
0.0
 11
522.658601
 21
427.692913
 31
0.0
  0
LINE
  8
LC-013-005-----0
  6
CONTINUOUS
  5
EC
 10
528.315132
 20
419.207954
 30
0.0
 11
519.673745
 21
427.849342
 31
0.0
  0
LINE
  8
LC-013-005-----0
  6
CONTINUOUS
  5
ED
 10
525.313751
 20
419.380909
 30
0.0
 11
521.039035
 21
423.655624
 31
0.0
  0
LINE
  8
LC-013-005-----0
  6
CONTINUOUS
  5
EE
 10
519.927537
 20
424.767123
 30
0.0
 11
517.495989
 21
427.19867
 31
0.0
  0
ENDBLK
  8
0
  5
EF
  0
BLOCK
  8
0
  5
F1
  2
*X6
 70
    65
 10
755.142242
 20
534.273234
 30
0.0
  3
*X6
  0
LINE
  8
LC-013-005-----0
  6
CONTINUOUS
  5
F2
 10
831.670178
 20
534.460123
 30
0.0
 11
828.280702
 21
537.849599
 31
0.0
  0
LINE
  8
LC-013-005-----0
  6
CONTINUOUS
  5
F3
 10
829.028641
 20
534.273234
 30
0.0
 11
825.028641
 21
538.273234
 31
0.0
  0
LINE
  8
LC-013-005-----0
  6
CONTINUOUS
  5
F4
 10
826.200214
 20
534.273234
 30
0.0
 11
822.200214
 21
538.273234
 31
0.0
  0
LINE
  8
LC-013-005-----0
  6
CONTINUOUS
  5
F5
 10
823.371786
 20
534.273234
 30
0.0
 11
819.371786
 21
538.273234
 31
0.0
  0
LINE
  8
LC-013-005-----0
  6
CONTINUOUS
  5
F6
 10
820.543359
 20
534.273234
 30
0.0
 11
816.543359
 21
538.273234
 31
0.0
  0
LINE
  8
LC-013-005-----0
  6
CONTINUOUS
  5
F7
 10
759.766371
 20
595.050222
 30
0.0
 11
757.505454
 21
597.311139
 31
0.0
  0
LINE
  8
LC-013-005-----0
  6
CONTINUOUS
  5
F8
 10
817.714932
 20
534.273234
 30
0.0
 11
813.714932
 21
538.273234
 31
0.0
  0
LINE
  8
LC-013-005-----0
  6
CONTINUOUS
  5
F9
 10
759.922801
 20
592.065365
 30
0.0
 11
756.214492
 21
595.773674
 31
0.0
  0
LINE
  8
LC-013-005-----0
  6
CONTINUOUS
  5
FA
 10
814.886505
 20
534.273234
 30
0.0
 11
810.886505
 21
538.273234
 31
0.0
  0
LINE
  8
LC-013-005-----0
  6
CONTINUOUS
  5
FB
 10
761.074962
 20
588.084776
 30
0.0
 11
760.3486
 21
588.811139
 31
0.0
  0
LINE
  8
LC-013-005-----0
  6
CONTINUOUS
  5
FC
 10
760.07923
 20
589.080508
 30
0.0
 11
756.166024
 21
592.993715
 31
0.0
  0
LINE
  8
LC-013-005-----0
  6
CONTINUOUS
  5
FD
 10
812.058078
 20
534.273234
 30
0.0
 11
808.058078
 21
538.273234
 31
0.0
  0
LINE
  8
LC-013-005-----0
  6
CONTINUOUS
  5
FE
 10
761.026599
 20
585.304713
 30
0.0
 11
756.117556
 21
590.213756
 31
0.0
  0
LINE
  8
LC-013-005-----0
  6
CONTINUOUS
  5
FF
 10
809.229651
 20
534.273234
 30
0.0
 11
805.229651
 21
538.273234
 31
0.0
  0
LINE
  8
LC-013-005-----0
  6
CONTINUOUS
  5
100
 10
760.978235
 20
582.524649
 30
0.0
 11
756.069087
 21
587.433797
 31
0.0
  0
LINE
  8
LC-013-005-----0
  6
CONTINUOUS
  5
101
 10
806.401224
 20
534.273234
 30
0.0
 11
802.401224
 21
538.273234
 31
0.0
  0
LINE
  8
LC-013-005-----0
  6
CONTINUOUS
  5
102
 10
760.929872
 20
579.744585
 30
0.0
 11
756.020619
 21
584.653838
 31
0.0
  0
LINE
  8
LC-013-005-----0
  6
CONTINUOUS
  5
103
 10
803.572797
 20
534.273234
 30
0.0
 11
799.572797
 21
538.273234
 31
0.0
  0
LINE
  8
LC-013-005-----0
  6
CONTINUOUS
  5
104
 10
760.881508
 20
576.964522
 30
0.0
 11
755.972151
 21
581.873879
 31
0.0
  0
LINE
  8
LC-013-005-----0
  6
CONTINUOUS
  5
105
 10
800.744369
 20
534.273234
 30
0.0
 11
796.744369
 21
538.273234
 31
0.0
  0
LINE
  8
LC-013-005-----0
  6
CONTINUOUS
  5
106
 10
760.833145
 20
574.184458
 30
0.0
 11
755.923683
 21
579.09392
 31
0.0
  0
LINE
  8
LC-013-005-----0
  6
CONTINUOUS
  5
107
 10
797.915942
 20
534.273234
 30
0.0
 11
793.915942
 21
538.273234
 31
0.0
  0
LINE
  8
LC-013-005-----0
  6
CONTINUOUS
  5
108
 10
760.784781
 20
571.404394
 30
0.0
 11
755.875215
 21
576.313961
 31
0.0
  0
LINE
  8
LC-013-005-----0
  6
CONTINUOUS
  5
109
 10
795.087515
 20
534.273234
 30
0.0
 11
791.087515
 21
538.273234
 31
0.0
  0
LINE
  8
LC-013-005-----0
  6
CONTINUOUS
  5
10A
 10
760.736418
 20
568.624331
 30
0.0
 11
755.826747
 21
573.534002
 31
0.0
  0
LINE
  8
LC-013-005-----0
  6
CONTINUOUS
  5
10B
 10
792.259088
 20
534.273234
 30
0.0
 11
788.259088
 21
538.273234
 31
0.0
  0
LINE
  8
LC-013-005-----0
  6
CONTINUOUS
  5
10C
 10
760.688055
 20
565.844267
 30
0.0
 11
755.778279
 21
570.754043
 31
0.0
  0
LINE
  8
LC-013-005-----0
  6
CONTINUOUS
  5
10D
 10
789.430661
 20
534.273234
 30
0.0
 11
785.430661
 21
538.273234
 31
0.0
  0
LINE
  8
LC-013-005-----0
  6
CONTINUOUS
  5
10E
 10
760.639691
 20
563.064203
 30
0.0
 11
755.729811
 21
567.974084
 31
0.0
  0
LINE
  8
LC-013-005-----0
  6
CONTINUOUS
  5
10F
 10
786.602234
 20
534.273234
 30
0.0
 11
782.602234
 21
538.273234
 31
0.0
  0
LINE
  8
LC-013-005-----0
  6
CONTINUOUS
  5
110
 10
760.591328
 20
560.28414
 30
0.0
 11
755.681343
 21
565.194125
 31
0.0
  0
LINE
  8
LC-013-005-----0
  6
CONTINUOUS
  5
111
 10
783.773807
 20
534.273234
 30
0.0
 11
779.773807
 21
538.273234
 31
0.0
  0
LINE
  8
LC-013-005-----0
  6
CONTINUOUS
  5
112
 10
760.542964
 20
557.504076
 30
0.0
 11
755.632875
 21
562.414166
 31
0.0
  0
LINE
  8
LC-013-005-----0
  6
CONTINUOUS
  5
113
 10
780.94538
 20
534.273234
 30
0.0
 11
776.94538
 21
538.273234
 31
0.0
  0
LINE
  8
LC-013-005-----0
  6
CONTINUOUS
  5
114
 10
760.494601
 20
554.724012
 30
0.0
 11
755.584406
 21
559.634207
 31
0.0
  0
LINE
  8
LC-013-005-----0
  6
CONTINUOUS
  5
115
 10
778.116952
 20
534.273234
 30
0.0
 11
774.116952
 21
538.273234
 31
0.0
  0
LINE
  8
LC-013-005-----0
  6
CONTINUOUS
  5
116
 10
760.446237
 20
551.943949
 30
0.0
 11
755.535938
 21
556.854248
 31
0.0
  0
LINE
  8
LC-013-005-----0
  6
CONTINUOUS
  5
117
 10
775.288525
 20
534.273234
 30
0.0
 11
771.288525
 21
538.273234
 31
0.0
  0
LINE
  8
LC-013-005-----0
  6
CONTINUOUS
  5
118
 10
760.397874
 20
549.163885
 30
0.0
 11
755.48747
 21
554.074289
 31
0.0
  0
LINE
  8
LC-013-005-----0
  6
CONTINUOUS
  5
119
 10
772.460098
 20
534.273234
 30
0.0
 11
768.460098
 21
538.273234
 31
0.0
  0
LINE
  8
LC-013-005-----0
  6
CONTINUOUS
  5
11A
 10
760.34951
 20
546.383821
 30
0.0
 11
755.439002
 21
551.294329
 31
0.0
  0
LINE
  8
LC-013-005-----0
  6
CONTINUOUS
  5
11B
 10
769.631671
 20
534.273234
 30
0.0
 11
765.631671
 21
538.273234
 31
0.0
  0
LINE
  8
LC-013-005-----0
  6
CONTINUOUS
  5
11C
 10
760.301147
 20
543.603757
 30
0.0
 11
755.390534
 21
548.51437
 31
0.0
  0
LINE
  8
LC-013-005-----0
  6
CONTINUOUS
  5
11D
 10
766.803244
 20
534.273234
 30
0.0
 11
762.803244
 21
538.273234
 31
0.0
  0
LINE
  8
LC-013-005-----0
  6
CONTINUOUS
  5
11E
 10
760.252784
 20
540.823694
 30
0.0
 11
755.342066
 21
545.734411
 31
0.0
  0
LINE
  8
LC-013-005-----0
  6
CONTINUOUS
  5
11F
 10
763.974817
 20
534.273234
 30
0.0
 11
755.293598
 21
542.954452
 31
0.0
  0
LINE
  8
LC-013-005-----0
  6
CONTINUOUS
  5
120
 10
761.14639
 20
534.273234
 30
0.0
 11
755.24513
 21
540.174493
 31
0.0
  0
LINE
  8
LC-013-005-----0
  6
CONTINUOUS
  5
121
 10
758.317963
 20
534.273234
 30
0.0
 11
755.196662
 21
537.394534
 31
0.0
  0
LINE
  8
LC-013-005-----0
  6
CONTINUOUS
  5
122
 10
755.489535
 20
534.273234
 30
0.0
 11
755.148194
 21
534.614575
 31
0.0
  0
ENDBLK
  8
0
  5
123
  0
BLOCK
  8
0
  5
125
  2
*X7
 70
    65
 10
526.425452
 20
554.977573
 30
0.0
  3
*X7
  0
LINE
  8
LC-013-005-----0
  6
CONTINUOUS
  5
126
 10
534.06638
 20
555.279583
 30
0.0
 11
534.54613
 21
555.759333
 31
0.0
  0
LINE
  8
LC-013-005-----0
  6
CONTINUOUS
  5
127
 10
535.278037
 20
556.491241
 30
0.0
 11
535.944853
 21
557.158056
 31
0.0
  0
LINE
  8
LC-013-005-----0
  6
CONTINUOUS
  5
128
 10
533.080737
 20
555.708154
 30
0.0
 11
535.936022
 21
558.563439
 31
0.0
  0
LINE
  8
LC-013-005-----0
  6
CONTINUOUS
  5
129
 10
531.115021
 20
555.156652
 30
0.0
 11
531.444684
 21
555.486314
 31
0.0
  0
LINE
  8
LC-013-005-----0
  6
CONTINUOUS
  5
12A
 10
532.095094
 20
556.136725
 30
0.0
 11
535.595203
 21
559.636834
 31
0.0
  0
LINE
  8
LC-013-005-----0
  6
CONTINUOUS
  5
12B
 10
530.129378
 20
555.585223
 30
0.0
 11
534.172048
 21
559.627892
 31
0.0
  0
LINE
  8
LC-013-005-----0
  6
CONTINUOUS
  5
12C
 10
529.143736
 20
556.013793
 30
0.0
 11
532.748892
 21
559.61895
 31
0.0
  0
LINE
  8
LC-013-005-----0
  6
CONTINUOUS
  5
12D
 10
528.158093
 20
556.442364
 30
0.0
 11
531.325736
 21
559.610008
 31
0.0
  0
LINE
  8
LC-013-005-----0
  6
CONTINUOUS
  5
12E
 10
526.739103
 20
556.437588
 30
0.0
 11
529.902581
 21
559.601065
 31
0.0
  0
LINE
  8
LC-013-005-----0
  6
CONTINUOUS
  5
12F
 10
526.438197
 20
557.550895
 30
0.0
 11
528.479425
 21
559.592123
 31
0.0
  0
LINE
  8
LC-013-005-----0
  6
CONTINUOUS
  5
130
 10
526.429366
 20
558.956278
 30
0.0
 11
527.056269
 21
559.583181
 31
0.0
  0
ENDBLK
  8
0
  5
131
  0
BLOCK
  8
0
  5
133
  2
*X8
 70
    65
 10
526.425452
 20
424.18332
 30
0.0
  3
*X8
  0
LINE
  8
LC-013-005-----0
  6
CONTINUOUS
  5
134
 10
535.906336
 20
424.183464
 30
0.0
 11
535.929411
 21
424.206539
 31
0.0
  0
LINE
  8
LC-013-005-----0
  6
CONTINUOUS
  5
135
 10
534.500953
 20
424.192295
 30
0.0
 11
535.938353
 21
425.629695
 31
0.0
  0
LINE
  8
LC-013-005-----0
  6
CONTINUOUS
  5
136
 10
533.095569
 20
424.201125
 30
0.0
 11
535.947295
 21
427.052851
 31
0.0
  0
LINE
  8
LC-013-005-----0
  6
CONTINUOUS
  5
137
 10
531.690186
 20
424.209956
 30
0.0
 11
534.814158
 21
427.333927
 31
0.0
  0
LINE
  8
LC-013-005-----0
  6
CONTINUOUS
  5
138
 10
530.284803
 20
424.218786
 30
0.0
 11
534.558778
 21
428.492761
 31
0.0
  0
LINE
  8
LC-013-005-----0
  6
CONTINUOUS
  5
139
 10
528.87942
 20
424.227616
 30
0.0
 11
532.523692
 21
427.871888
 31
0.0
  0
LINE
  8
LC-013-005-----0
  6
CONTINUOUS
  5
13A
 10
527.474037
 20
424.236447
 30
0.0
 11
531.428735
 21
428.191145
 31
0.0
  0
LINE
  8
LC-013-005-----0
  6
CONTINUOUS
  5
13B
 10
526.427723
 20
424.604346
 30
0.0
 11
530.007345
 21
428.183969
 31
0.0
  0
LINE
  8
LC-013-005-----0
  6
CONTINUOUS
  5
13C
 10
526.436665
 20
426.027502
 30
0.0
 11
527.787242
 21
427.378079
 31
0.0
  0
ENDBLK
  8
0
  5
13D
  0
BLOCK
  8
0
  5
13F
  2
BLK2
 70
    64
 10
0.0
 20
0.0
 30
0.0
  3
BLK2
  0
ENDBLK
  8
0
  5
140
  0
BLOCK
  8
0
  5
142
  2
BLK3
 70
    64
 10
0.0
 20
0.0
 30
0.0
  3
BLK3
  0
ENDBLK
  8
0
  5
143
  0
BLOCK
  8
0
  5
145
  2
*D11
 70
    65
 10
0.0
 20
0.0
 30
0.0
  3
*D11
  0
LINE
  8
LC-011-003-MTH-0
  6
CONTINUOUS
  5
146
 10
517.495989
 20
427.963474
 30
0.0
 11
493.2
 21
427.963474
 31
0.0
  0
LINE
  8
LC-011-003-MTH-0
  6
CONTINUOUS
  5
147
 10
517.495989
 20
555.858779
 30
0.0
 11
493.2
 21
555.858779
 31
0.0
  0
LINE
  8
LC-012-003-MTG-0
  6
CONTINUOUS
  5
148
 10
504.0
 20
427.963474
 30
0.0
 11
504.0
 21
555.858779
 31
0.0
  0
LINE
  8
LC-010-003-----0
  6
CONTINUOUS
  5
149
 10
501.650529
 20
445.809481
 30
0.0
 11
504.0
 21
427.963474
 31
0.0
  0
LINE
  8
LC-010-003-----0
  6
CONTINUOUS
  5
14A
 10
504.0
 20
427.963474
 30
0.0
 11
506.349471
 21
445.809481
 31
0.0
  0
LINE
  8
LC-010-003-----0
  6
CONTINUOUS
  5
14B
 10
506.349471
 20
445.809481
 30
0.0
 11
501.650529
 21
445.809481
 31
0.0
  0
LINE
  8
LC-010-003-----0
  6
CONTINUOUS
  5
14C
 10
502.261391
 20
445.849519
 30
0.0
 11
504.0
 21
432.643474
 31
0.0
  0
LINE
  8
LC-010-003-----0
  6
CONTINUOUS
  5
14D
 10
504.0
 20
432.643474
 30
0.0
 11
505.738609
 21
445.849519
 31
0.0
  0
LINE
  8
LC-010-003-----0
  6
CONTINUOUS
  5
14E
 10
502.872254
 20
445.889557
 30
0.0
 11
504.0
 21
437.323474
 31
0.0
  0
LINE
  8
LC-010-003-----0
  6
CONTINUOUS
  5
14F
 10
504.0
 20
437.323474
 30
0.0
 11
505.127746
 21
445.889557
 31
0.0
  0
LINE
  8
LC-010-003-----0
  6
CONTINUOUS
  5
150
 10
503.483116
 20
445.929595
 30
0.0
 11
504.0
 21
442.003474
 31
0.0
  0
LINE
  8
LC-010-003-----0
  6
CONTINUOUS
  5
151
 10
504.0
 20
442.003474
 30
0.0
 11
504.516884
 21
445.929595
 31
0.0
  0
LINE
  8
LC-010-003-----0
  6
CONTINUOUS
  5
152
 10
506.349471
 20
538.012772
 30
0.0
 11
504.0
 21
555.858779
 31
0.0
  0
LINE
  8
LC-010-003-----0
  6
CONTINUOUS
  5
153
 10
504.0
 20
555.858779
 30
0.0
 11
501.650529
 21
538.012772
 31
0.0
  0
LINE
  8
LC-010-003-----0
  6
CONTINUOUS
  5
154
 10
501.650529
 20
538.012772
 30
0.0
 11
506.349471
 21
538.012772
 31
0.0
  0
LINE
  8
LC-010-003-----0
  6
CONTINUOUS
  5
155
 10
505.738609
 20
537.972734
 30
0.0
 11
504.0
 21
551.178779
 31
0.0
  0
LINE
  8
LC-010-003-----0
  6
CONTINUOUS
  5
156
 10
504.0
 20
551.178779
 30
0.0
 11
502.261391
 21
537.972734
 31
0.0
  0
LINE
  8
LC-010-003-----0
  6
CONTINUOUS
  5
157
 10
505.127746
 20
537.932696
 30
0.0
 11
504.0
 21
546.498779
 31
0.0
  0
LINE
  8
LC-010-003-----0
  6
CONTINUOUS
  5
158
 10
504.0
 20
546.498779
 30
0.0
 11
502.872254
 21
537.932696
 31
0.0
  0
LINE
  8
LC-010-003-----0
  6
CONTINUOUS
  5
159
 10
504.516884
 20
537.892658
 30
0.0
 11
504.0
 21
541.81878
 31
0.0
  0
LINE
  8
LC-010-003-----0
  6
CONTINUOUS
  5
15A
 10
504.0
 20
541.81878
 30
0.0
 11
503.483116
 21
537.892658
 31
0.0
  0
TEXT
  8
LC-010-003-----0
  6
CONTINUOUS
 62
     6
  5
15B
 10
493.568001
 20
461.030782
 30
0.0
 40
18.0
  1
DN125
 50
90.0
 51
15.0
  7
LC-TXTSTYLE-150-400-0-0-D0
 72
     1
 11
493.568001
 21
494.706372
 31
0.0
  0
ENDBLK
  8
0
  5
15C
  0
BLOCK
  8
0
  5
15E
  2
*D12
 70
    65
 10
0.0
 20
0.0
 30
0.0
  3
*D12
  0
LINE
  8
LC-011-003-MTH-0
  6
CONTINUOUS
  5
15F
 10
826.698254
 20
413.31447
 30
0.0
 11
910.8
 21
413.31447
 31
0.0
  0
LINE
  8
LC-011-003-MTH-0
  6
CONTINUOUS
  5
160
 10
826.699677
 20
538.273234
 30
0.0
 11
910.8
 21
538.273234
 31
0.0
  0
LINE
  8
LC-012-003-MTG-0
  6
CONTINUOUS
  5
161
 10
900.0
 20
413.31447
 30
0.0
 11
900.0
 21
538.273234
 31
0.0
  0
LINE
  8
LC-010-003-----0
  6
CONTINUOUS
  5
162
 10
897.650529
 20
431.160477
 30
0.0
 11
900.0
 21
413.31447
 31
0.0
  0
LINE
  8
LC-010-003-----0
  6
CONTINUOUS
  5
163
 10
900.0
 20
413.31447
 30
0.0
 11
902.349471
 21
431.160477
 31
0.0
  0
LINE
  8
LC-010-003-----0
  6
CONTINUOUS
  5
164
 10
902.349471
 20
431.160477
 30
0.0
 11
897.650529
 21
431.160477
 31
0.0
  0
LINE
  8
LC-010-003-----0
  6
CONTINUOUS
  5
165
 10
898.261391
 20
431.200515
 30
0.0
 11
900.0
 21
417.99447
 31
0.0
  0
LINE
  8
LC-010-003-----0
  6
CONTINUOUS
  5
166
 10
900.0
 20
417.99447
 30
0.0
 11
901.738609
 21
431.200515
 31
0.0
  0
LINE
  8
LC-010-003-----0
  6
CONTINUOUS
  5
167
 10
898.872254
 20
431.240553
 30
0.0
 11
900.0
 21
422.67447
 31
0.0
  0
LINE
  8
LC-010-003-----0
  6
CONTINUOUS
  5
168
 10
900.0
 20
422.67447
 30
0.0
 11
901.127746
 21
431.240553
 31
0.0
  0
LINE
  8
LC-010-003-----0
  6
CONTINUOUS
  5
169
 10
899.483116
 20
431.280591
 30
0.0
 11
900.0
 21
427.35447
 31
0.0
  0
LINE
  8
LC-010-003-----0
  6
CONTINUOUS
  5
16A
 10
900.0
 20
427.35447
 30
0.0
 11
900.516884
 21
431.280591
 31
0.0
  0
LINE
  8
LC-010-003-----0
  6
CONTINUOUS
  5
16B
 10
902.349471
 20
520.427226
 30
0.0
 11
900.0
 21
538.273234
 31
0.0
  0
LINE
  8
LC-010-003-----0
  6
CONTINUOUS
  5
16C
 10
900.0
 20
538.273234
 30
0.0
 11
897.650529
 21
520.427226
 31
0.0
  0
LINE
  8
LC-010-003-----0
  6
CONTINUOUS
  5
16D
 10
897.650529
 20
520.427226
 30
0.0
 11
902.349471
 21
520.427226
 31
0.0
  0
LINE
  8
LC-010-003-----0
  6
CONTINUOUS
  5
16E
 10
901.738609
 20
520.387188
 30
0.0
 11
900.0
 21
533.593234
 31
0.0
  0
LINE
  8
LC-010-003-----0
  6
CONTINUOUS
  5
16F
 10
900.0
 20
533.593234
 30
0.0
 11
898.261391
 21
520.387188
 31
0.0
  0
LINE
  8
LC-010-003-----0
  6
CONTINUOUS
  5
170
 10
901.127746
 20
520.34715
 30
0.0
 11
900.0
 21
528.913234
 31
0.0
  0
LINE
  8
LC-010-003-----0
  6
CONTINUOUS
  5
171
 10
900.0
 20
528.913234
 30
0.0
 11
898.872254
 21
520.34715
 31
0.0
  0
LINE
  8
LC-010-003-----0
  6
CONTINUOUS
  5
172
 10
900.516884
 20
520.307112
 30
0.0
 11
900.0
 21
524.233234
 31
0.0
  0
LINE
  8
LC-010-003-----0
  6
CONTINUOUS
  5
173
 10
900.0
 20
524.233234
 30
0.0
 11
899.483116
 21
520.307112
 31
0.0
  0
TEXT
  8
LC-010-003-----0
  6
CONTINUOUS
 62
     6
  5
174
 10
889.568001
 20
444.913507
 30
0.0
 40
18.0
  1
DN125
 50
90.0
 51
15.0
  7
LC-TXTSTYLE-150-400-0-0-D0
 72
     1
 11
889.568001
 21
478.589097
 31
0.0
  0
ENDBLK
  8
0
  5
175
  0
BLOCK
  8
0
  5
177
  2
*D13
 70
    65
 10
0.0
 20
0.0
 30
0.0
  3
*D13
  0
LINE
  8
LC-011-003-MTH-0
  6
CONTINUOUS
  5
178
 10
759.121493
 20
475.794043
 30
0.0
 11
802.8
 21
475.794043
 31
0.0
  0
LINE
  8
LC-011-003-MTH-0
  6
CONTINUOUS
  5
179
 10
604.552698
 20
491.911127
 30
0.0
 11
802.8
 21
491.911127
 31
0.0
  0
LINE
  8
LC-010-003-----0
  6
CONTINUOUS
  5
17A
 10
794.349471
 20
457.948035
 30
0.0
 11
792.0
 21
475.794043
 31
0.0
  0
LINE
  8
LC-010-003-----0
  6
CONTINUOUS
  5
17B
 10
792.0
 20
475.794043
 30
0.0
 11
789.650529
 21
457.948035
 31
0.0
  0
LINE
  8
LC-010-003-----0
  6
CONTINUOUS
  5
17C
 10
789.650529
 20
457.948035
 30
0.0
 11
794.349471
 21
457.948035
 31
0.0
  0
LINE
  8
LC-010-003-----0
  6
CONTINUOUS
  5
17D
 10
793.738609
 20
457.907997
 30
0.0
 11
792.0
 21
471.114043
 31
0.0
  0
LINE
  8
LC-010-003-----0
  6
CONTINUOUS
  5
17E
 10
792.0
 20
471.114043
 30
0.0
 11
790.261391
 21
457.907997
 31
0.0
  0
LINE
  8
LC-010-003-----0
  6
CONTINUOUS
  5
17F
 10
793.127746
 20
457.867959
 30
0.0
 11
792.0
 21
466.434043
 31
0.0
  0
LINE
  8
LC-010-003-----0
  6
CONTINUOUS
  5
180
 10
792.0
 20
466.434043
 30
0.0
 11
790.872254
 21
457.867959
 31
0.0
  0
LINE
  8
LC-010-003-----0
  6
CONTINUOUS
  5
181
 10
792.516884
 20
457.827921
 30
0.0
 11
792.0
 21
461.754043
 31
0.0
  0
LINE
  8
LC-010-003-----0
  6
CONTINUOUS
  5
182
 10
792.0
 20
461.754043
 30
0.0
 11
791.483116
 21
457.827921
 31
0.0
  0
LINE
  8
LC-010-003-----0
  6
CONTINUOUS
  5
183
 10
789.650529
 20
509.757134
 30
0.0
 11
792.0
 21
491.911127
 31
0.0
  0
LINE
  8
LC-010-003-----0
  6
CONTINUOUS
  5
184
 10
792.0
 20
491.911127
 30
0.0
 11
794.349471
 21
509.757134
 31
0.0
  0
LINE
  8
LC-010-003-----0
  6
CONTINUOUS
  5
185
 10
794.349471
 20
509.757134
 30
0.0
 11
789.650529
 21
509.757134
 31
0.0
  0
LINE
  8
LC-010-003-----0
  6
CONTINUOUS
  5
186
 10
790.261391
 20
509.797172
 30
0.0
 11
792.0
 21
496.591127
 31
0.0
  0
LINE
  8
LC-010-003-----0
  6
CONTINUOUS
  5
187
 10
792.0
 20
496.591127
 30
0.0
 11
793.738609
 21
509.797172
 31
0.0
  0
LINE
  8
LC-010-003-----0
  6
CONTINUOUS
  5
188
 10
790.872254
 20
509.83721
 30
0.0
 11
792.0
 21
501.271127
 31
0.0
  0
LINE
  8
LC-010-003-----0
  6
CONTINUOUS
  5
189
 10
792.0
 20
501.271127
 30
0.0
 11
793.127746
 21
509.83721
 31
0.0
  0
LINE
  8
LC-010-003-----0
  6
CONTINUOUS
  5
18A
 10
791.483116
 20
509.877248
 30
0.0
 11
792.0
 21
505.951127
 31
0.0
  0
LINE
  8
LC-010-003-----0
  6
CONTINUOUS
  5
18B
 10
792.0
 20
505.951127
 30
0.0
 11
792.516884
 21
509.877248
 31
0.0
  0
LINE
  8
LC-012-003-MTG-0
  6
CONTINUOUS
  5
18C
 10
792.0
 20
450.594043
 30
0.0
 11
792.0
 21
609.20526
 31
0.0
  0
TEXT
  8
LC-010-003-----0
  6
CONTINUOUS
 62
     6
  5
18D
 10
786.968001
 20
546.077986
 30
0.0
 40
18.0
  1
16,5
 50
90.0
 51
15.0
  7
LC-TXTSTYLE-150-400-0-0-D0
  0
ENDBLK
  8
0
  5
18E
  0
BLOCK
  8
0
  5
190
  2
*D14
 70
    65
 10
0.0
 20
0.0
 30
0.0
  3
*D14
  0
LINE
  8
LC-011-003-MTH-0
  6
CONTINUOUS
  5
191
 10
611.685693
 20
408.315414
 30
0.0
 11
946.8
 21
408.315414
 31
0.0
  0
LINE
  8
LC-011-003-MTH-0
  6
CONTINUOUS
  5
192
 10
632.750245
 20
727.811138
 30
0.0
 11
946.8
 21
727.811138
 31
0.0
  0
LINE
  8
LC-012-003-MTG-0
  6
CONTINUOUS
  5
193
 10
936.0
 20
408.315414
 30
0.0
 11
936.0
 21
727.811138
 31
0.0
  0
LINE
  8
LC-010-003-----0
  6
CONTINUOUS
  5
194
 10
933.650529
 20
426.161421
 30
0.0
 11
936.0
 21
408.315414
 31
0.0
  0
LINE
  8
LC-010-003-----0
  6
CONTINUOUS
  5
195
 10
936.0
 20
408.315414
 30
0.0
 11
938.349471
 21
426.161421
 31
0.0
  0
LINE
  8
LC-010-003-----0
  6
CONTINUOUS
  5
196
 10
938.349471
 20
426.161421
 30
0.0
 11
933.650529
 21
426.161421
 31
0.0
  0
LINE
  8
LC-010-003-----0
  6
CONTINUOUS
  5
197
 10
934.261391
 20
426.201459
 30
0.0
 11
936.0
 21
412.995414
 31
0.0
  0
LINE
  8
LC-010-003-----0
  6
CONTINUOUS
  5
198
 10
936.0
 20
412.995414
 30
0.0
 11
937.738609
 21
426.201459
 31
0.0
  0
LINE
  8
LC-010-003-----0
  6
CONTINUOUS
  5
199
 10
934.872254
 20
426.241497
 30
0.0
 11
936.0
 21
417.675414
 31
0.0
  0
LINE
  8
LC-010-003-----0
  6
CONTINUOUS
  5
19A
 10
936.0
 20
417.675414
 30
0.0
 11
937.127746
 21
426.241497
 31
0.0
  0
LINE
  8
LC-010-003-----0
  6
CONTINUOUS
  5
19B
 10
935.483116
 20
426.281535
 30
0.0
 11
936.0
 21
422.355414
 31
0.0
  0
LINE
  8
LC-010-003-----0
  6
CONTINUOUS
  5
19C
 10
936.0
 20
422.355414
 30
0.0
 11
936.516884
 21
426.281535
 31
0.0
  0
LINE
  8
LC-010-003-----0
  6
CONTINUOUS
  5
19D
 10
938.349471
 20
709.965131
 30
0.0
 11
936.0
 21
727.811138
 31
0.0
  0
LINE
  8
LC-010-003-----0
  6
CONTINUOUS
  5
19E
 10
936.0
 20
727.811138
 30
0.0
 11
933.650529
 21
709.965131
 31
0.0
  0
LINE
  8
LC-010-003-----0
  6
CONTINUOUS
  5
19F
 10
933.650529
 20
709.965131
 30
0.0
 11
938.349471
 21
709.965131
 31
0.0
  0
LINE
  8
LC-010-003-----0
  6
CONTINUOUS
  5
1A0
 10
937.738609
 20
709.925093
 30
0.0
 11
936.0
 21
723.131139
 31
0.0
  0
LINE
  8
LC-010-003-----0
  6
CONTINUOUS
  5
1A1
 10
936.0
 20
723.131139
 30
0.0
 11
934.261391
 21
709.925093
 31
0.0
  0
LINE
  8
LC-010-003-----0
  6
CONTINUOUS
  5
1A2
 10
937.127746
 20
709.885055
 30
0.0
 11
936.0
 21
718.451139
 31
0.0
  0
LINE
  8
LC-010-003-----0
  6
CONTINUOUS
  5
1A3
 10
936.0
 20
718.451139
 30
0.0
 11
934.872254
 21
709.885055
 31
0.0
  0
LINE
  8
LC-010-003-----0
  6
CONTINUOUS
  5
1A4
 10
936.516884
 20
709.845017
 30
0.0
 11
936.0
 21
713.771139
 31
0.0
  0
LINE
  8
LC-010-003-----0
  6
CONTINUOUS
  5
1A5
 10
936.0
 20
713.771139
 30
0.0
 11
935.483116
 21
709.845017
 31
0.0
  0
TEXT
  8
LC-010-003-----0
  6
CONTINUOUS
 62
     6
  5
1A6
 10
925.568001
 20
550.512789
 30
0.0
 40
18.0
  1
220-320
 50
90.0
 51
15.0
  7
LC-TXTSTYLE-150-400-0-0-D0
 72
     1
 11
925.568001
 21
599.559246
 31
0.0
  0
ENDBLK
  8
0
  5
1A7
  0
BLOCK
  8
0
  5
1A9
  2
SYM3
 70
    64
 10
1356.381777
 20
827.598303
 30
0.0
  3
SYM3
  0
ENDBLK
  8
0
  5
1AA
  0
BLOCK
  8
0
  5
1AC
  2
BLK4
 70
    64
 10
0.0
 20
0.0
 30
0.0
  3
BLK4
  0
ENDBLK
  8
0
  5
1AD
  0
BLOCK
  8
0
  5
1AF
  2
BLK5
 70
    64
 10
0.0
 20
0.0
 30
0.0
  3
BLK5
  0
ENDBLK
  8
0
  5
1B0
  0
BLOCK
  8
0
  5
1B2
  2
*X18
 70
    65
 10
343.679236
 20
351.767344
 30
0.0
  3
*X18
  0
LINE
  8
LC-013-005-----0
  6
CONTINUOUS
  5
1B3
 10
622.676922
 20
492.569274
 30
0.0
 11
623.667756
 21
493.560109
 31
0.0
  0
LINE
  8
LC-013-005-----0
  6
CONTINUOUS
  5
1B4
 10
622.632961
 20
495.35374
 30
0.0
 11
623.605004
 21
496.325783
 31
0.0
  0
LINE
  8
LC-013-005-----0
  6
CONTINUOUS
  5
1B5
 10
622.535599
 20
498.084805
 30
0.0
 11
623.490238
 21
499.039445
 31
0.0
  0
LINE
  8
LC-013-005-----0
  6
CONTINUOUS
  5
1B6
 10
622.387693
 20
500.765327
 30
0.0
 11
623.326171
 21
501.703805
 31
0.0
  0
LINE
  8
LC-013-005-----0
  6
CONTINUOUS
  5
1B7
 10
622.489065
 20
503.695126
 30
0.0
 11
625.149905
 21
506.355966
 31
0.0
  0
LINE
  8
LC-013-005-----0
  6
CONTINUOUS
  5
1B8
 10
623.740016
 20
507.774504
 30
0.0
 11
624.556513
 21
508.591001
 31
0.0
  0
LINE
  8
LC-013-005-----0
  6
CONTINUOUS
  5
1B9
 10
623.142299
 20
510.005214
 30
0.0
 11
623.958796
 21
510.821711
 31
0.0
  0
LINE
  8
LC-013-005-----0
  6
CONTINUOUS
  5
1BA
 10
622.544582
 20
512.235924
 30
0.0
 11
623.361079
 21
513.052421
 31
0.0
  0
LINE
  8
LC-013-005-----0
  6
CONTINUOUS
  5
1BB
 10
621.946865
 20
514.466634
 30
0.0
 11
622.763362
 21
515.283131
 31
0.0
  0
LINE
  8
LC-013-005-----0
  6
CONTINUOUS
  5
1BC
 10
621.349148
 20
516.697344
 30
0.0
 11
622.165645
 21
517.513841
 31
0.0
  0
LINE
  8
LC-013-005-----0
  6
CONTINUOUS
  5
1BD
 10
620.751431
 20
518.928055
 30
0.0
 11
621.567928
 21
519.744551
 31
0.0
  0
LINE
  8
LC-013-005-----0
  6
CONTINUOUS
  5
1BE
 10
620.153714
 20
521.158765
 30
0.0
 11
620.970211
 21
521.975261
 31
0.0
  0
LINE
  8
LC-013-005-----0
  6
CONTINUOUS
  5
1BF
 10
619.555997
 20
523.389475
 30
0.0
 11
620.372494
 21
524.205971
 31
0.0
  0
LINE
  8
LC-013-005-----0
  6
CONTINUOUS
  5
1C0
 10
618.95828
 20
525.620185
 30
0.0
 11
619.774776
 21
526.436681
 31
0.0
  0
LINE
  8
LC-013-005-----0
  6
CONTINUOUS
  5
1C1
 10
618.360563
 20
527.850895
 30
0.0
 11
619.177059
 21
528.667391
 31
0.0
  0
LINE
  8
LC-013-005-----0
  6
CONTINUOUS
  5
1C2
 10
617.762846
 20
530.081605
 30
0.0
 11
618.579342
 21
530.898102
 31
0.0
  0
LINE
  8
LC-013-005-----0
  6
CONTINUOUS
  5
1C3
 10
617.165129
 20
532.312315
 30
0.0
 11
617.981625
 21
533.128812
 31
0.0
  0
LINE
  8
LC-013-005-----0
  6
CONTINUOUS
  5
1C4
 10
616.567412
 20
534.543025
 30
0.0
 11
617.383908
 21
535.359522
 31
0.0
  0
LINE
  8
LC-013-005-----0
  6
CONTINUOUS
  5
1C5
 10
615.969695
 20
536.773735
 30
0.0
 11
616.786191
 21
537.590232
 31
0.0
  0
LINE
  8
LC-013-005-----0
  6
CONTINUOUS
  5
1C6
 10
615.371978
 20
539.004445
 30
0.0
 11
616.188474
 21
539.820942
 31
0.0
  0
LINE
  8
LC-013-005-----0
  6
CONTINUOUS
  5
1C7
 10
614.774261
 20
541.235155
 30
0.0
 11
615.590757
 21
542.051652
 31
0.0
  0
LINE
  8
LC-013-005-----0
  6
CONTINUOUS
  5
1C8
 10
614.176544
 20
543.465865
 30
0.0
 11
614.99304
 21
544.282362
 31
0.0
  0
LINE
  8
LC-013-005-----0
  6
CONTINUOUS
  5
1C9
 10
613.578827
 20
545.696576
 30
0.0
 11
614.395323
 21
546.513072
 31
0.0
  0
LINE
  8
LC-013-005-----0
  6
CONTINUOUS
  5
1CA
 10
612.98111
 20
547.927286
 30
0.0
 11
613.797606
 21
548.743782
 31
0.0
  0
LINE
  8
LC-013-005-----0
  6
CONTINUOUS
  5
1CB
 10
611.920341
 20
549.694944
 30
0.0
 11
612.693313
 21
550.467916
 31
0.0
  0
LINE
  8
LC-013-005-----0
  6
CONTINUOUS
  5
1CC
 10
609.109141
 20
549.712172
 30
0.0
 11
610.109141
 21
550.712172
 31
0.0
  0
LINE
  8
LC-013-005-----0
  6
CONTINUOUS
  5
1CD
 10
606.280714
 20
549.712172
 30
0.0
 11
607.280714
 21
550.712172
 31
0.0
  0
LINE
  8
LC-013-005-----0
  6
CONTINUOUS
  5
1CE
 10
603.452287
 20
549.712172
 30
0.0
 11
604.452287
 21
550.712172
 31
0.0
  0
LINE
  8
LC-013-005-----0
  6
CONTINUOUS
  5
1CF
 10
600.62386
 20
549.712172
 30
0.0
 11
601.62386
 21
550.712172
 31
0.0
  0
LINE
  8
LC-013-005-----0
  6
CONTINUOUS
  5
1D0
 10
607.62386
 20
556.712172
 30
0.0
 11
608.62386
 21
557.712172
 31
0.0
  0
LINE
  8
LC-013-005-----0
  6
CONTINUOUS
  5
1D1
 10
609.819126
 20
558.907438
 30
0.0
 11
610.819126
 21
559.907438
 31
0.0
  0
LINE
  8
LC-013-005-----0
  6
CONTINUOUS
  5
1D2
 10
597.879348
 20
549.796087
 30
0.0
 11
598.795433
 21
550.712172
 31
0.0
  0
LINE
  8
LC-013-005-----0
  6
CONTINUOUS
  5
1D3
 10
604.795433
 20
556.712172
 30
0.0
 11
605.795433
 21
557.712172
 31
0.0
  0
LINE
  8
LC-013-005-----0
  6
CONTINUOUS
  5
1D4
 10
609.819126
 20
561.735865
 30
0.0
 11
610.819126
 21
562.735865
 31
0.0
  0
LINE
  8
LC-013-005-----0
  6
CONTINUOUS
  5
1D5
 10
597.280333
 20
552.025499
 30
0.0
 11
598.280333
 21
553.025499
 31
0.0
  0
LINE
  8
LC-013-005-----0
  6
CONTINUOUS
  5
1D6
 10
601.967006
 20
556.712172
 30
0.0
 11
602.967006
 21
557.712172
 31
0.0
  0
LINE
  8
LC-013-005-----0
  6
CONTINUOUS
  5
1D7
 10
609.819126
 20
564.564292
 30
0.0
 11
610.819126
 21
565.564292
 31
0.0
  0
LINE
  8
LC-013-005-----0
  6
CONTINUOUS
  5
1D8
 10
597.280333
 20
554.853926
 30
0.0
 11
598.280333
 21
555.853926
 31
0.0
  0
LINE
  8
LC-013-005-----0
  6
CONTINUOUS
  5
1D9
 10
599.138578
 20
556.712172
 30
0.0
 11
600.138578
 21
557.712172
 31
0.0
  0
LINE
  8
LC-013-005-----0
  6
CONTINUOUS
  5
1DA
 10
609.819126
 20
567.392719
 30
0.0
 11
610.819126
 21
568.392719
 31
0.0
  0
LINE
  8
LC-013-005-----0
  6
CONTINUOUS
  5
1DB
 10
609.506176
 20
569.908197
 30
0.0
 11
610.29562
 21
570.69764
 31
0.0
  0
LINE
  8
LC-013-005-----0
  6
CONTINUOUS
  5
1DC
 10
608.79402
 20
572.024467
 30
0.0
 11
609.583463
 21
572.813911
 31
0.0
  0
LINE
  8
LC-013-005-----0
  6
CONTINUOUS
  5
1DD
 10
608.081863
 20
574.140738
 30
0.0
 11
608.871307
 21
574.930181
 31
0.0
  0
LINE
  8
LC-013-005-----0
  6
CONTINUOUS
  5
1DE
 10
607.369707
 20
576.257008
 30
0.0
 11
608.15915
 21
577.046452
 31
0.0
  0
LINE
  8
LC-013-005-----0
  6
CONTINUOUS
  5
1DF
 10
606.65755
 20
578.373279
 30
0.0
 11
607.446994
 21
579.162722
 31
0.0
  0
LINE
  8
LC-013-005-----0
  6
CONTINUOUS
  5
1E0
 10
597.080333
 20
571.624489
 30
0.0
 11
598.080333
 21
572.624489
 31
0.0
  0
LINE
  8
LC-013-005-----0
  6
CONTINUOUS
  5
1E1
 10
605.861835
 20
580.405991
 30
0.0
 11
606.585072
 21
581.129228
 31
0.0
  0
LINE
  8
LC-013-005-----0
  6
CONTINUOUS
  5
1E2
 10
597.080333
 20
574.452916
 30
0.0
 11
598.080333
 21
575.452916
 31
0.0
  0
LINE
  8
LC-013-005-----0
  6
CONTINUOUS
  5
1E3
 10
604.441117
 20
581.8137
 30
0.0
 11
605.16566
 21
582.538243
 31
0.0
  0
LINE
  8
LC-013-005-----0
  6
CONTINUOUS
  5
1E4
 10
597.080333
 20
577.281343
 30
0.0
 11
598.080912
 21
578.281922
 31
0.0
  0
LINE
  8
LC-013-005-----0
  6
CONTINUOUS
  5
1E5
 10
602.210582
 20
582.411592
 30
0.0
 11
603.139665
 21
583.340675
 31
0.0
  0
LINE
  8
LC-013-005-----0
  6
CONTINUOUS
  5
1E6
 10
597.769232
 20
580.798669
 30
0.0
 11
599.693835
 21
582.723272
 31
0.0
  0
ENDBLK
  8
0
  5
1E7
  0
BLOCK
  8
0
  5
1E9
  2
*X19
 70
    65
 10
575.870251
 20
588.311139
 30
0.0
  3
*X19
  0
LINE
  8
LC-013-005-----0
  6
CONTINUOUS
  5
1EA
 10
620.526684
 20
599.31348
 30
0.0
 11
622.524342
 21
601.311139
 31
0.0
  0
LINE
  8
LC-013-005-----0
  6
CONTINUOUS
  5
1EB
 10
616.283734
 20
599.313171
 30
0.0
 11
621.350245
 21
604.379682
 31
0.0
  0
LINE
  8
LC-013-005-----0
  6
CONTINUOUS
  5
1EC
 10
612.040783
 20
599.312861
 30
0.0
 11
616.039061
 21
603.311139
 31
0.0
  0
LINE
  8
LC-013-005-----0
  6
CONTINUOUS
  5
1ED
 10
619.250245
 20
606.522323
 30
0.0
 11
621.350245
 21
608.622323
 31
0.0
  0
LINE
  8
LC-013-005-----0
  6
CONTINUOUS
  5
1EE
 10
607.797833
 20
599.312551
 30
0.0
 11
611.79642
 21
603.311139
 31
0.0
  0
LINE
  8
LC-013-005-----0
  6
CONTINUOUS
  5
1EF
 10
603.554882
 20
599.312242
 30
0.0
 11
607.553779
 21
603.311139
 31
0.0
  0
LINE
  8
LC-013-005-----0
  6
CONTINUOUS
  5
1F0
 10
599.311932
 20
599.311932
 30
0.0
 11
603.311139
 21
603.311139
 31
0.0
  0
LINE
  8
LC-013-005-----0
  6
CONTINUOUS
  5
1F1
 10
587.591552
 20
591.834193
 30
0.0
 11
587.918422
 21
592.161062
 31
0.0
  0
LINE
  8
LC-013-005-----0
  6
CONTINUOUS
  5
1F2
 10
595.068982
 20
599.311622
 30
0.0
 11
599.068498
 21
603.311139
 31
0.0
  0
LINE
  8
LC-013-005-----0
  6
CONTINUOUS
  5
1F3
 10
585.816436
 20
594.301717
 30
0.0
 11
587.941476
 21
596.426757
 31
0.0
  0
LINE
  8
LC-013-005-----0
  6
CONTINUOUS
  5
1F4
 10
590.826031
 20
599.311313
 30
0.0
 11
594.825857
 21
603.311139
 31
0.0
  0
LINE
  8
LC-013-005-----0
  6
CONTINUOUS
  5
1F5
 10
576.023794
 20
588.751716
 30
0.0
 11
578.159974
 21
590.887896
 31
0.0
  0
LINE
  8
LC-013-005-----0
  6
CONTINUOUS
  5
1F6
 10
585.605161
 20
598.333083
 30
0.0
 11
590.583216
 21
603.311139
 31
0.0
  0
LINE
  8
LC-013-005-----0
  6
CONTINUOUS
  5
1F7
 10
576.020251
 20
592.990813
 30
0.0
 11
578.394619
 21
595.365182
 31
0.0
  0
LINE
  8
LC-013-005-----0
  6
CONTINUOUS
  5
1F8
 10
582.340576
 20
599.311138
 30
0.0
 11
586.340576
 21
603.311139
 31
0.0
  0
LINE
  8
LC-013-005-----0
  6
CONTINUOUS
  5
1F9
 10
576.020251
 20
597.233454
 30
0.0
 11
582.097935
 21
603.311139
 31
0.0
  0
LINE
  8
LC-013-005-----0
  6
CONTINUOUS
  5
1FA
 10
576.177184
 20
601.633028
 30
0.0
 11
577.548361
 21
603.004205
 31
0.0
  0
ENDBLK
  8
0
  5
1FB
  0
BLOCK
  8
0
  5
1FD
  2
*X20
 70
    65
 10
633.750245
 20
588.311139
 30
0.0
  3
*X20
  0
LINE
  8
LC-013-005-----0
  6
CONTINUOUS
  5
1FE
 10
762.427058
 20
588.47879
 30
0.0
 11
764.330814
 21
590.382546
 31
0.0
  0
LINE
  8
LC-013-005-----0
  6
CONTINUOUS
  5
1FF
 10
762.111535
 20
592.405907
 30
0.0
 11
764.330814
 21
594.625187
 31
0.0
  0
LINE
  8
LC-013-005-----0
  6
CONTINUOUS
  5
200
 10
761.90026
 20
596.437273
 30
0.0
 11
764.330814
 21
598.867827
 31
0.0
  0
LINE
  8
LC-013-005-----0
  6
CONTINUOUS
  5
201
 10
753.031485
 20
591.811139
 30
0.0
 11
754.480017
 21
593.259671
 31
0.0
  0
LINE
  8
LC-013-005-----0
  6
CONTINUOUS
  5
202
 10
760.531485
 20
599.311139
 30
0.0
 11
763.550096
 21
602.329749
 31
0.0
  0
LINE
  8
LC-013-005-----0
  6
CONTINUOUS
  5
203
 10
752.408362
 20
595.430656
 30
0.0
 11
754.714662
 21
597.736957
 31
0.0
  0
LINE
  8
LC-013-005-----0
  6
CONTINUOUS
  5
204
 10
756.288844
 20
599.311139
 30
0.0
 11
760.288844
 21
603.311139
 31
0.0
  0
LINE
  8
LC-013-005-----0
  6
CONTINUOUS
  5
205
 10
752.040414
 20
599.305349
 30
0.0
 11
756.046203
 21
603.311139
 31
0.0
  0
LINE
  8
LC-013-005-----0
  6
CONTINUOUS
  5
206
 10
747.815226
 20
599.322802
 30
0.0
 11
751.803563
 21
603.311139
 31
0.0
  0
LINE
  8
LC-013-005-----0
  6
CONTINUOUS
  5
207
 10
743.572275
 20
599.322492
 30
0.0
 11
747.560922
 21
603.311139
 31
0.0
  0
LINE
  8
LC-013-005-----0
  6
CONTINUOUS
  5
208
 10
739.329324
 20
599.322181
 30
0.0
 11
743.318281
 21
603.311139
 31
0.0
  0
LINE
  8
LC-013-005-----0
  6
CONTINUOUS
  5
209
 10
735.086373
 20
599.321871
 30
0.0
 11
739.07564
 21
603.311139
 31
0.0
  0
LINE
  8
LC-013-005-----0
  6
CONTINUOUS
  5
20A
 10
730.843421
 20
599.32156
 30
0.0
 11
734.833
 21
603.311139
 31
0.0
  0
LINE
  8
LC-013-005-----0
  6
CONTINUOUS
  5
20B
 10
726.60047
 20
599.32125
 30
0.0
 11
730.590359
 21
603.311139
 31
0.0
  0
LINE
  8
LC-013-005-----0
  6
CONTINUOUS
  5
20C
 10
722.357519
 20
599.320939
 30
0.0
 11
726.347718
 21
603.311139
 31
0.0
  0
LINE
  8
LC-013-005-----0
  6
CONTINUOUS
  5
20D
 10
718.114568
 20
599.320629
 30
0.0
 11
722.105078
 21
603.311139
 31
0.0
  0
LINE
  8
LC-013-005-----0
  6
CONTINUOUS
  5
20E
 10
713.871617
 20
599.320318
 30
0.0
 11
717.862437
 21
603.311139
 31
0.0
  0
LINE
  8
LC-013-005-----0
  6
CONTINUOUS
  5
20F
 10
709.628665
 20
599.320008
 30
0.0
 11
713.619796
 21
603.311139
 31
0.0
  0
LINE
  8
LC-013-005-----0
  6
CONTINUOUS
  5
210
 10
705.385714
 20
599.319697
 30
0.0
 11
709.377156
 21
603.311139
 31
0.0
  0
LINE
  8
LC-013-005-----0
  6
CONTINUOUS
  5
211
 10
701.142763
 20
599.319386
 30
0.0
 11
705.134515
 21
603.311139
 31
0.0
  0
LINE
  8
LC-013-005-----0
  6
CONTINUOUS
  5
212
 10
696.899812
 20
599.319076
 30
0.0
 11
700.891874
 21
603.311139
 31
0.0
  0
LINE
  8
LC-013-005-----0
  6
CONTINUOUS
  5
213
 10
692.656861
 20
599.318765
 30
0.0
 11
696.649234
 21
603.311139
 31
0.0
  0
LINE
  8
LC-013-005-----0
  6
CONTINUOUS
  5
214
 10
688.413909
 20
599.318455
 30
0.0
 11
692.406593
 21
603.311139
 31
0.0
  0
LINE
  8
LC-013-005-----0
  6
CONTINUOUS
  5
215
 10
684.170958
 20
599.318144
 30
0.0
 11
688.163952
 21
603.311139
 31
0.0
  0
LINE
  8
LC-013-005-----0
  6
CONTINUOUS
  5
216
 10
679.928007
 20
599.317834
 30
0.0
 11
683.921312
 21
603.311139
 31
0.0
  0
LINE
  8
LC-013-005-----0
  6
CONTINUOUS
  5
217
 10
675.685056
 20
599.317523
 30
0.0
 11
679.678671
 21
603.311139
 31
0.0
  0
LINE
  8
LC-013-005-----0
  6
CONTINUOUS
  5
218
 10
671.442105
 20
599.317213
 30
0.0
 11
675.43603
 21
603.311139
 31
0.0
  0
LINE
  8
LC-013-005-----0
  6
CONTINUOUS
  5
219
 10
667.199153
 20
599.316902
 30
0.0
 11
671.193389
 21
603.311139
 31
0.0
  0
LINE
  8
LC-013-005-----0
  6
CONTINUOUS
  5
21A
 10
662.956202
 20
599.316592
 30
0.0
 11
666.950749
 21
603.311139
 31
0.0
  0
LINE
  8
LC-013-005-----0
  6
CONTINUOUS
  5
21B
 10
658.713251
 20
599.316281
 30
0.0
 11
662.708108
 21
603.311139
 31
0.0
  0
LINE
  8
LC-013-005-----0
  6
CONTINUOUS
  5
21C
 10
654.4703
 20
599.315971
 30
0.0
 11
658.465467
 21
603.311139
 31
0.0
  0
LINE
  8
LC-013-005-----0
  6
CONTINUOUS
  5
21D
 10
650.227349
 20
599.31566
 30
0.0
 11
654.222827
 21
603.311139
 31
0.0
  0
LINE
  8
LC-013-005-----0
  6
CONTINUOUS
  5
21E
 10
645.984397
 20
599.31535
 30
0.0
 11
649.980186
 21
603.311139
 31
0.0
  0
LINE
  8
LC-013-005-----0
  6
CONTINUOUS
  5
21F
 10
641.741446
 20
599.315039
 30
0.0
 11
645.737545
 21
603.311139
 31
0.0
  0
LINE
  8
LC-013-005-----0
  6
CONTINUOUS
  5
220
 10
637.498495
 20
599.314729
 30
0.0
 11
641.494905
 21
603.311139
 31
0.0
  0
LINE
  8
LC-013-005-----0
  6
CONTINUOUS
  5
221
 10
633.750245
 20
599.80912
 30
0.0
 11
635.252264
 21
601.311139
 31
0.0
  0
LINE
  8
LC-013-005-----0
  6
CONTINUOUS
  5
222
 10
637.150245
 20
603.20912
 30
0.0
 11
639.250245
 21
605.30912
 31
0.0
  0
LINE
  8
LC-013-005-----0
  6
CONTINUOUS
  5
223
 10
637.150245
 20
607.45176
 30
0.0
 11
639.250245
 21
609.55176
 31
0.0
  0
ENDBLK
  8
0
  5
224
  0
BLOCK
  8
0
  5
226
  2
BLK6
 70
    64
 10
0.0
 20
0.0
 30
0.0
  3
BLK6
  0
ENDBLK
  8
0
  5
227
  0
BLOCK
  8
0
  5
229
  2
*X22
 70
    65
 10
587.061497
 20
415.722732
 30
0.0
  3
*X22
  0
LINE
  8
LC-013-005-----0
  6
CONTINUOUS
  5
22A
 10
608.427813
 20
416.094769
 30
0.0
 11
609.110504
 21
416.777459
 31
0.0
  0
LINE
  8
LC-013-005-----0
  6
CONTINUOUS
  5
22B
 10
605.549139
 20
416.044521
 30
0.0
 11
609.110504
 21
419.605887
 31
0.0
  0
LINE
  8
LC-013-005-----0
  6
CONTINUOUS
  5
22C
 10
602.670464
 20
415.994274
 30
0.0
 11
606.742145
 21
420.065955
 31
0.0
  0
LINE
  8
LC-013-005-----0
  6
CONTINUOUS
  5
22D
 10
599.791789
 20
415.944026
 30
0.0
 11
603.86347
 21
420.015707
 31
0.0
  0
LINE
  8
LC-013-005-----0
  6
CONTINUOUS
  5
22E
 10
596.913115
 20
415.893779
 30
0.0
 11
601.668537
 21
420.649201
 31
0.0
  0
LINE
  8
LC-013-005-----0
  6
CONTINUOUS
  5
22F
 10
594.03444
 20
415.843531
 30
0.0
 11
599.848805
 21
421.657896
 31
0.0
  0
LINE
  8
LC-013-005-----0
  6
CONTINUOUS
  5
230
 10
591.155766
 20
415.793284
 30
0.0
 11
598.029072
 21
422.66659
 31
0.0
  0
LINE
  8
LC-013-005-----0
  6
CONTINUOUS
  5
231
 10
588.277091
 20
415.743036
 30
0.0
 11
591.330852
 21
418.796797
 31
0.0
  0
LINE
  8
LC-013-005-----0
  6
CONTINUOUS
  5
232
 10
593.570276
 20
421.036221
 30
0.0
 11
595.606116
 21
423.072062
 31
0.0
  0
LINE
  8
LC-013-005-----0
  6
CONTINUOUS
  5
233
 10
587.084939
 20
417.379311
 30
0.0
 11
588.452177
 21
418.74655
 31
0.0
  0
LINE
  8
LC-013-005-----0
  6
CONTINUOUS
  5
234
 10
591.016915
 20
421.311288
 30
0.0
 11
592.727442
 21
423.021814
 31
0.0
  0
ENDBLK
  8
0
  5
235
  0
BLOCK
  8
0
  5
237
  2
*X23
 70
    65
 10
584.199303
 20
560.970427
 30
0.0
  3
*X23
  0
LINE
  8
LC-013-005-----0
  6
CONTINUOUS
  5
238
 10
606.917417
 20
564.49101
 30
0.0
 11
609.110504
 21
566.684097
 31
0.0
  0
LINE
  8
LC-013-005-----0
  6
CONTINUOUS
  5
239
 10
604.038742
 20
564.440763
 30
0.0
 11
607.703255
 21
568.105275
 31
0.0
  0
LINE
  8
LC-013-005-----0
  6
CONTINUOUS
  5
23A
 10
601.160068
 20
564.390515
 30
0.0
 11
604.82458
 21
568.055028
 31
0.0
  0
LINE
  8
LC-013-005-----0
  6
CONTINUOUS
  5
23B
 10
595.296702
 20
561.355577
 30
0.0
 11
601.945906
 21
568.00478
 31
0.0
  0
LINE
  8
LC-013-005-----0
  6
CONTINUOUS
  5
23C
 10
592.145374
 20
561.032676
 30
0.0
 11
599.067231
 21
567.954533
 31
0.0
  0
LINE
  8
LC-013-005-----0
  6
CONTINUOUS
  5
23D
 10
589.266699
 20
560.982428
 30
0.0
 11
591.30254
 21
563.018269
 31
0.0
  0
LINE
  8
LC-013-005-----0
  6
CONTINUOUS
  5
23E
 10
591.539728
 20
563.255456
 30
0.0
 11
596.188557
 21
567.904286
 31
0.0
  0
LINE
  8
LC-013-005-----0
  6
CONTINUOUS
  5
23F
 10
590.66329
 20
565.207446
 30
0.0
 11
593.309882
 21
567.854038
 31
0.0
  0
LINE
  8
LC-013-005-----0
  6
CONTINUOUS
  5
240
 10
587.784615
 20
565.157198
 30
0.0
 11
590.431208
 21
567.803791
 31
0.0
  0
LINE
  8
LC-013-005-----0
  6
CONTINUOUS
  5
241
 10
584.905941
 20
565.106951
 30
0.0
 11
588.248576
 21
568.449586
 31
0.0
  0
LINE
  8
LC-013-005-----0
  6
CONTINUOUS
  5
242
 10
584.464675
 20
567.494113
 30
0.0
 11
588.200053
 21
571.22949
 31
0.0
  0
LINE
  8
LC-013-005-----0
  6
CONTINUOUS
  5
243
 10
584.416152
 20
570.274016
 30
0.0
 11
588.151529
 21
574.009394
 31
0.0
  0
LINE
  8
LC-013-005-----0
  6
CONTINUOUS
  5
244
 10
584.367628
 20
573.05392
 30
0.0
 11
588.103006
 21
576.789298
 31
0.0
  0
LINE
  8
LC-013-005-----0
  6
CONTINUOUS
  5
245
 10
584.319105
 20
575.833824
 30
0.0
 11
588.054483
 21
579.569201
 31
0.0
  0
LINE
  8
LC-013-005-----0
  6
CONTINUOUS
  5
246
 10
584.270582
 20
578.613727
 30
0.0
 11
588.005959
 21
582.349105
 31
0.0
  0
LINE
  8
LC-013-005-----0
  6
CONTINUOUS
  5
247
 10
584.222058
 20
581.393631
 30
0.0
 11
585.549288
 21
582.720861
 31
0.0
  0
ENDBLK
  8
0
  5
248
  0
BLOCK
  8
0
  5
24A
  2
*X24
 70
    65
 10
586.86254
 20
418.722275
 30
0.0
  3
*X24
  0
LINE
  8
LC-013-005-----0
  6
CONTINUOUS
  5
24B
 10
609.110504
 20
420.43697
 30
0.0
 11
607.628539
 21
421.918935
 31
0.0
  0
LINE
  8
LC-013-005-----0
  6
DASHED
  5
24D
 10
606.65462
 20
420.064427
 30
0.0
 11
601.282376
 21
425.43667
 31
0.0
  0
LINE
  8
LC-013-005-----0
  6
DASHED
  5
24E
 10
605.264668
 20
420.040165
 30
0.0
 11
598.109295
 21
427.195538
 31
0.0
  0
LINE
  8
LC-013-005-----0
  6
CONTINUOUS
  5
24F
 10
602.02454
 20
420.451866
 30
0.0
 11
592.261625
 21
430.21478
 31
0.0
  0
LINE
  8
LC-013-005-----0
  6
CONTINUOUS
  5
250
 10
598.851458
 20
422.210734
 30
0.0
 11
590.871673
 21
430.190519
 31
0.0
  0
LINE
  8
LC-013-005-----0
  6
DASHED
  5
251
 10
595.169327
 20
423.064438
 30
0.0
 11
588.09177
 21
430.141995
 31
0.0
  0
LINE
  8
LC-013-005-----0
  6
DASHED
  5
252
 10
593.779375
 20
423.040176
 30
0.0
 11
586.865445
 21
429.954106
 31
0.0
  0
LINE
  8
LC-013-005-----0
  6
CONTINUOUS
  5
253
 10
594.041134
 20
419.94999
 30
0.0
 11
592.96546
 21
421.025664
 31
0.0
  0
LINE
  8
LC-013-005-----0
  6
CONTINUOUS
  5
254
 10
590.999472
 20
422.991653
 30
0.0
 11
586.915692
 21
427.075432
 31
0.0
  0
LINE
  8
LC-013-005-----0
  6
CONTINUOUS
  5
255
 10
593.738095
 20
418.838816
 30
0.0
 11
591.575508
 21
421.001403
 31
0.0
  0
LINE
  8
LC-013-005-----0
  6
CONTINUOUS
  5
256
 10
591.012497
 20
421.564414
 30
0.0
 11
586.940816
 21
425.636094
 31
0.0
  0
LINE
  8
LC-013-005-----0
  6
DASHED
  5
257
 10
590.958191
 20
418.790292
 30
0.0
 11
586.991064
 21
422.75742
 31
0.0
  0
LINE
  8
LC-013-005-----0
  6
DASHED
  5
258
 10
589.568239
 20
418.766031
 30
0.0
 11
587.016187
 21
421.318083
 31
0.0
  0
ENDBLK
  8
0
  5
259
  0
BLOCK
  8
0
  5
25B
  2
*X25
 70
    65
 10
584.506465
 20
553.701714
 30
0.0
  3
*X25
  0
LINE
  8
LC-013-005-----0
  6
CONTINUOUS
  5
25C
 10
606.594243
 20
564.374587
 30
0.0
 11
606.485361
 21
564.483469
 31
0.0
  0
LINE
  8
LC-013-005-----0
  6
DASHED
  5
25D
 10
605.387935
 20
562.752468
 30
0.0
 11
603.705457
 21
564.434945
 31
0.0
  0
LINE
  8
LC-013-005-----0
  6
DASHED
  5
25E
 10
604.504526
 20
562.221662
 30
0.0
 11
602.315506
 21
564.410683
 31
0.0
  0
LINE
  8
LC-013-005-----0
  6
CONTINUOUS
  5
25F
 10
602.73771
 20
561.160052
 30
0.0
 11
599.822694
 21
564.075067
 31
0.0
  0
LINE
  8
LC-013-005-----0
  6
CONTINUOUS
  5
260
 10
601.854302
 20
560.629247
 30
0.0
 11
598.939286
 21
563.544262
 31
0.0
  0
LINE
  8
LC-013-005-----0
  6
DASHED
  5
261
 10
600.087485
 20
559.567636
 30
0.0
 11
597.17247
 21
562.482652
 31
0.0
  0
LINE
  8
LC-013-005-----0
  6
DASHED
  5
262
 10
599.204077
 20
559.036831
 30
0.0
 11
596.289061
 21
561.951846
 31
0.0
  0
LINE
  8
LC-013-005-----0
  6
CONTINUOUS
  5
263
 10
597.43726
 20
557.97522
 30
0.0
 11
594.341472
 21
561.071009
 31
0.0
  0
LINE
  8
LC-013-005-----0
  6
CONTINUOUS
  5
264
 10
591.528761
 20
563.883719
 30
0.0
 11
590.212897
 21
565.199584
 31
0.0
  0
LINE
  8
LC-013-005-----0
  6
CONTINUOUS
  5
265
 10
596.553852
 20
557.444415
 30
0.0
 11
592.95152
 21
561.046747
 31
0.0
  0
LINE
  8
LC-013-005-----0
  6
CONTINUOUS
  5
266
 10
590.985532
 20
563.012735
 30
0.0
 11
588.822945
 21
565.175322
 31
0.0
  0
LINE
  8
LC-013-005-----0
  6
DASHED
  5
267
 10
594.787035
 20
556.382804
 30
0.0
 11
590.171616
 21
560.998224
 31
0.0
  0
LINE
  8
LC-013-005-----0
  6
DASHED
  5
268
 10
588.550372
 20
562.619468
 30
0.0
 11
586.043041
 21
565.126799
 31
0.0
  0
LINE
  8
LC-013-005-----0
  6
DASHED
  5
269
 10
593.903627
 20
555.851999
 30
0.0
 11
588.781664
 21
560.973962
 31
0.0
  0
LINE
  8
LC-013-005-----0
  6
DASHED
  5
26A
 10
588.575496
 20
561.180131
 30
0.0
 11
584.653089
 21
565.102537
 31
0.0
  0
LINE
  8
LC-013-005-----0
  6
CONTINUOUS
  5
26B
 10
592.13681
 20
554.790389
 30
0.0
 11
584.554062
 21
562.373137
 31
0.0
  0
LINE
  8
LC-013-005-----0
  6
CONTINUOUS
  5
26C
 10
591.253402
 20
554.259583
 30
0.0
 11
584.579186
 21
560.9338
 31
0.0
  0
LINE
  8
LC-013-005-----0
  6
DASHED
  5
26D
 10
588.909463
 20
553.775096
 30
0.0
 11
584.629433
 21
558.055125
 31
0.0
  0
LINE
  8
LC-013-005-----0
  6
DASHED
  5
26E
 10
587.519511
 20
553.750834
 30
0.0
 11
584.654557
 21
556.615788
 31
0.0
  0
LINE
  8
LC-013-005-----0
  6
CONTINUOUS
  5
26F
 10
584.739607
 20
553.702311
 30
0.0
 11
584.704805
 21
553.737113
 31
0.0
  0
ENDBLK
  8
0
  5
270
  0
BLOCK
  8
0
  5
272
  2
*X26
 70
    65
 10
621.850245
 20
601.811139
 30
0.0
  3
*X26
  0
LINE
  8
LC-013-005-----0
  6
CONTINUOUS
  5
273
 10
621.850245
 20
602.858712
 30
0.0
 11
622.897821
 21
601.811139
 31
0.0
  0
LINE
  8
LC-013-005-----0
  6
CONTINUOUS
  5
274
 10
621.850245
 20
604.272925
 30
0.0
 11
624.312035
 21
601.811139
 31
0.0
  0
LINE
  8
LC-013-005-----0
  6
CONTINUOUS
  5
275
 10
621.850245
 20
605.687138
 30
0.0
 11
624.850245
 21
602.687142
 31
0.0
  0
LINE
  8
LC-013-005-----0
  6
CONTINUOUS
  5
276
 10
621.850245
 20
607.10135
 30
0.0
 11
624.850245
 21
604.101354
 31
0.0
  0
LINE
  8
LC-013-005-----0
  6
CONTINUOUS
  5
277
 10
622.554671
 20
607.811139
 30
0.0
 11
624.850245
 21
605.515567
 31
0.0
  0
LINE
  8
LC-013-005-----0
  6
CONTINUOUS
  5
278
 10
623.968885
 20
607.811139
 30
0.0
 11
624.850245
 21
606.92978
 31
0.0
  0
ENDBLK
  8
0
  5
279
  0
BLOCK
  8
0
  5
27B
  2
BLK7
 70
    64
 10
0.0
 20
0.0
 30
0.0
  3
BLK7
  0
ENDBLK
  8
0
  5
27C
  0
BLOCK
  8
0
  5
27E
  2
*X28
 70
    65
 10
578.490829
 20
588.811139
 30
0.0
  3
*X28
  0
LINE
  8
LC-013-005-----0
  6
DASHED
  5
27F
 10
584.568498
 20
588.811139
 30
0.0
 11
585.923598
 21
590.166239
 31
0.0
  0
LINE
  8
LC-013-005-----0
  6
DASHED
  5
280
 10
584.328163
 20
589.985018
 30
0.0
 11
585.856751
 21
591.513605
 31
0.0
  0
LINE
  8
LC-013-005-----0
  6
CONTINUOUS
  5
281
 10
584.187313
 20
592.672595
 30
0.0
 11
585.723056
 21
594.208337
 31
0.0
  0
LINE
  8
LC-013-005-----0
  6
CONTINUOUS
  5
282
 10
578.911644
 20
588.811139
 30
0.0
 11
580.157255
 21
590.05675
 31
0.0
  0
LINE
  8
LC-013-005-----0
  6
CONTINUOUS
  5
283
 10
584.116888
 20
594.016383
 30
0.0
 11
585.656208
 21
595.555703
 31
0.0
  0
LINE
  8
LC-013-005-----0
  6
DASHED
  5
284
 10
578.616515
 20
591.344437
 30
0.0
 11
580.313685
 21
593.041607
 31
0.0
  0
LINE
  8
LC-013-005-----0
  6
DASHED
  5
285
 10
583.976038
 20
596.70396
 30
0.0
 11
585.283735
 21
598.011657
 31
0.0
  0
LINE
  8
LC-013-005-----0
  6
DASHED
  5
286
 10
578.690342
 20
592.832478
 30
0.0
 11
580.3919
 21
594.534035
 31
0.0
  0
LINE
  8
LC-013-005-----0
  6
DASHED
  5
287
 10
583.169003
 20
597.311139
 30
0.0
 11
584.635064
 21
598.777199
 31
0.0
  0
LINE
  8
LC-013-005-----0
  6
CONTINUOUS
  5
288
 10
578.837996
 20
595.808558
 30
0.0
 11
582.340576
 21
599.311139
 31
0.0
  0
LINE
  8
LC-013-005-----0
  6
CONTINUOUS
  5
289
 10
578.945255
 20
597.330031
 30
0.0
 11
580.871919
 21
599.256696
 31
0.0
  0
ENDBLK
  8
0
  5
28A
  0
BLOCK
  8
0
  5
28C
  2
*X29
 70
    65
 10
754.360235
 20
588.811139
 30
0.0
  3
*X29
  0
LINE
  8
LC-013-005-----0
  6
CONTINUOUS
  5
28D
 10
761.345193
 20
588.811139
 30
0.0
 11
761.83589
 21
589.301836
 31
0.0
  0
LINE
  8
LC-013-005-----0
  6
DASHED
  5
28E
 10
760.172325
 20
590.466698
 30
0.0
 11
761.702195
 21
591.996568
 31
0.0
  0
LINE
  8
LC-013-005-----0
  6
DASHED
  5
28F
 10
760.1019
 20
591.810486
 30
0.0
 11
761.635348
 21
593.343934
 31
0.0
  0
LINE
  8
LC-013-005-----0
  6
CONTINUOUS
  5
290
 10
754.364731
 20
588.901744
 30
0.0
 11
756.054697
 21
590.59171
 31
0.0
  0
LINE
  8
LC-013-005-----0
  6
CONTINUOUS
  5
291
 10
759.96105
 20
594.498063
 30
0.0
 11
761.501653
 21
596.038666
 31
0.0
  0
LINE
  8
LC-013-005-----0
  6
CONTINUOUS
  5
292
 10
754.438557
 20
590.389784
 30
0.0
 11
756.132912
 21
592.084139
 31
0.0
  0
LINE
  8
LC-013-005-----0
  6
CONTINUOUS
  5
293
 10
759.890625
 20
595.841852
 30
0.0
 11
761.400996
 21
597.352223
 31
0.0
  0
LINE
  8
LC-013-005-----0
  6
DASHED
  5
294
 10
754.586211
 20
593.365865
 30
0.0
 11
756.289342
 21
595.068996
 31
0.0
  0
LINE
  8
LC-013-005-----0
  6
DASHED
  5
295
 10
758.531485
 20
597.311139
 30
0.0
 11
760.20155
 21
598.981203
 31
0.0
  0
LINE
  8
LC-013-005-----0
  6
DASHED
  5
296
 10
754.660038
 20
594.853905
 30
0.0
 11
756.367557
 21
596.561424
 31
0.0
  0
LINE
  8
LC-013-005-----0
  6
DASHED
  5
297
 10
757.117271
 20
597.311139
 30
0.0
 11
759.112623
 21
599.306491
 31
0.0
  0
LINE
  8
LC-013-005-----0
  6
CONTINUOUS
  5
298
 10
755.189284
 20
598.211579
 30
0.0
 11
755.859778
 21
598.882073
 31
0.0
  0
ENDBLK
  8
0
  5
299
  0
BLOCK
  8
0
  5
29B
  2
*X30
 70
    65
 10
633.650245
 20
601.811139
 30
0.0
  3
*X30
  0
LINE
  8
LC-013-005-----0
  6
CONTINUOUS
  5
29C
 10
633.650245
 20
602.372429
 30
0.0
 11
634.211537
 21
601.811139
 31
0.0
  0
LINE
  8
LC-013-005-----0
  6
CONTINUOUS
  5
29D
 10
633.650245
 20
603.786642
 30
0.0
 11
635.625751
 21
601.811139
 31
0.0
  0
LINE
  8
LC-013-005-----0
  6
CONTINUOUS
  5
29E
 10
633.650245
 20
605.200854
 30
0.0
 11
636.650245
 21
602.200858
 31
0.0
  0
LINE
  8
LC-013-005-----0
  6
CONTINUOUS
  5
29F
 10
633.650245
 20
606.615067
 30
0.0
 11
636.650245
 21
603.615071
 31
0.0
  0
LINE
  8
LC-013-005-----0
  6
CONTINUOUS
  5
2A0
 10
633.868387
 20
607.811139
 30
0.0
 11
636.650245
 21
605.029284
 31
0.0
  0
LINE
  8
LC-013-005-----0
  6
CONTINUOUS
  5
2A1
 10
635.282601
 20
607.811139
 30
0.0
 11
636.650245
 21
606.443496
 31
0.0
  0
ENDBLK
  8
0
  5
2A2
  0
BLOCK
  8
0
  5
2A4
  2
BLK8
 70
    64
 10
0.0
 20
0.0
 30
0.0
  3
BLK8
  0
ENDBLK
  8
0
  5
2A5
  0
BLOCK
  8
0
  5
2A7
  2
BLK9
 70
    64
 10
0.0
 20
0.0
 30
0.0
  3
BLK9
  0
ENDBLK
  8
0
  5
2A8
  0
ENDSEC
  0
SECTION
  2
ENTITIES
  0
VIEWPORT
  8
LC-000
  5
526
 67
     1
 68
     1
 10
420.0
 20
297.0
 30
0.0
 40
840.0
 41
594.0
 69
     1
1001
ACAD
1000
MVIEW
1002
{
1070
    16
1010
0.0
1020
0.0
1030
0.0
1010
0.0
1020
0.0
1030
1.0
1040
0.0
1040
594.0
1040
420.0
1040
297.0
1040
50.0
1040
0.0
1040
0.0
1070
     0
1070
   100
1070
     1
1070
     1
1070
     0
1070
     0
1070
     0
1070
     0
1040
0.0
1040
0.0
1040
0.0
1040
1.0
1040
1.0
1040
0.0
1040
0.0
1070
     0
1002
{
1002
}
1002
}
  0
VIEWPORT
  8
0
  5
527
 67
     1
 68
     1
 10
0.0
 20
0.0
 30
0.0
 40
0.0
 41
0.0
 69
     1
1001
ACAD
1000
MVIEW
1002
{
1070
    16
1010
0.0
1020
0.0
1030
0.0
1010
0.0
1020
0.0
1030
1.0
1040
0.0
1040
594.0
1040
0.0
1040
0.0
1040
50.0
1040
0.0
1040
0.0
1070
     0
1070
   100
1070
     0
1070
     1
1070
     0
1070
     0
1070
     0
1070
     0
1040
0.0
1040
0.0
1040
0.0
1040
0.5
1040
0.5
1040
0.5
1040
0.5
1070
     0
1002
{
1002
}
1002
}
  0
INSERT
  8
0
  5
2AA
  2
SYM1
 10
778.335274
 20
1865.143847
 30
0.0
  0
INSERT
  8
0
  5
2AC
  2
BLK1
 10
0.0
 20
0.0
 30
0.0
  0
DIMENSION
  8
0
  5
2AD
  2
*D2
 10
674.583084
 20
360.0
 30
0.0
 11
674.583084
 21
360.0
 31
0.0
  1
315
 13
517.495989
 23
425.366237
 33
0.0
 14
831.670178
 24
414.646692
 34
0.0
  3
LC-DIM-L-0090-02-02
  0
INSERT
  8
0
  5
2AE
  2
SYM2
 10
1356.381777
 20
827.598303
 30
0.0
  0
INSERT
  8
0
  5
2AF
  2
*X4
 10
517.495989
 20
551.807987
 30
0.0
  0
INSERT
  8
0
  5
2B0
  2
*X5
 10
517.495989
 20
408.315414
 30
0.0
  0
INSERT
  8
0
  5
2B1
  2
*X6
 10
755.142242
 20
534.273234
 30
0.0
  0
INSERT
  8
0
  5
2B2
  2
*X7
 10
526.425452
 20
554.977573
 30
0.0
  0
INSERT
  8
0
  5
2B3
  2
*X8
 10
526.425452
 20
424.18332
 30
0.0
  0
INSERT
  8
0
  5
2B4
  2
BLK2
 10
0.0
 20
0.0
 30
0.0
  0
INSERT
  8
0
  5
2B5
  2
BLK3
 10
0.0
 20
0.0
 30
0.0
  0
DIMENSION
  8
0
  5
2B6
  2
*D11
 10
504.0
 20
491.911127
 30
0.0
 11
504.0
 21
491.911127
 31
0.0
  1
DN125
 13
517.495989
 23
555.858779
 33
0.0
 14
517.495989
 24
427.963474
 34
0.0
 50
90.0
  3
LC-DIM-L-0090-02-02
  0
DIMENSION
  8
0
  5
2B7
  2
*D12
 10
900.0
 20
475.793852
 30
0.0
 11
900.0
 21
475.793852
 31
0.0
  1
DN125
 13
826.699677
 23
538.273234
 33
0.0
 14
826.698254
 24
413.31447
 34
0.0
 50
90.0
  3
LC-DIM-L-0090-02-02
  0
DIMENSION
  8
0
  5
2B8
  2
*D13
 10
792.0
 20
573.004
 30
0.0
 11
792.0
 21
573.004
 31
0.0
  1
16,5
 13
604.552698
 23
491.911127
 33
0.0
 14
759.121493
 24
475.794043
 34
0.0
 50
90.0
  3
LC-DIM-L-0090-02-02
  0
DIMENSION
  8
0
  5
2B9
  2
*D14
 10
936.0
 20
596.764
 30
0.0
 11
936.0
 21
596.764
 31
0.0
  1
220-320
 13
632.750245
 23
727.811138
 33
0.0
 14
611.685693
 24
408.315414
 34
0.0
 50
90.0
  3
LC-DIM-L-0090-02-02
  0
INSERT
  8
0
  5
2BA
  2
SYM3
 10
1356.381777
 20
827.598303
 30
0.0
  0
INSERT
  8
0
  5
2BB
  2
BLK4
 10
0.0
 20
0.0
 30
0.0
  0
INSERT
  8
0
  5
2BC
  2
BLK5
 10
0.0
 20
0.0
 30
0.0
  0
INSERT
  8
0
  5
2BD
  2
*X18
 10
343.679236
 20
351.767344
 30
0.0
  0
INSERT
  8
0
  5
2BE
  2
*X19
 10
575.870251
 20
588.311139
 30
0.0
  0
INSERT
  8
0
  5
2BF
  2
*X20
 10
633.750245
 20
588.311139
 30
0.0
  0
INSERT
  8
0
  5
2C0
  2
BLK6
 10
0.0
 20
0.0
 30
0.0
  0
INSERT
  8
0
  5
2C1
  2
*X22
 10
587.061497
 20
415.722732
 30
0.0
  0
INSERT
  8
0
  5
2C2
  2
*X23
 10
584.199303
 20
560.970427
 30
0.0
  0
INSERT
  8
0
  5
2C3
  2
*X24
 10
586.86254
 20
418.722275
 30
0.0
  0
INSERT
  8
0
  5
2C4
  2
*X25
 10
584.506465
 20
553.701714
 30
0.0
  0
INSERT
  8
0
  5
2C5
  2
*X26
 10
621.850245
 20
601.811139
 30
0.0
  0
INSERT
  8
0
  5
2C6
  2
BLK7
 10
0.0
 20
0.0
 30
0.0
  0
INSERT
  8
0
  5
2C7
  2
*X28
 10
578.490829
 20
588.811139
 30
0.0
  0
INSERT
  8
0
  5
2C8
  2
*X29
 10
754.360235
 20
588.811139
 30
0.0
  0
INSERT
  8
0
  5
2C9
  2
*X30
 10
633.650245
 20
601.811139
 30
0.0
  0
INSERT
  8
0
  5
2CA
  2
BLK8
 10
0.0
 20
0.0
 30
0.0
  0
INSERT
  8
0
  5
2CB
  2
BLK9
 10
0.0
 20
0.0
 30
0.0
  0
LINE
  8
LC-002-002-----0
  6
CONTINUOUS
  5
2CD
 10
755.142242
 20
534.273234
 30
0.0
 11
831.670178
 21
534.273234
 31
0.0
  0
LINE
  8
LC-003-100-D03-0
  6
CONTINUOUS
  5
2CF
 10
579.61614
 20
559.111122
 30
0.0
 11
579.097723
 21
588.811139
 31
0.0
  0
LINE
  8
LC-002-002-----0
  6
CONTINUOUS
  5
2D0
 10
535.929265
 20
559.638933
 30
0.0
 11
526.425452
 21
559.638933
 31
0.0
  0
LINE
  8
LC-004-100-D16-0
  6
CONTINUOUS
  5
2D2
 10
609.819126
 20
558.712172
 30
0.0
 11
609.819126
 21
568.978225
 31
0.0
  0
LINE
  8
LC-004-100-D16-0
  6
CONTINUOUS
  5
2D3
 10
597.280333
 20
556.712172
 30
0.0
 11
597.280333
 21
550.712172
 31
0.0
  0
LINE
  8
LC-004-100-D16-0
  6
CONTINUOUS
  5
2D4
 10
598.280333
 20
557.712172
 30
0.0
 11
608.819126
 21
557.712172
 31
0.0
  0
ARC
  8
LC-004-100-D16-0
  6
CONTINUOUS
  5
2D5
 10
598.280333
 20
556.712172
 30
0.0
 40
1.0
 50
90.0
 51
180.0
  0
ARC
  8
LC-004-100-D16-0
  6
CONTINUOUS
  5
2D6
 10
608.819126
 20
558.712172
 30
0.0
 40
1.0
 50
270.0
 51
0.0
  0
LINE
  8
LC-004-100-D16-0
  6
CONTINUOUS
  5
2D7
 10
598.280333
 20
549.712172
 30
0.0
 11
611.735524
 21
549.712172
 31
0.0
  0
ARC
  8
LC-004-100-D16-0
  6
CONTINUOUS
  5
2D8
 10
598.280333
 20
550.712172
 30
0.0
 40
1.0
 50
180.0
 51
270.0
  0
LINE
  8
LC-004-100-D16-0
  6
CONTINUOUS
  5
2D9
 10
625.117374
 20
506.497841
 30
0.0
 11
613.667376
 21
549.22981
 31
0.0
  0
LINE
  8
LC-004-100-D16-0
  6
CONTINUOUS
  5
2DA
 10
624.151448
 20
506.239022
 30
0.0
 11
612.70145
 21
548.970991
 31
0.0
  0
LINE
  8
LC-001-100-D02-0
  6
DASHDOT
 62
     2
  5
2DC
 10
606.399029
 20
578.356
 30
0.0
 11
598.161636
 21
578.068344
 31
0.0
  0
ARC
  8
LC-004-100-D16-0
  6
CONTINUOUS
  5
2DD
 10
611.735524
 20
548.712172
 30
0.0
 40
1.0
 50
15.000001
 51
90.0
  0
LINE
  8
LC-001-100-D02-0
  6
DASHDOT
 62
     2
  5
2DE
 10
602.136505
 20
582.330868
 30
0.0
 11
602.424161
 21
574.093475
 31
0.0
  0
CIRCLE
  8
LC-005-100-D00-0
  6
CONTINUOUS
  5
2E0
 10
602.280333
 20
578.212172
 30
0.0
 40
4.121207
  0
LINE
  8
LC-002-002-----0
  6
CONTINUOUS
  5
2E1
 10
526.439024
 20
557.41926
 30
0.0
 11
526.425077
 21
559.638933
 31
0.0
  0
LINE
  8
LC-004-100-D16-0
  6
CONTINUOUS
  5
2E2
 10
598.280333
 20
550.712172
 30
0.0
 11
611.735524
 21
550.712172
 31
0.0
  0
LINE
  8
LC-004-100-D16-0
  6
CONTINUOUS
  5
2E3
 10
598.280333
 20
556.712172
 30
0.0
 11
608.819126
 21
556.712172
 31
0.0
  0
LINE
  8
LC-004-100-D16-0
  6
CONTINUOUS
  5
2E4
 10
598.280333
 20
556.712172
 30
0.0
 11
598.280333
 21
550.712172
 31
0.0
  0
LINE
  8
LC-004-100-D16-0
  6
CONTINUOUS
  5
2E5
 10
610.819126
 20
558.712172
 30
0.0
 11
610.819126
 21
569.141971
 31
0.0
  0
ARC
  8
LC-004-100-D16-0
  6
CONTINUOUS
  5
2E6
 10
611.735524
 20
548.712172
 30
0.0
 40
2.0
 50
15.000001
 51
90.0
  0
ARC
  8
LC-004-100-D16-0
  6
CONTINUOUS
  5
2E7
 10
608.819126
 20
558.712172
 30
0.0
 40
2.0
 50
270.0
 51
0.0
  0
LINE
  8
LC-004-100-D16-0
  6
CONTINUOUS
  5
2E8
 10
598.280333
 20
433.712172
 30
0.0
 11
608.475223
 21
433.712172
 31
0.0
  0
LINE
  8
LC-004-100-D16-0
  6
CONTINUOUS
  5
2E9
 10
598.280333
 20
434.712172
 30
0.0
 11
608.475223
 21
434.712172
 31
0.0
  0
ARC
  8
LC-004-100-D16-0
  6
CONTINUOUS
  5
2EA
 10
598.280333
 20
433.712172
 30
0.0
 40
1.0
 50
90.0
 51
180.0
  0
LINE
  8
LC-004-100-D16-0
  6
CONTINUOUS
  5
2EB
 10
598.280333
 20
427.712172
 30
0.0
 11
598.280333
 21
433.712172
 31
0.0
  0
LINE
  8
LC-004-100-D16-0
  6
CONTINUOUS
  5
2EC
 10
597.280333
 20
427.712172
 30
0.0
 11
597.280333
 21
433.712172
 31
0.0
  0
ARC
  8
LC-004-100-D16-0
  6
CONTINUOUS
  5
2ED
 10
598.280333
 20
427.712172
 30
0.0
 40
1.0
 50
180.0
 51
270.0
  0
LINE
  8
LC-004-100-D16-0
  6
CONTINUOUS
  5
2EE
 10
598.280333
 20
426.712172
 30
0.0
 11
601.280333
 21
426.712172
 31
0.0
  0
LINE
  8
LC-004-100-D16-0
  6
CONTINUOUS
  5
2EF
 10
598.280333
 20
427.712172
 30
0.0
 11
601.280333
 21
427.712172
 31
0.0
  0
LINE
  8
LC-004-100-D16-0
  6
CONTINUOUS
  5
2F0
 10
601.280333
 20
426.712172
 30
0.0
 11
601.280333
 21
427.712172
 31
0.0
  0
ARC
  8
LC-004-100-D16-0
  6
CONTINUOUS
  5
2F1
 10
602.280333
 20
578.212172
 30
0.0
 40
5.2
 50
18.598853
 51
180.0
  0
LINE
  8
LC-004-100-D16-0
  6
CONTINUOUS
  5
2F2
 10
610.819126
 20
569.141971
 30
0.0
 11
607.208762
 21
579.870662
 31
0.0
  0
LINE
  8
LC-004-100-D16-0
  6
CONTINUOUS
  5
2F3
 10
597.080333
 20
578.212172
 30
0.0
 11
597.080333
 21
570.872157
 31
0.0
  0
LINE
  8
LC-004-100-D16-0
  6
CONTINUOUS
  5
2F4
 10
609.819126
 20
568.978225
 30
0.0
 11
606.260987
 21
579.551721
 31
0.0
  0
LINE
  8
LC-004-100-D16-0
  6
CONTINUOUS
  5
2F5
 10
598.080333
 20
578.212172
 30
0.0
 11
598.080333
 21
570.872157
 31
0.0
  0
LINE
  8
LC-004-100-D16-0
  6
CONTINUOUS
  5
2F6
 10
597.080333
 20
570.872157
 30
0.0
 11
598.080333
 21
570.872157
 31
0.0
  0
ARC
  8
LC-004-100-D16-0
  6
CONTINUOUS
  5
2F7
 10
483.679236
 20
491.767344
 30
0.0
 40
140.0
 50
336.580232
 51
4.361016
  0
ARC
  8
LC-004-100-D16-0
  6
CONTINUOUS
  5
2F8
 10
483.679236
 20
491.767344
 30
0.0
 40
139.0
 50
336.580232
 51
24.637088
  0
ARC
  8
LC-004-100-D16-0
  6
CONTINUOUS
  5
2F9
 10
608.475223
 20
437.712172
 30
0.0
 40
3.0
 50
270.0
 51
336.580232
  0
ARC
  8
LC-004-100-D16-0
  6
CONTINUOUS
  5
2FA
 10
608.475223
 20
437.712172
 30
0.0
 40
4.0
 50
270.0
 51
336.580232
  0
ARC
  8
LC-004-100-D16-0
  6
CONTINUOUS
  5
2FB
 10
623.185522
 20
505.980203
 30
0.0
 40
2.0
 50
301.375598
 51
15.000001
  0
ARC
  8
LC-004-100-D16-0
  6
CONTINUOUS
  5
2FC
 10
625.268106
 20
502.565112
 30
0.0
 40
2.0
 50
121.375598
 51
184.361016
  0
ARC
  8
LC-004-100-D16-0
  6
CONTINUOUS
  5
2FD
 10
623.185522
 20
505.980203
 30
0.0
 40
1.0
 50
301.375598
 51
15.000001
  0
ARC
  8
LC-004-100-D16-0
  6
CONTINUOUS
  5
2FE
 10
625.268106
 20
502.565112
 30
0.0
 40
3.0
 50
121.375598
 51
184.361016
  0
LINE
  8
LC-001-100-D02-0
  6
CONTINUOUS
 62
     1
  5
2FF
 10
597.280333
 20
550.712172
 30
0.0
 11
597.280333
 21
432.841394
 31
0.0
  0
ARC
  8
LC-004-100-D16-0
  6
CONTINUOUS
  5
300
 10
602.280333
 20
578.212172
 30
0.0
 40
4.2
 50
18.598853
 51
180.0
  0
LINE
  8
LC-004-100-D16-0
  6
DASHDOT
 62
     2
  5
301
 10
618.559119
 20
565.094073
 30
0.0
 11
613.426093
 21
573.984735
 31
0.0
  0
LINE
  8
LC-004-100-D16-0
  6
DASHDOT
 62
     2
  5
302
 10
608.700206
 20
557.092625
 30
0.0
 11
611.700206
 21
551.896473
 31
0.0
  0
LINE
  8
LC-004-100-D16-0
  6
DASHDOT
 62
     2
  5
303
 10
609.066231
 20
558.458651
 30
0.0
 11
618.193094
 21
563.728047
 31
0.0
  0
ARC
  8
LC-004-100-D16-0
  6
DASHDOT
 62
     2
  5
304
 10
609.566231
 20
557.592625
 30
0.0
 40
1.0
 50
120.0
 51
210.0
  0
ARC
  8
LC-004-100-D16-0
  6
DASHDOT
 62
     2
  5
305
 10
617.693094
 20
564.594073
 30
0.0
 40
1.0
 50
300.0
 51
30.0
  0
LINE
  8
LC-004-100-D16-0
  6
DASHDOT
 62
     2
  5
306
 10
613.066231
 20
551.530448
 30
0.0
 11
624.718768
 21
558.258043
 31
0.0
  0
LINE
  8
LC-007-100-D01-0
  6
CONTINUOUS
  5
308
 10
586.828614
 20
432.064144
 30
0.0
 11
587.15628
 21
413.292165
 31
0.0
  0
LINE
  8
LC-008-001-----0
  6
CONTINUOUS
  5
30A
 10
761.860235
 20
588.811139
 30
0.0
 11
760.093347
 21
588.811139
 31
0.0
  0
LINE
  8
LC-002-002-----0
  6
CONTINUOUS
  5
30B
 10
535.942836
 20
557.478975
 30
0.0
 11
535.929265
 21
559.638933
 31
0.0
  0
LINE
  8
LC-007-100-D01-0
  6
CONTINUOUS
  5
30C
 10
753.103107
 20
417.315659
 30
0.0
 11
756.158767
 21
592.577477
 31
0.0
  0
LINE
  8
LC-007-100-D01-0
  6
CONTINUOUS
  5
30D
 10
583.944217
 20
597.311139
 30
0.0
 11
584.738461
 21
551.808955
 31
0.0
  0
LINE
  8
LC-002-002-----0
  6
CONTINUOUS
  5
30E
 10
528.148708
 20
556.446445
 30
0.0
 11
526.445204
 21
556.435741
 31
0.0
  0
LINE
  8
LC-002-002-----0
  6
CONTINUOUS
  5
30F
 10
534.883694
 20
555.179747
 30
0.0
 11
534.524733
 21
556.486507
 31
0.0
  0
LINE
  8
LC-002-002-----0
  6
CONTINUOUS
  5
310
 10
531.695681
 20
555.159716
 30
0.0
 11
531.336721
 21
556.466476
 31
0.0
  0
ARC
  8
LC-009-002-RND-0
  6
CONTINUOUS
  5
312
 10
534.744837
 20
555.141604
 30
0.0
 40
0.144
 50
246.499934
 51
15.36
  0
LINE
  8
LC-003-100-D03-0
  6
CONTINUOUS
  5
313
 10
614.170946
 20
413.315659
 30
0.0
 11
758.034573
 21
413.314857
 31
0.0
  0
LINE
  8
LC-007-100-D01-0
  6
CONTINUOUS
  5
314
 10
610.667994
 20
417.315659
 30
0.0
 11
831.670178
 21
417.315659
 31
0.0
  0
ARC
  8
LC-009-002-RND-0
  6
CONTINUOUS
  5
315
 10
531.556825
 20
555.121573
 30
0.0
 40
0.144
 50
246.499934
 51
15.36
  0
ARC
  8
LC-007-100-D01-0
  6
CONTINUOUS
  5
316
 10
610.667994
 20
416.321559
 30
0.0
 40
0.9941
 50
90.0
 51
180.0
  0
ARC
  8
LC-007-100-D01-0
  6
CONTINUOUS
  5
317
 10
608.679794
 20
413.309514
 30
0.0
 40
0.9941
 50
270.0
 51
0.0
  0
ARC
  8
LC-007-100-D01-0
  6
DASHED
  5
318
 10
588.150228
 20
413.309514
 30
0.0
 40
0.9941
 50
181.0
 51
270.0
  0
ARC
  8
LC-003-100-D03-0
  6
CONTINUOUS
  5
319
 10
611.685693
 20
410.303614
 30
0.0
 40
1.9882
 50
270.0
 51
0.0
  0
ARC
  8
LC-003-100-D03-0
  6
CONTINUOUS
  5
31A
 10
614.170944
 20
412.818609
 30
0.0
 40
0.49705
 50
89.99968
 51
180.0
  0
LINE
  8
LC-003-100-D03-0
  6
CONTINUOUS
  5
31B
 10
613.673894
 20
410.303614
 30
0.0
 11
613.673894
 21
412.818609
 31
0.0
  0
LINE
  8
LC-003-100-D03-0
  6
CONTINUOUS
  5
31C
 10
585.17899
 20
408.315414
 30
0.0
 11
611.685693
 21
408.315414
 31
0.0
  0
LINE
  8
LC-007-100-D01-0
  6
CONTINUOUS
  5
31D
 10
609.673894
 20
416.321559
 30
0.0
 11
609.673894
 21
413.309514
 31
0.0
  0
LINE
  8
LC-007-100-D01-0
  6
CONTINUOUS
  5
31E
 10
588.150228
 20
412.315414
 30
0.0
 11
608.679794
 21
412.315414
 31
0.0
  0
LINE
  8
LC-002-002-----0
  6
CONTINUOUS
  5
31F
 10
526.445204
 20
556.435741
 30
0.0
 11
526.439024
 21
557.41926
 31
0.0
  0
LINE
  8
LC-002-002-----0
  6
CONTINUOUS
  5
320
 10
534.524733
 20
556.486507
 30
0.0
 11
535.949016
 21
556.495456
 31
0.0
  0
LINE
  8
LC-008-001-----0
  6
CONTINUOUS
  5
321
 10
758.034573
 20
413.314851
 30
0.0
 11
826.698254
 21
413.31447
 31
0.0
  0
LINE
  8
LC-008-001-----0
  6
CONTINUOUS
  5
322
 10
580.091975
 20
588.811139
 30
0.0
 11
579.097723
 21
588.811139
 31
0.0
  0
ARC
  8
LC-004-100-D16-0
  6
DASHDOT
 62
     2
  5
323
 10
612.566231
 20
552.396473
 30
0.0
 40
1.0
 50
210.0
 51
300.0
  0
LINE
  8
LC-004-100-D16-0
  6
DASHDOT
 62
     2
  5
324
 10
657.914956
 20
527.52426
 30
0.0
 11
626.632982
 21
558.806231
 31
0.0
  0
LINE
  8
LC-004-100-D16-0
  6
DASHDOT
 62
     2
  5
325
 10
657.207849
 20
526.817153
 30
0.0
 11
625.925875
 21
558.099125
 31
0.0
  0
ARC
  8
LC-004-100-D16-0
  6
DASHDOT
 62
     2
  5
326
 10
625.218768
 20
557.392018
 30
0.0
 40
1.0
 50
45.000001
 51
120.0
  0
ARC
  8
LC-003-100-D03-0
  6
CONTINUOUS
  5
327
 10
581.011923
 20
596.811139
 30
0.0
 40
0.5
 50
90.0
 51
177.0
  0
LINE
  8
LC-003-100-D03-0
  6
CONTINUOUS
  5
328
 10
580.091975
 20
588.811139
 30
0.0
 11
580.512609
 21
596.837306
 31
0.0
  0
LINE
  8
LC-003-100-D03-0
  6
CONTINUOUS
  5
329
 10
581.011923
 20
597.311139
 30
0.0
 11
583.944217
 21
597.311139
 31
0.0
  0
LINE
  8
LC-002-002-----0
  6
CONTINUOUS
  5
32A
 10
535.949016
 20
556.495456
 30
0.0
 11
535.942836
 21
557.478975
 31
0.0
  0
LINE
  8
LC-008-001-----0
  6
CONTINUOUS
  5
32B
 10
756.406848
 20
597.311139
 30
0.0
 11
759.173399
 21
597.311139
 31
0.0
  0
ARC
  8
LC-008-001-----0
  6
CONTINUOUS
  5
32C
 10
759.173399
 20
596.811139
 30
0.0
 40
0.5
 50
3.0
 51
90.0
  0
LINE
  8
LC-008-001-----0
  6
CONTINUOUS
  5
32D
 10
760.093347
 20
588.811139
 30
0.0
 11
759.672713
 21
596.837307
 31
0.0
  0
LINE
  8
LC-003-100-D03-0
  6
CONTINUOUS
  5
32E
 10
582.197144
 20
411.245666
 30
0.0
 11
581.961979
 21
424.718233
 31
0.0
  0
LINE
  8
LC-008-001-----0
  6
CONTINUOUS
  5
32F
 10
760.208414
 20
538.273234
 30
0.0
 11
761.087598
 21
588.811139
 31
0.0
  0
LINE
  8
LC-002-002-----0
  6
CONTINUOUS
  5
330
 10
528.148708
 20
556.446445
 30
0.0
 11
531.499405
 21
554.989516
 31
0.0
  0
ARC
  8
LC-003-100-D03-0
  6
CONTINUOUS
  5
331
 10
585.17899
 20
411.297715
 30
0.0
 40
2.9823
 50
181.000001
 51
270.0
  0
LINE
  8
LC-004-100-D16-0
  6
DASHDOT
 62
     2
  5
332
 10
612.566231
 20
552.396473
 30
0.0
 11
624.218768
 21
559.124068
 31
0.0
  0
LINE
  8
LC-002-002-----0
  6
CONTINUOUS
  5
333
 10
531.336721
 20
556.466476
 30
0.0
 11
534.687417
 21
555.009547
 31
0.0
  0
LINE
  8
LC-004-100-D16-0
  6
DASHDOT
 62
     2
  5
334
 10
609.566231
 20
557.592625
 30
0.0
 11
618.693094
 21
562.862022
 31
0.0
  0
LINE
  8
LC-002-002-----0
  6
CONTINUOUS
  5
335
 10
535.929265
 20
424.18332
 30
0.0
 11
526.425452
 21
424.18332
 31
0.0
  0
LINE
  8
LC-002-002-----0
  6
CONTINUOUS
  5
336
 10
526.439024
 20
426.402993
 30
0.0
 11
526.425077
 21
424.18332
 31
0.0
  0
LINE
  8
LC-002-002-----0
  6
CONTINUOUS
  5
337
 10
535.942836
 20
426.343278
 30
0.0
 11
535.929265
 21
424.18332
 31
0.0
  0
LINE
  8
LC-002-002-----0
  6
CONTINUOUS
  5
338
 10
528.148708
 20
427.375808
 30
0.0
 11
526.445204
 21
427.386512
 31
0.0
  0
LINE
  8
LC-004-100-D16-0
  6
DASHDOT
 62
     2
  5
339
 10
609.566231
 20
557.592625
 30
0.0
 11
612.566231
 21
552.396473
 31
0.0
  0
LINE
  8
LC-002-002-----0
  6
CONTINUOUS
  5
33A
 10
534.883694
 20
428.642506
 30
0.0
 11
534.524733
 21
427.335746
 31
0.0
  0
LINE
  8
LC-004-100-D16-0
  6
DASHDOT
 62
     2
  5
33B
 10
619.425144
 20
565.594073
 30
0.0
 11
614.210245
 21
574.626544
 31
0.0
  0
CIRCLE
  8
LC-005-100-D00-0
  6
CONTINUOUS
  5
33C
 10
602.280333
 20
578.212172
 30
0.0
 40
4.121207
  0
LINE
  8
LC-002-002-----0
  6
CONTINUOUS
  5
33D
 10
531.695681
 20
428.662537
 30
0.0
 11
531.336721
 21
427.355777
 31
0.0
  0
ARC
  8
LC-009-002-RND-0
  6
CONTINUOUS
  5
33E
 10
534.744837
 20
428.680649
 30
0.0
 40
0.144
 50
344.64
 51
113.500066
  0
ARC
  8
LC-009-002-RND-0
  6
CONTINUOUS
  5
33F
 10
531.556825
 20
428.70068
 30
0.0
 40
0.144
 50
344.64
 51
113.500066
  0
LINE
  8
LC-002-002-----0
  6
CONTINUOUS
  5
340
 10
526.445204
 20
427.386512
 30
0.0
 11
526.439024
 21
426.402993
 31
0.0
  0
ARC
  8
LC-004-100-D16-0
  6
DASHDOT
 62
     2
  5
341
 10
625.218768
 20
557.392018
 30
0.0
 40
2.0
 50
45.000001
 51
120.0
  0
ARC
  8
LC-004-100-D16-0
  6
DASHDOT
 62
     2
  5
342
 10
617.693094
 20
564.594073
 30
0.0
 40
2.0
 50
300.0
 51
30.0
  0
LINE
  8
LC-002-002-----0
  6
CONTINUOUS
  5
343
 10
534.524733
 20
427.335746
 30
0.0
 11
535.949016
 21
427.326797
 31
0.0
  0
LINE
  8
LC-007-100-D01-0
  6
DASHDOT
 62
     2
  5
344
 10
671.066231
 20
451.071501
 30
0.0
 11
679.895265
 21
456.168946
 31
0.0
  0
LINE
  8
LC-002-002-----0
  6
CONTINUOUS
  5
345
 10
535.949016
 20
427.326797
 30
0.0
 11
535.942836
 21
426.343278
 31
0.0
  0
LINE
  8
LC-007-100-D01-0
  6
DASHDOT
 62
     2
  5
346
 10
670.566231
 20
451.937526
 30
0.0
 11
679.395265
 21
457.034971
 31
0.0
  0
LINE
  8
LC-002-002-----0
  6
CONTINUOUS
  5
347
 10
528.148708
 20
427.375808
 30
0.0
 11
531.499405
 21
428.832737
 31
0.0
  0
LINE
  8
LC-002-002-----0
  6
CONTINUOUS
  5
348
 10
531.336721
 20
427.355777
 30
0.0
 11
534.687417
 21
428.812706
 31
0.0
  0
ARC
  8
LC-007-100-D01-0
  6
DASHDOT
 62
     2
  5
349
 10
671.066231
 20
451.071501
 30
0.0
 40
1.0
 50
120.0
 51
210.0
  0
LINE
  8
LC-002-002-----0
  6
CONTINUOUS
  5
34A
 10
757.260218
 20
599.311139
 30
0.0
 11
758.960253
 21
599.311139
 31
0.0
  0
LINE
  8
LC-007-100-D01-0
  6
DASHDOT
 62
     2
  5
34B
 10
674.066231
 20
445.875348
 30
0.0
 11
671.066231
 21
451.071501
 31
0.0
  0
LINE
  8
LC-007-100-D01-0
  6
DASHDOT
 62
     2
  5
34C
 10
673.200206
 20
445.375348
 30
0.0
 11
670.200206
 21
450.571501
 31
0.0
  0
ARC
  8
LC-007-100-D01-0
  6
DASHDOT
 62
     2
  5
34D
 10
674.066231
 20
445.875348
 30
0.0
 40
1.0
 50
210.0
 51
300.0
  0
LINE
  8
LC-007-100-D01-0
  6
DASHDOT
 62
     2
  5
34E
 10
674.566231
 20
445.009323
 30
0.0
 11
677.164307
 21
446.509323
 31
0.0
  0
LINE
  8
LC-007-100-D01-0
  6
DASHDOT
 62
     2
  5
34F
 10
674.066231
 20
445.875348
 30
0.0
 11
676.664307
 21
447.375348
 31
0.0
  0
LINE
  8
LC-007-100-D01-0
  6
DASHDOT
 62
     2
  5
350
 10
677.164307
 20
446.509323
 30
0.0
 11
676.664307
 21
447.375348
 31
0.0
  0
ARC
  8
LC-004-100-D16-0
  6
DASHDOT
 62
     2
  5
351
 10
602.280333
 20
578.212172
 30
0.0
 40
5.2
 50
48.598853
 51
210.0
  0
LINE
  8
LC-004-100-D16-0
  6
DASHDOT
 62
     2
  5
352
 10
614.210245
 20
574.626544
 30
0.0
 11
605.719232
 21
582.112681
 31
0.0
  0
LINE
  8
LC-001-100-D02-0
  6
CONTINUOUS
 62
     1
  5
353
 10
609.110504
 20
416.106685
 30
0.0
 11
587.113855
 21
415.722732
 31
0.0
  0
LINE
  8
LC-004-100-D16-0
  6
DASHDOT
 62
     2
  5
354
 10
597.777001
 20
575.612172
 30
0.0
 11
601.447008
 21
569.255532
 31
0.0
  0
LINE
  8
LC-004-100-D16-0
  6
DASHDOT
 62
     2
  5
355
 10
613.426093
 20
573.984735
 30
0.0
 11
605.057906
 21
581.362582
 31
0.0
  0
LINE
  8
LC-004-100-D16-0
  6
DASHDOT
 62
     2
  5
356
 10
598.643026
 20
576.112172
 30
0.0
 11
602.313034
 21
569.755532
 31
0.0
  0
LINE
  8
LC-004-100-D16-0
  6
DASHDOT
 62
     2
  5
357
 10
601.447008
 20
569.255532
 30
0.0
 11
602.313034
 21
569.755532
 31
0.0
  0
ARC
  8
LC-007-100-D01-0
  6
DASHDOT
 62
     2
  5
358
 10
542.791184
 20
444.048206
 30
0.0
 40
140.0
 50
6.580232
 51
34.361016
  0
ARC
  8
LC-007-100-D01-0
  6
DASHDOT
 62
     2
  5
359
 10
542.791184
 20
444.048206
 30
0.0
 40
139.0
 50
6.580232
 51
54.637088
  0
ARC
  8
LC-007-100-D01-0
  6
DASHDOT
 62
     2
  5
35A
 10
677.895265
 20
459.633047
 30
0.0
 40
3.0
 50
300.0
 51
6.580232
  0
ARC
  8
LC-007-100-D01-0
  6
DASHDOT
 62
     2
  5
35B
 10
677.895265
 20
459.633047
 30
0.0
 40
4.0
 50
300.0
 51
6.580232
  0
ARC
  8
LC-004-100-D16-0
  6
DASHDOT
 62
     2
  5
35C
 10
656.500742
 20
526.110046
 30
0.0
 40
2.0
 50
331.375598
 51
45.000001
  0
ARC
  8
LC-004-100-D16-0
  6
DASHDOT
 62
     2
  5
35D
 10
660.011858
 20
524.193782
 30
0.0
 40
2.0
 50
151.375598
 51
214.361016
  0
ARC
  8
LC-004-100-D16-0
  6
DASHDOT
 62
     2
  5
35E
 10
656.500742
 20
526.110046
 30
0.0
 40
1.0
 50
331.375598
 51
45.000001
  0
ARC
  8
LC-003-100-D03-0
  6
CONTINUOUS
  5
35F
 10
525.96649
 20
424.308364
 30
0.0
 40
4.970501
 50
180.0
 51
267.000005
  0
LINE
  8
LC-003-100-D03-0
  6
CONTINUOUS
  5
360
 10
537.795147
 20
418.711129
 30
0.0
 11
541.259249
 21
424.711129
 31
0.0
  0
LINE
  8
LC-003-100-D03-0
  6
CONTINUOUS
  5
361
 10
537.795147
 20
418.711129
 30
0.0
 11
525.706354
 21
419.344675
 31
0.0
  0
LINE
  8
LC-007-100-D01-0
  6
CONTINUOUS
  5
362
 10
536.495595
 20
491.914677
 30
0.0
 11
536.495595
 21
558.876477
 31
0.0
  0
LINE
  8
LC-007-100-D01-0
  6
CONTINUOUS
  5
363
 10
536.495595
 20
491.914677
 30
0.0
 11
536.495595
 21
424.952879
 31
0.0
  0
ARC
  8
LC-007-100-D01-0
  6
CONTINUOUS
  5
364
 10
534.507395
 20
424.945776
 30
0.0
 40
1.9882
 50
270.000017
 51
0.0
  0
LINE
  8
LC-007-100-D01-0
  6
CONTINUOUS
  5
365
 10
534.507395
 20
422.957576
 30
0.0
 11
527.107799
 21
423.34537
 31
0.0
  0
LINE
  8
LC-007-100-D01-0
  6
CONTINUOUS
  5
366
 10
527.107799
 20
423.34537
 30
0.0
 11
522.765878
 21
427.68729
 31
0.0
  0
LINE
  8
LC-003-100-D03-0
  6
CONTINUOUS
  5
367
 10
517.495989
 20
425.366237
 30
0.0
 11
517.495989
 21
427.963474
 31
0.0
  0
LINE
  8
LC-007-100-D01-0
  6
CONTINUOUS
  5
368
 10
522.765878
 20
427.68729
 30
0.0
 11
517.495989
 21
427.963474
 31
0.0
  0
LINE
  8
LC-003-100-D03-0
  6
CONTINUOUS
  5
369
 10
520.995989
 20
424.711127
 30
0.0
 11
517.967026
 21
424.869869
 31
0.0
  0
ARC
  8
LC-003-100-D03-0
  6
CONTINUOUS
  5
36A
 10
517.993039
 20
425.366237
 30
0.0
 40
0.49705
 50
180.0
 51
267.0
  0
LINE
  8
LC-003-100-D03-0
  6
CONTINUOUS
 62
     7
  5
36B
 10
520.995989
 20
424.308364
 30
0.0
 11
520.995989
 21
424.711127
 31
0.0
  0
ARC
  8
LC-007-100-D01-0
  6
CONTINUOUS
  5
36C
 10
534.507395
 20
558.876477
 30
0.0
 40
1.9882
 50
0.0
 51
89.999983
  0
LINE
  8
LC-003-100-D03-0
  6
CONTINUOUS
  5
36D
 10
537.795147
 20
565.111125
 30
0.0
 11
525.706354
 21
564.477579
 31
0.0
  0
LINE
  8
LC-003-100-D03-0
  6
CONTINUOUS
  5
36E
 10
537.795147
 20
565.111125
 30
0.0
 11
541.259249
 21
559.111124
 31
0.0
  0
LINE
  8
LC-007-100-D01-0
  6
CONTINUOUS
  5
36F
 10
534.507395
 20
560.864677
 30
0.0
 11
527.107799
 21
560.476883
 31
0.0
  0
LINE
  8
LC-007-100-D01-0
  6
CONTINUOUS
  5
370
 10
527.107799
 20
560.476883
 30
0.0
 11
522.765878
 21
556.134963
 31
0.0
  0
LINE
  8
LC-003-100-D03-0
  6
CONTINUOUS
  5
371
 10
517.495989
 20
558.456016
 30
0.0
 11
517.495989
 21
555.858779
 31
0.0
  0
ARC
  8
LC-003-100-D03-0
  6
CONTINUOUS
  5
372
 10
517.993039
 20
558.456016
 30
0.0
 40
0.49705
 50
93.0
 51
180.0
  0
LINE
  8
LC-003-100-D03-0
  6
CONTINUOUS
 62
     7
  5
373
 10
520.995989
 20
559.513891
 30
0.0
 11
520.995989
 21
559.111126
 31
0.0
  0
LINE
  8
LC-003-100-D03-0
  6
CONTINUOUS
  5
374
 10
520.995989
 20
559.111126
 30
0.0
 11
517.967026
 21
558.952385
 31
0.0
  0
LINE
  8
LC-007-100-D01-0
  6
CONTINUOUS
  5
375
 10
522.765878
 20
556.134963
 30
0.0
 11
517.495989
 21
555.858779
 31
0.0
  0
ARC
  8
LC-003-100-D03-0
  6
CONTINUOUS
  5
376
 10
525.96649
 20
559.513891
 30
0.0
 40
4.970501
 50
92.999995
 51
180.0
  0
LINE
  8
LC-007-100-D01-0
  6
CONTINUOUS
  5
377
 10
576.495595
 20
554.864675
 30
0.0
 11
576.495595
 21
428.96468
 31
0.0
  0
LINE
  8
LC-007-100-D01-0
  6
CONTINUOUS
  5
378
 10
582.495595
 20
430.575231
 30
0.0
 11
582.495595
 21
553.256981
 31
0.0
  0
LINE
  8
LC-007-100-D01-0
  6
CONTINUOUS
  5
379
 10
582.495595
 20
432.064144
 30
0.0
 11
586.828614
 21
432.064144
 31
0.0
  0
LINE
  8
LC-007-100-D01-0
  6
CONTINUOUS
  5
37A
 10
576.495595
 20
428.957578
 30
0.0
 11
582.495595
 21
430.565271
 31
0.0
  0
LINE
  8
LC-007-100-D01-0
  6
CONTINUOUS
  5
37B
 10
576.495595
 20
554.864675
 30
0.0
 11
582.495595
 21
553.256981
 31
0.0
  0
LINE
  8
LC-007-100-D01-0
  6
CONTINUOUS
  5
37C
 10
582.962978
 20
551.807987
 30
0.0
 11
584.73846
 21
551.808955
 31
0.0
  0
ARC
  8
LC-007-100-D01-0
  6
CONTINUOUS
  5
37D
 10
582.962706
 20
552.307987
 30
0.0
 40
0.5
 50
180.031213
 51
270.031213
  0
LINE
  8
LC-003-100-D03-0
  6
CONTINUOUS
  5
37E
 10
581.961979
 20
424.718232
 30
0.0
 11
541.259249
 21
424.718231
 31
0.0
  0
LINE
  8
LC-007-100-D01-0
  6
CONTINUOUS
  5
37F
 10
576.495595
 20
428.96468
 30
0.0
 11
536.495595
 21
428.964678
 31
0.0
  0
LINE
  8
LC-003-100-D03-0
  6
CONTINUOUS
  5
380
 10
579.61614
 20
559.111123
 30
0.0
 11
541.259249
 21
559.111124
 31
0.0
  0
LINE
  8
LC-007-100-D01-0
  6
CONTINUOUS
  5
381
 10
576.495595
 20
554.864675
 30
0.0
 11
536.495595
 21
554.864677
 31
0.0
  0
LINE
  8
LC-003-100-D03-0
  6
CONTINUOUS
  5
382
 10
517.495989
 20
555.858779
 30
0.0
 11
517.495989
 21
427.963474
 31
0.0
  0
LINE
  8
LC-001-100-D02-0
  6
DASHDOT
 62
     2
  5
383
 10
517.495989
 20
491.911127
 30
0.0
 11
604.552698
 21
491.911127
 31
0.0
  0
ARC
  8
LC-004-100-D16-0
  6
DASHDOT
 62
     2
  5
384
 10
660.011858
 20
524.193782
 30
0.0
 40
3.0
 50
151.375598
 51
214.361016
  0
LINE
  8
LC-007-100-D01-0
  6
DASHDOT
 62
     2
  5
385
 10
611.700206
 20
551.896473
 30
0.0
 11
670.635595
 21
449.817385
 31
0.0
  0
ARC
  8
LC-004-100-D16-0
  6
DASHDOT
 62
     2
  5
386
 10
602.280333
 20
578.212172
 30
0.0
 40
4.2
 50
48.598853
 51
210.0
  0
LINE
  8
LC-004-100-D16-0
  6
DASHDOT
 62
     2
  5
387
 10
622.937225
 20
574.990958
 30
0.0
 11
614.046562
 21
580.123984
 31
0.0
  0
LINE
  8
LC-004-100-D16-0
  6
DASHDOT
 62
     2
  5
388
 10
618.399879
 20
563.132045
 30
0.0
 11
623.596031
 21
560.132045
 31
0.0
  0
LINE
  8
LC-004-100-D16-0
  6
DASHDOT
 62
     2
  5
389
 10
618.033854
 20
564.49807
 30
0.0
 11
623.30325
 21
573.624932
 31
0.0
  0
ARC
  8
LC-004-100-D16-0
  6
DASHDOT
 62
     2
  5
38A
 10
618.899879
 20
563.99807
 30
0.0
 40
1.0
 50
150.0
 51
240.0
  0
ARC
  8
LC-004-100-D16-0
  6
DASHDOT
 62
     2
  5
38B
 10
622.437225
 20
574.124932
 30
0.0
 40
1.0
 50
330.0
 51
60.0
  0
LINE
  8
LC-001-100-D02-0
  6
CONTINUOUS
 62
     1
  5
38C
 10
584.199303
 20
582.697297
 30
0.0
 11
586.86254
 21
430.120539
 31
0.0
  0
LINE
  8
LC-004-100-D16-0
  6
DASHDOT
 62
     2
  5
38D
 10
624.962057
 20
560.49807
 30
0.0
 11
631.689652
 21
572.150607
 31
0.0
  0
ARC
  8
LC-004-100-D16-0
  6
DASHDOT
 62
     2
  5
38E
 10
624.096031
 20
560.99807
 30
0.0
 40
1.0
 50
240.0
 51
330.0
  0
LINE
  8
LC-004-100-D16-0
  6
DASHDOT
 62
     2
  5
38F
 10
675.805286
 20
562.132464
 30
0.0
 11
633.073316
 21
573.582459
 31
0.0
  0
LINE
  8
LC-004-100-D16-0
  6
DASHDOT
 62
     2
  5
390
 10
675.546467
 20
561.166538
 30
0.0
 11
632.814497
 21
572.616533
 31
0.0
  0
ARC
  8
LC-004-100-D16-0
  6
DASHDOT
 62
     2
  5
391
 10
632.555678
 20
571.650607
 30
0.0
 40
1.0
 50
75.000001
 51
150.0
  0
LINE
  8
LC-007-100-D01-0
  6
DASHDOT
 62
     2
  5
392
 10
609.110504
 20
492.318292
 30
0.0
 11
585.783981
 21
491.911127
 31
0.0
  0
LINE
  8
LC-004-100-D16-0
  6
DASHDOT
 62
     2
  5
393
 10
624.096031
 20
560.99807
 30
0.0
 11
630.823627
 21
572.650607
 31
0.0
  0
LINE
  8
LC-001-100-D02-0
  6
CONTINUOUS
 62
     1
  5
394
 10
591.543794
 20
563.02248
 30
0.0
 11
588.544251
 21
562.970122
 31
0.0
  0
LINE
  8
LC-001-100-D02-0
  6
CONTINUOUS
 62
     1
  5
395
 10
591.505399
 20
565.222145
 30
0.0
 11
584.506465
 21
565.099978
 31
0.0
  0
LINE
  8
LC-004-100-D16-0
  6
DASHDOT
 62
     2
  5
396
 10
618.899879
 20
563.99807
 30
0.0
 11
624.169275
 21
573.124932
 31
0.0
  0
LINE
  8
LC-004-100-D16-0
  6
DASHDOT
 62
     2
  5
397
 10
618.899879
 20
563.99807
 30
0.0
 11
624.096031
 21
560.99807
 31
0.0
  0
LINE
  8
LC-004-100-D16-0
  6
DASHDOT
 62
     2
  5
398
 10
623.437225
 20
575.856983
 30
0.0
 11
614.404754
 21
581.071883
 31
0.0
  0
ARC
  8
LC-004-100-D16-0
  6
DASHDOT
 62
     2
  5
399
 10
632.555678
 20
571.650607
 30
0.0
 40
2.0
 50
75.000001
 51
150.0
  0
ARC
  8
LC-004-100-D16-0
  6
DASHDOT
 62
     2
  5
39A
 10
622.437225
 20
574.124932
 30
0.0
 40
2.0
 50
330.0
 51
60.0
  0
LINE
  8
LC-007-100-D01-0
  6
DASHDOT
 62
     2
  5
39B
 10
725.421004
 20
502.49807
 30
0.0
 11
730.518449
 21
511.327104
 31
0.0
  0
LINE
  8
LC-007-100-D01-0
  6
DASHDOT
 62
     2
  5
39C
 10
724.554978
 20
502.99807
 30
0.0
 11
729.652423
 21
511.827104
 31
0.0
  0
ARC
  8
LC-007-100-D01-0
  6
DASHDOT
 62
     2
  5
39D
 10
725.421004
 20
502.49807
 30
0.0
 40
1.0
 50
150.0
 51
240.0
  0
LINE
  8
LC-007-100-D01-0
  6
DASHDOT
 62
     2
  5
39E
 10
730.617156
 20
499.49807
 30
0.0
 11
725.421004
 21
502.49807
 31
0.0
  0
LINE
  8
LC-007-100-D01-0
  6
DASHDOT
 62
     2
  5
39F
 10
730.117156
 20
498.632045
 30
0.0
 11
724.921004
 21
501.632045
 31
0.0
  0
ARC
  8
LC-007-100-D01-0
  6
DASHDOT
 62
     2
  5
3A0
 10
730.617156
 20
499.49807
 30
0.0
 40
1.0
 50
240.0
 51
330.0
  0
LINE
  8
LC-007-100-D01-0
  6
DASHDOT
 62
     2
  5
3A1
 10
731.483181
 20
498.99807
 30
0.0
 11
732.983181
 21
501.596146
 31
0.0
  0
LINE
  8
LC-007-100-D01-0
  6
DASHDOT
 62
     2
  5
3A2
 10
730.617156
 20
499.49807
 30
0.0
 11
732.117156
 21
502.096146
 31
0.0
  0
LINE
  8
LC-007-100-D01-0
  6
DASHDOT
 62
     2
  5
3A3
 10
732.983181
 20
501.596146
 30
0.0
 11
732.117156
 21
502.096146
 31
0.0
  0
ARC
  8
LC-004-100-D16-0
  6
DASHDOT
 62
     2
  5
3A4
 10
602.280333
 20
578.212172
 30
0.0
 40
5.2
 50
78.598853
 51
240.0
  0
LINE
  8
LC-004-100-D16-0
  6
DASHDOT
 62
     2
  5
3A5
 10
614.404754
 20
581.071883
 30
0.0
 11
603.308253
 21
583.309561
 31
0.0
  0
LINE
  8
LC-004-100-D16-0
  6
DASHDOT
 62
     2
  5
3A6
 10
599.680333
 20
573.708839
 30
0.0
 11
606.036972
 21
570.038832
 31
0.0
  0
LINE
  8
LC-004-100-D16-0
  6
DASHDOT
 62
     2
  5
3A7
 10
614.046562
 20
580.123984
 30
0.0
 11
603.110576
 21
582.329294
 31
0.0
  0
LINE
  8
LC-004-100-D16-0
  6
DASHDOT
 62
     2
  5
3A8
 10
600.180333
 20
574.574865
 30
0.0
 11
606.536972
 21
570.904857
 31
0.0
  0
LINE
  8
LC-004-100-D16-0
  6
DASHDOT
 62
     2
  5
3A9
 10
606.036972
 20
570.038832
 30
0.0
 11
606.536972
 21
570.904857
 31
0.0
  0
ARC
  8
LC-007-100-D01-0
  6
DASHDOT
 62
     2
  5
3AA
 10
617.843201
 20
432.278195
 30
0.0
 40
140.0
 50
36.580232
 51
64.361016
  0
ARC
  8
LC-007-100-D01-0
  6
DASHDOT
 62
     2
  5
3AB
 10
617.843201
 20
432.278195
 30
0.0
 40
139.0
 50
36.580232
 51
84.637088
  0
ARC
  8
LC-007-100-D01-0
  6
DASHDOT
 62
     2
  5
3AC
 10
727.054347
 20
513.327104
 30
0.0
 40
3.0
 50
330.0
 51
36.580232
  0
ARC
  8
LC-007-100-D01-0
  6
DASHDOT
 62
     2
  5
3AD
 10
727.054347
 20
513.327104
 30
0.0
 40
4.0
 50
330.0
 51
36.580232
  0
ARC
  8
LC-004-100-D16-0
  6
DASHDOT
 62
     2
  5
3AE
 10
675.287647
 20
560.200612
 30
0.0
 40
2.0
 50
1.375598
 51
75.000001
  0
ARC
  8
LC-004-100-D16-0
  6
DASHDOT
 62
     2
  5
3AF
 10
679.286495
 20
560.296637
 30
0.0
 40
2.0
 50
181.375598
 51
244.361016
  0
ARC
  8
LC-004-100-D16-0
  6
DASHDOT
 62
     2
  5
3B0
 10
675.287647
 20
560.200612
 30
0.0
 40
1.0
 50
1.375598
 51
75.000001
  0
ARC
  8
LC-004-100-D16-0
  6
DASHDOT
 62
     2
  5
3B1
 10
679.286495
 20
560.296637
 30
0.0
 40
3.0
 50
181.375598
 51
244.361016
  0
LINE
  8
LC-007-100-D01-0
  6
DASHDOT
 62
     2
  5
3B2
 10
623.596031
 20
560.132045
 30
0.0
 11
725.675119
 21
501.196656
 31
0.0
  0
ARC
  8
LC-004-100-D16-0
  6
DASHDOT
 62
     2
  5
3B3
 10
602.280333
 20
578.212172
 30
0.0
 40
4.2
 50
78.598853
 51
240.0
  0
LINE
  8
LC-002-002-----0
  6
CONTINUOUS
  5
3B4
 10
1015.817132
 20
596.872364
 30
0.0
 11
1019.227791
 21
492.108128
 31
0.0
  0
LINE
  8
LC-001-100-D02-0
  6
DASHDOT
 62
     2
  5
3B5
 10
1100.850584
 20
727.811138
 30
0.0
 11
1100.850584
 21
415.411145
 31
0.0
  0
CIRCLE
  8
LC-002-002-----0
  6
CONTINUOUS
  5
3B6
 10
1100.850584
 20
491.911127
 30
0.0
 40
56.45
  0
LINE
  8
LC-003-100-D03-0
  6
CONTINUOUS
  5
3B7
 10
1100.850584
 20
596.872364
 30
0.0
 11
1209.306905
 21
596.872364
 31
0.0
  0
LINE
  8
LC-002-002-----0
  6
CONTINUOUS
  5
3B8
 10
633.250245
 20
709.311138
 30
0.0
 11
625.250245
 21
709.311138
 31
0.0
  0
LINE
  8
LC-002-002-----0
  6
CONTINUOUS
  5
3B9
 10
625.250245
 20
709.311138
 30
0.0
 11
625.250245
 21
707.311138
 31
0.0
  0
LINE
  8
LC-002-002-----0
  6
CONTINUOUS
  5
3BA
 10
633.750245
 20
615.311139
 30
0.0
 11
635.750245
 21
615.311139
 31
0.0
  0
LINE
  8
LC-002-002-----0
  6
CONTINUOUS
  5
3BB
 10
635.750245
 20
707.311138
 30
0.0
 11
621.750245
 21
707.311138
 31
0.0
  0
LINE
  8
LC-002-002-----0
  6
CONTINUOUS
  5
3BC
 10
621.750245
 20
707.311138
 30
0.0
 11
621.750245
 21
615.311139
 31
0.0
  0
LINE
  8
LC-002-002-----0
  6
CONTINUOUS
  5
3BD
 10
621.750245
 20
615.311139
 30
0.0
 11
633.750245
 21
615.311139
 31
0.0
  0
LINE
  8
LC-002-002-----0
  6
CONTINUOUS
  5
3BE
 10
633.250245
 20
707.311138
 30
0.0
 11
633.250245
 21
709.311138
 31
0.0
  0
LINE
  8
LC-002-002-----0
  6
DASHED
 62
     2
  5
3BF
 10
625.250245
 20
615.311139
 30
0.0
 11
625.250245
 21
707.311138
 31
0.0
  0
LINE
  8
LC-002-002-----0
  6
DASHED
 62
     2
  5
3C0
 10
633.250245
 20
615.311139
 30
0.0
 11
633.250245
 21
707.311138
 31
0.0
  0
LINE
  8
LC-002-002-----0
  6
CONTINUOUS
  5
3C1
 10
635.750245
 20
709.311138
 30
0.0
 11
633.250245
 21
709.311138
 31
0.0
  0
ARC
  8
LC-002-002-----0
  6
CONTINUOUS
  5
3C2
 10
614.250245
 20
724.811138
 30
0.0
 40
3.0
 50
90.0
 51
179.999848
  0
LINE
  8
LC-002-002-----0
  6
CONTINUOUS
  5
3C3
 10
614.250245
 20
727.811138
 30
0.0
 11
632.750245
 21
727.811138
 31
0.0
  0
ARC
  8
LC-002-002-----0
  6
CONTINUOUS
  5
3C4
 10
632.750245
 20
724.811138
 30
0.0
 40
3.0
 50
0.0
 51
90.0
  0
LINE
  8
LC-002-002-----0
  6
CONTINUOUS
  5
3C5
 10
623.250245
 20
709.311138
 30
0.0
 11
625.250245
 21
709.311138
 31
0.0
  0
ARC
  8
LC-002-002-----0
  6
CONTINUOUS
  5
3C6
 10
623.250245
 20
707.311138
 30
0.0
 40
2.0
 50
90.0
 51
179.999848
  0
LINE
  8
LC-002-002-----0
  6
CONTINUOUS
  5
3C7
 10
621.250245
 20
707.311138
 30
0.0
 11
621.250245
 21
692.311138
 31
0.0
  0
ARC
  8
LC-002-002-----0
  6
CONTINUOUS
  5
3C8
 10
619.250245
 20
692.311138
 30
0.0
 40
2.0
 50
270.000058
 51
0.0
  0
LINE
  8
LC-002-002-----0
  6
CONTINUOUS
  5
3C9
 10
619.250245
 20
690.311138
 30
0.0
 11
613.250245
 21
690.311138
 31
0.0
  0
ARC
  8
LC-002-002-----0
  6
CONTINUOUS
  5
3CA
 10
613.250245
 20
692.311138
 30
0.0
 40
2.0
 50
179.999848
 51
270.0
  0
LINE
  8
LC-002-002-----0
  6
CONTINUOUS
  5
3CB
 10
611.250245
 20
692.311138
 30
0.0
 11
611.250245
 21
724.811138
 31
0.0
  0
CIRCLE
  8
LC-002-002-----0
  6
CONTINUOUS
  5
3CC
 10
638.750245
 20
712.811138
 30
0.0
 40
2.5
  0
ARC
  8
LC-002-002-----0
  6
CONTINUOUS
  5
3CD
 10
638.750245
 20
712.811138
 30
0.0
 40
3.0
 50
300.000117
 51
179.999888
  0
LINE
  8
LC-002-002-----0
  6
CONTINUOUS
  5
3CE
 10
640.250245
 20
710.213062
 30
0.0
 11
641.250245
 21
708.481011
 31
0.0
  0
LINE
  8
LC-002-002-----0
  6
CONTINUOUS
  5
3CF
 10
635.750245
 20
712.811138
 30
0.0
 11
635.750245
 21
709.311138
 31
0.0
  0
LINE
  8
LC-002-002-----0
  6
DASHDOT
 62
     2
  5
3D0
 10
638.750247
 20
715.811138
 30
0.0
 11
638.750247
 21
710.311138
 31
0.0
  0
LINE
  8
LC-002-002-----0
  6
DASHDOT
 62
     2
  5
3D1
 10
635.750245
 20
712.811138
 30
0.0
 11
641.750245
 21
712.811138
 31
0.0
  0
LINE
  8
LC-002-002-----0
  6
CONTINUOUS
  5
3D2
 10
635.750245
 20
724.811138
 30
0.0
 11
635.750245
 21
720.811138
 31
0.0
  0
ARC
  8
LC-002-002-----0
  6
CONTINUOUS
  5
3D3
 10
638.750245
 20
720.811138
 30
0.0
 40
3.0
 50
180.0
 51
270.000058
  0
LINE
  8
LC-002-002-----0
  6
CONTINUOUS
  5
3D4
 10
638.750245
 20
717.811138
 30
0.0
 11
638.750245
 21
717.811138
 31
0.0
  0
LINE
  8
LC-002-002-----0
  6
CONTINUOUS
  5
3D5
 10
635.750245
 20
615.311139
 30
0.0
 11
635.750245
 21
707.311138
 31
0.0
  0
ARC
  8
LC-002-002-----0
  6
CONTINUOUS
  5
3D6
 10
638.750245
 20
704.811139
 30
0.0
 40
3.0
 50
90.0
 51
180.0
  0
ARC
  8
LC-002-002-----0
  6
CONTINUOUS
  5
3D7
 10
638.750245
 20
712.811138
 30
0.0
 40
5.0
 50
270.0
 51
90.00004
  0
LINE
  8
LC-003-100-D03-0
  6
CONTINUOUS
  5
3D8
 10
992.891313
 20
588.919564
 30
0.0
 11
1016.094851
 21
588.919564
 31
0.0
  0
LINE
  8
LC-001-100-D02-0
  6
DASHDOT
 62
     2
  5
3D9
 10
1002.335264
 20
604.872364
 30
0.0
 11
1002.335264
 21
580.645332
 31
0.0
  0
ARC
  8
LC-009-002-RND-0
  6
CONTINUOUS
  5
3DA
 10
751.908362
 20
598.823102
 30
0.0
 40
0.5
 50
0.0
 51
90.004193
  0
LINE
  8
LC-014-007-KH--0
  5
3DC
 10
739.333348
 20
603.321138
 30
0.0
 11
739.408342
 21
603.321138
 31
0.0
  0
LINE
  8
LC-002-002-----0
  6
CONTINUOUS
  5
3DD
 10
752.908362
 20
591.811139
 30
0.0
 11
753.929621
 21
591.811139
 31
0.0
  0
LINE
  8
LC-002-002-----0
  6
CONTINUOUS
  5
3DE
 10
762.800615
 20
588.311139
 30
0.0
 11
763.830814
 21
588.311139
 31
0.0
  0
LINE
  8
LC-002-002-----0
  6
CONTINUOUS
  5
3DF
 10
625.250245
 20
609.311139
 30
0.0
 11
621.350245
 21
609.311139
 31
0.0
  0
LINE
  8
LC-002-002-----0
  6
CONTINUOUS
  5
3E0
 10
633.250245
 20
610.311139
 30
0.0
 11
638.150245
 21
610.311139
 31
0.0
  0
LINE
  8
LC-002-002-----0
  6
CONTINUOUS
  5
3E1
 10
578.049765
 20
588.784971
 30
0.0
 11
578.576585
 21
598.837306
 31
0.0
  0
ARC
  8
LC-009-002-RND-0
  6
CONTINUOUS
  5
3E2
 10
755.271644
 20
598.811139
 30
0.0
 40
0.5
 50
90.0
 51
177.0
  0
ARC
  8
LC-009-002-RND-0
  6
CONTINUOUS
  5
3E3
 10
579.0759
 20
598.811139
 30
0.0
 40
0.5
 50
90.0
 51
177.0
  0
ARC
  8
LC-009-002-RND-0
  6
CONTINUOUS
  5
3E4
 10
585.079421
 20
598.811139
 30
0.0
 40
0.5
 50
3.0
 51
90.0
  0
ARC
  8
LC-009-002-RND-0
  6
CONTINUOUS
  5
3E5
 10
588.441476
 20
598.811139
 30
0.0
 40
0.5
 50
90.0
 51
180.0
  0
LINE
  8
LC-002-002-----0
  6
CONTINUOUS
  5
3E6
 10
586.421444
 20
591.811139
 30
0.0
 11
587.441476
 21
591.811139
 31
0.0
  0
LINE
  8
LC-002-002-----0
  6
CONTINUOUS
  5
3E7
 10
576.520251
 20
588.311139
 30
0.0
 11
577.55045
 21
588.311139
 31
0.0
  0
LINE
  8
LC-002-002-----0
  6
CONTINUOUS
  5
3E8
 10
620.350245
 20
610.311139
 30
0.0
 11
619.750245
 21
610.311139
 31
0.0
  0
LINE
  8
LC-002-002-----0
  6
CONTINUOUS
  5
3E9
 10
585.922129
 20
592.284971
 30
0.0
 11
585.578736
 21
598.837306
 31
0.0
  0
LINE
  8
LC-002-002-----0
  6
CONTINUOUS
  5
3EA
 10
754.428936
 20
592.284971
 30
0.0
 11
754.772329
 21
598.837306
 31
0.0
  0
LINE
  8
LC-002-002-----0
  6
CONTINUOUS
  5
3EB
 10
579.0759
 20
599.311139
 30
0.0
 11
585.079421
 21
599.311139
 31
0.0
  0
LINE
  8
LC-002-002-----0
  6
CONTINUOUS
  5
3EC
 10
579.020251
 20
603.311139
 30
0.0
 11
613.393782
 21
603.311139
 31
0.0
  0
ARC
  8
LC-009-002-RND-0
  6
CONTINUOUS
  5
3ED
 10
576.520251
 20
588.811139
 30
0.0
 40
0.5
 50
180.0
 51
270.0
  0
LINE
  8
LC-002-002-----0
  6
CONTINUOUS
  5
3EE
 10
588.441476
 20
599.311139
 30
0.0
 11
625.250245
 21
599.313832
 31
0.0
  0
LINE
  8
LC-002-002-----0
  6
CONTINUOUS
  5
3EF
 10
587.941476
 20
598.811139
 30
0.0
 11
587.941476
 21
592.311139
 31
0.0
  0
LINE
  8
LC-002-002-----0
  6
CONTINUOUS
  5
3F0
 10
755.271644
 20
599.311139
 30
0.0
 11
761.275165
 21
599.311139
 31
0.0
  0
LINE
  8
LC-002-002-----0
  6
CONTINUOUS
  5
3F1
 10
752.408362
 20
598.823102
 30
0.0
 11
752.408362
 21
592.311139
 31
0.0
  0
ARC
  8
LC-009-002-RND-0
  6
CONTINUOUS
  5
3F2
 10
579.020251
 20
600.311139
 30
0.0
 40
3.0
 50
90.0
 51
180.0
  0
ARC
  8
LC-009-002-RND-0
  6
CONTINUOUS
  5
3F3
 10
587.441476
 20
592.311139
 30
0.0
 40
0.5
 50
270.0
 51
0.0
  0
LINE
  8
LC-002-002-----0
  6
CONTINUOUS
  5
3F4
 10
624.750245
 20
601.311139
 30
0.0
 11
621.350245
 21
601.311139
 31
0.0
  0
LINE
  8
LC-002-002-----0
  6
CONTINUOUS
  5
3F5
 10
620.350245
 20
610.311139
 30
0.0
 11
625.250245
 21
610.311139
 31
0.0
  0
LINE
  8
LC-002-002-----0
  6
CONTINUOUS
  5
3F6
 10
637.150245
 20
609.311139
 30
0.0
 11
633.250245
 21
609.311139
 31
0.0
  0
LINE
  8
LC-002-002-----0
  6
CONTINUOUS
  5
3F7
 10
624.750245
 20
601.311139
 30
0.0
 11
625.250245
 21
601.311139
 31
0.0
  0
LINE
  8
LC-002-002-----0
  6
CONTINUOUS
  5
3F8
 10
624.750245
 20
599.311139
 30
0.0
 11
625.250245
 21
599.311139
 31
0.0
  0
LINE
  8
LC-002-002-----0
  6
CONTINUOUS
  5
3F9
 10
636.750245
 20
579.311138
 30
0.0
 11
636.750245
 21
591.811138
 31
0.0
  0
LINE
  8
LC-002-002-----0
  6
CONTINUOUS
  5
3FA
 10
638.750245
 20
610.311139
 30
0.0
 11
638.150245
 21
610.311139
 31
0.0
  0
LINE
  8
LC-002-002-----0
  6
CONTINUOUS
  5
3FB
 10
619.250245
 20
609.811139
 30
0.0
 11
619.250245
 21
604.311139
 31
0.0
  0
LINE
  8
LC-002-002-----0
  6
CONTINUOUS
  5
3FC
 10
639.250245
 20
609.811139
 30
0.0
 11
639.250245
 21
604.311139
 31
0.0
  0
LINE
  8
LC-002-002-----0
  6
CONTINUOUS
  5
3FD
 10
637.150245
 20
601.311139
 30
0.0
 11
633.750245
 21
601.311139
 31
0.0
  0
LINE
  8
LC-002-002-----0
  6
CONTINUOUS
  5
3FE
 10
637.150245
 20
609.311139
 30
0.0
 11
637.150245
 21
601.311139
 31
0.0
  0
LINE
  8
LC-002-002-----0
  6
CONTINUOUS
  5
3FF
 10
621.350245
 20
609.311139
 30
0.0
 11
621.350245
 21
601.311139
 31
0.0
  0
LINE
  8
LC-002-002-----0
  6
CONTINUOUS
  5
400
 10
637.150245
 20
609.311139
 30
0.0
 11
638.150245
 21
610.311139
 31
0.0
  0
LINE
  8
LC-002-002-----0
  6
CONTINUOUS
  5
401
 10
633.750245
 20
601.311139
 30
0.0
 11
633.750245
 21
599.311139
 31
0.0
  0
LINE
  8
LC-002-002-----0
  6
CONTINUOUS
  5
402
 10
624.750245
 20
601.311139
 30
0.0
 11
624.750245
 21
599.311139
 31
0.0
  0
LINE
  8
LC-002-002-----0
  6
CONTINUOUS
  5
403
 10
621.350245
 20
609.311139
 30
0.0
 11
620.350245
 21
610.311139
 31
0.0
  0
ARC
  8
LC-009-002-RND-0
  6
CONTINUOUS
  5
404
 10
618.250245
 20
604.311139
 30
0.0
 40
1.0
 50
270.0
 51
0.0
  0
ARC
  8
LC-009-002-RND-0
  6
CONTINUOUS
  5
405
 10
640.250245
 20
604.311139
 30
0.0
 40
1.0
 50
180.0
 51
270.0
  0
ARC
  8
LC-009-002-RND-0
  6
CONTINUOUS
  5
406
 10
619.750245
 20
609.811139
 30
0.0
 40
0.5
 50
90.0
 51
180.0
  0
ARC
  8
LC-009-002-RND-0
  6
CONTINUOUS
  5
407
 10
638.750245
 20
609.811139
 30
0.0
 40
0.5
 50
0.0
 51
90.0
  0
LINE
  8
LC-002-002-----0
  6
CONTINUOUS
  5
408
 10
640.250245
 20
603.311139
 30
0.0
 11
761.260814
 21
603.311139
 31
0.0
  0
ARC
  8
LC-009-002-RND-0
  6
CONTINUOUS
  5
409
 10
753.929621
 20
592.311139
 30
0.0
 40
0.5
 50
270.0
 51
357.0
  0
ARC
  8
LC-009-002-RND-0
  6
CONTINUOUS
  5
40A
 10
586.421444
 20
592.311139
 30
0.0
 40
0.5
 50
183.0
 51
270.0
  0
ARC
  8
LC-009-002-RND-0
  6
CONTINUOUS
  5
40B
 10
752.908362
 20
592.311139
 30
0.0
 40
0.5
 50
180.0
 51
270.0
  0
LINE
  8
LC-002-002-----0
  6
CONTINUOUS
  5
40C
 10
576.020251
 20
600.311139
 30
0.0
 11
576.020251
 21
588.811139
 31
0.0
  0
LINE
  8
LC-002-002-----0
  6
CONTINUOUS
  5
40D
 10
613.393782
 20
603.311139
 30
0.0
 11
618.250245
 21
603.311139
 31
0.0
  0
LINE
  8
LC-003-100-D03-0
  6
CONTINUOUS
  5
40E
 10
992.394263
 20
596.872364
 30
0.0
 11
992.394263
 21
589.416614
 31
0.0
  0
ARC
  8
LC-009-002-RND-0
  6
CONTINUOUS
  5
40F
 10
577.55045
 20
588.811139
 30
0.0
 40
0.5
 50
270.0
 51
357.0
  0
LINE
  8
LC-002-002-----0
  6
CONTINUOUS
  5
410
 10
764.330814
 20
600.311139
 30
0.0
 11
764.330814
 21
588.811139
 31
0.0
  0
ARC
  8
LC-009-002-RND-0
  6
CONTINUOUS
  5
411
 10
761.330814
 20
600.311139
 30
0.0
 40
3.0
 50
0.0
 51
90.0
  0
ARC
  8
LC-009-002-RND-0
  6
CONTINUOUS
  5
412
 10
763.830814
 20
588.811139
 30
0.0
 40
0.5
 50
270.0
 51
0.0
  0
LINE
  8
LC-002-002-----0
  6
CONTINUOUS
  5
413
 10
762.3013
 20
588.784971
 30
0.0
 11
761.77448
 21
598.837306
 31
0.0
  0
ARC
  8
LC-009-002-RND-0
  6
CONTINUOUS
  5
414
 10
761.275165
 20
598.811139
 30
0.0
 40
0.5
 50
3.0
 51
90.0
  0
ARC
  8
LC-009-002-RND-0
  6
CONTINUOUS
  5
415
 10
762.800615
 20
588.811139
 30
0.0
 40
0.5
 50
183.0
 51
270.0
  0
ARC
  8
LC-003-100-D03-0
  6
CONTINUOUS
  5
416
 10
992.891313
 20
589.416614
 30
0.0
 40
0.49705
 50
180.0
 51
270.0
  0
LINE
  8
LC-002-002-----0
  6
CONTINUOUS
  5
417
 10
633.250245
 20
601.311139
 30
0.0
 11
633.750245
 21
601.311139
 31
0.0
  0
LINE
  8
LC-002-002-----0
  6
CONTINUOUS
  5
418
 10
633.250245
 20
599.314418
 30
0.0
 11
751.908325
 21
599.323102
 31
0.0
  0
LINE
  8
LC-002-002-----0
  6
CONTINUOUS
  5
419
 10
633.250245
 20
599.311139
 30
0.0
 11
633.750245
 21
599.311139
 31
0.0
  0
LINE
  8
LC-003-100-D03-0
  6
CONTINUOUS
  5
41A
 10
992.891313
 20
588.919564
 30
0.0
 11
1016.756761
 21
568.010068
 31
0.0
  0
LINE
  8
LC-001-100-D02-0
  6
CONTINUOUS
 62
     1
  5
41B
 10
591.505399
 20
565.222145
 30
0.0
 11
591.543794
 21
563.02248
 31
0.0
  0
LINE
  8
LC-002-002-----0
  6
CONTINUOUS
  5
41C
 10
1185.884035
 20
596.872364
 30
0.0
 11
1182.473376
 21
492.108128
 31
0.0
  0
LINE
  8
LC-002-002-----0
  6
CONTINUOUS
  5
41D
 10
992.851985
 20
596.872364
 30
0.0
 11
1208.849183
 21
596.872364
 31
0.0
  0
LINE
  8
LC-001-100-D02-0
  6
CONTINUOUS
 62
     1
  5
41E
 10
588.544251
 20
562.970122
 30
0.0
 11
588.579156
 21
560.970427
 31
0.0
  0
LINE
  8
LC-001-100-D02-0
  6
CONTINUOUS
 62
     1
  5
41F
 10
594.837512
 20
561.079667
 30
0.0
 11
588.579156
 21
560.970427
 31
0.0
  0
LINE
  8
LC-001-100-D02-0
  6
CONTINUOUS
 62
     1
  5
420
 10
597.245944
 20
423.100685
 30
0.0
 11
590.987588
 21
422.991445
 31
0.0
  0
LINE
  8
LC-001-100-D02-0
  6
CONTINUOUS
 62
     1
  5
421
 10
591.022493
 20
420.99175
 30
0.0
 11
590.987588
 21
422.991445
 31
0.0
  0
LINE
  8
LC-001-100-D02-0
  6
CONTINUOUS
 62
     1
  5
422
 10
594.060431
 20
418.844442
 30
0.0
 11
594.022036
 21
421.044107
 31
0.0
  0
LINE
  8
LC-001-100-D02-0
  6
CONTINUOUS
 62
     1
  5
423
 10
594.060431
 20
418.844442
 30
0.0
 11
587.061497
 21
418.722275
 31
0.0
  0
LINE
  8
LC-001-100-D02-0
  6
CONTINUOUS
 62
     1
  5
424
 10
594.022036
 20
421.044107
 30
0.0
 11
591.022493
 21
420.99175
 31
0.0
  0
LINE
  8
LC-001-100-D02-0
  6
CONTINUOUS
 62
     1
  5
425
 10
609.110504
 20
420.107294
 30
0.0
 11
602.843509
 21
419.997904
 31
0.0
  0
LINE
  8
LC-015-100-D04-0
  6
CONTINUOUS
  5
427
 10
609.093051
 20
421.107142
 30
0.0
 11
592.650201
 21
430.221563
 31
0.0
  0
LINE
  8
LC-015-100-D04-0
  6
CONTINUOUS
  5
428
 10
586.86254
 20
430.120539
 30
0.0
 11
592.650201
 21
430.221563
 31
0.0
  0
LINE
  8
LC-001-100-D02-0
  6
CONTINUOUS
 62
     1
  5
429
 10
602.843509
 20
419.997904
 30
0.0
 11
597.245944
 21
423.100685
 31
0.0
  0
LINE
  8
LC-015-100-D04-0
  6
CONTINUOUS
  5
42A
 10
608.322163
 20
564.51553
 30
0.0
 11
590.493084
 21
553.802738
 31
0.0
  0
LINE
  8
LC-001-100-D02-0
  6
CONTINUOUS
 62
     1
  5
42B
 10
600.323382
 20
564.375911
 30
0.0
 11
594.837512
 21
561.079667
 31
0.0
  0
LINE
  8
LC-001-100-D02-0
  6
CONTINUOUS
 62
     1
  5
42C
 10
609.110504
 20
564.529291
 30
0.0
 11
600.323382
 21
564.375911
 31
0.0
  0
LINE
  8
LC-015-100-D04-0
  6
CONTINUOUS
  5
42D
 10
584.705422
 20
553.701714
 30
0.0
 11
590.493084
 21
553.802738
 31
0.0
  0
LINE
  8
LC-001-100-D02-0
  6
CONTINUOUS
 62
     1
  5
42E
 10
609.110504
 20
568.129839
 30
0.0
 11
609.110504
 21
564.51553
 31
0.0
  0
LINE
  8
LC-001-100-D02-0
  6
CONTINUOUS
 62
     1
  5
42F
 10
600.196866
 20
582.976536
 30
0.0
 11
584.199303
 21
582.697297
 31
0.0
  0
LINE
  8
LC-001-100-D02-0
  6
CONTINUOUS
 62
     1
  5
430
 10
587.998724
 20
582.763616
 30
0.0
 11
588.26051
 21
567.765901
 31
0.0
  0
LINE
  8
LC-001-100-D02-0
  6
CONTINUOUS
 62
     1
  5
431
 10
609.047676
 20
568.128742
 30
0.0
 11
588.26051
 21
567.765901
 31
0.0
  0
LINE
  8
LC-001-100-D02-0
  6
CONTINUOUS
 62
     1
  5
432
 10
586.86254
 20
430.120539
 30
0.0
 11
587.113855
 21
415.722732
 31
0.0
  0
LINE
  8
LC-001-100-D02-0
  6
CONTINUOUS
 62
     1
  5
433
 10
609.110504
 20
421.097468
 30
0.0
 11
609.110504
 21
416.106685
 31
0.0
  0
LINE
  8
LC-002-002-----0
  6
CONTINUOUS
  5
434
 10
633.250245
 20
598.811138
 30
0.0
 11
633.250245
 21
615.305453
 31
0.0
  0
LINE
  8
LC-002-002-----0
  6
CONTINUOUS
  5
435
 10
590.493084
 20
553.802738
 30
0.0
 11
592.650201
 21
430.221563
 31
0.0
  0
LINE
  8
LC-001-100-D02-0
  6
CONTINUOUS
 62
     1
  5
436
 10
609.110504
 20
433.762942
 30
0.0
 11
609.110504
 21
421.097468
 31
0.0
  0
LINE
  8
LC-002-002-----0
  6
CONTINUOUS
  5
437
 10
621.850245
 20
607.811139
 30
0.0
 11
624.850245
 21
607.811139
 31
0.0
  0
LINE
  8
LC-002-002-----0
  6
CONTINUOUS
  5
438
 10
624.850245
 20
607.811139
 30
0.0
 11
624.850245
 21
601.811139
 31
0.0
  0
LINE
  8
LC-002-002-----0
  6
CONTINUOUS
  5
439
 10
624.850245
 20
601.811139
 30
0.0
 11
621.850245
 21
601.811139
 31
0.0
  0
LINE
  8
LC-002-002-----0
  6
CONTINUOUS
  5
43A
 10
621.850245
 20
601.811139
 30
0.0
 11
621.850245
 21
607.811139
 31
0.0
  0
LINE
  8
LC-002-002-----0
  6
CONTINUOUS
  5
43B
 10
633.650245
 20
607.811139
 30
0.0
 11
636.650245
 21
607.811139
 31
0.0
  0
LINE
  8
LC-002-002-----0
  6
CONTINUOUS
  5
43C
 10
636.650245
 20
607.811139
 30
0.0
 11
636.650245
 21
601.811139
 31
0.0
  0
LINE
  8
LC-001-100-D02-0
  6
DASHDOT
 62
     2
  5
43D
 10
831.670178
 20
475.794043
 30
0.0
 11
759.121493
 21
475.794043
 31
0.0
  0
LINE
  8
LC-003-100-D03-0
  6
CONTINUOUS
  5
43E
 10
831.670178
 20
414.646692
 30
0.0
 11
831.670178
 21
536.941392
 31
0.0
  0
LINE
  8
LC-003-100-D03-0
  6
CONTINUOUS
  5
43F
 10
760.208414
 20
538.273234
 30
0.0
 11
826.699677
 21
538.273234
 31
0.0
  0
LINE
  8
LC-003-100-D03-0
  6
CONTINUOUS
  5
440
 10
826.699677
 20
538.273234
 30
0.0
 11
831.670178
 21
536.941392
 31
0.0
  0
LINE
  8
LC-003-100-D03-0
  6
CONTINUOUS
  5
441
 10
826.698254
 20
413.31447
 30
0.0
 11
831.670178
 21
414.646692
 31
0.0
  0
LINE
  8
LC-002-002-----0
  6
CONTINUOUS
  5
442
 10
636.650245
 20
601.811139
 30
0.0
 11
633.650245
 21
601.811139
 31
0.0
  0
LINE
  8
LC-002-002-----0
  6
CONTINUOUS
  5
443
 10
633.650245
 20
601.811139
 30
0.0
 11
633.650245
 21
607.811139
 31
0.0
  0
ARC
  8
LC-009-002-RND-0
  6
CONTINUOUS
  5
444
 10
1015.800652
 20
608.872364
 30
0.0
 40
3.0
 50
90.0
 51
180.0
  0
LINE
  8
LC-002-002-----0
  6
CONTINUOUS
  5
445
 10
1015.800652
 20
611.872364
 30
0.0
 11
1185.830515
 21
611.872364
 31
0.0
  0
LINE
  8
LC-002-002-----0
  6
DASHDOT
 62
     2
  5
446
 10
1057.850584
 20
690.311138
 30
0.0
 11
1057.850584
 21
611.872364
 31
0.0
  0
LINE
  8
LC-002-002-----0
  6
CONTINUOUS
  5
447
 10
625.250245
 20
615.311139
 30
0.0
 11
625.250245
 21
598.811138
 31
0.0
  0
LINE
  8
LC-002-002-----0
  6
DASHDOT
 62
     2
  5
448
 10
629.250245
 20
596.811138
 30
0.0
 11
629.250245
 21
709.311138
 31
0.0
  0
LINE
  8
LC-002-002-----0
  6
CONTINUOUS
  5
449
 10
1064.850584
 20
619.24882
 30
0.0
 11
1064.850584
 21
625.585486
 31
0.0
  0
LINE
  8
LC-002-002-----0
  6
CONTINUOUS
  5
44A
 10
616.250245
 20
591.811138
 30
0.0
 11
619.916537
 21
580.353975
 31
0.0
  0
LINE
  8
LC-014-007-KH--0
  5
44B
 10
1089.948845
 20
646.65879
 30
0.0
 11
1090.023839
 21
646.65879
 31
0.0
  0
LINE
  8
LC-002-002-----0
  6
CONTINUOUS
  5
44C
 10
632.250245
 20
579.311138
 30
0.0
 11
632.250245
 21
591.811138
 31
0.0
  0
LINE
  8
LC-002-002-----0
  6
CONTINUOUS
  5
44D
 10
617.750245
 20
596.811138
 30
0.0
 11
640.750245
 21
596.811138
 31
0.0
  0
LINE
  8
LC-002-002-----0
  6
CONTINUOUS
  5
44E
 10
636.750245
 20
591.811138
 30
0.0
 11
642.250245
 21
591.811138
 31
0.0
  0
ARC
  8
LC-009-002-RND-0
  6
CONTINUOUS
  5
44F
 10
617.750245
 20
595.311138
 30
0.0
 40
1.5
 50
90.0
 51
180.0
  0
LINE
  8
LC-002-002-----0
  6
CONTINUOUS
  5
450
 10
1012.800652
 20
608.872364
 30
0.0
 11
1012.800652
 21
596.872364
 31
0.0
  0
LINE
  8
LC-002-002-----0
  6
CONTINUOUS
  5
451
 10
1061.850584
 20
708.887894
 30
0.0
 11
1061.850584
 21
618.872364
 31
0.0
  0
LINE
  8
LC-002-002-----0
  6
CONTINUOUS
  5
452
 10
1188.900515
 20
608.872364
 30
0.0
 11
1188.900515
 21
596.872364
 31
0.0
  0
ARC
  8
LC-009-002-RND-0
  6
CONTINUOUS
  5
453
 10
1185.900515
 20
608.872364
 30
0.0
 40
3.0
 50
0.0
 51
90.0
  0
ARC
  8
LC-009-002-RND-0
  6
CONTINUOUS
  5
454
 10
1190.900515
 20
606.872364
 30
0.0
 40
2.0
 50
180.0
 51
270.0
  0
ARC
  8
LC-009-002-RND-0
  6
CONTINUOUS
  5
455
 10
1010.800652
 20
606.872364
 30
0.0
 40
2.0
 50
270.0
 51
0.0
  0
LINE
  8
LC-002-002-----0
  6
CONTINUOUS
  5
456
 10
992.851985
 20
604.872364
 30
0.0
 11
1010.800652
 21
604.872364
 31
0.0
  0
LINE
  8
LC-002-002-----0
  6
CONTINUOUS
  5
457
 10
992.351985
 20
597.372364
 30
0.0
 11
992.351985
 21
604.372364
 31
0.0
  0
ARC
  8
LC-009-002-RND-0
  6
CONTINUOUS
  5
458
 10
992.851985
 20
597.372364
 30
0.0
 40
0.5
 50
180.0
 51
270.0
  0
ARC
  8
LC-009-002-RND-0
  6
CONTINUOUS
  5
459
 10
992.851985
 20
604.372364
 30
0.0
 40
0.5
 50
90.0
 51
180.0
  0
LINE
  8
LC-002-002-----0
  6
CONTINUOUS
  5
45A
 10
1053.850584
 20
690.311138
 30
0.0
 11
1053.850584
 21
618.872364
 31
0.0
  0
LINE
  8
LC-003-100-D03-0
  6
CONTINUOUS
  5
45B
 10
1209.306905
 20
596.872364
 30
0.0
 11
1209.306905
 21
589.416614
 31
0.0
  0
LINE
  8
LC-001-100-D02-0
  6
DASHDOT
 62
     2
  5
45C
 10
1199.365904
 20
604.872364
 30
0.0
 11
1199.365904
 21
580.645332
 31
0.0
  0
ARC
  8
LC-003-100-D03-0
  6
CONTINUOUS
  5
45D
 10
1208.809855
 20
589.416614
 30
0.0
 40
0.49705
 50
270.0
 51
0.0
  0
LINE
  8
LC-002-002-----0
  6
CONTINUOUS
  5
45E
 10
583.090847
 20
599.311139
 30
0.0
 11
581.390812
 21
599.311139
 31
0.0
  0
LINE
  8
LC-003-100-D03-0
  6
CONTINUOUS
  5
45F
 10
584.389684
 20
588.811139
 30
0.0
 11
583.96905
 21
596.837306
 31
0.0
  0
LINE
  8
LC-003-100-D03-0
  6
CONTINUOUS
  5
460
 10
1100.850584
 20
596.872364
 30
0.0
 11
992.394263
 21
596.872364
 31
0.0
  0
LINE
  8
LC-003-100-D03-0
  6
CONTINUOUS
  5
461
 10
1208.809855
 20
588.919564
 30
0.0
 11
1185.606318
 21
588.919564
 31
0.0
  0
LINE
  8
LC-003-100-D03-0
  6
CONTINUOUS
  5
462
 10
1208.809855
 20
588.919564
 30
0.0
 11
1184.944407
 21
568.010068
 31
0.0
  0
ARC
  8
LC-002-002-----0
  6
CONTINUOUS
  5
463
 10
1100.850584
 20
475.794043
 30
0.0
 40
58.479191
 50
15.160307
 51
164.83969
  0
ARC
  8
LC-003-100-D03-0
  6
CONTINUOUS
  5
464
 10
1100.850584
 20
489.808198
 30
0.0
 40
81.492803
 50
180.191293
 51
359.808718
  0
ARC
  8
LC-009-002-RND-0
  6
CONTINUOUS
  5
465
 10
581.390812
 20
596.811139
 30
0.0
 40
2.5
 50
90.0
 51
177.159687
  0
ARC
  8
LC-009-002-RND-0
  6
CONTINUOUS
  5
466
 10
583.090847
 20
596.811139
 30
0.0
 40
2.5
 50
2.840313
 51
90.0
  0
LINE
  8
LC-002-002-----0
  6
CONTINUOUS
  5
467
 10
621.750245
 20
598.811138
 30
0.0
 11
636.750245
 21
598.811138
 31
0.0
  0
LINE
  8
LC-002-002-----0
  6
CONTINUOUS
  5
468
 10
761.860235
 20
588.811139
 30
0.0
 11
761.457181
 21
596.93502
 31
0.0
  0
ARC
  8
LC-009-002-RND-0
  6
CONTINUOUS
  5
469
 10
758.960253
 20
596.811139
 30
0.0
 40
2.5
 50
2.840313
 51
90.0
  0
ARC
  8
LC-003-100-D03-0
  6
CONTINUOUS
  5
46A
 10
1100.850584
 20
494.958459
 30
0.0
 40
81.672545
 50
182.0
 51
358.0
  0
CIRCLE
  8
LC-002-002-----0
  6
CONTINUOUS
  5
46B
 10
1100.850584
 20
491.911127
 30
0.0
 40
59.45
  0
CIRCLE
  8
LC-002-002-----0
  6
CONTINUOUS
  5
46C
 10
1100.850584
 20
491.911127
 30
0.0
 40
64.75
  0
LINE
  8
LC-002-002-----0
  6
DASHDOT
 62
     2
  5
46D
 10
1019.234909
 20
491.911127
 30
0.0
 11
1182.466962
 21
491.911127
 31
0.0
  0
ARC
  8
LC-009-002-RND-0
  6
CONTINUOUS
  5
46E
 10
757.260218
 20
596.811139
 30
0.0
 40
2.5
 50
90.0
 51
177.159687
  0
LINE
  8
LC-002-002-----0
  6
DASHDOT
 62
     2
  5
46F
 10
1002.335264
 20
604.872364
 30
0.0
 11
1002.335264
 21
632.372364
 31
0.0
  0
LINE
  8
LC-002-002-----0
  6
CONTINUOUS
  5
470
 10
992.835264
 20
604.872364
 30
0.0
 11
992.835264
 21
621.556733
 31
0.0
  0
ARC
  8
LC-002-002-----0
  6
CONTINUOUS
  5
471
 10
997.835264
 20
625.755712
 30
0.0
 40
2.0
 50
280.339949
 51
0.0
  0
LINE
  8
LC-002-002-----0
  6
CONTINUOUS
  5
472
 10
580.091975
 20
588.811139
 30
0.0
 11
578.490829
 21
588.811139
 31
0.0
  0
ARC
  8
LC-002-002-----0
  6
CONTINUOUS
  5
473
 10
990.835264
 20
589.122364
 30
0.0
 40
41.0
 50
79.660109
 51
100.339891
  0
ARC
  8
LC-002-002-----0
  6
CONTINUOUS
  5
474
 10
983.835264
 20
627.489016
 30
0.0
 40
2.0
 50
100.339872
 51
180.0
  0
ARC
  8
LC-002-002-----0
  6
CONTINUOUS
  5
475
 10
990.835264
 20
664.122364
 30
0.0
 40
41.0
 50
259.660109
 51
280.339949
  0
LINE
  8
LC-002-002-----0
  6
CONTINUOUS
  5
476
 10
1190.900515
 20
604.872364
 30
0.0
 11
1208.849183
 21
604.872364
 31
0.0
  0
LINE
  8
LC-002-002-----0
  6
CONTINUOUS
  5
477
 10
1209.349183
 20
597.372364
 30
0.0
 11
1209.349183
 21
604.372364
 31
0.0
  0
ARC
  8
LC-009-002-RND-0
  6
CONTINUOUS
  5
478
 10
1208.849183
 20
604.372364
 30
0.0
 40
0.5
 50
0.0
 51
90.0
  0
ARC
  8
LC-009-002-RND-0
  6
CONTINUOUS
  5
479
 10
1208.849183
 20
597.372364
 30
0.0
 40
0.5
 50
270.0
 51
0.0
  0
ARC
  8
LC-002-002-----0
  6
CONTINUOUS
  5
47A
 10
983.835264
 20
625.755712
 30
0.0
 40
2.0
 50
180.0
 51
259.659957
  0
ARC
  8
LC-002-002-----0
  6
CONTINUOUS
  5
47B
 10
983.835264
 20
627.652595
 30
0.0
 40
2.0
 50
106.726782
 51
180.0
  0
ARC
  8
LC-002-002-----0
  6
CONTINUOUS
  5
47C
 10
983.835264
 20
625.592132
 30
0.0
 40
2.0
 50
180.0
 51
253.273047
  0
LINE
  8
LC-002-002-----0
  6
CONTINUOUS
  5
47D
 10
981.835264
 20
625.592132
 30
0.0
 11
981.835264
 21
627.652595
 31
0.0
  0
LINE
  8
LC-002-002-----0
  6
CONTINUOUS
  5
47E
 10
578.490829
 20
588.811139
 30
0.0
 11
578.893883
 21
596.93502
 31
0.0
  0
LINE
  8
LC-002-002-----0
  6
CONTINUOUS
  5
47F
 10
585.990829
 20
588.811139
 30
0.0
 11
585.587776
 21
596.93502
 31
0.0
  0
LINE
  8
LC-002-002-----0
  6
CONTINUOUS
  5
480
 10
584.389684
 20
588.811139
 30
0.0
 11
585.990829
 21
588.811139
 31
0.0
  0
LINE
  8
LC-002-002-----0
  6
CONTINUOUS
  5
481
 10
1011.835467
 20
604.872531
 30
0.0
 11
1011.835478
 21
621.5569
 31
0.0
  0
ARC
  8
LC-002-002-----0
  6
CONTINUOUS
  5
482
 10
1013.835457
 20
589.12253
 30
0.0
 40
41.0
 50
79.660072
 51
100.339835
  0
LINE
  8
LC-002-002-----0
  6
CONTINUOUS
  5
483
 10
754.360235
 20
588.811139
 30
0.0
 11
754.763289
 21
596.93502
 31
0.0
  0
LINE
  8
LC-002-002-----0
  6
CONTINUOUS
  5
484
 10
755.961381
 20
588.811139
 30
0.0
 11
754.360235
 21
588.811139
 31
0.0
  0
LINE
  8
LC-003-100-D03-0
  6
CONTINUOUS
  5
485
 10
755.961381
 20
588.811139
 30
0.0
 11
756.406848
 21
597.311139
 31
0.0
  0
LINE
  8
LC-002-002-----0
  6
CONTINUOUS
  5
486
 10
636.750245
 20
596.811138
 30
0.0
 11
636.750245
 21
598.811138
 31
0.0
  0
LINE
  8
LC-002-002-----0
  6
CONTINUOUS
  5
487
 10
621.750245
 20
596.811138
 30
0.0
 11
621.750245
 21
598.811138
 31
0.0
  0
LINE
  8
LC-002-002-----0
  6
CONTINUOUS
  5
488
 10
642.250245
 20
580.811138
 30
0.0
 11
642.250245
 21
595.311138
 31
0.0
  0
LINE
  8
LC-002-002-----0
  6
CONTINUOUS
  5
489
 10
616.250245
 20
591.811138
 30
0.0
 11
616.250245
 21
595.311138
 31
0.0
  0
LINE
  8
LC-002-002-----0
  6
CONTINUOUS
  5
48A
 10
621.345174
 20
579.311138
 30
0.0
 11
640.750245
 21
579.311138
 31
0.0
  0
LINE
  8
LC-002-002-----0
  6
CONTINUOUS
  5
48B
 10
616.250245
 20
591.811138
 30
0.0
 11
632.250245
 21
591.811138
 31
0.0
  0
ARC
  8
LC-009-002-RND-0
  6
CONTINUOUS
  5
48C
 10
621.345174
 20
580.811138
 30
0.0
 40
1.5
 50
197.744672
 51
270.0
  0
ARC
  8
LC-009-002-RND-0
  6
CONTINUOUS
  5
48D
 10
640.750245
 20
580.811138
 30
0.0
 40
1.5
 50
270.0
 51
0.0
  0
ARC
  8
LC-009-002-RND-0
  6
CONTINUOUS
  5
48E
 10
640.750245
 20
595.311138
 30
0.0
 40
1.5
 50
0.0
 51
90.0
  0
ARC
  8
LC-002-002-----0
  6
CONTINUOUS
  5
48F
 10
1006.835482
 20
627.489187
 30
0.0
 40
2.0
 50
100.339835
 51
179.999963
  0
ARC
  8
LC-002-002-----0
  6
CONTINUOUS
  5
490
 10
1006.835481
 20
625.755882
 30
0.0
 40
2.0
 50
179.999963
 51
259.659995
  0
ARC
  8
LC-002-002-----0
  6
CONTINUOUS
  5
491
 10
1013.835506
 20
664.12253
 30
0.0
 40
41.0
 50
259.65992
 51
280.339853
  0
ARC
  8
LC-002-002-----0
  6
CONTINUOUS
  5
492
 10
1020.835482
 20
627.489178
 30
0.0
 40
2.0
 50
359.999963
 51
79.659997
  0
ARC
  8
LC-002-002-----0
  6
CONTINUOUS
  5
493
 10
1002.335264
 20
566.093518
 30
0.0
 40
66.278846
 50
73.273199
 51
106.726782
  0
ARC
  8
LC-002-002-----0
  6
CONTINUOUS
  5
494
 10
1020.835264
 20
627.652595
 30
0.0
 40
2.0
 50
0.0
 51
73.273199
  0
ARC
  8
LC-002-002-----0
  6
CONTINUOUS
  5
495
 10
1020.835481
 20
625.755873
 30
0.0
 40
2.0
 50
280.339912
 51
359.999963
  0
ARC
  8
LC-002-002-----0
  6
CONTINUOUS
  5
496
 10
1002.335264
 20
687.15121
 30
0.0
 40
66.278846
 50
253.273047
 51
286.726801
  0
ARC
  8
LC-002-002-----0
  6
CONTINUOUS
  5
497
 10
1020.835264
 20
625.592132
 30
0.0
 40
2.0
 50
286.72686
 51
0.0
  0
LINE
  8
LC-002-002-----0
  6
CONTINUOUS
  5
498
 10
1022.835264
 20
625.592132
 30
0.0
 11
1022.835264
 21
627.652595
 31
0.0
  0
ARC
  8
LC-002-002-----0
  6
CONTINUOUS
  5
499
 10
997.835264
 20
627.489016
 30
0.0
 40
2.0
 50
0.0
 51
79.660109
  0
ARC
  8
LC-002-002-----0
  6
CONTINUOUS
  5
49A
 10
1000.835264
 20
628.122364
 30
0.0
 40
1.0
 50
90.0
 51
179.999848
  0
LINE
  8
LC-002-002-----0
  6
CONTINUOUS
  5
49B
 10
1003.835264
 20
629.122364
 30
0.0
 11
1000.835264
 21
629.122364
 31
0.0
  0
ARC
  8
LC-002-002-----0
  6
CONTINUOUS
  5
49C
 10
1003.835264
 20
628.122364
 30
0.0
 40
1.0
 50
0.0
 51
90.0
  0
LINE
  8
LC-002-002-----0
  6
CONTINUOUS
  5
49D
 10
1004.835264
 20
625.122364
 30
0.0
 11
1004.835264
 21
628.122364
 31
0.0
  0
ARC
  8
LC-002-002-----0
  6
CONTINUOUS
  5
49E
 10
1003.835264
 20
625.122364
 30
0.0
 40
1.0
 50
270.000058
 51
0.0
  0
LINE
  8
LC-002-002-----0
  6
CONTINUOUS
  5
49F
 10
999.835264
 20
628.122364
 30
0.0
 11
999.835264
 21
625.122364
 31
0.0
  0
ARC
  8
LC-002-002-----0
  6
CONTINUOUS
  5
4A0
 10
1000.835264
 20
625.122364
 30
0.0
 40
1.0
 50
180.0
 51
270.000058
  0
LINE
  8
LC-002-002-----0
  6
CONTINUOUS
  5
4A1
 10
1000.835264
 20
624.122364
 30
0.0
 11
1003.835264
 21
624.122364
 31
0.0
  0
LINE
  8
LC-002-002-----0
  6
DASHDOT
 62
     2
  5
4A2
 10
1199.365904
 20
604.872364
 30
0.0
 11
1199.365904
 21
632.372364
 31
0.0
  0
LINE
  8
LC-002-002-----0
  6
CONTINUOUS
  5
4A3
 10
1189.865904
 20
604.872364
 30
0.0
 11
1189.865904
 21
621.556733
 31
0.0
  0
ARC
  8
LC-002-002-----0
  6
CONTINUOUS
  5
4A4
 10
1194.865904
 20
625.755712
 30
0.0
 40
2.0
 50
280.339949
 51
0.0
  0
ARC
  8
LC-002-002-----0
  6
CONTINUOUS
  5
4A5
 10
1187.865904
 20
589.122364
 30
0.0
 40
41.0
 50
79.660109
 51
100.339891
  0
ARC
  8
LC-002-002-----0
  6
CONTINUOUS
  5
4A6
 10
1180.865904
 20
627.489016
 30
0.0
 40
2.0
 50
100.339872
 51
180.0
  0
ARC
  8
LC-002-002-----0
  6
CONTINUOUS
  5
4A7
 10
1187.865904
 20
664.122364
 30
0.0
 40
41.0
 50
259.660109
 51
280.339949
  0
ARC
  8
LC-002-002-----0
  6
CONTINUOUS
  5
4A8
 10
1180.865904
 20
625.755712
 30
0.0
 40
2.0
 50
180.0
 51
259.659957
  0
ARC
  8
LC-002-002-----0
  6
CONTINUOUS
  5
4A9
 10
1180.865904
 20
627.652595
 30
0.0
 40
2.0
 50
106.726782
 51
180.0
  0
ARC
  8
LC-002-002-----0
  6
CONTINUOUS
  5
4AA
 10
1180.865904
 20
625.592132
 30
0.0
 40
2.0
 50
180.0
 51
253.273047
  0
LINE
  8
LC-002-002-----0
  6
CONTINUOUS
  5
4AB
 10
1178.865904
 20
625.592132
 30
0.0
 11
1178.865904
 21
627.652595
 31
0.0
  0
LINE
  8
LC-002-002-----0
  6
CONTINUOUS
  5
4AC
 10
1208.866107
 20
604.872531
 30
0.0
 11
1208.866118
 21
621.5569
 31
0.0
  0
ARC
  8
LC-002-002-----0
  6
CONTINUOUS
  5
4AD
 10
1210.866097
 20
589.12253
 30
0.0
 40
41.0
 50
79.660072
 51
100.339835
  0
LINE
  8
LC-002-002-----0
  6
DASHDOT
 62
     2
  5
4AE
 10
724.092178
 20
603.311139
 30
0.0
 11
724.092178
 21
630.811139
 31
0.0
  0
LINE
  8
LC-002-002-----0
  6
CONTINUOUS
  5
4AF
 10
714.592178
 20
603.311139
 30
0.0
 11
714.592178
 21
619.995507
 31
0.0
  0
ARC
  8
LC-002-002-----0
  6
CONTINUOUS
  5
4B0
 10
719.592178
 20
624.194486
 30
0.0
 40
2.0
 50
280.339949
 51
0.0
  0
ARC
  8
LC-002-002-----0
  6
CONTINUOUS
  5
4B1
 10
712.592178
 20
587.561138
 30
0.0
 40
41.0
 50
79.660109
 51
100.339891
  0
ARC
  8
LC-002-002-----0
  6
CONTINUOUS
  5
4B2
 10
705.592178
 20
625.927791
 30
0.0
 40
2.0
 50
100.339872
 51
180.0
  0
ARC
  8
LC-002-002-----0
  6
CONTINUOUS
  5
4B3
 10
712.592178
 20
662.561139
 30
0.0
 40
41.0
 50
259.660109
 51
280.339949
  0
ARC
  8
LC-002-002-----0
  6
CONTINUOUS
  5
4B4
 10
705.592178
 20
624.194486
 30
0.0
 40
2.0
 50
180.0
 51
259.659957
  0
ARC
  8
LC-002-002-----0
  6
CONTINUOUS
  5
4B5
 10
705.592178
 20
626.09137
 30
0.0
 40
2.0
 50
106.726782
 51
180.0
  0
ARC
  8
LC-002-002-----0
  6
CONTINUOUS
  5
4B6
 10
705.592178
 20
624.030907
 30
0.0
 40
2.0
 50
180.0
 51
253.273047
  0
LINE
  8
LC-002-002-----0
  6
CONTINUOUS
  5
4B7
 10
703.592178
 20
624.030907
 30
0.0
 11
703.592178
 21
626.09137
 31
0.0
  0
LINE
  8
LC-002-002-----0
  6
CONTINUOUS
  5
4B8
 10
733.592382
 20
603.311306
 30
0.0
 11
733.592393
 21
619.995675
 31
0.0
  0
ARC
  8
LC-002-002-----0
  6
CONTINUOUS
  5
4B9
 10
735.592371
 20
587.561305
 30
0.0
 40
41.0
 50
79.660072
 51
100.339835
  0
ARC
  8
LC-002-002-----0
  6
CONTINUOUS
  5
4BA
 10
728.592397
 20
625.927961
 30
0.0
 40
2.0
 50
100.339835
 51
179.999963
  0
ARC
  8
LC-002-002-----0
  6
CONTINUOUS
  5
4BB
 10
728.592395
 20
624.194657
 30
0.0
 40
2.0
 50
179.999963
 51
259.659995
  0
ARC
  8
LC-002-002-----0
  6
CONTINUOUS
  5
4BC
 10
735.59242
 20
662.561305
 30
0.0
 40
41.0
 50
259.65992
 51
280.339853
  0
ARC
  8
LC-002-002-----0
  6
CONTINUOUS
  5
4BD
 10
742.592397
 20
625.927952
 30
0.0
 40
2.0
 50
359.999963
 51
79.659997
  0
ARC
  8
LC-002-002-----0
  6
CONTINUOUS
  5
4BE
 10
724.092178
 20
564.532292
 30
0.0
 40
66.278846
 50
73.273199
 51
106.726782
  0
ARC
  8
LC-002-002-----0
  6
CONTINUOUS
  5
4BF
 10
742.592178
 20
626.09137
 30
0.0
 40
2.0
 50
0.0
 51
73.273199
  0
ARC
  8
LC-002-002-----0
  6
CONTINUOUS
  5
4C0
 10
742.592395
 20
624.194648
 30
0.0
 40
2.0
 50
280.339912
 51
359.999963
  0
ARC
  8
LC-002-002-----0
  6
CONTINUOUS
  5
4C1
 10
724.092178
 20
685.589985
 30
0.0
 40
66.278846
 50
253.273047
 51
286.726801
  0
ARC
  8
LC-002-002-----0
  6
CONTINUOUS
  5
4C2
 10
742.592178
 20
624.030907
 30
0.0
 40
2.0
 50
286.72686
 51
0.0
  0
LINE
  8
LC-002-002-----0
  6
CONTINUOUS
  5
4C3
 10
744.592178
 20
624.030907
 30
0.0
 11
744.592178
 21
626.09137
 31
0.0
  0
ARC
  8
LC-002-002-----0
  6
CONTINUOUS
  5
4C4
 10
719.592178
 20
625.927791
 30
0.0
 40
2.0
 50
0.0
 51
79.660109
  0
ARC
  8
LC-002-002-----0
  6
CONTINUOUS
  5
4C5
 10
722.592178
 20
626.561139
 30
0.0
 40
1.0
 50
90.0
 51
179.999848
  0
LINE
  8
LC-002-002-----0
  6
CONTINUOUS
  5
4C6
 10
725.592178
 20
627.561139
 30
0.0
 11
722.592178
 21
627.561139
 31
0.0
  0
ARC
  8
LC-002-002-----0
  6
CONTINUOUS
  5
4C7
 10
725.592178
 20
626.561139
 30
0.0
 40
1.0
 50
0.0
 51
90.0
  0
LINE
  8
LC-002-002-----0
  6
CONTINUOUS
  5
4C8
 10
726.592178
 20
623.561139
 30
0.0
 11
726.592178
 21
626.561139
 31
0.0
  0
ARC
  8
LC-002-002-----0
  6
CONTINUOUS
  5
4C9
 10
725.592178
 20
623.561139
 30
0.0
 40
1.0
 50
270.000058
 51
0.0
  0
LINE
  8
LC-002-002-----0
  6
CONTINUOUS
  5
4CA
 10
721.592178
 20
626.561139
 30
0.0
 11
721.592178
 21
623.561139
 31
0.0
  0
ARC
  8
LC-002-002-----0
  6
CONTINUOUS
  5
4CB
 10
722.592178
 20
623.561139
 30
0.0
 40
1.0
 50
180.0
 51
270.000058
  0
LINE
  8
LC-002-002-----0
  6
CONTINUOUS
  5
4CC
 10
722.592178
 20
622.561139
 30
0.0
 11
725.592178
 21
622.561139
 31
0.0
  0
ARC
  8
LC-002-002-----0
  6
CONTINUOUS
  5
4CD
 10
1203.866122
 20
627.489187
 30
0.0
 40
2.0
 50
100.339835
 51
179.999963
  0
ARC
  8
LC-002-002-----0
  6
CONTINUOUS
  5
4CE
 10
1203.866121
 20
625.755882
 30
0.0
 40
2.0
 50
179.999963
 51
259.659995
  0
ARC
  8
LC-002-002-----0
  6
CONTINUOUS
  5
4CF
 10
1210.866146
 20
664.12253
 30
0.0
 40
41.0
 50
259.65992
 51
280.339853
  0
ARC
  8
LC-002-002-----0
  6
CONTINUOUS
  5
4D0
 10
1217.866122
 20
627.489178
 30
0.0
 40
2.0
 50
359.999963
 51
79.659997
  0
ARC
  8
LC-002-002-----0
  6
CONTINUOUS
  5
4D1
 10
1199.365904
 20
566.093518
 30
0.0
 40
66.278846
 50
73.273199
 51
106.726782
  0
ARC
  8
LC-002-002-----0
  6
CONTINUOUS
  5
4D2
 10
1217.865904
 20
627.652595
 30
0.0
 40
2.0
 50
0.0
 51
73.273199
  0
ARC
  8
LC-002-002-----0
  6
CONTINUOUS
  5
4D3
 10
1217.866121
 20
625.755873
 30
0.0
 40
2.0
 50
280.339912
 51
359.999963
  0
ARC
  8
LC-002-002-----0
  6
CONTINUOUS
  5
4D4
 10
1199.365904
 20
687.15121
 30
0.0
 40
66.278846
 50
253.273047
 51
286.726801
  0
ARC
  8
LC-002-002-----0
  6
CONTINUOUS
  5
4D5
 10
1217.865904
 20
625.592132
 30
0.0
 40
2.0
 50
286.72686
 51
0.0
  0
LINE
  8
LC-002-002-----0
  6
CONTINUOUS
  5
4D6
 10
1219.865904
 20
625.592132
 30
0.0
 11
1219.865904
 21
627.652595
 31
0.0
  0
ARC
  8
LC-002-002-----0
  6
CONTINUOUS
  5
4D7
 10
1194.865904
 20
627.489016
 30
0.0
 40
2.0
 50
0.0
 51
79.660109
  0
ARC
  8
LC-002-002-----0
  6
CONTINUOUS
  5
4D8
 10
1197.865904
 20
628.122364
 30
0.0
 40
1.0
 50
90.0
 51
179.999848
  0
LINE
  8
LC-002-002-----0
  6
CONTINUOUS
  5
4D9
 10
1200.865904
 20
629.122364
 30
0.0
 11
1197.865904
 21
629.122364
 31
0.0
  0
ARC
  8
LC-002-002-----0
  6
CONTINUOUS
  5
4DA
 10
1200.865904
 20
628.122364
 30
0.0
 40
1.0
 50
0.0
 51
90.0
  0
LINE
  8
LC-002-002-----0
  6
CONTINUOUS
  5
4DB
 10
1201.865904
 20
625.122364
 30
0.0
 11
1201.865904
 21
628.122364
 31
0.0
  0
ARC
  8
LC-002-002-----0
  6
CONTINUOUS
  5
4DC
 10
1200.865904
 20
625.122364
 30
0.0
 40
1.0
 50
270.000058
 51
0.0
  0
LINE
  8
LC-002-002-----0
  6
CONTINUOUS
  5
4DD
 10
1196.865904
 20
628.122364
 30
0.0
 11
1196.865904
 21
625.122364
 31
0.0
  0
ARC
  8
LC-002-002-----0
  6
CONTINUOUS
  5
4DE
 10
1197.865904
 20
625.122364
 30
0.0
 40
1.0
 50
180.0
 51
270.000058
  0
LINE
  8
LC-002-002-----0
  6
CONTINUOUS
  5
4DF
 10
1197.865904
 20
624.122364
 30
0.0
 11
1200.865904
 21
624.122364
 31
0.0
  0
LINE
  8
LC-002-002-----0
  6
CONTINUOUS
  5
4E0
 10
1139.850584
 20
708.887894
 30
0.0
 11
1139.850584
 21
618.872364
 31
0.0
  0
LINE
  8
LC-002-002-----0
  6
CONTINUOUS
  5
4E1
 10
1150.850584
 20
619.24882
 30
0.0
 11
1150.850584
 21
725.811138
 31
0.0
  0
LINE
  8
LC-002-002-----0
  6
CONTINUOUS
  5
4E2
 10
1050.850584
 20
619.24882
 30
0.0
 11
1050.850584
 21
725.811138
 31
0.0
  0
LINE
  8
LC-002-002-----0
  6
CONTINUOUS
  5
4E3
 10
1148.850584
 20
727.811138
 30
0.0
 11
1052.850584
 21
727.811138
 31
0.0
  0
LINE
  8
LC-002-002-----0
  6
CONTINUOUS
  5
4E4
 10
1150.850584
 20
690.311138
 30
0.0
 11
1142.850584
 21
690.311138
 31
0.0
  0
LINE
  8
LC-002-002-----0
  6
CONTINUOUS
  5
4E5
 10
1140.850584
 20
709.311138
 30
0.0
 11
1140.399337
 21
709.311138
 31
0.0
  0
LINE
  8
LC-002-002-----0
  6
CONTINUOUS
  5
4E6
 10
1060.850584
 20
692.311138
 30
0.0
 11
1060.850584
 21
709.311138
 31
0.0
  0
LINE
  8
LC-002-002-----0
  6
CONTINUOUS
  5
4E7
 10
1140.850584
 20
692.311138
 30
0.0
 11
1140.850584
 21
709.311138
 31
0.0
  0
LINE
  8
LC-002-002-----0
  6
CONTINUOUS
  5
4E8
 10
1147.850584
 20
690.311138
 30
0.0
 11
1147.850584
 21
618.872364
 31
0.0
  0
LINE
  8
LC-002-002-----0
  6
DASHDOT
 62
     2
  5
4E9
 10
1143.850584
 20
690.311138
 30
0.0
 11
1143.850584
 21
619.668516
 31
0.0
  0
LINE
  8
LC-002-002-----0
  6
CONTINUOUS
  5
4EA
 10
1136.850584
 20
619.24882
 30
0.0
 11
1136.850584
 21
625.585486
 31
0.0
  0
ARC
  8
LC-009-002-RND-0
  6
CONTINUOUS
  5
4EB
 10
1088.913084
 20
635.768137
 30
0.0
 40
1.0
 50
230.048666
 51
309.951334
  0
ARC
  8
LC-002-002-----0
  6
CONTINUOUS
  5
4EC
 10
1070.850584
 20
704.043312
 30
0.0
 40
10.0
 50
37.275791
 51
142.724209
  0
ARC
  8
LC-002-002-----0
  6
CONTINUOUS
  5
4ED
 10
1110.850584
 20
704.043312
 30
0.0
 40
10.0
 50
37.275791
 51
142.724209
  0
ARC
  8
LC-002-002-----0
  6
CONTINUOUS
  5
4EE
 10
1130.850584
 20
704.043312
 30
0.0
 40
10.0
 50
37.275791
 51
142.724209
  0
LINE
  8
LC-002-002-----0
  6
CONTINUOUS
  5
4EF
 10
1121.30183
 20
709.311138
 30
0.0
 11
1120.399337
 21
709.311138
 31
0.0
  0
LINE
  8
LC-002-002-----0
  6
CONTINUOUS
  5
4F0
 10
1061.850584
 20
708.887894
 30
0.0
 11
1139.850584
 21
708.887894
 31
0.0
  0
LINE
  8
LC-002-002-----0
  6
CONTINUOUS
  5
4F1
 10
1140.730891
 20
709.311138
 30
0.0
 11
1140.070128
 21
709.311138
 31
0.0
  0
ARC
  8
LC-002-002-----0
  6
CONTINUOUS
  5
4F2
 10
1076.975584
 20
621.517013
 30
0.0
 40
14.59
 50
48.708137
 51
117.578468
  0
ARC
  8
LC-002-002-----0
  6
CONTINUOUS
  5
4F3
 10
1090.850584
 20
704.043312
 30
0.0
 40
10.0
 50
37.275791
 51
142.724209
  0
LINE
  8
LC-002-002-----0
  6
CONTINUOUS
  5
4F4
 10
1140.850584
 20
709.311138
 30
0.0
 11
1140.399337
 21
709.311138
 31
0.0
  0
ARC
  8
LC-009-002-RND-0
  6
CONTINUOUS
  5
4F5
 10
1088.913084
 20
635.109077
 30
0.0
 40
3.5
 50
228.708137
 51
311.291863
  0
ARC
  8
LC-009-002-RND-0
  6
CONTINUOUS
  5
4F6
 10
1065.850584
 20
636.411066
 30
0.0
 40
1.0
 50
180.0
 51
306.757614
  0
LINE
  8
LC-002-002-----0
  6
CONTINUOUS
  5
4F7
 10
1058.850584
 20
690.311138
 30
0.0
 11
1050.850584
 21
690.311138
 31
0.0
  0
ARC
  8
LC-002-002-----0
  6
CONTINUOUS
  5
4F8
 10
1052.850584
 20
725.811138
 30
0.0
 40
2.0
 50
90.0
 51
180.0
  0
ARC
  8
LC-009-002-RND-0
  6
CONTINUOUS
  5
4F9
 10
1148.850584
 20
725.811138
 30
0.0
 40
2.0
 50
0.0
 51
90.0
  0
ARC
  8
LC-009-002-RND-0
  6
CONTINUOUS
  5
4FA
 10
1058.850584
 20
692.311138
 30
0.0
 40
2.0
 50
270.0
 51
0.0
  0
ARC
  8
LC-009-002-RND-0
  6
CONTINUOUS
  5
4FB
 10
1142.850584
 20
692.311138
 30
0.0
 40
2.0
 50
180.0
 51
270.0
  0
LINE
  8
LC-002-002-----0
  6
CONTINUOUS
  5
4FC
 10
1101.30183
 20
709.311138
 30
0.0
 11
1100.399337
 21
709.311138
 31
0.0
  0
LINE
  8
LC-002-002-----0
  6
CONTINUOUS
  5
4FD
 10
1081.30183
 20
709.311138
 30
0.0
 11
1080.399337
 21
709.311138
 31
0.0
  0
LINE
  8
LC-002-002-----0
  6
CONTINUOUS
  5
4FE
 10
1061.30183
 20
709.311138
 30
0.0
 11
1060.850584
 21
709.311138
 31
0.0
  0
ARC
  8
LC-009-002-RND-0
  6
CONTINUOUS
  5
4FF
 10
1080.399337
 20
711.311138
 30
0.0
 40
2.0
 50
217.275791
 51
270.0
  0
ARC
  8
LC-009-002-RND-0
  6
CONTINUOUS
  5
500
 10
1081.30183
 20
711.311138
 30
0.0
 40
2.0
 50
270.0
 51
322.724209
  0
ARC
  8
LC-009-002-RND-0
  6
CONTINUOUS
  5
501
 10
1100.399337
 20
711.311138
 30
0.0
 40
2.0
 50
217.275791
 51
270.0
  0
ARC
  8
LC-009-002-RND-0
  6
CONTINUOUS
  5
502
 10
1101.30183
 20
711.311138
 30
0.0
 40
2.0
 50
270.0
 51
322.724209
  0
ARC
  8
LC-009-002-RND-0
  6
CONTINUOUS
  5
503
 10
1120.399337
 20
711.311138
 30
0.0
 40
2.0
 50
217.275791
 51
270.0
  0
ARC
  8
LC-009-002-RND-0
  6
CONTINUOUS
  5
504
 10
1061.30183
 20
711.311138
 30
0.0
 40
2.0
 50
270.0
 51
322.724209
  0
LINE
  8
LC-002-002-----0
  6
CONTINUOUS
  5
505
 10
1064.850584
 20
636.411066
 30
0.0
 11
1064.850584
 21
708.887894
 31
0.0
  0
ARC
  8
LC-009-002-RND-0
  6
CONTINUOUS
  5
506
 10
1121.30183
 20
711.311138
 30
0.0
 40
2.0
 50
270.0
 51
322.724209
  0
ARC
  8
LC-009-002-RND-0
  6
CONTINUOUS
  5
507
 10
1140.399337
 20
711.311138
 30
0.0
 40
2.0
 50
217.275791
 51
270.0
  0
ARC
  8
LC-002-002-----0
  6
CONTINUOUS
  5
508
 10
1100.850584
 20
621.517013
 30
0.0
 40
17.590278
 50
50.048666
 51
129.951334
  0
ARC
  8
LC-009-002-RND-0
  6
CONTINUOUS
  5
509
 10
1074.850584
 20
625.585486
 30
0.0
 40
10.0
 50
117.578468
 51
180.0
  0
ARC
  8
LC-002-002-----0
  6
CONTINUOUS
  5
50A
 10
1100.850584
 20
621.517013
 30
0.0
 40
14.59
 50
48.708137
 51
131.291863
  0
ARC
  8
LC-002-002-----0
  6
CONTINUOUS
  5
50B
 10
1076.975584
 20
621.517013
 30
0.0
 40
17.590278
 50
50.048666
 51
126.757614
  0
ARC
  8
LC-009-002-RND-0
  6
CONTINUOUS
  5
50C
 10
1112.788084
 20
635.768137
 30
0.0
 40
1.0
 50
230.048666
 51
309.951334
  0
ARC
  8
LC-009-002-RND-0
  6
CONTINUOUS
  5
50D
 10
1112.788084
 20
635.109077
 30
0.0
 40
3.5
 50
228.708137
 51
311.291863
  0
ARC
  8
LC-002-002-----0
  6
CONTINUOUS
  5
50E
 10
1124.725584
 20
621.517013
 30
0.0
 40
17.590278
 50
53.242386
 51
129.951334
  0
ARC
  8
LC-002-002-----0
  6
CONTINUOUS
  5
50F
 10
1124.725584
 20
621.517013
 30
0.0
 40
14.59
 50
62.421532
 51
131.291863
  0
ARC
  8
LC-009-002-RND-0
  6
CONTINUOUS
  5
510
 10
1126.850584
 20
625.585486
 30
0.0
 40
10.0
 50
0.0
 51
62.421532
  0
ARC
  8
LC-009-002-RND-0
  6
CONTINUOUS
  5
511
 10
1135.850584
 20
636.411066
 30
0.0
 40
1.0
 50
233.242386
 51
0.0
  0
LINE
  8
LC-002-002-----0
  6
CONTINUOUS
  5
512
 10
1136.850584
 20
636.411066
 30
0.0
 11
1136.850584
 21
708.887894
 31
0.0
  0
LINE
  8
LC-002-002-----0
  6
CONTINUOUS
  5
513
 10
1061.850584
 20
619.24882
 30
0.0
 11
1064.850584
 21
619.24882
 31
0.0
  0
LINE
  8
LC-002-002-----0
  6
CONTINUOUS
  5
514
 10
1150.850584
 20
619.24882
 30
0.0
 11
1147.850584
 21
619.24882
 31
0.0
  0
ARC
  8
LC-009-002-RND-0
  6
CONTINUOUS
  5
515
 10
1067.350584
 20
618.372364
 30
0.0
 40
0.5
 50
0.0
 51
90.0
  0
LINE
  8
LC-002-002-----0
  6
CONTINUOUS
  5
516
 10
1067.850584
 20
618.372364
 30
0.0
 11
1067.850584
 21
612.872364
 31
0.0
  0
ARC
  8
LC-009-002-RND-0
  6
CONTINUOUS
  5
517
 10
1068.850584
 20
612.872364
 30
0.0
 40
1.0
 50
180.0
 51
270.0
  0
LINE
  8
LC-002-002-----0
  6
CONTINUOUS
  5
518
 10
1048.350584
 20
618.872364
 30
0.0
 11
1067.350584
 21
618.872364
 31
0.0
  0
ARC
  8
LC-009-002-RND-0
  6
CONTINUOUS
  5
519
 10
1048.350584
 20
618.372364
 30
0.0
 40
0.5
 50
90.0
 51
180.0
  0
LINE
  8
LC-009-002-RND-0
  6
CONTINUOUS
  5
51A
 10
1047.850584
 20
618.372364
 30
0.0
 11
1047.850584
 21
612.872364
 31
0.0
  0
ARC
  8
LC-009-002-RND-0
  6
CONTINUOUS
  5
51B
 10
1046.850584
 20
612.872364
 30
0.0
 40
1.0
 50
270.0
 51
0.0
  0
LINE
  8
LC-002-002-----0
  6
CONTINUOUS
  5
51C
 10
1050.850584
 20
619.24882
 30
0.0
 11
1053.850584
 21
619.24882
 31
0.0
  0
LINE
  8
LC-002-002-----0
  6
CONTINUOUS
  5
51D
 10
1139.850584
 20
619.24882
 30
0.0
 11
1136.850584
 21
619.24882
 31
0.0
  0
ARC
  8
LC-009-002-RND-0
  6
CONTINUOUS
  5
51E
 10
1153.350584
 20
618.372364
 30
0.0
 40
0.5
 50
0.0
 51
90.0
  0
ARC
  8
LC-009-002-RND-0
  6
CONTINUOUS
  5
51F
 10
1134.350584
 20
618.372364
 30
0.0
 40
0.5
 50
90.0
 51
180.0
  0
LINE
  8
LC-002-002-----0
  6
CONTINUOUS
  5
520
 10
1153.350584
 20
618.872364
 30
0.0
 11
1134.350584
 21
618.872364
 31
0.0
  0
LINE
  8
LC-002-002-----0
  6
CONTINUOUS
  5
521
 10
1133.850584
 20
618.372364
 30
0.0
 11
1133.850584
 21
612.872364
 31
0.0
  0
LINE
  8
LC-009-002-RND-0
  6
CONTINUOUS
  5
522
 10
1153.850584
 20
618.372364
 30
0.0
 11
1153.850584
 21
612.872364
 31
0.0
  0
ARC
  8
LC-009-002-RND-0
  6
CONTINUOUS
  5
523
 10
1132.850584
 20
612.872364
 30
0.0
 40
1.0
 50
270.0
 51
0.0
  0
ARC
  8
LC-009-002-RND-0
  6
CONTINUOUS
  5
524
 10
1154.850584
 20
612.872364
 30
0.0
 40
1.0
 50
180.0
 51
270.0
  0
ENDSEC
  0
EOF
