  0
SECTION
  2
HEADER
  9
$ACADVER
  1
AC1015
  9
$ACADMAINTVER
 70
     6
  9
$DWGCODEPAGE
  3
ANSI_1252
  9
$INSBASE
 10
0.0
 20
0.0
 30
0.0
  9
$EXTMIN
 10
-210.0
 20
-148.5
 30
0.0
  9
$EXTMAX
 10
630.0
 20
445.5
 30
0.0
  9
$LIMMIN
 10
-210.0
 20
-148.5
  9
$LIMMAX
 10
630.0
 20
445.5
  9
$ORTHOMODE
 70
     0
  9
$REGENMODE
 70
     1
  9
$FILLMODE
 70
     1
  9
$QTEXTMODE
 70
     0
  9
$MIRRTEXT
 70
     1
  9
$LTSCALE
 40
2.0
  9
$ATTMODE
 70
     1
  9
$TEXTSIZE
 40
2.5
  9
$TRACEWID
 40
1.0
  9
$TEXTSTYLE
  7
Standard
  9
$CLAYER
  8
0
  9
$CELTYPE
  6
ByLayer
  9
$CECOLOR
 62
     7
  9
$CELTSCALE
 40
1.0
  9
$DISPSILH
 70
     0
  9
$DIMSCALE
 40
2.0
  9
$DIMASZ
 40
3.5
  9
$DIMEXO
 40
0.625
  9
$DIMDLI
 40
3.75
  9
$DIMRND
 40
0.0
  9
$DIMDLE
 40
0.0
  9
$DIMEXE
 40
1.25
  9
$DIMTP
 40
0.0
  9
$DIMTM
 40
0.0
  9
$DIMTXT
 40
3.5
  9
$DIMCEN
 40
2.5
  9
$DIMTSZ
 40
0.0
  9
$DIMTOL
 70
     0
  9
$DIMLIM
 70
     0
  9
$DIMTIH
 70
     0
  9
$DIMTOH
 70
     0
  9
$DIMSE1
 70
     0
  9
$DIMSE2
 70
     0
  9
$DIMTAD
 70
     1
  9
$DIMZIN
 70
     8
  9
$DIMBLK
  1

  9
$DIMASO
 70
     1
  9
$DIMSHO
 70
     1
  9
$DIMPOST
  1

  9
$DIMAPOST
  1

  9
$DIMALT
 70
     0
  9
$DIMALTD
 70
     3
  9
$DIMALTF
 40
0.03937
  9
$DIMLFAC
 40
1.0
  9
$DIMTOFL
 70
     1
  9
$DIMTVP
 40
0.0
  9
$DIMTIX
 70
     0
  9
$DIMSOXD
 70
     0
  9
$DIMSAH
 70
     0
  9
$DIMBLK1
  1

  9
$DIMBLK2
  1

  9
$DIMSTYLE
  2
ISO-25
  9
$DIMCLRD
 70
     0
  9
$DIMCLRE
 70
     0
  9
$DIMCLRT
 70
     0
  9
$DIMTFAC
 40
1.0
  9
$DIMGAP
 40
0.625
  9
$DIMJUST
 70
     0
  9
$DIMSD1
 70
     0
  9
$DIMSD2
 70
     0
  9
$DIMTOLJ
 70
     0
  9
$DIMTZIN
 70
     8
  9
$DIMALTZ
 70
     0
  9
$DIMALTTZ
 70
     0
  9
$DIMUPT
 70
     0
  9
$DIMDEC
 70
     2
  9
$DIMTDEC
 70
     2
  9
$DIMALTU
 70
     2
  9
$DIMALTTD
 70
     3
  9
$DIMTXSTY
  7
Standard
  9
$DIMAUNIT
 70
     0
  9
$DIMADEC
 70
     0
  9
$DIMALTRND
 40
0.0
  9
$DIMAZIN
 70
     0
  9
$DIMDSEP
 70
    44
  9
$DIMATFIT
 70
     3
  9
$DIMFRAC
 70
     0
  9
$DIMLDRBLK
  1

  9
$DIMLUNIT
 70
     2
  9
$DIMLWD
 70
    -2
  9
$DIMLWE
 70
    -2
  9
$DIMTMOVE
 70
     0
  9
$LUNITS
 70
     2
  9
$LUPREC
 70
     4
  9
$SKETCHINC
 40
1.0
  9
$FILLETRAD
 40
10.0
  9
$AUNITS
 70
     0
  9
$AUPREC
 70
     0
  9
$MENU
  1
.
  9
$ELEVATION
 40
0.0
  9
$PELEVATION
 40
0.0
  9
$THICKNESS
 40
0.0
  9
$LIMCHECK
 70
     0
  9
$CHAMFERA
 40
10.0
  9
$CHAMFERB
 40
10.0
  9
$CHAMFERC
 40
20.0
  9
$CHAMFERD
 40
0.0
  9
$SKPOLY
 70
     0
  9
$TDCREATE
 40
2455285.432201493
  9
$TDUCREATE
 40
2455285.34886816
  9
$TDUPDATE
 40
2455285.432201505
  9
$TDUUPDATE
 40
2455285.348868171
  9
$TDINDWG
 40
0.0000000116
  9
$TDUSRTIMER
 40
0.0000000116
  9
$USRTIMER
 70
     1
  9
$ANGBASE
 50
0.0
  9
$ANGDIR
 70
     0
  9
$PDMODE
 70
     0
  9
$PDSIZE
 40
0.0
  9
$PLINEWID
 40
0.0
  9
$SPLFRAME
 70
     0
  9
$SPLINETYPE
 70
     6
  9
$SPLINESEGS
 70
     8
  9
$HANDSEED
  5
308
  9
$SURFTAB1
 70
     6
  9
$SURFTAB2
 70
     6
  9
$SURFTYPE
 70
     6
  9
$SURFU
 70
     6
  9
$SURFV
 70
     6
  9
$UCSBASE
  2

  9
$UCSNAME
  2

  9
$UCSORG
 10
0.0
 20
0.0
 30
0.0
  9
$UCSXDIR
 10
1.0
 20
0.0
 30
0.0
  9
$UCSYDIR
 10
0.0
 20
1.0
 30
0.0
  9
$UCSORTHOREF
  2

  9
$UCSORTHOVIEW
 70
     0
  9
$UCSORGTOP
 10
0.0
 20
0.0
 30
0.0
  9
$UCSORGBOTTOM
 10
0.0
 20
0.0
 30
0.0
  9
$UCSORGLEFT
 10
0.0
 20
0.0
 30
0.0
  9
$UCSORGRIGHT
 10
0.0
 20
0.0
 30
0.0
  9
$UCSORGFRONT
 10
0.0
 20
0.0
 30
0.0
  9
$UCSORGBACK
 10
0.0
 20
0.0
 30
0.0
  9
$PUCSBASE
  2

  9
$PUCSNAME
  2

  9
$PUCSORG
 10
0.0
 20
0.0
 30
0.0
  9
$PUCSXDIR
 10
1.0
 20
0.0
 30
0.0
  9
$PUCSYDIR
 10
0.0
 20
1.0
 30
0.0
  9
$PUCSORTHOREF
  2

  9
$PUCSORTHOVIEW
 70
     0
  9
$PUCSORGTOP
 10
0.0
 20
0.0
 30
0.0
  9
$PUCSORGBOTTOM
 10
0.0
 20
0.0
 30
0.0
  9
$PUCSORGLEFT
 10
0.0
 20
0.0
 30
0.0
  9
$PUCSORGRIGHT
 10
0.0
 20
0.0
 30
0.0
  9
$PUCSORGFRONT
 10
0.0
 20
0.0
 30
0.0
  9
$PUCSORGBACK
 10
0.0
 20
0.0
 30
0.0
  9
$USERI1
 70
     0
  9
$USERI2
 70
     0
  9
$USERI3
 70
     0
  9
$USERI4
 70
     0
  9
$USERI5
 70
     0
  9
$USERR1
 40
0.0
  9
$USERR2
 40
0.0
  9
$USERR3
 40
0.0
  9
$USERR4
 40
0.0
  9
$USERR5
 40
0.0
  9
$WORLDVIEW
 70
     1
  9
$SHADEDGE
 70
     3
  9
$SHADEDIF
 70
    70
  9
$TILEMODE
 70
     1
  9
$MAXACTVP
 70
    64
  9
$PINSBASE
 10
0.0
 20
0.0
 30
0.0
  9
$PLIMCHECK
 70
     0
  9
$PEXTMIN
 10
-210.0
 20
-148.5
 30
0.0
  9
$PEXTMAX
 10
630.0
 20
445.5
 30
0.0
  9
$PLIMMIN
 10
-210.0
 20
-148.5
  9
$PLIMMAX
 10
630.0
 20
445.5
  9
$UNITMODE
 70
     0
  9
$VISRETAIN
 70
     1
  9
$PLINEGEN
 70
     0
  9
$PSLTSCALE
 70
     1
  9
$TREEDEPTH
 70
  3020
  9
$CMLSTYLE
  2
Standard
  9
$CMLJUST
 70
     0
  9
$CMLSCALE
 40
20.0
  9
$PROXYGRAPHICS
 70
     1
  9
$MEASUREMENT
 70
     1
  9
$CELWEIGHT
370
    -1
  9
$ENDCAPS
280
     0
  9
$JOINSTYLE
280
     0
  9
$LWDISPLAY
290
     0
  9
$INSUNITS
 70
     4
  9
$HYPERLINKBASE
  1

  9
$STYLESHEET
  1

  9
$XEDIT
290
     1
  9
$CEPSNTYPE
380
     0
  9
$PSTYLEMODE
290
     1
  9
$FINGERPRINTGUID
  2
{FAEB1C30-E019-11D5-929B-00C0DF256EC4}
  9
$VERSIONGUID
  2
{FAEB1C32-E019-11D5-929B-00C0DF256EC4}
  9
$EXTNAMES
290
     1
  9
$PSVPSCALE
 40
0.0
  9
$OLESTARTUP
290
     0
  0
ENDSEC
  0
SECTION
  2
CLASSES
  0
CLASS
  1
ACDBDICTIONARYWDFLT
  2
AcDbDictionaryWithDefault
  3
ObjectDBX Classes
 90
        0
280
     0
281
     0
  0
CLASS
  1
ACDBPLACEHOLDER
  2
AcDbPlaceHolder
  3
ObjectDBX Classes
 90
        0
280
     0
281
     0
  0
CLASS
  1
LAYOUT
  2
AcDbLayout
  3
ObjectDBX Classes
 90
        0
280
     0
281
     0
  0
ENDSEC
  0
SECTION
  2
TABLES
  0
TABLE
  2
VPORT
  5
8
330
0
100
AcDbSymbolTable
 70
     2
  0
VPORT
  5
29
330
8
100
AcDbSymbolTableRecord
100
AcDbViewportTableRecord
  2
*ACTIVE
 70
     0
 10
0.0
 20
0.0
 11
1.0
 21
1.0
 12
210.0
 22
148.5
 13
0.0
 23
0.0
 14
1.0
 24
1.0
 15
0.0
 25
0.0
 16
0.0
 26
0.0
 36
1.0
 17
0.0
 27
0.0
 37
0.0
 40
594.0
 41
1.414141
 42
50.0
 43
0.0
 44
0.0
 50
0.0
 51
0.0
 71
    16
 72
   100
 73
     1
 74
     0
 75
     0
 76
     0
 77
     0
 78
     0
281
     0
 65
     0
110
0.0
120
0.0
130
0.0
111
1.0
121
0.0
131
0.0
112
0.0
122
1.0
132
0.0
 79
     0
146
0.0
  0
ENDTAB
  0
TABLE
  2
LTYPE
  5
5
330
0
100
AcDbSymbolTable
 70
     3
  0
LTYPE
  5
14
330
5
100
AcDbSymbolTableRecord
100
AcDbLinetypeTableRecord
  2
ByBlock
 70
     0
  3

 72
    65
 73
     0
 40
0.0
  0
LTYPE
  5
15
330
5
100
AcDbSymbolTableRecord
100
AcDbLinetypeTableRecord
  2
ByLayer
 70
     0
  3

 72
    65
 73
     0
 40
0.0
  0
LTYPE
  5
16
330
5
100
AcDbSymbolTableRecord
100
AcDbLinetypeTableRecord
  2
Continuous
 70
     0
  3
Solid line
 72
    65
 73
     0
 40
0.0
  0
LTYPE
  5
2A
330
5
100
AcDbSymbolTableRecord
100
AcDbLinetypeTableRecord
  2
DASHED
 70
     0
  3
__ __ __ __ __
 72
    65
 73
     2
 40
6.25
 49
5.0
 74
     4
 75
     0
340
0
 46
1.0
 50
0.0
 44
0.0
 45
0.0
 49
-1.25
 74
     4
 75
     0
340
0
 46
1.0
 50
0.0
 44
0.0
 45
0.0
  0
LTYPE
  5
30
330
5
100
AcDbSymbolTableRecord
100
AcDbLinetypeTableRecord
  2
DASHDOT
 70
     0
  3
__ . __ . __ . __ . __
 72
    65
 73
     4
 40
7.5
 49
5.0
 74
     4
 75
     0
340
0
 46
1.0
 50
0.0
 44
0.0
 45
0.0
 49
-1.25
 74
     4
 75
     0
340
0
 46
1.0
 50
0.0
 44
0.0
 45
0.0
 49
0.0
 74
     4
 75
     0
340
0
 46
1.0
 50
0.0
 44
0.0
 45
0.0
 49
-1.25
 74
     4
 75
     0
340
0
 46
1.0
 50
0.0
 44
0.0
 45
0.0
  0
ENDTAB
  0
TABLE
  2
LAYER
  5
2
330
0
100
AcDbSymbolTable
 70
     9
  0
LAYER
  5
10
330
2
100
AcDbSymbolTableRecord
100
AcDbLayerTableRecord
  2
0
 70
     0
 62
     7
  6
Continuous
370
    -3
390
F
  0
LAYER
  5
2B
330
2
100
AcDbSymbolTableRecord
100
AcDbLayerTableRecord
  2
LC-INFO-1-2-mm-A3-0
 70
     1
 62
     7
  6
ByBlock
370
    -3
390
F
  0
LAYER
  5
2C
330
2
100
AcDbSymbolTableRecord
100
AcDbLayerTableRecord
  2
LC-CUT-HIDDEN
 70
     0
 62
     7
  6
DASHED
370
    -3
390
F
  0
LAYER
  5
2D
330
2
100
AcDbSymbolTableRecord
100
AcDbLayerTableRecord
  2
LC-VIEWPORT
 70
     0
 62
     7
  6
ByBlock
370
    -3
390
F
  0
LAYER
  5
2E
330
2
100
AcDbSymbolTableRecord
100
AcDbLayerTableRecord
  2
LC-3D-HIDDEN
 70
     0
 62
     9
  6
DASHED
370
    -3
390
F
  0
LAYER
  5
31
330
2
100
AcDbSymbolTableRecord
100
AcDbLayerTableRecord
  2
LC-001-002-----0
 70
     0
 62
     2
  6
DASHDOT
370
    -3
390
F
  0
LAYER
  5
33
330
2
100
AcDbSymbolTableRecord
100
AcDbLayerTableRecord
  2
LC-002-100-D00-0
 70
     0
 62
     1
  6
ByBlock
370
    -3
390
F
  0
LAYER
  5
2C4
330
2
100
AcDbSymbolTableRecord
100
AcDbLayerTableRecord
  2
LC-003-003-----0
 70
     0
 62
     2
  6
ByBlock
370
    -3
390
F
  0
LAYER
  5
2C6
330
2
100
AcDbSymbolTableRecord
100
AcDbLayerTableRecord
  2
Defpoints
 70
     0
 62
     7
  6
Continuous
290
     0
370
    -3
390
F
  0
ENDTAB
  0
TABLE
  2
STYLE
  5
3
330
0
100
AcDbSymbolTable
 70
     3
  0
STYLE
  5
11
330
3
100
AcDbSymbolTableRecord
100
AcDbTextStyleTableRecord
  2
Standard
 70
     0
 40
0.0
 41
1.0
 50
0.0
 71
     0
 42
2.5
  3
txt
  4

  0
STYLE
  5
2F
330
3
100
AcDbSymbolTableRecord
100
AcDbTextStyleTableRecord
  2
LCTX15-400-0-0-Arial
 70
     0
 40
0.0
 41
0.8
 50
0.0
 71
     0
 42
3.5
  3

  4

1001
ACAD
1000
Arial
1071
 16777218
  0
STYLE
  5
2C2
330
3
100
AcDbSymbolTableRecord
100
AcDbTextStyleTableRecord
  2
LCTX15-400-0-0pDIN-Schrift
 70
     0
 40
2.5
 41
0.8
 50
15.0
 71
     0
 42
3.5
  3
STANDARD
  4

  0
ENDTAB
  0
TABLE
  2
VIEW
  5
6
330
0
100
AcDbSymbolTable
 70
     0
  0
ENDTAB
  0
TABLE
  2
UCS
  5
7
330
0
100
AcDbSymbolTable
 70
     0
  0
ENDTAB
  0
TABLE
  2
APPID
  5
9
330
0
100
AcDbSymbolTable
 70
     1
  0
APPID
  5
12
330
9
100
AcDbSymbolTableRecord
100
AcDbRegAppTableRecord
  2
ACAD
 70
     0
  0
ENDTAB
  0
TABLE
  2
DIMSTYLE
  5
A
330
0
100
AcDbSymbolTable
 70
     2
100
AcDbDimStyleTable
  0
DIMSTYLE
105
27
330
A
100
AcDbSymbolTableRecord
100
AcDbDimStyleTableRecord
  2
ISO-25
 70
     0
 41
2.5
 42
0.625
 43
3.75
 44
1.25
 73
     0
 74
     0
 77
     1
 78
     8
140
2.5
141
2.5
143
0.03937
147
0.625
171
     3
172
     1
271
     2
272
     2
274
     3
278
    44
283
     0
284
     8
340
11
  0
DIMSTYLE
105
2C3
102
{ACAD_REACTORS
330
2C5
330
2D3
330
2E0
330
2EE
330
2FB
102
}
330
A
100
AcDbSymbolTableRecord
100
AcDbDimStyleTableRecord
  2
LC-DIM-L-0140-02-02
 70
     0
 40
2.0
 41
14.0
 42
0.0
 43
7.5
 44
1.8
 73
     0
 74
     0
 77
     1
 78
     8
 79
     2
140
14.0
141
0.0
146
0.71
147
1.5
176
     2
177
     2
178
     2
179
     2
271
     2
278
    44
289
     1
340
2C2
  0
ENDTAB
  0
TABLE
  2
BLOCK_RECORD
  5
1
330
0
100
AcDbSymbolTable
 70
    21
  0
BLOCK_RECORD
  5
1F
330
1
100
AcDbSymbolTableRecord
100
AcDbBlockTableRecord
  2
*Model_Space
340
22
  0
BLOCK_RECORD
  5
1B
330
1
100
AcDbSymbolTableRecord
100
AcDbBlockTableRecord
  2
*Paper_Space
340
1E
  0
BLOCK_RECORD
  5
23
330
1
100
AcDbSymbolTableRecord
100
AcDbBlockTableRecord
  2
*Paper_Space0
340
26
  0
BLOCK_RECORD
  5
BB
330
1
100
AcDbSymbolTableRecord
100
AcDbBlockTableRecord
  2
POLY1
340
0
102
{BLKREFS
331
CC
102
}
  0
BLOCK_RECORD
  5
CF
330
1
100
AcDbSymbolTableRecord
100
AcDbBlockTableRecord
  2
POLY2
340
0
102
{BLKREFS
331
E0
102
}
  0
BLOCK_RECORD
  5
130
330
1
100
AcDbSymbolTableRecord
100
AcDbBlockTableRecord
  2
POLY3
340
0
102
{BLKREFS
331
141
102
}
  0
BLOCK_RECORD
  5
145
330
1
100
AcDbSymbolTableRecord
100
AcDbBlockTableRecord
  2
POLY4
340
0
102
{BLKREFS
331
156
102
}
  0
BLOCK_RECORD
  5
1A1
330
1
100
AcDbSymbolTableRecord
100
AcDbBlockTableRecord
  2
POLY5
340
0
102
{BLKREFS
331
1B2
102
}
  0
BLOCK_RECORD
  5
1B3
330
1
100
AcDbSymbolTableRecord
100
AcDbBlockTableRecord
  2
POLY6
340
0
102
{BLKREFS
331
1C4
102
}
  0
BLOCK_RECORD
  5
1C8
330
1
100
AcDbSymbolTableRecord
100
AcDbBlockTableRecord
  2
POLY7
340
0
102
{BLKREFS
331
1D9
102
}
  0
BLOCK_RECORD
  5
1DA
330
1
100
AcDbSymbolTableRecord
100
AcDbBlockTableRecord
  2
POLY8
340
0
102
{BLKREFS
331
1EB
102
}
  0
BLOCK_RECORD
  5
22A
330
1
100
AcDbSymbolTableRecord
100
AcDbBlockTableRecord
  2
POLY9
340
0
102
{BLKREFS
331
23B
102
}
  0
BLOCK_RECORD
  5
23F
330
1
100
AcDbSymbolTableRecord
100
AcDbBlockTableRecord
  2
POLY10
340
0
102
{BLKREFS
331
250
102
}
  0
BLOCK_RECORD
  5
27B
330
1
100
AcDbSymbolTableRecord
100
AcDbBlockTableRecord
  2
KLON1
340
0
102
{BLKREFS
331
281
102
}
  0
BLOCK_RECORD
  5
282
330
1
100
AcDbSymbolTableRecord
100
AcDbBlockTableRecord
  2
KLON2
340
0
102
{BLKREFS
331
287
102
}
  0
BLOCK_RECORD
  5
288
330
1
100
AcDbSymbolTableRecord
100
AcDbBlockTableRecord
  2
KLON3
340
0
102
{BLKREFS
331
29A
102
}
  0
BLOCK_RECORD
  5
29B
330
1
100
AcDbSymbolTableRecord
100
AcDbBlockTableRecord
  2
KLON4
340
0
102
{BLKREFS
331
2AC
102
}
  0
BLOCK_RECORD
  5
2AD
330
1
100
AcDbSymbolTableRecord
100
AcDbBlockTableRecord
  2
KLON5
340
0
102
{BLKREFS
331
2BE
102
}
  0
BLOCK_RECORD
  5
2C7
330
1
100
AcDbSymbolTableRecord
100
AcDbBlockTableRecord
  2
*D16
340
0
  0
BLOCK_RECORD
  5
2D4
330
1
100
AcDbSymbolTableRecord
100
AcDbBlockTableRecord
  2
*D17
340
0
  0
BLOCK_RECORD
  5
2E1
330
1
100
AcDbSymbolTableRecord
100
AcDbBlockTableRecord
  2
*D18
340
0
  0
BLOCK_RECORD
  5
2EF
330
1
100
AcDbSymbolTableRecord
100
AcDbBlockTableRecord
  2
*D19
340
0
  0
BLOCK_RECORD
  5
2FC
330
1
100
AcDbSymbolTableRecord
100
AcDbBlockTableRecord
  2
*D20
340
0
  0
ENDTAB
  0
ENDSEC
  0
SECTION
  2
BLOCKS
  0
BLOCK
  5
20
330
1F
100
AcDbEntity
  8
0
100
AcDbBlockBegin
  2
*Model_Space
 70
     0
 71
     0
 10
0.0
 20
0.0
 30
0.0
  3
*Model_Space
  1

  0
ENDBLK
  5
21
330
1F
100
AcDbEntity
  8
0
100
AcDbBlockEnd
  0
BLOCK
  5
1C
330
1B
100
AcDbEntity
 67
     1
  8
0
100
AcDbBlockBegin
  2
*Paper_Space
 70
     0
 71
     0
 10
0.0
 20
0.0
 30
0.0
  3
*Paper_Space
  1

  0
ENDBLK
  5
1D
330
1B
100
AcDbEntity
 67
     1
  8
0
100
AcDbBlockEnd
  0
BLOCK
  5
24
330
23
100
AcDbEntity
  8
0
100
AcDbBlockBegin
  2
*Paper_Space0
 70
     0
 71
     0
 10
0.0
 20
0.0
 30
0.0
  3
*Paper_Space0
  1

  0
ENDBLK
  5
25
330
23
100
AcDbEntity
  8
0
100
AcDbBlockEnd
  0
BLOCK
  5
BC
330
BB
100
AcDbEntity
  8
0
100
AcDbBlockBegin
  2
POLY1
 70
     0
 71
     0
 10
0.0
 20
0.0
 30
0.0
  3
POLY1
  1

  4
POLY1
  0
LINE
  5
BE
330
BB
100
AcDbEntity
  8
LC-002-100-D00-0
 62
     7
370
    50
100
AcDbLine
 10
218.424561
 20
213.046771
 30
0.0
 11
218.424561
 21
213.046771
 31
0.0
  0
LINE
  5
BF
330
BB
100
AcDbEntity
  8
LC-002-100-D00-0
 62
     7
370
    50
100
AcDbLine
 10
218.424561
 20
213.046771
 30
0.0
 11
218.417634
 21
213.042602
 31
0.0
  0
LINE
  5
C0
330
BB
100
AcDbEntity
  8
LC-002-100-D00-0
 62
     7
370
    50
100
AcDbLine
 10
218.417634
 20
213.042602
 30
0.0
 11
218.417634
 21
213.042602
 31
0.0
  0
LINE
  5
C1
330
BB
100
AcDbEntity
  8
LC-002-100-D00-0
 62
     7
370
    50
100
AcDbLine
 10
218.417634
 20
213.042602
 30
0.0
 11
218.402338
 21
213.033395
 31
0.0
  0
LINE
  5
C2
330
BB
100
AcDbEntity
  8
LC-002-100-D00-0
 62
     7
370
    50
100
AcDbLine
 10
218.402338
 20
213.033395
 30
0.0
 11
218.402338
 21
213.033395
 31
0.0
  0
LINE
  5
C3
330
BB
100
AcDbEntity
  8
LC-002-100-D00-0
 62
     7
370
    50
100
AcDbLine
 10
218.402338
 20
213.033395
 30
0.0
 11
218.385833
 21
213.010981
 31
0.0
  0
LINE
  5
C4
330
BB
100
AcDbEntity
  8
LC-002-100-D00-0
 62
     7
370
    50
100
AcDbLine
 10
218.385833
 20
213.010981
 30
0.0
 11
218.385833
 21
213.010981
 31
0.0
  0
LINE
  5
C5
330
BB
100
AcDbEntity
  8
LC-002-100-D00-0
 62
     7
370
    50
100
AcDbLine
 10
218.385833
 20
213.010981
 30
0.0
 11
218.376715
 21
212.982112
 31
0.0
  0
LINE
  5
C6
330
BB
100
AcDbEntity
  8
LC-002-100-D00-0
 62
     7
370
    50
100
AcDbLine
 10
218.376715
 20
212.982112
 30
0.0
 11
218.376715
 21
212.982112
 31
0.0
  0
LINE
  5
C7
330
BB
100
AcDbEntity
  8
LC-002-100-D00-0
 62
     7
370
    50
100
AcDbLine
 10
218.376715
 20
212.982112
 30
0.0
 11
218.3783
 21
212.955563
 31
0.0
  0
LINE
  5
C8
330
BB
100
AcDbEntity
  8
LC-002-100-D00-0
 62
     7
370
    50
100
AcDbLine
 10
218.3783
 20
212.955563
 30
0.0
 11
218.3783
 21
212.955563
 31
0.0
  0
LINE
  5
C9
330
BB
100
AcDbEntity
  8
LC-002-100-D00-0
 62
     7
370
    50
100
AcDbLine
 10
218.3783
 20
212.955563
 30
0.0
 11
218.38461
 21
212.940629
 31
0.0
  0
LINE
  5
CA
330
BB
100
AcDbEntity
  8
LC-002-100-D00-0
 62
     7
370
    50
100
AcDbLine
 10
218.38461
 20
212.940629
 30
0.0
 11
218.38461
 21
212.940629
 31
0.0
  0
LINE
  5
CB
330
BB
100
AcDbEntity
  8
LC-002-100-D00-0
 62
     7
370
    50
100
AcDbLine
 10
218.38461
 20
212.940629
 30
0.0
 11
218.386486
 21
212.936189
 31
0.0
  0
ENDBLK
  5
BD
330
BB
100
AcDbEntity
  8
0
100
AcDbBlockEnd
  0
BLOCK
  5
D0
330
CF
100
AcDbEntity
  8
0
100
AcDbBlockBegin
  2
POLY2
 70
     0
 71
     0
 10
0.0
 20
0.0
 30
0.0
  3
POLY2
  1

  4
POLY2
  0
LINE
  5
D2
330
CF
100
AcDbEntity
  8
LC-002-100-D00-0
 62
     7
370
    50
100
AcDbLine
 10
218.206558
 20
213.121828
 30
0.0
 11
218.206558
 21
213.121828
 31
0.0
  0
LINE
  5
D3
330
CF
100
AcDbEntity
  8
LC-002-100-D00-0
 62
     7
370
    50
100
AcDbLine
 10
218.206558
 20
213.121828
 30
0.0
 11
218.19962
 21
213.117655
 31
0.0
  0
LINE
  5
D4
330
CF
100
AcDbEntity
  8
LC-002-100-D00-0
 62
     7
370
    50
100
AcDbLine
 10
218.19962
 20
213.117655
 30
0.0
 11
218.19962
 21
213.117655
 31
0.0
  0
LINE
  5
D5
330
CF
100
AcDbEntity
  8
LC-002-100-D00-0
 62
     7
370
    50
100
AcDbLine
 10
218.19962
 20
213.117655
 30
0.0
 11
218.184299
 21
213.10844
 31
0.0
  0
LINE
  5
D6
330
CF
100
AcDbEntity
  8
LC-002-100-D00-0
 62
     7
370
    50
100
AcDbLine
 10
218.184299
 20
213.10844
 30
0.0
 11
218.184299
 21
213.10844
 31
0.0
  0
LINE
  5
D7
330
CF
100
AcDbEntity
  8
LC-002-100-D00-0
 62
     7
370
    50
100
AcDbLine
 10
218.184299
 20
213.10844
 30
0.0
 11
218.167794
 21
213.085981
 31
0.0
  0
LINE
  5
D8
330
CF
100
AcDbEntity
  8
LC-002-100-D00-0
 62
     7
370
    50
100
AcDbLine
 10
218.167794
 20
213.085981
 30
0.0
 11
218.167794
 21
213.085981
 31
0.0
  0
LINE
  5
D9
330
CF
100
AcDbEntity
  8
LC-002-100-D00-0
 62
     7
370
    50
100
AcDbLine
 10
218.167794
 20
213.085981
 30
0.0
 11
218.15869
 21
213.057059
 31
0.0
  0
LINE
  5
DA
330
CF
100
AcDbEntity
  8
LC-002-100-D00-0
 62
     7
370
    50
100
AcDbLine
 10
218.15869
 20
213.057059
 30
0.0
 11
218.15869
 21
213.057059
 31
0.0
  0
LINE
  5
DB
330
CF
100
AcDbEntity
  8
LC-002-100-D00-0
 62
     7
370
    50
100
AcDbLine
 10
218.15869
 20
213.057059
 30
0.0
 11
218.160324
 21
213.030538
 31
0.0
  0
LINE
  5
DC
330
CF
100
AcDbEntity
  8
LC-002-100-D00-0
 62
     7
370
    50
100
AcDbLine
 10
218.160324
 20
213.030538
 30
0.0
 11
218.160324
 21
213.030538
 31
0.0
  0
LINE
  5
DD
330
CF
100
AcDbEntity
  8
LC-002-100-D00-0
 62
     7
370
    50
100
AcDbLine
 10
218.160324
 20
213.030538
 30
0.0
 11
218.166624
 21
213.015637
 31
0.0
  0
LINE
  5
DE
330
CF
100
AcDbEntity
  8
LC-002-100-D00-0
 62
     7
370
    50
100
AcDbLine
 10
218.166624
 20
213.015637
 30
0.0
 11
218.166624
 21
213.015637
 31
0.0
  0
LINE
  5
DF
330
CF
100
AcDbEntity
  8
LC-002-100-D00-0
 62
     7
370
    50
100
AcDbLine
 10
218.166624
 20
213.015637
 30
0.0
 11
218.168481
 21
213.011247
 31
0.0
  0
ENDBLK
  5
D1
330
CF
100
AcDbEntity
  8
0
100
AcDbBlockEnd
  0
BLOCK
  5
131
330
130
100
AcDbEntity
  8
0
100
AcDbBlockBegin
  2
POLY3
 70
     0
 71
     0
 10
0.0
 20
0.0
 30
0.0
  3
POLY3
  1

  4
POLY3
  0
LINE
  5
133
330
130
100
AcDbEntity
  8
LC-002-100-D00-0
 62
     7
370
    50
100
AcDbLine
 10
160.422076
 20
224.084001
 30
0.0
 11
160.422076
 21
224.084001
 31
0.0
  0
LINE
  5
134
330
130
100
AcDbEntity
  8
LC-002-100-D00-0
 62
     7
370
    50
100
AcDbLine
 10
160.422076
 20
224.084001
 30
0.0
 11
160.423897
 21
224.195238
 31
0.0
  0
LINE
  5
135
330
130
100
AcDbEntity
  8
LC-002-100-D00-0
 62
     7
370
    50
100
AcDbLine
 10
160.423897
 20
224.195238
 30
0.0
 11
160.423897
 21
224.195238
 31
0.0
  0
LINE
  5
136
330
130
100
AcDbEntity
  8
LC-002-100-D00-0
 62
     7
370
    50
100
AcDbLine
 10
160.423897
 20
224.195238
 30
0.0
 11
160.427538
 21
224.417689
 31
0.0
  0
LINE
  5
137
330
130
100
AcDbEntity
  8
LC-002-100-D00-0
 62
     7
370
    50
100
AcDbLine
 10
160.427538
 20
224.417689
 30
0.0
 11
160.427538
 21
224.417689
 31
0.0
  0
LINE
  5
138
330
130
100
AcDbEntity
  8
LC-002-100-D00-0
 62
     7
370
    50
100
AcDbLine
 10
160.427538
 20
224.417689
 30
0.0
 11
160.456156
 21
224.714583
 31
0.0
  0
LINE
  5
139
330
130
100
AcDbEntity
  8
LC-002-100-D00-0
 62
     7
370
    50
100
AcDbLine
 10
160.456156
 20
224.714583
 30
0.0
 11
160.456156
 21
224.714583
 31
0.0
  0
LINE
  5
13A
330
130
100
AcDbEntity
  8
LC-002-100-D00-0
 62
     7
370
    50
100
AcDbLine
 10
160.456156
 20
224.714583
 30
0.0
 11
160.499211
 21
224.940676
 31
0.0
  0
LINE
  5
13B
330
130
100
AcDbEntity
  8
LC-002-100-D00-0
 62
     7
370
    50
100
AcDbLine
 10
160.499211
 20
224.940676
 30
0.0
 11
160.499211
 21
224.940676
 31
0.0
  0
LINE
  5
13C
330
130
100
AcDbEntity
  8
LC-002-100-D00-0
 62
     7
370
    50
100
AcDbLine
 10
160.499211
 20
224.940676
 30
0.0
 11
160.549085
 21
225.065288
 31
0.0
  0
LINE
  5
13D
330
130
100
AcDbEntity
  8
LC-002-100-D00-0
 62
     7
370
    50
100
AcDbLine
 10
160.549085
 20
225.065288
 30
0.0
 11
160.549085
 21
225.065288
 31
0.0
  0
LINE
  5
13E
330
130
100
AcDbEntity
  8
LC-002-100-D00-0
 62
     7
370
    50
100
AcDbLine
 10
160.549085
 20
225.065288
 30
0.0
 11
160.583668
 21
225.078524
 31
0.0
  0
LINE
  5
13F
330
130
100
AcDbEntity
  8
LC-002-100-D00-0
 62
     7
370
    50
100
AcDbLine
 10
160.583668
 20
225.078524
 30
0.0
 11
160.583668
 21
225.078524
 31
0.0
  0
LINE
  5
140
330
130
100
AcDbEntity
  8
LC-002-100-D00-0
 62
     7
370
    50
100
AcDbLine
 10
160.583668
 20
225.078524
 30
0.0
 11
160.597984
 21
225.084003
 31
0.0
  0
ENDBLK
  5
132
330
130
100
AcDbEntity
  8
0
100
AcDbBlockEnd
  0
BLOCK
  5
146
330
145
100
AcDbEntity
  8
0
100
AcDbBlockBegin
  2
POLY4
 70
     0
 71
     0
 10
0.0
 20
0.0
 30
0.0
  3
POLY4
  1

  4
POLY4
  0
LINE
  5
148
330
145
100
AcDbEntity
  8
LC-002-100-D00-0
 62
     7
370
    50
100
AcDbLine
 10
300.271299
 20
225.084003
 30
0.0
 11
300.271299
 21
225.084003
 31
0.0
  0
LINE
  5
149
330
145
100
AcDbEntity
  8
LC-002-100-D00-0
 62
     7
370
    50
100
AcDbLine
 10
300.271299
 20
225.084003
 30
0.0
 11
300.291961
 21
225.072724
 31
0.0
  0
LINE
  5
14A
330
145
100
AcDbEntity
  8
LC-002-100-D00-0
 62
     7
370
    50
100
AcDbLine
 10
300.291961
 20
225.072724
 30
0.0
 11
300.291961
 21
225.072724
 31
0.0
  0
LINE
  5
14B
330
145
100
AcDbEntity
  8
LC-002-100-D00-0
 62
     7
370
    50
100
AcDbLine
 10
300.291961
 20
225.072724
 30
0.0
 11
300.333291
 21
225.050161
 31
0.0
  0
LINE
  5
14C
330
145
100
AcDbEntity
  8
LC-002-100-D00-0
 62
     7
370
    50
100
AcDbLine
 10
300.333291
 20
225.050161
 30
0.0
 11
300.333291
 21
225.050161
 31
0.0
  0
LINE
  5
14D
330
145
100
AcDbEntity
  8
LC-002-100-D00-0
 62
     7
370
    50
100
AcDbLine
 10
300.333291
 20
225.050161
 30
0.0
 11
300.386392
 21
224.873619
 31
0.0
  0
LINE
  5
14E
330
145
100
AcDbEntity
  8
LC-002-100-D00-0
 62
     7
370
    50
100
AcDbLine
 10
300.386392
 20
224.873619
 30
0.0
 11
300.386392
 21
224.873619
 31
0.0
  0
LINE
  5
14F
330
145
100
AcDbEntity
  8
LC-002-100-D00-0
 62
     7
370
    50
100
AcDbLine
 10
300.386392
 20
224.873619
 30
0.0
 11
300.42521
 21
224.614565
 31
0.0
  0
LINE
  5
150
330
145
100
AcDbEntity
  8
LC-002-100-D00-0
 62
     7
370
    50
100
AcDbLine
 10
300.42521
 20
224.614565
 30
0.0
 11
300.42521
 21
224.614565
 31
0.0
  0
LINE
  5
151
330
145
100
AcDbEntity
  8
LC-002-100-D00-0
 62
     7
370
    50
100
AcDbLine
 10
300.42521
 20
224.614565
 30
0.0
 11
300.444597
 21
224.334293
 31
0.0
  0
LINE
  5
152
330
145
100
AcDbEntity
  8
LC-002-100-D00-0
 62
     7
370
    50
100
AcDbLine
 10
300.444597
 20
224.334293
 30
0.0
 11
300.444597
 21
224.334293
 31
0.0
  0
LINE
  5
153
330
145
100
AcDbEntity
  8
LC-002-100-D00-0
 62
     7
370
    50
100
AcDbLine
 10
300.444597
 20
224.334293
 30
0.0
 11
300.446489
 21
224.152894
 31
0.0
  0
LINE
  5
154
330
145
100
AcDbEntity
  8
LC-002-100-D00-0
 62
     7
370
    50
100
AcDbLine
 10
300.446489
 20
224.152894
 30
0.0
 11
300.446489
 21
224.152894
 31
0.0
  0
LINE
  5
155
330
145
100
AcDbEntity
  8
LC-002-100-D00-0
 62
     7
370
    50
100
AcDbLine
 10
300.446489
 20
224.152894
 30
0.0
 11
300.447207
 21
224.084001
 31
0.0
  0
ENDBLK
  5
147
330
145
100
AcDbEntity
  8
0
100
AcDbBlockEnd
  0
BLOCK
  5
1A2
330
1A1
100
AcDbEntity
  8
0
100
AcDbBlockBegin
  2
POLY5
 70
     0
 71
     0
 10
0.0
 20
0.0
 30
0.0
  3
POLY5
  1

  4
POLY5
  0
LINE
  5
1A4
330
1A1
100
AcDbEntity
  8
LC-002-100-D00-0
 62
     7
370
    50
100
AcDbLine
 10
160.597984
 20
225.084003
 30
0.0
 11
160.597984
 21
225.084003
 31
0.0
  0
LINE
  5
1A5
330
1A1
100
AcDbEntity
  8
LC-002-100-D00-0
 62
     7
370
    50
100
AcDbLine
 10
160.597984
 20
225.084003
 30
0.0
 11
160.619048
 21
225.072651
 31
0.0
  0
LINE
  5
1A6
330
1A1
100
AcDbEntity
  8
LC-002-100-D00-0
 62
     7
370
    50
100
AcDbLine
 10
160.619048
 20
225.072651
 30
0.0
 11
160.619048
 21
225.072651
 31
0.0
  0
LINE
  5
1A7
330
1A1
100
AcDbEntity
  8
LC-002-100-D00-0
 62
     7
370
    50
100
AcDbLine
 10
160.619048
 20
225.072651
 30
0.0
 11
160.661182
 21
225.049942
 31
0.0
  0
LINE
  5
1A8
330
1A1
100
AcDbEntity
  8
LC-002-100-D00-0
 62
     7
370
    50
100
AcDbLine
 10
160.661182
 20
225.049942
 30
0.0
 11
160.661182
 21
225.049942
 31
0.0
  0
LINE
  5
1A9
330
1A1
100
AcDbEntity
  8
LC-002-100-D00-0
 62
     7
370
    50
100
AcDbLine
 10
160.661182
 20
225.049942
 30
0.0
 11
160.719126
 21
224.872713
 31
0.0
  0
LINE
  5
1AA
330
1A1
100
AcDbEntity
  8
LC-002-100-D00-0
 62
     7
370
    50
100
AcDbLine
 10
160.719126
 20
224.872713
 30
0.0
 11
160.719126
 21
224.872713
 31
0.0
  0
LINE
  5
1AB
330
1A1
100
AcDbEntity
  8
LC-002-100-D00-0
 62
     7
370
    50
100
AcDbLine
 10
160.719126
 20
224.872713
 30
0.0
 11
160.763165
 21
224.61276
 31
0.0
  0
LINE
  5
1AC
330
1A1
100
AcDbEntity
  8
LC-002-100-D00-0
 62
     7
370
    50
100
AcDbLine
 10
160.763165
 20
224.61276
 30
0.0
 11
160.763165
 21
224.61276
 31
0.0
  0
LINE
  5
1AD
330
1A1
100
AcDbEntity
  8
LC-002-100-D00-0
 62
     7
370
    50
100
AcDbLine
 10
160.763165
 20
224.61276
 30
0.0
 11
160.78569
 21
224.332467
 31
0.0
  0
LINE
  5
1AE
330
1A1
100
AcDbEntity
  8
LC-002-100-D00-0
 62
     7
370
    50
100
AcDbLine
 10
160.78569
 20
224.332467
 30
0.0
 11
160.78569
 21
224.332467
 31
0.0
  0
LINE
  5
1AF
330
1A1
100
AcDbEntity
  8
LC-002-100-D00-0
 62
     7
370
    50
100
AcDbLine
 10
160.78569
 20
224.332467
 30
0.0
 11
160.78787
 21
224.151824
 31
0.0
  0
LINE
  5
1B0
330
1A1
100
AcDbEntity
  8
LC-002-100-D00-0
 62
     7
370
    50
100
AcDbLine
 10
160.78787
 20
224.151824
 30
0.0
 11
160.78787
 21
224.151824
 31
0.0
  0
LINE
  5
1B1
330
1A1
100
AcDbEntity
  8
LC-002-100-D00-0
 62
     7
370
    50
100
AcDbLine
 10
160.78787
 20
224.151824
 30
0.0
 11
160.788689
 21
224.084001
 31
0.0
  0
ENDBLK
  5
1A3
330
1A1
100
AcDbEntity
  8
0
100
AcDbBlockEnd
  0
BLOCK
  5
1B4
330
1B3
100
AcDbEntity
  8
0
100
AcDbBlockBegin
  2
POLY6
 70
     0
 71
     0
 10
0.0
 20
0.0
 30
0.0
  3
POLY6
  1

  4
POLY6
  0
LINE
  5
1B6
330
1B3
100
AcDbEntity
  8
LC-002-100-D00-0
 62
     7
370
    50
100
AcDbLine
 10
216.634648
 20
224.084001
 30
0.0
 11
216.634648
 21
224.084001
 31
0.0
  0
LINE
  5
1B7
330
1B3
100
AcDbEntity
  8
LC-002-100-D00-0
 62
     7
370
    50
100
AcDbLine
 10
216.634648
 20
224.084001
 30
0.0
 11
216.645413
 21
224.194869
 31
0.0
  0
LINE
  5
1B8
330
1B3
100
AcDbEntity
  8
LC-002-100-D00-0
 62
     7
370
    50
100
AcDbLine
 10
216.645413
 20
224.194869
 30
0.0
 11
216.645413
 21
224.194869
 31
0.0
  0
LINE
  5
1B9
330
1B3
100
AcDbEntity
  8
LC-002-100-D00-0
 62
     7
370
    50
100
AcDbLine
 10
216.645413
 20
224.194869
 30
0.0
 11
216.666939
 21
224.416565
 31
0.0
  0
LINE
  5
1BA
330
1B3
100
AcDbEntity
  8
LC-002-100-D00-0
 62
     7
370
    50
100
AcDbLine
 10
216.666939
 20
224.416565
 30
0.0
 11
216.666939
 21
224.416565
 31
0.0
  0
LINE
  5
1BB
330
1B3
100
AcDbEntity
  8
LC-002-100-D00-0
 62
     7
370
    50
100
AcDbLine
 10
216.666939
 20
224.416565
 30
0.0
 11
216.834454
 21
224.712645
 31
0.0
  0
LINE
  5
1BC
330
1B3
100
AcDbEntity
  8
LC-002-100-D00-0
 62
     7
370
    50
100
AcDbLine
 10
216.834454
 20
224.712645
 30
0.0
 11
216.834454
 21
224.712645
 31
0.0
  0
LINE
  5
1BD
330
1B3
100
AcDbEntity
  8
LC-002-100-D00-0
 62
     7
370
    50
100
AcDbLine
 10
216.834454
 20
224.712645
 30
0.0
 11
217.081951
 21
224.939006
 31
0.0
  0
LINE
  5
1BE
330
1B3
100
AcDbEntity
  8
LC-002-100-D00-0
 62
     7
370
    50
100
AcDbLine
 10
217.081951
 20
224.939006
 30
0.0
 11
217.081951
 21
224.939006
 31
0.0
  0
LINE
  5
1BF
330
1B3
100
AcDbEntity
  8
LC-002-100-D00-0
 62
     7
370
    50
100
AcDbLine
 10
217.081951
 20
224.939006
 30
0.0
 11
217.364088
 21
225.064899
 31
0.0
  0
LINE
  5
1C0
330
1B3
100
AcDbEntity
  8
LC-002-100-D00-0
 62
     7
370
    50
100
AcDbLine
 10
217.364088
 20
225.064899
 30
0.0
 11
217.364088
 21
225.064899
 31
0.0
  0
LINE
  5
1C1
330
1B3
100
AcDbEntity
  8
LC-002-100-D00-0
 62
     7
370
    50
100
AcDbLine
 10
217.364088
 20
225.064899
 30
0.0
 11
217.555167
 21
225.078391
 31
0.0
  0
LINE
  5
1C2
330
1B3
100
AcDbEntity
  8
LC-002-100-D00-0
 62
     7
370
    50
100
AcDbLine
 10
217.555167
 20
225.078391
 30
0.0
 11
217.555167
 21
225.078391
 31
0.0
  0
LINE
  5
1C3
330
1B3
100
AcDbEntity
  8
LC-002-100-D00-0
 62
     7
370
    50
100
AcDbLine
 10
217.555167
 20
225.078391
 30
0.0
 11
217.634647
 21
225.084003
 31
0.0
  0
ENDBLK
  5
1B5
330
1B3
100
AcDbEntity
  8
0
100
AcDbBlockEnd
  0
BLOCK
  5
1C9
330
1C8
100
AcDbEntity
  8
0
100
AcDbBlockBegin
  2
POLY7
 70
     0
 71
     0
 10
0.0
 20
0.0
 30
0.0
  3
POLY7
  1

  4
POLY7
  0
LINE
  5
1CB
330
1C8
100
AcDbEntity
  8
LC-002-100-D00-0
 62
     7
370
    50
100
AcDbLine
 10
300.080594
 20
224.084001
 30
0.0
 11
300.080594
 21
224.084001
 31
0.0
  0
LINE
  5
1CC
330
1C8
100
AcDbEntity
  8
LC-002-100-D00-0
 62
     7
370
    50
100
AcDbLine
 10
300.080594
 20
224.084001
 30
0.0
 11
300.082734
 21
224.194869
 31
0.0
  0
LINE
  5
1CD
330
1C8
100
AcDbEntity
  8
LC-002-100-D00-0
 62
     7
370
    50
100
AcDbLine
 10
300.082734
 20
224.194869
 30
0.0
 11
300.082734
 21
224.194869
 31
0.0
  0
LINE
  5
1CE
330
1C8
100
AcDbEntity
  8
LC-002-100-D00-0
 62
     7
370
    50
100
AcDbLine
 10
300.082734
 20
224.194869
 30
0.0
 11
300.087013
 21
224.416565
 31
0.0
  0
LINE
  5
1CF
330
1C8
100
AcDbEntity
  8
LC-002-100-D00-0
 62
     7
370
    50
100
AcDbLine
 10
300.087013
 20
224.416565
 30
0.0
 11
300.087013
 21
224.416565
 31
0.0
  0
LINE
  5
1D0
330
1C8
100
AcDbEntity
  8
LC-002-100-D00-0
 62
     7
370
    50
100
AcDbLine
 10
300.087013
 20
224.416565
 30
0.0
 11
300.119997
 21
224.712645
 31
0.0
  0
LINE
  5
1D1
330
1C8
100
AcDbEntity
  8
LC-002-100-D00-0
 62
     7
370
    50
100
AcDbLine
 10
300.119997
 20
224.712645
 30
0.0
 11
300.119997
 21
224.712645
 31
0.0
  0
LINE
  5
1D2
330
1C8
100
AcDbEntity
  8
LC-002-100-D00-0
 62
     7
370
    50
100
AcDbLine
 10
300.119997
 20
224.712645
 30
0.0
 11
300.167923
 21
224.939006
 31
0.0
  0
LINE
  5
1D3
330
1C8
100
AcDbEntity
  8
LC-002-100-D00-0
 62
     7
370
    50
100
AcDbLine
 10
300.167923
 20
224.939006
 30
0.0
 11
300.167923
 21
224.939006
 31
0.0
  0
LINE
  5
1D4
330
1C8
100
AcDbEntity
  8
LC-002-100-D00-0
 62
     7
370
    50
100
AcDbLine
 10
300.167923
 20
224.939006
 30
0.0
 11
300.221423
 21
225.064899
 31
0.0
  0
LINE
  5
1D5
330
1C8
100
AcDbEntity
  8
LC-002-100-D00-0
 62
     7
370
    50
100
AcDbLine
 10
300.221423
 20
225.064899
 30
0.0
 11
300.221423
 21
225.064899
 31
0.0
  0
LINE
  5
1D6
330
1C8
100
AcDbEntity
  8
LC-002-100-D00-0
 62
     7
370
    50
100
AcDbLine
 10
300.221423
 20
225.064899
 30
0.0
 11
300.256647
 21
225.078391
 31
0.0
  0
LINE
  5
1D7
330
1C8
100
AcDbEntity
  8
LC-002-100-D00-0
 62
     7
370
    50
100
AcDbLine
 10
300.256647
 20
225.078391
 30
0.0
 11
300.256647
 21
225.078391
 31
0.0
  0
LINE
  5
1D8
330
1C8
100
AcDbEntity
  8
LC-002-100-D00-0
 62
     7
370
    50
100
AcDbLine
 10
300.256647
 20
225.078391
 30
0.0
 11
300.271299
 21
225.084003
 31
0.0
  0
ENDBLK
  5
1CA
330
1C8
100
AcDbEntity
  8
0
100
AcDbBlockEnd
  0
BLOCK
  5
1DB
330
1DA
100
AcDbEntity
  8
0
100
AcDbBlockBegin
  2
POLY8
 70
     0
 71
     0
 10
0.0
 20
0.0
 30
0.0
  3
POLY8
  1

  4
POLY8
  0
LINE
  5
1DD
330
1DA
100
AcDbEntity
  8
LC-002-100-D00-0
 62
     7
370
    50
100
AcDbLine
 10
243.234727
 20
225.084003
 30
0.0
 11
243.234727
 21
225.084003
 31
0.0
  0
LINE
  5
1DE
330
1DA
100
AcDbEntity
  8
LC-002-100-D00-0
 62
     7
370
    50
100
AcDbLine
 10
243.234727
 20
225.084003
 30
0.0
 11
243.348713
 21
225.072651
 31
0.0
  0
LINE
  5
1DF
330
1DA
100
AcDbEntity
  8
LC-002-100-D00-0
 62
     7
370
    50
100
AcDbLine
 10
243.348713
 20
225.072651
 30
0.0
 11
243.348713
 21
225.072651
 31
0.0
  0
LINE
  5
1E0
330
1DA
100
AcDbEntity
  8
LC-002-100-D00-0
 62
     7
370
    50
100
AcDbLine
 10
243.348713
 20
225.072651
 30
0.0
 11
243.576709
 21
225.049942
 31
0.0
  0
LINE
  5
1E1
330
1DA
100
AcDbEntity
  8
LC-002-100-D00-0
 62
     7
370
    50
100
AcDbLine
 10
243.576709
 20
225.049942
 30
0.0
 11
243.576709
 21
225.049942
 31
0.0
  0
LINE
  5
1E2
330
1DA
100
AcDbEntity
  8
LC-002-100-D00-0
 62
     7
370
    50
100
AcDbLine
 10
243.576709
 20
225.049942
 30
0.0
 11
243.879725
 21
224.872713
 31
0.0
  0
LINE
  5
1E3
330
1DA
100
AcDbEntity
  8
LC-002-100-D00-0
 62
     7
370
    50
100
AcDbLine
 10
243.879725
 20
224.872713
 30
0.0
 11
243.879725
 21
224.872713
 31
0.0
  0
LINE
  5
1E4
330
1DA
100
AcDbEntity
  8
LC-002-100-D00-0
 62
     7
370
    50
100
AcDbLine
 10
243.879725
 20
224.872713
 30
0.0
 11
244.105701
 21
224.61276
 31
0.0
  0
LINE
  5
1E5
330
1DA
100
AcDbEntity
  8
LC-002-100-D00-0
 62
     7
370
    50
100
AcDbLine
 10
244.105701
 20
224.61276
 30
0.0
 11
244.105701
 21
224.61276
 31
0.0
  0
LINE
  5
1E6
330
1DA
100
AcDbEntity
  8
LC-002-100-D00-0
 62
     7
370
    50
100
AcDbLine
 10
244.105701
 20
224.61276
 30
0.0
 11
244.219615
 21
224.332467
 31
0.0
  0
LINE
  5
1E7
330
1DA
100
AcDbEntity
  8
LC-002-100-D00-0
 62
     7
370
    50
100
AcDbLine
 10
244.219615
 20
224.332467
 30
0.0
 11
244.219615
 21
224.332467
 31
0.0
  0
LINE
  5
1E8
330
1DA
100
AcDbEntity
  8
LC-002-100-D00-0
 62
     7
370
    50
100
AcDbLine
 10
244.219615
 20
224.332467
 30
0.0
 11
244.230602
 21
224.151824
 31
0.0
  0
LINE
  5
1E9
330
1DA
100
AcDbEntity
  8
LC-002-100-D00-0
 62
     7
370
    50
100
AcDbLine
 10
244.230602
 20
224.151824
 30
0.0
 11
244.230602
 21
224.151824
 31
0.0
  0
LINE
  5
1EA
330
1DA
100
AcDbEntity
  8
LC-002-100-D00-0
 62
     7
370
    50
100
AcDbLine
 10
244.230602
 20
224.151824
 30
0.0
 11
244.234727
 21
224.084001
 31
0.0
  0
ENDBLK
  5
1DC
330
1DA
100
AcDbEntity
  8
0
100
AcDbBlockEnd
  0
BLOCK
  5
22B
330
22A
100
AcDbEntity
  8
0
100
AcDbBlockBegin
  2
POLY9
 70
     0
 71
     0
 10
0.0
 20
0.0
 30
0.0
  3
POLY9
  1

  4
POLY9
  0
LINE
  5
22D
330
22A
100
AcDbEntity
  8
LC-002-100-D00-0
 62
     7
370
    50
100
AcDbLine
 10
242.234728
 20
224.084001
 30
0.0
 11
242.234728
 21
224.084001
 31
0.0
  0
LINE
  5
22E
330
22A
100
AcDbEntity
  8
LC-002-100-D00-0
 62
     7
370
    50
100
AcDbLine
 10
242.234728
 20
224.084001
 30
0.0
 11
242.245561
 21
224.195238
 31
0.0
  0
LINE
  5
22F
330
22A
100
AcDbEntity
  8
LC-002-100-D00-0
 62
     7
370
    50
100
AcDbLine
 10
242.245561
 20
224.195238
 30
0.0
 11
242.245561
 21
224.195238
 31
0.0
  0
LINE
  5
230
330
22A
100
AcDbEntity
  8
LC-002-100-D00-0
 62
     7
370
    50
100
AcDbLine
 10
242.245561
 20
224.195238
 30
0.0
 11
242.267227
 21
224.417689
 31
0.0
  0
LINE
  5
231
330
22A
100
AcDbEntity
  8
LC-002-100-D00-0
 62
     7
370
    50
100
AcDbLine
 10
242.267227
 20
224.417689
 30
0.0
 11
242.267227
 21
224.417689
 31
0.0
  0
LINE
  5
232
330
22A
100
AcDbEntity
  8
LC-002-100-D00-0
 62
     7
370
    50
100
AcDbLine
 10
242.267227
 20
224.417689
 30
0.0
 11
242.435865
 21
224.714583
 31
0.0
  0
LINE
  5
233
330
22A
100
AcDbEntity
  8
LC-002-100-D00-0
 62
     7
370
    50
100
AcDbLine
 10
242.435865
 20
224.714583
 30
0.0
 11
242.435865
 21
224.714583
 31
0.0
  0
LINE
  5
234
330
22A
100
AcDbEntity
  8
LC-002-100-D00-0
 62
     7
370
    50
100
AcDbLine
 10
242.435865
 20
224.714583
 30
0.0
 11
242.6846
 21
224.940676
 31
0.0
  0
LINE
  5
235
330
22A
100
AcDbEntity
  8
LC-002-100-D00-0
 62
     7
370
    50
100
AcDbLine
 10
242.6846
 20
224.940676
 30
0.0
 11
242.6846
 21
224.940676
 31
0.0
  0
LINE
  5
236
330
22A
100
AcDbEntity
  8
LC-002-100-D00-0
 62
     7
370
    50
100
AcDbLine
 10
242.6846
 20
224.940676
 30
0.0
 11
242.966412
 21
225.065288
 31
0.0
  0
LINE
  5
237
330
22A
100
AcDbEntity
  8
LC-002-100-D00-0
 62
     7
370
    50
100
AcDbLine
 10
242.966412
 20
225.065288
 30
0.0
 11
242.966412
 21
225.065288
 31
0.0
  0
LINE
  5
238
330
22A
100
AcDbEntity
  8
LC-002-100-D00-0
 62
     7
370
    50
100
AcDbLine
 10
242.966412
 20
225.065288
 30
0.0
 11
243.156171
 21
225.078524
 31
0.0
  0
LINE
  5
239
330
22A
100
AcDbEntity
  8
LC-002-100-D00-0
 62
     7
370
    50
100
AcDbLine
 10
243.156171
 20
225.078524
 30
0.0
 11
243.156171
 21
225.078524
 31
0.0
  0
LINE
  5
23A
330
22A
100
AcDbEntity
  8
LC-002-100-D00-0
 62
     7
370
    50
100
AcDbLine
 10
243.156171
 20
225.078524
 30
0.0
 11
243.234727
 21
225.084003
 31
0.0
  0
ENDBLK
  5
22C
330
22A
100
AcDbEntity
  8
0
100
AcDbBlockEnd
  0
BLOCK
  5
240
330
23F
100
AcDbEntity
  8
0
100
AcDbBlockBegin
  2
POLY10
 70
     0
 71
     0
 10
0.0
 20
0.0
 30
0.0
  3
POLY10
  1

  4
POLY10
  0
LINE
  5
242
330
23F
100
AcDbEntity
  8
LC-002-100-D00-0
 62
     7
370
    50
100
AcDbLine
 10
217.634647
 20
225.084003
 30
0.0
 11
217.634647
 21
225.084003
 31
0.0
  0
LINE
  5
243
330
23F
100
AcDbEntity
  8
LC-002-100-D00-0
 62
     7
370
    50
100
AcDbLine
 10
217.634647
 20
225.084003
 30
0.0
 11
217.74832
 21
225.072724
 31
0.0
  0
LINE
  5
244
330
23F
100
AcDbEntity
  8
LC-002-100-D00-0
 62
     7
370
    50
100
AcDbLine
 10
217.74832
 20
225.072724
 30
0.0
 11
217.74832
 21
225.072724
 31
0.0
  0
LINE
  5
245
330
23F
100
AcDbEntity
  8
LC-002-100-D00-0
 62
     7
370
    50
100
AcDbLine
 10
217.74832
 20
225.072724
 30
0.0
 11
217.975702
 21
225.050161
 31
0.0
  0
LINE
  5
246
330
23F
100
AcDbEntity
  8
LC-002-100-D00-0
 62
     7
370
    50
100
AcDbLine
 10
217.975702
 20
225.050161
 30
0.0
 11
217.975702
 21
225.050161
 31
0.0
  0
LINE
  5
247
330
23F
100
AcDbEntity
  8
LC-002-100-D00-0
 62
     7
370
    50
100
AcDbLine
 10
217.975702
 20
225.050161
 30
0.0
 11
218.278433
 21
224.873619
 31
0.0
  0
LINE
  5
248
330
23F
100
AcDbEntity
  8
LC-002-100-D00-0
 62
     7
370
    50
100
AcDbLine
 10
218.278433
 20
224.873619
 30
0.0
 11
218.278433
 21
224.873619
 31
0.0
  0
LINE
  5
249
330
23F
100
AcDbEntity
  8
LC-002-100-D00-0
 62
     7
370
    50
100
AcDbLine
 10
218.278433
 20
224.873619
 30
0.0
 11
218.504391
 21
224.614565
 31
0.0
  0
LINE
  5
24A
330
23F
100
AcDbEntity
  8
LC-002-100-D00-0
 62
     7
370
    50
100
AcDbLine
 10
218.504391
 20
224.614565
 30
0.0
 11
218.504391
 21
224.614565
 31
0.0
  0
LINE
  5
24B
330
23F
100
AcDbEntity
  8
LC-002-100-D00-0
 62
     7
370
    50
100
AcDbLine
 10
218.504391
 20
224.614565
 30
0.0
 11
218.619197
 21
224.334293
 31
0.0
  0
LINE
  5
24C
330
23F
100
AcDbEntity
  8
LC-002-100-D00-0
 62
     7
370
    50
100
AcDbLine
 10
218.619197
 20
224.334293
 30
0.0
 11
218.619197
 21
224.334293
 31
0.0
  0
LINE
  5
24D
330
23F
100
AcDbEntity
  8
LC-002-100-D00-0
 62
     7
370
    50
100
AcDbLine
 10
218.619197
 20
224.334293
 30
0.0
 11
218.630395
 21
224.152894
 31
0.0
  0
LINE
  5
24E
330
23F
100
AcDbEntity
  8
LC-002-100-D00-0
 62
     7
370
    50
100
AcDbLine
 10
218.630395
 20
224.152894
 30
0.0
 11
218.630395
 21
224.152894
 31
0.0
  0
LINE
  5
24F
330
23F
100
AcDbEntity
  8
LC-002-100-D00-0
 62
     7
370
    50
100
AcDbLine
 10
218.630395
 20
224.152894
 30
0.0
 11
218.634648
 21
224.084001
 31
0.0
  0
ENDBLK
  5
241
330
23F
100
AcDbEntity
  8
0
100
AcDbBlockEnd
  0
BLOCK
  5
27C
330
27B
100
AcDbEntity
  8
0
100
AcDbBlockBegin
  2
KLON1
 70
     0
 71
     0
 10
0.0
 20
0.0
 30
0.0
  3
KLON1
  1

  4
KLON1
  0
LINE
  5
27E
330
27B
100
AcDbEntity
  8
LC-002-100-D00-0
 62
     1
370
    25
100
AcDbLine
 10
192.849417
 20
136.784007
 30
0.0
 11
192.93463
 21
136.86922
 31
0.0
  0
LINE
  5
27F
330
27B
100
AcDbEntity
  8
LC-002-100-D00-0
 62
     1
370
    25
100
AcDbLine
 10
167.898776
 20
134.284007
 30
0.0
 11
172.898776
 21
139.284007
 31
0.0
  0
LINE
  5
280
330
27B
100
AcDbEntity
  8
LC-002-100-D00-0
 62
     1
370
    25
100
AcDbLine
 10
151.672838
 20
140.508709
 30
0.0
 11
155.43463
 21
144.270501
 31
0.0
  0
ENDBLK
  5
27D
330
27B
100
AcDbEntity
  8
0
100
AcDbBlockEnd
  0
BLOCK
  5
283
330
282
100
AcDbEntity
  8
0
100
AcDbBlockBegin
  2
KLON2
 70
     0
 71
     0
 10
0.0
 20
0.0
 30
0.0
  3
KLON2
  1

  4
KLON2
  0
LINE
  5
285
330
282
100
AcDbEntity
  8
LC-002-100-D00-0
 62
     1
370
    25
100
AcDbLine
 10
305.884876
 20
137.566264
 30
0.0
 11
309.652373
 21
141.333761
 31
0.0
  0
LINE
  5
286
330
282
100
AcDbEntity
  8
LC-002-100-D00-0
 62
     1
370
    25
100
AcDbLine
 10
282.651978
 20
136.784007
 30
0.0
 11
285.151978
 21
139.284007
 31
0.0
  0
ENDBLK
  5
284
330
282
100
AcDbEntity
  8
0
100
AcDbBlockEnd
  0
BLOCK
  5
289
330
288
100
AcDbEntity
  8
0
100
AcDbBlockBegin
  2
KLON3
 70
     0
 71
     0
 10
0.0
 20
0.0
 30
0.0
  3
KLON3
  1

  4
KLON3
  0
LINE
  5
28B
330
288
100
AcDbEntity
  8
LC-002-100-D00-0
 62
     1
370
    25
100
AcDbLine
 10
304.750697
 20
203.784007
 30
0.0
 11
305.831371
 21
204.86468
 31
0.0
  0
LINE
  5
28C
330
288
100
AcDbEntity
  8
LC-002-100-D00-0
 62
     1
370
    25
100
AcDbLine
 10
301.43463
 20
222.91858
 30
0.0
 11
304.33463
 21
225.81858
 31
0.0
  0
LINE
  5
28D
330
288
100
AcDbEntity
  8
LC-002-100-D00-0
 62
     1
370
    25
100
AcDbLine
 10
311.300057
 20
232.784007
 30
0.0
 11
315.247385
 21
236.731334
 31
0.0
  0
LINE
  5
28E
330
288
100
AcDbEntity
  8
LC-002-100-D00-0
 62
     1
370
    25
100
AcDbLine
 10
297.709465
 20
241.644055
 30
0.0
 11
309.256518
 21
253.191107
 31
0.0
  0
LINE
  5
28F
330
288
100
AcDbEntity
  8
LC-002-100-D00-0
 62
     1
370
    25
100
AcDbLine
 10
291.718599
 20
258.103829
 30
0.0
 11
303.26565
 21
269.65088
 31
0.0
  0
LINE
  5
290
330
288
100
AcDbEntity
  8
LC-002-100-D00-0
 62
     1
370
    25
100
AcDbLine
 10
285.727732
 20
274.563603
 30
0.0
 11
297.274783
 21
286.110653
 31
0.0
  0
LINE
  5
291
330
288
100
AcDbEntity
  8
LC-002-100-D00-0
 62
     1
370
    25
100
AcDbLine
 10
279.736866
 20
291.023376
 30
0.0
 11
290.716105
 21
302.002616
 31
0.0
  0
LINE
  5
292
330
288
100
AcDbEntity
  8
LC-002-100-D00-0
 62
     1
370
    25
100
AcDbLine
 10
259.246862
 20
292.984013
 30
0.0
 11
274.046862
 21
307.784013
 31
0.0
  0
LINE
  5
293
330
288
100
AcDbEntity
  8
LC-002-100-D00-0
 62
     1
370
    25
100
AcDbLine
 10
156.53463
 20
212.722422
 30
0.0
 11
159.43463
 21
215.622422
 31
0.0
  0
LINE
  5
294
330
288
100
AcDbEntity
  8
LC-002-100-D00-0
 62
     1
370
    25
100
AcDbLine
 10
236.796221
 20
292.984013
 30
0.0
 11
251.696221
 21
307.884013
 31
0.0
  0
LINE
  5
295
330
288
100
AcDbEntity
  8
LC-002-100-D00-0
 62
     1
370
    25
100
AcDbLine
 10
154.145575
 20
232.784007
 30
0.0
 11
163.248021
 21
241.886453
 31
0.0
  0
LINE
  5
296
330
288
100
AcDbEntity
  8
LC-002-100-D00-0
 62
     1
370
    25
100
AcDbLine
 10
214.345581
 20
292.984013
 30
0.0
 11
229.145581
 21
307.784013
 31
0.0
  0
LINE
  5
297
330
288
100
AcDbEntity
  8
LC-002-100-D00-0
 62
     1
370
    25
100
AcDbLine
 10
151.332744
 20
252.421816
 30
0.0
 11
176.095474
 21
277.184546
 31
0.0
  0
LINE
  5
298
330
288
100
AcDbEntity
  8
LC-002-100-D00-0
 62
     1
370
    25
100
AcDbLine
 10
191.894941
 20
292.984013
 30
0.0
 11
206.694941
 21
307.784013
 31
0.0
  0
LINE
  5
299
330
288
100
AcDbEntity
  8
LC-002-100-D00-0
 62
     1
370
    25
100
AcDbLine
 10
164.1802
 20
287.719912
 30
0.0
 11
184.2443
 21
307.784013
 31
0.0
  0
ENDBLK
  5
28A
330
288
100
AcDbEntity
  8
0
100
AcDbBlockEnd
  0
BLOCK
  5
29C
330
29B
100
AcDbEntity
  8
0
100
AcDbBlockBegin
  2
KLON4
 70
     0
 71
     0
 10
0.0
 20
0.0
 30
0.0
  3
KLON4
  1

  4
KLON4
  0
LINE
  5
29E
330
29B
100
AcDbEntity
  8
LC-002-100-D00-0
 62
     1
370
    25
100
AcDbLine
 10
192.93463
 20
91.96794
 30
0.0
 11
196.43463
 21
95.46794
 31
0.0
  0
LINE
  5
29F
330
29B
100
AcDbEntity
  8
LC-002-100-D00-0
 62
     1
370
    25
100
AcDbLine
 10
192.93463
 20
114.41858
 30
0.0
 11
196.43463
 21
117.91858
 31
0.0
  0
LINE
  5
2A0
330
29B
100
AcDbEntity
  8
LC-002-100-D00-0
 62
     1
370
    25
100
AcDbLine
 10
192.642024
 20
136.576613
 30
0.0
 11
196.43463
 21
140.36922
 31
0.0
  0
LINE
  5
2A1
330
29B
100
AcDbEntity
  8
LC-002-100-D00-0
 62
     1
370
    25
100
AcDbLine
 10
179.398776
 20
145.784007
 30
0.0
 11
182.898776
 21
149.284007
 31
0.0
  0
LINE
  5
2A2
330
29B
100
AcDbEntity
  8
LC-002-100-D00-0
 62
     1
370
    25
100
AcDbLine
 10
163.43463
 20
152.270501
 30
0.0
 11
166.93463
 21
155.770501
 31
0.0
  0
LINE
  5
2A3
330
29B
100
AcDbEntity
  8
LC-002-100-D00-0
 62
     1
370
    25
100
AcDbLine
 10
150.33463
 20
161.621141
 30
0.0
 11
153.498845
 21
164.785356
 31
0.0
  0
LINE
  5
2A4
330
29B
100
AcDbEntity
  8
LC-002-100-D00-0
 62
     1
370
    25
100
AcDbLine
 10
163.43463
 20
174.721141
 30
0.0
 11
166.93463
 21
178.221141
 31
0.0
  0
LINE
  5
2A5
330
29B
100
AcDbEntity
  8
LC-002-100-D00-0
 62
     1
370
    25
100
AcDbLine
 10
150.33463
 20
184.071781
 30
0.0
 11
153.897684
 21
187.634835
 31
0.0
  0
LINE
  5
2A6
330
29B
100
AcDbEntity
  8
LC-002-100-D00-0
 62
     1
370
    25
100
AcDbLine
 10
157.53463
 20
191.271781
 30
0.0
 11
161.03463
 21
194.771781
 31
0.0
  0
LINE
  5
2A7
330
29B
100
AcDbEntity
  8
LC-002-100-D00-0
 62
     1
370
    25
100
AcDbLine
 10
150.33463
 20
206.522422
 30
0.0
 11
154.704123
 21
210.891914
 31
0.0
  0
LINE
  5
2A8
330
29B
100
AcDbEntity
  8
LC-002-100-D00-0
 62
     1
370
    25
100
AcDbLine
 10
148.18463
 20
226.823062
 30
0.0
 11
151.68463
 21
230.323062
 31
0.0
  0
LINE
  5
2A9
330
29B
100
AcDbEntity
  8
LC-002-100-D00-0
 62
     1
370
    25
100
AcDbLine
 10
128.194935
 20
229.284007
 30
0.0
 11
131.694935
 21
232.784007
 31
0.0
  0
LINE
  5
2AA
330
29B
100
AcDbEntity
  8
LC-002-100-D00-0
 62
     1
370
    25
100
AcDbLine
 10
105.744294
 20
229.284007
 30
0.0
 11
109.244294
 21
232.784007
 31
0.0
  0
LINE
  5
2AB
330
29B
100
AcDbEntity
  8
LC-002-100-D00-0
 62
     1
370
    25
100
AcDbLine
 10
83.293654
 20
229.284007
 30
0.0
 11
86.793654
 21
232.784007
 31
0.0
  0
ENDBLK
  5
29D
330
29B
100
AcDbEntity
  8
0
100
AcDbBlockEnd
  0
BLOCK
  5
2AE
330
2AD
100
AcDbEntity
  8
0
100
AcDbBlockBegin
  2
KLON5
 70
     0
 71
     0
 10
0.0
 20
0.0
 30
0.0
  3
KLON5
  1

  4
KLON5
  0
LINE
  5
2B0
330
2AD
100
AcDbEntity
  8
LC-002-100-D00-0
 62
     1
370
    25
100
AcDbLine
 10
265.553259
 20
74.784007
 30
0.0
 11
266.976146
 21
76.206894
 31
0.0
  0
LINE
  5
2B1
330
2AD
100
AcDbEntity
  8
LC-002-100-D00-0
 62
     1
370
    25
100
AcDbLine
 10
264.43463
 20
96.116019
 30
0.0
 11
267.93463
 21
99.616019
 31
0.0
  0
LINE
  5
2B2
330
2AD
100
AcDbEntity
  8
LC-002-100-D00-0
 62
     1
370
    25
100
AcDbLine
 10
264.43463
 20
118.566659
 30
0.0
 11
267.93463
 21
122.066659
 31
0.0
  0
LINE
  5
2B3
330
2AD
100
AcDbEntity
  8
LC-002-100-D00-0
 62
     1
370
    25
100
AcDbLine
 10
291.651978
 20
145.784007
 30
0.0
 11
297.43463
 21
151.566659
 31
0.0
  0
LINE
  5
2B4
330
2AD
100
AcDbEntity
  8
LC-002-100-D00-0
 62
     1
370
    25
100
AcDbLine
 10
307.426736
 20
161.558765
 30
0.0
 11
310.53463
 21
164.666659
 31
0.0
  0
LINE
  5
2B5
330
2AD
100
AcDbEntity
  8
LC-002-100-D00-0
 62
     1
370
    25
100
AcDbLine
 10
375.151978
 20
229.284007
 30
0.0
 11
378.651978
 21
232.784007
 31
0.0
  0
LINE
  5
2B6
330
2AD
100
AcDbEntity
  8
LC-002-100-D00-0
 62
     1
370
    25
100
AcDbLine
 10
264.43463
 20
141.017299
 30
0.0
 11
268.43463
 21
145.017299
 31
0.0
  0
LINE
  5
2B7
330
2AD
100
AcDbEntity
  8
LC-002-100-D00-0
 62
     1
370
    25
100
AcDbLine
 10
269.035155
 20
145.617824
 30
0.0
 11
272.701338
 21
149.284007
 31
0.0
  0
LINE
  5
2B8
330
2AD
100
AcDbEntity
  8
LC-002-100-D00-0
 62
     1
370
    25
100
AcDbLine
 10
293.93463
 20
170.517299
 30
0.0
 11
297.43463
 21
174.017299
 31
0.0
  0
LINE
  5
2B9
330
2AD
100
AcDbEntity
  8
LC-002-100-D00-0
 62
     1
370
    25
100
AcDbLine
 10
307.041582
 20
183.62425
 30
0.0
 11
310.53463
 21
187.117299
 31
0.0
  0
LINE
  5
2BA
330
2AD
100
AcDbEntity
  8
LC-002-100-D00-0
 62
     1
370
    25
100
AcDbLine
 10
352.701338
 20
229.284007
 30
0.0
 11
356.201338
 21
232.784007
 31
0.0
  0
LINE
  5
2BB
330
2AD
100
AcDbEntity
  8
LC-002-100-D00-0
 62
     1
370
    25
100
AcDbLine
 10
305.93463
 20
204.96794
 30
0.0
 11
310.53463
 21
209.56794
 31
0.0
  0
LINE
  5
2BC
330
2AD
100
AcDbEntity
  8
LC-002-100-D00-0
 62
     1
370
    25
100
AcDbLine
 10
330.250697
 20
229.284007
 30
0.0
 11
333.750697
 21
232.784007
 31
0.0
  0
LINE
  5
2BD
330
2AD
100
AcDbEntity
  8
LC-002-100-D00-0
 62
     1
370
    25
100
AcDbLine
 10
309.18463
 20
230.66858
 30
0.0
 11
311.300057
 21
232.784007
 31
0.0
  0
ENDBLK
  5
2AF
330
2AD
100
AcDbEntity
  8
0
100
AcDbBlockEnd
  0
BLOCK
  5
2D1
330
2C7
100
AcDbEntity
  8
0
100
AcDbBlockBegin
  2
*D16
 70
     1
 71
     0
 10
0.0
 20
0.0
 30
0.0
  3
*D16
  1

  0
LINE
  5
2C8
330
2C7
100
AcDbEntity
  8
LC-003-003-----0
 62
     2
370
    -2
100
AcDbLine
 10
50.434623
 20
229.284
 30
0.0
 11
50.434623
 21
357.624
 31
0.0
  0
LINE
  5
2C9
330
2C7
100
AcDbEntity
  8
LC-003-003-----0
 62
     2
370
    -2
100
AcDbLine
 10
410.434638
 20
229.284
 30
0.0
 11
410.434638
 21
357.624
 31
0.0
  0
LINE
  5
2CA
330
2C7
100
AcDbEntity
  8
LC-003-003-----0
 62
     2
370
    -2
100
AcDbLine
 10
78.434623
 20
354.024
 30
0.0
 11
382.434638
 21
354.024
 31
0.0
  0
SOLID
  5
2CB
330
2C7
100
AcDbEntity
  8
LC-003-003-----0
 62
     2
100
AcDbTrace
 10
78.434623
 20
358.690667
 30
0.0
 11
78.434623
 21
349.357333
 31
0.0
 12
50.434623
 22
354.024
 32
0.0
 13
50.434623
 23
354.024
 33
0.0
  0
SOLID
  5
2CC
330
2C7
100
AcDbEntity
  8
LC-003-003-----0
 62
     2
100
AcDbTrace
 10
382.434638
 20
349.357333
 30
0.0
 11
382.434638
 21
358.690667
 31
0.0
 12
410.434638
 22
354.024
 32
0.0
 13
410.434638
 23
354.024
 33
0.0
  0
MTEXT
  5
2CD
330
2C7
100
AcDbEntity
  8
LC-003-003-----0
 62
     2
100
AcDbMText
 10
229.502435
 20
384.824
 30
0.0
 40
28.0
 41
0.0
 71
     5
 72
     1
  1
%%c\A1;360
  7
LCTX15-400-0-0pDIN-Schrift
 73
     1
 44
1.0
  0
POINT
  5
2CE
330
2C7
100
AcDbEntity
  8
Defpoints
 62
     0
100
AcDbPoint
 10
50.434623
 20
229.284
 30
0.0
  0
POINT
  5
2CF
330
2C7
100
AcDbEntity
  8
Defpoints
 62
     0
100
AcDbPoint
 10
410.434638
 20
229.284
 30
0.0
  0
POINT
  5
2D0
330
2C7
100
AcDbEntity
  8
Defpoints
 62
     0
100
AcDbPoint
 10
410.434638
 20
354.024
 30
0.0
  0
ENDBLK
  5
2D2
330
2C7
100
AcDbEntity
  8
0
100
AcDbBlockEnd
  0
BLOCK
  5
2DE
330
2D4
100
AcDbEntity
  8
0
100
AcDbBlockBegin
  2
*D17
 70
     1
 71
     0
 10
0.0
 20
0.0
 30
0.0
  3
*D17
  1

  0
LINE
  5
2D5
330
2D4
100
AcDbEntity
  8
LC-003-003-----0
 62
     2
370
    -2
100
AcDbLine
 10
150.33463
 20
146.784004
 30
0.0
 11
150.33463
 21
-30.33
 31
0.0
  0
LINE
  5
2D6
330
2D4
100
AcDbEntity
  8
LC-003-003-----0
 62
     2
370
    -2
100
AcDbLine
 10
310.53463
 20
146.784004
 30
0.0
 11
310.53463
 21
-30.33
 31
0.0
  0
LINE
  5
2D7
330
2D4
100
AcDbEntity
  8
LC-003-003-----0
 62
     2
370
    -2
100
AcDbLine
 10
178.33463
 20
-26.73
 30
0.0
 11
282.53463
 21
-26.73
 31
0.0
  0
SOLID
  5
2D8
330
2D4
100
AcDbEntity
  8
LC-003-003-----0
 62
     2
100
AcDbTrace
 10
178.33463
 20
-22.063333
 30
0.0
 11
178.33463
 21
-31.396667
 31
0.0
 12
150.33463
 22
-26.73
 32
0.0
 13
150.33463
 23
-26.73
 33
0.0
  0
SOLID
  5
2D9
330
2D4
100
AcDbEntity
  8
LC-003-003-----0
 62
     2
100
AcDbTrace
 10
282.53463
 20
-31.396667
 30
0.0
 11
282.53463
 21
-22.063333
 31
0.0
 12
310.53463
 22
-26.73
 32
0.0
 13
310.53463
 23
-26.73
 33
0.0
  0
MTEXT
  5
2DA
330
2D4
100
AcDbEntity
  8
LC-003-003-----0
 62
     2
100
AcDbMText
 10
219.751217
 20
4.07
 30
0.0
 40
28.0
 41
0.0
 71
     5
 72
     1
  1
\A1;%%c160
  7
LCTX15-400-0-0pDIN-Schrift
 73
     1
 44
1.0
  0
POINT
  5
2DB
330
2D4
100
AcDbEntity
  8
Defpoints
 62
     0
100
AcDbPoint
 10
150.33463
 20
146.784004
 30
0.0
  0
POINT
  5
2DC
330
2D4
100
AcDbEntity
  8
Defpoints
 62
     0
100
AcDbPoint
 10
310.53463
 20
146.784004
 30
0.0
  0
POINT
  5
2DD
330
2D4
100
AcDbEntity
  8
Defpoints
 62
     0
100
AcDbPoint
 10
310.53463
 20
-26.73
 30
0.0
  0
ENDBLK
  5
2DF
330
2D4
100
AcDbEntity
  8
0
100
AcDbBlockEnd
  0
BLOCK
  5
2EC
330
2E1
100
AcDbEntity
  8
0
100
AcDbBlockBegin
  2
*D18
 70
     1
 71
     0
 10
0.0
 20
0.0
 30
0.0
  3
*D18
  1

  0
LINE
  5
2E2
330
2E1
100
AcDbEntity
  8
LC-003-003-----0
 62
     2
370
    -2
100
AcDbLine
 10
192.93463
 20
91.96794
 30
0.0
 11
192.93463
 21
42.732
 31
0.0
  0
LINE
  5
2E3
330
2E1
100
AcDbEntity
  8
LC-003-003-----0
 62
     2
370
    -2
100
AcDbLine
 10
267.93463
 20
99.616019
 30
0.0
 11
267.93463
 21
42.732
 31
0.0
  0
LINE
  5
2E4
330
2E1
100
AcDbEntity
  8
LC-003-003-----0
 62
     2
370
    -2
100
AcDbLine
 10
220.93463
 20
46.332
 30
0.0
 11
239.93463
 21
46.332
 31
0.0
  0
LINE
  5
2E5
330
2E1
100
AcDbEntity
  8
LC-003-003-----0
 62
     2
370
    -2
100
AcDbLine
 10
267.93463
 20
46.332
 30
0.0
 11
399.645597
 21
46.332
 31
0.0
  0
SOLID
  5
2E6
330
2E1
100
AcDbEntity
  8
LC-003-003-----0
 62
     2
100
AcDbTrace
 10
220.93463
 20
50.998667
 30
0.0
 11
220.93463
 21
41.665333
 31
0.0
 12
192.93463
 22
46.332
 32
0.0
 13
192.93463
 23
46.332
 33
0.0
  0
SOLID
  5
2E7
330
2E1
100
AcDbEntity
  8
LC-003-003-----0
 62
     2
100
AcDbTrace
 10
239.93463
 20
41.665333
 30
0.0
 11
239.93463
 21
50.998667
 31
0.0
 12
267.93463
 22
46.332
 32
0.0
 13
267.93463
 23
46.332
 33
0.0
  0
MTEXT
  5
2E8
330
2E1
100
AcDbEntity
  8
LC-003-003-----0
 62
     2
100
AcDbMText
 10
353.608839
 20
77.132
 30
0.0
 40
28.0
 41
0.0
 71
     5
 72
     1
  1
\A1;DN70
  7
LCTX15-400-0-0pDIN-Schrift
 73
     1
 44
1.0
  0
POINT
  5
2E9
330
2E1
100
AcDbEntity
  8
Defpoints
 62
     0
100
AcDbPoint
 10
192.93463
 20
91.96794
 30
0.0
  0
POINT
  5
2EA
330
2E1
100
AcDbEntity
  8
Defpoints
 62
     0
100
AcDbPoint
 10
267.93463
 20
99.616019
 30
0.0
  0
POINT
  5
2EB
330
2E1
100
AcDbEntity
  8
Defpoints
 62
     0
100
AcDbPoint
 10
267.93463
 20
46.332
 30
0.0
  0
ENDBLK
  5
2ED
330
2E1
100
AcDbEntity
  8
0
100
AcDbBlockEnd
  0
BLOCK
  5
2F9
330
2EF
100
AcDbEntity
  8
0
100
AcDbBlockBegin
  2
*D19
 70
     1
 71
     0
 10
0.0
 20
0.0
 30
0.0
  3
*D19
  1

  0
LINE
  5
2F0
330
2EF
100
AcDbEntity
  8
LC-003-003-----0
 62
     2
370
    -2
100
AcDbLine
 10
52.43463
 20
232.784007
 30
0.0
 11
22.899817
 21
232.784007
 31
0.0
  0
LINE
  5
2F1
330
2EF
100
AcDbEntity
  8
LC-003-003-----0
 62
     2
370
    -2
100
AcDbLine
 10
158.43463
 20
136.784007
 30
0.0
 11
22.899817
 21
136.784007
 31
0.0
  0
LINE
  5
2F2
330
2EF
100
AcDbEntity
  8
LC-003-003-----0
 62
     2
370
    -2
100
AcDbLine
 10
26.499817
 20
204.784007
 30
0.0
 11
26.499817
 21
164.784007
 31
0.0
  0
SOLID
  5
2F3
330
2EF
100
AcDbEntity
  8
LC-003-003-----0
 62
     2
100
AcDbTrace
 10
31.166483
 20
204.784007
 30
0.0
 11
21.83315
 21
204.784007
 31
0.0
 12
26.499817
 22
232.784007
 32
0.0
 13
26.499817
 23
232.784007
 33
0.0
  0
SOLID
  5
2F4
330
2EF
100
AcDbEntity
  8
LC-003-003-----0
 62
     2
100
AcDbTrace
 10
21.83315
 20
164.784007
 30
0.0
 11
31.166483
 21
164.784007
 31
0.0
 12
26.499817
 22
136.784007
 32
0.0
 13
26.499817
 23
136.784007
 33
0.0
  0
MTEXT
  5
2F5
330
2EF
100
AcDbEntity
  8
LC-003-003-----0
 62
     2
100
AcDbMText
 10
-4.300183
 20
177.012
 30
0.0
 40
28.0
 41
0.0
 71
     5
 72
     1
  1
\A1;96
  7
LCTX15-400-0-0pDIN-Schrift
 11
6.123031769111886E-17
 21
1.0
 31
0.0
 73
     1
 44
1.0
  0
POINT
  5
2F6
330
2EF
100
AcDbEntity
  8
Defpoints
 62
     0
100
AcDbPoint
 10
52.43463
 20
232.784007
 30
0.0
  0
POINT
  5
2F7
330
2EF
100
AcDbEntity
  8
Defpoints
 62
     0
100
AcDbPoint
 10
158.43463
 20
136.784007
 30
0.0
  0
POINT
  5
2F8
330
2EF
100
AcDbEntity
  8
Defpoints
 62
     0
100
AcDbPoint
 10
26.499817
 20
136.784007
 30
0.0
  0
ENDBLK
  5
2FA
330
2EF
100
AcDbEntity
  8
0
100
AcDbBlockEnd
  0
BLOCK
  5
306
330
2FC
100
AcDbEntity
  8
0
100
AcDbBlockBegin
  2
*D20
 70
     1
 71
     0
 10
0.0
 20
0.0
 30
0.0
  3
*D20
  1

  0
LINE
  5
2FD
330
2FC
100
AcDbEntity
  8
LC-003-003-----0
 62
     2
370
    -2
100
AcDbLine
 10
52.43463
 20
232.784007
 30
0.0
 11
-31.175117
 21
232.784007
 31
0.0
  0
LINE
  5
2FE
330
2FC
100
AcDbEntity
  8
LC-003-003-----0
 62
     2
370
    -2
100
AcDbLine
 10
196.434629
 20
74.784006
 30
0.0
 11
-31.175117
 21
74.784006
 31
0.0
  0
LINE
  5
2FF
330
2FC
100
AcDbEntity
  8
LC-003-003-----0
 62
     2
370
    -2
100
AcDbLine
 10
-27.575117
 20
204.784007
 30
0.0
 11
-27.575117
 21
102.784006
 31
0.0
  0
SOLID
  5
300
330
2FC
100
AcDbEntity
  8
LC-003-003-----0
 62
     2
100
AcDbTrace
 10
-22.90845
 20
204.784007
 30
0.0
 11
-32.241783
 21
204.784007
 31
0.0
 12
-27.575117
 22
232.784007
 32
0.0
 13
-27.575117
 23
232.784007
 33
0.0
  0
SOLID
  5
301
330
2FC
100
AcDbEntity
  8
LC-003-003-----0
 62
     2
100
AcDbTrace
 10
-32.241783
 20
102.784006
 30
0.0
 11
-22.90845
 21
102.784006
 31
0.0
 12
-27.575117
 22
74.784006
 32
0.0
 13
-27.575117
 23
74.784006
 33
0.0
  0
MTEXT
  5
302
330
2FC
100
AcDbEntity
  8
LC-003-003-----0
 62
     2
100
AcDbMText
 10
-58.375117
 20
146.718
 30
0.0
 40
28.0
 41
0.0
 71
     5
 72
     1
  1
\A1;158
  7
LCTX15-400-0-0pDIN-Schrift
 11
6.123031769111886E-17
 21
1.0
 31
0.0
 73
     1
 44
1.0
  0
POINT
  5
303
330
2FC
100
AcDbEntity
  8
Defpoints
 62
     0
100
AcDbPoint
 10
52.43463
 20
232.784007
 30
0.0
  0
POINT
  5
304
330
2FC
100
AcDbEntity
  8
Defpoints
 62
     0
100
AcDbPoint
 10
196.434629
 20
74.784006
 30
0.0
  0
POINT
  5
305
330
2FC
100
AcDbEntity
  8
Defpoints
 62
     0
100
AcDbPoint
 10
-27.575117
 20
74.784006
 30
0.0
  0
ENDBLK
  5
307
330
2FC
100
AcDbEntity
  8
0
100
AcDbBlockEnd
  0
ENDSEC
  0
SECTION
  2
ENTITIES
  0
LINE
  5
32
330
1F
100
AcDbEntity
  8
LC-001-002-----0
 62
     7
370
    25
100
AcDbLine
 10
230.43463
 20
307.784018
 30
0.0
 11
230.43463
 21
74.784006
 31
0.0
  0
LINE
  5
34
330
1F
100
AcDbEntity
  8
LC-002-100-D00-0
 62
     7
370
    50
100
AcDbLine
 10
153.184634
 20
199.984003
 30
0.0
 11
154.339332
 21
197.984007
 31
0.0
  0
LINE
  5
35
330
1F
100
AcDbEntity
  8
LC-002-100-D00-0
 62
     7
370
    50
100
AcDbLine
 10
306.529928
 20
197.984007
 30
0.0
 11
307.684627
 21
199.984003
 31
0.0
  0
LINE
  5
36
330
1F
100
AcDbEntity
  8
LC-002-100-D00-0
 62
     7
370
    50
100
AcDbLine
 10
153.184634
 20
202.484008
 30
0.0
 11
153.184634
 21
199.984003
 31
0.0
  0
ARC
  5
37
330
1F
100
AcDbEntity
  8
LC-002-100-D00-0
 62
     7
370
    50
100
AcDbCircle
 10
163.68463
 20
200.484007
 30
0.0
 40
1.999999999999773
100
AcDbArc
 50
0.0
 51
90.0
  0
LINE
  5
38
330
1F
100
AcDbEntity
  8
LC-002-100-D00-0
 62
     7
370
    50
100
AcDbLine
 10
165.68463
 20
199.984003
 30
0.0
 11
165.68463
 21
200.484004
 31
0.0
  0
LINE
  5
39
330
1F
100
AcDbEntity
  8
LC-002-100-D00-0
 62
     7
370
    50
100
AcDbLine
 10
163.184632
 20
199.984003
 30
0.0
 11
165.68463
 21
199.984003
 31
0.0
  0
ARC
  5
3A
330
1F
100
AcDbEntity
  8
LC-002-100-D00-0
 62
     7
370
    50
100
AcDbCircle
 10
163.18463
 20
197.984007
 30
0.0
 40
2.0
100
AcDbArc
 50
90.0
 51
180.0
  0
LINE
  5
3B
330
1F
100
AcDbEntity
  8
LC-002-100-D00-0
 62
     7
370
    50
100
AcDbLine
 10
163.684633
 20
202.484008
 30
0.0
 11
153.184634
 21
202.484008
 31
0.0
  0
LINE
  5
3C
330
1F
100
AcDbEntity
  8
LC-002-100-D00-0
 62
     7
370
    50
100
AcDbLine
 10
154.339332
 20
197.984007
 30
0.0
 11
161.184628
 21
197.984007
 31
0.0
  0
LINE
  5
3D
330
1F
100
AcDbEntity
  8
LC-002-100-D00-0
 62
     7
370
    50
100
AcDbLine
 10
307.684627
 20
199.984003
 30
0.0
 11
307.684627
 21
202.484008
 31
0.0
  0
LINE
  5
3E
330
1F
100
AcDbEntity
  8
LC-002-100-D00-0
 62
     7
370
    50
100
AcDbLine
 10
295.184631
 20
200.484004
 30
0.0
 11
295.184631
 21
199.984003
 31
0.0
  0
LINE
  5
3F
330
1F
100
AcDbEntity
  8
LC-002-100-D00-0
 62
     7
370
    50
100
AcDbLine
 10
165.68463
 20
199.984003
 30
0.0
 11
295.184631
 21
199.984003
 31
0.0
  0
ARC
  5
40
330
1F
100
AcDbEntity
  8
LC-002-100-D00-0
 62
     7
370
    50
100
AcDbCircle
 10
297.18463
 20
200.484007
 30
0.0
 40
2.000000000000227
100
AcDbArc
 50
90.0
 51
180.0
  0
ARC
  5
41
330
1F
100
AcDbEntity
  8
LC-002-100-D00-0
 62
     7
370
    50
100
AcDbCircle
 10
297.68463
 20
197.984007
 30
0.0
 40
2.000000000000455
100
AcDbArc
 50
0.0
 51
90.0
  0
LINE
  5
42
330
1F
100
AcDbEntity
  8
LC-002-100-D00-0
 62
     7
370
    50
100
AcDbLine
 10
295.184631
 20
199.984003
 30
0.0
 11
297.684629
 21
199.984003
 31
0.0
  0
LINE
  5
43
330
1F
100
AcDbEntity
  8
LC-002-100-D00-0
 62
     7
370
    50
100
AcDbLine
 10
307.684627
 20
202.484008
 30
0.0
 11
297.184628
 21
202.484008
 31
0.0
  0
LINE
  5
44
330
1F
100
AcDbEntity
  8
LC-002-100-D00-0
 62
     7
370
    50
100
AcDbLine
 10
299.684633
 20
197.984007
 30
0.0
 11
306.529928
 21
197.984007
 31
0.0
  0
LINE
  5
45
330
1F
100
AcDbEntity
  8
LC-002-100-D00-0
 62
     7
370
    50
100
AcDbLine
 10
163.684633
 20
202.484008
 30
0.0
 11
297.184628
 21
202.484008
 31
0.0
  0
LINE
  5
46
330
1F
100
AcDbEntity
  8
LC-002-100-D00-0
 62
     7
370
    50
100
AcDbLine
 10
161.184628
 20
197.984007
 30
0.0
 11
299.684633
 21
197.984007
 31
0.0
  0
LINE
  5
47
330
1F
100
AcDbEntity
  8
LC-002-100-D00-0
 62
     7
370
    50
100
AcDbLine
 10
150.33463
 20
146.784004
 30
0.0
 11
150.33463
 21
211.460095
 31
0.0
  0
LINE
  5
48
330
1F
100
AcDbEntity
  8
LC-002-100-D00-0
 62
     7
370
    50
100
AcDbLine
 10
150.33463
 20
211.460095
 30
0.0
 11
148.184631
 21
215.184
 31
0.0
  0
LINE
  5
49
330
1F
100
AcDbEntity
  8
LC-002-100-D00-0
 62
     7
370
    50
100
AcDbLine
 10
148.184631
 20
215.184
 30
0.0
 11
148.184631
 21
229.284
 31
0.0
  0
LINE
  5
4A
330
1F
100
AcDbEntity
  8
LC-002-100-D00-0
 62
     7
370
    50
100
AcDbLine
 10
148.184631
 20
229.284
 30
0.0
 11
66.434626
 21
229.284
 31
0.0
  0
LINE
  5
4B
330
1F
100
AcDbEntity
  8
LC-002-100-D00-0
 62
     7
370
    50
100
AcDbLine
 10
66.434626
 20
230.78401
 30
0.0
 11
66.434626
 21
229.284
 31
0.0
  0
LINE
  5
4C
330
1F
100
AcDbEntity
  8
LC-002-100-D00-0
 62
     7
370
    50
100
AcDbLine
 10
66.434626
 20
230.78401
 30
0.0
 11
68.43463
 21
232.784
 31
0.0
  0
LINE
  5
4D
330
1F
100
AcDbEntity
  8
LC-002-100-D00-0
 62
     7
370
    50
100
AcDbLine
 10
68.43463
 20
232.784
 30
0.0
 11
150.684629
 21
232.784
 31
0.0
  0
ARC
  5
4E
330
1F
100
AcDbEntity
  8
LC-002-100-D00-0
 62
     7
370
    50
100
AcDbCircle
 10
150.68463
 20
231.784007
 30
0.0
 40
1.000000000000455
100
AcDbArc
 50
0.0
 51
90.0
  0
LINE
  5
4F
330
1F
100
AcDbEntity
  8
LC-002-100-D00-0
 62
     7
370
    50
100
AcDbLine
 10
151.684631
 20
231.784013
 30
0.0
 11
151.684631
 21
216.121834
 31
0.0
  0
LINE
  5
50
330
1F
100
AcDbEntity
  8
LC-002-100-D00-0
 62
     7
370
    50
100
AcDbLine
 10
151.684631
 20
216.121834
 30
0.0
 11
155.684632
 21
209.193629
 31
0.0
  0
LINE
  5
51
330
1F
100
AcDbEntity
  8
LC-002-100-D00-0
 62
     7
370
    50
100
AcDbLine
 10
155.684632
 20
209.193629
 30
0.0
 11
155.684632
 21
208.193627
 31
0.0
  0
LINE
  5
52
330
1F
100
AcDbEntity
  8
LC-002-100-D00-0
 62
     7
370
    50
100
AcDbLine
 10
155.684632
 20
208.193627
 30
0.0
 11
154.934634
 21
207.760614
 31
0.0
  0
LINE
  5
53
330
1F
100
AcDbEntity
  8
LC-002-100-D00-0
 62
     7
370
    50
100
AcDbLine
 10
154.934634
 20
207.760614
 30
0.0
 11
154.934634
 21
203.584005
 31
0.0
  0
LINE
  5
54
330
1F
100
AcDbEntity
  8
LC-002-100-D00-0
 62
     7
370
    50
100
AcDbLine
 10
154.934634
 20
203.584005
 30
0.0
 11
153.434631
 21
202.58401
 31
0.0
  0
LINE
  5
55
330
1F
100
AcDbEntity
  8
LC-002-100-D00-0
 62
     7
370
    50
100
AcDbLine
 10
153.434631
 20
202.58401
 30
0.0
 11
153.434631
 21
197.984007
 31
0.0
  0
LINE
  5
56
330
1F
100
AcDbEntity
  8
LC-002-100-D00-0
 62
     7
370
    50
100
AcDbLine
 10
153.434631
 20
197.984007
 30
0.0
 11
160.034631
 21
197.984007
 31
0.0
  0
ARC
  5
57
330
1F
100
AcDbEntity
  8
LC-002-100-D00-0
 62
     7
370
    50
100
AcDbCircle
 10
160.03463
 20
196.984007
 30
0.0
 40
1.000000000000227
100
AcDbArc
 50
0.0
 51
90.0
  0
LINE
  5
58
330
1F
100
AcDbEntity
  8
LC-002-100-D00-0
 62
     7
370
    50
100
AcDbLine
 10
161.034633
 20
196.984005
 30
0.0
 11
161.034633
 21
189.784009
 31
0.0
  0
ARC
  5
59
330
1F
100
AcDbEntity
  8
LC-002-100-D00-0
 62
     7
370
    50
100
AcDbCircle
 10
162.03463
 20
189.784007
 30
0.0
 40
0.9999999999997726
100
AcDbArc
 50
180.0
 51
270.0
  0
LINE
  5
5A
330
1F
100
AcDbEntity
  8
LC-002-100-D00-0
 62
     7
370
    50
100
AcDbLine
 10
162.034627
 20
188.784007
 30
0.0
 11
165.934634
 21
188.784007
 31
0.0
  0
ARC
  5
5B
330
1F
100
AcDbEntity
  8
LC-002-100-D00-0
 62
     7
370
    50
100
AcDbCircle
 10
165.93463
 20
187.784007
 30
0.0
 40
0.9999999999997726
100
AcDbArc
 50
0.0
 51
90.0
  0
LINE
  5
5C
330
1F
100
AcDbEntity
  8
LC-002-100-D00-0
 62
     7
370
    50
100
AcDbLine
 10
166.934628
 20
187.784005
 30
0.0
 11
166.934628
 21
149.284009
 31
0.0
  0
LINE
  5
5D
330
1F
100
AcDbEntity
  8
LC-002-100-D00-0
 62
     7
370
    50
100
AcDbLine
 10
166.934628
 20
149.284009
 30
0.0
 11
196.434629
 21
149.284009
 31
0.0
  0
LINE
  5
5E
330
1F
100
AcDbEntity
  8
LC-002-100-D00-0
 62
     7
370
    50
100
AcDbLine
 10
196.434629
 20
149.284009
 30
0.0
 11
196.434629
 21
74.784006
 31
0.0
  0
LINE
  5
5F
330
1F
100
AcDbEntity
  8
LC-002-100-D00-0
 62
     7
370
    50
100
AcDbLine
 10
196.434629
 20
74.784006
 30
0.0
 11
194.274377
 21
74.784006
 31
0.0
  0
LINE
  5
60
330
1F
100
AcDbEntity
  8
LC-002-100-D00-0
 62
     7
370
    50
100
AcDbLine
 10
194.274377
 20
74.784006
 30
0.0
 11
192.934629
 21
79.784007
 31
0.0
  0
LINE
  5
61
330
1F
100
AcDbEntity
  8
LC-002-100-D00-0
 62
     7
370
    50
100
AcDbLine
 10
192.934629
 20
79.784007
 30
0.0
 11
192.934629
 21
136.284005
 31
0.0
  0
LINE
  5
62
330
1F
100
AcDbEntity
  8
LC-002-100-D00-0
 62
     7
370
    50
100
AcDbLine
 10
192.434632
 20
136.784006
 30
0.0
 11
192.934629
 21
136.284005
 31
0.0
  0
LINE
  5
63
330
1F
100
AcDbEntity
  8
LC-002-100-D00-0
 62
     7
370
    50
100
AcDbLine
 10
192.434632
 20
136.784006
 30
0.0
 11
192.434632
 21
145.565283
 31
0.0
  0
LINE
  5
64
330
1F
100
AcDbEntity
  8
LC-002-100-D00-0
 62
     7
370
    50
100
AcDbLine
 10
192.434632
 20
145.565283
 30
0.0
 11
189.93463
 21
145.78401
 31
0.0
  0
LINE
  5
65
330
1F
100
AcDbEntity
  8
LC-002-100-D00-0
 62
     7
370
    50
100
AcDbLine
 10
189.93463
 20
145.78401
 30
0.0
 11
163.434629
 21
145.78401
 31
0.0
  0
LINE
  5
66
330
1F
100
AcDbEntity
  8
LC-002-100-D00-0
 62
     7
370
    50
100
AcDbLine
 10
163.434629
 20
145.78401
 30
0.0
 11
163.434629
 21
185.284008
 31
0.0
  0
LINE
  5
67
330
1F
100
AcDbEntity
  8
LC-002-100-D00-0
 62
     7
370
    50
100
AcDbLine
 10
163.434629
 20
185.284008
 30
0.0
 11
160.034631
 21
185.284008
 31
0.0
  0
ARC
  5
68
330
1F
100
AcDbEntity
  8
LC-002-100-D00-0
 62
     7
370
    50
100
AcDbCircle
 10
160.03463
 20
187.784007
 30
0.0
 40
2.5
100
AcDbArc
 50
180.0
 51
270.0
  0
LINE
  5
69
330
1F
100
AcDbEntity
  8
LC-002-100-D00-0
 62
     7
370
    50
100
AcDbLine
 10
157.534633
 20
187.784005
 30
0.0
 11
157.534633
 21
194.484007
 31
0.0
  0
LINE
  5
6A
330
1F
100
AcDbEntity
  8
LC-002-100-D00-0
 62
     7
370
    50
100
AcDbLine
 10
157.534633
 20
194.484007
 30
0.0
 11
154.017236
 21
194.484007
 31
0.0
  0
LINE
  5
6B
330
1F
100
AcDbEntity
  8
LC-002-100-D00-0
 62
     7
370
    50
100
AcDbLine
 10
154.017236
 20
194.484007
 30
0.0
 11
153.184634
 21
146.784004
 31
0.0
  0
LINE
  5
6C
330
1F
100
AcDbEntity
  8
LC-002-100-D00-0
 62
     7
370
    50
100
AcDbLine
 10
153.184634
 20
146.784004
 30
0.0
 11
150.33463
 21
146.784004
 31
0.0
  0
LINE
  5
6D
330
1F
100
AcDbEntity
  8
LC-002-100-D00-0
 62
     7
370
    50
100
AcDbLine
 10
264.434632
 20
149.284009
 30
0.0
 11
196.434629
 21
149.284009
 31
0.0
  0
LINE
  5
6E
330
1F
100
AcDbEntity
  8
LC-002-100-D00-0
 62
     7
370
    50
100
AcDbLine
 10
264.434632
 20
74.784006
 30
0.0
 11
264.434632
 21
149.284009
 31
0.0
  0
LINE
  5
6F
330
1F
100
AcDbEntity
  8
LC-002-100-D00-0
 62
     7
370
    50
100
AcDbLine
 10
264.434632
 20
74.784006
 30
0.0
 11
196.434629
 21
74.784006
 31
0.0
  0
LINE
  5
70
330
1F
100
AcDbEntity
  8
LC-002-100-D00-0
 62
     7
370
    50
100
AcDbLine
 10
307.684627
 20
146.784004
 30
0.0
 11
306.852024
 21
194.484007
 31
0.0
  0
LINE
  5
71
330
1F
100
AcDbEntity
  8
LC-002-100-D00-0
 62
     7
370
    50
100
AcDbLine
 10
306.852024
 20
194.484007
 30
0.0
 11
303.334628
 21
194.484007
 31
0.0
  0
LINE
  5
72
330
1F
100
AcDbEntity
  8
LC-002-100-D00-0
 62
     7
370
    50
100
AcDbLine
 10
303.334628
 20
194.484007
 30
0.0
 11
303.334628
 21
187.784005
 31
0.0
  0
ARC
  5
73
330
1F
100
AcDbEntity
  8
LC-002-100-D00-0
 62
     7
370
    50
100
AcDbCircle
 10
300.83463
 20
187.784007
 30
0.0
 40
2.5
100
AcDbArc
 50
270.0
 51
0.0
  0
LINE
  5
74
330
1F
100
AcDbEntity
  8
LC-002-100-D00-0
 62
     7
370
    50
100
AcDbLine
 10
300.83463
 20
185.284008
 30
0.0
 11
297.434632
 21
185.284008
 31
0.0
  0
LINE
  5
75
330
1F
100
AcDbEntity
  8
LC-002-100-D00-0
 62
     7
370
    50
100
AcDbLine
 10
297.434632
 20
185.284008
 30
0.0
 11
297.434632
 21
145.78401
 31
0.0
  0
LINE
  5
76
330
1F
100
AcDbEntity
  8
LC-002-100-D00-0
 62
     7
370
    50
100
AcDbLine
 10
297.434632
 20
145.78401
 30
0.0
 11
270.934631
 21
145.78401
 31
0.0
  0
LINE
  5
77
330
1F
100
AcDbEntity
  8
LC-002-100-D00-0
 62
     7
370
    50
100
AcDbLine
 10
270.934631
 20
145.78401
 30
0.0
 11
268.434629
 21
145.565283
 31
0.0
  0
LINE
  5
78
330
1F
100
AcDbEntity
  8
LC-002-100-D00-0
 62
     7
370
    50
100
AcDbLine
 10
268.434629
 20
145.565283
 30
0.0
 11
268.434629
 21
136.784006
 31
0.0
  0
LINE
  5
79
330
1F
100
AcDbEntity
  8
LC-002-100-D00-0
 62
     7
370
    50
100
AcDbLine
 10
267.934632
 20
136.284005
 30
0.0
 11
268.434629
 21
136.784006
 31
0.0
  0
LINE
  5
7A
330
1F
100
AcDbEntity
  8
LC-002-100-D00-0
 62
     7
370
    50
100
AcDbLine
 10
267.934632
 20
136.284005
 30
0.0
 11
267.934632
 21
79.784007
 31
0.0
  0
LINE
  5
7B
330
1F
100
AcDbEntity
  8
LC-002-100-D00-0
 62
     7
370
    50
100
AcDbLine
 10
267.934632
 20
79.784007
 30
0.0
 11
266.594883
 21
74.784006
 31
0.0
  0
LINE
  5
7C
330
1F
100
AcDbEntity
  8
LC-002-100-D00-0
 62
     7
370
    50
100
AcDbLine
 10
264.434632
 20
149.284009
 30
0.0
 11
293.934632
 21
149.284009
 31
0.0
  0
LINE
  5
7D
330
1F
100
AcDbEntity
  8
LC-002-100-D00-0
 62
     7
370
    50
100
AcDbLine
 10
293.934632
 20
149.284009
 30
0.0
 11
293.934632
 21
187.784005
 31
0.0
  0
ARC
  5
7E
330
1F
100
AcDbEntity
  8
LC-002-100-D00-0
 62
     7
370
    50
100
AcDbCircle
 10
294.93463
 20
187.784007
 30
0.0
 40
1.0
100
AcDbArc
 50
90.0
 51
180.0
  0
LINE
  5
7F
330
1F
100
AcDbEntity
  8
LC-002-100-D00-0
 62
     7
370
    50
100
AcDbLine
 10
294.934627
 20
188.784007
 30
0.0
 11
298.834633
 21
188.784007
 31
0.0
  0
ARC
  5
80
330
1F
100
AcDbEntity
  8
LC-002-100-D00-0
 62
     7
370
    50
100
AcDbCircle
 10
298.83463
 20
189.784007
 30
0.0
 40
1.000000000000227
100
AcDbArc
 50
270.0
 51
0.0
  0
LINE
  5
81
330
1F
100
AcDbEntity
  8
LC-002-100-D00-0
 62
     7
370
    50
100
AcDbLine
 10
299.834628
 20
189.784009
 30
0.0
 11
299.834628
 21
196.984005
 31
0.0
  0
ARC
  5
82
330
1F
100
AcDbEntity
  8
LC-002-100-D00-0
 62
     7
370
    50
100
AcDbCircle
 10
300.83463
 20
196.984007
 30
0.0
 40
1.000000000000227
100
AcDbArc
 50
90.0
 51
180.0
  0
LINE
  5
83
330
1F
100
AcDbEntity
  8
LC-002-100-D00-0
 62
     7
370
    50
100
AcDbLine
 10
300.83463
 20
197.984007
 30
0.0
 11
307.43463
 21
197.984007
 31
0.0
  0
LINE
  5
84
330
1F
100
AcDbEntity
  8
LC-002-100-D00-0
 62
     7
370
    50
100
AcDbLine
 10
307.43463
 20
197.984007
 30
0.0
 11
307.43463
 21
202.58401
 31
0.0
  0
LINE
  5
85
330
1F
100
AcDbEntity
  8
LC-002-100-D00-0
 62
     7
370
    50
100
AcDbLine
 10
307.43463
 20
202.58401
 30
0.0
 11
305.934627
 21
203.584005
 31
0.0
  0
LINE
  5
86
330
1F
100
AcDbEntity
  8
LC-002-100-D00-0
 62
     7
370
    50
100
AcDbLine
 10
305.934627
 20
203.584005
 30
0.0
 11
305.934627
 21
207.760614
 31
0.0
  0
LINE
  5
87
330
1F
100
AcDbEntity
  8
LC-002-100-D00-0
 62
     7
370
    50
100
AcDbLine
 10
305.934627
 20
207.760614
 30
0.0
 11
305.184629
 21
208.193627
 31
0.0
  0
LINE
  5
88
330
1F
100
AcDbEntity
  8
LC-002-100-D00-0
 62
     7
370
    50
100
AcDbLine
 10
305.184629
 20
208.193627
 30
0.0
 11
305.184629
 21
209.193629
 31
0.0
  0
LINE
  5
89
330
1F
100
AcDbEntity
  8
LC-002-100-D00-0
 62
     7
370
    50
100
AcDbLine
 10
305.184629
 20
209.193629
 30
0.0
 11
309.18463
 21
216.121834
 31
0.0
  0
LINE
  5
8A
330
1F
100
AcDbEntity
  8
LC-002-100-D00-0
 62
     7
370
    50
100
AcDbLine
 10
309.18463
 20
216.121834
 30
0.0
 11
309.18463
 21
231.784013
 31
0.0
  0
ARC
  5
8B
330
1F
100
AcDbEntity
  8
LC-002-100-D00-0
 62
     7
370
    50
100
AcDbCircle
 10
310.18463
 20
231.784007
 30
0.0
 40
1.0
100
AcDbArc
 50
90.0
 51
180.0
  0
LINE
  5
8C
330
1F
100
AcDbEntity
  8
LC-002-100-D00-0
 62
     7
370
    50
100
AcDbLine
 10
310.184632
 20
232.784
 30
0.0
 11
392.434631
 21
232.784
 31
0.0
  0
LINE
  5
8D
330
1F
100
AcDbEntity
  8
LC-002-100-D00-0
 62
     7
370
    50
100
AcDbLine
 10
392.434631
 20
232.784
 30
0.0
 11
394.434635
 21
230.78401
 31
0.0
  0
LINE
  5
8E
330
1F
100
AcDbEntity
  8
LC-002-100-D00-0
 62
     7
370
    50
100
AcDbLine
 10
394.434635
 20
229.284
 30
0.0
 11
394.434635
 21
230.78401
 31
0.0
  0
LINE
  5
8F
330
1F
100
AcDbEntity
  8
LC-002-100-D00-0
 62
     7
370
    50
100
AcDbLine
 10
394.434635
 20
229.284
 30
0.0
 11
312.684629
 21
229.284
 31
0.0
  0
LINE
  5
90
330
1F
100
AcDbEntity
  8
LC-002-100-D00-0
 62
     7
370
    50
100
AcDbLine
 10
312.684629
 20
229.284
 30
0.0
 11
312.684629
 21
215.184
 31
0.0
  0
LINE
  5
91
330
1F
100
AcDbEntity
  8
LC-002-100-D00-0
 62
     7
370
    50
100
AcDbLine
 10
312.684629
 20
215.184
 30
0.0
 11
310.53463
 21
211.460095
 31
0.0
  0
LINE
  5
92
330
1F
100
AcDbEntity
  8
LC-002-100-D00-0
 62
     7
370
    50
100
AcDbLine
 10
310.53463
 20
211.460095
 30
0.0
 11
310.53463
 21
146.784004
 31
0.0
  0
LINE
  5
93
330
1F
100
AcDbEntity
  8
LC-002-100-D00-0
 62
     7
370
    50
100
AcDbLine
 10
310.53463
 20
146.784004
 30
0.0
 11
307.684627
 21
146.784004
 31
0.0
  0
LINE
  5
94
330
1F
100
AcDbEntity
  8
LC-002-100-D00-0
 62
     7
370
    50
100
AcDbLine
 10
266.594883
 20
74.784006
 30
0.0
 11
264.434632
 21
74.784006
 31
0.0
  0
LINE
  5
95
330
1F
100
AcDbEntity
  8
LC-002-100-D00-0
 62
     7
370
    50
100
AcDbLine
 10
307.43463
 20
202.58401
 30
0.0
 11
153.434631
 21
202.58401
 31
0.0
  0
LINE
  5
96
330
1F
100
AcDbEntity
  8
LC-002-100-D00-0
 62
     7
370
    50
100
AcDbLine
 10
305.934627
 20
207.760614
 30
0.0
 11
304.33463
 21
207.760614
 31
0.0
  0
LINE
  5
97
330
1F
100
AcDbEntity
  8
LC-002-100-D00-0
 62
     7
370
    50
100
AcDbLine
 10
300.447207
 20
207.760614
 30
0.0
 11
242.234728
 21
207.760614
 31
0.0
  0
LINE
  5
98
330
1F
100
AcDbEntity
  8
LC-002-100-D00-0
 62
     7
370
    50
100
AcDbLine
 10
218.634648
 20
207.760614
 30
0.0
 11
160.422076
 21
207.760614
 31
0.0
  0
LINE
  5
99
330
1F
100
AcDbEntity
  8
LC-002-100-D00-0
 62
     7
370
    50
100
AcDbLine
 10
156.534631
 20
207.760614
 30
0.0
 11
154.934634
 21
207.760614
 31
0.0
  0
LINE
  5
9A
330
1F
100
AcDbEntity
  8
LC-002-100-D00-0
 62
     7
370
    50
100
AcDbLine
 10
305.934627
 20
203.584005
 30
0.0
 11
154.934634
 21
203.584005
 31
0.0
  0
LINE
  5
9B
330
1F
100
AcDbEntity
  8
LC-002-100-D00-0
 62
     7
370
    50
100
AcDbLine
 10
305.184629
 20
208.193627
 30
0.0
 11
304.33463
 21
208.193627
 31
0.0
  0
LINE
  5
9C
330
1F
100
AcDbEntity
  8
LC-002-100-D00-0
 62
     7
370
    50
100
AcDbLine
 10
300.447207
 20
208.193627
 30
0.0
 11
242.234728
 21
208.193627
 31
0.0
  0
LINE
  5
9D
330
1F
100
AcDbEntity
  8
LC-002-100-D00-0
 62
     7
370
    50
100
AcDbLine
 10
218.634648
 20
208.193627
 30
0.0
 11
160.422076
 21
208.193627
 31
0.0
  0
LINE
  5
9E
330
1F
100
AcDbEntity
  8
LC-002-100-D00-0
 62
     7
370
    50
100
AcDbLine
 10
156.534631
 20
208.193627
 30
0.0
 11
155.684632
 21
208.193627
 31
0.0
  0
LINE
  5
9F
330
1F
100
AcDbEntity
  8
LC-002-100-D00-0
 62
     7
370
    50
100
AcDbLine
 10
305.184629
 20
209.193629
 30
0.0
 11
304.33463
 21
209.193629
 31
0.0
  0
LINE
  5
A0
330
1F
100
AcDbEntity
  8
LC-002-100-D00-0
 62
     7
370
    50
100
AcDbLine
 10
300.447207
 20
209.193629
 30
0.0
 11
242.234728
 21
209.193629
 31
0.0
  0
LINE
  5
A1
330
1F
100
AcDbEntity
  8
LC-002-100-D00-0
 62
     7
370
    50
100
AcDbLine
 10
218.634648
 20
209.193629
 30
0.0
 11
160.422076
 21
209.193629
 31
0.0
  0
LINE
  5
A2
330
1F
100
AcDbEntity
  8
LC-002-100-D00-0
 62
     7
370
    50
100
AcDbLine
 10
156.534631
 20
209.193629
 30
0.0
 11
155.684632
 21
209.193629
 31
0.0
  0
LINE
  5
A3
330
1F
100
AcDbEntity
  8
LC-002-100-D00-0
 62
     7
370
    50
100
AcDbLine
 10
165.934634
 20
188.784007
 30
0.0
 11
294.934627
 21
188.784007
 31
0.0
  0
LINE
  5
A4
330
1F
100
AcDbEntity
  8
LC-002-100-D00-0
 62
     7
370
    50
100
AcDbLine
 10
309.18463
 20
216.121834
 30
0.0
 11
306.452711
 21
216.121834
 31
0.0
  0
LINE
  5
A5
330
1F
100
AcDbEntity
  8
LC-002-100-D00-0
 62
     7
370
    50
100
AcDbLine
 10
244.234727
 20
216.121834
 30
0.0
 11
242.234728
 21
216.121834
 31
0.0
  0
LINE
  5
A6
330
1F
100
AcDbEntity
  8
LC-002-100-D00-0
 62
     7
370
    50
100
AcDbLine
 10
218.634648
 20
216.121834
 30
0.0
 11
216.634648
 21
216.121834
 31
0.0
  0
LINE
  5
A7
330
1F
100
AcDbEntity
  8
LC-002-100-D00-0
 62
     7
370
    50
100
AcDbLine
 10
154.41655
 20
216.121834
 30
0.0
 11
151.684631
 21
216.121834
 31
0.0
  0
LINE
  5
A8
330
1F
100
AcDbEntity
  8
LC-002-100-D00-0
 62
     7
370
    50
100
AcDbLine
 10
50.434623
 20
229.284
 30
0.0
 11
50.434623
 21
230.78401
 31
0.0
  0
LINE
  5
A9
330
1F
100
AcDbEntity
  8
LC-002-100-D00-0
 62
     7
370
    50
100
AcDbLine
 10
410.434638
 20
230.78401
 30
0.0
 11
410.434638
 21
229.284
 31
0.0
  0
ARC
  5
AA
330
1F
100
AcDbEntity
  8
LC-002-100-D00-0
 62
     7
370
    50
100
AcDbCircle
 10
52.43463
 20
230.784007
 30
0.0
 40
2.0
100
AcDbArc
 50
90.0
 51
180.0
  0
LINE
  5
AB
330
1F
100
AcDbEntity
  8
LC-002-100-D00-0
 62
     7
370
    50
100
AcDbLine
 10
52.434627
 20
232.784
 30
0.0
 11
60.434629
 21
232.784
 31
0.0
  0
LINE
  5
AC
330
1F
100
AcDbEntity
  8
LC-002-100-D00-0
 62
     7
370
    50
100
AcDbLine
 10
60.434629
 20
232.784
 30
0.0
 11
62.434633
 21
230.78401
 31
0.0
  0
LINE
  5
AD
330
1F
100
AcDbEntity
  8
LC-002-100-D00-0
 62
     7
370
    50
100
AcDbLine
 10
62.434633
 20
229.284
 30
0.0
 11
62.434633
 21
230.78401
 31
0.0
  0
LINE
  5
AE
330
1F
100
AcDbEntity
  8
LC-002-100-D00-0
 62
     7
370
    50
100
AcDbLine
 10
62.434633
 20
229.284
 30
0.0
 11
50.434623
 21
229.284
 31
0.0
  0
ARC
  5
AF
330
1F
100
AcDbEntity
  8
LC-002-100-D00-0
 62
     7
370
    50
100
AcDbCircle
 10
408.43463
 20
230.784007
 30
0.0
 40
2.000000000000227
100
AcDbArc
 50
0.0
 51
90.0
  0
LINE
  5
B0
330
1F
100
AcDbEntity
  8
LC-002-100-D00-0
 62
     7
370
    50
100
AcDbLine
 10
410.434638
 20
229.284
 30
0.0
 11
398.434628
 21
229.284
 31
0.0
  0
LINE
  5
B1
330
1F
100
AcDbEntity
  8
LC-002-100-D00-0
 62
     7
370
    50
100
AcDbLine
 10
398.434628
 20
230.78401
 30
0.0
 11
398.434628
 21
229.284
 31
0.0
  0
LINE
  5
B2
330
1F
100
AcDbEntity
  8
LC-002-100-D00-0
 62
     7
370
    50
100
AcDbLine
 10
398.434628
 20
230.78401
 30
0.0
 11
400.434632
 21
232.784
 31
0.0
  0
LINE
  5
B3
330
1F
100
AcDbEntity
  8
LC-002-100-D00-0
 62
     7
370
    50
100
AcDbLine
 10
400.434632
 20
232.784
 30
0.0
 11
408.434633
 21
232.784
 31
0.0
  0
LINE
  5
B4
330
1F
100
AcDbEntity
  8
LC-002-100-D00-0
 62
     7
370
    50
100
AcDbLine
 10
398.434628
 20
230.78401
 30
0.0
 11
394.434635
 21
230.78401
 31
0.0
  0
LINE
  5
B5
330
1F
100
AcDbEntity
  8
LC-002-100-D00-0
 62
     7
370
    50
100
AcDbLine
 10
394.434635
 20
229.284
 30
0.0
 11
398.434628
 21
229.284
 31
0.0
  0
LINE
  5
B6
330
1F
100
AcDbEntity
  8
LC-002-100-D00-0
 62
     7
370
    50
100
AcDbLine
 10
392.434631
 20
232.784
 30
0.0
 11
400.434632
 21
232.784
 31
0.0
  0
LINE
  5
B7
330
1F
100
AcDbEntity
  8
LC-002-100-D00-0
 62
     7
370
    50
100
AcDbLine
 10
66.434626
 20
230.78401
 30
0.0
 11
62.434633
 21
230.78401
 31
0.0
  0
LINE
  5
B8
330
1F
100
AcDbEntity
  8
LC-002-100-D00-0
 62
     7
370
    50
100
AcDbLine
 10
62.434633
 20
229.284
 30
0.0
 11
66.434626
 21
229.284
 31
0.0
  0
LINE
  5
B9
330
1F
100
AcDbEntity
  8
LC-002-100-D00-0
 62
     7
370
    50
100
AcDbLine
 10
60.434629
 20
232.784
 30
0.0
 11
68.43463
 21
232.784
 31
0.0
  0
LINE
  5
BA
330
1F
100
AcDbEntity
  8
LC-002-100-D00-0
 62
     7
370
    50
100
AcDbLine
 10
218.634648
 20
213.149231
 30
0.0
 11
218.424561
 21
213.046771
 31
0.0
  0
INSERT
  5
CC
330
1F
100
AcDbEntity
  8
LC-002-100-D00-0
 62
     7
370
    50
100
AcDbBlockReference
  2
POLY1
 10
0.0
 20
0.0
 30
0.0
  0
LINE
  5
CD
330
1F
100
AcDbEntity
  8
LC-002-100-D00-0
 62
     7
370
    50
100
AcDbLine
 10
218.634648
 20
212.427374
 30
0.0
 11
218.386486
 21
212.936189
 31
0.0
  0
LINE
  5
CE
330
1F
100
AcDbEntity
  8
LC-002-100-D00-0
 62
     7
370
    50
100
AcDbLine
 10
218.634648
 20
212.055471
 30
0.0
 11
218.168481
 21
213.011247
 31
0.0
  0
INSERT
  5
E0
330
1F
100
AcDbEntity
  8
LC-002-100-D00-0
 62
     7
370
    50
100
AcDbBlockReference
  2
POLY2
 10
0.0
 20
0.0
 30
0.0
  0
LINE
  5
E1
330
1F
100
AcDbEntity
  8
LC-002-100-D00-0
 62
     7
370
    50
100
AcDbLine
 10
218.634648
 20
213.330623
 30
0.0
 11
218.206558
 21
213.121828
 31
0.0
  0
LINE
  5
E2
330
1F
100
AcDbEntity
  8
LC-002-100-D00-0
 62
     7
370
    50
100
AcDbLine
 10
278.883212
 20
292.984005
 30
0.0
 11
278.883212
 21
293.368768
 31
0.0
  0
LINE
  5
E3
330
1F
100
AcDbEntity
  8
LC-002-100-D00-0
 62
     7
370
    50
100
AcDbLine
 10
181.986049
 20
292.984005
 30
0.0
 11
278.883212
 21
292.984005
 31
0.0
  0
LINE
  5
E4
330
1F
100
AcDbEntity
  8
LC-002-100-D00-0
 62
     7
370
    50
100
AcDbLine
 10
181.986049
 20
293.368768
 30
0.0
 11
181.986049
 21
292.984005
 31
0.0
  0
LINE
  5
E5
330
1F
100
AcDbEntity
  8
LC-002-100-D00-0
 62
     7
370
    50
100
AcDbLine
 10
174.234629
 20
272.071924
 30
0.0
 11
181.986049
 21
293.368768
 31
0.0
  0
LINE
  5
E6
330
1F
100
AcDbEntity
  8
LC-002-100-D00-0
 62
     7
370
    50
100
AcDbLine
 10
174.234629
 20
267.384079
 30
0.0
 11
174.234629
 21
272.071924
 31
0.0
  0
LINE
  5
E7
330
1F
100
AcDbEntity
  8
LC-002-100-D00-0
 62
     7
370
    50
100
AcDbLine
 10
172.528394
 20
267.384079
 30
0.0
 11
174.234629
 21
267.384079
 31
0.0
  0
LINE
  5
E8
330
1F
100
AcDbEntity
  8
LC-002-100-D00-0
 62
     7
370
    50
100
AcDbLine
 10
159.935002
 20
232.784
 30
0.0
 11
172.528394
 21
267.384079
 31
0.0
  0
LINE
  5
E9
330
1F
100
AcDbEntity
  8
LC-002-100-D00-0
 62
     7
370
    50
100
AcDbLine
 10
159.934629
 20
232.784
 30
0.0
 11
159.935002
 21
232.784
 31
0.0
  0
LINE
  5
EA
330
1F
100
AcDbEntity
  8
LC-002-100-D00-0
 62
     7
370
    50
100
AcDbLine
 10
159.934629
 20
232.784
 30
0.0
 11
159.934629
 21
225.084003
 31
0.0
  0
LINE
  5
EB
330
1F
100
AcDbEntity
  8
LC-002-100-D00-0
 62
     7
370
    50
100
AcDbLine
 10
159.934629
 20
225.084003
 30
0.0
 11
159.434628
 21
225.084003
 31
0.0
  0
LINE
  5
EC
330
1F
100
AcDbEntity
  8
LC-002-100-D00-0
 62
     7
370
    50
100
AcDbLine
 10
159.434628
 20
225.084003
 30
0.0
 11
159.434628
 21
203.784008
 31
0.0
  0
ARC
  5
ED
330
1F
100
AcDbEntity
  8
LC-002-100-D00-0
 62
     7
370
    50
100
AcDbCircle
 10
156.03463
 20
204.784007
 30
0.0
 40
1.0
100
AcDbArc
 50
180.0
 51
270.0
  0
ARC
  5
EE
330
1F
100
AcDbEntity
  8
LC-002-100-D00-0
 62
     7
370
    50
100
AcDbCircle
 10
156.03463
 20
204.784007
 30
0.0
 40
1.0
100
AcDbArc
 50
90.0
 51
180.0
  0
LINE
  5
EF
330
1F
100
AcDbEntity
  8
LC-002-100-D00-0
 62
     7
370
    50
100
AcDbLine
 10
156.534631
 20
205.784005
 30
0.0
 11
156.03463
 21
205.784005
 31
0.0
  0
LINE
  5
F0
330
1F
100
AcDbEntity
  8
LC-002-100-D00-0
 62
     7
370
    50
100
AcDbLine
 10
156.534631
 20
232.784
 30
0.0
 11
156.534631
 21
205.784005
 31
0.0
  0
LINE
  5
F1
330
1F
100
AcDbEntity
  8
LC-002-100-D00-0
 62
     7
370
    50
100
AcDbLine
 10
148.041729
 20
232.784
 30
0.0
 11
156.534631
 21
232.784
 31
0.0
  0
LINE
  5
F2
330
1F
100
AcDbEntity
  8
LC-002-100-D00-0
 62
     7
370
    50
100
AcDbLine
 10
148.041729
 20
232.784
 30
0.0
 11
144.849163
 21
234.608334
 31
0.0
  0
LINE
  5
F3
330
1F
100
AcDbEntity
  8
LC-002-100-D00-0
 62
     7
370
    50
100
AcDbLine
 10
144.849163
 20
234.608334
 30
0.0
 11
167.890657
 21
297.914308
 31
0.0
  0
ARC
  5
F4
330
1F
100
AcDbEntity
  8
LC-002-100-D00-0
 62
     7
370
    50
100
AcDbCircle
 10
181.986048
 20
292.784013
 30
0.0
 40
15.0
100
AcDbArc
 50
90.0
 51
160.0
  0
LINE
  5
F5
330
1F
100
AcDbEntity
  8
LC-002-100-D00-0
 62
     7
370
    50
100
AcDbLine
 10
242.236895
 20
307.784018
 30
0.0
 11
181.986049
 21
307.784018
 31
0.0
  0
LINE
  5
F6
330
1F
100
AcDbEntity
  8
LC-002-100-D00-0
 62
     7
370
    50
100
AcDbLine
 10
242.236895
 20
307.884019
 30
0.0
 11
242.236895
 21
307.784018
 31
0.0
  0
LINE
  5
F7
330
1F
100
AcDbEntity
  8
LC-002-100-D00-0
 62
     7
370
    50
100
AcDbLine
 10
242.236895
 20
307.884019
 30
0.0
 11
243.062949
 21
307.884019
 31
0.0
  0
LINE
  5
F8
330
1F
100
AcDbEntity
  8
LC-002-100-D00-0
 62
     7
370
    50
100
AcDbLine
 10
243.062949
 20
307.884019
 30
0.0
 11
243.062949
 21
307.784018
 31
0.0
  0
LINE
  5
F9
330
1F
100
AcDbEntity
  8
LC-002-100-D00-0
 62
     7
370
    50
100
AcDbLine
 10
243.640571
 20
307.784018
 30
0.0
 11
243.062949
 21
307.784018
 31
0.0
  0
LINE
  5
FA
330
1F
100
AcDbEntity
  8
LC-002-100-D00-0
 62
     7
370
    50
100
AcDbLine
 10
243.640571
 20
307.784018
 30
0.0
 11
243.640571
 21
307.884019
 31
0.0
  0
LINE
  5
FB
330
1F
100
AcDbEntity
  8
LC-002-100-D00-0
 62
     7
370
    50
100
AcDbLine
 10
243.640571
 20
307.884019
 30
0.0
 11
244.379673
 21
307.884019
 31
0.0
  0
LINE
  5
FC
330
1F
100
AcDbEntity
  8
LC-002-100-D00-0
 62
     7
370
    50
100
AcDbLine
 10
244.379673
 20
307.784018
 30
0.0
 11
244.379673
 21
307.884019
 31
0.0
  0
LINE
  5
FD
330
1F
100
AcDbEntity
  8
LC-002-100-D00-0
 62
     7
370
    50
100
AcDbLine
 10
244.758536
 20
307.784018
 30
0.0
 11
244.379673
 21
307.784018
 31
0.0
  0
LINE
  5
FE
330
1F
100
AcDbEntity
  8
LC-002-100-D00-0
 62
     7
370
    50
100
AcDbLine
 10
244.758536
 20
307.884019
 30
0.0
 11
244.758536
 21
307.784018
 31
0.0
  0
LINE
  5
FF
330
1F
100
AcDbEntity
  8
LC-002-100-D00-0
 62
     7
370
    50
100
AcDbLine
 10
244.758536
 20
307.884019
 30
0.0
 11
247.106269
 21
307.884019
 31
0.0
  0
LINE
  5
100
330
1F
100
AcDbEntity
  8
LC-002-100-D00-0
 62
     7
370
    50
100
AcDbLine
 10
247.106269
 20
307.784018
 30
0.0
 11
247.106269
 21
307.884019
 31
0.0
  0
LINE
  5
101
330
1F
100
AcDbEntity
  8
LC-002-100-D00-0
 62
     7
370
    50
100
AcDbLine
 10
247.541037
 20
307.784018
 30
0.0
 11
247.106269
 21
307.784018
 31
0.0
  0
LINE
  5
102
330
1F
100
AcDbEntity
  8
LC-002-100-D00-0
 62
     7
370
    50
100
AcDbLine
 10
247.541037
 20
307.884019
 30
0.0
 11
247.541037
 21
307.784018
 31
0.0
  0
LINE
  5
103
330
1F
100
AcDbEntity
  8
LC-002-100-D00-0
 62
     7
370
    50
100
AcDbLine
 10
248.323614
 20
307.884019
 30
0.0
 11
247.541037
 21
307.884019
 31
0.0
  0
LINE
  5
104
330
1F
100
AcDbEntity
  8
LC-002-100-D00-0
 62
     7
370
    50
100
AcDbLine
 10
248.323614
 20
307.784018
 30
0.0
 11
248.323614
 21
307.884019
 31
0.0
  0
LINE
  5
105
330
1F
100
AcDbEntity
  8
LC-002-100-D00-0
 62
     7
370
    50
100
AcDbLine
 10
249.410527
 20
307.784018
 30
0.0
 11
248.323614
 21
307.784018
 31
0.0
  0
LINE
  5
106
330
1F
100
AcDbEntity
  8
LC-002-100-D00-0
 62
     7
370
    50
100
AcDbLine
 10
249.410527
 20
307.884019
 30
0.0
 11
249.410527
 21
307.784018
 31
0.0
  0
LINE
  5
107
330
1F
100
AcDbEntity
  8
LC-002-100-D00-0
 62
     7
370
    50
100
AcDbLine
 10
250.193106
 20
307.884019
 30
0.0
 11
249.410527
 21
307.884019
 31
0.0
  0
LINE
  5
108
330
1F
100
AcDbEntity
  8
LC-002-100-D00-0
 62
     7
370
    50
100
AcDbLine
 10
250.193106
 20
307.784018
 30
0.0
 11
250.193106
 21
307.884019
 31
0.0
  0
LINE
  5
109
330
1F
100
AcDbEntity
  8
LC-002-100-D00-0
 62
     7
370
    50
100
AcDbLine
 10
251.280021
 20
307.784018
 30
0.0
 11
250.193106
 21
307.784018
 31
0.0
  0
LINE
  5
10A
330
1F
100
AcDbEntity
  8
LC-002-100-D00-0
 62
     7
370
    50
100
AcDbLine
 10
251.280021
 20
307.884019
 30
0.0
 11
251.280021
 21
307.784018
 31
0.0
  0
LINE
  5
10B
330
1F
100
AcDbEntity
  8
LC-002-100-D00-0
 62
     7
370
    50
100
AcDbLine
 10
251.280021
 20
307.884019
 30
0.0
 11
252.062599
 21
307.884019
 31
0.0
  0
LINE
  5
10C
330
1F
100
AcDbEntity
  8
LC-002-100-D00-0
 62
     7
370
    50
100
AcDbLine
 10
252.062599
 20
307.784018
 30
0.0
 11
252.062599
 21
307.884019
 31
0.0
  0
LINE
  5
10D
330
1F
100
AcDbEntity
  8
LC-002-100-D00-0
 62
     7
370
    50
100
AcDbLine
 10
252.627794
 20
307.784018
 30
0.0
 11
252.062599
 21
307.784018
 31
0.0
  0
LINE
  5
10E
330
1F
100
AcDbEntity
  8
LC-002-100-D00-0
 62
     7
370
    50
100
AcDbLine
 10
252.627794
 20
307.884019
 30
0.0
 11
252.627794
 21
307.784018
 31
0.0
  0
LINE
  5
10F
330
1F
100
AcDbEntity
  8
LC-002-100-D00-0
 62
     7
370
    50
100
AcDbLine
 10
252.627794
 20
307.884019
 30
0.0
 11
253.453849
 21
307.884019
 31
0.0
  0
LINE
  5
110
330
1F
100
AcDbEntity
  8
LC-002-100-D00-0
 62
     7
370
    50
100
AcDbLine
 10
253.453849
 20
307.784018
 30
0.0
 11
253.453849
 21
307.884019
 31
0.0
  0
LINE
  5
111
330
1F
100
AcDbEntity
  8
LC-002-100-D00-0
 62
     7
370
    50
100
AcDbLine
 10
254.019045
 20
307.784018
 30
0.0
 11
253.453849
 21
307.784018
 31
0.0
  0
LINE
  5
112
330
1F
100
AcDbEntity
  8
LC-002-100-D00-0
 62
     7
370
    50
100
AcDbLine
 10
254.019045
 20
307.884019
 30
0.0
 11
254.019045
 21
307.784018
 31
0.0
  0
LINE
  5
113
330
1F
100
AcDbEntity
  8
LC-002-100-D00-0
 62
     7
370
    50
100
AcDbLine
 10
254.019045
 20
307.884019
 30
0.0
 11
254.801622
 21
307.884019
 31
0.0
  0
LINE
  5
114
330
1F
100
AcDbEntity
  8
LC-002-100-D00-0
 62
     7
370
    50
100
AcDbLine
 10
254.801622
 20
307.784018
 30
0.0
 11
254.801622
 21
307.884019
 31
0.0
  0
LINE
  5
115
330
1F
100
AcDbEntity
  8
LC-002-100-D00-0
 62
     7
370
    50
100
AcDbLine
 10
255.149436
 20
307.784018
 30
0.0
 11
254.801622
 21
307.784018
 31
0.0
  0
LINE
  5
116
330
1F
100
AcDbEntity
  8
LC-002-100-D00-0
 62
     7
370
    50
100
AcDbLine
 10
255.149436
 20
307.884019
 30
0.0
 11
255.149436
 21
307.784018
 31
0.0
  0
LINE
  5
117
330
1F
100
AcDbEntity
  8
LC-002-100-D00-0
 62
     7
370
    50
100
AcDbLine
 10
257.062406
 20
307.884019
 30
0.0
 11
255.149436
 21
307.884019
 31
0.0
  0
LINE
  5
118
330
1F
100
AcDbEntity
  8
LC-002-100-D00-0
 62
     7
370
    50
100
AcDbLine
 10
257.062406
 20
307.784018
 30
0.0
 11
257.062406
 21
307.884019
 31
0.0
  0
LINE
  5
119
330
1F
100
AcDbEntity
  8
LC-002-100-D00-0
 62
     7
370
    50
100
AcDbLine
 10
257.540645
 20
307.784018
 30
0.0
 11
257.062406
 21
307.784018
 31
0.0
  0
LINE
  5
11A
330
1F
100
AcDbEntity
  8
LC-002-100-D00-0
 62
     7
370
    50
100
AcDbLine
 10
257.540645
 20
307.884019
 30
0.0
 11
257.540645
 21
307.784018
 31
0.0
  0
LINE
  5
11B
330
1F
100
AcDbEntity
  8
LC-002-100-D00-0
 62
     7
370
    50
100
AcDbLine
 10
257.540645
 20
307.884019
 30
0.0
 11
259.863712
 21
307.884019
 31
0.0
  0
LINE
  5
11C
330
1F
100
AcDbEntity
  8
LC-002-100-D00-0
 62
     7
370
    50
100
AcDbLine
 10
259.863712
 20
307.784018
 30
0.0
 11
259.863712
 21
307.884019
 31
0.0
  0
LINE
  5
11D
330
1F
100
AcDbEntity
  8
LC-002-100-D00-0
 62
     7
370
    50
100
AcDbLine
 10
278.883212
 20
307.784018
 30
0.0
 11
259.863712
 21
307.784018
 31
0.0
  0
ARC
  5
11E
330
1F
100
AcDbEntity
  8
LC-002-100-D00-0
 62
     7
370
    50
100
AcDbCircle
 10
278.883212
 20
292.784013
 30
0.0
 40
15.00000000000001
100
AcDbArc
 50
20.0
 51
90.0
  0
LINE
  5
11F
330
1F
100
AcDbEntity
  8
LC-002-100-D00-0
 62
     7
370
    50
100
AcDbLine
 10
292.978604
 20
297.914308
 30
0.0
 11
316.020098
 21
234.608334
 31
0.0
  0
LINE
  5
120
330
1F
100
AcDbEntity
  8
LC-002-100-D00-0
 62
     7
370
    50
100
AcDbLine
 10
316.020098
 20
234.608334
 30
0.0
 11
312.827532
 21
232.784
 31
0.0
  0
LINE
  5
121
330
1F
100
AcDbEntity
  8
LC-002-100-D00-0
 62
     7
370
    50
100
AcDbLine
 10
304.33463
 20
232.784
 30
0.0
 11
312.827532
 21
232.784
 31
0.0
  0
LINE
  5
122
330
1F
100
AcDbEntity
  8
LC-002-100-D00-0
 62
     7
370
    50
100
AcDbLine
 10
304.33463
 20
205.784005
 30
0.0
 11
304.33463
 21
232.784
 31
0.0
  0
LINE
  5
123
330
1F
100
AcDbEntity
  8
LC-002-100-D00-0
 62
     7
370
    50
100
AcDbLine
 10
304.834631
 20
205.784005
 30
0.0
 11
304.33463
 21
205.784005
 31
0.0
  0
ARC
  5
124
330
1F
100
AcDbEntity
  8
LC-002-100-D00-0
 62
     7
370
    50
100
AcDbCircle
 10
304.83463
 20
204.784007
 30
0.0
 40
1.0
100
AcDbArc
 50
0.0
 51
90.0
  0
ARC
  5
125
330
1F
100
AcDbEntity
  8
LC-002-100-D00-0
 62
     7
370
    50
100
AcDbCircle
 10
304.83463
 20
204.784007
 30
0.0
 40
1.0
100
AcDbArc
 50
270.0
 51
0.0
  0
LINE
  5
126
330
1F
100
AcDbEntity
  8
LC-002-100-D00-0
 62
     7
370
    50
100
AcDbLine
 10
304.834631
 20
203.784008
 30
0.0
 11
301.434633
 21
203.784008
 31
0.0
  0
LINE
  5
127
330
1F
100
AcDbEntity
  8
LC-002-100-D00-0
 62
     7
370
    50
100
AcDbLine
 10
301.434633
 20
203.784008
 30
0.0
 11
301.434633
 21
225.084003
 31
0.0
  0
LINE
  5
128
330
1F
100
AcDbEntity
  8
LC-002-100-D00-0
 62
     7
370
    50
100
AcDbLine
 10
301.434633
 20
225.084003
 30
0.0
 11
300.934632
 21
225.084003
 31
0.0
  0
LINE
  5
129
330
1F
100
AcDbEntity
  8
LC-002-100-D00-0
 62
     7
370
    50
100
AcDbLine
 10
300.934632
 20
225.084003
 30
0.0
 11
300.934632
 21
232.784
 31
0.0
  0
LINE
  5
12A
330
1F
100
AcDbEntity
  8
LC-002-100-D00-0
 62
     7
370
    50
100
AcDbLine
 10
300.934259
 20
232.784
 30
0.0
 11
300.934632
 21
232.784
 31
0.0
  0
LINE
  5
12B
330
1F
100
AcDbEntity
  8
LC-002-100-D00-0
 62
     7
370
    50
100
AcDbLine
 10
288.340867
 20
267.384079
 30
0.0
 11
300.934259
 21
232.784
 31
0.0
  0
LINE
  5
12C
330
1F
100
AcDbEntity
  8
LC-002-100-D00-0
 62
     7
370
    50
100
AcDbLine
 10
286.634632
 20
267.384079
 30
0.0
 11
288.340867
 21
267.384079
 31
0.0
  0
LINE
  5
12D
330
1F
100
AcDbEntity
  8
LC-002-100-D00-0
 62
     7
370
    50
100
AcDbLine
 10
286.634632
 20
272.071924
 30
0.0
 11
286.634632
 21
267.384079
 31
0.0
  0
LINE
  5
12E
330
1F
100
AcDbEntity
  8
LC-002-100-D00-0
 62
     7
370
    50
100
AcDbLine
 10
278.883212
 20
293.368768
 30
0.0
 11
286.634632
 21
272.071924
 31
0.0
  0
LINE
  5
12F
330
1F
100
AcDbEntity
  8
LC-002-100-D00-0
 62
     7
370
    50
100
AcDbLine
 10
159.434628
 20
203.784008
 30
0.0
 11
156.03463
 21
203.784008
 31
0.0
  0
INSERT
  5
141
330
1F
100
AcDbEntity
  8
LC-002-100-D00-0
 62
     7
370
    50
100
AcDbBlockReference
  2
POLY3
 10
0.0
 20
0.0
 30
0.0
  0
LINE
  5
142
330
1F
100
AcDbEntity
  8
LC-002-100-D00-0
 62
     7
370
    50
100
AcDbLine
 10
160.422076
 20
224.084001
 30
0.0
 11
160.422076
 21
203.784008
 31
0.0
  0
LINE
  5
143
330
1F
100
AcDbEntity
  8
LC-002-100-D00-0
 62
     7
370
    50
100
AcDbLine
 10
159.434628
 20
203.784008
 30
0.0
 11
160.422076
 21
203.784008
 31
0.0
  0
LINE
  5
144
330
1F
100
AcDbEntity
  8
LC-002-100-D00-0
 62
     7
370
    50
100
AcDbLine
 10
300.447207
 20
203.784008
 30
0.0
 11
300.447207
 21
224.084001
 31
0.0
  0
INSERT
  5
156
330
1F
100
AcDbEntity
  8
LC-002-100-D00-0
 62
     7
370
    50
100
AcDbBlockReference
  2
POLY4
 10
0.0
 20
0.0
 30
0.0
  0
LINE
  5
157
330
1F
100
AcDbEntity
  8
LC-002-100-D00-0
 62
     7
370
    50
100
AcDbLine
 10
300.447207
 20
203.784008
 30
0.0
 11
301.434633
 21
203.784008
 31
0.0
  0
LINE
  5
158
330
1F
100
AcDbEntity
  8
LC-002-100-D00-0
 62
     7
370
    50
100
AcDbLine
 10
159.935002
 20
232.784
 30
0.0
 11
162.277963
 21
232.784
 31
0.0
  0
LINE
  5
159
330
1F
100
AcDbEntity
  8
LC-002-100-D00-0
 62
     7
370
    50
100
AcDbLine
 10
162.39648
 20
232.784
 30
0.0
 11
169.265684
 21
232.784
 31
0.0
  0
LINE
  5
15A
330
1F
100
AcDbEntity
  8
LC-002-100-D00-0
 62
     7
370
    50
100
AcDbLine
 10
169.494637
 20
232.784
 30
0.0
 11
180.421971
 21
232.784
 31
0.0
  0
LINE
  5
15B
330
1F
100
AcDbEntity
  8
LC-002-100-D00-0
 62
     7
370
    50
100
AcDbLine
 10
180.745758
 20
232.784
 30
0.0
 11
194.986537
 21
232.784
 31
0.0
  0
LINE
  5
15C
330
1F
100
AcDbEntity
  8
LC-002-100-D00-0
 62
     7
370
    50
100
AcDbLine
 10
195.383095
 20
232.784
 30
0.0
 11
211.966832
 21
232.784
 31
0.0
  0
LINE
  5
15D
330
1F
100
AcDbEntity
  8
LC-002-100-D00-0
 62
     7
370
    50
100
AcDbLine
 10
212.409135
 20
232.784
 30
0.0
 11
230.205677
 21
232.784
 31
0.0
  0
LINE
  5
15E
330
1F
100
AcDbEntity
  8
LC-002-100-D00-0
 62
     7
370
    50
100
AcDbLine
 10
230.663584
 20
232.784
 30
0.0
 11
248.460126
 21
232.784
 31
0.0
  0
LINE
  5
15F
330
1F
100
AcDbEntity
  8
LC-002-100-D00-0
 62
     7
370
    50
100
AcDbLine
 10
248.902429
 20
232.784
 30
0.0
 11
265.486166
 21
232.784
 31
0.0
  0
LINE
  5
160
330
1F
100
AcDbEntity
  8
LC-002-100-D00-0
 62
     7
370
    50
100
AcDbLine
 10
265.882723
 20
232.784
 30
0.0
 11
280.123502
 21
232.784
 31
0.0
  0
LINE
  5
161
330
1F
100
AcDbEntity
  8
LC-002-100-D00-0
 62
     7
370
    50
100
AcDbLine
 10
280.44729
 20
232.784
 30
0.0
 11
291.374624
 21
232.784
 31
0.0
  0
LINE
  5
162
330
1F
100
AcDbEntity
  8
LC-002-100-D00-0
 62
     7
370
    50
100
AcDbLine
 10
291.603577
 20
232.784
 30
0.0
 11
298.472781
 21
232.784
 31
0.0
  0
LINE
  5
163
330
1F
100
AcDbEntity
  8
LC-002-100-D00-0
 62
     7
370
    50
100
AcDbLine
 10
298.591297
 20
232.784
 30
0.0
 11
300.934259
 21
232.784
 31
0.0
  0
LINE
  5
164
330
1F
100
AcDbEntity
  8
LC-002-100-D00-0
 62
     7
370
    50
100
AcDbLine
 10
159.934629
 20
225.084003
 30
0.0
 11
300.934632
 21
225.084003
 31
0.0
  0
LINE
  5
165
330
1F
100
AcDbEntity
  8
LC-002-100-D00-0
 62
     7
370
    50
100
AcDbLine
 10
259.888381
 20
307.884019
 30
0.0
 11
259.888381
 21
307.784018
 31
0.0
  0
LINE
  5
166
330
1F
100
AcDbEntity
  8
LC-002-100-D00-0
 62
     7
370
    50
100
AcDbLine
 10
259.863712
 20
307.884019
 30
0.0
 11
259.888381
 21
307.884019
 31
0.0
  0
LINE
  5
167
330
1F
100
AcDbEntity
  8
LC-002-100-D00-0
 62
     7
370
    50
100
AcDbLine
 10
175.863322
 20
272.690785
 30
0.0
 11
174.459875
 21
272.690785
 31
0.0
  0
LINE
  5
168
330
1F
100
AcDbEntity
  8
LC-002-100-D00-0
 62
     7
370
    50
100
AcDbLine
 10
175.863322
 20
272.690785
 30
0.0
 11
175.863322
 21
272.104245
 31
0.0
  0
ELLIPSE
  5
169
330
1F
100
AcDbEntity
  8
LC-002-100-D00-0
 62
     7
370
    50
100
AcDbEllipse
 10
230.43463
 20
426.480183
 30
0.0
 11
-54.69271162507986
 21
-154.3402810351297
 31
0.0
210
0.0
220
0.0
230
1.0
 40
0.083767
 41
3.150803750596714
 42
3.191731874072536
  0
LINE
  5
16A
330
1F
100
AcDbEntity
  8
LC-002-100-D00-0
 62
     7
370
    50
100
AcDbLine
 10
181.199193
 20
272.690785
 30
0.0
 11
176.664811
 21
272.690785
 31
0.0
  0
LINE
  5
16B
330
1F
100
AcDbEntity
  8
LC-002-100-D00-0
 62
     7
370
    50
100
AcDbLine
 10
181.199193
 20
272.690785
 30
0.0
 11
181.199193
 21
272.104245
 31
0.0
  0
ELLIPSE
  5
16C
330
1F
100
AcDbEntity
  8
LC-002-100-D00-0
 62
     7
370
    50
100
AcDbEllipse
 10
230.43463
 20
426.480183
 30
0.0
 11
-50.10599910013065
 21
-154.1865670813725
 31
0.0
210
0.0
220
0.0
230
1.0
 40
0.165076
 41
3.174721918189757
 42
3.215650041665597
  0
LINE
  5
16D
330
1F
100
AcDbEntity
  8
LC-002-100-D00-0
 62
     7
370
    50
100
AcDbLine
 10
189.890378
 20
272.690785
 30
0.0
 11
182.534073
 21
272.690785
 31
0.0
  0
LINE
  5
16E
330
1F
100
AcDbEntity
  8
LC-002-100-D00-0
 62
     7
370
    50
100
AcDbLine
 10
189.890378
 20
272.690785
 30
0.0
 11
189.890378
 21
272.104245
 31
0.0
  0
ELLIPSE
  5
16F
330
1F
100
AcDbEntity
  8
LC-002-100-D00-0
 62
     7
370
    50
100
AcDbEllipse
 10
230.43463
 20
426.480183
 30
0.0
 11
-42.2683583394973
 21
-154.0735723013457
 31
0.0
210
0.0
220
0.0
230
1.0
 40
0.240393
 41
3.186982284715596
 42
3.22791040819144
  0
LINE
  5
170
330
1F
100
AcDbEntity
  8
LC-002-100-D00-0
 62
     7
370
    50
100
AcDbLine
 10
201.344585
 20
272.690785
 30
0.0
 11
191.667676
 21
272.690785
 31
0.0
  0
LINE
  5
171
330
1F
100
AcDbEntity
  8
LC-002-100-D00-0
 62
     7
370
    50
100
AcDbLine
 10
201.344585
 20
272.690785
 30
0.0
 11
201.344585
 21
272.104245
 31
0.0
  0
ELLIPSE
  5
172
330
1F
100
AcDbEntity
  8
LC-002-100-D00-0
 62
     7
370
    50
100
AcDbEllipse
 10
230.43463
 20
426.480183
 30
0.0
 11
-31.02069845648921
 21
-154.119890424765
 31
0.0
210
0.0
220
0.0
230
1.0
 40
0.30407
 41
3.182254375888683
 42
3.223182499364514
  0
LINE
  5
173
330
1F
100
AcDbEntity
  8
LC-002-100-D00-0
 62
     7
370
    50
100
AcDbLine
 10
214.781231
 20
272.690785
 30
0.0
 11
203.336444
 21
272.690785
 31
0.0
  0
LINE
  5
174
330
1F
100
AcDbEntity
  8
LC-002-100-D00-0
 62
     7
370
    50
100
AcDbLine
 10
214.781231
 20
272.690785
 30
0.0
 11
214.781231
 21
272.104245
 31
0.0
  0
ELLIPSE
  5
175
330
1F
100
AcDbEntity
  8
LC-002-100-D00-0
 62
     7
370
    50
100
AcDbEllipse
 10
230.43463
 20
426.480183
 30
0.0
 11
-16.56207463459355
 21
-154.3006263193176
 31
0.0
210
0.0
220
0.0
230
1.0
 40
0.348049
 41
3.15846954814991
 42
3.199397671625751
  0
LINE
  5
176
330
1F
100
AcDbEntity
  8
LC-002-100-D00-0
 62
     7
370
    50
100
AcDbLine
 10
229.28463
 20
272.690785
 30
0.0
 11
217.002861
 21
272.690785
 31
0.0
  0
ELLIPSE
  5
177
330
1F
100
AcDbEntity
  8
LC-002-100-D00-0
 62
     7
370
    50
100
AcDbEllipse
 10
230.43463
 20
426.480183
 30
0.0
 11
0.0
 21
-154.408263162109
 31
0.0
210
0.0
220
0.0
230
1.0
 40
0.36397
 41
3.121128591851876
 42
3.162056715327753
  0
LINE
  5
178
330
1F
100
AcDbEntity
  8
LC-002-100-D00-0
 62
     7
370
    50
100
AcDbLine
 10
243.8664
 20
272.690785
 30
0.0
 11
231.58463
 21
272.690785
 31
0.0
  0
ELLIPSE
  5
179
330
1F
100
AcDbEntity
  8
LC-002-100-D00-0
 62
     7
370
    50
100
AcDbEllipse
 10
230.43463
 20
426.480183
 30
0.0
 11
16.56207463459389
 21
-154.300626319317
 31
0.0
210
0.0
220
0.0
230
1.0
 40
0.348049
 41
3.083787635553867
 42
3.124715759029709
  0
LINE
  5
17A
330
1F
100
AcDbEntity
  8
LC-002-100-D00-0
 62
     7
370
    50
100
AcDbLine
 10
246.08803
 20
272.690785
 30
0.0
 11
246.08803
 21
272.104245
 31
0.0
  0
LINE
  5
17B
330
1F
100
AcDbEntity
  8
LC-002-100-D00-0
 62
     7
370
    50
100
AcDbLine
 10
257.532817
 20
272.690785
 30
0.0
 11
246.08803
 21
272.690785
 31
0.0
  0
ELLIPSE
  5
17C
330
1F
100
AcDbEntity
  8
LC-002-100-D00-0
 62
     7
370
    50
100
AcDbEllipse
 10
230.43463
 20
426.480183
 30
0.0
 11
31.02069845648509
 21
-154.1198904247433
 31
0.0
210
0.0
220
0.0
230
1.0
 40
0.30407
 41
3.060002807815115
 42
3.100930931290955
  0
LINE
  5
17D
330
1F
100
AcDbEntity
  8
LC-002-100-D00-0
 62
     7
370
    50
100
AcDbLine
 10
259.524675
 20
272.690785
 30
0.0
 11
259.524675
 21
272.104245
 31
0.0
  0
LINE
  5
17E
330
1F
100
AcDbEntity
  8
LC-002-100-D00-0
 62
     7
370
    50
100
AcDbLine
 10
269.201584
 20
272.690785
 30
0.0
 11
259.524675
 21
272.690785
 31
0.0
  0
ELLIPSE
  5
17F
330
1F
100
AcDbEntity
  8
LC-002-100-D00-0
 62
     7
370
    50
100
AcDbEllipse
 10
230.43463
 20
426.480183
 30
0.0
 11
42.26835833949478
 21
-154.073572301336
 31
0.0
210
0.0
220
0.0
230
1.0
 40
0.240393
 41
3.05527489898818
 42
3.096203022464022
  0
LINE
  5
180
330
1F
100
AcDbEntity
  8
LC-002-100-D00-0
 62
     7
370
    50
100
AcDbLine
 10
270.978883
 20
272.690785
 30
0.0
 11
270.978883
 21
272.104245
 31
0.0
  0
LINE
  5
181
330
1F
100
AcDbEntity
  8
LC-002-100-D00-0
 62
     7
370
    50
100
AcDbLine
 10
278.335188
 20
272.690785
 30
0.0
 11
270.978883
 21
272.690785
 31
0.0
  0
ELLIPSE
  5
182
330
1F
100
AcDbEntity
  8
LC-002-100-D00-0
 62
     7
370
    50
100
AcDbEllipse
 10
230.43463
 20
426.480183
 30
0.0
 11
50.1059991003013
 21
-154.1865670818972
 31
0.0
210
0.0
220
0.0
230
1.0
 40
0.165076
 41
3.067535265514019
 42
3.108463388989859
  0
LINE
  5
183
330
1F
100
AcDbEntity
  8
LC-002-100-D00-0
 62
     7
370
    50
100
AcDbLine
 10
279.670067
 20
272.690785
 30
0.0
 11
279.670067
 21
272.104245
 31
0.0
  0
LINE
  5
184
330
1F
100
AcDbEntity
  8
LC-002-100-D00-0
 62
     7
370
    50
100
AcDbLine
 10
284.20445
 20
272.690785
 30
0.0
 11
279.670067
 21
272.690785
 31
0.0
  0
ELLIPSE
  5
185
330
1F
100
AcDbEntity
  8
LC-002-100-D00-0
 62
     7
370
    50
100
AcDbEllipse
 10
230.43463
 20
426.480183
 30
0.0
 11
54.69271162519507
 21
-154.3402810354546
 31
0.0
210
0.0
220
0.0
230
1.0
 40
0.083767
 41
3.091453433106707
 42
3.132381556582556
  0
LINE
  5
186
330
1F
100
AcDbEntity
  8
LC-002-100-D00-0
 62
     7
370
    50
100
AcDbLine
 10
285.005939
 20
272.690785
 30
0.0
 11
285.005939
 21
272.104245
 31
0.0
  0
LINE
  5
187
330
1F
100
AcDbEntity
  8
LC-002-100-D00-0
 62
     7
370
    50
100
AcDbLine
 10
286.409386
 20
272.690785
 30
0.0
 11
285.005939
 21
272.690785
 31
0.0
  0
LINE
  5
188
330
1F
100
AcDbEntity
  8
LC-002-100-D00-0
 62
     7
370
    50
100
AcDbLine
 10
286.634632
 20
267.384079
 30
0.0
 11
174.234629
 21
267.384079
 31
0.0
  0
LINE
  5
189
330
1F
100
AcDbEntity
  8
LC-002-100-D00-0
 62
     7
370
    50
100
AcDbLine
 10
243.640571
 20
307.884019
 30
0.0
 11
243.510142
 21
307.884019
 31
0.0
  0
LINE
  5
18A
330
1F
100
AcDbEntity
  8
LC-002-100-D00-0
 62
     7
370
    50
100
AcDbLine
 10
253.453849
 20
307.884019
 30
0.0
 11
253.540803
 21
307.884019
 31
0.0
  0
LINE
  5
18B
330
1F
100
AcDbEntity
  8
LC-002-100-D00-0
 62
     7
370
    50
100
AcDbLine
 10
252.54084
 20
307.884019
 30
0.0
 11
252.627794
 21
307.884019
 31
0.0
  0
LINE
  5
18C
330
1F
100
AcDbEntity
  8
LC-002-100-D00-0
 62
     7
370
    50
100
AcDbLine
 10
252.062599
 20
307.884019
 30
0.0
 11
252.149552
 21
307.884019
 31
0.0
  0
LINE
  5
18D
330
1F
100
AcDbEntity
  8
LC-002-100-D00-0
 62
     7
370
    50
100
AcDbLine
 10
253.932091
 20
307.884019
 30
0.0
 11
254.019045
 21
307.884019
 31
0.0
  0
LINE
  5
18E
330
1F
100
AcDbEntity
  8
LC-002-100-D00-0
 62
     7
370
    50
100
AcDbLine
 10
243.510142
 20
307.884019
 30
0.0
 11
243.062949
 21
307.884019
 31
0.0
  0
LINE
  5
18F
330
1F
100
AcDbEntity
  8
LC-002-100-D00-0
 62
     7
370
    50
100
AcDbLine
 10
252.149552
 20
307.884019
 30
0.0
 11
252.54084
 21
307.884019
 31
0.0
  0
LINE
  5
190
330
1F
100
AcDbEntity
  8
LC-002-100-D00-0
 62
     7
370
    50
100
AcDbLine
 10
253.540803
 20
307.884019
 30
0.0
 11
253.932091
 21
307.884019
 31
0.0
  0
LINE
  5
191
330
1F
100
AcDbEntity
  8
LC-002-100-D00-0
 62
     7
370
    50
100
AcDbLine
 10
270.978883
 20
272.104245
 30
0.0
 11
265.605148
 21
292.984005
 31
0.0
  0
LINE
  5
192
330
1F
100
AcDbEntity
  8
LC-002-100-D00-0
 62
     7
370
    50
100
AcDbLine
 10
289.50838
 20
232.784
 30
0.0
 11
290.62872
 21
233.689379
 31
0.0
  0
LINE
  5
193
330
1F
100
AcDbEntity
  8
LC-002-100-D00-0
 62
     7
370
    50
100
AcDbLine
 10
281.098567
 20
232.784
 30
0.0
 11
272.193697
 21
267.384079
 31
0.0
  0
LINE
  5
194
330
1F
100
AcDbEntity
  8
LC-002-100-D00-0
 62
     7
370
    50
100
AcDbLine
 10
171.36088
 20
232.784
 30
0.0
 11
170.24054
 21
233.689379
 31
0.0
  0
LINE
  5
195
330
1F
100
AcDbEntity
  8
LC-002-100-D00-0
 62
     7
370
    50
100
AcDbLine
 10
189.890378
 20
272.104245
 30
0.0
 11
195.264113
 21
292.984005
 31
0.0
  0
LINE
  5
196
330
1F
100
AcDbEntity
  8
LC-002-100-D00-0
 62
     7
370
    50
100
AcDbLine
 10
179.770694
 20
232.784
 30
0.0
 11
188.675564
 21
267.384079
 31
0.0
  0
LINE
  5
197
330
1F
100
AcDbEntity
  8
LC-002-100-D00-0
 62
     7
370
    50
100
AcDbLine
 10
156.534631
 20
216.084
 30
0.0
 11
154.41655
 21
216.084
 31
0.0
  0
LINE
  5
198
330
1F
100
AcDbEntity
  8
LC-002-100-D00-0
 62
     7
370
    50
100
AcDbLine
 10
154.41655
 20
216.084
 30
0.0
 11
154.41655
 21
232.784
 31
0.0
  0
LINE
  5
199
330
1F
100
AcDbEntity
  8
LC-002-100-D00-0
 62
     7
370
    50
100
AcDbLine
 10
175.863322
 20
272.104245
 30
0.0
 11
183.203984
 21
292.984005
 31
0.0
  0
LINE
  5
19A
330
1F
100
AcDbEntity
  8
LC-002-100-D00-0
 62
     7
370
    50
100
AcDbLine
 10
162.039575
 20
232.784
 30
0.0
 11
174.203858
 21
267.384079
 31
0.0
  0
LINE
  5
19B
330
1F
100
AcDbEntity
  8
LC-002-100-D00-0
 62
     7
370
    50
100
AcDbLine
 10
285.005939
 20
272.104245
 30
0.0
 11
277.665276
 21
292.984005
 31
0.0
  0
LINE
  5
19C
330
1F
100
AcDbEntity
  8
LC-002-100-D00-0
 62
     7
370
    50
100
AcDbLine
 10
306.452711
 20
216.084
 30
0.0
 11
306.452711
 21
232.784
 31
0.0
  0
LINE
  5
19D
330
1F
100
AcDbEntity
  8
LC-002-100-D00-0
 62
     7
370
    50
100
AcDbLine
 10
306.452711
 20
216.084
 30
0.0
 11
304.33463
 21
216.084
 31
0.0
  0
LINE
  5
19E
330
1F
100
AcDbEntity
  8
LC-002-100-D00-0
 62
     7
370
    50
100
AcDbLine
 10
298.829686
 20
232.784
 30
0.0
 11
286.665403
 21
267.384079
 31
0.0
  0
LINE
  5
19F
330
1F
100
AcDbEntity
  8
LC-002-100-D00-0
 62
     7
370
    50
100
AcDbLine
 10
284.410652
 20
272.104245
 30
0.0
 11
277.069994
 21
292.984005
 31
0.0
  0
LINE
  5
1A0
330
1F
100
AcDbEntity
  8
LC-002-100-D00-0
 62
     7
370
    50
100
AcDbLine
 10
176.458609
 20
272.104245
 30
0.0
 11
183.799267
 21
292.984005
 31
0.0
  0
INSERT
  5
1B2
330
1F
100
AcDbEntity
  8
LC-002-100-D00-0
 62
     7
370
    50
100
AcDbBlockReference
  2
POLY5
 10
0.0
 20
0.0
 30
0.0
  0
INSERT
  5
1C4
330
1F
100
AcDbEntity
  8
LC-002-100-D00-0
 62
     7
370
    50
100
AcDbBlockReference
  2
POLY6
 10
0.0
 20
0.0
 30
0.0
  0
LINE
  5
1C5
330
1F
100
AcDbEntity
  8
LC-002-100-D00-0
 62
     7
370
    50
100
AcDbLine
 10
216.634648
 20
224.084001
 30
0.0
 11
216.634648
 21
216.084
 31
0.0
  0
LINE
  5
1C6
330
1F
100
AcDbEntity
  8
LC-002-100-D00-0
 62
     7
370
    50
100
AcDbLine
 10
160.788689
 20
216.084
 30
0.0
 11
216.634648
 21
216.084
 31
0.0
  0
LINE
  5
1C7
330
1F
100
AcDbEntity
  8
LC-002-100-D00-0
 62
     7
370
    50
100
AcDbLine
 10
160.788689
 20
216.084
 30
0.0
 11
160.788689
 21
224.084001
 31
0.0
  0
INSERT
  5
1D9
330
1F
100
AcDbEntity
  8
LC-002-100-D00-0
 62
     7
370
    50
100
AcDbBlockReference
  2
POLY7
 10
0.0
 20
0.0
 30
0.0
  0
INSERT
  5
1EB
330
1F
100
AcDbEntity
  8
LC-002-100-D00-0
 62
     7
370
    50
100
AcDbBlockReference
  2
POLY8
 10
0.0
 20
0.0
 30
0.0
  0
LINE
  5
1EC
330
1F
100
AcDbEntity
  8
LC-002-100-D00-0
 62
     7
370
    50
100
AcDbLine
 10
300.080594
 20
224.084001
 30
0.0
 11
300.080594
 21
216.084
 31
0.0
  0
LINE
  5
1ED
330
1F
100
AcDbEntity
  8
LC-002-100-D00-0
 62
     7
370
    50
100
AcDbLine
 10
244.234727
 20
216.084
 30
0.0
 11
300.080594
 21
216.084
 31
0.0
  0
LINE
  5
1EE
330
1F
100
AcDbEntity
  8
LC-002-100-D00-0
 62
     7
370
    50
100
AcDbLine
 10
244.234727
 20
216.084
 30
0.0
 11
244.234727
 21
224.084001
 31
0.0
  0
LINE
  5
1EF
330
1F
100
AcDbEntity
  8
LC-002-100-D00-0
 62
     7
370
    50
100
AcDbLine
 10
300.080594
 20
216.084
 30
0.0
 11
300.447207
 21
216.084
 31
0.0
  0
LINE
  5
1F0
330
1F
100
AcDbEntity
  8
LC-002-100-D00-0
 62
     7
370
    50
100
AcDbLine
 10
160.422076
 20
216.084
 30
0.0
 11
160.788689
 21
216.084
 31
0.0
  0
LINE
  5
1F1
330
1F
100
AcDbEntity
  8
LC-002-100-D00-0
 62
     7
370
    50
100
AcDbLine
 10
298.472781
 20
232.784
 30
0.0
 11
298.591297
 21
232.784
 31
0.0
  0
LINE
  5
1F2
330
1F
100
AcDbEntity
  8
LC-002-100-D00-0
 62
     7
370
    50
100
AcDbLine
 10
298.2344
 20
232.784
 30
0.0
 11
286.070116
 21
267.384079
 31
0.0
  0
LINE
  5
1F3
330
1F
100
AcDbEntity
  8
LC-002-100-D00-0
 62
     7
370
    50
100
AcDbLine
 10
162.277963
 20
232.784
 30
0.0
 11
162.39648
 21
232.784
 31
0.0
  0
LINE
  5
1F4
330
1F
100
AcDbEntity
  8
LC-002-100-D00-0
 62
     7
370
    50
100
AcDbLine
 10
162.634861
 20
232.784
 30
0.0
 11
174.799145
 21
267.384079
 31
0.0
  0
LINE
  5
1F5
330
1F
100
AcDbEntity
  8
LC-002-100-D00-0
 62
     7
370
    50
100
AcDbLine
 10
279.670067
 20
272.104245
 30
0.0
 11
273.088612
 21
292.984005
 31
0.0
  0
LINE
  5
1F6
330
1F
100
AcDbEntity
  8
LC-002-100-D00-0
 62
     7
370
    50
100
AcDbLine
 10
292.064101
 20
232.784
 30
0.0
 11
281.157904
 21
267.384079
 31
0.0
  0
LINE
  5
1F7
330
1F
100
AcDbEntity
  8
LC-002-100-D00-0
 62
     7
370
    50
100
AcDbLine
 10
181.199193
 20
272.104245
 30
0.0
 11
187.780649
 21
292.984005
 31
0.0
  0
LINE
  5
1F8
330
1F
100
AcDbEntity
  8
LC-002-100-D00-0
 62
     7
370
    50
100
AcDbLine
 10
168.80516
 20
232.784
 30
0.0
 11
179.711357
 21
267.384079
 31
0.0
  0
LINE
  5
1F9
330
1F
100
AcDbEntity
  8
LC-002-100-D00-0
 62
     7
370
    50
100
AcDbLine
 10
278.520067
 20
272.104245
 30
0.0
 11
271.938611
 21
292.984005
 31
0.0
  0
LINE
  5
1FA
330
1F
100
AcDbEntity
  8
LC-002-100-D00-0
 62
     7
370
    50
100
AcDbLine
 10
182.349194
 20
272.104245
 30
0.0
 11
188.93065
 21
292.984005
 31
0.0
  0
LINE
  5
1FB
330
1F
100
AcDbEntity
  8
LC-002-100-D00-0
 62
     7
370
    50
100
AcDbLine
 10
291.374624
 20
232.784
 30
0.0
 11
291.603577
 21
232.784
 31
0.0
  0
LINE
  5
1FC
330
1F
100
AcDbEntity
  8
LC-002-100-D00-0
 62
     7
370
    50
100
AcDbLine
 10
290.9141
 20
232.784
 30
0.0
 11
280.007903
 21
267.384079
 31
0.0
  0
LINE
  5
1FD
330
1F
100
AcDbEntity
  8
LC-002-100-D00-0
 62
     7
370
    50
100
AcDbLine
 10
169.265684
 20
232.784
 30
0.0
 11
169.494637
 21
232.784
 31
0.0
  0
LINE
  5
1FE
330
1F
100
AcDbEntity
  8
LC-002-100-D00-0
 62
     7
370
    50
100
AcDbLine
 10
169.955161
 20
232.784
 30
0.0
 11
180.861358
 21
267.384079
 31
0.0
  0
LINE
  5
1FF
330
1F
100
AcDbEntity
  8
LC-002-100-D00-0
 62
     7
370
    50
100
AcDbLine
 10
269.352537
 20
272.104245
 30
0.0
 11
263.978802
 21
292.984005
 31
0.0
  0
LINE
  5
200
330
1F
100
AcDbEntity
  8
LC-002-100-D00-0
 62
     7
370
    50
100
AcDbLine
 10
191.516724
 20
272.104245
 30
0.0
 11
196.890459
 21
292.984005
 31
0.0
  0
LINE
  5
201
330
1F
100
AcDbEntity
  8
LC-002-100-D00-0
 62
     7
370
    50
100
AcDbLine
 10
259.524675
 20
272.104245
 30
0.0
 11
255.72487
 21
292.984005
 31
0.0
  0
LINE
  5
202
330
1F
100
AcDbEntity
  8
LC-002-100-D00-0
 62
     7
370
    50
100
AcDbLine
 10
274.223291
 20
234.608334
 30
0.0
 11
268.258594
 21
267.384079
 31
0.0
  0
LINE
  5
203
330
1F
100
AcDbEntity
  8
LC-002-100-D00-0
 62
     7
370
    50
100
AcDbLine
 10
267.292854
 20
272.690785
 30
0.0
 11
263.599787
 21
292.984005
 31
0.0
  0
LINE
  5
204
330
1F
100
AcDbEntity
  8
LC-002-100-D00-0
 62
     7
370
    50
100
AcDbLine
 10
272.627008
 20
232.784
 30
0.0
 11
274.223291
 21
234.608334
 31
0.0
  0
LINE
  5
205
330
1F
100
AcDbEntity
  8
LC-002-100-D00-0
 62
     7
370
    50
100
AcDbLine
 10
266.680375
 20
232.784
 30
0.0
 11
260.383677
 21
267.384079
 31
0.0
  0
LINE
  5
206
330
1F
100
AcDbEntity
  8
LC-002-100-D00-0
 62
     7
370
    50
100
AcDbLine
 10
188.242253
 20
232.784
 30
0.0
 11
186.64597
 21
234.608334
 31
0.0
  0
LINE
  5
207
330
1F
100
AcDbEntity
  8
LC-002-100-D00-0
 62
     7
370
    50
100
AcDbLine
 10
186.64597
 20
234.608334
 30
0.0
 11
192.610666
 21
267.384079
 31
0.0
  0
LINE
  5
208
330
1F
100
AcDbEntity
  8
LC-002-100-D00-0
 62
     7
370
    50
100
AcDbLine
 10
193.576407
 20
272.690785
 30
0.0
 11
197.269474
 21
292.984005
 31
0.0
  0
LINE
  5
209
330
1F
100
AcDbEntity
  8
LC-002-100-D00-0
 62
     7
370
    50
100
AcDbLine
 10
201.344585
 20
272.104245
 30
0.0
 11
205.144391
 21
292.984005
 31
0.0
  0
LINE
  5
20A
330
1F
100
AcDbEntity
  8
LC-002-100-D00-0
 62
     7
370
    50
100
AcDbLine
 10
194.188886
 20
232.784
 30
0.0
 11
200.485584
 21
267.384079
 31
0.0
  0
LINE
  5
20B
330
1F
100
AcDbEntity
  8
LC-002-100-D00-0
 62
     7
370
    50
100
AcDbLine
 10
257.532817
 20
272.104245
 30
0.0
 11
253.733013
 21
292.984005
 31
0.0
  0
LINE
  5
20C
330
1F
100
AcDbEntity
  8
LC-002-100-D00-0
 62
     7
370
    50
100
AcDbLine
 10
203.336444
 20
272.104245
 30
0.0
 11
207.136248
 21
292.984005
 31
0.0
  0
LINE
  5
20D
330
1F
100
AcDbEntity
  8
LC-002-100-D00-0
 62
     7
370
    50
100
AcDbLine
 10
280.123502
 20
232.784
 30
0.0
 11
280.44729
 21
232.784
 31
0.0
  0
LINE
  5
20E
330
1F
100
AcDbEntity
  8
LC-002-100-D00-0
 62
     7
370
    50
100
AcDbLine
 10
279.472221
 20
232.784
 30
0.0
 11
270.56735
 21
267.384079
 31
0.0
  0
LINE
  5
20F
330
1F
100
AcDbEntity
  8
LC-002-100-D00-0
 62
     7
370
    50
100
AcDbLine
 10
180.421971
 20
232.784
 30
0.0
 11
180.745758
 21
232.784
 31
0.0
  0
LINE
  5
210
330
1F
100
AcDbEntity
  8
LC-002-100-D00-0
 62
     7
370
    50
100
AcDbLine
 10
181.39704
 20
232.784
 30
0.0
 11
190.30191
 21
267.384079
 31
0.0
  0
LINE
  5
211
330
1F
100
AcDbEntity
  8
LC-002-100-D00-0
 62
     7
370
    50
100
AcDbLine
 10
246.08803
 20
272.104245
 30
0.0
 11
244.121106
 21
292.984005
 31
0.0
  0
LINE
  5
212
330
1F
100
AcDbEntity
  8
LC-002-100-D00-0
 62
     7
370
    50
100
AcDbLine
 10
253.696593
 20
234.608334
 30
0.0
 11
250.609039
 21
267.384079
 31
0.0
  0
LINE
  5
213
330
1F
100
AcDbEntity
  8
LC-002-100-D00-0
 62
     7
370
    50
100
AcDbLine
 10
250.109135
 20
272.690785
 30
0.0
 11
248.197463
 21
292.984005
 31
0.0
  0
LINE
  5
214
330
1F
100
AcDbEntity
  8
LC-002-100-D00-0
 62
     7
370
    50
100
AcDbLine
 10
252.870296
 20
232.784
 30
0.0
 11
253.696593
 21
234.608334
 31
0.0
  0
LINE
  5
215
330
1F
100
AcDbEntity
  8
LC-002-100-D00-0
 62
     7
370
    50
100
AcDbLine
 10
249.792092
 20
232.784
 30
0.0
 11
246.532683
 21
267.384079
 31
0.0
  0
LINE
  5
216
330
1F
100
AcDbEntity
  8
LC-002-100-D00-0
 62
     7
370
    50
100
AcDbLine
 10
207.998965
 20
232.784
 30
0.0
 11
207.172668
 21
234.608334
 31
0.0
  0
LINE
  5
217
330
1F
100
AcDbEntity
  8
LC-002-100-D00-0
 62
     7
370
    50
100
AcDbLine
 10
207.172668
 20
234.608334
 30
0.0
 11
210.260222
 21
267.384079
 31
0.0
  0
LINE
  5
218
330
1F
100
AcDbEntity
  8
LC-002-100-D00-0
 62
     7
370
    50
100
AcDbLine
 10
210.760126
 20
272.690785
 30
0.0
 11
212.671798
 21
292.984005
 31
0.0
  0
LINE
  5
219
330
1F
100
AcDbEntity
  8
LC-002-100-D00-0
 62
     7
370
    50
100
AcDbLine
 10
214.781231
 20
272.104245
 30
0.0
 11
216.748155
 21
292.984005
 31
0.0
  0
LINE
  5
21A
330
1F
100
AcDbEntity
  8
LC-002-100-D00-0
 62
     7
370
    50
100
AcDbLine
 10
211.077169
 20
232.784
 30
0.0
 11
214.336578
 21
267.384079
 31
0.0
  0
LINE
  5
21B
330
1F
100
AcDbEntity
  8
LC-002-100-D00-0
 62
     7
370
    50
100
AcDbLine
 10
243.8664
 20
272.104245
 30
0.0
 11
241.899477
 21
292.984005
 31
0.0
  0
LINE
  5
21C
330
1F
100
AcDbEntity
  8
LC-002-100-D00-0
 62
     7
370
    50
100
AcDbLine
 10
217.002861
 20
272.104245
 30
0.0
 11
218.969784
 21
292.984005
 31
0.0
  0
LINE
  5
21D
330
1F
100
AcDbEntity
  8
LC-002-100-D00-0
 62
     7
370
    50
100
AcDbLine
 10
229.28463
 20
272.104245
 30
0.0
 11
229.28463
 21
292.984005
 31
0.0
  0
LINE
  5
21E
330
1F
100
AcDbEntity
  8
LC-002-100-D00-0
 62
     7
370
    50
100
AcDbLine
 10
231.58463
 20
272.104245
 30
0.0
 11
231.58463
 21
292.984005
 31
0.0
  0
LINE
  5
21F
330
1F
100
AcDbEntity
  8
LC-002-100-D00-0
 62
     7
370
    50
100
AcDbLine
 10
265.486166
 20
232.784
 30
0.0
 11
265.882723
 21
232.784
 31
0.0
  0
LINE
  5
220
330
1F
100
AcDbEntity
  8
LC-002-100-D00-0
 62
     7
370
    50
100
AcDbLine
 10
264.688514
 20
232.784
 30
0.0
 11
258.39182
 21
267.384079
 31
0.0
  0
LINE
  5
221
330
1F
100
AcDbEntity
  8
LC-002-100-D00-0
 62
     7
370
    50
100
AcDbLine
 10
194.986537
 20
232.784
 30
0.0
 11
195.383095
 21
232.784
 31
0.0
  0
LINE
  5
222
330
1F
100
AcDbEntity
  8
LC-002-100-D00-0
 62
     7
370
    50
100
AcDbLine
 10
196.180746
 20
232.784
 30
0.0
 11
202.477441
 21
267.384079
 31
0.0
  0
LINE
  5
223
330
1F
100
AcDbEntity
  8
LC-002-100-D00-0
 62
     7
370
    50
100
AcDbLine
 10
248.460126
 20
232.784
 30
0.0
 11
248.902429
 21
232.784
 31
0.0
  0
LINE
  5
224
330
1F
100
AcDbEntity
  8
LC-002-100-D00-0
 62
     7
370
    50
100
AcDbLine
 10
247.570463
 20
232.784
 30
0.0
 11
244.311053
 21
267.384079
 31
0.0
  0
LINE
  5
225
330
1F
100
AcDbEntity
  8
LC-002-100-D00-0
 62
     7
370
    50
100
AcDbLine
 10
211.966832
 20
232.784
 30
0.0
 11
212.409135
 21
232.784
 31
0.0
  0
LINE
  5
226
330
1F
100
AcDbEntity
  8
LC-002-100-D00-0
 62
     7
370
    50
100
AcDbLine
 10
213.298798
 20
232.784
 30
0.0
 11
216.558208
 21
267.384079
 31
0.0
  0
LINE
  5
227
330
1F
100
AcDbEntity
  8
LC-002-100-D00-0
 62
     7
370
    50
100
AcDbLine
 10
230.205677
 20
232.784
 30
0.0
 11
230.663584
 21
232.784
 31
0.0
  0
LINE
  5
228
330
1F
100
AcDbEntity
  8
LC-002-100-D00-0
 62
     7
370
    50
100
AcDbLine
 10
229.28463
 20
232.784
 30
0.0
 11
229.28463
 21
267.384079
 31
0.0
  0
LINE
  5
229
330
1F
100
AcDbEntity
  8
LC-002-100-D00-0
 62
     7
370
    50
100
AcDbLine
 10
231.58463
 20
232.784
 30
0.0
 11
231.58463
 21
267.384079
 31
0.0
  0
INSERT
  5
23B
330
1F
100
AcDbEntity
  8
LC-002-100-D00-0
 62
     7
370
    50
100
AcDbBlockReference
  2
POLY9
 10
0.0
 20
0.0
 30
0.0
  0
LINE
  5
23C
330
1F
100
AcDbEntity
  8
LC-002-100-D00-0
 62
     7
370
    50
100
AcDbLine
 10
242.234728
 20
224.084001
 30
0.0
 11
242.234728
 21
203.784008
 31
0.0
  0
LINE
  5
23D
330
1F
100
AcDbEntity
  8
LC-002-100-D00-0
 62
     7
370
    50
100
AcDbLine
 10
218.634648
 20
203.784008
 30
0.0
 11
242.234728
 21
203.784008
 31
0.0
  0
LINE
  5
23E
330
1F
100
AcDbEntity
  8
LC-002-100-D00-0
 62
     7
370
    50
100
AcDbLine
 10
218.634648
 20
203.784008
 30
0.0
 11
218.634648
 21
224.084001
 31
0.0
  0
INSERT
  5
250
330
1F
100
AcDbEntity
  8
LC-002-100-D00-0
 62
     7
370
    50
100
AcDbBlockReference
  2
POLY10
 10
0.0
 20
0.0
 30
0.0
  0
ARC
  5
251
330
1F
100
AcDbEntity
  8
LC-002-100-D00-0
 62
     7
370
    50
100
AcDbCircle
 10
302.43463
 20
144.784007
 30
0.0
 40
8.000000000000227
100
AcDbArc
 50
270.0
 51
0.0
  0
ARC
  5
252
330
1F
100
AcDbEntity
  8
LC-002-100-D00-0
 62
     7
370
    50
100
AcDbCircle
 10
158.43463
 20
144.784007
 30
0.0
 40
8.000000000000227
100
AcDbArc
 50
180.0
 51
270.0
  0
LINE
  5
253
330
1F
100
AcDbEntity
  8
LC-002-100-D00-0
 62
     7
370
    50
100
AcDbLine
 10
310.434629
 20
146.784004
 30
0.0
 11
310.434629
 21
144.784008
 31
0.0
  0
LINE
  5
254
330
1F
100
AcDbEntity
  8
LC-002-100-D00-0
 62
     7
370
    50
100
AcDbLine
 10
150.434632
 20
144.784008
 30
0.0
 11
150.434632
 21
146.784004
 31
0.0
  0
LINE
  5
255
330
1F
100
AcDbEntity
  8
LC-002-100-D00-0
 62
     7
370
    50
100
AcDbLine
 10
307.934631
 20
155.784008
 30
0.0
 11
307.934631
 21
146.784004
 31
0.0
  0
LINE
  5
256
330
1F
100
AcDbEntity
  8
LC-002-100-D00-0
 62
     7
370
    50
100
AcDbLine
 10
152.93463
 20
146.784004
 30
0.0
 11
152.93463
 21
155.784008
 31
0.0
  0
LINE
  5
257
330
1F
100
AcDbEntity
  8
LC-002-100-D00-0
 62
     7
370
    50
100
AcDbLine
 10
305.734631
 20
154.284004
 30
0.0
 11
305.734631
 21
155.784008
 31
0.0
  0
LINE
  5
258
330
1F
100
AcDbEntity
  8
LC-002-100-D00-0
 62
     7
370
    50
100
AcDbLine
 10
155.13463
 20
155.784008
 30
0.0
 11
155.13463
 21
154.284004
 31
0.0
  0
LINE
  5
259
330
1F
100
AcDbEntity
  8
LC-002-100-D00-0
 62
     7
370
    50
100
AcDbLine
 10
155.13463
 20
155.784008
 30
0.0
 11
163.434629
 21
155.784008
 31
0.0
  0
LINE
  5
25A
330
1F
100
AcDbEntity
  8
LC-002-100-D00-0
 62
     7
370
    50
100
AcDbLine
 10
297.434632
 20
155.784008
 30
0.0
 11
305.734631
 21
155.784008
 31
0.0
  0
LINE
  5
25B
330
1F
100
AcDbEntity
  8
LC-002-100-D00-0
 62
     7
370
    50
100
AcDbLine
 10
305.434633
 20
141.784005
 30
0.0
 11
305.434633
 21
154.284004
 31
0.0
  0
LINE
  5
25C
330
1F
100
AcDbEntity
  8
LC-002-100-D00-0
 62
     7
370
    50
100
AcDbLine
 10
155.434627
 20
154.284004
 30
0.0
 11
155.434627
 21
141.784005
 31
0.0
  0
LINE
  5
25D
330
1F
100
AcDbEntity
  8
LC-002-100-D00-0
 62
     7
370
    50
100
AcDbLine
 10
155.434627
 20
154.284004
 30
0.0
 11
163.434629
 21
154.284004
 31
0.0
  0
LINE
  5
25E
330
1F
100
AcDbEntity
  8
LC-002-100-D00-0
 62
     7
370
    50
100
AcDbLine
 10
297.434632
 20
154.284004
 30
0.0
 11
305.434633
 21
154.284004
 31
0.0
  0
ARC
  5
25F
330
1F
100
AcDbEntity
  8
LC-002-100-D00-0
 62
     7
370
    50
100
AcDbCircle
 10
302.93463
 20
141.784007
 30
0.0
 40
2.5
100
AcDbArc
 50
270.0
 51
0.0
  0
ARC
  5
260
330
1F
100
AcDbEntity
  8
LC-002-100-D00-0
 62
     7
370
    50
100
AcDbCircle
 10
157.93463
 20
141.784007
 30
0.0
 40
2.5
100
AcDbArc
 50
180.0
 51
270.0
  0
LINE
  5
261
330
1F
100
AcDbEntity
  8
LC-002-100-D00-0
 62
     7
370
    50
100
AcDbLine
 10
267.934632
 20
136.784006
 30
0.0
 11
267.934632
 21
139.284008
 31
0.0
  0
LINE
  5
262
330
1F
100
AcDbEntity
  8
LC-002-100-D00-0
 62
     7
370
    50
100
AcDbLine
 10
192.934629
 20
139.284008
 30
0.0
 11
192.934629
 21
136.784006
 31
0.0
  0
LINE
  5
263
330
1F
100
AcDbEntity
  8
LC-002-100-D00-0
 62
     7
370
    50
100
AcDbLine
 10
172.934629
 20
134.284005
 30
0.0
 11
172.934629
 21
136.784006
 31
0.0
  0
LINE
  5
264
330
1F
100
AcDbEntity
  8
LC-002-100-D00-0
 62
     7
370
    50
100
AcDbLine
 10
162.934628
 20
134.284005
 30
0.0
 11
172.934629
 21
134.284005
 31
0.0
  0
LINE
  5
265
330
1F
100
AcDbEntity
  8
LC-002-100-D00-0
 62
     7
370
    50
100
AcDbLine
 10
162.934628
 20
136.784006
 30
0.0
 11
162.934628
 21
134.284005
 31
0.0
  0
LINE
  5
266
330
1F
100
AcDbEntity
  8
LC-002-100-D00-0
 62
     7
370
    50
100
AcDbLine
 10
162.934628
 20
136.784006
 30
0.0
 11
158.434633
 21
136.784006
 31
0.0
  0
LINE
  5
267
330
1F
100
AcDbEntity
  8
LC-002-100-D00-0
 62
     7
370
    50
100
AcDbLine
 10
192.934629
 20
136.784006
 30
0.0
 11
172.934629
 21
136.784006
 31
0.0
  0
LINE
  5
268
330
1F
100
AcDbEntity
  8
LC-002-100-D00-0
 62
     7
370
    50
100
AcDbLine
 10
157.934632
 20
139.284008
 30
0.0
 11
192.934629
 21
139.284008
 31
0.0
  0
LINE
  5
269
330
1F
100
AcDbEntity
  8
LC-002-100-D00-0
 62
     7
370
    50
100
AcDbLine
 10
155.13463
 20
154.284004
 30
0.0
 11
155.434627
 21
154.284004
 31
0.0
  0
LINE
  5
26A
330
1F
100
AcDbEntity
  8
LC-002-100-D00-0
 62
     7
370
    50
100
AcDbLine
 10
152.93463
 20
155.784008
 30
0.0
 11
155.13463
 21
155.784008
 31
0.0
  0
LINE
  5
26B
330
1F
100
AcDbEntity
  8
LC-002-100-D00-0
 62
     7
370
    50
100
AcDbLine
 10
150.434632
 20
146.784004
 30
0.0
 11
152.93463
 21
146.784004
 31
0.0
  0
LINE
  5
26C
330
1F
100
AcDbEntity
  8
LC-002-100-D00-0
 62
     7
370
    50
100
AcDbLine
 10
287.934631
 20
136.784006
 30
0.0
 11
287.934631
 21
134.284005
 31
0.0
  0
LINE
  5
26D
330
1F
100
AcDbEntity
  8
LC-002-100-D00-0
 62
     7
370
    50
100
AcDbLine
 10
282.434631
 20
139.284008
 30
0.0
 11
282.434631
 21
136.784006
 31
0.0
  0
LINE
  5
26E
330
1F
100
AcDbEntity
  8
LC-002-100-D00-0
 62
     7
370
    50
100
AcDbLine
 10
297.934633
 20
134.284005
 30
0.0
 11
297.934633
 21
136.784006
 31
0.0
  0
LINE
  5
26F
330
1F
100
AcDbEntity
  8
LC-002-100-D00-0
 62
     7
370
    50
100
AcDbLine
 10
287.934631
 20
134.284005
 30
0.0
 11
297.934633
 21
134.284005
 31
0.0
  0
LINE
  5
270
330
1F
100
AcDbEntity
  8
LC-002-100-D00-0
 62
     7
370
    50
100
AcDbLine
 10
287.934631
 20
136.784006
 30
0.0
 11
282.434631
 21
136.784006
 31
0.0
  0
LINE
  5
271
330
1F
100
AcDbEntity
  8
LC-002-100-D00-0
 62
     7
370
    50
100
AcDbLine
 10
302.434627
 20
136.784006
 30
0.0
 11
297.934633
 21
136.784006
 31
0.0
  0
LINE
  5
272
330
1F
100
AcDbEntity
  8
LC-002-100-D00-0
 62
     7
370
    50
100
AcDbLine
 10
282.434631
 20
139.284008
 30
0.0
 11
302.934628
 21
139.284008
 31
0.0
  0
LINE
  5
273
330
1F
100
AcDbEntity
  8
LC-002-100-D00-0
 62
     7
370
    50
100
AcDbLine
 10
305.434633
 20
154.284004
 30
0.0
 11
305.734631
 21
154.284004
 31
0.0
  0
LINE
  5
274
330
1F
100
AcDbEntity
  8
LC-002-100-D00-0
 62
     7
370
    50
100
AcDbLine
 10
305.734631
 20
155.784008
 30
0.0
 11
307.934631
 21
155.784008
 31
0.0
  0
LINE
  5
275
330
1F
100
AcDbEntity
  8
LC-002-100-D00-0
 62
     7
370
    50
100
AcDbLine
 10
307.934631
 20
146.784004
 30
0.0
 11
310.434629
 21
146.784004
 31
0.0
  0
LINE
  5
276
330
1F
100
AcDbEntity
  8
LC-002-100-D00-0
 62
     7
370
    50
100
AcDbLine
 10
274.43463
 20
136.784006
 30
0.0
 11
274.43463
 21
139.284008
 31
0.0
  0
LINE
  5
277
330
1F
100
AcDbEntity
  8
LC-002-100-D00-0
 62
     7
370
    50
100
AcDbLine
 10
274.43463
 20
136.784006
 30
0.0
 11
267.934632
 21
136.784006
 31
0.0
  0
LINE
  5
278
330
1F
100
AcDbEntity
  8
LC-002-100-D00-0
 62
     7
370
    50
100
AcDbLine
 10
267.934632
 20
139.284008
 30
0.0
 11
274.43463
 21
139.284008
 31
0.0
  0
LINE
  5
279
330
1F
100
AcDbEntity
  8
LC-002-100-D00-0
 62
     7
370
    50
100
AcDbLine
 10
274.43463
 20
136.784006
 30
0.0
 11
282.434631
 21
136.784006
 31
0.0
  0
LINE
  5
27A
330
1F
100
AcDbEntity
  8
LC-002-100-D00-0
 62
     7
370
    50
100
AcDbLine
 10
274.43463
 20
139.284008
 30
0.0
 11
282.434631
 21
139.284008
 31
0.0
  0
INSERT
  5
281
330
1F
100
AcDbEntity
  8
LC-002-100-D00-0
 62
     1
370
    25
100
AcDbBlockReference
  2
KLON1
 10
0.0
 20
0.0
 30
0.0
  0
INSERT
  5
287
330
1F
100
AcDbEntity
  8
LC-002-100-D00-0
 62
     1
370
    25
100
AcDbBlockReference
  2
KLON2
 10
0.0
 20
0.0
 30
0.0
  0
INSERT
  5
29A
330
1F
100
AcDbEntity
  8
LC-002-100-D00-0
  6
DASHDOT
 62
     1
370
    25
100
AcDbBlockReference
  2
KLON3
 10
0.0
 20
0.0
 30
0.0
  0
INSERT
  5
2AC
330
1F
100
AcDbEntity
  8
LC-002-100-D00-0
 62
     1
370
    25
100
AcDbBlockReference
  2
KLON4
 10
0.0
 20
0.0
 30
0.0
  0
INSERT
  5
2BE
330
1F
100
AcDbEntity
  8
LC-002-100-D00-0
 62
     1
370
    25
100
AcDbBlockReference
  2
KLON5
 10
0.0
 20
0.0
 30
0.0
  0
LINE
  5
2BF
330
1F
100
AcDbEntity
  8
LC-002-100-D00-0
 62
     7
370
    50
100
AcDbLine
 10
398.43463
 20
230.116019
 30
0.0
 11
401.102618
 21
232.784007
 31
0.0
  0
LINE
  5
2C0
330
1F
100
AcDbEntity
  8
LC-002-100-D00-0
 62
     7
370
    50
100
AcDbLine
 10
60.843014
 20
229.284007
 30
0.0
 11
62.388822
 21
230.829815
 31
0.0
  0
LINE
  5
2C1
330
1F
100
AcDbEntity
  8
LC-002-100-D00-0
 62
     7
370
    50
100
AcDbLine
 10
299.582286
 20
198.615595
 30
0.0
 11
303.450697
 21
202.484007
 31
0.0
  0
DIMENSION
  5
2C5
330
1F
100
AcDbEntity
  8
LC-003-003-----0
 62
     7
370
    25
100
AcDbDimension
  2
*D16
 10
410.434638
 20
354.024
 30
0.0
 11
229.502435
 21
384.824
 31
0.0
 70
   160
  1
%%c<>
 71
     5
 42
360.000014
  3
LC-DIM-L-0140-02-02
100
AcDbAlignedDimension
 13
50.434623
 23
229.284
 33
0.0
 14
410.434638
 24
229.284
 34
0.0
100
AcDbRotatedDimension
  0
DIMENSION
  5
2D3
330
1F
100
AcDbEntity
  8
LC-003-003-----0
 62
     7
370
    25
100
AcDbDimension
  2
*D17
 10
310.53463
 20
-26.73
 30
0.0
 11
219.751217
 21
4.07
 31
0.0
 70
   160
  1
%%c160
 71
     5
 42
160.2
  3
LC-DIM-L-0140-02-02
100
AcDbAlignedDimension
 13
150.33463
 23
146.784004
 33
0.0
 14
310.53463
 24
146.784004
 34
0.0
100
AcDbRotatedDimension
  0
DIMENSION
  5
2E0
330
1F
100
AcDbEntity
  8
LC-003-003-----0
 62
     7
370
    25
100
AcDbDimension
  2
*D18
 10
267.93463
 20
46.332
 30
0.0
 11
353.608839
 21
77.132
 31
0.0
 70
   160
  1
DN70
 71
     5
 42
75.0
  3
LC-DIM-L-0140-02-02
100
AcDbAlignedDimension
 13
192.93463
 23
91.96794
 33
0.0
 14
267.93463
 24
99.616019
 34
0.0
100
AcDbRotatedDimension
  0
DIMENSION
  5
2EE
330
1F
100
AcDbEntity
  8
LC-003-003-----0
 62
     7
370
    25
100
AcDbDimension
  2
*D19
 10
26.499817
 20
136.784007
 30
0.0
 11
-4.300183
 21
177.012
 31
0.0
 70
   160
 71
     5
 42
96.0
 53
90.0
  3
LC-DIM-L-0140-02-02
100
AcDbAlignedDimension
 13
52.43463
 23
232.784007
 33
0.0
 14
158.43463
 24
136.784007
 34
0.0
 50
90.0
100
AcDbRotatedDimension
  0
DIMENSION
  5
2FB
330
1F
100
AcDbEntity
  8
LC-003-003-----0
 62
     7
370
    25
100
AcDbDimension
  2
*D20
 10
-27.575117
 20
74.784006
 30
0.0
 11
-58.375117
 21
146.718
 31
0.0
 70
   160
 71
     5
 42
158.0
 53
90.0
  3
LC-DIM-L-0140-02-02
100
AcDbAlignedDimension
 13
52.43463
 23
232.784007
 33
0.0
 14
196.434629
 24
74.784006
 34
0.0
 50
90.0
100
AcDbRotatedDimension
  0
ENDSEC
  0
SECTION
  2
OBJECTS
  0
DICTIONARY
  5
C
330
0
100
AcDbDictionary
281
     1
  3
ACAD_GROUP
350
D
  3
ACAD_LAYOUT
350
1A
  3
ACAD_MLINESTYLE
350
17
  3
ACAD_PLOTSETTINGS
350
19
  3
ACAD_PLOTSTYLENAME
350
E
  0
DICTIONARY
  5
D
102
{ACAD_REACTORS
330
C
102
}
330
C
100
AcDbDictionary
281
     1
  0
DICTIONARY
  5
1A
102
{ACAD_REACTORS
330
C
102
}
330
C
100
AcDbDictionary
281
     1
  3
Layout1
350
1E
  3
Layout2
350
26
  3
Model
350
22
  0
DICTIONARY
  5
17
102
{ACAD_REACTORS
330
C
102
}
330
C
100
AcDbDictionary
281
     1
  3
Standard
350
18
  0
DICTIONARY
  5
19
102
{ACAD_REACTORS
330
C
102
}
330
C
100
AcDbDictionary
281
     1
  0
ACDBDICTIONARYWDFLT
  5
E
102
{ACAD_REACTORS
330
C
102
}
330
C
100
AcDbDictionary
281
     1
  3
Normal
350
F
100
AcDbDictionaryWithDefault
340
F
  0
LAYOUT
  5
1E
102
{ACAD_REACTORS
330
1A
102
}
330
1A
100
AcDbPlotSettings
  1

  2

  4

  6

 40
0.0
 41
0.0
 42
0.0
 43
0.0
 44
0.0
 45
0.0
 46
0.0
 47
0.0
 48
0.0
 49
0.0
140
0.0
141
0.0
142
1.0
143
1.0
 70
   688
 72
     0
 73
     0
 74
     5
  7

 75
    16
147
1.0
148
0.0
149
0.0
100
AcDbLayout
  1
Layout1
 70
     1
 71
     1
 10
-210.0
 20
-148.5
 11
630.0
 21
445.5
 12
0.0
 22
0.0
 32
0.0
 14
-210.0
 24
-148.5
 34
0.0
 15
630.0
 25
445.5
 35
0.0
146
0.0
 13
0.0
 23
0.0
 33
0.0
 16
1.0
 26
0.0
 36
0.0
 17
0.0
 27
1.0
 37
0.0
 76
     0
330
1B
  0
LAYOUT
  5
26
102
{ACAD_REACTORS
330
1A
102
}
330
1A
100
AcDbPlotSettings
  1

  2

  4

  6

 40
0.0
 41
0.0
 42
0.0
 43
0.0
 44
0.0
 45
0.0
 46
0.0
 47
0.0
 48
0.0
 49
0.0
140
0.0
141
0.0
142
1.0
143
1.0
 70
   688
 72
     0
 73
     0
 74
     5
  7

 75
    16
147
1.0
148
0.0
149
0.0
100
AcDbLayout
  1
Layout2
 70
     1
 71
     2
 10
0.0
 20
0.0
 11
0.0
 21
0.0
 12
0.0
 22
0.0
 32
0.0
 14
0.0
 24
0.0
 34
0.0
 15
0.0
 25
0.0
 35
0.0
146
0.0
 13
0.0
 23
0.0
 33
0.0
 16
1.0
 26
0.0
 36
0.0
 17
0.0
 27
1.0
 37
0.0
 76
     0
330
23
  0
LAYOUT
  5
22
102
{ACAD_REACTORS
330
1A
102
}
330
1A
100
AcDbPlotSettings
  1

  2

  4

  6

 40
0.0
 41
0.0
 42
0.0
 43
0.0
 44
0.0
 45
0.0
 46
0.0
 47
0.0
 48
0.0
 49
0.0
140
0.0
141
0.0
142
1.0
143
1.0
 70
  1776
 72
     0
 73
     0
 74
     0
  7

 75
     0
147
1.0
148
0.0
149
0.0
100
AcDbLayout
  1
Model
 70
     1
 71
     0
 10
-210.0
 20
-148.5
 11
630.0
 21
445.5
 12
0.0
 22
0.0
 32
0.0
 14
-210.0
 24
-148.5
 34
0.0
 15
630.0
 25
445.5
 35
0.0
146
0.0
 13
0.0
 23
0.0
 33
0.0
 16
1.0
 26
0.0
 36
0.0
 17
0.0
 27
1.0
 37
0.0
 76
     0
330
1F
  0
MLINESTYLE
  5
18
102
{ACAD_REACTORS
330
17
102
}
330
17
100
AcDbMlineStyle
  2
Standard
 70
     0
  3

 62
   256
 51
90.0
 52
90.0
 71
     2
 49
0.5
 62
   256
  6
BYLAYER
 49
-0.5
 62
   256
  6
BYLAYER
  0
ACDBPLACEHOLDER
  5
F
102
{ACAD_REACTORS
330
E
102
}
330
E
  0
ENDSEC
  0
EOF
