  0
SECTION
  2
HEADER
  9
$ACADVER
  1
AC1015
  9
$ACADMAINTVER
 70
     6
  9
$DWGCODEPAGE
  3
DOS850
  9
$INSBASE
 10
0.0
 20
0.0
 30
0.0
  9
$EXTMIN
 10
0.0
 20
0.0
 30
0.0
  9
$EXTMAX
 10
840.0
 20
594.0
 30
0.0
  9
$LIMMIN
 10
0.0
 20
0.0
  9
$LIMMAX
 10
840.0
 20
594.0
  9
$ORTHOMODE
 70
     0
  9
$REGENMODE
 70
     1
  9
$FILLMODE
 70
     1
  9
$QTEXTMODE
 70
     0
  9
$MIRRTEXT
 70
     1
  9
$LTSCALE
 40
2.0
  9
$ATTMODE
 70
     1
  9
$TEXTSIZE
 40
0.2
  9
$TRACEWID
 40
0.05
  9
$TEXTSTYLE
  7
Standard
  9
$CLAYER
  8
0
  9
$CELTYPE
  6
ByBlock
  9
$CECOLOR
 62
     7
  9
$CELTSCALE
 40
1.0
  9
$DISPSILH
 70
     0
  9
$DIMSCALE
 40
2.0
  9
$DIMASZ
 40
3.5
  9
$DIMEXO
 40
0.0625
  9
$DIMDLI
 40
0.38
  9
$DIMRND
 40
0.0
  9
$DIMDLE
 40
0.0
  9
$DIMEXE
 40
0.18
  9
$DIMTP
 40
0.0
  9
$DIMTM
 40
0.0
  9
$DIMTXT
 40
3.5
  9
$DIMCEN
 40
0.09
  9
$DIMTSZ
 40
0.0
  9
$DIMTOL
 70
     0
  9
$DIMLIM
 70
     0
  9
$DIMTIH
 70
     1
  9
$DIMTOH
 70
     1
  9
$DIMSE1
 70
     0
  9
$DIMSE2
 70
     0
  9
$DIMTAD
 70
     1
  9
$DIMZIN
 70
     0
  9
$DIMBLK
  1

  9
$DIMASO
 70
     1
  9
$DIMSHO
 70
     1
  9
$DIMPOST
  1

  9
$DIMAPOST
  1

  9
$DIMALT
 70
     0
  9
$DIMALTD
 70
     2
  9
$DIMALTF
 40
25.4
  9
$DIMLFAC
 40
1.0
  9
$DIMTOFL
 70
     0
  9
$DIMTVP
 40
0.0
  9
$DIMTIX
 70
     0
  9
$DIMSOXD
 70
     0
  9
$DIMSAH
 70
     0
  9
$DIMBLK1
  1

  9
$DIMBLK2
  1

  9
$DIMSTYLE
  2
Standard
  9
$DIMCLRD
 70
     0
  9
$DIMCLRE
 70
     0
  9
$DIMCLRT
 70
     0
  9
$DIMTFAC
 40
1.0
  9
$DIMGAP
 40
0.09
  9
$DIMJUST
 70
     0
  9
$DIMSD1
 70
     0
  9
$DIMSD2
 70
     0
  9
$DIMTOLJ
 70
     1
  9
$DIMTZIN
 70
     0
  9
$DIMALTZ
 70
     0
  9
$DIMALTTZ
 70
     0
  9
$DIMUPT
 70
     0
  9
$DIMDEC
 70
     4
  9
$DIMTDEC
 70
     4
  9
$DIMALTU
 70
     2
  9
$DIMALTTD
 70
     2
  9
$DIMTXSTY
  7
Standard
  9
$DIMAUNIT
 70
     0
  9
$DIMADEC
 70
     0
  9
$DIMALTRND
 40
0.0
  9
$DIMAZIN
 70
     0
  9
$DIMDSEP
 70
     0
  9
$DIMATFIT
 70
     3
  9
$DIMFRAC
 70
     0
  9
$DIMLDRBLK
  1

  9
$DIMLUNIT
 70
     2
  9
$DIMLWD
 70
     0
  9
$DIMLWE
 70
     0
  9
$DIMTMOVE
 70
     0
  9
$LUNITS
 70
     2
  9
$LUPREC
 70
     6
  9
$SKETCHINC
 40
0.1
  9
$FILLETRAD
 40
0.0
  9
$AUNITS
 70
     0
  9
$AUPREC
 70
     0
  9
$MENU
  1
acad
  9
$ELEVATION
 40
0.0
  9
$PELEVATION
 40
0.0
  9
$THICKNESS
 40
0.0
  9
$LIMCHECK
 70
     0
  9
$CHAMFERA
 40
0.0
  9
$CHAMFERB
 40
0.0
  9
$CHAMFERC
 40
0.0
  9
$CHAMFERD
 40
0.0
  9
$SKPOLY
 70
     0
  9
$TDCREATE
 40
0.000000000
  9
$TDUCREATE
 40
0.000000000
  9
$TDUPDATE
 40
0.000000000
  9
$TDUUPDATE
 40
0.000000000
  9
$TDINDWG
 40
0.0000000000
  9
$TDUSRTIMER
 40
0.0000000000
  9
$USRTIMER
 70
     1
  9
$ANGBASE
 50
0.0
  9
$ANGDIR
 70
     0
  9
$PDMODE
 70
     0
  9
$PDSIZE
 40
0.0
  9
$PLINEWID
 40
0.0
  9
$SPLFRAME
 70
     0
  9
$SPLINETYPE
 70
     6
  9
$SPLINESEGS
 70
     8
  9
$HANDSEED
  5
336
  9
$SURFTAB1
 70
     6
  9
$SURFTAB2
 70
     6
  9
$SURFTYPE
 70
     6
  9
$SURFU
 70
     6
  9
$SURFV
 70
     6
  9
$UCSBASE
  2

  9
$UCSNAME
  2

  9
$UCSORG
 10
0.0
 20
0.0
 30
0.0
  9
$UCSXDIR
 10
1.0
 20
0.0
 30
0.0
  9
$UCSYDIR
 10
0.0
 20
1.0
 30
0.0
  9
$UCSORTHOREF
  2

  9
$UCSORTHOVIEW
 70
     0
  9
$UCSORGTOP
 10
0.0
 20
0.0
 30
0.0
  9
$UCSORGBOTTOM
 10
0.0
 20
0.0
 30
0.0
  9
$UCSORGLEFT
 10
0.0
 20
0.0
 30
0.0
  9
$UCSORGRIGHT
 10
0.0
 20
0.0
 30
0.0
  9
$UCSORGFRONT
 10
0.0
 20
0.0
 30
0.0
  9
$UCSORGBACK
 10
0.0
 20
0.0
 30
0.0
  9
$PUCSBASE
  2

  9
$PUCSNAME
  2

  9
$PUCSORG
 10
0.0
 20
0.0
 30
0.0
  9
$PUCSXDIR
 10
1.0
 20
0.0
 30
0.0
  9
$PUCSYDIR
 10
0.0
 20
1.0
 30
0.0
  9
$PUCSORTHOREF
  2

  9
$PUCSORTHOVIEW
 70
     0
  9
$PUCSORGTOP
 10
0.0
 20
0.0
 30
0.0
  9
$PUCSORGBOTTOM
 10
0.0
 20
0.0
 30
0.0
  9
$PUCSORGLEFT
 10
0.0
 20
0.0
 30
0.0
  9
$PUCSORGRIGHT
 10
0.0
 20
0.0
 30
0.0
  9
$PUCSORGFRONT
 10
0.0
 20
0.0
 30
0.0
  9
$PUCSORGBACK
 10
0.0
 20
0.0
 30
0.0
  9
$USERI1
 70
     0
  9
$USERI2
 70
     0
  9
$USERI3
 70
     0
  9
$USERI4
 70
     0
  9
$USERI5
 70
     0
  9
$USERR1
 40
0.0
  9
$USERR2
 40
0.0
  9
$USERR3
 40
0.0
  9
$USERR4
 40
0.0
  9
$USERR5
 40
0.0
  9
$WORLDVIEW
 70
     1
  9
$SHADEDGE
 70
     3
  9
$SHADEDIF
 70
    70
  9
$TILEMODE
 70
     1
  9
$MAXACTVP
 70
    16
  9
$PINSBASE
 10
0.0
 20
0.0
 30
0.0
  9
$PLIMCHECK
 70
     0
  9
$PEXTMIN
 10
0.0
 20
0.0
 30
0.0
  9
$PEXTMAX
 10
840.0
 20
594.0
 30
0.0
  9
$PLIMMIN
 10
0.0
 20
0.0
  9
$PLIMMAX
 10
840.0
 20
594.0
  9
$UNITMODE
 70
     0
  9
$VISRETAIN
 70
     0
  9
$PLINEGEN
 70
     1
  9
$PSLTSCALE
 70
     0
  9
$TREEDEPTH
 70
  3020
  9
$CMLSTYLE
  2
Standard
  9
$CMLJUST
 70
     0
  9
$CMLSCALE
 40
1.0
  9
$PROXYGRAPHICS
 70
     0
  9
$MEASUREMENT
 70
     0
  9
$CELWEIGHT
370
     0
  9
$ENDCAPS
280
     0
  9
$JOINSTYLE
280
     0
  9
$LWDISPLAY
290
     0
  9
$INSUNITS
 70
     0
  9
$HYPERLINKBASE
  1

  9
$STYLESHEET
  1

  9
$XEDIT
290
     1
  9
$CEPSNTYPE
380
     0
  9
$PSTYLEMODE
290
     1
  9
$FINGERPRINTGUID
  2

  9
$VERSIONGUID
  2

  9
$EXTNAMES
290
     1
  9
$PSVPSCALE
 40
0.0
  0
ENDSEC
  0
SECTION
  2
CLASSES
  0
CLASS
  1
LWPOLYLINE
  2
AcDbPolyline
  3
AutoCAD 2000
 90
        0
280
     0
281
     1
  0
CLASS
  1
IMAGE
  2
AcDbRasterImage
  3
ISM
 90
      127
280
     0
281
     1
  0
CLASS
  1
OLE2FRAME
  2
AcDbOle2Frame
  3
AutoCAD 2000
 90
        0
280
     0
281
     1
  0
CLASS
  1
HATCH
  2
AcDbHatch
  3
AutoCAD 2000
 90
        0
280
     0
281
     1
  0
CLASS
  1
DICTIONARYVAR
  2
AcDbDictionaryVar
  3
AutoCAD 2000
 90
        0
280
     0
281
     0
  0
CLASS
  1
RASTERVARIABLES
  2
AcDbRasterVariables
  3
ISM
 90
        0
280
     0
281
     0
  0
CLASS
  1
IMAGEDEF
  2
AcDbRasterImageDef
  3
ISM
 90
        0
280
     0
281
     0
  0
CLASS
  1
IMAGEDEF_REACTOR
  2
AcDbRasterImageDefReactor
  3
ISM
 90
        1
280
     0
281
     0
  0
CLASS
  1
IDBUFFER
  2
AcDbIdBuffer
  3
AutoCAD 2000
 90
        0
280
     0
281
     0
  0
CLASS
  1
SPATIAL_FILTER
  2
AcDbSpatialFilter
  3
AutoCAD 2000
 90
        0
280
     0
281
     0
  0
CLASS
  1
XRECORD
  2
AcDbXrecord
  3
AutoCAD 2000
 90
        0
280
     0
281
     0
  0
CLASS
  1
SORTENTSTABLE
  2
AcDbSortentsTable
  3
AutoCAD 2000
 90
        0
280
     0
281
     0
  0
CLASS
  1
LAYER_INDEX
  2
AcDbLayerIndex
  3
AutoCAD 2000
 90
        0
280
     0
281
     0
  0
CLASS
  1
SPATIAL_INDEX
  2
AcDbSpatialIndex
  3
AutoCAD 2000
 90
        0
280
     0
281
     0
  0
CLASS
  1
OBJECT_PTR
  2
CAseDLPNTableRecord
  3
"ASE-LPNTableRecord"
 90
        1
280
     0
281
     0
  0
CLASS
  1
LAYOUT
  2
AcDbLayout
  3
AutoCAD 2000
 90
        0
280
     0
281
     0
  0
CLASS
  1
PLOTSETTINGS
  2
AcDbPlotSettings
  3
AutoCAD 2000
 90
        0
280
     0
281
     0
  0
CLASS
  1
ACDBDICTIONARYWDFLT
  2
AcDbDictionaryWithDefault
  3
AutoCAD 2000
 90
        0
280
     0
281
     0
  0
CLASS
  1
ACDBPLACEHOLDER
  2
AcDbPlaceHolder
  3
AutoCAD 2000
 90
        0
280
     0
281
     0
  0
ENDSEC
  0
SECTION
  2
TABLES
  0
TABLE
  2
VPORT
  5
7
100
AcDbSymbolTable
 70
     1
  0
VPORT
  5
15
100
AcDbSymbolTableRecord
100
AcDbViewportTableRecord
  2
*ACTIVE
 70
     0
 10
0.0
 20
0.0
 11
1.0
 21
1.0
 12
420.0
 22
297.0
 13
0.0
 23
0.0
 14
1.0
 24
1.0
 15
0.0
 25
0.0
 16
0.0
 26
0.0
 36
1.0
 17
0.0
 27
0.0
 37
0.0
 40
594.0
 41
1.604229
 42
50.0
 43
0.0
 44
0.0
 50
0.0
 51
0.0
 71
     0
 72
   100
 73
     1
 74
     1
 75
     0
 76
     0
 77
     0
 78
     0
281
     0
 65
     0
110
0.0
120
0.0
130
0.0
111
1.0
121
0.0
131
0.0
112
0.0
122
1.0
132
0.0
345
0
346
0
 79
     0
146
0.0
  0
ENDTAB
  0
TABLE
  2
LTYPE
  5
4
100
AcDbSymbolTable
 70
     5
  0
LTYPE
  5
11
100
AcDbSymbolTableRecord
100
AcDbLinetypeTableRecord
  2
ByBlock
 70
    64
  3

 72
    65
 73
     0
 40
0.0
  0
LTYPE
  5
12
100
AcDbSymbolTableRecord
100
AcDbLinetypeTableRecord
  2
ByLayer
 70
    64
  3

 72
    65
 73
     0
 40
0.0
  0
LTYPE
  5
13
100
AcDbSymbolTableRecord
100
AcDbLinetypeTableRecord
  2
Continuous
 70
    64
  3
Solid line
 72
    65
 73
     0
 40
0.0
  0
LTYPE
  5
23
100
AcDbSymbolTableRecord
100
AcDbLinetypeTableRecord
  2
DASHED
 70
    64
  3
__ __ __ __ __
 72
    65
 73
     2
 40
6.25
 49
5.0
 74
     0
 49
-1.25
 74
     0
  0
LTYPE
  5
53
100
AcDbSymbolTableRecord
100
AcDbLinetypeTableRecord
  2
DASHDOT
 70
    64
  3
__ . __ . __ . __ . __
 72
    65
 73
     4
 40
7.5
 49
5.0
 74
     0
 49
-1.25
 74
     0
 49
0.0
 74
     0
 49
-1.25
 74
     0
  0
ENDTAB
  0
TABLE
  2
LAYER
  5
2
100
AcDbSymbolTable
 70
    15
  0
LAYER
  5
14
100
AcDbSymbolTableRecord
100
AcDbLayerTableRecord
  2
0
 70
     0
 62
     7
  6
Continuous
290
     1
370
    -3
390
1D
  0
LAYER
  5
24
100
AcDbSymbolTableRecord
100
AcDbLayerTableRecord
  2
LC-INFO-1-2-mm-A3-0
 70
     1
 62
   255
  6
ByBlock
290
     1
370
    -3
390
1D
  0
LAYER
  5
25
100
AcDbSymbolTableRecord
100
AcDbLayerTableRecord
  2
LC-3D-HIDDEN
 70
     0
 62
     9
  6
DASHED
290
     1
370
    -3
390
1D
  0
LAYER
  5
26
100
AcDbSymbolTableRecord
100
AcDbLayerTableRecord
  2
LC-CUT-HIDDEN
 70
     0
 62
     9
  6
DASHED
290
     1
370
    -3
390
1D
  0
LAYER
  5
27
100
AcDbSymbolTableRecord
100
AcDbLayerTableRecord
  2
LC-VIEWPORT
 70
     0
 62
     7
  6
ByBlock
290
     1
370
    -3
390
1D
  0
LAYER
  5
2B
100
AcDbSymbolTableRecord
100
AcDbLayerTableRecord
  2
LC-001-002-----0
 70
     0
 62
     1
  6
ByBlock
290
     1
370
    -3
390
1D
  0
LAYER
  5
2D
100
AcDbSymbolTableRecord
100
AcDbLayerTableRecord
  2
LC-002-002-RND-0
 70
     0
 62
     1
  6
ByBlock
290
     1
370
    -3
390
1D
  0
LAYER
  5
8A
100
AcDbSymbolTableRecord
100
AcDbLayerTableRecord
  2
LC-003-003-MTH-0
 70
     0
 62
     2
  6
ByBlock
290
     1
370
    -3
390
1D
  0
LAYER
  5
8F
100
AcDbSymbolTableRecord
100
AcDbLayerTableRecord
  2
LC-004-003-----0
 70
     0
 62
     2
  6
ByBlock
290
     1
370
    -3
390
1D
  0
LAYER
  5
A2
100
AcDbSymbolTableRecord
100
AcDbLayerTableRecord
  2
LC-005-003-MTG-0
 70
     0
 62
     2
  6
ByBlock
290
     1
370
    -3
390
1D
  0
LAYER
  5
AE
100
AcDbSymbolTableRecord
100
AcDbLayerTableRecord
  2
LC-006-005-----0
 70
     0
 62
     2
  6
ByBlock
290
     1
370
    -3
390
1D
  0
LAYER
  5
217
100
AcDbSymbolTableRecord
100
AcDbLayerTableRecord
  2
LC-007-103-D10-0
 70
     0
 62
     1
  6
ByBlock
290
     1
370
    -3
390
1D
  0
LAYER
  5
219
100
AcDbSymbolTableRecord
100
AcDbLayerTableRecord
  2
LC-008-102-D10-0
 70
     0
 62
     2
  6
DASHDOT
290
     1
370
    -3
390
1D
  0
LAYER
  5
222
100
AcDbSymbolTableRecord
100
AcDbLayerTableRecord
  2
LC-009-104-D10-0
 70
     0
 62
     2
  6
ByBlock
290
     1
370
    -3
390
1D
  0
LAYER
  5
29E
100
AcDbSymbolTableRecord
100
AcDbLayerTableRecord
  2
LC-010-002-___-0
 70
     0
 62
     2
  6
DASHED
290
     1
370
    -3
390
1D
  0
ENDTAB
  0
TABLE
  2
STYLE
  5
3
100
AcDbSymbolTable
 70
     4
  0
STYLE
  5
17
100
AcDbSymbolTableRecord
100
AcDbTextStyleTableRecord
  2
Standard
 70
     0
 40
0.0
 41
1.0
 50
0.0
 71
     0
 42
0.0
  3
txt
  4

  0
STYLE
  5
29
100
AcDbSymbolTableRecord
100
AcDbTextStyleTableRecord
  2
LCTX15-400-0-0-ARIAL
 70
    64
 40
3.5
 41
1.0
 50
0.0
 71
     0
 42
0.0
  3
Arial
  4

1001
ACAD
1000
Arial
1071
 16777216
  0
STYLE
  5
2A
100
AcDbSymbolTableRecord
100
AcDbTextStyleTableRecord
  2
LCTX0-400-0-0-DIN-SCHRIFTP
 70
    64
 40
3.5
 41
1.0
 50
0.0
 71
     0
 42
0.0
  3
MONOTXT
  4

  0
STYLE
  5
87
100
AcDbSymbolTableRecord
100
AcDbTextStyleTableRecord
  2
LCTX15-400-0-0-DIN-SCHRIFTP
 70
    64
 40
0.0
 41
1.0
 50
1.5
 71
     0
 42
3.5
  3
STANDARD
  4

  0
ENDTAB
  0
TABLE
  2
VIEW
  5
5
100
AcDbSymbolTable
 70
     0
  0
ENDTAB
  0
TABLE
  2
UCS
  5
6
100
AcDbSymbolTable
 70
     0
  0
ENDTAB
  0
TABLE
  2
APPID
  5
8
100
AcDbSymbolTable
 70
     1
  0
APPID
  5
16
100
AcDbSymbolTableRecord
100
AcDbRegAppTableRecord
  2
ACAD
 70
     0
  0
ENDTAB
  0
TABLE
  2
DIMSTYLE
  5
9
100
AcDbSymbolTable
 70
     2
100
AcDbDimStyleTable
 71
     0
  0
DIMSTYLE
105
18
100
AcDbSymbolTableRecord
100
AcDbDimStyleTableRecord
  2
Standard
 70
     0
  3

  4

 40
1.0
 41
0.18
 42
0.0625
 43
0.38
 44
0.18
 45
0.0
 46
0.0
 47
0.0
 48
0.0
 71
     0
 72
     0
 73
     1
 74
     1
 75
     0
 76
     0
 77
     0
 78
     0
 79
     0
140
0.18
141
0.09
142
0.0
143
25.4
144
1.0
145
0.0
146
1.0
147
0.09
148
0.0
170
     0
171
     2
172
     0
173
     0
174
     0
175
     0
176
     0
177
     0
178
     0
179
     0
271
     4
272
     4
273
     2
274
     2
275
     0
276
     0
277
     2
278
    46
279
     0
280
     0
281
     0
282
     0
283
     1
284
     0
285
     0
286
     0
288
     0
289
     0
340
17
341
0
342
0
343
0
344
0
371
    -2
372
    -2
  0
DIMSTYLE
105
86
100
AcDbSymbolTableRecord
100
AcDbDimStyleTableRecord
  2
LC-DIM-L-0140-02-02
 70
     0
  3

  4

 40
2.0
 41
3.5
 42
0.0
 43
7.5
 44
1.8
 45
0.0
 46
0.0
 47
0.0
 48
0.0
 71
     0
 72
     0
 73
     0
 74
     0
 75
     0
 76
     0
 77
     1
 78
     8
 79
     0
140
14.0
141
0.0
142
0.0
143
25.4
144
1.0
145
0.0
146
0.71
147
1.5
148
0.0
170
     0
171
     2
172
     0
173
     0
174
     0
175
     0
176
     2
177
     2
178
     2
179
     2
271
     2
272
     4
273
     2
274
     2
275
     0
276
     0
277
     2
278
    44
279
     0
280
     0
281
     0
282
     0
283
     1
284
     0
285
     0
286
     0
288
     0
289
     0
340
87
341
0
342
0
343
0
344
0
371
    -3
372
     0
  0
ENDTAB
  0
TABLE
  2
BLOCK_RECORD
  5
1
100
AcDbSymbolTable
 70
    18
  0
BLOCK_RECORD
  5
A
100
AcDbSymbolTableRecord
100
AcDbBlockTableRecord
  2
*MODEL_SPACE
340
20
  0
BLOCK_RECORD
  5
B
100
AcDbSymbolTableRecord
100
AcDbBlockTableRecord
  2
*PAPER_SPACE
340
21
  0
BLOCK_RECORD
  5
88
100
AcDbSymbolTableRecord
100
AcDbBlockTableRecord
  2
*D0
340
0
  0
BLOCK_RECORD
  5
AC
100
AcDbSymbolTableRecord
100
AcDbBlockTableRecord
  2
*X1
340
0
102
{BLKREFS
331
122
102
}
  0
BLOCK_RECORD
  5
123
100
AcDbSymbolTableRecord
100
AcDbBlockTableRecord
  2
*X2
340
0
102
{BLKREFS
331
199
102
}
  0
BLOCK_RECORD
  5
19A
100
AcDbSymbolTableRecord
100
AcDbBlockTableRecord
  2
*X3
340
0
102
{BLKREFS
331
19E
102
}
  0
BLOCK_RECORD
  5
19F
100
AcDbSymbolTableRecord
100
AcDbBlockTableRecord
  2
*X4
340
0
102
{BLKREFS
331
1A3
102
}
  0
BLOCK_RECORD
  5
1C4
100
AcDbSymbolTableRecord
100
AcDbBlockTableRecord
  2
*X5
340
0
102
{BLKREFS
331
1DB
102
}
  0
BLOCK_RECORD
  5
1DC
100
AcDbSymbolTableRecord
100
AcDbBlockTableRecord
  2
*X6
340
0
102
{BLKREFS
331
1F1
102
}
  0
BLOCK_RECORD
  5
1F2
100
AcDbSymbolTableRecord
100
AcDbBlockTableRecord
  2
*X7
340
0
102
{BLKREFS
331
202
102
}
  0
BLOCK_RECORD
  5
203
100
AcDbSymbolTableRecord
100
AcDbBlockTableRecord
  2
*X8
340
0
102
{BLKREFS
331
216
102
}
  0
BLOCK_RECORD
  5
233
100
AcDbSymbolTableRecord
100
AcDbBlockTableRecord
  2
*X9
340
0
102
{BLKREFS
331
23E
102
}
  0
BLOCK_RECORD
  5
23F
100
AcDbSymbolTableRecord
100
AcDbBlockTableRecord
  2
*X10
340
0
102
{BLKREFS
331
24A
102
}
  0
BLOCK_RECORD
  5
24D
100
AcDbSymbolTableRecord
100
AcDbBlockTableRecord
  2
*D11
340
0
  0
BLOCK_RECORD
  5
268
100
AcDbSymbolTableRecord
100
AcDbBlockTableRecord
  2
*D12
340
0
  0
BLOCK_RECORD
  5
280
100
AcDbSymbolTableRecord
100
AcDbBlockTableRecord
  2
*D13
340
0
  0
BLOCK_RECORD
  5
2A1
100
AcDbSymbolTableRecord
100
AcDbBlockTableRecord
  2
*X14
340
0
102
{BLKREFS
331
2B1
102
}
  0
BLOCK_RECORD
  5
2D0
100
AcDbSymbolTableRecord
100
AcDbBlockTableRecord
  2
*X15
340
0
102
{BLKREFS
331
2D5
102
}
  0
BLOCK_RECORD
  5
2D6
100
AcDbSymbolTableRecord
100
AcDbBlockTableRecord
  2
*X16
340
0
102
{BLKREFS
331
2DF
102
}
  0
BLOCK_RECORD
  5
2E2
100
AcDbSymbolTableRecord
100
AcDbBlockTableRecord
  2
*X17
340
0
102
{BLKREFS
331
2F1
102
}
  0
ENDTAB
  0
ENDSEC
  0
SECTION
  2
BLOCKS
  0
BLOCK
  5
D
100
AcDbEntity
  8
0
390
0
100
AcDbBlockBegin
  2
*MODEL_SPACE
 70
     0
 10
0.0
 20
0.0
 30
0.0
  3
*MODEL_SPACE
  1

  0
ENDBLK
  5
E
100
AcDbEntity
  8
0
390
0
100
AcDbBlockEnd
  0
BLOCK
  5
F
100
AcDbEntity
 67
     1
  8
0
390
0
100
AcDbBlockBegin
  2
*PAPER_SPACE
 70
     0
 10
0.0
 20
0.0
 30
0.0
  3
*PAPER_SPACE
  1

  0
ENDBLK
  5
10
100
AcDbEntity
 67
     1
  8
0
390
0
100
AcDbBlockEnd
  0
BLOCK
  5
89
100
AcDbEntity
  8
0
390
0
100
AcDbBlockBegin
  2
*D0
 70
    65
 10
0.0
 20
0.0
 30
0.0
  3
*D0
  1

  0
LINE
  5
8B
100
AcDbEntity
  8
LC-003-003-MTH-0
370
    25
390
0
 62
     2
100
AcDbLine
 10
169.614432
 20
232.89558
 30
0.0
 11
169.614432
 21
181.42
 31
0.0
  0
LINE
  5
8C
100
AcDbEntity
  8
LC-003-003-MTH-0
370
    25
390
0
 62
     2
100
AcDbLine
 10
169.614432
 20
181.42
 30
0.0
 11
169.614432
 21
169.716
 31
0.0
  0
LINE
  5
8D
100
AcDbEntity
  8
LC-003-003-MTH-0
370
    25
390
0
 62
     2
100
AcDbLine
 10
259.814432
 20
232.89558
 30
0.0
 11
259.814432
 21
181.42
 31
0.0
  0
LINE
  5
8E
100
AcDbEntity
  8
LC-003-003-MTH-0
370
    25
390
0
 62
     2
100
AcDbLine
 10
259.814432
 20
181.42
 30
0.0
 11
259.814432
 21
169.716
 31
0.0
  0
LINE
  5
90
100
AcDbEntity
  8
LC-004-003-----0
370
    25
390
0
 62
     2
100
AcDbLine
 10
141.853976
 20
182.861267
 30
0.0
 11
169.614432
 21
186.516
 31
0.0
  0
LINE
  5
91
100
AcDbEntity
  8
LC-004-003-----0
370
    25
390
0
 62
     2
100
AcDbLine
 10
169.614432
 20
186.516
 30
0.0
 11
141.853976
 21
190.170733
 31
0.0
  0
LINE
  5
92
100
AcDbEntity
  8
LC-004-003-----0
370
    25
390
0
 62
     2
100
AcDbLine
 10
141.853976
 20
190.170733
 30
0.0
 11
141.853976
 21
182.861267
 31
0.0
  0
LINE
  5
93
100
AcDbEntity
  8
LC-004-003-----0
370
    25
390
0
 62
     2
100
AcDbLine
 10
141.791695
 20
183.811497
 30
0.0
 11
162.334432
 21
186.516
 31
0.0
  0
LINE
  5
94
100
AcDbEntity
  8
LC-004-003-----0
370
    25
390
0
 62
     2
100
AcDbLine
 10
162.334432
 20
186.516
 30
0.0
 11
141.791695
 21
189.220503
 31
0.0
  0
LINE
  5
95
100
AcDbEntity
  8
LC-004-003-----0
370
    25
390
0
 62
     2
100
AcDbLine
 10
141.729413
 20
184.761728
 30
0.0
 11
155.054432
 21
186.516
 31
0.0
  0
LINE
  5
96
100
AcDbEntity
  8
LC-004-003-----0
370
    25
390
0
 62
     2
100
AcDbLine
 10
155.054432
 20
186.516
 30
0.0
 11
141.729413
 21
188.270272
 31
0.0
  0
LINE
  5
97
100
AcDbEntity
  8
LC-004-003-----0
370
    25
390
0
 62
     2
100
AcDbLine
 10
141.667132
 20
185.711959
 30
0.0
 11
147.774432
 21
186.516
 31
0.0
  0
LINE
  5
98
100
AcDbEntity
  8
LC-004-003-----0
370
    25
390
0
 62
     2
100
AcDbLine
 10
147.774432
 20
186.516
 30
0.0
 11
141.667132
 21
187.320041
 31
0.0
  0
LINE
  5
99
100
AcDbEntity
  8
LC-004-003-----0
370
    25
390
0
 62
     2
100
AcDbLine
 10
287.574888
 20
190.170733
 30
0.0
 11
259.814432
 21
186.516
 31
0.0
  0
LINE
  5
9A
100
AcDbEntity
  8
LC-004-003-----0
370
    25
390
0
 62
     2
100
AcDbLine
 10
259.814432
 20
186.516
 30
0.0
 11
287.574888
 21
182.861267
 31
0.0
  0
LINE
  5
9B
100
AcDbEntity
  8
LC-004-003-----0
370
    25
390
0
 62
     2
100
AcDbLine
 10
287.574888
 20
182.861267
 30
0.0
 11
287.574888
 21
190.170733
 31
0.0
  0
LINE
  5
9C
100
AcDbEntity
  8
LC-004-003-----0
370
    25
390
0
 62
     2
100
AcDbLine
 10
287.63717
 20
189.220503
 30
0.0
 11
267.094432
 21
186.516
 31
0.0
  0
LINE
  5
9D
100
AcDbEntity
  8
LC-004-003-----0
370
    25
390
0
 62
     2
100
AcDbLine
 10
267.094432
 20
186.516
 30
0.0
 11
287.63717
 21
183.811497
 31
0.0
  0
LINE
  5
9E
100
AcDbEntity
  8
LC-004-003-----0
370
    25
390
0
 62
     2
100
AcDbLine
 10
287.699451
 20
188.270272
 30
0.0
 11
274.374432
 21
186.516
 31
0.0
  0
LINE
  5
9F
100
AcDbEntity
  8
LC-004-003-----0
370
    25
390
0
 62
     2
100
AcDbLine
 10
274.374432
 20
186.516
 30
0.0
 11
287.699451
 21
184.761728
 31
0.0
  0
LINE
  5
A0
100
AcDbEntity
  8
LC-004-003-----0
370
    25
390
0
 62
     2
100
AcDbLine
 10
287.761733
 20
187.320041
 30
0.0
 11
281.654432
 21
186.516
 31
0.0
  0
LINE
  5
A1
100
AcDbEntity
  8
LC-004-003-----0
370
    25
390
0
 62
     2
100
AcDbLine
 10
281.654432
 20
186.516
 30
0.0
 11
287.761733
 21
185.711959
 31
0.0
  0
LINE
  5
A3
100
AcDbEntity
  8
LC-005-003-MTG-0
370
    25
390
0
 62
     2
100
AcDbLine
 10
130.414432
 20
186.516
 30
0.0
 11
382.790432
 21
186.516
 31
0.0
  0
TEXT
  5
A4
100
AcDbEntity
  8
LC-004-003-----0
370
    -2
390
0
 62
     7
100
AcDbText
 10
303.362592
 20
194.343554
 30
0.0
 40
28.0
  1
DN90
 41
0.8
 51
15.0
  7
LCTX15-400-0-0-ARIAL
100
AcDbText
  0
ENDBLK
  5
A5
100
AcDbEntity
  8
0
390
0
100
AcDbBlockEnd
  0
BLOCK
  5
AD
100
AcDbEntity
  8
0
390
0
100
AcDbBlockBegin
  2
*X1
 70
    65
 10
0.0
 20
0.0
 30
0.0
  3
*X1
  1

  0
LINE
  5
AF
100
AcDbEntity
  8
LC-006-005-----0
370
    25
390
0
 62
     2
100
AcDbLine
 10
257.674113
 20
229.389842
 30
0.0
 11
259.314654
 21
231.030383
 31
0.0
  0
LINE
  5
B0
100
AcDbEntity
  8
LC-006-005-----0
370
    25
390
0
 62
     2
100
AcDbLine
 10
257.214432
 20
231.758588
 30
0.0
 11
259.814432
 21
234.358588
 31
0.0
  0
LINE
  5
B1
100
AcDbEntity
  8
LC-006-005-----0
370
    25
390
0
 62
     2
100
AcDbLine
 10
257.214432
 20
234.587015
 30
0.0
 11
259.814432
 21
237.187015
 31
0.0
  0
LINE
  5
B2
100
AcDbEntity
  8
LC-006-005-----0
370
    25
390
0
 62
     2
100
AcDbLine
 10
257.214432
 20
237.415442
 30
0.0
 11
259.814432
 21
240.015442
 31
0.0
  0
LINE
  5
B3
100
AcDbEntity
  8
LC-006-005-----0
370
    25
390
0
 62
     2
100
AcDbLine
 10
257.214432
 20
240.24387
 30
0.0
 11
259.814432
 21
242.84387
 31
0.0
  0
LINE
  5
B4
100
AcDbEntity
  8
LC-006-005-----0
370
    25
390
0
 62
     2
100
AcDbLine
 10
257.214432
 20
243.072297
 30
0.0
 11
259.814432
 21
245.672297
 31
0.0
  0
LINE
  5
B5
100
AcDbEntity
  8
LC-006-005-----0
370
    25
390
0
 62
     2
100
AcDbLine
 10
257.214432
 20
245.900724
 30
0.0
 11
259.814432
 21
248.500724
 31
0.0
  0
LINE
  5
B6
100
AcDbEntity
  8
LC-006-005-----0
370
    25
390
0
 62
     2
100
AcDbLine
 10
257.214432
 20
248.729151
 30
0.0
 11
259.814432
 21
251.329151
 31
0.0
  0
LINE
  5
B7
100
AcDbEntity
  8
LC-006-005-----0
370
    25
390
0
 62
     2
100
AcDbLine
 10
257.214432
 20
251.557578
 30
0.0
 11
259.814432
 21
254.157578
 31
0.0
  0
LINE
  5
B8
100
AcDbEntity
  8
LC-006-005-----0
370
    25
390
0
 62
     2
100
AcDbLine
 10
257.214432
 20
254.386005
 30
0.0
 11
259.814432
 21
256.986005
 31
0.0
  0
LINE
  5
B9
100
AcDbEntity
  8
LC-006-005-----0
370
    25
390
0
 62
     2
100
AcDbLine
 10
257.214432
 20
257.214432
 30
0.0
 11
259.814432
 21
259.814432
 31
0.0
  0
LINE
  5
BA
100
AcDbEntity
  8
LC-006-005-----0
370
    25
390
0
 62
     2
100
AcDbLine
 10
257.214432
 20
260.042859
 30
0.0
 11
259.814432
 21
262.642859
 31
0.0
  0
LINE
  5
BB
100
AcDbEntity
  8
LC-006-005-----0
370
    25
390
0
 62
     2
100
AcDbLine
 10
257.214432
 20
262.871287
 30
0.0
 11
259.814432
 21
265.471287
 31
0.0
  0
LINE
  5
BC
100
AcDbEntity
  8
LC-006-005-----0
370
    25
390
0
 62
     2
100
AcDbLine
 10
257.214432
 20
265.699714
 30
0.0
 11
259.814432
 21
268.299714
 31
0.0
  0
LINE
  5
BD
100
AcDbEntity
  8
LC-006-005-----0
370
    25
390
0
 62
     2
100
AcDbLine
 10
257.214432
 20
268.528141
 30
0.0
 11
259.814432
 21
271.128141
 31
0.0
  0
LINE
  5
BE
100
AcDbEntity
  8
LC-006-005-----0
370
    25
390
0
 62
     2
100
AcDbLine
 10
293.076136
 20
304.389845
 30
0.0
 11
294.814432
 21
306.128141
 31
0.0
  0
LINE
  5
BF
100
AcDbEntity
  8
LC-006-005-----0
370
    25
390
0
 62
     2
100
AcDbLine
 10
376.076131
 20
387.38984
 30
0.0
 11
377.895306
 21
389.209015
 31
0.0
  0
LINE
  5
C0
100
AcDbEntity
  8
LC-006-005-----0
370
    25
390
0
 62
     2
100
AcDbLine
 10
257.214432
 20
271.356568
 30
0.0
 11
259.814432
 21
273.956568
 31
0.0
  0
LINE
  5
C1
100
AcDbEntity
  8
LC-006-005-----0
370
    25
390
0
 62
     2
100
AcDbLine
 10
291.932527
 20
306.074663
 30
0.0
 11
294.814432
 21
308.956568
 31
0.0
  0
LINE
  5
C2
100
AcDbEntity
  8
LC-006-005-----0
370
    25
390
0
 62
     2
100
AcDbLine
 10
373.247704
 20
387.38984
 30
0.0
 11
376.247756
 21
390.389891
 31
0.0
  0
LINE
  5
C3
100
AcDbEntity
  8
LC-006-005-----0
370
    25
390
0
 62
     2
100
AcDbLine
 10
257.214432
 20
274.184995
 30
0.0
 11
259.814432
 21
276.784995
 31
0.0
  0
LINE
  5
C4
100
AcDbEntity
  8
LC-006-005-----0
370
    25
390
0
 62
     2
100
AcDbLine
 10
291.908113
 20
308.878676
 30
0.0
 11
294.814432
 21
311.784995
 31
0.0
  0
LINE
  5
C5
100
AcDbEntity
  8
LC-006-005-----0
370
    25
390
0
 62
     2
100
AcDbLine
 10
370.419277
 20
387.38984
 30
0.0
 11
373.419339
 21
390.389902
 31
0.0
  0
LINE
  5
C6
100
AcDbEntity
  8
LC-006-005-----0
370
    25
390
0
 62
     2
100
AcDbLine
 10
257.214432
 20
277.013422
 30
0.0
 11
259.814432
 21
279.613422
 31
0.0
  0
LINE
  5
C7
100
AcDbEntity
  8
LC-006-005-----0
370
    25
390
0
 62
     2
100
AcDbLine
 10
291.883698
 20
311.682688
 30
0.0
 11
294.814432
 21
314.613422
 31
0.0
  0
LINE
  5
C8
100
AcDbEntity
  8
LC-006-005-----0
370
    25
390
0
 62
     2
100
AcDbLine
 10
367.59085
 20
387.38984
 30
0.0
 11
370.590922
 21
390.389912
 31
0.0
  0
LINE
  5
C9
100
AcDbEntity
  8
LC-006-005-----0
370
    25
390
0
 62
     2
100
AcDbLine
 10
257.214432
 20
279.841849
 30
0.0
 11
259.814432
 21
282.441849
 31
0.0
  0
LINE
  5
CA
100
AcDbEntity
  8
LC-006-005-----0
370
    25
390
0
 62
     2
100
AcDbLine
 10
291.859283
 20
314.4867
 30
0.0
 11
294.814432
 21
317.441849
 31
0.0
  0
LINE
  5
CB
100
AcDbEntity
  8
LC-006-005-----0
370
    25
390
0
 62
     2
100
AcDbLine
 10
364.762423
 20
387.38984
 30
0.0
 11
367.762506
 21
390.389923
 31
0.0
  0
LINE
  5
CC
100
AcDbEntity
  8
LC-006-005-----0
370
    25
390
0
 62
     2
100
AcDbLine
 10
257.214432
 20
282.670276
 30
0.0
 11
259.814432
 21
285.270276
 31
0.0
  0
LINE
  5
CD
100
AcDbEntity
  8
LC-006-005-----0
370
    25
390
0
 62
     2
100
AcDbLine
 10
278.934001
 20
304.389845
 30
0.0
 11
281.214432
 21
306.670276
 31
0.0
  0
LINE
  5
CE
100
AcDbEntity
  8
LC-006-005-----0
370
    25
390
0
 62
     2
100
AcDbLine
 10
291.834869
 20
317.290713
 30
0.0
 11
294.814432
 21
320.270276
 31
0.0
  0
LINE
  5
CF
100
AcDbEntity
  8
LC-006-005-----0
370
    25
390
0
 62
     2
100
AcDbLine
 10
361.933996
 20
387.38984
 30
0.0
 11
364.934089
 21
390.389933
 31
0.0
  0
LINE
  5
D0
100
AcDbEntity
  8
LC-006-005-----0
370
    25
390
0
 62
     2
100
AcDbLine
 10
257.214432
 20
285.498703
 30
0.0
 11
259.814432
 21
288.098703
 31
0.0
  0
LINE
  5
D1
100
AcDbEntity
  8
LC-006-005-----0
370
    25
390
0
 62
     2
100
AcDbLine
 10
276.105574
 20
304.389845
 30
0.0
 11
281.214432
 21
309.498703
 31
0.0
  0
LINE
  5
D2
100
AcDbEntity
  8
LC-006-005-----0
370
    25
390
0
 62
     2
100
AcDbLine
 10
291.810454
 20
320.094725
 30
0.0
 11
294.814432
 21
323.098703
 31
0.0
  0
LINE
  5
D3
100
AcDbEntity
  8
LC-006-005-----0
370
    25
390
0
 62
     2
100
AcDbLine
 10
359.105569
 20
387.38984
 30
0.0
 11
362.105672
 21
390.389943
 31
0.0
  0
LINE
  5
D4
100
AcDbEntity
  8
LC-006-005-----0
370
    25
390
0
 62
     2
100
AcDbLine
 10
257.214432
 20
288.327131
 30
0.0
 11
259.814432
 21
290.927131
 31
0.0
  0
LINE
  5
D5
100
AcDbEntity
  8
LC-006-005-----0
370
    25
390
0
 62
     2
100
AcDbLine
 10
273.277147
 20
304.389845
 30
0.0
 11
276.278932
 21
307.391631
 31
0.0
  0
LINE
  5
D6
100
AcDbEntity
  8
LC-006-005-----0
370
    25
390
0
 62
     2
100
AcDbLine
 10
278.214432
 20
309.327131
 30
0.0
 11
281.214432
 21
312.327131
 31
0.0
  0
LINE
  5
D7
100
AcDbEntity
  8
LC-006-005-----0
370
    25
390
0
 62
     2
100
AcDbLine
 10
291.786039
 20
322.898738
 30
0.0
 11
294.814432
 21
325.927131
 31
0.0
  0
LINE
  5
D8
100
AcDbEntity
  8
LC-006-005-----0
370
    25
390
0
 62
     2
100
AcDbLine
 10
356.277142
 20
387.38984
 30
0.0
 11
359.277255
 21
390.389954
 31
0.0
  0
LINE
  5
D9
100
AcDbEntity
  8
LC-006-005-----0
370
    25
390
0
 62
     2
100
AcDbLine
 10
257.214432
 20
291.155558
 30
0.0
 11
259.814432
 21
293.755558
 31
0.0
  0
LINE
  5
DA
100
AcDbEntity
  8
LC-006-005-----0
370
    25
390
0
 62
     2
100
AcDbLine
 10
270.448719
 20
304.389845
 30
0.0
 11
273.450505
 21
307.391631
 31
0.0
  0
LINE
  5
DB
100
AcDbEntity
  8
LC-006-005-----0
370
    25
390
0
 62
     2
100
AcDbLine
 10
278.214432
 20
312.155558
 30
0.0
 11
281.214432
 21
315.155558
 31
0.0
  0
LINE
  5
DC
100
AcDbEntity
  8
LC-006-005-----0
370
    25
390
0
 62
     2
100
AcDbLine
 10
291.761624
 20
325.70275
 30
0.0
 11
294.814432
 21
328.755558
 31
0.0
  0
LINE
  5
DD
100
AcDbEntity
  8
LC-006-005-----0
370
    25
390
0
 62
     2
100
AcDbLine
 10
353.448714
 20
387.38984
 30
0.0
 11
356.448839
 21
390.389964
 31
0.0
  0
LINE
  5
DE
100
AcDbEntity
  8
LC-006-005-----0
370
    25
390
0
 62
     2
100
AcDbLine
 10
257.214432
 20
293.983985
 30
0.0
 11
259.814432
 21
296.583985
 31
0.0
  0
LINE
  5
DF
100
AcDbEntity
  8
LC-006-005-----0
370
    25
390
0
 62
     2
100
AcDbLine
 10
267.620292
 20
304.389845
 30
0.0
 11
270.622078
 21
307.391631
 31
0.0
  0
LINE
  5
E0
100
AcDbEntity
  8
LC-006-005-----0
370
    25
390
0
 62
     2
100
AcDbLine
 10
278.214432
 20
314.983985
 30
0.0
 11
281.214432
 21
317.983985
 31
0.0
  0
LINE
  5
E1
100
AcDbEntity
  8
LC-006-005-----0
370
    25
390
0
 62
     2
100
AcDbLine
 10
291.73721
 20
328.506762
 30
0.0
 11
294.814432
 21
331.583985
 31
0.0
  0
LINE
  5
E2
100
AcDbEntity
  8
LC-006-005-----0
370
    25
390
0
 62
     2
100
AcDbLine
 10
350.620287
 20
387.38984
 30
0.0
 11
353.620422
 21
390.389975
 31
0.0
  0
LINE
  5
E3
100
AcDbEntity
  8
LC-006-005-----0
370
    25
390
0
 62
     2
100
AcDbLine
 10
257.214432
 20
296.812412
 30
0.0
 11
259.814432
 21
299.412412
 31
0.0
  0
LINE
  5
E4
100
AcDbEntity
  8
LC-006-005-----0
370
    25
390
0
 62
     2
100
AcDbLine
 10
264.791865
 20
304.389845
 30
0.0
 11
267.793651
 21
307.391631
 31
0.0
  0
LINE
  5
E5
100
AcDbEntity
  8
LC-006-005-----0
370
    25
390
0
 62
     2
100
AcDbLine
 10
278.214432
 20
317.812412
 30
0.0
 11
281.214432
 21
320.812412
 31
0.0
  0
LINE
  5
E6
100
AcDbEntity
  8
LC-006-005-----0
370
    25
390
0
 62
     2
100
AcDbLine
 10
291.712795
 20
331.310775
 30
0.0
 11
294.814432
 21
334.412412
 31
0.0
  0
LINE
  5
E7
100
AcDbEntity
  8
LC-006-005-----0
370
    25
390
0
 62
     2
100
AcDbLine
 10
347.79186
 20
387.38984
 30
0.0
 11
350.792005
 21
390.389985
 31
0.0
  0
LINE
  5
E8
100
AcDbEntity
  8
LC-006-005-----0
370
    25
390
0
 62
     2
100
AcDbLine
 10
257.214432
 20
299.640839
 30
0.0
 11
259.814432
 21
302.240839
 31
0.0
  0
LINE
  5
E9
100
AcDbEntity
  8
LC-006-005-----0
370
    25
390
0
 62
     2
100
AcDbLine
 10
261.963438
 20
304.389845
 30
0.0
 11
264.965224
 21
307.391631
 31
0.0
  0
LINE
  5
EA
100
AcDbEntity
  8
LC-006-005-----0
370
    25
390
0
 62
     2
100
AcDbLine
 10
278.214432
 20
320.640839
 30
0.0
 11
281.214432
 21
323.640839
 31
0.0
  0
LINE
  5
EB
100
AcDbEntity
  8
LC-006-005-----0
370
    25
390
0
 62
     2
100
AcDbLine
 10
291.68838
 20
334.114787
 30
0.0
 11
294.814432
 21
337.240839
 31
0.0
  0
LINE
  5
EC
100
AcDbEntity
  8
LC-006-005-----0
370
    25
390
0
 62
     2
100
AcDbLine
 10
344.963433
 20
387.38984
 30
0.0
 11
347.963589
 21
390.389996
 31
0.0
  0
LINE
  5
ED
100
AcDbEntity
  8
LC-006-005-----0
370
    25
390
0
 62
     2
100
AcDbLine
 10
257.214432
 20
302.469266
 30
0.0
 11
262.136797
 21
307.391631
 31
0.0
  0
LINE
  5
EE
100
AcDbEntity
  8
LC-006-005-----0
370
    25
390
0
 62
     2
100
AcDbLine
 10
278.214432
 20
323.469266
 30
0.0
 11
281.214432
 21
326.469266
 31
0.0
  0
LINE
  5
EF
100
AcDbEntity
  8
LC-006-005-----0
370
    25
390
0
 62
     2
100
AcDbLine
 10
291.663966
 20
336.918799
 30
0.0
 11
294.814432
 21
340.069266
 31
0.0
  0
LINE
  5
F0
100
AcDbEntity
  8
LC-006-005-----0
370
    25
390
0
 62
     2
100
AcDbLine
 10
342.135006
 20
387.38984
 30
0.0
 11
345.135172
 21
390.390006
 31
0.0
  0
LINE
  5
F1
100
AcDbEntity
  8
LC-006-005-----0
370
    25
390
0
 62
     2
100
AcDbLine
 10
257.214432
 20
305.297693
 30
0.0
 11
259.30837
 21
307.391631
 31
0.0
  0
LINE
  5
F2
100
AcDbEntity
  8
LC-006-005-----0
370
    25
390
0
 62
     2
100
AcDbLine
 10
278.214432
 20
326.297693
 30
0.0
 11
281.214432
 21
329.297693
 31
0.0
  0
LINE
  5
F3
100
AcDbEntity
  8
LC-006-005-----0
370
    25
390
0
 62
     2
100
AcDbLine
 10
291.639551
 20
339.722812
 30
0.0
 11
294.814432
 21
342.897693
 31
0.0
  0
LINE
  5
F4
100
AcDbEntity
  8
LC-006-005-----0
370
    25
390
0
 62
     2
100
AcDbLine
 10
339.306579
 20
387.38984
 30
0.0
 11
342.306755
 21
390.390016
 31
0.0
  0
LINE
  5
F5
100
AcDbEntity
  8
LC-006-005-----0
370
    25
390
0
 62
     2
100
AcDbLine
 10
278.214432
 20
329.12612
 30
0.0
 11
281.214432
 21
332.12612
 31
0.0
  0
LINE
  5
F6
100
AcDbEntity
  8
LC-006-005-----0
370
    25
390
0
 62
     2
100
AcDbLine
 10
291.615136
 20
342.526824
 30
0.0
 11
294.814432
 21
345.72612
 31
0.0
  0
LINE
  5
F7
100
AcDbEntity
  8
LC-006-005-----0
370
    25
390
0
 62
     2
100
AcDbLine
 10
336.478152
 20
387.38984
 30
0.0
 11
339.478339
 21
390.390027
 31
0.0
  0
LINE
  5
F8
100
AcDbEntity
  8
LC-006-005-----0
370
    25
390
0
 62
     2
100
AcDbLine
 10
278.214432
 20
331.954548
 30
0.0
 11
281.214432
 21
334.954548
 31
0.0
  0
LINE
  5
F9
100
AcDbEntity
  8
LC-006-005-----0
370
    25
390
0
 62
     2
100
AcDbLine
 10
285.609866
 20
339.349981
 30
0.0
 11
286.787937
 21
340.528053
 31
0.0
  0
LINE
  5
FA
100
AcDbEntity
  8
LC-006-005-----0
370
    25
390
0
 62
     2
100
AcDbLine
 10
291.590721
 20
345.330837
 30
0.0
 11
294.814432
 21
348.554548
 31
0.0
  0
LINE
  5
FB
100
AcDbEntity
  8
LC-006-005-----0
370
    25
390
0
 62
     2
100
AcDbLine
 10
333.649725
 20
387.38984
 30
0.0
 11
336.649922
 21
390.390037
 31
0.0
  0
LINE
  5
FC
100
AcDbEntity
  8
LC-006-005-----0
370
    25
390
0
 62
     2
100
AcDbLine
 10
278.214432
 20
334.782975
 30
0.0
 11
281.214432
 21
337.782975
 31
0.0
  0
LINE
  5
FD
100
AcDbEntity
  8
LC-006-005-----0
370
    25
390
0
 62
     2
100
AcDbLine
 10
282.536194
 20
339.104736
 30
0.0
 11
287.033182
 21
343.601725
 31
0.0
  0
LINE
  5
FE
100
AcDbEntity
  8
LC-006-005-----0
370
    25
390
0
 62
     2
100
AcDbLine
 10
291.566307
 20
348.134849
 30
0.0
 11
294.814432
 21
351.382975
 31
0.0
  0
LINE
  5
FF
100
AcDbEntity
  8
LC-006-005-----0
370
    25
390
0
 62
     2
100
AcDbLine
 10
330.821297
 20
387.38984
 30
0.0
 11
333.821505
 21
390.390048
 31
0.0
  0
LINE
  5
100
100
AcDbEntity
  8
LC-006-005-----0
370
    25
390
0
 62
     2
100
AcDbLine
 10
278.214432
 20
337.611402
 30
0.0
 11
283.193504
 21
342.590474
 31
0.0
  0
LINE
  5
101
100
AcDbEntity
  8
LC-006-005-----0
370
    25
390
0
 62
     2
100
AcDbLine
 10
284.214432
 20
343.611402
 30
0.0
 11
287.033182
 21
346.430152
 31
0.0
  0
LINE
  5
102
100
AcDbEntity
  8
LC-006-005-----0
370
    25
390
0
 62
     2
100
AcDbLine
 10
291.541892
 20
350.938861
 30
0.0
 11
294.814432
 21
354.211402
 31
0.0
  0
LINE
  5
103
100
AcDbEntity
  8
LC-006-005-----0
370
    25
390
0
 62
     2
100
AcDbLine
 10
327.99287
 20
387.38984
 30
0.0
 11
330.993089
 21
390.390058
 31
0.0
  0
LINE
  5
104
100
AcDbEntity
  8
LC-006-005-----0
370
    25
390
0
 62
     2
100
AcDbLine
 10
278.214432
 20
340.439829
 30
0.0
 11
280.365077
 21
342.590474
 31
0.0
  0
LINE
  5
105
100
AcDbEntity
  8
LC-006-005-----0
370
    25
390
0
 62
     2
100
AcDbLine
 10
284.214432
 20
346.439829
 30
0.0
 11
287.033182
 21
349.258579
 31
0.0
  0
LINE
  5
106
100
AcDbEntity
  8
LC-006-005-----0
370
    25
390
0
 62
     2
100
AcDbLine
 10
290.77553
 20
353.000926
 30
0.0
 11
294.814432
 21
357.039829
 31
0.0
  0
LINE
  5
107
100
AcDbEntity
  8
LC-006-005-----0
370
    25
390
0
 62
     2
100
AcDbLine
 10
325.164443
 20
387.38984
 30
0.0
 11
328.164672
 21
390.390069
 31
0.0
  0
LINE
  5
108
100
AcDbEntity
  8
LC-006-005-----0
370
    25
390
0
 62
     2
100
AcDbLine
 10
284.214432
 20
349.268256
 30
0.0
 11
287.035173
 21
352.088996
 31
0.0
  0
LINE
  5
109
100
AcDbEntity
  8
LC-006-005-----0
370
    25
390
0
 62
     2
100
AcDbLine
 10
287.971708
 20
353.025532
 30
0.0
 11
290.537961
 21
355.591785
 31
0.0
  0
LINE
  5
10A
100
AcDbEntity
  8
LC-006-005-----0
370
    25
390
0
 62
     2
100
AcDbLine
 10
291.221734
 20
356.275558
 30
0.0
 11
294.814432
 21
359.868256
 31
0.0
  0
LINE
  5
10B
100
AcDbEntity
  8
LC-006-005-----0
370
    25
390
0
 62
     2
100
AcDbLine
 10
322.336016
 20
387.38984
 30
0.0
 11
325.336255
 21
390.390079
 31
0.0
  0
LINE
  5
10C
100
AcDbEntity
  8
LC-006-005-----0
370
    25
390
0
 62
     2
100
AcDbLine
 10
284.214432
 20
352.096683
 30
0.0
 11
287.709534
 21
355.591785
 31
0.0
  0
LINE
  5
10D
100
AcDbEntity
  8
LC-006-005-----0
370
    25
390
0
 62
     2
100
AcDbLine
 10
291.221734
 20
359.103985
 30
0.0
 11
294.814432
 21
362.696683
 31
0.0
  0
LINE
  5
10E
100
AcDbEntity
  8
LC-006-005-----0
370
    25
390
0
 62
     2
100
AcDbLine
 10
319.507589
 20
387.38984
 30
0.0
 11
322.507838
 21
390.390089
 31
0.0
  0
LINE
  5
10F
100
AcDbEntity
  8
LC-006-005-----0
370
    25
390
0
 62
     2
100
AcDbLine
 10
284.214432
 20
354.92511
 30
0.0
 11
284.881107
 21
355.591785
 31
0.0
  0
LINE
  5
110
100
AcDbEntity
  8
LC-006-005-----0
370
    25
390
0
 62
     2
100
AcDbLine
 10
290.37142
 20
361.082099
 30
0.0
 11
294.814432
 21
365.52511
 31
0.0
  0
LINE
  5
111
100
AcDbEntity
  8
LC-006-005-----0
370
    25
390
0
 62
     2
100
AcDbLine
 10
316.679162
 20
387.38984
 30
0.0
 11
319.679422
 21
390.3901
 31
0.0
  0
LINE
  5
112
100
AcDbEntity
  8
LC-006-005-----0
370
    25
390
0
 62
     2
100
AcDbLine
 10
290.221734
 20
363.76084
 30
0.0
 11
294.814432
 21
368.353537
 31
0.0
  0
LINE
  5
113
100
AcDbEntity
  8
LC-006-005-----0
370
    25
390
0
 62
     2
100
AcDbLine
 10
313.850735
 20
387.38984
 30
0.0
 11
316.851005
 21
390.39011
 31
0.0
  0
LINE
  5
114
100
AcDbEntity
  8
LC-006-005-----0
370
    25
390
0
 62
     2
100
AcDbLine
 10
289.540491
 20
365.908024
 30
0.0
 11
296.214429
 21
372.581962
 31
0.0
  0
LINE
  5
115
100
AcDbEntity
  8
LC-006-005-----0
370
    25
390
0
 62
     2
100
AcDbLine
 10
311.022308
 20
387.38984
 30
0.0
 11
314.022588
 21
390.390121
 31
0.0
  0
LINE
  5
116
100
AcDbEntity
  8
LC-006-005-----0
370
    25
390
0
 62
     2
100
AcDbLine
 10
292.054827
 20
371.250787
 30
0.0
 11
296.214163
 21
375.410123
 31
0.0
  0
LINE
  5
117
100
AcDbEntity
  8
LC-006-005-----0
370
    25
390
0
 62
     2
100
AcDbLine
 10
308.19388
 20
387.38984
 30
0.0
 11
311.194172
 21
390.390131
 31
0.0
  0
LINE
  5
118
100
AcDbEntity
  8
LC-006-005-----0
370
    25
390
0
 62
     2
100
AcDbLine
 10
293.464156
 20
375.488543
 30
0.0
 11
296.213897
 21
378.238284
 31
0.0
  0
LINE
  5
119
100
AcDbEntity
  8
LC-006-005-----0
370
    25
390
0
 62
     2
100
AcDbLine
 10
305.365453
 20
387.38984
 30
0.0
 11
308.365755
 21
390.390142
 31
0.0
  0
LINE
  5
11A
100
AcDbEntity
  8
LC-006-005-----0
370
    25
390
0
 62
     2
100
AcDbLine
 10
293.46389
 20
378.316704
 30
0.0
 11
296.213631
 21
381.066445
 31
0.0
  0
LINE
  5
11B
100
AcDbEntity
  8
LC-006-005-----0
370
    25
390
0
 62
     2
100
AcDbLine
 10
302.537026
 20
387.38984
 30
0.0
 11
305.537338
 21
390.390152
 31
0.0
  0
LINE
  5
11C
100
AcDbEntity
  8
LC-006-005-----0
370
    25
390
0
 62
     2
100
AcDbLine
 10
293.463624
 20
381.144865
 30
0.0
 11
296.213365
 21
383.894606
 31
0.0
  0
LINE
  5
11D
100
AcDbEntity
  8
LC-006-005-----0
370
    25
390
0
 62
     2
100
AcDbLine
 10
299.708599
 20
387.38984
 30
0.0
 11
302.708922
 21
390.390162
 31
0.0
  0
LINE
  5
11E
100
AcDbEntity
  8
LC-006-005-----0
370
    25
390
0
 62
     2
100
AcDbLine
 10
293.463358
 20
383.973026
 30
0.0
 11
299.880505
 21
390.390173
 31
0.0
  0
LINE
  5
11F
100
AcDbEntity
  8
LC-006-005-----0
370
    25
390
0
 62
     2
100
AcDbLine
 10
293.463091
 20
386.801186
 30
0.0
 11
297.052088
 21
390.390183
 31
0.0
  0
LINE
  5
120
100
AcDbEntity
  8
LC-006-005-----0
370
    25
390
0
 62
     2
100
AcDbLine
 10
293.50251
 20
389.669032
 30
0.0
 11
294.184008
 21
390.350531
 31
0.0
  0
ENDBLK
  5
121
100
AcDbEntity
  8
0
390
0
100
AcDbBlockEnd
  0
BLOCK
  5
124
100
AcDbEntity
  8
0
390
0
100
AcDbBlockBegin
  2
*X2
 70
    65
 10
0.0
 20
0.0
 30
0.0
  3
*X2
  1

  0
LINE
  5
125
100
AcDbEntity
  8
LC-006-005-----0
370
    25
390
0
 62
     2
100
AcDbLine
 10
170.435255
 20
229.832225
 30
0.0
 11
172.214432
 21
231.611402
 31
0.0
  0
LINE
  5
126
100
AcDbEntity
  8
LC-006-005-----0
370
    25
390
0
 62
     2
100
AcDbLine
 10
169.837539
 20
232.062935
 30
0.0
 11
172.214432
 21
234.439829
 31
0.0
  0
LINE
  5
127
100
AcDbEntity
  8
LC-006-005-----0
370
    25
390
0
 62
     2
100
AcDbLine
 10
169.614432
 20
234.668256
 30
0.0
 11
172.214432
 21
237.268256
 31
0.0
  0
LINE
  5
128
100
AcDbEntity
  8
LC-006-005-----0
370
    25
390
0
 62
     2
100
AcDbLine
 10
169.614432
 20
237.496683
 30
0.0
 11
172.214432
 21
240.096683
 31
0.0
  0
LINE
  5
129
100
AcDbEntity
  8
LC-006-005-----0
370
    25
390
0
 62
     2
100
AcDbLine
 10
169.614432
 20
240.32511
 30
0.0
 11
172.214432
 21
242.92511
 31
0.0
  0
LINE
  5
12A
100
AcDbEntity
  8
LC-006-005-----0
370
    25
390
0
 62
     2
100
AcDbLine
 10
169.614432
 20
243.153537
 30
0.0
 11
172.214432
 21
245.753537
 31
0.0
  0
LINE
  5
12B
100
AcDbEntity
  8
LC-006-005-----0
370
    25
390
0
 62
     2
100
AcDbLine
 10
169.614432
 20
245.981965
 30
0.0
 11
172.214432
 21
248.581965
 31
0.0
  0
LINE
  5
12C
100
AcDbEntity
  8
LC-006-005-----0
370
    25
390
0
 62
     2
100
AcDbLine
 10
169.614432
 20
248.810392
 30
0.0
 11
172.214432
 21
251.410392
 31
0.0
  0
LINE
  5
12D
100
AcDbEntity
  8
LC-006-005-----0
370
    25
390
0
 62
     2
100
AcDbLine
 10
169.614432
 20
251.638819
 30
0.0
 11
172.214432
 21
254.238819
 31
0.0
  0
LINE
  5
12E
100
AcDbEntity
  8
LC-006-005-----0
370
    25
390
0
 62
     2
100
AcDbLine
 10
169.614432
 20
254.467246
 30
0.0
 11
172.214432
 21
257.067246
 31
0.0
  0
LINE
  5
12F
100
AcDbEntity
  8
LC-006-005-----0
370
    25
390
0
 62
     2
100
AcDbLine
 10
169.614432
 20
257.295673
 30
0.0
 11
172.214432
 21
259.895673
 31
0.0
  0
LINE
  5
130
100
AcDbEntity
  8
LC-006-005-----0
370
    25
390
0
 62
     2
100
AcDbLine
 10
169.614432
 20
260.1241
 30
0.0
 11
172.214432
 21
262.7241
 31
0.0
  0
LINE
  5
131
100
AcDbEntity
  8
LC-006-005-----0
370
    25
390
0
 62
     2
100
AcDbLine
 10
169.614432
 20
262.952527
 30
0.0
 11
172.214432
 21
265.552527
 31
0.0
  0
LINE
  5
132
100
AcDbEntity
  8
LC-006-005-----0
370
    25
390
0
 62
     2
100
AcDbLine
 10
169.614432
 20
265.780954
 30
0.0
 11
172.214432
 21
268.380954
 31
0.0
  0
LINE
  5
133
100
AcDbEntity
  8
LC-006-005-----0
370
    25
390
0
 62
     2
100
AcDbLine
 10
169.614432
 20
268.609382
 30
0.0
 11
172.214432
 21
271.209382
 31
0.0
  0
LINE
  5
134
100
AcDbEntity
  8
LC-006-005-----0
370
    25
390
0
 62
     2
100
AcDbLine
 10
169.614432
 20
271.437809
 30
0.0
 11
172.214432
 21
274.037809
 31
0.0
  0
LINE
  5
135
100
AcDbEntity
  8
LC-006-005-----0
370
    25
390
0
 62
     2
100
AcDbLine
 10
169.614432
 20
274.266236
 30
0.0
 11
172.214432
 21
276.866236
 31
0.0
  0
LINE
  5
136
100
AcDbEntity
  8
LC-006-005-----0
370
    25
390
0
 62
     2
100
AcDbLine
 10
169.614432
 20
277.094663
 30
0.0
 11
172.214432
 21
279.694663
 31
0.0
  0
LINE
  5
137
100
AcDbEntity
  8
LC-006-005-----0
370
    25
390
0
 62
     2
100
AcDbLine
 10
169.614432
 20
279.92309
 30
0.0
 11
172.214432
 21
282.52309
 31
0.0
  0
LINE
  5
138
100
AcDbEntity
  8
LC-006-005-----0
370
    25
390
0
 62
     2
100
AcDbLine
 10
169.614432
 20
282.751517
 30
0.0
 11
172.214432
 21
285.351517
 31
0.0
  0
LINE
  5
139
100
AcDbEntity
  8
LC-006-005-----0
370
    25
390
0
 62
     2
100
AcDbLine
 10
169.614432
 20
285.579944
 30
0.0
 11
172.214432
 21
288.179944
 31
0.0
  0
LINE
  5
13A
100
AcDbEntity
  8
LC-006-005-----0
370
    25
390
0
 62
     2
100
AcDbLine
 10
169.614432
 20
288.408371
 30
0.0
 11
172.214432
 21
291.008371
 31
0.0
  0
LINE
  5
13B
100
AcDbEntity
  8
LC-006-005-----0
370
    25
390
0
 62
     2
100
AcDbLine
 10
169.614432
 20
291.236799
 30
0.0
 11
172.214432
 21
293.836799
 31
0.0
  0
LINE
  5
13C
100
AcDbEntity
  8
LC-006-005-----0
370
    25
390
0
 62
     2
100
AcDbLine
 10
169.614432
 20
294.065226
 30
0.0
 11
172.214432
 21
296.665226
 31
0.0
  0
LINE
  5
13D
100
AcDbEntity
  8
LC-006-005-----0
370
    25
390
0
 62
     2
100
AcDbLine
 10
169.614432
 20
296.893653
 30
0.0
 11
172.214432
 21
299.493653
 31
0.0
  0
LINE
  5
13E
100
AcDbEntity
  8
LC-006-005-----0
370
    25
390
0
 62
     2
100
AcDbLine
 10
169.614432
 20
299.72208
 30
0.0
 11
172.214432
 21
302.32208
 31
0.0
  0
LINE
  5
13F
100
AcDbEntity
  8
LC-006-005-----0
370
    25
390
0
 62
     2
100
AcDbLine
 10
169.614432
 20
302.550507
 30
0.0
 11
172.214432
 21
305.150507
 31
0.0
  0
LINE
  5
140
100
AcDbEntity
  8
LC-006-005-----0
370
    25
390
0
 62
     2
100
AcDbLine
 10
168.516846
 20
304.281348
 30
0.0
 11
171.627129
 21
307.391631
 31
0.0
  0
LINE
  5
141
100
AcDbEntity
  8
LC-006-005-----0
370
    25
390
0
 62
     2
100
AcDbLine
 10
165.796916
 20
304.389845
 30
0.0
 11
168.798702
 21
307.391631
 31
0.0
  0
LINE
  5
142
100
AcDbEntity
  8
LC-006-005-----0
370
    25
390
0
 62
     2
100
AcDbLine
 10
162.968489
 20
304.389845
 30
0.0
 11
165.970274
 21
307.391631
 31
0.0
  0
LINE
  5
143
100
AcDbEntity
  8
LC-006-005-----0
370
    25
390
0
 62
     2
100
AcDbLine
 10
160.140062
 20
304.389845
 30
0.0
 11
163.141847
 21
307.391631
 31
0.0
  0
LINE
  5
144
100
AcDbEntity
  8
LC-006-005-----0
370
    25
390
0
 62
     2
100
AcDbLine
 10
157.311634
 20
304.389845
 30
0.0
 11
160.31342
 21
307.391631
 31
0.0
  0
LINE
  5
145
100
AcDbEntity
  8
LC-006-005-----0
370
    25
390
0
 62
     2
100
AcDbLine
 10
154.483207
 20
304.389845
 30
0.0
 11
157.484993
 21
307.391631
 31
0.0
  0
LINE
  5
146
100
AcDbEntity
  8
LC-006-005-----0
370
    25
390
0
 62
     2
100
AcDbLine
 10
151.65478
 20
304.389845
 30
0.0
 11
154.656566
 21
307.391631
 31
0.0
  0
LINE
  5
147
100
AcDbEntity
  8
LC-006-005-----0
370
    25
390
0
 62
     2
100
AcDbLine
 10
148.826353
 20
304.389845
 30
0.0
 11
151.828139
 21
307.391631
 31
0.0
  0
LINE
  5
148
100
AcDbEntity
  8
LC-006-005-----0
370
    25
390
0
 62
     2
100
AcDbLine
 10
148.214432
 20
306.606351
 30
0.0
 11
151.209432
 21
309.601351
 31
0.0
  0
LINE
  5
149
100
AcDbEntity
  8
LC-006-005-----0
370
    25
390
0
 62
     2
100
AcDbLine
 10
148.214432
 20
309.434778
 30
0.0
 11
151.209432
 21
312.429778
 31
0.0
  0
LINE
  5
14A
100
AcDbEntity
  8
LC-006-005-----0
370
    25
390
0
 62
     2
100
AcDbLine
 10
148.214432
 20
312.263205
 30
0.0
 11
151.209432
 21
315.258205
 31
0.0
  0
LINE
  5
14B
100
AcDbEntity
  8
LC-006-005-----0
370
    25
390
0
 62
     2
100
AcDbLine
 10
148.214432
 20
315.091633
 30
0.0
 11
151.209432
 21
318.086633
 31
0.0
  0
LINE
  5
14C
100
AcDbEntity
  8
LC-006-005-----0
370
    25
390
0
 62
     2
100
AcDbLine
 10
134.684217
 20
304.389845
 30
0.0
 11
137.506239
 21
307.211866
 31
0.0
  0
LINE
  5
14D
100
AcDbEntity
  8
LC-006-005-----0
370
    25
390
0
 62
     2
100
AcDbLine
 10
148.214432
 20
317.92006
 30
0.0
 11
151.209432
 21
320.91506
 31
0.0
  0
LINE
  5
14E
100
AcDbEntity
  8
LC-006-005-----0
370
    25
390
0
 62
     2
100
AcDbLine
 10
134.614432
 20
307.148487
 30
0.0
 11
137.531082
 21
310.065137
 31
0.0
  0
LINE
  5
14F
100
AcDbEntity
  8
LC-006-005-----0
370
    25
390
0
 62
     2
100
AcDbLine
 10
148.214432
 20
320.748487
 30
0.0
 11
151.209432
 21
323.743487
 31
0.0
  0
LINE
  5
150
100
AcDbEntity
  8
LC-006-005-----0
370
    25
390
0
 62
     2
100
AcDbLine
 10
134.614432
 20
309.976914
 30
0.0
 11
137.555926
 21
312.918408
 31
0.0
  0
LINE
  5
151
100
AcDbEntity
  8
LC-006-005-----0
370
    25
390
0
 62
     2
100
AcDbLine
 10
148.214432
 20
323.576914
 30
0.0
 11
151.209432
 21
326.571914
 31
0.0
  0
LINE
  5
152
100
AcDbEntity
  8
LC-006-005-----0
370
    25
390
0
 62
     2
100
AcDbLine
 10
134.614432
 20
312.805341
 30
0.0
 11
137.58077
 21
315.771678
 31
0.0
  0
LINE
  5
153
100
AcDbEntity
  8
LC-006-005-----0
370
    25
390
0
 62
     2
100
AcDbLine
 10
148.214432
 20
326.405341
 30
0.0
 11
151.209432
 21
329.400341
 31
0.0
  0
LINE
  5
154
100
AcDbEntity
  8
LC-006-005-----0
370
    25
390
0
 62
     2
100
AcDbLine
 10
134.614432
 20
315.633768
 30
0.0
 11
137.605613
 21
318.624949
 31
0.0
  0
LINE
  5
155
100
AcDbEntity
  8
LC-006-005-----0
370
    25
390
0
 62
     2
100
AcDbLine
 10
148.214432
 20
329.233768
 30
0.0
 11
151.209432
 21
332.228768
 31
0.0
  0
LINE
  5
156
100
AcDbEntity
  8
LC-006-005-----0
370
    25
390
0
 62
     2
100
AcDbLine
 10
134.614432
 20
318.462195
 30
0.0
 11
137.630457
 21
321.47822
 31
0.0
  0
LINE
  5
157
100
AcDbEntity
  8
LC-006-005-----0
370
    25
390
0
 62
     2
100
AcDbLine
 10
148.214432
 20
332.062195
 30
0.0
 11
151.209432
 21
335.057195
 31
0.0
  0
LINE
  5
158
100
AcDbEntity
  8
LC-006-005-----0
370
    25
390
0
 62
     2
100
AcDbLine
 10
134.614432
 20
321.290622
 30
0.0
 11
137.6553
 21
324.331491
 31
0.0
  0
LINE
  5
159
100
AcDbEntity
  8
LC-006-005-----0
370
    25
390
0
 62
     2
100
AcDbLine
 10
148.214432
 20
334.890622
 30
0.0
 11
151.209432
 21
337.885622
 31
0.0
  0
LINE
  5
15A
100
AcDbEntity
  8
LC-006-005-----0
370
    25
390
0
 62
     2
100
AcDbLine
 10
134.614432
 20
324.11905
 30
0.0
 11
137.680144
 21
327.184761
 31
0.0
  0
LINE
  5
15B
100
AcDbEntity
  8
LC-006-005-----0
370
    25
390
0
 62
     2
100
AcDbLine
 10
148.214432
 20
337.71905
 30
0.0
 11
151.209432
 21
340.71405
 31
0.0
  0
LINE
  5
15C
100
AcDbEntity
  8
LC-006-005-----0
370
    25
390
0
 62
     2
100
AcDbLine
 10
134.614432
 20
326.947477
 30
0.0
 11
137.704988
 21
330.038032
 31
0.0
  0
LINE
  5
15D
100
AcDbEntity
  8
LC-006-005-----0
370
    25
390
0
 62
     2
100
AcDbLine
 10
146.771692
 20
339.104736
 30
0.0
 11
150.256256
 21
342.589301
 31
0.0
  0
LINE
  5
15E
100
AcDbEntity
  8
LC-006-005-----0
370
    25
390
0
 62
     2
100
AcDbLine
 10
134.614432
 20
329.775904
 30
0.0
 11
137.729831
 21
332.891303
 31
0.0
  0
LINE
  5
15F
100
AcDbEntity
  8
LC-006-005-----0
370
    25
390
0
 62
     2
100
AcDbLine
 10
144.080932
 20
339.242404
 30
0.0
 11
147.429002
 21
342.590474
 31
0.0
  0
LINE
  5
160
100
AcDbEntity
  8
LC-006-005-----0
370
    25
390
0
 62
     2
100
AcDbLine
 10
134.614432
 20
332.604331
 30
0.0
 11
137.754675
 21
335.744574
 31
0.0
  0
LINE
  5
161
100
AcDbEntity
  8
LC-006-005-----0
370
    25
390
0
 62
     2
100
AcDbLine
 10
142.608566
 20
340.598465
 30
0.0
 11
145.273086
 21
343.262985
 31
0.0
  0
LINE
  5
162
100
AcDbEntity
  8
LC-006-005-----0
370
    25
390
0
 62
     2
100
AcDbLine
 10
134.614432
 20
335.432758
 30
0.0
 11
137.779519
 21
338.597844
 31
0.0
  0
LINE
  5
163
100
AcDbEntity
  8
LC-006-005-----0
370
    25
390
0
 62
     2
100
AcDbLine
 10
142.395682
 20
343.214008
 30
0.0
 11
145.217468
 21
346.035794
 31
0.0
  0
LINE
  5
164
100
AcDbEntity
  8
LC-006-005-----0
370
    25
390
0
 62
     2
100
AcDbLine
 10
134.614432
 20
338.261185
 30
0.0
 11
137.804362
 21
341.451115
 31
0.0
  0
LINE
  5
165
100
AcDbEntity
  8
LC-006-005-----0
370
    25
390
0
 62
     2
100
AcDbLine
 10
142.395682
 20
346.042435
 30
0.0
 11
145.217468
 21
348.864221
 31
0.0
  0
LINE
  5
166
100
AcDbEntity
  8
LC-006-005-----0
370
    25
390
0
 62
     2
100
AcDbLine
 10
134.614432
 20
341.089612
 30
0.0
 11
137.829206
 21
344.304386
 31
0.0
  0
LINE
  5
167
100
AcDbEntity
  8
LC-006-005-----0
370
    25
390
0
 62
     2
100
AcDbLine
 10
142.395682
 20
348.870862
 30
0.0
 11
145.217468
 21
351.692648
 31
0.0
  0
LINE
  5
168
100
AcDbEntity
  8
LC-006-005-----0
370
    25
390
0
 62
     2
100
AcDbLine
 10
134.614432
 20
343.918039
 30
0.0
 11
137.854049
 21
347.157657
 31
0.0
  0
LINE
  5
169
100
AcDbEntity
  8
LC-006-005-----0
370
    25
390
0
 62
     2
100
AcDbLine
 10
142.395682
 20
351.699289
 30
0.0
 11
145.217468
 21
354.521075
 31
0.0
  0
LINE
  5
16A
100
AcDbEntity
  8
LC-006-005-----0
370
    25
390
0
 62
     2
100
AcDbLine
 10
134.614432
 20
346.746467
 30
0.0
 11
137.878893
 21
350.010927
 31
0.0
  0
LINE
  5
16B
100
AcDbEntity
  8
LC-006-005-----0
370
    25
390
0
 62
     2
100
AcDbLine
 10
140.895488
 20
353.027523
 30
0.0
 11
143.45975
 21
355.591785
 31
0.0
  0
LINE
  5
16C
100
AcDbEntity
  8
LC-006-005-----0
370
    25
390
0
 62
     2
100
AcDbLine
 10
134.614432
 20
349.574894
 30
0.0
 11
140.631323
 21
355.591785
 31
0.0
  0
LINE
  5
16D
100
AcDbEntity
  8
LC-006-005-----0
370
    25
390
0
 62
     2
100
AcDbLine
 10
134.614432
 20
352.403321
 30
0.0
 11
138.20713
 21
355.996019
 31
0.0
  0
LINE
  5
16E
100
AcDbEntity
  8
LC-006-005-----0
370
    25
390
0
 62
     2
100
AcDbLine
 10
134.614432
 20
355.231748
 30
0.0
 11
138.20713
 21
358.824446
 31
0.0
  0
LINE
  5
16F
100
AcDbEntity
  8
LC-006-005-----0
370
    25
390
0
 62
     2
100
AcDbLine
 10
134.614432
 20
358.060175
 30
0.0
 11
139.20713
 21
362.652873
 31
0.0
  0
LINE
  5
170
100
AcDbEntity
  8
LC-006-005-----0
370
    25
390
0
 62
     2
100
AcDbLine
 10
134.614432
 20
360.888602
 30
0.0
 11
139.964432
 21
366.238602
 31
0.0
  0
LINE
  5
171
100
AcDbEntity
  8
LC-006-005-----0
370
    25
390
0
 62
     2
100
AcDbLine
 10
134.614432
 20
363.717029
 30
0.0
 11
139.121498
 21
368.224095
 31
0.0
  0
LINE
  5
172
100
AcDbEntity
  8
LC-006-005-----0
370
    25
390
0
 62
     2
100
AcDbLine
 10
134.614432
 20
366.545456
 30
0.0
 11
138.086222
 21
370.017246
 31
0.0
  0
LINE
  5
173
100
AcDbEntity
  8
LC-006-005-----0
370
    25
390
0
 62
     2
100
AcDbLine
 10
134.614432
 20
369.373884
 30
0.0
 11
137.050946
 21
371.810397
 31
0.0
  0
LINE
  5
174
100
AcDbEntity
  8
LC-006-005-----0
370
    25
390
0
 62
     2
100
AcDbLine
 10
133.854813
 20
371.442691
 30
0.0
 11
136.01567
 21
373.603548
 31
0.0
  0
LINE
  5
175
100
AcDbEntity
  8
LC-006-005-----0
370
    25
390
0
 62
     2
100
AcDbLine
 10
133.214534
 20
373.630839
 30
0.0
 11
135.964793
 21
376.381098
 31
0.0
  0
LINE
  5
176
100
AcDbEntity
  8
LC-006-005-----0
370
    25
390
0
 62
     2
100
AcDbLine
 10
133.2148
 20
376.459533
 30
0.0
 11
135.965059
 21
379.209792
 31
0.0
  0
LINE
  5
177
100
AcDbEntity
  8
LC-006-005-----0
370
    25
390
0
 62
     2
100
AcDbLine
 10
133.215066
 20
379.288226
 30
0.0
 11
135.965325
 21
382.038485
 31
0.0
  0
LINE
  5
178
100
AcDbEntity
  8
LC-006-005-----0
370
    25
390
0
 62
     2
100
AcDbLine
 10
133.215332
 20
382.116919
 30
0.0
 11
135.965591
 21
384.867178
 31
0.0
  0
LINE
  5
179
100
AcDbEntity
  8
LC-006-005-----0
370
    25
390
0
 62
     2
100
AcDbLine
 10
133.215599
 20
384.945613
 30
0.0
 11
135.965857
 21
387.695871
 31
0.0
  0
LINE
  5
17A
100
AcDbEntity
  8
LC-006-005-----0
370
    25
390
0
 62
     2
100
AcDbLine
 10
132.531627
 20
387.090069
 30
0.0
 11
135.602797
 21
390.161238
 31
0.0
  0
LINE
  5
17B
100
AcDbEntity
  8
LC-006-005-----0
370
    25
390
0
 62
     2
100
AcDbLine
 10
130.002972
 20
387.38984
 30
0.0
 11
133.003317
 21
390.390186
 31
0.0
  0
LINE
  5
17C
100
AcDbEntity
  8
LC-006-005-----0
370
    25
390
0
 62
     2
100
AcDbLine
 10
127.174544
 20
387.38984
 30
0.0
 11
130.17488
 21
390.390175
 31
0.0
  0
LINE
  5
17D
100
AcDbEntity
  8
LC-006-005-----0
370
    25
390
0
 62
     2
100
AcDbLine
 10
124.346117
 20
387.38984
 30
0.0
 11
127.346442
 21
390.390165
 31
0.0
  0
LINE
  5
17E
100
AcDbEntity
  8
LC-006-005-----0
370
    25
390
0
 62
     2
100
AcDbLine
 10
121.51769
 20
387.38984
 30
0.0
 11
124.518005
 21
390.390154
 31
0.0
  0
LINE
  5
17F
100
AcDbEntity
  8
LC-006-005-----0
370
    25
390
0
 62
     2
100
AcDbLine
 10
118.689263
 20
387.38984
 30
0.0
 11
121.689567
 21
390.390144
 31
0.0
  0
LINE
  5
180
100
AcDbEntity
  8
LC-006-005-----0
370
    25
390
0
 62
     2
100
AcDbLine
 10
115.860836
 20
387.38984
 30
0.0
 11
118.86113
 21
390.390134
 31
0.0
  0
LINE
  5
181
100
AcDbEntity
  8
LC-006-005-----0
370
    25
390
0
 62
     2
100
AcDbLine
 10
113.032409
 20
387.38984
 30
0.0
 11
116.032692
 21
390.390123
 31
0.0
  0
LINE
  5
182
100
AcDbEntity
  8
LC-006-005-----0
370
    25
390
0
 62
     2
100
AcDbLine
 10
110.203982
 20
387.38984
 30
0.0
 11
113.204254
 21
390.390113
 31
0.0
  0
LINE
  5
183
100
AcDbEntity
  8
LC-006-005-----0
370
    25
390
0
 62
     2
100
AcDbLine
 10
107.375555
 20
387.38984
 30
0.0
 11
110.375817
 21
390.390102
 31
0.0
  0
LINE
  5
184
100
AcDbEntity
  8
LC-006-005-----0
370
    25
390
0
 62
     2
100
AcDbLine
 10
104.547127
 20
387.38984
 30
0.0
 11
107.547379
 21
390.390092
 31
0.0
  0
LINE
  5
185
100
AcDbEntity
  8
LC-006-005-----0
370
    25
390
0
 62
     2
100
AcDbLine
 10
101.7187
 20
387.38984
 30
0.0
 11
104.718942
 21
390.390081
 31
0.0
  0
LINE
  5
186
100
AcDbEntity
  8
LC-006-005-----0
370
    25
390
0
 62
     2
100
AcDbLine
 10
98.890273
 20
387.38984
 30
0.0
 11
101.890504
 21
390.390071
 31
0.0
  0
LINE
  5
187
100
AcDbEntity
  8
LC-006-005-----0
370
    25
390
0
 62
     2
100
AcDbLine
 10
96.061846
 20
387.38984
 30
0.0
 11
99.062067
 21
390.39006
 31
0.0
  0
LINE
  5
188
100
AcDbEntity
  8
LC-006-005-----0
370
    25
390
0
 62
     2
100
AcDbLine
 10
93.233419
 20
387.38984
 30
0.0
 11
96.233629
 21
390.39005
 31
0.0
  0
LINE
  5
189
100
AcDbEntity
  8
LC-006-005-----0
370
    25
390
0
 62
     2
100
AcDbLine
 10
90.404992
 20
387.38984
 30
0.0
 11
93.405192
 21
390.39004
 31
0.0
  0
LINE
  5
18A
100
AcDbEntity
  8
LC-006-005-----0
370
    25
390
0
 62
     2
100
AcDbLine
 10
87.576565
 20
387.38984
 30
0.0
 11
90.576754
 21
390.390029
 31
0.0
  0
LINE
  5
18B
100
AcDbEntity
  8
LC-006-005-----0
370
    25
390
0
 62
     2
100
AcDbLine
 10
84.748138
 20
387.38984
 30
0.0
 11
87.748316
 21
390.390019
 31
0.0
  0
LINE
  5
18C
100
AcDbEntity
  8
LC-006-005-----0
370
    25
390
0
 62
     2
100
AcDbLine
 10
81.91971
 20
387.38984
 30
0.0
 11
84.919879
 21
390.390008
 31
0.0
  0
LINE
  5
18D
100
AcDbEntity
  8
LC-006-005-----0
370
    25
390
0
 62
     2
100
AcDbLine
 10
79.091283
 20
387.38984
 30
0.0
 11
82.091441
 21
390.389998
 31
0.0
  0
LINE
  5
18E
100
AcDbEntity
  8
LC-006-005-----0
370
    25
390
0
 62
     2
100
AcDbLine
 10
76.262856
 20
387.38984
 30
0.0
 11
79.263004
 21
390.389987
 31
0.0
  0
LINE
  5
18F
100
AcDbEntity
  8
LC-006-005-----0
370
    25
390
0
 62
     2
100
AcDbLine
 10
73.434429
 20
387.38984
 30
0.0
 11
76.434566
 21
390.389977
 31
0.0
  0
LINE
  5
190
100
AcDbEntity
  8
LC-006-005-----0
370
    25
390
0
 62
     2
100
AcDbLine
 10
70.606002
 20
387.38984
 30
0.0
 11
73.606129
 21
390.389967
 31
0.0
  0
LINE
  5
191
100
AcDbEntity
  8
LC-006-005-----0
370
    25
390
0
 62
     2
100
AcDbLine
 10
67.777575
 20
387.38984
 30
0.0
 11
70.777691
 21
390.389956
 31
0.0
  0
LINE
  5
192
100
AcDbEntity
  8
LC-006-005-----0
370
    25
390
0
 62
     2
100
AcDbLine
 10
64.949148
 20
387.38984
 30
0.0
 11
67.949254
 21
390.389946
 31
0.0
  0
LINE
  5
193
100
AcDbEntity
  8
LC-006-005-----0
370
    25
390
0
 62
     2
100
AcDbLine
 10
62.120721
 20
387.38984
 30
0.0
 11
65.120816
 21
390.389935
 31
0.0
  0
LINE
  5
194
100
AcDbEntity
  8
LC-006-005-----0
370
    25
390
0
 62
     2
100
AcDbLine
 10
59.292294
 20
387.38984
 30
0.0
 11
62.292378
 21
390.389925
 31
0.0
  0
LINE
  5
195
100
AcDbEntity
  8
LC-006-005-----0
370
    25
390
0
 62
     2
100
AcDbLine
 10
56.463866
 20
387.38984
 30
0.0
 11
59.463941
 21
390.389914
 31
0.0
  0
LINE
  5
196
100
AcDbEntity
  8
LC-006-005-----0
370
    25
390
0
 62
     2
100
AcDbLine
 10
53.635439
 20
387.38984
 30
0.0
 11
56.635503
 21
390.389904
 31
0.0
  0
LINE
  5
197
100
AcDbEntity
  8
LC-006-005-----0
370
    25
390
0
 62
     2
100
AcDbLine
 10
50.807012
 20
387.38984
 30
0.0
 11
53.807066
 21
390.389894
 31
0.0
  0
ENDBLK
  5
198
100
AcDbEntity
  8
0
390
0
100
AcDbBlockEnd
  0
BLOCK
  5
19B
100
AcDbEntity
  8
0
390
0
100
AcDbBlockBegin
  2
*X3
 70
    65
 10
0.0
 20
0.0
 30
0.0
  3
*X3
  1

  0
LINE
  5
19C
100
AcDbEntity
  8
LC-006-005-----0
370
    25
390
0
 62
     2
100
AcDbLine
 10
387.38984
 20
387.38984
 30
0.0
 11
390.382499
 21
390.382499
 31
0.0
  0
ENDBLK
  5
19D
100
AcDbEntity
  8
0
390
0
100
AcDbBlockEnd
  0
BLOCK
  5
1A0
100
AcDbEntity
  8
0
390
0
100
AcDbBlockBegin
  2
*X4
 70
    65
 10
0.0
 20
0.0
 30
0.0
  3
*X4
  1

  0
LINE
  5
1A1
100
AcDbEntity
  8
LC-006-005-----0
370
    25
390
0
 62
     2
100
AcDbLine
 10
39.493304
 20
387.38984
 30
0.0
 11
42.493316
 21
390.389852
 31
0.0
  0
ENDBLK
  5
1A2
100
AcDbEntity
  8
0
390
0
100
AcDbBlockEnd
  0
BLOCK
  5
1C5
100
AcDbEntity
  8
0
390
0
100
AcDbBlockBegin
  2
*X5
 70
    65
 10
0.0
 20
0.0
 30
0.0
  3
*X5
  1

  0
LINE
  5
1C6
100
AcDbEntity
  8
LC-006-005-----0
370
    25
390
0
 62
     2
100
AcDbLine
 10
167.110624
 20
294.389845
 30
0.0
 11
169.610624
 21
296.889845
 31
0.0
  0
LINE
  5
1C7
100
AcDbEntity
  8
LC-006-005-----0
370
    25
390
0
 62
     2
100
AcDbLine
 10
164.282197
 20
294.389845
 30
0.0
 11
166.782197
 21
296.889845
 31
0.0
  0
LINE
  5
1C8
100
AcDbEntity
  8
LC-006-005-----0
370
    25
390
0
 62
     2
100
AcDbLine
 10
161.45377
 20
294.389845
 30
0.0
 11
163.95377
 21
296.889845
 31
0.0
  0
LINE
  5
1C9
100
AcDbEntity
  8
LC-006-005-----0
370
    25
390
0
 62
     2
100
AcDbLine
 10
156.125343
 20
291.889845
 30
0.0
 11
157.223129
 21
292.987631
 31
0.0
  0
LINE
  5
1CA
100
AcDbEntity
  8
LC-006-005-----0
370
    25
390
0
 62
     2
100
AcDbLine
 10
158.625343
 20
294.389845
 30
0.0
 11
161.125343
 21
296.889845
 31
0.0
  0
LINE
  5
1CB
100
AcDbEntity
  8
LC-006-005-----0
370
    25
390
0
 62
     2
100
AcDbLine
 10
153.296916
 20
291.889845
 30
0.0
 11
158.296916
 21
296.889845
 31
0.0
  0
LINE
  5
1CC
100
AcDbEntity
  8
LC-006-005-----0
370
    25
390
0
 62
     2
100
AcDbLine
 10
150.468489
 20
291.889845
 30
0.0
 11
155.468489
 21
296.889845
 31
0.0
  0
LINE
  5
1CD
100
AcDbEntity
  8
LC-006-005-----0
370
    25
390
0
 62
     2
100
AcDbLine
 10
147.640062
 20
291.889845
 30
0.0
 11
152.640062
 21
296.889845
 31
0.0
  0
LINE
  5
1CE
100
AcDbEntity
  8
LC-006-005-----0
370
    25
390
0
 62
     2
100
AcDbLine
 10
147.22184
 20
294.300051
 30
0.0
 11
149.811634
 21
296.889845
 31
0.0
  0
LINE
  5
1CF
100
AcDbEntity
  8
LC-006-005-----0
370
    25
390
0
 62
     2
100
AcDbLine
 10
144.483207
 20
294.389845
 30
0.0
 11
146.983207
 21
296.889845
 31
0.0
  0
LINE
  5
1D0
100
AcDbEntity
  8
LC-006-005-----0
370
    25
390
0
 62
     2
100
AcDbLine
 10
141.673115
 20
294.40818
 30
0.0
 11
144.15478
 21
296.889845
 31
0.0
  0
LINE
  5
1D1
100
AcDbEntity
  8
LC-006-005-----0
370
    25
390
0
 62
     2
100
AcDbLine
 10
139.354878
 20
294.918369
 30
0.0
 11
141.447043
 21
297.010535
 31
0.0
  0
LINE
  5
1D2
100
AcDbEntity
  8
LC-006-005-----0
370
    25
390
0
 62
     2
100
AcDbLine
 10
137.520055
 20
295.911974
 30
0.0
 11
139.946351
 21
298.33827
 31
0.0
  0
LINE
  5
1D3
100
AcDbEntity
  8
LC-006-005-----0
370
    25
390
0
 62
     2
100
AcDbLine
 10
136.05929
 20
297.279637
 30
0.0
 11
139.714432
 21
300.934778
 31
0.0
  0
LINE
  5
1D4
100
AcDbEntity
  8
LC-006-005-----0
370
    25
390
0
 62
     2
100
AcDbLine
 10
134.962748
 20
299.011521
 30
0.0
 11
139.714432
 21
303.763205
 31
0.0
  0
LINE
  5
1D5
100
AcDbEntity
  8
LC-006-005-----0
370
    25
390
0
 62
     2
100
AcDbLine
 10
134.305961
 20
301.183162
 30
0.0
 11
139.714432
 21
306.591633
 31
0.0
  0
LINE
  5
1D6
100
AcDbEntity
  8
LC-006-005-----0
370
    25
390
0
 62
     2
100
AcDbLine
 10
134.214432
 20
303.92006
 30
0.0
 11
134.684217
 21
304.389845
 31
0.0
  0
LINE
  5
1D7
100
AcDbEntity
  8
LC-006-005-----0
370
    25
390
0
 62
     2
100
AcDbLine
 10
137.214432
 20
306.92006
 30
0.0
 11
139.714432
 21
309.42006
 31
0.0
  0
LINE
  5
1D8
100
AcDbEntity
  8
LC-006-005-----0
370
    25
390
0
 62
     2
100
AcDbLine
 10
137.214432
 20
309.748487
 30
0.0
 11
139.414432
 21
311.948487
 31
0.0
  0
LINE
  5
1D9
100
AcDbEntity
  8
LC-006-005-----0
370
    25
390
0
 62
     2
100
AcDbLine
 10
137.214432
 20
312.576914
 30
0.0
 11
138.027363
 21
313.389845
 31
0.0
  0
ENDBLK
  5
1DA
100
AcDbEntity
  8
0
390
0
100
AcDbBlockEnd
  0
BLOCK
  5
1DD
100
AcDbEntity
  8
0
390
0
100
AcDbBlockBegin
  2
*X6
 70
    65
 10
0.0
 20
0.0
 30
0.0
  3
*X6
  1

  0
LINE
  5
1DE
100
AcDbEntity
  8
LC-006-005-----0
370
    25
390
0
 62
     2
100
AcDbLine
 10
288.916055
 20
294.57291
 30
0.0
 11
295.031368
 21
300.688222
 31
0.0
  0
LINE
  5
1DF
100
AcDbEntity
  8
LC-006-005-----0
370
    25
390
0
 62
     2
100
AcDbLine
 10
285.904564
 20
294.389845
 30
0.0
 11
295.214432
 21
303.699714
 31
0.0
  0
LINE
  5
1E0
100
AcDbEntity
  8
LC-006-005-----0
370
    25
390
0
 62
     2
100
AcDbLine
 10
280.576136
 20
291.889845
 30
0.0
 11
282.207024
 21
293.520733
 31
0.0
  0
LINE
  5
1E1
100
AcDbEntity
  8
LC-006-005-----0
370
    25
390
0
 62
     2
100
AcDbLine
 10
283.076136
 20
294.389845
 30
0.0
 11
285.576136
 21
296.889845
 31
0.0
  0
LINE
  5
1E2
100
AcDbEntity
  8
LC-006-005-----0
370
    25
390
0
 62
     2
100
AcDbLine
 10
289.714432
 20
301.028141
 30
0.0
 11
293.076136
 21
304.389845
 31
0.0
  0
LINE
  5
1E3
100
AcDbEntity
  8
LC-006-005-----0
370
    25
390
0
 62
     2
100
AcDbLine
 10
277.747709
 20
291.889845
 30
0.0
 11
282.747709
 21
296.889845
 31
0.0
  0
LINE
  5
1E4
100
AcDbEntity
  8
LC-006-005-----0
370
    25
390
0
 62
     2
100
AcDbLine
 10
289.714432
 20
303.856568
 30
0.0
 11
292.214432
 21
306.356568
 31
0.0
  0
LINE
  5
1E5
100
AcDbEntity
  8
LC-006-005-----0
370
    25
390
0
 62
     2
100
AcDbLine
 10
274.919282
 20
291.889845
 30
0.0
 11
279.919282
 21
296.889845
 31
0.0
  0
LINE
  5
1E6
100
AcDbEntity
  8
LC-006-005-----0
370
    25
390
0
 62
     2
100
AcDbLine
 10
289.714432
 20
306.684995
 30
0.0
 11
292.214432
 21
309.184995
 31
0.0
  0
LINE
  5
1E7
100
AcDbEntity
  8
LC-006-005-----0
370
    25
390
0
 62
     2
100
AcDbLine
 10
272.205736
 20
292.004726
 30
0.0
 11
277.090855
 21
296.889845
 31
0.0
  0
LINE
  5
1E8
100
AcDbEntity
  8
LC-006-005-----0
370
    25
390
0
 62
     2
100
AcDbLine
 10
289.714432
 20
309.513422
 30
0.0
 11
292.214432
 21
312.013422
 31
0.0
  0
LINE
  5
1E9
100
AcDbEntity
  8
LC-006-005-----0
370
    25
390
0
 62
     2
100
AcDbLine
 10
271.762428
 20
294.389845
 30
0.0
 11
274.262428
 21
296.889845
 31
0.0
  0
LINE
  5
1EA
100
AcDbEntity
  8
LC-006-005-----0
370
    25
390
0
 62
     2
100
AcDbLine
 10
290.014432
 20
312.641849
 30
0.0
 11
290.762428
 21
313.389845
 31
0.0
  0
LINE
  5
1EB
100
AcDbEntity
  8
LC-006-005-----0
370
    25
390
0
 62
     2
100
AcDbLine
 10
268.934001
 20
294.389845
 30
0.0
 11
271.434001
 21
296.889845
 31
0.0
  0
LINE
  5
1EC
100
AcDbEntity
  8
LC-006-005-----0
370
    25
390
0
 62
     2
100
AcDbLine
 10
266.105574
 20
294.389845
 30
0.0
 11
268.605574
 21
296.889845
 31
0.0
  0
LINE
  5
1ED
100
AcDbEntity
  8
LC-006-005-----0
370
    25
390
0
 62
     2
100
AcDbLine
 10
263.277147
 20
294.389845
 30
0.0
 11
265.777147
 21
296.889845
 31
0.0
  0
LINE
  5
1EE
100
AcDbEntity
  8
LC-006-005-----0
370
    25
390
0
 62
     2
100
AcDbLine
 10
260.448719
 20
294.389845
 30
0.0
 11
262.948719
 21
296.889845
 31
0.0
  0
LINE
  5
1EF
100
AcDbEntity
  8
LC-006-005-----0
370
    25
390
0
 62
     2
100
AcDbLine
 10
259.714432
 20
296.483985
 30
0.0
 11
260.120292
 21
296.889845
 31
0.0
  0
ENDBLK
  5
1F0
100
AcDbEntity
  8
0
390
0
100
AcDbBlockEnd
  0
BLOCK
  5
1F3
100
AcDbEntity
  8
0
390
0
100
AcDbBlockBegin
  2
*X7
 70
    65
 10
0.0
 20
0.0
 30
0.0
  3
*X7
  1

  0
LINE
  5
1F4
100
AcDbEntity
  8
LC-006-005-----0
370
    25
390
0
 62
     2
100
AcDbLine
 10
169.610624
 20
296.889845
 30
0.0
 11
169.614432
 21
296.893653
 31
0.0
  0
LINE
  5
1F5
100
AcDbEntity
  8
LC-006-005-----0
370
    25
390
0
 62
     2
100
AcDbLine
 10
155.468489
 20
296.889845
 30
0.0
 11
162.968489
 21
304.389845
 31
0.0
  0
LINE
  5
1F6
100
AcDbEntity
  8
LC-006-005-----0
370
    25
390
0
 62
     2
100
AcDbLine
 10
141.447043
 20
297.010535
 30
0.0
 11
148.826353
 21
304.389845
 31
0.0
  0
LINE
  5
1F7
100
AcDbEntity
  8
LC-006-005-----0
370
    25
390
0
 62
     2
100
AcDbLine
 10
139.714432
 20
309.42006
 30
0.0
 11
148.214432
 21
317.92006
 31
0.0
  0
LINE
  5
1F8
100
AcDbEntity
  8
LC-006-005-----0
370
    25
390
0
 62
     2
100
AcDbLine
 10
137.630457
 20
321.47822
 30
0.0
 11
148.214432
 21
332.062195
 31
0.0
  0
LINE
  5
1F9
100
AcDbEntity
  8
LC-006-005-----0
370
    25
390
0
 62
     2
100
AcDbLine
 10
137.754675
 20
335.744574
 30
0.0
 11
142.608566
 21
340.598465
 31
0.0
  0
LINE
  5
1FA
100
AcDbEntity
  8
LC-006-005-----0
370
    25
390
0
 62
     2
100
AcDbLine
 10
137.878893
 20
350.010927
 30
0.0
 11
140.895488
 21
353.027523
 31
0.0
  0
LINE
  5
1FB
100
AcDbEntity
  8
LC-006-005-----0
370
    25
390
0
 62
     2
100
AcDbLine
 10
148.214432
 20
332.618179
 30
0.0
 11
137.817976
 21
343.014635
 31
0.0
  0
LINE
  5
1FC
100
AcDbEntity
  8
LC-006-005-----0
370
    25
390
0
 62
     2
100
AcDbLine
 10
169.614432
 20
297.076043
 30
0.0
 11
162.300631
 21
304.389845
 31
0.0
  0
LINE
  5
1FD
100
AcDbEntity
  8
LC-006-005-----0
370
    25
390
0
 62
     2
100
AcDbLine
 10
148.214432
 20
318.476043
 30
0.0
 11
137.695902
 21
328.994573
 31
0.0
  0
LINE
  5
1FE
100
AcDbEntity
  8
LC-006-005-----0
370
    25
390
0
 62
     2
100
AcDbLine
 10
155.658495
 20
296.889845
 30
0.0
 11
139.414432
 21
313.133908
 31
0.0
  0
LINE
  5
1FF
100
AcDbEntity
  8
LC-006-005-----0
370
    25
390
0
 62
     2
100
AcDbLine
 10
139.158495
 20
313.389845
 30
0.0
 11
137.573829
 21
314.974511
 31
0.0
  0
LINE
  5
200
100
AcDbEntity
  8
LC-006-005-----0
370
    25
390
0
 62
     2
100
AcDbLine
 10
141.369108
 20
297.037096
 30
0.0
 11
139.861683
 21
298.544521
 31
0.0
  0
ENDBLK
  5
201
100
AcDbEntity
  8
0
390
0
100
AcDbBlockEnd
  0
BLOCK
  5
204
100
AcDbEntity
  8
0
390
0
100
AcDbBlockBegin
  2
*X8
 70
    65
 10
0.0
 20
0.0
 30
0.0
  3
*X8
  1

  0
LINE
  5
205
100
AcDbEntity
  8
LC-006-005-----0
370
    25
390
0
 62
     2
100
AcDbLine
 10
282.747709
 20
296.889845
 30
0.0
 11
284.762057
 21
298.904193
 31
0.0
  0
LINE
  5
206
100
AcDbEntity
  8
LC-006-005-----0
370
    25
390
0
 62
     2
100
AcDbLine
 10
287.700084
 20
301.84222
 30
0.0
 11
289.714432
 21
303.856568
 31
0.0
  0
LINE
  5
207
100
AcDbEntity
  8
LC-006-005-----0
370
    25
390
0
 62
     2
100
AcDbLine
 10
268.605574
 20
296.889845
 30
0.0
 11
276.105574
 21
304.389845
 31
0.0
  0
LINE
  5
208
100
AcDbEntity
  8
LC-006-005-----0
370
    25
390
0
 62
     2
100
AcDbLine
 10
281.214432
 20
309.498704
 30
0.0
 11
291.810454
 21
320.094725
 31
0.0
  0
LINE
  5
209
100
AcDbEntity
  8
LC-006-005-----0
370
    25
390
0
 62
     2
100
AcDbLine
 10
259.814432
 20
302.240839
 30
0.0
 11
261.963438
 21
304.389845
 31
0.0
  0
LINE
  5
20A
100
AcDbEntity
  8
LC-006-005-----0
370
    25
390
0
 62
     2
100
AcDbLine
 10
281.214432
 20
323.640839
 30
0.0
 11
291.68838
 21
334.114787
 31
0.0
  0
LINE
  5
20B
100
AcDbEntity
  8
LC-006-005-----0
370
    25
390
0
 62
     2
100
AcDbLine
 10
281.214432
 20
337.782975
 30
0.0
 11
281.254831
 21
337.823373
 31
0.0
  0
LINE
  5
20C
100
AcDbEntity
  8
LC-006-005-----0
370
    25
390
0
 62
     2
100
AcDbLine
 10
282.495795
 20
339.064338
 30
0.0
 11
282.536194
 21
339.104736
 31
0.0
  0
LINE
  5
20D
100
AcDbEntity
  8
LC-006-005-----0
370
    25
390
0
 62
     2
100
AcDbLine
 10
283.032569
 20
339.601112
 30
0.0
 11
286.536807
 21
343.105349
 31
0.0
  0
LINE
  5
20E
100
AcDbEntity
  8
LC-006-005-----0
370
    25
390
0
 62
     2
100
AcDbLine
 10
287.033182
 20
343.601725
 30
0.0
 11
291.566307
 21
348.134849
 31
0.0
  0
LINE
  5
20F
100
AcDbEntity
  8
LC-006-005-----0
370
    25
390
0
 62
     2
100
AcDbLine
 10
291.595337
 20
344.800766
 30
0.0
 11
287.033182
 21
349.362921
 31
0.0
  0
LINE
  5
210
100
AcDbEntity
  8
LC-006-005-----0
370
    25
390
0
 62
     2
100
AcDbLine
 10
291.719555
 20
330.534413
 30
0.0
 11
283.149231
 21
339.104736
 31
0.0
  0
LINE
  5
211
100
AcDbEntity
  8
LC-006-005-----0
370
    25
390
0
 62
     2
100
AcDbLine
 10
291.843773
 20
316.268059
 30
0.0
 11
281.214432
 21
326.8974
 31
0.0
  0
LINE
  5
212
100
AcDbEntity
  8
LC-006-005-----0
370
    25
390
0
 62
     2
100
AcDbLine
 10
289.714432
 20
304.255264
 30
0.0
 11
281.214432
 21
312.755264
 31
0.0
  0
LINE
  5
213
100
AcDbEntity
  8
LC-006-005-----0
370
    25
390
0
 62
     2
100
AcDbLine
 10
282.937716
 20
296.889845
 30
0.0
 11
275.437716
 21
304.389845
 31
0.0
  0
LINE
  5
214
100
AcDbEntity
  8
LC-006-005-----0
370
    25
390
0
 62
     2
100
AcDbLine
 10
268.79558
 20
296.889845
 30
0.0
 11
261.350071
 21
304.335354
 31
0.0
  0
ENDBLK
  5
215
100
AcDbEntity
  8
0
390
0
100
AcDbBlockEnd
  0
BLOCK
  5
234
100
AcDbEntity
  8
0
390
0
100
AcDbBlockBegin
  2
*X9
 70
    65
 10
0.0
 20
0.0
 30
0.0
  3
*X9
  1

  0
LINE
  5
235
100
AcDbEntity
  8
LC-006-005-----0
370
    25
390
0
 62
     2
100
AcDbLine
 10
148.855912
 20
360.26097
 30
0.0
 11
147.925098
 21
361.191785
 31
0.0
  0
LINE
  5
236
100
AcDbEntity
  8
LC-006-005-----0
370
    25
390
0
 62
     2
100
AcDbLine
 10
149.012342
 20
357.276114
 30
0.0
 11
145.096671
 21
361.191785
 31
0.0
  0
LINE
  5
237
100
AcDbEntity
  8
LC-006-005-----0
370
    25
390
0
 62
     2
100
AcDbLine
 10
149.168771
 20
354.291257
 30
0.0
 11
146.00713
 21
357.452898
 31
0.0
  0
LINE
  5
238
100
AcDbEntity
  8
LC-006-005-----0
370
    25
390
0
 62
     2
100
AcDbLine
 10
145.668244
 20
357.791785
 30
0.0
 11
142.268244
 21
361.191785
 31
0.0
  0
LINE
  5
239
100
AcDbEntity
  8
LC-006-005-----0
370
    25
390
0
 62
     2
100
AcDbLine
 10
147.839816
 20
352.791785
 30
0.0
 11
146.00713
 21
354.624471
 31
0.0
  0
LINE
  5
23A
100
AcDbEntity
  8
LC-006-005-----0
370
    25
390
0
 62
     2
100
AcDbLine
 10
142.839816
 20
357.791785
 30
0.0
 11
139.439816
 21
361.191785
 31
0.0
  0
LINE
  5
23B
100
AcDbEntity
  8
LC-006-005-----0
370
    25
390
0
 62
     2
100
AcDbLine
 10
141.90713
 20
355.896044
 30
0.0
 11
138.20713
 21
359.596044
 31
0.0
  0
LINE
  5
23C
100
AcDbEntity
  8
LC-006-005-----0
370
    25
390
0
 62
     2
100
AcDbLine
 10
139.382962
 20
355.591785
 30
0.0
 11
138.20713
 21
356.767617
 31
0.0
  0
ENDBLK
  5
23D
100
AcDbEntity
  8
0
390
0
100
AcDbBlockEnd
  0
BLOCK
  5
240
100
AcDbEntity
  8
0
390
0
100
AcDbBlockBegin
  2
*X10
 70
    65
 10
0.0
 20
0.0
 30
0.0
  3
*X10
  1

  0
LINE
  5
241
100
AcDbEntity
  8
LC-006-005-----0
370
    25
390
0
 62
     2
100
AcDbLine
 10
291.221734
 20
359.316504
 30
0.0
 11
289.346454
 21
361.191785
 31
0.0
  0
LINE
  5
242
100
AcDbEntity
  8
LC-006-005-----0
370
    25
390
0
 62
     2
100
AcDbLine
 10
291.221734
 20
356.488077
 30
0.0
 11
286.518027
 21
361.191785
 31
0.0
  0
LINE
  5
243
100
AcDbEntity
  8
LC-006-005-----0
370
    25
390
0
 62
     2
100
AcDbLine
 10
289.2896
 20
355.591785
 30
0.0
 11
287.521734
 21
357.35965
 31
0.0
  0
LINE
  5
244
100
AcDbEntity
  8
LC-006-005-----0
370
    25
390
0
 62
     2
100
AcDbLine
 10
287.0896
 20
357.791785
 30
0.0
 11
283.6896
 21
361.191785
 31
0.0
  0
LINE
  5
245
100
AcDbEntity
  8
LC-006-005-----0
370
    25
390
0
 62
     2
100
AcDbLine
 10
284.261173
 20
357.791785
 30
0.0
 11
280.9009
 21
361.152058
 31
0.0
  0
LINE
  5
246
100
AcDbEntity
  8
LC-006-005-----0
370
    25
390
0
 62
     2
100
AcDbLine
 10
283.421734
 20
355.802796
 30
0.0
 11
280.492808
 21
358.731722
 31
0.0
  0
LINE
  5
247
100
AcDbEntity
  8
LC-006-005-----0
370
    25
390
0
 62
     2
100
AcDbLine
 10
283.421734
 20
352.974369
 30
0.0
 11
280.351958
 21
356.044145
 31
0.0
  0
LINE
  5
248
100
AcDbEntity
  8
LC-006-005-----0
370
    25
390
0
 62
     2
100
AcDbLine
 10
280.775891
 20
352.791785
 30
0.0
 11
280.211108
 21
353.356568
 31
0.0
  0
ENDBLK
  5
249
100
AcDbEntity
  8
0
390
0
100
AcDbBlockEnd
  0
BLOCK
  5
24E
100
AcDbEntity
  8
0
390
0
100
AcDbBlockBegin
  2
*D11
 70
    65
 10
0.0
 20
0.0
 30
0.0
  3
*D11
  1

  0
LINE
  5
24F
100
AcDbEntity
  8
LC-003-003-MTH-0
370
    25
390
0
 62
     2
100
AcDbLine
 10
37.214291
 20
387.38984
 30
0.0
 11
37.214291
 21
501.504
 31
0.0
  0
LINE
  5
250
100
AcDbEntity
  8
LC-003-003-MTH-0
370
    25
390
0
 62
     2
100
AcDbLine
 10
392.214432
 20
387.38984
 30
0.0
 11
392.214432
 21
501.504
 31
0.0
  0
LINE
  5
251
100
AcDbEntity
  8
LC-005-003-MTG-0
370
    25
390
0
 62
     2
100
AcDbLine
 10
37.214291
 20
484.704
 30
0.0
 11
168.077828
 21
484.704
 31
0.0
  0
LINE
  5
252
100
AcDbEntity
  8
LC-005-003-MTG-0
370
    25
390
0
 62
     2
100
AcDbLine
 10
275.844761
 20
484.704
 30
0.0
 11
392.214432
 21
484.704
 31
0.0
  0
LINE
  5
253
100
AcDbEntity
  8
LC-004-003-----0
370
    25
390
0
 62
     2
100
AcDbLine
 10
64.974747
 20
488.358733
 30
0.0
 11
37.214291
 21
484.704
 31
0.0
  0
LINE
  5
254
100
AcDbEntity
  8
LC-004-003-----0
370
    25
390
0
 62
     2
100
AcDbLine
 10
37.214291
 20
484.704
 30
0.0
 11
64.974747
 21
481.049267
 31
0.0
  0
LINE
  5
255
100
AcDbEntity
  8
LC-004-003-----0
370
    25
390
0
 62
     2
100
AcDbLine
 10
64.974747
 20
481.049267
 30
0.0
 11
64.974747
 21
488.358733
 31
0.0
  0
LINE
  5
256
100
AcDbEntity
  8
LC-004-003-----0
370
    25
390
0
 62
     2
100
AcDbLine
 10
65.037028
 20
487.408503
 30
0.0
 11
44.494291
 21
484.704
 31
0.0
  0
LINE
  5
257
100
AcDbEntity
  8
LC-004-003-----0
370
    25
390
0
 62
     2
100
AcDbLine
 10
44.494291
 20
484.704
 30
0.0
 11
65.037028
 21
481.999497
 31
0.0
  0
LINE
  5
258
100
AcDbEntity
  8
LC-004-003-----0
370
    25
390
0
 62
     2
100
AcDbLine
 10
65.09931
 20
486.458272
 30
0.0
 11
51.774291
 21
484.704
 31
0.0
  0
LINE
  5
259
100
AcDbEntity
  8
LC-004-003-----0
370
    25
390
0
 62
     2
100
AcDbLine
 10
51.774291
 20
484.704
 30
0.0
 11
65.09931
 21
482.949728
 31
0.0
  0
LINE
  5
25A
100
AcDbEntity
  8
LC-004-003-----0
370
    25
390
0
 62
     2
100
AcDbLine
 10
65.161591
 20
485.508041
 30
0.0
 11
59.054291
 21
484.704
 31
0.0
  0
LINE
  5
25B
100
AcDbEntity
  8
LC-004-003-----0
370
    25
390
0
 62
     2
100
AcDbLine
 10
59.054291
 20
484.704
 30
0.0
 11
65.161591
 21
483.899959
 31
0.0
  0
LINE
  5
25C
100
AcDbEntity
  8
LC-004-003-----0
370
    25
390
0
 62
     2
100
AcDbLine
 10
364.453976
 20
481.049267
 30
0.0
 11
392.214432
 21
484.704
 31
0.0
  0
LINE
  5
25D
100
AcDbEntity
  8
LC-004-003-----0
370
    25
390
0
 62
     2
100
AcDbLine
 10
392.214432
 20
484.704
 30
0.0
 11
364.453976
 21
488.358733
 31
0.0
  0
LINE
  5
25E
100
AcDbEntity
  8
LC-004-003-----0
370
    25
390
0
 62
     2
100
AcDbLine
 10
364.453976
 20
488.358733
 30
0.0
 11
364.453976
 21
481.049267
 31
0.0
  0
LINE
  5
25F
100
AcDbEntity
  8
LC-004-003-----0
370
    25
390
0
 62
     2
100
AcDbLine
 10
364.391695
 20
481.999497
 30
0.0
 11
384.934432
 21
484.704
 31
0.0
  0
LINE
  5
260
100
AcDbEntity
  8
LC-004-003-----0
370
    25
390
0
 62
     2
100
AcDbLine
 10
384.934432
 20
484.704
 30
0.0
 11
364.391695
 21
487.408503
 31
0.0
  0
LINE
  5
261
100
AcDbEntity
  8
LC-004-003-----0
370
    25
390
0
 62
     2
100
AcDbLine
 10
364.329413
 20
482.949728
 30
0.0
 11
377.654432
 21
484.704
 31
0.0
  0
LINE
  5
262
100
AcDbEntity
  8
LC-004-003-----0
370
    25
390
0
 62
     2
100
AcDbLine
 10
377.654432
 20
484.704
 30
0.0
 11
364.329413
 21
486.458272
 31
0.0
  0
LINE
  5
263
100
AcDbEntity
  8
LC-004-003-----0
370
    25
390
0
 62
     2
100
AcDbLine
 10
364.267132
 20
483.899959
 30
0.0
 11
370.374432
 21
484.704
 31
0.0
  0
LINE
  5
264
100
AcDbEntity
  8
LC-004-003-----0
370
    25
390
0
 62
     2
100
AcDbLine
 10
370.374432
 20
484.704
 30
0.0
 11
364.267132
 21
485.508041
 31
0.0
  0
TEXT
  5
265
100
AcDbEntity
  8
LC-004-003-----0
370
    -2
390
0
 62
     7
100
AcDbText
 10
156.062521
 20
492.531554
 30
0.0
 40
28.0
  1
%%c354
 41
0.9
 51
15.0
  7
LCTX15-400-0-0-ARIAL
 72
     1
 11
219.062521
 21
492.531554
 31
0.0
100
AcDbText
  0
ENDBLK
  5
266
100
AcDbEntity
  8
0
390
0
100
AcDbBlockEnd
  0
BLOCK
  5
269
100
AcDbEntity
  8
0
390
0
100
AcDbBlockBegin
  2
*D12
 70
    65
 10
0.0
 20
0.0
 30
0.0
  3
*D12
  1

  0
LINE
  5
26A
100
AcDbEntity
  8
LC-003-003-MTH-0
370
    25
390
0
 62
     2
100
AcDbLine
 10
134.214432
 20
304.389845
 30
0.0
 11
134.214432
 21
119.82
 31
0.0
  0
LINE
  5
26B
100
AcDbEntity
  8
LC-003-003-MTH-0
370
    25
390
0
 62
     2
100
AcDbLine
 10
295.214432
 20
304.389845
 30
0.0
 11
295.214432
 21
119.82
 31
0.0
  0
LINE
  5
26C
100
AcDbEntity
  8
LC-005-003-MTG-0
370
    25
390
0
 62
     2
100
AcDbLine
 10
134.214432
 20
136.62
 30
0.0
 11
168.077899
 21
136.62
 31
0.0
  0
LINE
  5
26D
100
AcDbEntity
  8
LC-005-003-MTG-0
370
    25
390
0
 62
     2
100
AcDbLine
 10
275.844832
 20
136.62
 30
0.0
 11
295.214432
 21
136.62
 31
0.0
  0
LINE
  5
26E
100
AcDbEntity
  8
LC-004-003-----0
370
    25
390
0
 62
     2
100
AcDbLine
 10
161.974888
 20
140.274733
 30
0.0
 11
134.214432
 21
136.62
 31
0.0
  0
LINE
  5
26F
100
AcDbEntity
  8
LC-004-003-----0
370
    25
390
0
 62
     2
100
AcDbLine
 10
134.214432
 20
136.62
 30
0.0
 11
161.974888
 21
132.965267
 31
0.0
  0
LINE
  5
270
100
AcDbEntity
  8
LC-004-003-----0
370
    25
390
0
 62
     2
100
AcDbLine
 10
161.974888
 20
132.965267
 30
0.0
 11
161.974888
 21
140.274733
 31
0.0
  0
LINE
  5
271
100
AcDbEntity
  8
LC-004-003-----0
370
    25
390
0
 62
     2
100
AcDbLine
 10
162.03717
 20
139.324503
 30
0.0
 11
141.494432
 21
136.62
 31
0.0
  0
LINE
  5
272
100
AcDbEntity
  8
LC-004-003-----0
370
    25
390
0
 62
     2
100
AcDbLine
 10
141.494432
 20
136.62
 30
0.0
 11
162.03717
 21
133.915497
 31
0.0
  0
LINE
  5
273
100
AcDbEntity
  8
LC-004-003-----0
370
    25
390
0
 62
     2
100
AcDbLine
 10
162.099451
 20
138.374272
 30
0.0
 11
148.774432
 21
136.62
 31
0.0
  0
LINE
  5
274
100
AcDbEntity
  8
LC-004-003-----0
370
    25
390
0
 62
     2
100
AcDbLine
 10
148.774432
 20
136.62
 30
0.0
 11
162.099451
 21
134.865728
 31
0.0
  0
LINE
  5
275
100
AcDbEntity
  8
LC-004-003-----0
370
    25
390
0
 62
     2
100
AcDbLine
 10
162.161733
 20
137.424041
 30
0.0
 11
156.054432
 21
136.62
 31
0.0
  0
LINE
  5
276
100
AcDbEntity
  8
LC-004-003-----0
370
    25
390
0
 62
     2
100
AcDbLine
 10
156.054432
 20
136.62
 30
0.0
 11
162.161733
 21
135.815959
 31
0.0
  0
LINE
  5
277
100
AcDbEntity
  8
LC-004-003-----0
370
    25
390
0
 62
     2
100
AcDbLine
 10
275.844832
 20
134.069944
 30
0.0
 11
295.214432
 21
136.62
 31
0.0
  0
LINE
  5
278
100
AcDbEntity
  8
LC-004-003-----0
370
    25
390
0
 62
     2
100
AcDbLine
 10
295.214432
 20
136.62
 30
0.0
 11
275.844832
 21
139.170056
 31
0.0
  0
LINE
  5
279
100
AcDbEntity
  8
LC-004-003-----0
370
    25
390
0
 62
     2
100
AcDbLine
 10
275.844832
 20
135.028374
 30
0.0
 11
287.934432
 21
136.62
 31
0.0
  0
LINE
  5
27A
100
AcDbEntity
  8
LC-004-003-----0
370
    25
390
0
 62
     2
100
AcDbLine
 10
287.934432
 20
136.62
 30
0.0
 11
275.844832
 21
138.211626
 31
0.0
  0
LINE
  5
27B
100
AcDbEntity
  8
LC-004-003-----0
370
    25
390
0
 62
     2
100
AcDbLine
 10
275.844832
 20
135.986804
 30
0.0
 11
280.654432
 21
136.62
 31
0.0
  0
LINE
  5
27C
100
AcDbEntity
  8
LC-004-003-----0
370
    25
390
0
 62
     2
100
AcDbLine
 10
280.654432
 20
136.62
 30
0.0
 11
275.844832
 21
137.253196
 31
0.0
  0
TEXT
  5
27D
100
AcDbEntity
  8
LC-004-003-----0
370
    -2
390
0
 62
     7
100
AcDbText
 10
156.062592
 20
144.447554
 30
0.0
 40
28.0
  1
%%c160
 41
0.9
 51
15.0
  7
LCTX15-400-0-0-ARIAL
 72
     1
 11
219.062592
 21
144.447554
 31
0.0
100
AcDbText
  0
ENDBLK
  5
27E
100
AcDbEntity
  8
0
390
0
100
AcDbBlockEnd
  0
BLOCK
  5
281
100
AcDbEntity
  8
0
390
0
100
AcDbBlockBegin
  2
*D13
 70
    65
 10
0.0
 20
0.0
 30
0.0
  3
*D13
  1

  0
LINE
  5
282
100
AcDbEntity
  8
LC-003-003-MTH-0
370
    25
390
0
 62
     2
100
AcDbLine
 10
142.214432
 20
294.389845
 30
0.0
 11
16.058219
 21
294.389845
 31
0.0
  0
LINE
  5
283
100
AcDbEntity
  8
LC-003-003-MTH-0
370
    25
390
0
 62
     2
100
AcDbLine
 10
37.214291
 20
387.38984
 30
0.0
 11
16.058219
 21
387.38984
 31
0.0
  0
LINE
  5
284
100
AcDbEntity
  8
LC-005-003-MTG-0
370
    25
390
0
 62
     2
100
AcDbLine
 10
32.858219
 20
294.389845
 30
0.0
 11
32.858219
 21
315.561309
 31
0.0
  0
LINE
  5
285
100
AcDbEntity
  8
LC-005-003-MTG-0
370
    25
390
0
 62
     2
100
AcDbLine
 10
32.858219
 20
380.712242
 30
0.0
 11
32.858219
 21
387.38984
 31
0.0
  0
LINE
  5
286
100
AcDbEntity
  8
LC-004-003-----0
370
    25
390
0
 62
     2
100
AcDbLine
 10
30.070943
 20
315.561309
 30
0.0
 11
32.858219
 21
294.389845
 31
0.0
  0
LINE
  5
287
100
AcDbEntity
  8
LC-004-003-----0
370
    25
390
0
 62
     2
100
AcDbLine
 10
32.858219
 20
294.389845
 30
0.0
 11
35.645495
 21
315.561309
 31
0.0
  0
LINE
  5
288
100
AcDbEntity
  8
LC-004-003-----0
370
    25
390
0
 62
     2
100
AcDbLine
 10
31.029373
 20
315.561309
 30
0.0
 11
32.858219
 21
301.669845
 31
0.0
  0
LINE
  5
289
100
AcDbEntity
  8
LC-004-003-----0
370
    25
390
0
 62
     2
100
AcDbLine
 10
32.858219
 20
301.669845
 30
0.0
 11
34.687065
 21
315.561309
 31
0.0
  0
LINE
  5
28A
100
AcDbEntity
  8
LC-004-003-----0
370
    25
390
0
 62
     2
100
AcDbLine
 10
31.987804
 20
315.561309
 30
0.0
 11
32.858219
 21
308.949845
 31
0.0
  0
LINE
  5
28B
100
AcDbEntity
  8
LC-004-003-----0
370
    25
390
0
 62
     2
100
AcDbLine
 10
32.858219
 20
308.949845
 30
0.0
 11
33.728635
 21
315.561309
 31
0.0
  0
LINE
  5
28C
100
AcDbEntity
  8
LC-004-003-----0
370
    25
390
0
 62
     2
100
AcDbLine
 10
33.737342
 20
380.712242
 30
0.0
 11
32.858219
 21
387.38984
 31
0.0
  0
LINE
  5
28D
100
AcDbEntity
  8
LC-004-003-----0
370
    25
390
0
 62
     2
100
AcDbLine
 10
32.858219
 20
387.38984
 30
0.0
 11
31.979097
 21
380.712242
 31
0.0
  0
TEXT
  5
28E
100
AcDbEntity
  8
LC-004-003-----0
370
    -2
390
0
 62
     7
100
AcDbText
 10
25.030665
 20
327.486002
 30
0.0
 40
28.0
  1
93
 50
90.0
 41
0.9
 51
15.0
  7
LCTX15-400-0-0-ARIAL
 72
     1
 11
25.030665
 21
345.238002
 31
0.0
100
AcDbText
  0
ENDBLK
  5
28F
100
AcDbEntity
  8
0
390
0
100
AcDbBlockEnd
  0
BLOCK
  5
2A2
100
AcDbEntity
  8
0
390
0
100
AcDbBlockBegin
  2
*X14
 70
    65
 10
0.0
 20
0.0
 30
0.0
  3
*X14
  1

  0
LINE
  5
2A3
100
AcDbEntity
  8
LC-006-005-----0
370
    25
390
0
 62
     2
100
AcDbLine
 10
143.601598
 20
361.390487
 30
0.0
 11
143.714933
 21
361.503821
 31
0.0
  0
LINE
  5
2A4
100
AcDbEntity
  8
LC-006-005-----0
370
    25
390
0
 62
     2
100
AcDbLine
 10
140.773171
 20
361.390487
 30
0.0
 11
143.714929
 21
364.332245
 31
0.0
  0
LINE
  5
2A5
100
AcDbEntity
  8
LC-006-005-----0
370
    25
390
0
 62
     2
100
AcDbLine
 10
139.454776
 20
362.900519
 30
0.0
 11
139.8049
 21
363.250643
 31
0.0
  0
LINE
  5
2A6
100
AcDbEntity
  8
LC-006-005-----0
370
    25
390
0
 62
     2
100
AcDbLine
 10
140.814929
 20
364.260672
 30
0.0
 11
143.714925
 21
367.160668
 31
0.0
  0
LINE
  5
2A7
100
AcDbEntity
  8
LC-006-005-----0
370
    25
390
0
 62
     2
100
AcDbLine
 10
140.814925
 20
367.089095
 30
0.0
 11
143.714921
 21
369.989091
 31
0.0
  0
LINE
  5
2A8
100
AcDbEntity
  8
LC-006-005-----0
370
    25
390
0
 62
     2
100
AcDbLine
 10
140.814921
 20
369.917518
 30
0.0
 11
143.714917
 21
372.817514
 31
0.0
  0
LINE
  5
2A9
100
AcDbEntity
  8
LC-006-005-----0
370
    25
390
0
 62
     2
100
AcDbLine
 10
140.814917
 20
372.745942
 30
0.0
 11
143.714913
 21
375.645938
 31
0.0
  0
LINE
  5
2AA
100
AcDbEntity
  8
LC-006-005-----0
370
    25
390
0
 62
     2
100
AcDbLine
 10
140.814913
 20
375.574365
 30
0.0
 11
143.714909
 21
378.474361
 31
0.0
  0
LINE
  5
2AB
100
AcDbEntity
  8
LC-006-005-----0
370
    25
390
0
 62
     2
100
AcDbLine
 10
140.81491
 20
378.402788
 30
0.0
 11
143.714906
 21
381.302784
 31
0.0
  0
LINE
  5
2AC
100
AcDbEntity
  8
LC-006-005-----0
370
    25
390
0
 62
     2
100
AcDbLine
 10
140.814906
 20
381.231211
 30
0.0
 11
144.214901
 21
384.631207
 31
0.0
  0
LINE
  5
2AD
100
AcDbEntity
  8
LC-006-005-----0
370
    25
390
0
 62
     2
100
AcDbLine
 10
140.814902
 20
384.059635
 30
0.0
 11
144.214897
 21
387.45963
 31
0.0
  0
LINE
  5
2AE
100
AcDbEntity
  8
LC-006-005-----0
370
    25
390
0
 62
     2
100
AcDbLine
 10
140.814898
 20
386.888058
 30
0.0
 11
144.214893
 21
390.288053
 31
0.0
  0
LINE
  5
2AF
100
AcDbEntity
  8
LC-006-005-----0
370
    25
390
0
 62
     2
100
AcDbLine
 10
140.814894
 20
389.716481
 30
0.0
 11
141.4889
 21
390.390487
 31
0.0
  0
ENDBLK
  5
2B0
100
AcDbEntity
  8
0
390
0
100
AcDbBlockEnd
  0
BLOCK
  5
2D1
100
AcDbEntity
  8
0
390
0
100
AcDbBlockBegin
  2
*X15
 70
    65
 10
0.0
 20
0.0
 30
0.0
  3
*X15
  1

  0
LINE
  5
2D2
100
AcDbEntity
  8
LC-006-005-----0
370
    25
390
0
 62
     2
100
AcDbLine
 10
157.104893
 20
425.805469
 30
0.0
 11
158.518923
 21
427.2195
 31
0.0
  0
LINE
  5
2D3
100
AcDbEntity
  8
LC-006-005-----0
370
    25
390
0
 62
     2
100
AcDbLine
 10
170.05351
 20
461.381504
 30
0.0
 11
173.515397
 21
464.843391
 31
0.0
  0
ENDBLK
  5
2D4
100
AcDbEntity
  8
0
390
0
100
AcDbBlockEnd
  0
BLOCK
  5
2D7
100
AcDbEntity
  8
0
390
0
100
AcDbBlockBegin
  2
*X16
 70
    65
 10
0.0
 20
0.0
 30
0.0
  3
*X16
  1

  0
LINE
  5
2D8
100
AcDbEntity
  8
LC-006-005-----0
370
    25
390
0
 62
     2
100
AcDbLine
 10
272.340319
 20
425.075383
 30
0.0
 11
272.523417
 21
425.258482
 31
0.0
  0
LINE
  5
2D9
100
AcDbEntity
  8
LC-006-005-----0
370
    25
390
0
 62
     2
100
AcDbLine
 10
270.910238
 20
426.47373
 30
0.0
 11
271.768657
 21
427.332149
 31
0.0
  0
LINE
  5
2DA
100
AcDbEntity
  8
LC-006-005-----0
370
    25
390
0
 62
     2
100
AcDbLine
 10
270.91023
 20
429.302149
 30
0.0
 11
271.013898
 21
429.405816
 31
0.0
  0
LINE
  5
2DB
100
AcDbEntity
  8
LC-006-005-----0
370
    25
390
0
 62
     2
100
AcDbLine
 10
257.590175
 20
461.236928
 30
0.0
 11
258.937743
 21
462.584496
 31
0.0
  0
LINE
  5
2DC
100
AcDbEntity
  8
LC-006-005-----0
370
    25
390
0
 62
     2
100
AcDbLine
 10
256.568681
 20
463.043861
 30
0.0
 11
258.182983
 21
464.658163
 31
0.0
  0
LINE
  5
2DD
100
AcDbEntity
  8
LC-006-005-----0
370
    25
390
0
 62
     2
100
AcDbLine
 10
255.813921
 20
465.117528
 30
0.0
 11
256.087002
 21
465.390609
 31
0.0
  0
ENDBLK
  5
2DE
100
AcDbEntity
  8
0
390
0
100
AcDbBlockEnd
  0
BLOCK
  5
2E3
100
AcDbEntity
  8
0
390
0
100
AcDbBlockBegin
  2
*X17
 70
    65
 10
0.0
 20
0.0
 30
0.0
  3
*X17
  1

  0
LINE
  5
2E4
100
AcDbEntity
  8
LC-006-005-----0
370
    25
390
0
 62
     2
100
AcDbLine
 10
287.851582
 20
361.390688
 30
0.0
 11
289.677784
 21
363.21689
 31
0.0
  0
LINE
  5
2E5
100
AcDbEntity
  8
LC-006-005-----0
370
    25
390
0
 62
     2
100
AcDbLine
 10
285.714406
 20
362.081938
 30
0.0
 11
288.614402
 21
364.981934
 31
0.0
  0
LINE
  5
2E6
100
AcDbEntity
  8
LC-006-005-----0
370
    25
390
0
 62
     2
100
AcDbLine
 10
285.714402
 20
364.910361
 30
0.0
 11
288.614398
 21
367.810357
 31
0.0
  0
LINE
  5
2E7
100
AcDbEntity
  8
LC-006-005-----0
370
    25
390
0
 62
     2
100
AcDbLine
 10
285.714398
 20
367.738785
 30
0.0
 11
288.614394
 21
370.638781
 31
0.0
  0
LINE
  5
2E8
100
AcDbEntity
  8
LC-006-005-----0
370
    25
390
0
 62
     2
100
AcDbLine
 10
285.714394
 20
370.567208
 30
0.0
 11
288.61439
 21
373.467204
 31
0.0
  0
LINE
  5
2E9
100
AcDbEntity
  8
LC-006-005-----0
370
    25
390
0
 62
     2
100
AcDbLine
 10
285.71439
 20
373.395631
 30
0.0
 11
288.614386
 21
376.295627
 31
0.0
  0
LINE
  5
2EA
100
AcDbEntity
  8
LC-006-005-----0
370
    25
390
0
 62
     2
100
AcDbLine
 10
285.714386
 20
376.224054
 30
0.0
 11
288.614382
 21
379.12405
 31
0.0
  0
LINE
  5
2EB
100
AcDbEntity
  8
LC-006-005-----0
370
    25
390
0
 62
     2
100
AcDbLine
 10
285.714382
 20
379.052478
 30
0.0
 11
288.614378
 21
381.952474
 31
0.0
  0
LINE
  5
2EC
100
AcDbEntity
  8
LC-006-005-----0
370
    25
390
0
 62
     2
100
AcDbLine
 10
285.714379
 20
381.880901
 30
0.0
 11
288.614375
 21
384.780897
 31
0.0
  0
LINE
  5
2ED
100
AcDbEntity
  8
LC-006-005-----0
370
    25
390
0
 62
     2
100
AcDbLine
 10
285.214375
 20
384.209325
 30
0.0
 11
288.614371
 21
387.60932
 31
0.0
  0
LINE
  5
2EE
100
AcDbEntity
  8
LC-006-005-----0
370
    25
390
0
 62
     2
100
AcDbLine
 10
285.214372
 20
387.037748
 30
0.0
 11
288.567313
 21
390.39069
 31
0.0
  0
LINE
  5
2EF
100
AcDbEntity
  8
LC-006-005-----0
370
    25
390
0
 62
     2
100
AcDbLine
 10
285.214368
 20
389.866171
 30
0.0
 11
285.738878
 21
390.390682
 31
0.0
  0
ENDBLK
  5
2F0
100
AcDbEntity
  8
0
390
0
100
AcDbBlockEnd
  0
ENDSEC
  0
SECTION
  2
ENTITIES
  0
VIEWPORT
  5
32F
100
AcDbEntity
 67
     1
  8
LC-VIEWPORT
390
0
100
AcDbViewport
 10
420.0
 20
297.0
 30
0.0
 40
840.0
 41
594.0
 68
     1
 69
     1
 12
420.0
 22
297.0
 13
0.0
 23
0.0
 14
1.0
 24
1.0
 15
0.0
 25
0.0
 16
0.0
 26
0.0
 36
1.0
 17
0.0
 27
0.0
 37
0.0
 42
50.0
 43
0.0
 44
0.0
 45
594.0
 50
0.0
 51
0.0
 72
   100
 90
    32928
340
0
  1

281
     0
 71
     0
 74
     1
110
0.0
120
0.0
130
0.0
111
1.0
121
0.0
131
0.0
112
0.0
122
1.0
132
0.0
345
0
346
0
 79
     0
146
0.0
  0
LINE
  5
2C
102
{ACAD_REACTORS
330
335
102
}
100
AcDbEntity
  8
LC-001-002-----0
370
    50
390
0
 62
     1
100
AcDbLine
 10
291.221734
 20
355.591785
 30
0.0
 11
284.214432
 21
355.591785
 31
0.0
  0
ARC
  5
2E
102
{ACAD_REACTORS
330
335
102
}
100
AcDbEntity
  8
LC-002-002-RND-0
370
    50
390
0
 62
     1
100
AcDbCircle
 10
282.214432
 20
338.104736
 30
0.0
 40
1.0
100
AcDbArc
 50
90.0
 51
180.0
  0
LINE
  5
2F
102
{ACAD_REACTORS
330
335
102
}
100
AcDbEntity
  8
LC-001-002-----0
370
    50
390
0
 62
     1
100
AcDbLine
 10
284.529084
 20
339.104736
 30
0.0
 11
282.214432
 21
339.104736
 31
0.0
  0
ARC
  5
30
102
{ACAD_REACTORS
330
335
102
}
100
AcDbEntity
  8
LC-001-002-----0
370
    50
390
0
 62
     1
100
AcDbCircle
 10
284.529084
 20
341.608835
 30
0.0
 40
2.504098
100
AcDbArc
 50
270.0
 51
0.0
  0
LINE
  5
31
102
{ACAD_REACTORS
330
335
102
}
100
AcDbEntity
  8
LC-001-002-----0
370
    50
390
0
 62
     1
100
AcDbLine
 10
287.033182
 20
341.608835
 30
0.0
 11
287.033182
 21
352.025883
 31
0.0
  0
ARC
  5
32
102
{ACAD_REACTORS
330
335
102
}
100
AcDbEntity
  8
LC-001-002-----0
370
    50
390
0
 62
     1
100
AcDbCircle
 10
288.034822
 20
352.025883
 30
0.0
 40
1.001639
100
AcDbArc
 50
90.0
 51
180.0
  0
LINE
  5
33
102
{ACAD_REACTORS
330
335
102
}
100
AcDbEntity
  8
LC-001-002-----0
370
    50
390
0
 62
     1
100
AcDbLine
 10
290.548307
 20
353.027523
 30
0.0
 11
288.034822
 21
353.027523
 31
0.0
  0
LINE
  5
34
102
{ACAD_REACTORS
330
335
102
}
100
AcDbEntity
  8
LC-001-002-----0
370
    50
390
0
 62
     1
100
AcDbLine
 10
291.947197
 20
304.389845
 30
0.0
 11
291.532198
 21
352.05218
 31
0.0
  0
LINE
  5
35
102
{ACAD_REACTORS
330
335
102
}
100
AcDbEntity
  8
LC-001-002-----0
370
    50
390
0
 62
     1
100
AcDbLine
 10
294.814432
 20
304.389845
 30
0.0
 11
291.947197
 21
304.389845
 31
0.0
  0
LINE
  5
36
102
{ACAD_REACTORS
330
335
102
}
100
AcDbEntity
  8
LC-001-002-----0
370
    50
390
0
 62
     1
100
AcDbLine
 10
294.814432
 20
370.126991
 30
0.0
 11
294.814432
 21
304.389845
 31
0.0
  0
LINE
  5
37
102
{ACAD_REACTORS
330
335
102
}
100
AcDbEntity
  8
LC-001-002-----0
370
    50
390
0
 62
     1
100
AcDbLine
 10
296.213129
 20
386.405896
 30
0.0
 11
296.214432
 21
372.551863
 31
0.0
  0
LINE
  5
38
102
{ACAD_REACTORS
330
335
102
}
100
AcDbEntity
  8
LC-001-002-----0
370
    50
390
0
 62
     1
100
AcDbLine
 10
392.214432
 20
387.38984
 30
0.0
 11
297.19698
 21
387.38984
 31
0.0
  0
LINE
  5
39
102
{ACAD_REACTORS
330
335
102
}
100
AcDbEntity
  8
LC-001-002-----0
370
    50
390
0
 62
     1
100
AcDbLine
 10
392.214436
 20
388.386553
 30
0.0
 11
392.214432
 21
387.38984
 31
0.0
  0
ARC
  5
3A
102
{ACAD_REACTORS
330
335
102
}
100
AcDbEntity
  8
LC-001-002-----0
370
    50
390
0
 62
     1
100
AcDbCircle
 10
390.211158
 20
388.386561
 30
0.0
 40
2.003279
100
AcDbArc
 50
359.999773
 51
89.999788
  0
LINE
  5
3B
102
{ACAD_REACTORS
330
335
102
}
100
AcDbEntity
  8
LC-001-002-----0
370
    50
390
0
 62
     1
100
AcDbLine
 10
390.211165
 20
390.38984
 30
0.0
 11
294.462851
 21
390.390193
 31
0.0
  0
LINE
  5
3C
102
{ACAD_REACTORS
330
335
102
}
100
AcDbEntity
  8
LC-001-002-----0
370
    50
390
0
 62
     1
100
AcDbLine
 10
284.214432
 20
343.592113
 30
0.0
 11
284.214432
 21
355.591785
 31
0.0
  0
ARC
  5
3D
102
{ACAD_REACTORS
330
335
102
}
100
AcDbEntity
  8
LC-001-002-----0
370
    50
390
0
 62
     1
100
AcDbCircle
 10
283.212793
 20
343.592113
 30
0.0
 40
1.001639
100
AcDbArc
 50
270.0
 51
0.0
  0
LINE
  5
3E
102
{ACAD_REACTORS
330
335
102
}
100
AcDbEntity
  8
LC-001-002-----0
370
    50
390
0
 62
     1
100
AcDbLine
 10
283.212793
 20
342.590474
 30
0.0
 11
279.216072
 21
342.590474
 31
0.0
  0
ARC
  5
3F
102
{ACAD_REACTORS
330
335
102
}
100
AcDbEntity
  8
LC-001-002-----0
370
    50
390
0
 62
     1
100
AcDbCircle
 10
279.216072
 20
341.588835
 30
0.0
 40
1.001639
100
AcDbArc
 50
90.0
 51
180.0
  0
LINE
  5
40
102
{ACAD_REACTORS
330
335
102
}
100
AcDbEntity
  8
LC-001-002-----0
370
    50
390
0
 62
     1
100
AcDbLine
 10
278.214432
 20
307.391631
 30
0.0
 11
278.214432
 21
341.588835
 31
0.0
  0
LINE
  5
41
102
{ACAD_REACTORS
330
335
102
}
100
AcDbEntity
  8
LC-001-002-----0
370
    50
390
0
 62
     1
100
AcDbLine
 10
281.214432
 20
338.104736
 30
0.0
 11
281.214432
 21
304.389845
 31
0.0
  0
LINE
  5
42
102
{ACAD_REACTORS
330
335
102
}
100
AcDbEntity
  8
LC-001-002-----0
370
    50
390
0
 62
     1
100
AcDbLine
 10
258.875073
 20
229.389842
 30
0.0
 11
170.553792
 21
229.389842
 31
0.0
  0
LINE
  5
43
102
{ACAD_REACTORS
330
335
102
}
100
AcDbEntity
  8
LC-001-002-----0
370
    50
390
0
 62
     1
100
AcDbLine
 10
259.814432
 20
232.89558
 30
0.0
 11
258.875073
 21
229.389842
 31
0.0
  0
LINE
  5
44
102
{ACAD_REACTORS
330
335
102
}
100
AcDbEntity
  8
LC-001-002-----0
370
    50
390
0
 62
     1
100
AcDbLine
 10
259.814432
 20
304.146031
 30
0.0
 11
259.814432
 21
232.89558
 31
0.0
  0
LINE
  5
45
102
{ACAD_REACTORS
330
335
102
}
100
AcDbEntity
  8
LC-001-002-----0
370
    50
390
0
 62
     1
100
AcDbLine
 10
261.792061
 20
304.389845
 30
0.0
 11
259.814432
 21
304.146031
 31
0.0
  0
LINE
  5
46
102
{ACAD_REACTORS
330
335
102
}
100
AcDbEntity
  8
LC-001-002-----0
370
    50
390
0
 62
     1
100
AcDbLine
 10
278.214432
 20
307.391631
 30
0.0
 11
257.214432
 21
307.391631
 31
0.0
  0
ARC
  5
47
102
{ACAD_REACTORS
330
335
102
}
100
AcDbEntity
  8
LC-002-002-RND-0
370
    50
390
0
 62
     1
100
AcDbCircle
 10
294.462848
 20
389.390193
 30
0.0
 40
1.0
100
AcDbArc
 50
89.999789
 51
180.005392
  0
LINE
  5
48
102
{ACAD_REACTORS
330
335
102
}
100
AcDbEntity
  8
LC-001-002-----0
370
    50
390
0
 62
     1
100
AcDbLine
 10
289.464432
 20
366.764091
 30
0.0
 11
293.464325
 21
373.692108
 31
0.0
  0
LINE
  5
49
102
{ACAD_REACTORS
330
335
102
}
100
AcDbEntity
  8
LC-001-002-----0
370
    50
390
0
 62
     1
100
AcDbLine
 10
289.464432
 20
366.173116
 30
0.0
 11
289.464432
 21
366.764091
 31
0.0
  0
ARC
  5
4A
102
{ACAD_REACTORS
330
335
102
}
100
AcDbEntity
  8
LC-002-002-RND-0
370
    50
390
0
 62
     1
100
AcDbCircle
 10
134.966017
 20
389.390193
 30
0.0
 40
1.0
100
AcDbArc
 50
359.994608
 51
90.000211
  0
LINE
  5
4B
102
{ACAD_REACTORS
330
335
102
}
100
AcDbEntity
  8
LC-001-002-----0
370
    50
390
0
 62
     1
100
AcDbLine
 10
297.19698
 20
387.38984
 30
0.0
 11
296.214432
 21
386.4072
 31
0.0
  0
LINE
  5
4C
102
{ACAD_REACTORS
330
335
102
}
100
AcDbEntity
  8
LC-001-002-----0
370
    50
390
0
 62
     1
100
AcDbLine
 10
294.814432
 20
370.126991
 30
0.0
 11
296.214432
 21
372.551863
 31
0.0
  0
LINE
  5
4D
102
{ACAD_REACTORS
330
335
102
}
100
AcDbEntity
  8
LC-001-002-----0
370
    50
390
0
 62
     1
100
AcDbLine
 10
291.221734
 20
360.231785
 30
0.0
 11
291.221734
 21
355.591785
 31
0.0
  0
LINE
  5
4E
102
{ACAD_REACTORS
330
335
102
}
100
AcDbEntity
  8
LC-001-002-----0
370
    50
390
0
 62
     1
100
AcDbLine
 10
289.714432
 20
365.740103
 30
0.0
 11
290.221734
 21
365.447212
 31
0.0
  0
ARC
  5
4F
102
{ACAD_REACTORS
330
335
102
}
100
AcDbEntity
  8
LC-001-002-----0
370
    50
390
0
 62
     1
100
AcDbCircle
 10
290.548307
 20
352.043594
 30
0.0
 40
0.983929
100
AcDbArc
 50
0.5
 51
90.0
  0
ARC
  5
50
102
{ACAD_REACTORS
330
335
102
}
100
AcDbEntity
  8
LC-001-002-----0
370
    50
390
0
 62
     1
100
AcDbCircle
 10
138.880557
 20
352.043594
 30
0.0
 40
0.983929
100
AcDbArc
 50
90.0
 51
179.5
  0
LINE
  5
51
102
{ACAD_REACTORS
330
335
102
}
100
AcDbEntity
  8
LC-001-002-----0
370
    50
390
0
 62
     1
100
AcDbLine
 10
134.614432
 20
370.126991
 30
0.0
 11
133.214432
 21
372.551863
 31
0.0
  0
LINE
  5
52
102
{ACAD_REACTORS
330
335
102
}
100
AcDbEntity
  8
LC-001-002-----0
370
    50
390
0
 62
     1
100
AcDbLine
 10
293.462848
 20
389.390099
 30
0.0
 11
293.464325
 21
373.692108
 31
0.0
  0
LINE
  5
54
100
AcDbEntity
  8
LC-001-002-----0
370
    25
390
0
  6
DASHDOT
 62
     7
100
AcDbLine
 10
380.714432
 20
390.389874
 30
0.0
 11
380.714432
 21
387.38984
 31
0.0
  0
LINE
  5
55
102
{ACAD_REACTORS
330
335
102
}
100
AcDbEntity
  8
LC-001-002-----0
370
    50
390
0
 62
     1
100
AcDbLine
 10
139.964432
 20
366.764091
 30
0.0
 11
135.96454
 21
373.692108
 31
0.0
  0
LINE
  5
56
100
AcDbEntity
  8
LC-001-002-----0
370
    25
390
0
  6
DASHDOT
 62
     7
100
AcDbLine
 10
48.714432
 20
390.389874
 30
0.0
 11
48.714432
 21
387.38984
 31
0.0
  0
LINE
  5
57
102
{ACAD_REACTORS
330
335
102
}
100
AcDbEntity
  8
LC-001-002-----0
370
    50
390
0
 62
     1
100
AcDbLine
 10
151.209432
 20
307.391631
 30
0.0
 11
172.10918
 21
307.391631
 31
0.0
  0
ARC
  5
58
102
{ACAD_REACTORS
330
335
102
}
100
AcDbEntity
  8
LC-002-002-RND-0
370
    50
390
0
 62
     1
100
AcDbCircle
 10
289.964432
 20
366.173116
 30
0.0
 40
0.5
100
AcDbArc
 50
180.0
 51
240.0
  0
LINE
  5
59
102
{ACAD_REACTORS
330
335
102
}
100
AcDbEntity
  8
LC-001-002-----0
370
    50
390
0
 62
     1
100
AcDbLine
 10
167.636804
 20
304.389845
 30
0.0
 11
169.614432
 21
304.146031
 31
0.0
  0
LINE
  5
5A
102
{ACAD_REACTORS
330
335
102
}
100
AcDbEntity
  8
LC-001-002-----0
370
    50
390
0
 62
     1
100
AcDbLine
 10
169.614432
 20
304.146031
 30
0.0
 11
169.614432
 21
232.89558
 31
0.0
  0
LINE
  5
5B
102
{ACAD_REACTORS
330
335
102
}
100
AcDbEntity
  8
LC-001-002-----0
370
    50
390
0
 62
     1
100
AcDbLine
 10
169.614432
 20
232.89558
 30
0.0
 11
170.553792
 21
229.389842
 31
0.0
  0
LINE
  5
5C
102
{ACAD_REACTORS
330
335
102
}
100
AcDbEntity
  8
LC-001-002-----0
370
    50
390
0
 62
     1
100
AcDbLine
 10
257.214432
 20
307.391631
 30
0.0
 11
257.214432
 21
229.389842
 31
0.0
  0
LINE
  5
5D
102
{ACAD_REACTORS
330
335
102
}
100
AcDbEntity
  8
LC-001-002-----0
370
    50
390
0
 62
     1
100
AcDbLine
 10
172.214432
 20
307.391631
 30
0.0
 11
172.214432
 21
229.389842
 31
0.0
  0
LINE
  5
5E
102
{ACAD_REACTORS
330
335
102
}
100
AcDbEntity
  8
LC-001-002-----0
370
    50
390
0
 62
     1
100
AcDbLine
 10
151.209432
 20
307.391631
 30
0.0
 11
151.209432
 21
341.588835
 31
0.0
  0
ARC
  5
5F
102
{ACAD_REACTORS
330
335
102
}
100
AcDbEntity
  8
LC-001-002-----0
370
    50
390
0
 62
     1
100
AcDbCircle
 10
150.207793
 20
341.588835
 30
0.0
 40
1.001639
100
AcDbArc
 50
0.0
 51
90.0
  0
LINE
  5
60
102
{ACAD_REACTORS
330
335
102
}
100
AcDbEntity
  8
LC-001-002-----0
370
    50
390
0
 62
     1
100
AcDbLine
 10
146.219107
 20
342.590474
 30
0.0
 11
150.207793
 21
342.590474
 31
0.0
  0
ARC
  5
61
102
{ACAD_REACTORS
330
335
102
}
100
AcDbEntity
  8
LC-001-002-----0
370
    50
390
0
 62
     1
100
AcDbCircle
 10
146.219107
 20
343.592113
 30
0.0
 40
1.001639
100
AcDbArc
 50
180.0
 51
270.0
  0
LINE
  5
62
102
{ACAD_REACTORS
330
335
102
}
100
AcDbEntity
  8
LC-001-002-----0
370
    50
390
0
 62
     1
100
AcDbLine
 10
145.217468
 20
343.592113
 30
0.0
 11
145.217468
 21
355.591785
 31
0.0
  0
LINE
  5
63
102
{ACAD_REACTORS
330
335
102
}
100
AcDbEntity
  8
LC-001-002-----0
370
    50
390
0
 62
     1
100
AcDbLine
 10
39.217558
 20
390.38984
 30
0.0
 11
134.966013
 21
390.390193
 31
0.0
  0
ARC
  5
64
102
{ACAD_REACTORS
330
335
102
}
100
AcDbEntity
  8
LC-001-002-----0
370
    50
390
0
 62
     1
100
AcDbCircle
 10
39.217565
 20
388.386561
 30
0.0
 40
2.003279
100
AcDbArc
 50
90.000212
 51
180.000227
  0
LINE
  5
65
102
{ACAD_REACTORS
330
335
102
}
100
AcDbEntity
  8
LC-001-002-----0
370
    50
390
0
 62
     1
100
AcDbLine
 10
37.214287
 20
388.386553
 30
0.0
 11
37.214291
 21
387.38984
 31
0.0
  0
LINE
  5
66
102
{ACAD_REACTORS
330
335
102
}
100
AcDbEntity
  8
LC-001-002-----0
370
    50
390
0
 62
     1
100
AcDbLine
 10
37.214291
 20
387.38984
 30
0.0
 11
132.231884
 21
387.38984
 31
0.0
  0
LINE
  5
67
102
{ACAD_REACTORS
330
335
102
}
100
AcDbEntity
  8
LC-001-002-----0
370
    50
390
0
 62
     1
100
AcDbLine
 10
135.966017
 20
389.390099
 30
0.0
 11
135.96454
 21
373.692108
 31
0.0
  0
LINE
  5
68
102
{ACAD_REACTORS
330
335
102
}
100
AcDbEntity
  8
LC-001-002-----0
370
    50
390
0
 62
     1
100
AcDbLine
 10
134.614432
 20
304.389845
 30
0.0
 11
137.481667
 21
304.389845
 31
0.0
  0
LINE
  5
69
102
{ACAD_REACTORS
330
335
102
}
100
AcDbEntity
  8
LC-001-002-----0
370
    50
390
0
 62
     1
100
AcDbLine
 10
137.481667
 20
304.389845
 30
0.0
 11
137.896666
 21
352.05218
 31
0.0
  0
LINE
  5
6A
102
{ACAD_REACTORS
330
335
102
}
100
AcDbEntity
  8
LC-001-002-----0
370
    50
390
0
 62
     1
100
AcDbLine
 10
138.880557
 20
353.027523
 30
0.0
 11
141.394043
 21
353.027523
 31
0.0
  0
ARC
  5
6B
102
{ACAD_REACTORS
330
335
102
}
100
AcDbEntity
  8
LC-001-002-----0
370
    50
390
0
 62
     1
100
AcDbCircle
 10
141.394043
 20
352.025883
 30
0.0
 40
1.001639
100
AcDbArc
 50
0.0
 51
90.0
  0
LINE
  5
6C
102
{ACAD_REACTORS
330
335
102
}
100
AcDbEntity
  8
LC-001-002-----0
370
    50
390
0
 62
     1
100
AcDbLine
 10
142.395682
 20
341.608835
 30
0.0
 11
142.395682
 21
352.025883
 31
0.0
  0
ARC
  5
6D
102
{ACAD_REACTORS
330
335
102
}
100
AcDbEntity
  8
LC-001-002-----0
370
    50
390
0
 62
     1
100
AcDbCircle
 10
144.89978
 20
341.608835
 30
0.0
 40
2.504098
100
AcDbArc
 50
180.0
 51
270.0
  0
LINE
  5
6E
102
{ACAD_REACTORS
330
335
102
}
100
AcDbEntity
  8
LC-001-002-----0
370
    50
390
0
 62
     1
100
AcDbLine
 10
144.89978
 20
339.104736
 30
0.0
 11
147.214432
 21
339.104736
 31
0.0
  0
LINE
  5
6F
102
{ACAD_REACTORS
330
335
102
}
100
AcDbEntity
  8
LC-001-002-----0
370
    50
390
0
 62
     1
100
AcDbLine
 10
138.20713
 20
355.591785
 30
0.0
 11
145.217468
 21
355.591785
 31
0.0
  0
LINE
  5
70
102
{ACAD_REACTORS
330
335
102
}
100
AcDbEntity
  8
LC-001-002-----0
370
    50
390
0
 62
     1
100
AcDbLine
 10
291.221734
 20
360.231785
 30
0.0
 11
290.221734
 21
361.231785
 31
0.0
  0
LINE
  5
71
102
{ACAD_REACTORS
330
335
102
}
100
AcDbEntity
  8
LC-001-002-----0
370
    50
390
0
 62
     1
100
AcDbLine
 10
290.221734
 20
361.231785
 30
0.0
 11
290.221734
 21
365.447212
 31
0.0
  0
LINE
  5
72
102
{ACAD_REACTORS
330
335
102
}
100
AcDbEntity
  8
LC-001-002-----0
370
    50
390
0
 62
     1
100
AcDbLine
 10
139.20713
 20
361.231785
 30
0.0
 11
139.20713
 21
365.447212
 31
0.0
  0
LINE
  5
73
102
{ACAD_REACTORS
330
335
102
}
100
AcDbEntity
  8
LC-001-002-----0
370
    50
390
0
 62
     1
100
AcDbLine
 10
138.20713
 20
360.231785
 30
0.0
 11
139.20713
 21
361.231785
 31
0.0
  0
LINE
  5
74
102
{ACAD_REACTORS
330
335
102
}
100
AcDbEntity
  8
LC-001-002-----0
370
    50
390
0
 62
     1
100
AcDbLine
 10
138.20713
 20
360.231785
 30
0.0
 11
138.20713
 21
355.591785
 31
0.0
  0
LINE
  5
75
102
{ACAD_REACTORS
330
335
102
}
100
AcDbEntity
  8
LC-001-002-----0
370
    50
390
0
 62
     1
100
AcDbLine
 10
281.214432
 20
304.389845
 30
0.0
 11
261.792061
 21
304.389845
 31
0.0
  0
LINE
  5
76
102
{ACAD_REACTORS
330
335
102
}
100
AcDbEntity
  8
LC-001-002-----0
370
    50
390
0
 62
     1
100
AcDbLine
 10
148.214432
 20
304.389845
 30
0.0
 11
167.636804
 21
304.389845
 31
0.0
  0
LINE
  5
77
102
{ACAD_REACTORS
330
335
102
}
100
AcDbEntity
  8
LC-001-002-----0
370
    50
390
0
 62
     1
100
AcDbLine
 10
257.214432
 20
307.391631
 30
0.0
 11
172.10918
 21
307.391631
 31
0.0
  0
LINE
  5
78
102
{ACAD_REACTORS
330
335
102
}
100
AcDbEntity
  8
LC-001-002-----0
370
    50
390
0
 62
     1
100
AcDbLine
 10
150.207793
 20
342.590474
 30
0.0
 11
279.216072
 21
342.590474
 31
0.0
  0
LINE
  5
79
102
{ACAD_REACTORS
330
335
102
}
100
AcDbEntity
  8
LC-001-002-----0
370
    50
390
0
 62
     1
100
AcDbLine
 10
384.714432
 20
390.389859
 30
0.0
 11
382.714432
 21
388.389859
 31
0.0
  0
LINE
  5
7A
102
{ACAD_REACTORS
330
335
102
}
100
AcDbEntity
  8
LC-001-002-----0
370
    50
390
0
 62
     1
100
AcDbLine
 10
382.714432
 20
387.38984
 30
0.0
 11
382.714432
 21
388.389859
 31
0.0
  0
LINE
  5
7B
102
{ACAD_REACTORS
330
335
102
}
100
AcDbEntity
  8
LC-001-002-----0
370
    50
390
0
 62
     1
100
AcDbLine
 10
378.714432
 20
387.38984
 30
0.0
 11
378.714432
 21
388.389889
 31
0.0
  0
LINE
  5
7C
102
{ACAD_REACTORS
330
335
102
}
100
AcDbEntity
  8
LC-001-002-----0
370
    50
390
0
 62
     1
100
AcDbLine
 10
376.714432
 20
390.389889
 30
0.0
 11
378.714432
 21
388.389889
 31
0.0
  0
LINE
  5
7D
102
{ACAD_REACTORS
330
335
102
}
100
AcDbEntity
  8
LC-001-002-----0
370
    50
390
0
 62
     1
100
AcDbLine
 10
382.714432
 20
388.389859
 30
0.0
 11
378.714432
 21
388.389859
 31
0.0
  0
LINE
  5
7E
102
{ACAD_REACTORS
330
335
102
}
100
AcDbEntity
  8
LC-001-002-----0
370
    50
390
0
 62
     1
100
AcDbLine
 10
44.714432
 20
390.389859
 30
0.0
 11
46.714432
 21
388.389859
 31
0.0
  0
LINE
  5
7F
102
{ACAD_REACTORS
330
335
102
}
100
AcDbEntity
  8
LC-001-002-----0
370
    50
390
0
 62
     1
100
AcDbLine
 10
46.714432
 20
387.38984
 30
0.0
 11
46.714432
 21
388.389859
 31
0.0
  0
LINE
  5
80
102
{ACAD_REACTORS
330
335
102
}
100
AcDbEntity
  8
LC-001-002-----0
370
    50
390
0
 62
     1
100
AcDbLine
 10
50.714432
 20
387.38984
 30
0.0
 11
50.714432
 21
388.389889
 31
0.0
  0
LINE
  5
81
102
{ACAD_REACTORS
330
335
102
}
100
AcDbEntity
  8
LC-001-002-----0
370
    50
390
0
 62
     1
100
AcDbLine
 10
52.714432
 20
390.389889
 30
0.0
 11
50.714432
 21
388.389889
 31
0.0
  0
LINE
  5
82
102
{ACAD_REACTORS
330
335
102
}
100
AcDbEntity
  8
LC-001-002-----0
370
    50
390
0
 62
     1
100
AcDbLine
 10
46.714432
 20
388.389859
 30
0.0
 11
50.714432
 21
388.389859
 31
0.0
  0
LINE
  5
83
102
{ACAD_REACTORS
330
335
102
}
100
AcDbEntity
  8
LC-001-002-----0
370
    50
390
0
 62
     1
100
AcDbLine
 10
134.614432
 20
370.126991
 30
0.0
 11
134.614432
 21
304.389845
 31
0.0
  0
LINE
  5
84
102
{ACAD_REACTORS
330
335
102
}
100
AcDbEntity
  8
LC-001-002-----0
370
    50
390
0
 62
     1
100
AcDbLine
 10
148.214432
 20
338.104736
 30
0.0
 11
148.214432
 21
304.389845
 31
0.0
  0
ARC
  5
85
102
{ACAD_REACTORS
330
335
102
}
100
AcDbEntity
  8
LC-002-002-RND-0
370
    50
390
0
 62
     1
100
AcDbCircle
 10
147.214432
 20
338.104736
 30
0.0
 40
1.0
100
AcDbArc
 50
0.0
 51
90.0
  0
DIMENSION
  5
A6
100
AcDbEntity
  8
LC-004-003-----0
370
    25
390
0
 62
     2
100
AcDbDimension
  2
*D0
 10
214.714432
 20
186.516
 30
0.0
 11
214.714432
 21
186.516
 31
0.0
 71
     5
 72
     1
 41
1.0
 42
0.0
  1
DN90
  3
LC-DIM-L-0140-02-02
100
AcDbAlignedDimension
 13
169.614432
 23
232.89558
 33
0.0
 14
259.814432
 24
232.89558
 34
0.0
100
AcDbRotatedDimension
  0
LINE
  5
A7
102
{ACAD_REACTORS
330
335
102
}
100
AcDbEntity
  8
LC-001-002-----0
370
    50
390
0
 62
     1
100
AcDbLine
 10
139.964432
 20
366.173116
 30
0.0
 11
139.964432
 21
366.764091
 31
0.0
  0
ARC
  5
A8
102
{ACAD_REACTORS
330
335
102
}
100
AcDbEntity
  8
LC-002-002-RND-0
370
    50
390
0
 62
     1
100
AcDbCircle
 10
139.464432
 20
366.173116
 30
0.0
 40
0.5
100
AcDbArc
 50
300.0
 51
0.0
  0
LINE
  5
A9
102
{ACAD_REACTORS
330
335
102
}
100
AcDbEntity
  8
LC-001-002-----0
370
    50
390
0
 62
     1
100
AcDbLine
 10
139.714432
 20
365.740103
 30
0.0
 11
139.20713
 21
365.447212
 31
0.0
  0
LINE
  5
AA
102
{ACAD_REACTORS
330
335
102
}
100
AcDbEntity
  8
LC-001-002-----0
370
    50
390
0
 62
     1
100
AcDbLine
 10
133.215736
 20
386.405896
 30
0.0
 11
133.214432
 21
372.551863
 31
0.0
  0
LINE
  5
AB
102
{ACAD_REACTORS
330
335
102
}
100
AcDbEntity
  8
LC-001-002-----0
370
    50
390
0
 62
     1
100
AcDbLine
 10
132.231884
 20
387.38984
 30
0.0
 11
133.214432
 21
386.4072
 31
0.0
  0
INSERT
  5
122
102
{ACAD_REACTORS
330
335
102
}
100
AcDbEntity
  8
LC-006-005-----0
370
    25
390
0
 62
     2
100
AcDbBlockReference
  2
*X1
 10
0.0
 20
0.0
 30
0.0
  0
INSERT
  5
199
102
{ACAD_REACTORS
330
335
102
}
100
AcDbEntity
  8
LC-006-005-----0
370
    25
390
0
 62
     2
100
AcDbBlockReference
  2
*X2
 10
0.0
 20
0.0
 30
0.0
  0
INSERT
  5
19E
102
{ACAD_REACTORS
330
335
102
}
100
AcDbEntity
  8
LC-006-005-----0
370
    25
390
0
 62
     2
100
AcDbBlockReference
  2
*X3
 10
0.0
 20
0.0
 30
0.0
  0
INSERT
  5
1A3
102
{ACAD_REACTORS
330
335
102
}
100
AcDbEntity
  8
LC-006-005-----0
370
    25
390
0
 62
     2
100
AcDbBlockReference
  2
*X4
 10
0.0
 20
0.0
 30
0.0
  0
LINE
  5
1A4
102
{ACAD_REACTORS
330
331
102
}
100
AcDbEntity
  8
LC-001-002-----0
370
    50
390
0
 62
     1
100
AcDbLine
 10
137.214432
 20
304.389845
 30
0.0
 11
137.214432
 21
313.389845
 31
0.0
  0
LINE
  5
1A5
102
{ACAD_REACTORS
330
331
102
}
100
AcDbEntity
  8
LC-001-002-----0
370
    50
390
0
 62
     1
100
AcDbLine
 10
134.214432
 20
304.389845
 30
0.0
 11
137.214432
 21
304.389845
 31
0.0
  0
ARC
  5
1A6
102
{ACAD_REACTORS
330
331
102
}
100
AcDbEntity
  8
LC-002-002-RND-0
370
    50
390
0
 62
     1
100
AcDbCircle
 10
142.214432
 20
299.389845
 30
0.0
 40
2.5
100
AcDbArc
 50
180.0
 51
270.0
  0
LINE
  5
1A7
102
{ACAD_REACTORS
330
331
102
}
100
AcDbEntity
  8
LC-001-002-----0
370
    50
390
0
 62
     1
100
AcDbLine
 10
134.214432
 20
302.389845
 30
0.0
 11
134.214432
 21
304.389845
 31
0.0
  0
ARC
  5
1A8
102
{ACAD_REACTORS
330
331
102
}
100
AcDbEntity
  8
LC-002-002-RND-0
370
    50
390
0
 62
     1
100
AcDbCircle
 10
142.214432
 20
302.389845
 30
0.0
 40
8.0
100
AcDbArc
 50
180.0
 51
270.0
  0
LINE
  5
1A9
102
{ACAD_REACTORS
330
331
102
}
100
AcDbEntity
  8
LC-001-002-----0
370
    50
390
0
 62
     1
100
AcDbLine
 10
169.714432
 20
294.389845
 30
0.0
 11
169.714432
 21
296.889845
 31
0.0
  0
LINE
  5
1AA
102
{ACAD_REACTORS
330
331
102
}
100
AcDbEntity
  8
LC-001-002-----0
370
    50
390
0
 62
     1
100
AcDbLine
 10
259.714432
 20
294.389845
 30
0.0
 11
259.714432
 21
296.889845
 31
0.0
  0
LINE
  5
1AB
102
{ACAD_REACTORS
330
331
102
}
100
AcDbEntity
  8
LC-001-002-----0
370
    50
390
0
 62
     1
100
AcDbLine
 10
139.414432
 20
311.889845
 30
0.0
 11
139.414432
 21
313.389845
 31
0.0
  0
LINE
  5
1AC
102
{ACAD_REACTORS
330
331
102
}
100
AcDbEntity
  8
LC-001-002-----0
370
    50
390
0
 62
     1
100
AcDbLine
 10
139.414432
 20
311.889845
 30
0.0
 11
139.714432
 21
311.889845
 31
0.0
  0
LINE
  5
1AD
102
{ACAD_REACTORS
330
331
102
}
100
AcDbEntity
  8
LC-001-002-----0
370
    50
390
0
 62
     1
100
AcDbLine
 10
139.714432
 20
299.389845
 30
0.0
 11
139.714432
 21
311.889845
 31
0.0
  0
LINE
  5
1AE
102
{ACAD_REACTORS
330
331
102
}
100
AcDbEntity
  8
LC-001-002-----0
370
    50
390
0
 62
     1
100
AcDbLine
 10
137.214432
 20
313.389845
 30
0.0
 11
139.414432
 21
313.389845
 31
0.0
  0
LINE
  5
1AF
102
{ACAD_REACTORS
330
331
102
}
100
AcDbEntity
  8
LC-001-002-----0
370
    50
390
0
 62
     1
100
AcDbLine
 10
292.214432
 20
313.389845
 30
0.0
 11
290.014432
 21
313.389845
 31
0.0
  0
LINE
  5
1B0
102
{ACAD_REACTORS
330
331
102
}
100
AcDbEntity
  8
LC-001-002-----0
370
    50
390
0
 62
     1
100
AcDbLine
 10
295.214432
 20
302.389845
 30
0.0
 11
295.214432
 21
304.389845
 31
0.0
  0
ARC
  5
1B1
102
{ACAD_REACTORS
330
331
102
}
100
AcDbEntity
  8
LC-002-002-RND-0
370
    50
390
0
 62
     1
100
AcDbCircle
 10
287.214432
 20
302.389845
 30
0.0
 40
8.0
100
AcDbArc
 50
270.0
 51
0.0
  0
LINE
  5
1B2
102
{ACAD_REACTORS
330
331
102
}
100
AcDbEntity
  8
LC-001-002-----0
370
    50
390
0
 62
     1
100
AcDbLine
 10
295.214432
 20
304.389845
 30
0.0
 11
292.214432
 21
304.389845
 31
0.0
  0
LINE
  5
1B3
102
{ACAD_REACTORS
330
331
102
}
100
AcDbEntity
  8
LC-001-002-----0
370
    50
390
0
 62
     1
100
AcDbLine
 10
292.214432
 20
304.389845
 30
0.0
 11
292.214432
 21
313.389845
 31
0.0
  0
ARC
  5
1B4
102
{ACAD_REACTORS
330
331
102
}
100
AcDbEntity
  8
LC-002-002-RND-0
370
    50
390
0
 62
     1
100
AcDbCircle
 10
287.214432
 20
299.389845
 30
0.0
 40
2.5
100
AcDbArc
 50
270.0
 51
0.0
  0
LINE
  5
1B5
102
{ACAD_REACTORS
330
331
102
}
100
AcDbEntity
  8
LC-001-002-----0
370
    50
390
0
 62
     1
100
AcDbLine
 10
289.714432
 20
299.389845
 30
0.0
 11
289.714432
 21
311.889845
 31
0.0
  0
LINE
  5
1B6
102
{ACAD_REACTORS
330
331
102
}
100
AcDbEntity
  8
LC-001-002-----0
370
    50
390
0
 62
     1
100
AcDbLine
 10
290.014432
 20
311.889845
 30
0.0
 11
290.014432
 21
313.389845
 31
0.0
  0
LINE
  5
1B7
102
{ACAD_REACTORS
330
331
102
}
100
AcDbEntity
  8
LC-001-002-----0
370
    50
390
0
 62
     1
100
AcDbLine
 10
290.014432
 20
311.889845
 30
0.0
 11
289.714432
 21
311.889845
 31
0.0
  0
LINE
  5
1B8
102
{ACAD_REACTORS
330
331
102
}
100
AcDbEntity
  8
LC-001-002-----0
370
    50
390
0
 62
     1
100
AcDbLine
 10
142.214432
 20
294.389845
 30
0.0
 11
147.22184
 21
294.389845
 31
0.0
  0
LINE
  5
1B9
102
{ACAD_REACTORS
330
331
102
}
100
AcDbEntity
  8
LC-001-002-----0
370
    50
390
0
 62
     1
100
AcDbLine
 10
147.22184
 20
294.389845
 30
0.0
 11
147.22184
 21
291.889845
 31
0.0
  0
LINE
  5
1BA
102
{ACAD_REACTORS
330
331
102
}
100
AcDbEntity
  8
LC-001-002-----0
370
    50
390
0
 62
     1
100
AcDbLine
 10
147.22184
 20
291.889845
 30
0.0
 11
157.223129
 21
291.889845
 31
0.0
  0
LINE
  5
1BB
102
{ACAD_REACTORS
330
331
102
}
100
AcDbEntity
  8
LC-001-002-----0
370
    50
390
0
 62
     1
100
AcDbLine
 10
157.223129
 20
291.889845
 30
0.0
 11
157.223129
 21
294.389845
 31
0.0
  0
LINE
  5
1BC
102
{ACAD_REACTORS
330
331
102
}
100
AcDbEntity
  8
LC-001-002-----0
370
    50
390
0
 62
     1
100
AcDbLine
 10
157.223129
 20
294.389845
 30
0.0
 11
169.714432
 21
294.389845
 31
0.0
  0
LINE
  5
1BD
102
{ACAD_REACTORS
330
331
102
}
100
AcDbEntity
  8
LC-001-002-----0
370
    50
390
0
 62
     1
100
AcDbLine
 10
142.214432
 20
296.889845
 30
0.0
 11
169.614432
 21
296.889845
 31
0.0
  0
LINE
  5
1BE
102
{ACAD_REACTORS
330
331
102
}
100
AcDbEntity
  8
LC-001-002-----0
370
    50
390
0
 62
     1
100
AcDbLine
 10
272.205736
 20
294.389845
 30
0.0
 11
272.205736
 21
291.889845
 31
0.0
  0
LINE
  5
1BF
102
{ACAD_REACTORS
330
331
102
}
100
AcDbEntity
  8
LC-001-002-----0
370
    50
390
0
 62
     1
100
AcDbLine
 10
272.205736
 20
291.889845
 30
0.0
 11
282.207024
 21
291.889845
 31
0.0
  0
LINE
  5
1C0
102
{ACAD_REACTORS
330
331
102
}
100
AcDbEntity
  8
LC-001-002-----0
370
    50
390
0
 62
     1
100
AcDbLine
 10
282.207024
 20
291.889845
 30
0.0
 11
282.207024
 21
294.389845
 31
0.0
  0
LINE
  5
1C1
102
{ACAD_REACTORS
330
331
102
}
100
AcDbEntity
  8
LC-001-002-----0
370
    50
390
0
 62
     1
100
AcDbLine
 10
259.714432
 20
294.389845
 30
0.0
 11
272.205736
 21
294.389845
 31
0.0
  0
LINE
  5
1C2
102
{ACAD_REACTORS
330
331
102
}
100
AcDbEntity
  8
LC-001-002-----0
370
    50
390
0
 62
     1
100
AcDbLine
 10
282.207024
 20
294.389845
 30
0.0
 11
287.214432
 21
294.389845
 31
0.0
  0
LINE
  5
1C3
102
{ACAD_REACTORS
330
331
102
}
100
AcDbEntity
  8
LC-001-002-----0
370
    50
390
0
 62
     1
100
AcDbLine
 10
287.214432
 20
296.889845
 30
0.0
 11
259.714432
 21
296.889845
 31
0.0
  0
INSERT
  5
1DB
100
AcDbEntity
  8
LC-006-005-----0
370
    25
390
0
 62
     2
100
AcDbBlockReference
  2
*X5
 10
0.0
 20
0.0
 30
0.0
  0
INSERT
  5
1F1
100
AcDbEntity
  8
LC-006-005-----0
370
    25
390
0
 62
     2
100
AcDbBlockReference
  2
*X6
 10
0.0
 20
0.0
 30
0.0
  0
INSERT
  5
202
100
AcDbEntity
  8
LC-006-005-----0
370
    25
390
0
 62
     2
100
AcDbBlockReference
  2
*X7
 10
0.0
 20
0.0
 30
0.0
  0
INSERT
  5
216
100
AcDbEntity
  8
LC-006-005-----0
370
    25
390
0
 62
     2
100
AcDbBlockReference
  2
*X8
 10
0.0
 20
0.0
 30
0.0
  0
LINE
  5
218
102
{ACAD_REACTORS
330
332
102
}
100
AcDbEntity
  8
LC-007-103-D10-0
370
    50
390
0
 62
     1
100
AcDbLine
 10
290.421734
 20
355.591785
 30
0.0
 11
287.521734
 21
355.591785
 31
0.0
  0
LINE
  5
21A
102
{ACAD_REACTORS
330
332
102
}
100
AcDbEntity
  8
LC-008-102-D10-0
370
    25
390
0
 62
     2
100
AcDbLine
 10
214.714432
 20
390.390487
 30
0.0
 11
214.714432
 21
229.389842
 31
0.0
  0
LINE
  5
21B
102
{ACAD_REACTORS
330
332
102
}
100
AcDbEntity
  8
LC-007-103-D10-0
370
    50
390
0
 62
     1
100
AcDbLine
 10
291.221734
 20
360.191785
 30
0.0
 11
291.221734
 21
356.391785
 31
0.0
  0
LINE
  5
21C
102
{ACAD_REACTORS
330
332
102
}
100
AcDbEntity
  8
LC-007-103-D10-0
370
    50
390
0
 62
     1
100
AcDbLine
 10
139.20713
 20
361.191785
 30
0.0
 11
148.332648
 21
361.191785
 31
0.0
  0
LINE
  5
21D
102
{ACAD_REACTORS
330
332
102
}
100
AcDbEntity
  8
LC-007-103-D10-0
370
    50
390
0
 62
     1
100
AcDbLine
 10
148.831963
 20
360.717953
 30
0.0
 11
149.247355
 21
352.791785
 31
0.0
  0
LINE
  5
21E
102
{ACAD_REACTORS
330
332
102
}
100
AcDbEntity
  8
LC-007-103-D10-0
370
    50
390
0
 62
     1
100
AcDbLine
 10
146.00713
 20
352.791785
 30
0.0
 11
149.247355
 21
352.791785
 31
0.0
  0
LINE
  5
21F
102
{ACAD_REACTORS
330
332
102
}
100
AcDbEntity
  8
LC-007-103-D10-0
370
    50
390
0
 62
     1
100
AcDbLine
 10
146.00713
 20
357.791785
 30
0.0
 11
146.00713
 21
352.791785
 31
0.0
  0
LINE
  5
220
102
{ACAD_REACTORS
330
332
102
}
100
AcDbEntity
  8
LC-007-103-D10-0
370
    50
390
0
 62
     1
100
AcDbLine
 10
141.90713
 20
357.791785
 30
0.0
 11
146.00713
 21
357.791785
 31
0.0
  0
LINE
  5
221
102
{ACAD_REACTORS
330
332
102
}
100
AcDbEntity
  8
LC-007-103-D10-0
370
    50
390
0
 62
     1
100
AcDbLine
 10
141.90713
 20
357.791785
 30
0.0
 11
141.90713
 21
355.591785
 31
0.0
  0
LINE
  5
223
102
{ACAD_REACTORS
330
332
102
}
100
AcDbEntity
  8
LC-009-104-D10-0
370
    25
390
0
 62
     2
100
AcDbLine
 10
141.90713
 20
355.591785
 30
0.0
 11
139.00713
 21
355.591785
 31
0.0
  0
LINE
  5
224
102
{ACAD_REACTORS
330
332
102
}
100
AcDbEntity
  8
LC-007-103-D10-0
370
    50
390
0
 62
     1
100
AcDbLine
 10
138.20713
 20
356.391785
 30
0.0
 11
138.20713
 21
360.191785
 31
0.0
  0
ARC
  5
225
102
{ACAD_REACTORS
330
332
102
}
100
AcDbEntity
  8
LC-007-103-D10-0
370
    50
390
0
 62
     1
100
AcDbCircle
 10
148.332648
 20
360.691785
 30
0.0
 40
0.5
100
AcDbArc
 50
3.0
 51
90.0
  0
ARC
  5
226
102
{ACAD_REACTORS
330
332
102
}
100
AcDbEntity
  8
LC-007-103-D10-0
370
    50
390
0
 62
     1
100
AcDbCircle
 10
139.00713
 20
356.391785
 30
0.0
 40
0.8
100
AcDbArc
 50
180.0
 51
270.0
  0
ARC
  5
227
102
{ACAD_REACTORS
330
332
102
}
100
AcDbEntity
  8
LC-007-103-D10-0
370
    50
390
0
 62
     1
100
AcDbCircle
 10
290.421734
 20
356.391785
 30
0.0
 40
0.8
100
AcDbArc
 50
270.0
 51
0.0
  0
ARC
  5
228
102
{ACAD_REACTORS
330
332
102
}
100
AcDbEntity
  8
LC-007-103-D10-0
370
    50
390
0
 62
     1
100
AcDbCircle
 10
281.096217
 20
360.691785
 30
0.0
 40
0.5
100
AcDbArc
 50
90.0
 51
177.0
  0
LINE
  5
229
102
{ACAD_REACTORS
330
332
102
}
100
AcDbEntity
  8
LC-009-104-D10-0
370
    25
390
0
 62
     2
100
AcDbLine
 10
291.221734
 20
356.391785
 30
0.0
 11
291.221734
 21
360.191785
 31
0.0
  0
LINE
  5
22A
102
{ACAD_REACTORS
330
332
102
}
100
AcDbEntity
  8
LC-007-103-D10-0
370
    50
390
0
 62
     1
100
AcDbLine
 10
287.521734
 20
355.591785
 30
0.0
 11
290.421734
 21
355.591785
 31
0.0
  0
LINE
  5
22B
102
{ACAD_REACTORS
330
332
102
}
100
AcDbEntity
  8
LC-007-103-D10-0
370
    50
390
0
 62
     1
100
AcDbLine
 10
287.521734
 20
357.791785
 30
0.0
 11
287.521734
 21
355.591785
 31
0.0
  0
LINE
  5
22C
102
{ACAD_REACTORS
330
332
102
}
100
AcDbEntity
  8
LC-007-103-D10-0
370
    50
390
0
 62
     1
100
AcDbLine
 10
287.521734
 20
357.791785
 30
0.0
 11
283.421734
 21
357.791785
 31
0.0
  0
LINE
  5
22D
102
{ACAD_REACTORS
330
332
102
}
100
AcDbEntity
  8
LC-007-103-D10-0
370
    50
390
0
 62
     1
100
AcDbLine
 10
283.421734
 20
357.791785
 30
0.0
 11
283.421734
 21
352.791785
 31
0.0
  0
LINE
  5
22E
102
{ACAD_REACTORS
330
332
102
}
100
AcDbEntity
  8
LC-007-103-D10-0
370
    50
390
0
 62
     1
100
AcDbLine
 10
283.421734
 20
352.791785
 30
0.0
 11
280.181509
 21
352.791785
 31
0.0
  0
LINE
  5
22F
102
{ACAD_REACTORS
330
332
102
}
100
AcDbEntity
  8
LC-007-103-D10-0
370
    50
390
0
 62
     1
100
AcDbLine
 10
280.596902
 20
360.717953
 30
0.0
 11
280.181509
 21
352.791785
 31
0.0
  0
LINE
  5
230
102
{ACAD_REACTORS
330
332
102
}
100
AcDbEntity
  8
LC-007-103-D10-0
370
    50
390
0
 62
     1
100
AcDbLine
 10
290.221734
 20
361.191785
 30
0.0
 11
281.096217
 21
361.191785
 31
0.0
  0
LINE
  5
231
102
{ACAD_REACTORS
330
332
102
}
100
AcDbEntity
  8
LC-007-103-D10-0
370
    50
390
0
 62
     1
100
AcDbLine
 10
291.221734
 20
360.191785
 30
0.0
 11
290.221734
 21
361.191785
 31
0.0
  0
LINE
  5
232
102
{ACAD_REACTORS
330
332
102
}
100
AcDbEntity
  8
LC-007-103-D10-0
370
    50
390
0
 62
     1
100
AcDbLine
 10
138.20713
 20
360.191785
 30
0.0
 11
139.20713
 21
361.191785
 31
0.0
  0
INSERT
  5
23E
102
{ACAD_REACTORS
330
332
102
}
100
AcDbEntity
  8
LC-006-005-----0
370
    25
390
0
 62
     2
100
AcDbBlockReference
  2
*X9
 10
0.0
 20
0.0
 30
0.0
  0
INSERT
  5
24A
102
{ACAD_REACTORS
330
332
102
}
100
AcDbEntity
  8
LC-006-005-----0
370
    25
390
0
 62
     2
100
AcDbBlockReference
  2
*X10
 10
0.0
 20
0.0
 30
0.0
  0
LINE
  5
24B
102
{ACAD_REACTORS
330
332
102
}
100
AcDbEntity
  8
LC-001-002-----0
370
    50
390
0
 62
     1
100
AcDbLine
 10
149.247355
 20
352.791785
 30
0.0
 11
280.181509
 21
352.791785
 31
0.0
  0
LINE
  5
24C
102
{ACAD_REACTORS
330
332
102
}
100
AcDbEntity
  8
LC-001-002-----0
370
    50
390
0
 62
     1
100
AcDbLine
 10
148.332648
 20
361.191785
 30
0.0
 11
281.096217
 21
361.191785
 31
0.0
  0
DIMENSION
  5
267
100
AcDbEntity
  8
LC-004-003-----0
370
    25
390
0
 62
     2
100
AcDbDimension
  2
*D11
 10
214.714361
 20
484.704
 30
0.0
 11
214.714361
 21
484.704
 31
0.0
 71
     5
 72
     1
 41
1.0
 42
0.0
  1
%%c354
  3
LC-DIM-L-0140-02-02
100
AcDbAlignedDimension
 13
37.214291
 23
387.38984
 33
0.0
 14
392.214432
 24
387.38984
 34
0.0
100
AcDbRotatedDimension
  0
DIMENSION
  5
27F
100
AcDbEntity
  8
LC-004-003-----0
370
    25
390
0
 62
     2
100
AcDbDimension
  2
*D12
 10
214.714432
 20
136.62
 30
0.0
 11
214.714432
 21
136.62
 31
0.0
 71
     5
 72
     1
 41
1.0
 42
0.0
  1
%%c160
  3
LC-DIM-L-0140-02-02
100
AcDbAlignedDimension
 13
134.214432
 23
304.389845
 33
0.0
 14
295.214432
 24
304.389845
 34
0.0
100
AcDbRotatedDimension
  0
DIMENSION
  5
290
100
AcDbEntity
  8
LC-004-003-----0
370
    25
390
0
 62
     2
100
AcDbDimension
  2
*D13
 10
32.858219
 20
340.889842
 30
0.0
 11
32.858219
 21
340.889842
 31
0.0
 71
     5
 72
     1
 41
1.0
 42
0.0
  3
LC-DIM-L-0140-02-02
100
AcDbAlignedDimension
 13
37.214291
 23
387.38984
 33
0.0
 14
142.214432
 24
294.389845
 34
0.0
 50
90.0
100
AcDbRotatedDimension
  0
LINE
  5
291
102
{ACAD_REACTORS
330
330
102
}
100
AcDbEntity
  8
LC-001-002-----0
370
    50
390
0
 62
     1
100
AcDbLine
 10
211.409214
 20
450.590548
 30
0.0
 11
211.409214
 21
465.390548
 31
0.0
  0
LINE
  5
292
102
{ACAD_REACTORS
330
330
102
}
100
AcDbEntity
  8
LC-001-002-----0
370
    50
390
0
 62
     1
100
AcDbLine
 10
218.019881
 20
450.590557
 30
0.0
 11
218.019841
 21
465.390557
 31
0.0
  0
ARC
  5
293
102
{ACAD_REACTORS
330
330
102
}
100
AcDbEntity
  8
LC-002-002-RND-0
370
    50
390
0
 62
     1
100
AcDbCircle
 10
263.163153
 20
450.390619
 30
0.0
 40
15.0
100
AcDbArc
 50
20.000157
 51
90.000079
  0
LINE
  5
294
102
{ACAD_REACTORS
330
330
102
}
100
AcDbEntity
  8
LC-001-002-----0
370
    50
390
0
 62
     1
100
AcDbLine
 10
129.129062
 20
392.214811
 30
0.0
 11
152.170553
 21
455.520788
 31
0.0
  0
ARC
  5
295
102
{ACAD_REACTORS
330
330
102
}
100
AcDbEntity
  8
LC-002-002-RND-0
370
    50
390
0
 62
     1
100
AcDbCircle
 10
166.265942
 20
450.390486
 30
0.0
 40
15.0
100
AcDbArc
 50
90.000079
 51
160.0
  0
LINE
  5
296
102
{ACAD_REACTORS
330
330
102
}
100
AcDbEntity
  8
LC-001-002-----0
370
    50
390
0
 62
     1
100
AcDbLine
 10
300.300193
 20
392.215046
 30
0.0
 11
277.258528
 21
455.52096
 31
0.0
  0
LINE
  5
297
102
{ACAD_REACTORS
330
330
102
}
100
AcDbEntity
  8
LC-001-002-----0
370
    50
390
0
 62
     1
100
AcDbLine
 10
166.265922
 20
465.390486
 30
0.0
 11
262.276178
 21
465.390618
 31
0.0
  0
LINE
  5
298
102
{ACAD_REACTORS
330
330
102
}
100
AcDbEntity
  8
LC-001-002-----0
370
    50
390
0
 62
     1
100
AcDbLine
 10
285.214367
 20
390.39068
 30
0.0
 11
257.916391
 21
465.390612
 31
0.0
  0
LINE
  5
299
102
{ACAD_REACTORS
330
330
102
}
100
AcDbEntity
  8
LC-001-002-----0
370
    50
390
0
 62
     1
100
AcDbLine
 10
257.201406
 20
461.305477
 30
0.0
 11
255.714527
 21
465.390609
 31
0.0
  0
LINE
  5
29A
102
{ACAD_REACTORS
330
330
102
}
100
AcDbEntity
  8
LC-001-002-----0
370
    50
390
0
 62
     1
100
AcDbLine
 10
259.554272
 20
460.89061
 30
0.0
 11
257.201406
 21
461.305477
 31
0.0
  0
LINE
  5
29B
102
{ACAD_REACTORS
330
330
102
}
100
AcDbEntity
  8
LC-001-002-----0
370
    50
390
0
 62
     1
100
AcDbLine
 10
144.214893
 20
390.390487
 30
0.0
 11
171.512663
 21
465.390493
 31
0.0
  0
LINE
  5
29C
102
{ACAD_REACTORS
330
330
102
}
100
AcDbEntity
  8
LC-001-002-----0
370
    50
390
0
 62
     1
100
AcDbLine
 10
172.227659
 20
461.305361
 30
0.0
 11
173.714527
 21
465.390496
 31
0.0
  0
LINE
  5
29D
102
{ACAD_REACTORS
330
330
102
}
100
AcDbEntity
  8
LC-001-002-----0
370
    50
390
0
 62
     1
100
AcDbLine
 10
169.874795
 20
460.890487
 30
0.0
 11
172.227659
 21
461.305361
 31
0.0
  0
LINE
  5
29F
102
{ACAD_REACTORS
330
330
102
}
100
AcDbEntity
  8
LC-010-002-___-0
370
    25
390
0
 62
     2
100
AcDbLine
 10
283.696578
 20
373.690676
 30
0.0
 11
285.71439
 21
373.690682
 31
0.0
  0
LINE
  5
2A0
102
{ACAD_REACTORS
330
330
102
}
100
AcDbEntity
  8
LC-001-002-----0
370
    50
390
0
 62
     1
100
AcDbLine
 10
297.107631
 20
390.390713
 30
0.0
 11
300.300193
 21
392.215046
 31
0.0
  0
INSERT
  5
2B1
102
{ACAD_REACTORS
330
330
102
}
100
AcDbEntity
  8
LC-006-005-----0
370
    25
390
0
 62
     2
100
AcDbBlockReference
  2
*X14
 10
0.0
 20
0.0
 30
0.0
  0
ARC
  5
2B2
102
{ACAD_REACTORS
330
330
102
}
100
AcDbEntity
  8
LC-002-002-RND-0
370
    50
390
0
 62
     1
100
AcDbCircle
 10
289.114405
 20
362.390691
 30
0.0
 40
1.0
100
AcDbArc
 50
0.000079
 51
90.000157
  0
LINE
  5
2B3
102
{ACAD_REACTORS
330
330
102
}
100
AcDbEntity
  8
LC-001-002-----0
370
    50
390
0
 62
     1
100
AcDbLine
 10
270.910229
 20
429.690641
 30
0.0
 11
270.910241
 21
425.327541
 31
0.0
  0
ARC
  5
2B4
102
{ACAD_REACTORS
330
330
102
}
100
AcDbEntity
  8
LC-002-002-RND-0
370
    50
390
0
 62
     1
100
AcDbCircle
 10
289.114405
 20
362.390691
 30
0.0
 40
1.0
100
AcDbArc
 50
270.000157
 51
0.000079
  0
LINE
  5
2B5
102
{ACAD_REACTORS
330
330
102
}
100
AcDbEntity
  8
LC-001-002-----0
370
    50
390
0
 62
     1
100
AcDbLine
 10
289.214408
 20
361.390691
 30
0.0
 11
287.714406
 21
361.390687
 31
0.0
  0
LINE
  5
2B6
102
{ACAD_REACTORS
330
330
102
}
100
AcDbEntity
  8
LC-001-002-----0
370
    50
390
0
 62
     1
100
AcDbLine
 10
132.321629
 20
390.390487
 30
0.0
 11
129.129062
 21
392.214811
 31
0.0
  0
LINE
  5
2B7
102
{ACAD_REACTORS
330
330
102
}
100
AcDbEntity
  8
LC-001-002-----0
370
    50
390
0
 62
     1
100
AcDbLine
 10
292.61439
 20
373.690701
 30
0.0
 11
288.61439
 21
373.69069
 31
0.0
  0
ARC
  5
2B8
102
{ACAD_REACTORS
330
330
102
}
100
AcDbEntity
  8
LC-002-002-RND-0
370
    50
390
0
 62
     1
100
AcDbCircle
 10
289.114403
 20
363.890691
 30
0.0
 40
0.5
100
AcDbArc
 50
180.000079
 51
270.000157
  0
LINE
  5
2B9
102
{ACAD_REACTORS
330
330
102
}
100
AcDbEntity
  8
LC-001-002-----0
370
    50
390
0
 62
     1
100
AcDbLine
 10
289.114408
 20
361.390691
 30
0.0
 11
285.714407
 21
361.390682
 31
0.0
  0
LINE
  5
2BA
102
{ACAD_REACTORS
330
330
102
}
100
AcDbEntity
  8
LC-001-002-----0
370
    50
390
0
 62
     1
100
AcDbLine
 10
272.706671
 20
425.010787
 30
0.0
 11
270.910241
 21
425.327541
 31
0.0
  0
ARC
  5
2BB
102
{ACAD_REACTORS
330
330
102
}
100
AcDbEntity
  8
LC-002-002-RND-0
370
    50
390
0
 62
     1
100
AcDbCircle
 10
292.614388
 20
374.190701
 30
0.0
 40
0.5
100
AcDbArc
 50
270.000157
 51
0.000079
  0
LINE
  5
2BC
102
{ACAD_REACTORS
330
330
102
}
100
AcDbEntity
  8
LC-001-002-----0
370
    50
390
0
 62
     1
100
AcDbLine
 10
285.714377
 20
382.690682
 30
0.0
 11
285.714407
 21
361.390682
 31
0.0
  0
LINE
  5
2BD
102
{ACAD_REACTORS
330
330
102
}
100
AcDbEntity
  8
LC-001-002-----0
370
    50
390
0
 62
     1
100
AcDbLine
 10
293.114366
 20
390.390702
 30
0.0
 11
293.114388
 21
374.190701
 31
0.0
  0
LINE
  5
2BE
102
{ACAD_REACTORS
330
330
102
}
100
AcDbEntity
  8
LC-001-002-----0
370
    50
390
0
 62
     1
100
AcDbLine
 10
285.714377
 20
382.690682
 30
0.0
 11
285.214377
 21
382.69068
 31
0.0
  0
LINE
  5
2BF
102
{ACAD_REACTORS
330
330
102
}
100
AcDbEntity
  8
LC-001-002-----0
370
    50
390
0
 62
     1
100
AcDbLine
 10
285.214367
 20
390.39068
 30
0.0
 11
285.214377
 21
382.69068
 31
0.0
  0
LINE
  5
2C0
102
{ACAD_REACTORS
330
330
102
}
100
AcDbEntity
  8
LC-001-002-----0
370
    50
390
0
 62
     1
100
AcDbLine
 10
288.614367
 20
390.39069
 30
0.0
 11
288.614403
 21
363.89069
 31
0.0
  0
LINE
  5
2C1
102
{ACAD_REACTORS
330
330
102
}
100
AcDbEntity
  8
LC-001-002-----0
370
    25
390
0
  6
DASHDOT
 62
     2
100
AcDbLine
 10
214.714527
 20
465.390552
 30
0.0
 11
214.71463
 21
390.3906
 31
0.0
  0
LINE
  5
2C2
102
{ACAD_REACTORS
330
330
102
}
100
AcDbEntity
  8
LC-001-002-----0
370
    50
390
0
 62
     1
100
AcDbLine
 10
215.864891
 20
450.590554
 30
0.0
 11
215.864891
 21
429.690487
 31
0.0
  0
LINE
  5
2C3
102
{ACAD_REACTORS
330
330
102
}
100
AcDbEntity
  8
LC-001-002-----0
370
    50
390
0
 62
     1
100
AcDbLine
 10
213.564891
 20
450.590551
 30
0.0
 11
213.564891
 21
429.690487
 31
0.0
  0
ARC
  5
2C4
102
{ACAD_REACTORS
330
330
102
}
100
AcDbEntity
  8
LC-002-002-RND-0
370
    50
390
0
 62
     1
100
AcDbCircle
 10
140.314932
 20
362.390487
 30
0.0
 40
1.0
100
AcDbArc
 50
90.0
 51
180.000079
  0
LINE
  5
2C5
102
{ACAD_REACTORS
330
330
102
}
100
AcDbEntity
  8
LC-001-002-----0
370
    50
390
0
 62
     1
100
AcDbLine
 10
158.518923
 20
429.690487
 30
0.0
 11
158.518923
 21
425.327387
 31
0.0
  0
ARC
  5
2C6
102
{ACAD_REACTORS
330
330
102
}
100
AcDbEntity
  8
LC-002-002-RND-0
370
    50
390
0
 62
     1
100
AcDbCircle
 10
140.314932
 20
362.390487
 30
0.0
 40
1.0
100
AcDbArc
 50
180.000079
 51
270.0
  0
LINE
  5
2C7
102
{ACAD_REACTORS
330
330
102
}
100
AcDbEntity
  8
LC-001-002-----0
370
    50
390
0
 62
     1
100
AcDbLine
 10
140.214932
 20
361.390487
 30
0.0
 11
141.714934
 21
361.390487
 31
0.0
  0
LINE
  5
2C8
102
{ACAD_REACTORS
330
330
102
}
100
AcDbEntity
  8
LC-001-002-----0
370
    50
390
0
 62
     1
100
AcDbLine
 10
136.814916
 20
373.690487
 30
0.0
 11
140.814916
 21
373.690487
 31
0.0
  0
ARC
  5
2C9
102
{ACAD_REACTORS
330
330
102
}
100
AcDbEntity
  8
LC-002-002-RND-0
370
    50
390
0
 62
     1
100
AcDbCircle
 10
140.314929
 20
363.890487
 30
0.0
 40
0.5
100
AcDbArc
 50
270.0
 51
0.000079
  0
LINE
  5
2CA
102
{ACAD_REACTORS
330
330
102
}
100
AcDbEntity
  8
LC-001-002-----0
370
    50
390
0
 62
     1
100
AcDbLine
 10
140.314932
 20
361.390487
 30
0.0
 11
143.714933
 21
361.390487
 31
0.0
  0
LINE
  5
2CB
102
{ACAD_REACTORS
330
330
102
}
100
AcDbEntity
  8
LC-001-002-----0
370
    50
390
0
 62
     1
100
AcDbLine
 10
156.821978
 20
425.028169
 30
0.0
 11
158.518923
 21
425.327387
 31
0.0
  0
ARC
  5
2CC
102
{ACAD_REACTORS
330
330
102
}
100
AcDbEntity
  8
LC-002-002-RND-0
370
    50
390
0
 62
     1
100
AcDbCircle
 10
136.814916
 20
374.190487
 30
0.0
 40
0.5
100
AcDbArc
 50
180.000079
 51
270.0
  0
LINE
  5
2CD
102
{ACAD_REACTORS
330
330
102
}
100
AcDbEntity
  8
LC-001-002-----0
370
    50
390
0
 62
     1
100
AcDbLine
 10
143.714904
 20
382.690487
 30
0.0
 11
143.714933
 21
361.390487
 31
0.0
  0
LINE
  5
2CE
102
{ACAD_REACTORS
330
330
102
}
100
AcDbEntity
  8
LC-001-002-----0
370
    50
390
0
 62
     1
100
AcDbLine
 10
136.314894
 20
390.390487
 30
0.0
 11
136.314916
 21
374.190486
 31
0.0
  0
LINE
  5
2CF
102
{ACAD_REACTORS
330
330
102
}
100
AcDbEntity
  8
LC-001-002-----0
370
    50
390
0
 62
     1
100
AcDbLine
 10
166.125901
 20
450.590486
 30
0.0
 11
263.303194
 21
450.590619
 31
0.0
  0
INSERT
  5
2D5
102
{ACAD_REACTORS
330
330
102
}
100
AcDbEntity
  8
LC-006-005-----0
370
    25
390
0
 62
     2
100
AcDbBlockReference
  2
*X15
 10
0.0
 20
0.0
 30
0.0
  0
INSERT
  5
2DF
102
{ACAD_REACTORS
330
330
102
}
100
AcDbEntity
  8
LC-006-005-----0
370
    25
390
0
 62
     2
100
AcDbBlockReference
  2
*X16
 10
0.0
 20
0.0
 30
0.0
  0
LINE
  5
2E0
102
{ACAD_REACTORS
330
330
102
}
100
AcDbEntity
  8
LC-001-002-----0
370
    50
390
0
 62
     1
100
AcDbLine
 10
158.518923
 20
429.690487
 30
0.0
 11
270.910229
 21
429.690487
 31
0.0
  0
LINE
  5
2E1
102
{ACAD_REACTORS
330
330
102
}
100
AcDbEntity
  8
LC-001-002-----0
370
    50
390
0
 62
     1
100
AcDbLine
 10
156.821978
 20
425.028169
 30
0.0
 11
272.607187
 21
425.028169
 31
0.0
  0
INSERT
  5
2F1
102
{ACAD_REACTORS
330
330
102
}
100
AcDbEntity
  8
LC-006-005-----0
370
    25
390
0
 62
     2
100
AcDbBlockReference
  2
*X17
 10
0.0
 20
0.0
 30
0.0
  0
LINE
  5
2F2
102
{ACAD_REACTORS
330
330
102
}
100
AcDbEntity
  8
LC-001-002-----0
370
    50
390
0
 62
     1
100
AcDbLine
 10
226.514642
 20
381.690521
 30
0.0
 11
226.51467
 21
361.390487
 31
0.0
  0
LINE
  5
2F3
102
{ACAD_REACTORS
330
330
102
}
100
AcDbEntity
  8
LC-001-002-----0
370
    50
390
0
 62
     1
100
AcDbLine
 10
202.91467
 20
361.390487
 30
0.0
 11
226.51467
 21
361.390487
 31
0.0
  0
LINE
  5
2F4
102
{ACAD_REACTORS
330
330
102
}
100
AcDbEntity
  8
LC-001-002-----0
370
    50
390
0
 62
     1
100
AcDbLine
 10
202.914642
 20
381.690488
 30
0.0
 11
202.91467
 21
361.390487
 31
0.0
  0
LINE
  5
2F5
102
{ACAD_REACTORS
330
330
102
}
100
AcDbEntity
  8
LC-001-002-----0
370
    50
390
0
 62
     1
100
AcDbLine
 10
144.214904
 20
382.690487
 30
0.0
 11
202.065558
 21
382.690487
 31
0.0
  0
LINE
  5
2F6
102
{ACAD_REACTORS
330
330
102
}
100
AcDbEntity
  8
LC-001-002-----0
370
    50
390
0
 62
     1
100
AcDbLine
 10
200.914642
 20
381.690486
 30
0.0
 11
200.914653
 21
373.690487
 31
0.0
  0
LINE
  5
2F7
102
{ACAD_REACTORS
330
330
102
}
100
AcDbEntity
  8
LC-001-002-----0
370
    50
390
0
 62
     1
100
AcDbLine
 10
228.514642
 20
381.690524
 30
0.0
 11
228.514653
 21
373.690525
 31
0.0
  0
ARC
  5
2F8
102
{ACAD_REACTORS
330
330
102
}
100
AcDbEntity
  8
LC-002-002-RND-0
370
    50
390
0
 62
     1
100
AcDbCircle
 10
201.914642
 20
381.690487
 30
0.0
 40
1.0
100
AcDbArc
 50
90.0
 51
180.000079
  0
LINE
  5
2F9
102
{ACAD_REACTORS
330
330
102
}
100
AcDbEntity
  8
LC-001-002-----0
370
    50
390
0
 62
     1
100
AcDbLine
 10
201.176739
 20
382.690487
 30
0.0
 11
285.214377
 21
382.690487
 31
0.0
  0
ARC
  5
2FA
102
{ACAD_REACTORS
330
330
102
}
100
AcDbEntity
  8
LC-002-002-RND-0
370
    50
390
0
 62
     1
100
AcDbCircle
 10
201.914642
 20
381.690487
 30
0.0
 40
1.0
100
AcDbArc
 50
0.000079
 51
90.0
  0
ARC
  5
2FB
102
{ACAD_REACTORS
330
330
102
}
100
AcDbEntity
  8
LC-002-002-RND-0
370
    50
390
0
 62
     1
100
AcDbCircle
 10
227.514642
 20
381.690522
 30
0.0
 40
1.0
100
AcDbArc
 50
0.000079
 51
90.000157
  0
ARC
  5
2FC
102
{ACAD_REACTORS
330
330
102
}
100
AcDbEntity
  8
LC-002-002-RND-0
370
    50
390
0
 62
     1
100
AcDbCircle
 10
227.514642
 20
381.690522
 30
0.0
 40
1.0
100
AcDbArc
 50
90.000157
 51
180.000079
  0
LINE
  5
2FD
102
{ACAD_REACTORS
330
330
102
}
100
AcDbEntity
  8
LC-001-002-----0
370
    50
390
0
 62
     1
100
AcDbLine
 10
228.514653
 20
373.690487
 30
0.0
 11
285.71439
 21
373.690487
 31
0.0
  0
LINE
  5
2FE
102
{ACAD_REACTORS
330
330
102
}
100
AcDbEntity
  8
LC-001-002-----0
370
    50
390
0
 62
     1
100
AcDbLine
 10
213.564891
 20
425.028169
 30
0.0
 11
213.564891
 21
390.390487
 31
0.0
  0
LINE
  5
2FF
102
{ACAD_REACTORS
330
330
102
}
100
AcDbEntity
  8
LC-001-002-----0
370
    50
390
0
 62
     1
100
AcDbLine
 10
215.864891
 20
425.028169
 30
0.0
 11
215.864891
 21
390.390487
 31
0.0
  0
LINE
  5
300
102
{ACAD_REACTORS
330
330
102
}
100
AcDbEntity
  8
LC-001-002-----0
370
    50
390
0
 62
     1
100
AcDbLine
 10
143.714904
 20
382.690487
 30
0.0
 11
144.214904
 21
382.690487
 31
0.0
  0
LINE
  5
301
102
{ACAD_REACTORS
330
330
102
}
100
AcDbEntity
  8
LC-001-002-----0
370
    50
390
0
 62
     1
100
AcDbLine
 10
132.321629
 20
390.390487
 30
0.0
 11
297.107236
 21
390.390487
 31
0.0
  0
LINE
  5
302
102
{ACAD_REACTORS
330
330
102
}
100
AcDbEntity
  8
LC-001-002-----0
370
    50
390
0
 62
     1
100
AcDbLine
 10
144.214893
 20
390.390487
 30
0.0
 11
144.214904
 21
382.690487
 31
0.0
  0
LINE
  5
303
102
{ACAD_REACTORS
330
330
102
}
100
AcDbEntity
  8
LC-001-002-----0
370
    50
390
0
 62
     1
100
AcDbLine
 10
140.814893
 20
390.390487
 30
0.0
 11
140.814929
 21
363.890488
 31
0.0
  0
LINE
  5
304
102
{ACAD_REACTORS
330
330
102
}
100
AcDbEntity
  8
LC-001-002-----0
370
    50
390
0
 62
     1
100
AcDbLine
 10
163.107876
 20
429.690487
 30
0.0
 11
171.714665
 21
450.590493
 31
0.0
  0
LINE
  5
305
102
{ACAD_REACTORS
330
330
102
}
100
AcDbEntity
  8
LC-001-002-----0
370
    50
390
0
 62
     1
100
AcDbLine
 10
154.243223
 20
390.390487
 30
0.0
 11
167.032041
 21
425.028169
 31
0.0
  0
LINE
  5
306
102
{ACAD_REACTORS
330
330
102
}
100
AcDbEntity
  8
LC-001-002-----0
370
    50
390
0
 62
     1
100
AcDbLine
 10
180.46551
 20
390.390487
 30
0.0
 11
187.849134
 21
425.028169
 31
0.0
  0
LINE
  5
307
102
{ACAD_REACTORS
330
330
102
}
100
AcDbEntity
  8
LC-001-002-----0
370
    50
390
0
 62
     1
100
AcDbLine
 10
178.473651
 20
390.390487
 30
0.0
 11
185.857276
 21
425.028169
 31
0.0
  0
LINE
  5
308
102
{ACAD_REACTORS
330
330
102
}
100
AcDbEntity
  8
LC-001-002-----0
370
    50
390
0
 62
     1
100
AcDbLine
 10
195.359761
 20
390.390487
 30
0.0
 11
199.181805
 21
425.028169
 31
0.0
  0
LINE
  5
309
102
{ACAD_REACTORS
330
330
102
}
100
AcDbEntity
  8
LC-001-002-----0
370
    50
390
0
 62
     1
100
AcDbLine
 10
197.58139
 20
390.390487
 30
0.0
 11
201.403435
 21
425.028169
 31
0.0
  0
LINE
  5
30A
102
{ACAD_REACTORS
330
330
102
}
100
AcDbEntity
  8
LC-001-002-----0
370
    50
390
0
 62
     1
100
AcDbLine
 10
153.093223
 20
390.390487
 30
0.0
 11
165.882041
 21
425.028169
 31
0.0
  0
LINE
  5
30B
102
{ACAD_REACTORS
330
330
102
}
100
AcDbEntity
  8
LC-001-002-----0
370
    50
390
0
 62
     1
100
AcDbLine
 10
162.512592
 20
429.690487
 30
0.0
 11
171.119381
 21
450.590492
 31
0.0
  0
LINE
  5
30C
102
{ACAD_REACTORS
330
330
102
}
100
AcDbEntity
  8
LC-001-002-----0
370
    50
390
0
 62
     1
100
AcDbLine
 10
165.683668
 20
390.390487
 30
0.0
 11
176.143919
 21
425.028169
 31
0.0
  0
LINE
  5
30D
102
{ACAD_REACTORS
330
330
102
}
100
AcDbEntity
  8
LC-001-002-----0
370
    50
390
0
 62
     1
100
AcDbLine
 10
164.057322
 20
390.390487
 30
0.0
 11
174.499347
 21
425.028169
 31
0.0
  0
LINE
  5
30E
102
{ACAD_REACTORS
330
330
102
}
100
AcDbEntity
  8
LC-001-002-----0
370
    50
390
0
 62
     1
100
AcDbLine
 10
167.603447
 20
429.690487
 30
0.0
 11
175.320085
 21
450.590498
 31
0.0
  0
LINE
  5
30F
102
{ACAD_REACTORS
330
330
102
}
100
AcDbEntity
  8
LC-001-002-----0
370
    50
390
0
 62
     1
100
AcDbLine
 10
168.753447
 20
429.690487
 30
0.0
 11
176.470085
 21
450.5905
 31
0.0
  0
LINE
  5
310
102
{ACAD_REACTORS
330
330
102
}
100
AcDbEntity
  8
LC-001-002-----0
370
    50
390
0
 62
     1
100
AcDbLine
 10
146.923822
 20
390.390487
 30
0.0
 11
161.187896
 21
425.028169
 31
0.0
  0
LINE
  5
311
102
{ACAD_REACTORS
330
330
102
}
100
AcDbEntity
  8
LC-001-002-----0
370
    50
390
0
 62
     1
100
AcDbLine
 10
146.328538
 20
390.390487
 30
0.0
 11
160.592613
 21
425.028169
 31
0.0
  0
LINE
  5
312
102
{ACAD_REACTORS
330
330
102
}
100
AcDbEntity
  8
LC-001-002-----0
370
    50
390
0
 62
     1
100
AcDbLine
 10
175.904869
 20
429.690487
 30
0.0
 11
182.205479
 21
450.590508
 31
0.0
  0
LINE
  5
313
102
{ACAD_REACTORS
330
330
102
}
100
AcDbEntity
  8
LC-001-002-----0
370
    50
390
0
 62
     1
100
AcDbLine
 10
177.551894
 20
429.690487
 30
0.0
 11
183.863502
 21
450.59051
 31
0.0
  0
LINE
  5
314
102
{ACAD_REACTORS
330
330
102
}
100
AcDbEntity
  8
LC-001-002-----0
370
    50
390
0
 62
     1
100
AcDbLine
 10
186.85113
 20
429.690487
 30
0.0
 11
191.306336
 21
450.59052
 31
0.0
  0
LINE
  5
315
102
{ACAD_REACTORS
330
330
102
}
100
AcDbEntity
  8
LC-001-002-----0
370
    50
390
0
 62
     1
100
AcDbLine
 10
188.842988
 20
429.690487
 30
0.0
 11
193.298195
 21
450.590523
 31
0.0
  0
LINE
  5
316
102
{ACAD_REACTORS
330
330
102
}
100
AcDbEntity
  8
LC-001-002-----0
370
    50
390
0
 62
     1
100
AcDbLine
 10
199.696262
 20
429.690487
 30
0.0
 11
202.002447
 21
450.590535
 31
0.0
  0
LINE
  5
317
102
{ACAD_REACTORS
330
330
102
}
100
AcDbEntity
  8
LC-001-002-----0
370
    50
390
0
 62
     1
100
AcDbLine
 10
201.917891
 20
429.690487
 30
0.0
 11
204.224077
 21
450.590538
 31
0.0
  0
LINE
  5
318
102
{ACAD_REACTORS
330
330
102
}
100
AcDbEntity
  8
LC-001-002-----0
370
    50
390
0
 62
     1
100
AcDbLine
 10
231.84787
 20
390.390534
 30
0.0
 11
228.02573
 21
425.028206
 31
0.0
  0
LINE
  5
319
102
{ACAD_REACTORS
330
330
102
}
100
AcDbEntity
  8
LC-001-002-----0
370
    50
390
0
 62
     1
100
AcDbLine
 10
234.069499
 20
390.39054
 30
0.0
 11
230.24736
 21
425.028212
 31
0.0
  0
LINE
  5
31A
102
{ACAD_REACTORS
330
330
102
}
100
AcDbEntity
  8
LC-001-002-----0
370
    50
390
0
 62
     1
100
AcDbLine
 10
227.511261
 20
429.690522
 30
0.0
 11
225.205018
 21
450.590567
 31
0.0
  0
LINE
  5
31B
102
{ACAD_REACTORS
330
330
102
}
100
AcDbEntity
  8
LC-001-002-----0
370
    50
390
0
 62
     1
100
AcDbLine
 10
229.73289
 20
429.690528
 30
0.0
 11
227.426648
 21
450.59057
 31
0.0
  0
LINE
  5
31C
102
{ACAD_REACTORS
330
330
102
}
100
AcDbEntity
  8
LC-001-002-----0
370
    50
390
0
 62
     1
100
AcDbLine
 10
240.586164
 20
429.690558
 30
0.0
 11
236.1309
 21
450.590582
 31
0.0
  0
LINE
  5
31D
102
{ACAD_REACTORS
330
330
102
}
100
AcDbEntity
  8
LC-001-002-----0
370
    50
390
0
 62
     1
100
AcDbLine
 10
242.578022
 20
429.690563
 30
0.0
 11
238.122759
 21
450.590584
 31
0.0
  0
LINE
  5
31E
102
{ACAD_REACTORS
330
330
102
}
100
AcDbEntity
  8
LC-001-002-----0
370
    50
390
0
 62
     1
100
AcDbLine
 10
251.877258
 20
429.690589
 30
0.0
 11
245.565593
 21
450.590595
 31
0.0
  0
LINE
  5
31F
102
{ACAD_REACTORS
330
330
102
}
100
AcDbEntity
  8
LC-001-002-----0
370
    50
390
0
 62
     1
100
AcDbLine
 10
253.524283
 20
429.690593
 30
0.0
 11
247.223616
 21
450.590597
 31
0.0
  0
LINE
  5
320
102
{ACAD_REACTORS
330
330
102
}
100
AcDbEntity
  8
LC-001-002-----0
370
    50
390
0
 62
     1
100
AcDbLine
 10
250.955609
 20
390.390586
 30
0.0
 11
243.571889
 21
425.028249
 31
0.0
  0
LINE
  5
321
102
{ACAD_REACTORS
330
330
102
}
100
AcDbEntity
  8
LC-001-002-----0
370
    50
390
0
 62
     1
100
AcDbLine
 10
248.96375
 20
390.390581
 30
0.0
 11
241.580031
 21
425.028243
 31
0.0
  0
LINE
  5
322
102
{ACAD_REACTORS
330
330
102
}
100
AcDbEntity
  8
LC-001-002-----0
370
    50
390
0
 62
     1
100
AcDbLine
 10
263.745592
 20
390.390622
 30
0.0
 11
253.285246
 21
425.028275
 31
0.0
  0
LINE
  5
323
102
{ACAD_REACTORS
330
330
102
}
100
AcDbEntity
  8
LC-001-002-----0
370
    50
390
0
 62
     1
100
AcDbLine
 10
265.371938
 20
390.390626
 30
0.0
 11
254.929818
 21
425.02828
 31
0.0
  0
LINE
  5
324
102
{ACAD_REACTORS
330
330
102
}
100
AcDbEntity
  8
LC-001-002-----0
370
    50
390
0
 62
     1
100
AcDbLine
 10
275.186037
 20
390.390653
 30
0.0
 11
262.397124
 21
425.0283
 31
0.0
  0
LINE
  5
325
102
{ACAD_REACTORS
330
330
102
}
100
AcDbEntity
  8
LC-001-002-----0
370
    50
390
0
 62
     1
100
AcDbLine
 10
276.336037
 20
390.390656
 30
0.0
 11
263.547124
 21
425.028303
 31
0.0
  0
LINE
  5
326
102
{ACAD_REACTORS
330
330
102
}
100
AcDbEntity
  8
LC-001-002-----0
370
    50
390
0
 62
     1
100
AcDbLine
 10
260.675705
 20
429.690613
 30
0.0
 11
252.95901
 21
450.590605
 31
0.0
  0
LINE
  5
327
102
{ACAD_REACTORS
330
330
102
}
100
AcDbEntity
  8
LC-001-002-----0
370
    50
390
0
 62
     1
100
AcDbLine
 10
261.825705
 20
429.690616
 30
0.0
 11
254.10901
 21
450.590606
 31
0.0
  0
LINE
  5
328
102
{ACAD_REACTORS
330
330
102
}
100
AcDbEntity
  8
LC-001-002-----0
370
    50
390
0
 62
     1
100
AcDbLine
 10
266.321276
 20
429.690629
 30
0.0
 11
257.71443
 21
450.590611
 31
0.0
  0
LINE
  5
329
102
{ACAD_REACTORS
330
330
102
}
100
AcDbEntity
  8
LC-001-002-----0
370
    50
390
0
 62
     1
100
AcDbLine
 10
266.321276
 20
429.690629
 30
0.0
 11
257.71443
 21
450.590611
 31
0.0
  0
LINE
  5
32A
102
{ACAD_REACTORS
330
330
102
}
100
AcDbEntity
  8
LC-001-002-----0
370
    50
390
0
 62
     1
100
AcDbLine
 10
266.91656
 20
429.69063
 30
0.0
 11
258.309713
 21
450.590612
 31
0.0
  0
LINE
  5
32B
102
{ACAD_REACTORS
330
330
102
}
100
AcDbEntity
  8
LC-001-002-----0
370
    50
390
0
 62
     1
100
AcDbLine
 10
282.505438
 20
390.390673
 30
0.0
 11
268.241269
 21
425.028316
 31
0.0
  0
LINE
  5
32C
102
{ACAD_REACTORS
330
330
102
}
100
AcDbEntity
  8
LC-001-002-----0
370
    50
390
0
 62
     1
100
AcDbLine
 10
283.100722
 20
390.390675
 30
0.0
 11
268.836552
 21
425.028318
 31
0.0
  0
LINE
  5
32D
100
AcDbEntity
  8
LC-001-002-----0
370
    50
390
0
 62
     1
100
AcDbLine
 10
200.914212
 20
373.690487
 30
0.0
 11
143.714475
 21
373.690487
 31
0.0
  0
LINE
  5
32E
100
AcDbEntity
  8
LC-001-002-----0
370
    50
390
0
 62
     1
100
AcDbLine
 10
297.107236
 20
390.390487
 30
0.0
 11
132.321629
 21
390.390487
 31
0.0
  0
ENDSEC
  0
SECTION
  2
OBJECTS
  0
DICTIONARY
  5
19
100
AcDbDictionary
280
     0
281
     1
  3
ACAD_GROUP
350
1A
  3
ACAD_MLINESTYLE
350
1B
  3
ACAD_LAYOUT
350
1E
  3
ACAD_PLOTSETTINGS
350
22
  3
ACAD_PLOTSTYLENAME
350
1F
  0
DICTIONARY
  5
1A
102
{ACAD_REACTORS
330
19
102
}
100
AcDbDictionary
280
     0
281
     1
  3
Laubfang
350
330
  3
deckel
350
331
  3
Gehõuse
350
332
  3
GRP194
350
333
  3
GRP222
350
334
  3
GRP227
350
335
  0
DICTIONARY
  5
1B
102
{ACAD_REACTORS
330
19
102
}
100
AcDbDictionary
280
     0
281
     1
  3
Standard
350
1C
  0
MLINESTYLE
  5
1C
102
{ACAD_REACTORS
330
1B
102
}
100
AcDbMlineStyle
  2
Standard
 70
     0
  3

 62
     0
 51
90.0
 52
90.0
 71
     2
 49
0.5
 62
   256
  6
ByLayer
 49
-0.5
 62
   256
  6
ByLayer
  0
ACDBDICTIONARYWDFLT
  5
1F
102
{ACAD_REACTORS
330
19
102
}
100
AcDbDictionary
281
     1
  3
Normal
350
1D
100
AcDbDictionaryWithDefault
340
1D
  0
ACDBPLACEHOLDER
  5
1D
102
{ACAD_REACTORS
330
1F
102
}
  0
LAYOUT
  5
20
102
{ACAD_REACTORS
330
1E
102
}
100
AcDbPlotSettings
  1

  2

  4

  6

 40
0.0
 41
0.0
 42
0.0
 43
0.0
 44
0.0
 45
0.0
 46
0.0
 47
0.0
 48
0.0
 49
0.0
140
0.0
141
0.0
142
1.0
143
1.0
 70
  1152
 72
     0
 73
     0
 74
     0
  7

 75
     0
147
1.0
148
0.0
149
0.0
100
AcDbLayout
  1
Model
 70
     0
 71
     0
 10
0.0
 20
0.0
 11
0.0
 21
0.0
 12
0.0
 22
0.0
 32
0.0
 14
0.0
 24
0.0
 34
0.0
 15
0.0
 25
0.0
 35
0.0
146
0.0
 13
0.0
 23
0.0
 33
0.0
 16
0.0
 26
0.0
 36
0.0
 17
0.0
 27
0.0
 37
0.0
 76
     0
330
A
331
0
345
0
346
0
  0
LAYOUT
  5
21
102
{ACAD_REACTORS
330
1E
102
}
100
AcDbPlotSettings
  1

  2

  4

  6

 40
0.0
 41
0.0
 42
0.0
 43
0.0
 44
0.0
 45
0.0
 46
0.0
 47
0.0
 48
0.0
 49
0.0
140
0.0
141
0.0
142
1.0
143
1.0
 70
   128
 72
     0
 73
     0
 74
     0
  7

 75
     0
147
1.0
148
0.0
149
0.0
100
AcDbLayout
  1
Layout1
 70
     0
 71
     0
 10
0.0
 20
0.0
 11
0.0
 21
0.0
 12
0.0
 22
0.0
 32
0.0
 14
0.0
 24
0.0
 34
0.0
 15
0.0
 25
0.0
 35
0.0
146
0.0
 13
0.0
 23
0.0
 33
0.0
 16
0.0
 26
0.0
 36
0.0
 17
0.0
 27
0.0
 37
0.0
 76
     0
330
B
331
0
345
0
346
0
  0
DICTIONARY
  5
1E
102
{ACAD_REACTORS
330
19
102
}
100
AcDbDictionary
280
     0
281
     1
  3
Layout1
350
21
  3
Model
350
20
  0
DICTIONARY
  5
22
102
{ACAD_REACTORS
330
19
102
}
100
AcDbDictionary
280
     0
281
     1
  0
GROUP
  5
330
102
{ACAD_REACTORS
330
1A
102
}
100
AcDbGroup
300
Laubfang
 70
     0
 71
     1
340
291
340
292
340
293
340
294
340
295
340
296
340
297
340
298
340
299
340
29A
340
29B
340
29C
340
29D
340
29F
340
2A0
340
2B1
340
2B2
340
2B3
340
2B4
340
2B5
340
2B6
340
2B7
340
2B8
340
2B9
340
2BA
340
2BB
340
2BC
340
2BD
340
2BE
340
2BF
340
2C0
340
2C1
340
2C2
340
2C3
340
2C4
340
2C5
340
2C6
340
2C7
340
2C8
340
2C9
340
2CA
340
2CB
340
2CC
340
2CD
340
2CE
340
2CF
340
2D5
340
2DF
340
2E0
340
2E1
340
2F1
340
2F2
340
2F3
340
2F4
340
2F5
340
2F6
340
2F7
340
2F8
340
2F9
340
2FA
340
2FB
340
2FC
340
2FD
340
2FE
340
2FF
340
300
340
301
340
302
340
303
340
304
340
305
340
306
340
307
340
308
340
309
340
30A
340
30B
340
30C
340
30D
340
30E
340
30F
340
310
340
311
340
312
340
313
340
314
340
315
340
316
340
317
340
318
340
319
340
31A
340
31B
340
31C
340
31D
340
31E
340
31F
340
320
340
321
340
322
340
323
340
324
340
325
340
326
340
327
340
328
340
329
340
32A
340
32B
340
32C
  0
GROUP
  5
331
102
{ACAD_REACTORS
330
1A
102
}
100
AcDbGroup
300
deckel
 70
     0
 71
     1
340
1A4
340
1A5
340
1A6
340
1A7
340
1A8
340
1A9
340
1AA
340
1AB
340
1AC
340
1AD
340
1AE
340
1AF
340
1B0
340
1B1
340
1B2
340
1B3
340
1B4
340
1B5
340
1B6
340
1B7
340
1B8
340
1B9
340
1BA
340
1BB
340
1BC
340
1BD
340
1BE
340
1BF
340
1C0
340
1C1
340
1C2
340
1C3
  0
GROUP
  5
332
102
{ACAD_REACTORS
330
1A
102
}
100
AcDbGroup
300
Gehõuse
 70
     0
 71
     1
340
218
340
21A
340
21B
340
21C
340
21D
340
21E
340
21F
340
220
340
221
340
223
340
224
340
225
340
226
340
227
340
228
340
229
340
22A
340
22B
340
22C
340
22D
340
22E
340
22F
340
230
340
231
340
232
340
23E
340
24A
340
24B
340
24C
  0
GROUP
  5
333
102
{ACAD_REACTORS
330
1A
102
}
100
AcDbGroup
300
GRP194
 70
     0
 71
     1
  0
GROUP
  5
334
102
{ACAD_REACTORS
330
1A
102
}
100
AcDbGroup
300
GRP222-LCMaster-GRP194
 70
     0
 71
     1
  0
GROUP
  5
335
102
{ACAD_REACTORS
330
1A
102
}
100
AcDbGroup
300
GRP227-LCMaster-GRP222
 70
     0
 71
     1
340
2C
340
2E
340
2F
340
30
340
31
340
32
340
33
340
34
340
35
340
36
340
37
340
38
340
39
340
3A
340
3B
340
3C
340
3D
340
3E
340
3F
340
40
340
41
340
42
340
43
340
44
340
45
340
46
340
47
340
48
340
49
340
4A
340
4B
340
4C
340
4D
340
4E
340
4F
340
50
340
51
340
52
340
55
340
57
340
58
340
59
340
5A
340
5B
340
5C
340
5D
340
5E
340
5F
340
60
340
61
340
62
340
63
340
64
340
65
340
66
340
67
340
68
340
69
340
6A
340
6B
340
6C
340
6D
340
6E
340
6F
340
70
340
71
340
72
340
73
340
74
340
75
340
76
340
77
340
78
340
79
340
7A
340
7B
340
7C
340
7D
340
7E
340
7F
340
80
340
81
340
82
340
83
340
84
340
85
340
A7
340
A8
340
A9
340
AA
340
AB
340
122
340
199
340
19E
340
1A3
  0
ENDSEC
  0
EOF
