  0
SECTION
  2
HEADER
  9
$ACADVER
  1
AC1009
  9
$INSBASE
 10
0.0
 20
0.0
 30
0.0
  9
$EXTMIN
 10
-213.194529
 20
-32.94
 30
0.0
  9
$EXTMAX
 10
626.805471
 20
561.06
 30
0.0
  9
$LIMMIN
 10
-213.194529
 20
-32.94
  9
$LIMMAX
 10
626.805471
 20
561.06
  9
$ORTHOMODE
 70
     0
  9
$REGENMODE
 70
     1
  9
$FILLMODE
 70
     1
  9
$QTEXTMODE
 70
     0
  9
$MIRRTEXT
 70
     1
  9
$DRAGMODE
 70
     2
  9
$LTSCALE
 40
2.0
  9
$OSMODE
 70
     0
  9
$ATTMODE
 70
     1
  9
$TEXTSIZE
 40
0.2
  9
$TRACEWID
 40
0.05
  9
$TEXTSTYLE
  7
STANDARD
  9
$CLAYER
  8
0
  9
$CELTYPE
  6
BYLAYER
  9
$CECOLOR
 62
     7
  9
$DIMSCALE
 40
2.0
  9
$DIMASZ
 40
3.5
  9
$DIMEXO
 40
0.0625
  9
$DIMDLI
 40
0.38
  9
$DIMRND
 40
0.0
  9
$DIMDLE
 40
0.0
  9
$DIMEXE
 40
0.18
  9
$DIMTP
 40
0.0
  9
$DIMTM
 40
0.0
  9
$DIMTXT
 40
3.5
  9
$DIMCEN
 40
0.09
  9
$DIMTSZ
 40
0.0
  9
$DIMTOL
 70
     0
  9
$DIMLIM
 70
     0
  9
$DIMTIH
 70
     1
  9
$DIMTOH
 70
     1
  9
$DIMSE1
 70
     0
  9
$DIMSE2
 70
     0
  9
$DIMTAD
 70
     1
  9
$DIMZIN
 70
     0
  9
$DIMBLK
  1

  9
$DIMASO
 70
     1
  9
$DIMSHO
 70
     1
  9
$DIMPOST
  1

  9
$DIMAPOST
  1

  9
$DIMALT
 70
     0
  9
$DIMALTD
 70
     2
  9
$DIMALTF
 40
25.4
  9
$DIMLFAC
 40
1.0
  9
$DIMTOFL
 70
     0
  9
$DIMTVP
 40
0.0
  9
$DIMTIX
 70
     0
  9
$DIMSOXD
 70
     0
  9
$DIMSAH
 70
     0
  9
$DIMBLK1
  1

  9
$DIMBLK2
  1

  9
$DIMSTYLE
  2
STANDARD
  9
$DIMCLRD
 70
     0
  9
$DIMCLRE
 70
     0
  9
$DIMCLRT
 70
     0
  9
$DIMTFAC
 40
1.0
  9
$DIMGAP
 40
0.09
  9
$LUNITS
 70
     2
  9
$LUPREC
 70
     2
  9
$AXISMODE
 70
     0
  9
$AXISUNIT
 10
0.0
 20
0.0
  9
$SKETCHINC
 40
0.1
  9
$FILLETRAD
 40
0.0
  9
$AUNITS
 70
     0
  9
$AUPREC
 70
     0
  9
$MENU
  1
acad
  9
$ELEVATION
 40
0.0
  9
$PELEVATION
 40
0.0
  9
$THICKNESS
 40
0.0
  9
$LIMCHECK
 70
     0
  9
$BLIPMODE
 70
     1
  9
$CHAMFERA
 40
0.0
  9
$CHAMFERB
 40
0.0
  9
$SKPOLY
 70
     0
  9
$TDCREATE
 40
0.000000000
  9
$TDUPDATE
 40
0.000000000
  9
$TDINDWG
 40
0.0000000000
  9
$TDUSRTIMER
 40
0.0000000000
  9
$USRTIMER
 70
     1
  9
$ANGBASE
 50
0.0
  9
$ANGDIR
 70
     0
  9
$PDMODE
 70
     0
  9
$PDSIZE
 40
0.0
  9
$PLINEWID
 40
0.0
  9
$COORDS
 70
     0
  9
$SPLFRAME
 70
     0
  9
$SPLINETYPE
 70
     6
  9
$SPLINESEGS
 70
     8
  9
$ATTDIA
 70
     0
  9
$ATTREQ
 70
     1
  9
$HANDLING
 70
     1
  9
$HANDSEED
  5
701
  9
$SURFTAB1
 70
     6
  9
$SURFTAB2
 70
     6
  9
$SURFTYPE
 70
     6
  9
$SURFU
 70
     6
  9
$SURFV
 70
     6
  9
$UCSNAME
  2

  9
$UCSORG
 10
0.0
 20
0.0
 30
0.0
  9
$UCSXDIR
 10
1.0
 20
0.0
 30
0.0
  9
$UCSYDIR
 10
0.0
 20
1.0
 30
0.0
  9
$PUCSNAME
  2

  9
$PUCSORG
 10
0.0
 20
0.0
 30
0.0
  9
$PUCSXDIR
 10
1.0
 20
0.0
 30
0.0
  9
$PUCSYDIR
 10
0.0
 20
1.0
 30
0.0
  9
$USERI1
 70
     0
  9
$USERI2
 70
     0
  9
$USERI3
 70
     0
  9
$USERI4
 70
     0
  9
$USERI5
 70
     0
  9
$USERR1
 40
0.0
  9
$USERR2
 40
0.0
  9
$USERR3
 40
0.0
  9
$USERR4
 40
0.0
  9
$USERR5
 40
0.0
  9
$WORLDVIEW
 70
     1
  9
$SHADEDGE
 70
     3
  9
$SHADEDIF
 70
    70
  9
$TILEMODE
 70
     1
  9
$MAXACTVP
 70
    16
  9
$PINSBASE
 10
0.0
 20
0.0
 30
0.0
  9
$PLIMCHECK
 70
     0
  9
$PEXTMIN
 10
1.000000E+20
 20
1.000000E+20
 30
1.000000E+20
  9
$PEXTMAX
 10
-1.000000E+20
 20
-1.000000E+20
 30
-1.000000E+20
  9
$PLIMMIN
 10
-213.194529
 20
-32.94
  9
$PLIMMAX
 10
626.805471
 20
561.06
  9
$UNITMODE
 70
     0
  9
$VISRETAIN
 70
     0
  9
$PLINEGEN
 70
     1
  9
$PSLTSCALE
 70
     0
  9
$TREEDEPTH
 70
  3020
  9
$DWGCODEPAGE
  3
dos850
  0
ENDSEC
  0
SECTION
  2
TABLES
  0
TABLE
  2
VPORT
 70
     1
  0
VPORT
  2
*ACTIVE
 70
     0
 10
0.0
 20
0.0
 11
1.0
 21
1.0
 12
420.0
 22
297.0
 13
0.0
 23
0.0
 14
1.0
 24
1.0
 15
0.0
 25
0.0
 16
0.0
 26
0.0
 36
1.0
 17
-213.194529
 27
-32.94
 37
0.0
 40
594.0
 41
1.604229
 42
50.0
 43
0.0
 44
0.0
 50
0.0
 51
0.0
 71
     0
 72
   100
 73
     1
 74
     1
 75
     0
 76
     0
 77
     0
 78
     0
  0
ENDTAB
  0
TABLE
  2
LTYPE
 70
     3
  0
LTYPE
  2
CONTINUOUS
 70
    64
  3
Solid line
 72
    65
 73
     0
 40
0.0
  0
LTYPE
  2
DASHDOT
 70
    64
  3
__ . __ . __ . __ . __
 72
    65
 73
     4
 40
7.5
 49
5.0
 49
-1.25
 49
0.0
 49
-1.25
  0
LTYPE
  2
CENTER
 70
    64
  3
__ . __ . __ . __ . __
 72
    65
 73
     4
 40
7.5
 49
5.0
 49
-1.25
 49
0.0
 49
-1.25
  0
ENDTAB
  0
TABLE
  2
LAYER
 70
    13
  0
LAYER
  2
0
 70
     0
 62
     7
  6
CONTINUOUS
  0
LAYER
  2
LC-INFO-1-2-MM-A3-0
 70
     1
 62
    -1
  6
CONTINUOUS
  0
LAYER
  2
LC-005-003-MTH-0
 70
     0
 62
     2
  6
CONTINUOUS
  0
LAYER
  2
LC-004-003-----0
 70
     0
 62
     2
  6
CONTINUOUS
  0
LAYER
  2
LC-006-003-MTG-0
 70
     0
 62
     2
  6
CONTINUOUS
  0
LAYER
  2
LC-007-005-----0
 70
     0
 62
     2
  6
CONTINUOUS
  0
LAYER
  2
LC-001-002-----0
 70
     0
 62
     1
  6
CONTINUOUS
  0
LAYER
  2
LC-003-000-----0
 70
     0
 62
     7
  6
CONTINUOUS
  0
LAYER
  2
LC-008-000-----0
 70
     0
 62
     7
  6
CONTINUOUS
  0
LAYER
  2
LC-002-002-RND-0
 70
     0
 62
     1
  6
CONTINUOUS
  0
LAYER
  2
LC-009-007-KH--0
 70
     0
 62
     7
  6
DASHDOT
  0
LAYER
  2
LC-010-006-MLN-0
 70
     0
 62
     2
  6
CENTER
  0
LAYER
  2
LC-000
 70
     0
 62
     7
  6
CONTINUOUS
  0
ENDTAB
  0
TABLE
  2
STYLE
 70
     3
  0
STYLE
  2
STANDARD
 70
     0
 40
0.0
 41
1.0
 50
0.0
 71
     0
 42
0.0
  3
txt
  4

  0
STYLE
  2
LC-TXTSTYLE-150-400-0-0-A1
 70
    64
 40
0.0
 41
1.0
 50
15.0
 71
     0
 42
3.5
  3
Arial
  4

  0
STYLE
  2
LC-STANDARD
 70
    64
 40
0.0
 41
1.0
 50
0.0
 71
     0
 42
3.5
  3
MONOTXT
  4

  0
ENDTAB
  0
TABLE
  2
VIEW
 70
     0
  0
ENDTAB
  0
TABLE
  2
UCS
 70
     0
  0
ENDTAB
  0
TABLE
  2
APPID
 70
     1
  0
APPID
  2
ACAD
 70
     0
  0
ENDTAB
  0
TABLE
  2
DIMSTYLE
 70
     4
  0
DIMSTYLE
  2
STANDARD
 70
     0
  3

  4

  5

  6

  7

 40
1.0
 41
0.18
 42
0.0625
 43
0.38
 44
0.18
 45
0.0
 46
0.0
 47
0.0
 48
0.0
 71
     0
 72
     0
 73
     1
 74
     1
 75
     0
 76
     0
 77
     0
 78
     0
140
0.18
141
0.09
142
0.0
143
25.4
144
1.0
145
0.0
146
1.0
147
0.09
170
     0
171
     2
172
     0
173
     0
174
     0
175
     0
176
     0
177
     0
178
     0
  0
DIMSTYLE
  2
LC-STANDARD
 70
     0
  3

  4

  5

  6

  7

 40
1.0
 41
3.5
 42
0.0
 43
7.5
 44
1.8
 45
0.0
 46
0.0
 47
0.0
 48
0.0
 71
     0
 72
     0
 73
     0
 74
     0
 75
     0
 76
     0
 77
     1
 78
     8
140
3.5
141
0.0
142
0.0
143
25.4
144
1.0
145
0.0
146
0.71
147
1.5
170
     0
171
     2
172
     1
173
     0
174
     0
175
     0
176
     0
177
     0
178
     3
  0
DIMSTYLE
  2
LC-DIM-L-0140-02-02
 70
     0
  3

  4

  5

  6

  7

 40
2.0
 41
3.5
 42
0.0
 43
7.5
 44
1.8
 45
0.0
 46
0.0
 47
0.0
 48
0.0
 71
     0
 72
     0
 73
     0
 74
     0
 75
     0
 76
     0
 77
     1
 78
     8
140
14.0
141
0.0
142
0.0
143
25.4
144
1.0
145
0.0
146
0.71
147
1.5
170
     0
171
     2
172
     0
173
     0
174
     0
175
     0
176
     2
177
     2
178
     8
  0
DIMSTYLE
  2
LC-DIM-L-0140-01-02
 70
     0
  3

  4

  5

  6

  7

 40
2.0
 41
3.5
 42
0.0
 43
7.5
 44
1.8
 45
0.0
 46
0.0
 47
0.0
 48
0.0
 71
     0
 72
     0
 73
     0
 74
     0
 75
     0
 76
     0
 77
     1
 78
     8
140
14.0
141
0.0
142
0.0
143
25.4
144
1.0
145
0.0
146
0.71
147
1.5
170
     0
171
     2
172
     0
173
     0
174
     0
175
     0
176
     2
177
     2
178
     8
  0
ENDTAB
  0
ENDSEC
  0
SECTION
  2
BLOCKS
  0
BLOCK
  8
0
  5
24
  2
BLK1
 70
    64
 10
0.0
 20
0.0
 30
0.0
  3
BLK1
  0
ENDBLK
  8
0
  5
25
  0
BLOCK
  8
0
  5
27
  2
BLK2
 70
    64
 10
0.0
 20
0.0
 30
0.0
  3
BLK2
  0
ENDBLK
  8
0
  5
28
  0
BLOCK
  8
0
  5
2A
  2
*D2
 70
    65
 10
0.0
 20
0.0
 30
0.0
  3
*D2
  0
LINE
  8
LC-005-003-MTH-0
  6
CONTINUOUS
  5
2C
 10
-23.995179
 20
145.950875
 30
0.0
 11
-23.995179
 21
100.8
 31
0.0
  0
LINE
  8
LC-005-003-MTH-0
  6
CONTINUOUS
  5
2D
 10
51.004821
 20
145.950875
 30
0.0
 11
51.004821
 21
100.8
 31
0.0
  0
LINE
  8
LC-004-003-----0
  6
CONTINUOUS
  5
2F
 10
-51.755635
 20
113.945267
 30
0.0
 11
-23.995179
 21
117.6
 31
0.0
  0
LINE
  8
LC-004-003-----0
  6
CONTINUOUS
  5
30
 10
-23.995179
 20
117.6
 30
0.0
 11
-51.755635
 21
121.254733
 31
0.0
  0
LINE
  8
LC-004-003-----0
  6
CONTINUOUS
  5
31
 10
-51.755635
 20
121.254733
 30
0.0
 11
-51.755635
 21
113.945267
 31
0.0
  0
LINE
  8
LC-004-003-----0
  6
CONTINUOUS
  5
32
 10
-51.817916
 20
114.895497
 30
0.0
 11
-31.275179
 21
117.6
 31
0.0
  0
LINE
  8
LC-004-003-----0
  6
CONTINUOUS
  5
33
 10
-31.275179
 20
117.6
 30
0.0
 11
-51.817916
 21
120.304503
 31
0.0
  0
LINE
  8
LC-004-003-----0
  6
CONTINUOUS
  5
34
 10
-51.880198
 20
115.845728
 30
0.0
 11
-38.555179
 21
117.6
 31
0.0
  0
LINE
  8
LC-004-003-----0
  6
CONTINUOUS
  5
35
 10
-38.555179
 20
117.6
 30
0.0
 11
-51.880198
 21
119.354272
 31
0.0
  0
LINE
  8
LC-004-003-----0
  6
CONTINUOUS
  5
36
 10
-51.942479
 20
116.795959
 30
0.0
 11
-45.835179
 21
117.6
 31
0.0
  0
LINE
  8
LC-004-003-----0
  6
CONTINUOUS
  5
37
 10
-45.835179
 20
117.6
 30
0.0
 11
-51.942479
 21
118.404041
 31
0.0
  0
LINE
  8
LC-004-003-----0
  6
CONTINUOUS
  5
38
 10
78.765277
 20
121.254733
 30
0.0
 11
51.004821
 21
117.6
 31
0.0
  0
LINE
  8
LC-004-003-----0
  6
CONTINUOUS
  5
39
 10
51.004821
 20
117.6
 30
0.0
 11
78.765277
 21
113.945267
 31
0.0
  0
LINE
  8
LC-004-003-----0
  6
CONTINUOUS
  5
3A
 10
78.765277
 20
113.945267
 30
0.0
 11
78.765277
 21
121.254733
 31
0.0
  0
LINE
  8
LC-004-003-----0
  6
CONTINUOUS
  5
3B
 10
78.827559
 20
120.304503
 30
0.0
 11
58.284821
 21
117.6
 31
0.0
  0
LINE
  8
LC-004-003-----0
  6
CONTINUOUS
  5
3C
 10
58.284821
 20
117.6
 30
0.0
 11
78.827559
 21
114.895497
 31
0.0
  0
LINE
  8
LC-004-003-----0
  6
CONTINUOUS
  5
3D
 10
78.88984
 20
119.354272
 30
0.0
 11
65.564821
 21
117.6
 31
0.0
  0
LINE
  8
LC-004-003-----0
  6
CONTINUOUS
  5
3E
 10
65.564821
 20
117.6
 30
0.0
 11
78.88984
 21
115.845728
 31
0.0
  0
LINE
  8
LC-004-003-----0
  6
CONTINUOUS
  5
3F
 10
78.952122
 20
118.404041
 30
0.0
 11
72.844821
 21
117.6
 31
0.0
  0
LINE
  8
LC-004-003-----0
  6
CONTINUOUS
  5
40
 10
72.844821
 20
117.6
 30
0.0
 11
78.952122
 21
116.795959
 31
0.0
  0
LINE
  8
LC-006-003-MTG-0
  6
CONTINUOUS
  5
42
 10
-63.195179
 20
117.6
 30
0.0
 11
208.500166
 21
117.6
 31
0.0
  0
TEXT
  8
LC-004-003-----0
  6
CONTINUOUS
 62
     8
  5
43
 10
121.958226
 20
125.427554
 30
0.0
 40
28.0
  1
DN70
 41
0.9
 51
15.0
  7
LC-TXTSTYLE-150-400-0-0-A0
  0
ENDBLK
  8
0
  5
44
  0
BLOCK
  8
0
  5
46
  2
*X3
 70
    65
 10
-61.894834
 20
268.114251
 30
0.0
  3
*X3
  0
LINE
  8
LC-007-005-----0
  6
CONTINUOUS
  5
48
 10
-59.983296
 20
268.114251
 30
0.0
 11
-57.494836
 21
270.60271
 31
0.0
  0
LINE
  8
LC-007-005-----0
  6
CONTINUOUS
  5
49
 10
-61.891636
 20
269.034338
 30
0.0
 11
-60.803266
 21
270.122708
 31
0.0
  0
LINE
  8
LC-007-005-----0
  6
CONTINUOUS
  5
4A
 10
-60.403293
 20
270.522681
 30
0.0
 11
-57.49484
 21
273.431134
 31
0.0
  0
LINE
  8
LC-007-005-----0
  6
CONTINUOUS
  5
4B
 10
-60.39484
 20
273.359561
 30
0.0
 11
-57.494844
 21
276.259557
 31
0.0
  0
LINE
  8
LC-007-005-----0
  6
CONTINUOUS
  5
4C
 10
-60.394844
 20
276.187984
 30
0.0
 11
-57.494848
 21
279.08798
 31
0.0
  0
LINE
  8
LC-007-005-----0
  6
CONTINUOUS
  5
4D
 10
-60.394848
 20
279.016407
 30
0.0
 11
-57.494852
 21
281.916403
 31
0.0
  0
LINE
  8
LC-007-005-----0
  6
CONTINUOUS
  5
4E
 10
-60.394851
 20
281.844831
 30
0.0
 11
-57.494855
 21
284.744827
 31
0.0
  0
LINE
  8
LC-007-005-----0
  6
CONTINUOUS
  5
4F
 10
-60.394855
 20
284.673254
 30
0.0
 11
-57.494859
 21
287.57325
 31
0.0
  0
LINE
  8
LC-007-005-----0
  6
CONTINUOUS
  5
50
 10
-60.394859
 20
287.501677
 30
0.0
 11
-56.994864
 21
290.901672
 31
0.0
  0
LINE
  8
LC-007-005-----0
  6
CONTINUOUS
  5
51
 10
-60.394863
 20
290.3301
 30
0.0
 11
-56.994868
 21
293.730096
 31
0.0
  0
LINE
  8
LC-007-005-----0
  6
CONTINUOUS
  5
52
 10
-60.394867
 20
293.158524
 30
0.0
 11
-56.994872
 21
296.558519
 31
0.0
  0
LINE
  8
LC-007-005-----0
  6
CONTINUOUS
  5
53
 10
-60.394871
 20
295.986947
 30
0.0
 11
-59.267567
 21
297.114251
 31
0.0
  0
ENDBLK
  8
0
  5
54
  0
BLOCK
  8
0
  5
56
  2
*X4
 70
    65
 10
84.004601
 20
268.114446
 30
0.0
  3
*X4
  0
LINE
  8
LC-007-005-----0
  6
CONTINUOUS
  5
57
 10
87.095117
 20
268.114453
 30
0.0
 11
88.700543
 21
269.719879
 31
0.0
  0
LINE
  8
LC-007-005-----0
  6
CONTINUOUS
  5
58
 10
84.504641
 20
268.352404
 30
0.0
 11
87.404637
 21
271.2524
 31
0.0
  0
LINE
  8
LC-007-005-----0
  6
CONTINUOUS
  5
59
 10
84.504637
 20
271.180827
 30
0.0
 11
87.404633
 21
274.080823
 31
0.0
  0
LINE
  8
LC-007-005-----0
  6
CONTINUOUS
  5
5A
 10
84.504633
 20
274.00925
 30
0.0
 11
87.404629
 21
276.909246
 31
0.0
  0
LINE
  8
LC-007-005-----0
  6
CONTINUOUS
  5
5B
 10
84.504629
 20
276.837674
 30
0.0
 11
87.404625
 21
279.73767
 31
0.0
  0
LINE
  8
LC-007-005-----0
  6
CONTINUOUS
  5
5C
 10
84.504625
 20
279.666097
 30
0.0
 11
87.404621
 21
282.566093
 31
0.0
  0
LINE
  8
LC-007-005-----0
  6
CONTINUOUS
  5
5D
 10
84.504621
 20
282.49452
 30
0.0
 11
87.404617
 21
285.394516
 31
0.0
  0
LINE
  8
LC-007-005-----0
  6
CONTINUOUS
  5
5E
 10
84.504618
 20
285.322943
 30
0.0
 11
87.404614
 21
288.222939
 31
0.0
  0
LINE
  8
LC-007-005-----0
  6
CONTINUOUS
  5
5F
 10
84.504614
 20
288.151367
 30
0.0
 11
87.40461
 21
291.051363
 31
0.0
  0
LINE
  8
LC-007-005-----0
  6
CONTINUOUS
  5
60
 10
84.004611
 20
290.479791
 30
0.0
 11
87.404606
 21
293.879786
 31
0.0
  0
LINE
  8
LC-007-005-----0
  6
CONTINUOUS
  5
61
 10
84.004607
 20
293.308214
 30
0.0
 11
87.404602
 21
296.708209
 31
0.0
  0
LINE
  8
LC-007-005-----0
  6
CONTINUOUS
  5
62
 10
84.004603
 20
296.136637
 30
0.0
 11
84.982413
 21
297.114447
 31
0.0
  0
ENDBLK
  8
0
  5
63
  0
BLOCK
  8
0
  5
65
  2
*X5
 70
    65
 10
-44.387787
 20
331.751933
 30
0.0
  3
*X5
  0
LINE
  8
LC-007-005-----0
  6
CONTINUOUS
  5
66
 10
-44.364275
 20
331.816533
 30
0.0
 11
-42.690842
 21
333.489965
 31
0.0
  0
LINE
  8
LC-007-005-----0
  6
CONTINUOUS
  5
67
 10
-42.745698
 20
336.263537
 30
0.0
 11
-42.690842
 21
336.318393
 31
0.0
  0
LINE
  8
LC-007-005-----0
  6
CONTINUOUS
  5
68
 10
-31.16379
 20
367.644435
 30
0.0
 11
-27.95377
 21
370.854455
 31
0.0
  0
LINE
  8
LC-007-005-----0
  6
CONTINUOUS
  5
69
 10
-29.79708
 20
371.839572
 30
0.0
 11
-29.522395
 21
372.114257
 31
0.0
  0
ENDBLK
  8
0
  5
6A
  0
BLOCK
  8
0
  5
6C
  2
BLK3
 70
    64
 10
0.0
 20
0.0
 30
0.0
  3
BLK3
  0
ENDBLK
  8
0
  5
6D
  0
BLOCK
  8
0
  5
6F
  2
BLK4
 70
    64
 10
0.0
 20
0.0
 30
0.0
  3
BLK4
  0
ENDBLK
  8
0
  5
70
  0
BLOCK
  8
0
  5
72
  2
BLK5
 70
    64
 10
0.0
 20
0.0
 30
0.0
  3
BLK5
  0
ENDBLK
  8
0
  5
73
  0
BLOCK
  8
0
  5
75
  2
*X9
 70
    65
 10
54.504762
 20
331.752092
 30
0.0
  3
*X9
  0
LINE
  8
LC-007-005-----0
  6
CONTINUOUS
  5
76
 10
69.700473
 20
332.744196
 30
0.0
 11
70.679853
 21
333.723576
 31
0.0
  0
LINE
  8
LC-007-005-----0
  6
CONTINUOUS
  5
77
 10
69.700466
 20
335.572615
 30
0.0
 11
69.925094
 21
335.797244
 31
0.0
  0
LINE
  8
LC-007-005-----0
  6
CONTINUOUS
  5
78
 10
56.765761
 20
367.892745
 30
0.0
 11
57.848939
 21
368.975923
 31
0.0
  0
LINE
  8
LC-007-005-----0
  6
CONTINUOUS
  5
79
 10
55.479877
 20
369.435288
 30
0.0
 11
57.094179
 21
371.04959
 31
0.0
  0
LINE
  8
LC-007-005-----0
  6
CONTINUOUS
  5
7A
 10
54.725117
 20
371.508955
 30
0.0
 11
55.330536
 21
372.114374
 31
0.0
  0
ENDBLK
  8
0
  5
7B
  0
BLOCK
  8
0
  5
7D
  2
BLK6
 70
    64
 10
0.0
 20
0.0
 30
0.0
  3
BLK6
  0
ENDBLK
  8
0
  5
7E
  0
BLOCK
  8
0
  5
80
  2
BLK7
 70
    64
 10
0.0
 20
0.0
 30
0.0
  3
BLK7
  0
ENDBLK
  8
0
  5
81
  0
BLOCK
  8
0
  5
83
  2
*X12
 70
    65
 10
-63.745179
 20
259.000988
 30
0.0
  3
*X12
  0
LINE
  8
LC-007-005-----0
  6
CONTINUOUS
  5
84
 10
88.966934
 20
261.500988
 30
0.0
 11
90.754821
 21
263.288876
 31
0.0
  0
LINE
  8
LC-007-005-----0
  6
CONTINUOUS
  5
85
 10
86.754821
 20
262.117303
 30
0.0
 11
90.638507
 21
266.000988
 31
0.0
  0
LINE
  8
LC-007-005-----0
  6
CONTINUOUS
  5
86
 10
80.810079
 20
259.000988
 30
0.0
 11
82.254821
 21
260.44573
 31
0.0
  0
LINE
  8
LC-007-005-----0
  6
CONTINUOUS
  5
87
 10
85.310079
 20
263.500988
 30
0.0
 11
88.810079
 21
267.000988
 31
0.0
  0
LINE
  8
LC-007-005-----0
  6
CONTINUOUS
  5
88
 10
78.293845
 20
259.313181
 30
0.0
 11
82.254821
 21
263.274157
 31
0.0
  0
LINE
  8
LC-007-005-----0
  6
CONTINUOUS
  5
89
 10
82.481652
 20
263.500988
 30
0.0
 11
85.981652
 21
267.000988
 31
0.0
  0
LINE
  8
LC-007-005-----0
  6
CONTINUOUS
  5
8A
 10
78.697906
 20
262.54567
 30
0.0
 11
83.153225
 21
267.000988
 31
0.0
  0
LINE
  8
LC-007-005-----0
  6
CONTINUOUS
  5
8B
 10
79.101967
 20
265.778158
 30
0.0
 11
80.324798
 21
267.000988
 31
0.0
  0
LINE
  8
LC-007-005-----0
  6
CONTINUOUS
  5
8C
 10
-52.125995
 20
259.000988
 30
0.0
 11
-51.343047
 21
259.783936
 31
0.0
  0
LINE
  8
LC-007-005-----0
  6
CONTINUOUS
  5
8D
 10
-54.954423
 20
259.000988
 30
0.0
 11
-51.657317
 21
262.298094
 31
0.0
  0
LINE
  8
LC-007-005-----0
  6
CONTINUOUS
  5
8E
 10
-55.245179
 20
261.538659
 30
0.0
 11
-51.971587
 21
264.812251
 31
0.0
  0
LINE
  8
LC-007-005-----0
  6
CONTINUOUS
  5
8F
 10
-56.111277
 20
263.500988
 30
0.0
 11
-52.611277
 21
267.000988
 31
0.0
  0
LINE
  8
LC-007-005-----0
  6
CONTINUOUS
  5
90
 10
-60.939704
 20
261.500988
 30
0.0
 11
-59.745179
 21
262.695513
 31
0.0
  0
LINE
  8
LC-007-005-----0
  6
CONTINUOUS
  5
91
 10
-58.939704
 20
263.500988
 30
0.0
 11
-55.439704
 21
267.000988
 31
0.0
  0
LINE
  8
LC-007-005-----0
  6
CONTINUOUS
  5
92
 10
-63.256655
 20
262.012464
 30
0.0
 11
-58.268131
 21
267.000988
 31
0.0
  0
LINE
  8
LC-007-005-----0
  6
CONTINUOUS
  5
93
 10
-63.745179
 20
264.352368
 30
0.0
 11
-61.096558
 21
267.000988
 31
0.0
  0
ENDBLK
  8
0
  5
94
  0
BLOCK
  8
0
  5
96
  2
*D13
 70
    65
 10
0.0
 20
0.0
 30
0.0
  3
*D13
  0
LINE
  8
LC-005-003-MTH-0
  6
CONTINUOUS
  5
97
 10
-66.495179
 20
210.850191
 30
0.0
 11
-66.495179
 21
61.6
 31
0.0
  0
LINE
  8
LC-005-003-MTH-0
  6
CONTINUOUS
  5
98
 10
93.504821
 20
208.450875
 30
0.0
 11
93.504821
 21
61.6
 31
0.0
  0
LINE
  8
LC-006-003-MTG-0
  6
CONTINUOUS
  5
99
 10
-66.495179
 20
78.4
 30
0.0
 11
93.504821
 21
78.4
 31
0.0
  0
LINE
  8
LC-004-003-----0
  6
CONTINUOUS
  5
9A
 10
-38.734723
 20
82.054733
 30
0.0
 11
-66.495179
 21
78.4
 31
0.0
  0
LINE
  8
LC-004-003-----0
  6
CONTINUOUS
  5
9B
 10
-66.495179
 20
78.4
 30
0.0
 11
-38.734723
 21
74.745267
 31
0.0
  0
LINE
  8
LC-004-003-----0
  6
CONTINUOUS
  5
9C
 10
-38.734723
 20
74.745267
 30
0.0
 11
-38.734723
 21
82.054733
 31
0.0
  0
LINE
  8
LC-004-003-----0
  6
CONTINUOUS
  5
9D
 10
-38.672441
 20
81.104503
 30
0.0
 11
-59.215179
 21
78.4
 31
0.0
  0
LINE
  8
LC-004-003-----0
  6
CONTINUOUS
  5
9E
 10
-59.215179
 20
78.4
 30
0.0
 11
-38.672441
 21
75.695497
 31
0.0
  0
LINE
  8
LC-004-003-----0
  6
CONTINUOUS
  5
9F
 10
-38.61016
 20
80.154272
 30
0.0
 11
-51.935179
 21
78.4
 31
0.0
  0
LINE
  8
LC-004-003-----0
  6
CONTINUOUS
  5
A0
 10
-51.935179
 20
78.4
 30
0.0
 11
-38.61016
 21
76.645728
 31
0.0
  0
LINE
  8
LC-004-003-----0
  6
CONTINUOUS
  5
A1
 10
-38.547878
 20
79.204041
 30
0.0
 11
-44.655179
 21
78.4
 31
0.0
  0
LINE
  8
LC-004-003-----0
  6
CONTINUOUS
  5
A2
 10
-44.655179
 20
78.4
 30
0.0
 11
-38.547878
 21
77.595959
 31
0.0
  0
LINE
  8
LC-004-003-----0
  6
CONTINUOUS
  5
A3
 10
65.744365
 20
74.745267
 30
0.0
 11
93.504821
 21
78.4
 31
0.0
  0
LINE
  8
LC-004-003-----0
  6
CONTINUOUS
  5
A4
 10
93.504821
 20
78.4
 30
0.0
 11
65.744365
 21
82.054733
 31
0.0
  0
LINE
  8
LC-004-003-----0
  6
CONTINUOUS
  5
A5
 10
65.744365
 20
82.054733
 30
0.0
 11
65.744365
 21
74.745267
 31
0.0
  0
LINE
  8
LC-004-003-----0
  6
CONTINUOUS
  5
A6
 10
65.682084
 20
75.695497
 30
0.0
 11
86.224821
 21
78.4
 31
0.0
  0
LINE
  8
LC-004-003-----0
  6
CONTINUOUS
  5
A7
 10
86.224821
 20
78.4
 30
0.0
 11
65.682084
 21
81.104503
 31
0.0
  0
LINE
  8
LC-004-003-----0
  6
CONTINUOUS
  5
A8
 10
65.619802
 20
76.645728
 30
0.0
 11
78.944821
 21
78.4
 31
0.0
  0
LINE
  8
LC-004-003-----0
  6
CONTINUOUS
  5
A9
 10
78.944821
 20
78.4
 30
0.0
 11
65.619802
 21
80.154272
 31
0.0
  0
LINE
  8
LC-004-003-----0
  6
CONTINUOUS
  5
AA
 10
65.557521
 20
77.595959
 30
0.0
 11
71.664821
 21
78.4
 31
0.0
  0
LINE
  8
LC-004-003-----0
  6
CONTINUOUS
  5
AB
 10
71.664821
 20
78.4
 30
0.0
 11
65.557521
 21
79.204041
 31
0.0
  0
TEXT
  8
LC-004-003-----0
  6
CONTINUOUS
 62
     8
  5
AC
 10
-20.418469
 20
86.227554
 30
0.0
 40
28.0
  1
Ø160
 41
0.9
 51
15.0
  7
LC-TXTSTYLE-150-400-0-0-A0
 72
     1
 11
17.852981
 21
86.227554
 31
0.0
  0
ENDBLK
  8
0
  5
AD
  0
BLOCK
  8
0
  5
AF
  2
*X14
 70
    65
 10
87.504572
 20
272.142892
 30
0.0
  3
*X14
  0
LINE
  8
LC-007-005-----0
  6
CONTINUOUS
  5
B0
 10
103.993751
 20
297.642901
 30
0.0
 11
102.993751
 21
298.642901
 31
0.0
  0
LINE
  8
LC-007-005-----0
  6
CONTINUOUS
  5
B1
 10
102.579537
 20
297.642901
 30
0.0
 11
101.846066
 21
298.376372
 31
0.0
  0
LINE
  8
LC-007-005-----0
  6
CONTINUOUS
  5
B2
 10
101.845555
 20
296.962669
 30
0.0
 11
101.138448
 21
297.669776
 31
0.0
  0
LINE
  8
LC-007-005-----0
  6
CONTINUOUS
  5
B3
 10
101.115093
 20
296.278918
 30
0.0
 11
100.25108
 21
297.142931
 31
0.0
  0
LINE
  8
LC-007-005-----0
  6
CONTINUOUS
  5
B4
 10
99.836897
 20
296.1429
 30
0.0
 11
98.836872
 21
297.142925
 31
0.0
  0
LINE
  8
LC-007-005-----0
  6
CONTINUOUS
  5
B5
 10
98.422684
 20
296.1429
 30
0.0
 11
97.422665
 21
297.142919
 31
0.0
  0
LINE
  8
LC-007-005-----0
  6
CONTINUOUS
  5
B6
 10
97.008471
 20
296.142899
 30
0.0
 11
96.008457
 21
297.142913
 31
0.0
  0
LINE
  8
LC-007-005-----0
  6
CONTINUOUS
  5
B7
 10
95.594258
 20
296.142899
 30
0.0
 11
94.703239
 21
297.033917
 31
0.0
  0
LINE
  8
LC-007-005-----0
  6
CONTINUOUS
  5
B8
 10
94.469003
 20
295.853941
 30
0.0
 11
93.748025
 21
296.574918
 31
0.0
  0
LINE
  8
LC-007-005-----0
  6
CONTINUOUS
  5
B9
 10
93.770056
 20
295.138674
 30
0.0
 11
93.046262
 21
295.862467
 31
0.0
  0
LINE
  8
LC-007-005-----0
  6
CONTINUOUS
  5
BA
 10
93.50454
 20
293.989976
 30
0.0
 11
92.600172
 21
294.894344
 31
0.0
  0
LINE
  8
LC-007-005-----0
  6
CONTINUOUS
  5
BB
 10
93.504543
 20
292.57576
 30
0.0
 11
92.504541
 21
293.575762
 31
0.0
  0
LINE
  8
LC-007-005-----0
  6
CONTINUOUS
  5
BC
 10
93.504545
 20
291.161544
 30
0.0
 11
92.504543
 21
292.161546
 31
0.0
  0
LINE
  8
LC-007-005-----0
  6
CONTINUOUS
  5
BD
 10
93.504548
 20
289.747327
 30
0.0
 11
92.504546
 21
290.747329
 31
0.0
  0
LINE
  8
LC-007-005-----0
  6
CONTINUOUS
  5
BE
 10
93.504551
 20
288.333111
 30
0.0
 11
92.504549
 21
289.333113
 31
0.0
  0
LINE
  8
LC-007-005-----0
  6
CONTINUOUS
  5
BF
 10
93.504554
 20
286.918894
 30
0.0
 11
92.504552
 21
287.918896
 31
0.0
  0
LINE
  8
LC-007-005-----0
  6
CONTINUOUS
  5
C0
 10
93.504557
 20
285.504678
 30
0.0
 11
92.504555
 21
286.50468
 31
0.0
  0
LINE
  8
LC-007-005-----0
  6
CONTINUOUS
  5
C1
 10
93.50456
 20
284.090461
 30
0.0
 11
92.504558
 21
285.090463
 31
0.0
  0
LINE
  8
LC-007-005-----0
  6
CONTINUOUS
  5
C2
 10
93.504563
 20
282.676245
 30
0.0
 11
92.504561
 21
283.676247
 31
0.0
  0
LINE
  8
LC-007-005-----0
  6
CONTINUOUS
  5
C3
 10
93.504565
 20
281.262029
 30
0.0
 11
92.504563
 21
282.262031
 31
0.0
  0
LINE
  8
LC-007-005-----0
  6
CONTINUOUS
  5
C4
 10
93.504568
 20
279.847812
 30
0.0
 11
92.504566
 21
280.847814
 31
0.0
  0
LINE
  8
LC-007-005-----0
  6
CONTINUOUS
  5
C5
 10
93.504571
 20
278.433596
 30
0.0
 11
92.504569
 21
279.433598
 31
0.0
  0
LINE
  8
LC-007-005-----0
  6
CONTINUOUS
  5
C6
 10
93.345368
 20
277.178585
 30
0.0
 11
92.500973
 21
278.02298
 31
0.0
  0
LINE
  8
LC-007-005-----0
  6
CONTINUOUS
  5
C7
 10
92.844403
 20
276.265337
 30
0.0
 11
92.130905
 21
276.978835
 31
0.0
  0
LINE
  8
LC-007-005-----0
  6
CONTINUOUS
  5
C8
 10
92.09584
 20
275.599686
 30
0.0
 11
91.36031
 21
276.335216
 31
0.0
  0
LINE
  8
LC-007-005-----0
  6
CONTINUOUS
  5
C9
 10
91.082278
 20
275.199035
 30
0.0
 11
90.138416
 21
276.142897
 31
0.0
  0
LINE
  8
LC-007-005-----0
  6
CONTINUOUS
  5
CA
 10
89.778451
 20
275.088648
 30
0.0
 11
89.059589
 21
275.807511
 31
0.0
  0
LINE
  8
LC-007-005-----0
  6
CONTINUOUS
  5
CB
 10
89.504936
 20
273.94795
 30
0.0
 11
88.531089
 21
274.921797
 31
0.0
  0
LINE
  8
LC-007-005-----0
  6
CONTINUOUS
  5
CC
 10
89.504942
 20
272.53373
 30
0.0
 11
88.504937
 21
273.533735
 31
0.0
  0
ENDBLK
  8
0
  5
CD
  0
BLOCK
  8
0
  5
CF
  2
*X15
 70
    65
 10
111.004466
 20
296.142893
 30
0.0
  3
*X15
  0
LINE
  8
LC-007-005-----0
  6
CONTINUOUS
  5
D0
 10
137.834752
 20
301.985666
 30
0.0
 11
137.469229
 21
302.351189
 31
0.0
  0
LINE
  8
LC-007-005-----0
  6
CONTINUOUS
  5
D1
 10
137.21384
 20
301.192365
 30
0.0
 11
136.505539
 21
301.900665
 31
0.0
  0
LINE
  8
LC-007-005-----0
  6
CONTINUOUS
  5
D2
 10
136.349364
 20
300.642627
 30
0.0
 11
135.549577
 21
301.442413
 31
0.0
  0
LINE
  8
LC-007-005-----0
  6
CONTINUOUS
  5
D3
 10
135.2264
 20
300.351377
 30
0.0
 11
134.383274
 21
301.194503
 31
0.0
  0
LINE
  8
LC-007-005-----0
  6
CONTINUOUS
  5
D4
 10
134.060097
 20
300.103466
 30
0.0
 11
133.216971
 21
300.946592
 31
0.0
  0
LINE
  8
LC-007-005-----0
  6
CONTINUOUS
  5
D5
 10
132.893794
 20
299.855556
 30
0.0
 11
132.050669
 21
300.698682
 31
0.0
  0
LINE
  8
LC-007-005-----0
  6
CONTINUOUS
  5
D6
 10
131.727491
 20
299.607645
 30
0.0
 11
130.884366
 21
300.450771
 31
0.0
  0
LINE
  8
LC-007-005-----0
  6
CONTINUOUS
  5
D7
 10
130.561188
 20
299.359735
 30
0.0
 11
129.718063
 21
300.20286
 31
0.0
  0
LINE
  8
LC-007-005-----0
  6
CONTINUOUS
  5
D8
 10
129.394886
 20
299.111824
 30
0.0
 11
128.55176
 21
299.95495
 31
0.0
  0
LINE
  8
LC-007-005-----0
  6
CONTINUOUS
  5
D9
 10
128.228583
 20
298.863913
 30
0.0
 11
127.385457
 21
299.707039
 31
0.0
  0
LINE
  8
LC-007-005-----0
  6
CONTINUOUS
  5
DA
 10
127.06228
 20
298.616003
 30
0.0
 11
126.219154
 21
299.459128
 31
0.0
  0
LINE
  8
LC-007-005-----0
  6
CONTINUOUS
  5
DB
 10
125.895977
 20
298.368092
 30
0.0
 11
125.052851
 21
299.211218
 31
0.0
  0
LINE
  8
LC-007-005-----0
  6
CONTINUOUS
  5
DC
 10
124.729674
 20
298.120181
 30
0.0
 11
123.886548
 21
298.963307
 31
0.0
  0
LINE
  8
LC-007-005-----0
  6
CONTINUOUS
  5
DD
 10
123.563371
 20
297.872271
 30
0.0
 11
122.720245
 21
298.715397
 31
0.0
  0
LINE
  8
LC-007-005-----0
  6
CONTINUOUS
  5
DE
 10
122.397068
 20
297.62436
 30
0.0
 11
121.553942
 21
298.467486
 31
0.0
  0
LINE
  8
LC-007-005-----0
  6
CONTINUOUS
  5
DF
 10
121.230765
 20
297.37645
 30
0.0
 11
120.387639
 21
298.219575
 31
0.0
  0
LINE
  8
LC-007-005-----0
  6
CONTINUOUS
  5
E0
 10
120.064462
 20
297.128539
 30
0.0
 11
119.221336
 21
297.971665
 31
0.0
  0
LINE
  8
LC-007-005-----0
  6
CONTINUOUS
  5
E1
 10
118.898159
 20
296.880628
 30
0.0
 11
118.055033
 21
297.723754
 31
0.0
  0
LINE
  8
LC-007-005-----0
  6
CONTINUOUS
  5
E2
 10
117.731856
 20
296.632718
 30
0.0
 11
116.88873
 21
297.475844
 31
0.0
  0
LINE
  8
LC-007-005-----0
  6
CONTINUOUS
  5
E3
 10
116.565553
 20
296.384807
 30
0.0
 11
115.722427
 21
297.227933
 31
0.0
  0
LINE
  8
LC-007-005-----0
  6
CONTINUOUS
  5
E4
 10
115.393254
 20
296.142893
 30
0.0
 11
113.134299
 21
298.401848
 31
0.0
  0
LINE
  8
LC-007-005-----0
  6
CONTINUOUS
  5
E5
 10
112.479032
 20
297.642902
 30
0.0
 11
111.479032
 21
298.642901
 31
0.0
  0
LINE
  8
LC-007-005-----0
  6
CONTINUOUS
  5
E6
 10
111.064818
 20
297.642901
 30
0.0
 11
111.004466
 21
297.703253
 31
0.0
  0
ENDBLK
  8
0
  5
E7
  0
BLOCK
  8
0
  5
E9
  2
*X16
 70
    65
 10
51.004821
 20
200.950875
 30
0.0
  3
*X16
  0
LINE
  8
LC-007-005-----0
  6
CONTINUOUS
  5
EA
 10
82.156935
 20
200.950875
 30
0.0
 11
88.504821
 21
207.298761
 31
0.0
  0
LINE
  8
LC-007-005-----0
  6
CONTINUOUS
  5
EB
 10
73.671654
 20
200.950875
 30
0.0
 11
81.171654
 21
208.450875
 31
0.0
  0
LINE
  8
LC-007-005-----0
  6
CONTINUOUS
  5
EC
 10
81.254114
 20
208.533335
 30
0.0
 11
88.504821
 21
215.784042
 31
0.0
  0
LINE
  8
LC-007-005-----0
  6
CONTINUOUS
  5
ED
 10
88.671654
 20
215.950875
 30
0.0
 11
88.804821
 21
216.084042
 31
0.0
  0
LINE
  8
LC-007-005-----0
  6
CONTINUOUS
  5
EE
 10
90.171654
 20
217.450875
 30
0.0
 11
91.004114
 21
218.283335
 31
0.0
  0
LINE
  8
LC-007-005-----0
  6
CONTINUOUS
  5
EF
 10
65.186373
 20
200.950875
 30
0.0
 11
72.686373
 21
208.450875
 31
0.0
  0
LINE
  8
LC-007-005-----0
  6
CONTINUOUS
  5
F0
 10
81.254114
 20
217.018616
 30
0.0
 11
91.004114
 21
226.768616
 31
0.0
  0
LINE
  8
LC-007-005-----0
  6
CONTINUOUS
  5
F1
 10
56.701091
 20
200.950875
 30
0.0
 11
64.201091
 21
208.450875
 31
0.0
  0
LINE
  8
LC-007-005-----0
  6
CONTINUOUS
  5
F2
 10
81.254114
 20
225.503898
 30
0.0
 11
91.004114
 21
235.253898
 31
0.0
  0
LINE
  8
LC-007-005-----0
  6
CONTINUOUS
  5
F3
 10
51.004821
 20
203.739886
 30
0.0
 11
55.71581
 21
208.450875
 31
0.0
  0
LINE
  8
LC-007-005-----0
  6
CONTINUOUS
  5
F4
 10
81.254114
 20
233.989179
 30
0.0
 11
91.004114
 21
243.739179
 31
0.0
  0
LINE
  8
LC-007-005-----0
  6
CONTINUOUS
  5
F5
 10
86.554114
 20
247.77446
 30
0.0
 11
91.004114
 21
252.22446
 31
0.0
  0
LINE
  8
LC-007-005-----0
  6
CONTINUOUS
  5
F6
 10
86.678658
 20
256.384286
 30
0.0
 11
87.070817
 21
256.776445
 31
0.0
  0
ENDBLK
  8
0
  5
F7
  0
BLOCK
  8
0
  5
F9
  2
*X17
 70
    65
 10
-76.994834
 20
272.142568
 30
0.0
  3
*X17
  0
LINE
  8
LC-007-005-----0
  6
CONTINUOUS
  5
FA
 10
-65.536218
 20
294.638816
 30
0.0
 11
-67.998629
 21
297.101226
 31
0.0
  0
LINE
  8
LC-007-005-----0
  6
CONTINUOUS
  5
FB
 10
-65.494886
 20
293.18327
 30
0.0
 11
-66.495312
 21
294.183695
 31
0.0
  0
LINE
  8
LC-007-005-----0
  6
CONTINUOUS
  5
FC
 10
-68.453737
 20
296.142121
 30
0.0
 11
-69.454173
 21
297.142556
 31
0.0
  0
LINE
  8
LC-007-005-----0
  6
CONTINUOUS
  5
FD
 10
-65.494883
 20
291.769053
 30
0.0
 11
-66.494885
 21
292.769055
 31
0.0
  0
LINE
  8
LC-007-005-----0
  6
CONTINUOUS
  5
FE
 10
-69.868369
 20
296.142539
 30
0.0
 11
-70.868386
 21
297.142556
 31
0.0
  0
LINE
  8
LC-007-005-----0
  6
CONTINUOUS
  5
FF
 10
-65.494879
 20
290.354836
 30
0.0
 11
-66.494882
 21
291.354838
 31
0.0
  0
LINE
  8
LC-007-005-----0
  6
CONTINUOUS
  5
100
 10
-71.282577
 20
296.142533
 30
0.0
 11
-72.2826
 21
297.142556
 31
0.0
  0
LINE
  8
LC-007-005-----0
  6
CONTINUOUS
  5
101
 10
-65.494876
 20
288.940619
 30
0.0
 11
-66.494879
 21
289.940621
 31
0.0
  0
LINE
  8
LC-007-005-----0
  6
CONTINUOUS
  5
102
 10
-72.696785
 20
296.142528
 30
0.0
 11
-75.111042
 21
298.556784
 31
0.0
  0
LINE
  8
LC-007-005-----0
  6
CONTINUOUS
  5
103
 10
-65.494873
 20
287.526402
 30
0.0
 11
-66.494875
 21
288.526405
 31
0.0
  0
LINE
  8
LC-007-005-----0
  6
CONTINUOUS
  5
104
 10
-75.610986
 20
297.642515
 30
0.0
 11
-76.610982
 21
298.642511
 31
0.0
  0
LINE
  8
LC-007-005-----0
  6
CONTINUOUS
  5
105
 10
-65.49487
 20
286.112185
 30
0.0
 11
-66.494872
 21
287.112188
 31
0.0
  0
LINE
  8
LC-007-005-----0
  6
CONTINUOUS
  5
106
 10
-65.494866
 20
284.697969
 30
0.0
 11
-66.494869
 21
285.697971
 31
0.0
  0
LINE
  8
LC-007-005-----0
  6
CONTINUOUS
  5
107
 10
-65.494863
 20
283.283752
 30
0.0
 11
-66.494865
 21
284.283754
 31
0.0
  0
LINE
  8
LC-007-005-----0
  6
CONTINUOUS
  5
108
 10
-65.49486
 20
281.869535
 30
0.0
 11
-66.494862
 21
282.869537
 31
0.0
  0
LINE
  8
LC-007-005-----0
  6
CONTINUOUS
  5
109
 10
-65.494857
 20
280.455318
 30
0.0
 11
-66.494859
 21
281.45532
 31
0.0
  0
LINE
  8
LC-007-005-----0
  6
CONTINUOUS
  5
10A
 10
-61.572931
 20
275.119179
 30
0.0
 11
-62.518584
 21
276.064832
 31
0.0
  0
LINE
  8
LC-007-005-----0
  6
CONTINUOUS
  5
10B
 10
-65.494853
 20
279.041101
 30
0.0
 11
-66.494856
 21
280.041104
 31
0.0
  0
LINE
  8
LC-007-005-----0
  6
CONTINUOUS
  5
10C
 10
-61.495197
 20
273.627231
 30
0.0
 11
-62.495197
 21
274.627231
 31
0.0
  0
LINE
  8
LC-007-005-----0
  6
CONTINUOUS
  5
10D
 10
-63.010518
 20
275.142552
 30
0.0
 11
-64.106285
 21
276.238319
 31
0.0
  0
LINE
  8
LC-007-005-----0
  6
CONTINUOUS
  5
10E
 10
-65.399096
 20
277.531131
 30
0.0
 11
-66.494852
 21
278.626887
 31
0.0
  0
LINE
  8
LC-007-005-----0
  6
CONTINUOUS
  5
10F
 10
-61.495197
 20
272.213018
 30
0.0
 11
-62.495197
 21
273.213018
 31
0.0
  0
LINE
  8
LC-007-005-----0
  6
CONTINUOUS
  5
110
 10
-64.66041
 20
275.378231
 30
0.0
 11
-66.259173
 21
276.976993
 31
0.0
  0
ENDBLK
  8
0
  5
111
  0
BLOCK
  8
0
  5
113
  2
*X18
 70
    65
 10
-111.185804
 20
296.142451
 30
0.0
  3
*X18
  0
LINE
  8
LC-007-005-----0
  6
CONTINUOUS
  5
114
 10
-84.096231
 20
297.642479
 30
0.0
 11
-85.096227
 21
298.642475
 31
0.0
  0
LINE
  8
LC-007-005-----0
  6
CONTINUOUS
  5
115
 10
-85.491974
 20
297.624009
 30
0.0
 11
-86.199813
 21
298.331848
 31
0.0
  0
LINE
  8
LC-007-005-----0
  6
CONTINUOUS
  5
116
 10
-86.199078
 20
296.916899
 30
0.0
 11
-86.934965
 21
297.652786
 31
0.0
  0
LINE
  8
LC-007-005-----0
  6
CONTINUOUS
  5
117
 10
-86.943127
 20
296.246734
 30
0.0
 11
-87.838853
 21
297.14246
 31
0.0
  0
LINE
  8
LC-007-005-----0
  6
CONTINUOUS
  5
118
 10
-88.25306
 20
296.142454
 30
0.0
 11
-89.506888
 21
297.396281
 31
0.0
  0
LINE
  8
LC-007-005-----0
  6
CONTINUOUS
  5
119
 10
-90.00454
 20
296.47972
 30
0.0
 11
-91.302843
 21
297.778024
 31
0.0
  0
LINE
  8
LC-007-005-----0
  6
CONTINUOUS
  5
11A
 10
-91.800496
 20
296.861462
 30
0.0
 11
-93.098799
 21
298.159766
 31
0.0
  0
LINE
  8
LC-007-005-----0
  6
CONTINUOUS
  5
11B
 10
-93.596451
 20
297.243204
 30
0.0
 11
-94.894755
 21
298.541508
 31
0.0
  0
LINE
  8
LC-007-005-----0
  6
CONTINUOUS
  5
11C
 10
-95.392407
 20
297.624947
 30
0.0
 11
-96.690711
 21
298.92325
 31
0.0
  0
LINE
  8
LC-007-005-----0
  6
CONTINUOUS
  5
11D
 10
-97.188363
 20
298.006689
 30
0.0
 11
-98.486666
 21
299.304992
 31
0.0
  0
LINE
  8
LC-007-005-----0
  6
CONTINUOUS
  5
11E
 10
-98.984319
 20
298.388431
 30
0.0
 11
-100.282622
 21
299.686734
 31
0.0
  0
LINE
  8
LC-007-005-----0
  6
CONTINUOUS
  5
11F
 10
-100.780274
 20
298.770173
 30
0.0
 11
-102.078578
 21
300.068477
 31
0.0
  0
LINE
  8
LC-007-005-----0
  6
CONTINUOUS
  5
120
 10
-102.57623
 20
299.151915
 30
0.0
 11
-103.874534
 21
300.450219
 31
0.0
  0
LINE
  8
LC-007-005-----0
  6
CONTINUOUS
  5
121
 10
-104.372186
 20
299.533657
 30
0.0
 11
-105.670489
 21
300.831961
 31
0.0
  0
LINE
  8
LC-007-005-----0
  6
CONTINUOUS
  5
122
 10
-106.168142
 20
299.9154
 30
0.0
 11
-107.466445
 21
301.213703
 31
0.0
  0
LINE
  8
LC-007-005-----0
  6
CONTINUOUS
  5
123
 10
-107.964097
 20
300.297142
 30
0.0
 11
-110.011575
 21
302.344619
 31
0.0
  0
ENDBLK
  8
0
  5
124
  0
BLOCK
  8
0
  5
126
  2
*X19
 70
    65
 10
51.004821
 20
200.950875
 30
0.0
  3
*X19
  0
LINE
  8
LC-007-005-----0
  6
CONTINUOUS
  5
127
 10
91.004114
 20
248.407141
 30
0.0
 11
86.554114
 21
252.857141
 31
0.0
  0
LINE
  8
LC-007-005-----0
  6
CONTINUOUS
  5
128
 10
91.004114
 20
239.921859
 30
0.0
 11
86.369022
 21
244.556952
 31
0.0
  0
LINE
  8
LC-007-005-----0
  6
CONTINUOUS
  5
129
 10
91.004114
 20
231.436578
 30
0.0
 11
81.254114
 21
241.186578
 31
0.0
  0
LINE
  8
LC-007-005-----0
  6
CONTINUOUS
  5
12A
 10
91.004114
 20
222.951296
 30
0.0
 11
81.254114
 21
232.701296
 31
0.0
  0
LINE
  8
LC-007-005-----0
  6
CONTINUOUS
  5
12B
 10
88.804821
 20
216.665308
 30
0.0
 11
81.254114
 21
224.216015
 31
0.0
  0
LINE
  8
LC-007-005-----0
  6
CONTINUOUS
  5
12C
 10
88.504821
 20
208.480027
 30
0.0
 11
81.254114
 21
215.730734
 31
0.0
  0
LINE
  8
LC-007-005-----0
  6
CONTINUOUS
  5
12D
 10
87.228654
 20
201.270913
 30
0.0
 11
80.048692
 21
208.450875
 31
0.0
  0
LINE
  8
LC-007-005-----0
  6
CONTINUOUS
  5
12E
 10
79.063411
 20
200.950875
 30
0.0
 11
71.563411
 21
208.450875
 31
0.0
  0
LINE
  8
LC-007-005-----0
  6
CONTINUOUS
  5
12F
 10
70.578129
 20
200.950875
 30
0.0
 11
63.078129
 21
208.450875
 31
0.0
  0
LINE
  8
LC-007-005-----0
  6
CONTINUOUS
  5
130
 10
62.092848
 20
200.950875
 30
0.0
 11
54.592848
 21
208.450875
 31
0.0
  0
LINE
  8
LC-007-005-----0
  6
CONTINUOUS
  5
131
 10
53.607567
 20
200.950875
 30
0.0
 11
51.004821
 21
203.55362
 31
0.0
  0
ENDBLK
  8
0
  5
132
  0
BLOCK
  8
0
  5
134
  2
BLK8
 70
    64
 10
0.0
 20
0.0
 30
0.0
  3
BLK8
  0
ENDBLK
  8
0
  5
135
  0
BLOCK
  8
0
  5
137
  2
BLK9
 70
    64
 10
0.0
 20
0.0
 30
0.0
  3
BLK9
  0
ENDBLK
  8
0
  5
138
  0
BLOCK
  8
0
  5
13A
  2
*X22
 70
    65
 10
51.004821
 20
195.950875
 30
0.0
  3
*X22
  0
LINE
  8
LC-007-005-----0
  6
CONTINUOUS
  5
13B
 10
88.561885
 20
198.870543
 30
0.0
 11
93.585153
 21
203.89381
 31
0.0
  0
LINE
  8
LC-007-005-----0
  6
CONTINUOUS
  5
13C
 10
85.31379
 20
198.450875
 30
0.0
 11
94.004821
 21
207.141906
 31
0.0
  0
LINE
  8
LC-007-005-----0
  6
CONTINUOUS
  5
13D
 10
79.985363
 20
195.950875
 30
0.0
 11
80.997413
 21
196.962926
 31
0.0
  0
LINE
  8
LC-007-005-----0
  6
CONTINUOUS
  5
13E
 10
82.485363
 20
198.450875
 30
0.0
 11
84.985363
 21
200.950875
 31
0.0
  0
LINE
  8
LC-007-005-----0
  6
CONTINUOUS
  5
13F
 10
88.504821
 20
204.470333
 30
0.0
 11
92.485363
 21
208.450875
 31
0.0
  0
LINE
  8
LC-007-005-----0
  6
CONTINUOUS
  5
140
 10
77.156935
 20
195.950875
 30
0.0
 11
82.156935
 21
200.950875
 31
0.0
  0
LINE
  8
LC-007-005-----0
  6
CONTINUOUS
  5
141
 10
88.504821
 20
207.298761
 30
0.0
 11
91.004821
 21
209.798761
 31
0.0
  0
LINE
  8
LC-007-005-----0
  6
CONTINUOUS
  5
142
 10
74.328508
 20
195.950875
 30
0.0
 11
79.328508
 21
200.950875
 31
0.0
  0
LINE
  8
LC-007-005-----0
  6
CONTINUOUS
  5
143
 10
88.504821
 20
210.127188
 30
0.0
 11
91.004821
 21
212.627188
 31
0.0
  0
LINE
  8
LC-007-005-----0
  6
CONTINUOUS
  5
144
 10
71.500081
 20
195.950875
 30
0.0
 11
76.500081
 21
200.950875
 31
0.0
  0
LINE
  8
LC-007-005-----0
  6
CONTINUOUS
  5
145
 10
88.504821
 20
212.955615
 30
0.0
 11
91.004821
 21
215.455615
 31
0.0
  0
LINE
  8
LC-007-005-----0
  6
CONTINUOUS
  5
146
 10
70.996125
 20
198.275346
 30
0.0
 11
73.671654
 21
200.950875
 31
0.0
  0
LINE
  8
LC-007-005-----0
  6
CONTINUOUS
  5
147
 10
88.504821
 20
215.784042
 30
0.0
 11
88.671654
 21
215.950875
 31
0.0
  0
LINE
  8
LC-007-005-----0
  6
CONTINUOUS
  5
148
 10
88.804821
 20
216.084042
 30
0.0
 11
90.171654
 21
217.450875
 31
0.0
  0
LINE
  8
LC-007-005-----0
  6
CONTINUOUS
  5
149
 10
68.343227
 20
198.450875
 30
0.0
 11
70.843227
 21
200.950875
 31
0.0
  0
LINE
  8
LC-007-005-----0
  6
CONTINUOUS
  5
14A
 10
65.5148
 20
198.450875
 30
0.0
 11
68.0148
 21
200.950875
 31
0.0
  0
LINE
  8
LC-007-005-----0
  6
CONTINUOUS
  5
14B
 10
62.686373
 20
198.450875
 30
0.0
 11
65.186373
 21
200.950875
 31
0.0
  0
LINE
  8
LC-007-005-----0
  6
CONTINUOUS
  5
14C
 10
59.857946
 20
198.450875
 30
0.0
 11
62.357946
 21
200.950875
 31
0.0
  0
LINE
  8
LC-007-005-----0
  6
CONTINUOUS
  5
14D
 10
57.029518
 20
198.450875
 30
0.0
 11
59.529518
 21
200.950875
 31
0.0
  0
LINE
  8
LC-007-005-----0
  6
CONTINUOUS
  5
14E
 10
54.201091
 20
198.450875
 30
0.0
 11
56.701091
 21
200.950875
 31
0.0
  0
LINE
  8
LC-007-005-----0
  6
CONTINUOUS
  5
14F
 10
51.372664
 20
198.450875
 30
0.0
 11
53.872664
 21
200.950875
 31
0.0
  0
LINE
  8
LC-007-005-----0
  6
CONTINUOUS
  5
150
 10
51.004821
 20
200.911459
 30
0.0
 11
51.044237
 21
200.950875
 31
0.0
  0
ENDBLK
  8
0
  5
151
  0
BLOCK
  8
0
  5
153
  2
*X23
 70
    65
 10
-111.4952
 20
270.715895
 30
0.0
  3
*X23
  0
LINE
  8
LC-007-005-----0
  6
CONTINUOUS
  5
154
 10
-68.695354
 20
270.715901
 30
0.0
 11
-67.99512
 21
271.416135
 31
0.0
  0
LINE
  8
LC-007-005-----0
  6
CONTINUOUS
  5
155
 10
-70.109571
 20
270.715898
 30
0.0
 11
-69.109569
 21
271.7159
 31
0.0
  0
LINE
  8
LC-007-005-----0
  6
CONTINUOUS
  5
156
 10
-71.523519
 20
270.716163
 30
0.0
 11
-70.523785
 21
271.715897
 31
0.0
  0
LINE
  8
LC-007-005-----0
  6
CONTINUOUS
  5
157
 10
-72.526838
 20
271.127058
 30
0.0
 11
-71.81896
 21
271.834935
 31
0.0
  0
LINE
  8
LC-007-005-----0
  6
CONTINUOUS
  5
158
 10
-72.988885
 20
272.079225
 30
0.0
 11
-71.995124
 21
273.072985
 31
0.0
  0
LINE
  8
LC-007-005-----0
  6
CONTINUOUS
  5
159
 10
-72.995124
 20
273.487199
 30
0.0
 11
-72.141191
 21
274.341132
 31
0.0
  0
LINE
  8
LC-007-005-----0
  6
CONTINUOUS
  5
15A
 10
-73.701055
 20
274.195481
 30
0.0
 11
-72.847882
 21
275.048654
 31
0.0
  0
LINE
  8
LC-007-005-----0
  6
CONTINUOUS
  5
15B
 10
-75.115269
 20
274.195481
 30
0.0
 11
-74.115269
 21
275.195481
 31
0.0
  0
LINE
  8
LC-007-005-----0
  6
CONTINUOUS
  5
15C
 10
-76.529186
 20
274.195777
 30
0.0
 11
-75.529482
 21
275.195481
 31
0.0
  0
LINE
  8
LC-007-005-----0
  6
CONTINUOUS
  5
15D
 10
-76.995132
 20
275.144045
 30
0.0
 11
-76.943696
 21
275.195481
 31
0.0
  0
LINE
  8
LC-007-005-----0
  6
CONTINUOUS
  5
15E
 10
-85.014764
 20
274.195481
 30
0.0
 11
-84.014764
 21
275.195481
 31
0.0
  0
LINE
  8
LC-007-005-----0
  6
CONTINUOUS
  5
15F
 10
-86.428977
 20
274.195481
 30
0.0
 11
-85.428977
 21
275.195481
 31
0.0
  0
LINE
  8
LC-007-005-----0
  6
CONTINUOUS
  5
160
 10
-87.477101
 20
274.561571
 30
0.0
 11
-86.764459
 21
275.274213
 31
0.0
  0
LINE
  8
LC-007-005-----0
  6
CONTINUOUS
  5
161
 10
-87.978723
 20
275.474163
 30
0.0
 11
-86.99514
 21
276.457746
 31
0.0
  0
LINE
  8
LC-007-005-----0
  6
CONTINUOUS
  5
162
 10
-87.99514
 20
276.871959
 30
0.0
 11
-86.99514
 21
277.871959
 31
0.0
  0
LINE
  8
LC-007-005-----0
  6
CONTINUOUS
  5
163
 10
-87.99514
 20
278.286173
 30
0.0
 11
-86.99514
 21
279.286173
 31
0.0
  0
LINE
  8
LC-007-005-----0
  6
CONTINUOUS
  5
164
 10
-87.99514
 20
279.700386
 30
0.0
 11
-86.99514
 21
280.700386
 31
0.0
  0
LINE
  8
LC-007-005-----0
  6
CONTINUOUS
  5
165
 10
-87.99514
 20
281.1146
 30
0.0
 11
-86.99514
 21
282.1146
 31
0.0
  0
LINE
  8
LC-007-005-----0
  6
CONTINUOUS
  5
166
 10
-87.99514
 20
282.528813
 30
0.0
 11
-86.99514
 21
283.528813
 31
0.0
  0
LINE
  8
LC-007-005-----0
  6
CONTINUOUS
  5
167
 10
-87.99514
 20
283.943027
 30
0.0
 11
-86.99514
 21
284.943027
 31
0.0
  0
LINE
  8
LC-007-005-----0
  6
CONTINUOUS
  5
168
 10
-87.99514
 20
285.357241
 30
0.0
 11
-86.99514
 21
286.357241
 31
0.0
  0
LINE
  8
LC-007-005-----0
  6
CONTINUOUS
  5
169
 10
-87.99514
 20
286.771454
 30
0.0
 11
-87.055773
 21
287.710821
 31
0.0
  0
LINE
  8
LC-007-005-----0
  6
CONTINUOUS
  5
16A
 10
-88.396109
 20
287.784699
 30
0.0
 11
-87.651727
 21
288.52908
 31
0.0
  0
LINE
  8
LC-007-005-----0
  6
CONTINUOUS
  5
16B
 10
-89.432945
 20
288.162077
 30
0.0
 11
-88.652739
 21
288.942283
 31
0.0
  0
LINE
  8
LC-007-005-----0
  6
CONTINUOUS
  5
16C
 10
-90.469781
 20
288.539454
 30
0.0
 11
-89.689575
 21
289.31966
 31
0.0
  0
LINE
  8
LC-007-005-----0
  6
CONTINUOUS
  5
16D
 10
-91.506617
 20
288.916831
 30
0.0
 11
-90.726411
 21
289.697037
 31
0.0
  0
LINE
  8
LC-007-005-----0
  6
CONTINUOUS
  5
16E
 10
-92.543453
 20
289.294209
 30
0.0
 11
-91.763247
 21
290.074415
 31
0.0
  0
LINE
  8
LC-007-005-----0
  6
CONTINUOUS
  5
16F
 10
-93.580289
 20
289.671586
 30
0.0
 11
-92.800083
 21
290.451792
 31
0.0
  0
LINE
  8
LC-007-005-----0
  6
CONTINUOUS
  5
170
 10
-94.617125
 20
290.048964
 30
0.0
 11
-93.836919
 21
290.82917
 31
0.0
  0
LINE
  8
LC-007-005-----0
  6
CONTINUOUS
  5
171
 10
-95.653961
 20
290.426341
 30
0.0
 11
-94.873755
 21
291.206547
 31
0.0
  0
LINE
  8
LC-007-005-----0
  6
CONTINUOUS
  5
172
 10
-96.690797
 20
290.803719
 30
0.0
 11
-95.910591
 21
291.583925
 31
0.0
  0
LINE
  8
LC-007-005-----0
  6
CONTINUOUS
  5
173
 10
-97.727633
 20
291.181096
 30
0.0
 11
-96.947427
 21
291.961302
 31
0.0
  0
LINE
  8
LC-007-005-----0
  6
CONTINUOUS
  5
174
 10
-98.764469
 20
291.558474
 30
0.0
 11
-97.984263
 21
292.33868
 31
0.0
  0
LINE
  8
LC-007-005-----0
  6
CONTINUOUS
  5
175
 10
-99.801306
 20
291.935851
 30
0.0
 11
-99.0211
 21
292.716057
 31
0.0
  0
LINE
  8
LC-007-005-----0
  6
CONTINUOUS
  5
176
 10
-100.838142
 20
292.313229
 30
0.0
 11
-100.057936
 21
293.093435
 31
0.0
  0
LINE
  8
LC-007-005-----0
  6
CONTINUOUS
  5
177
 10
-101.874978
 20
292.690606
 30
0.0
 11
-101.094772
 21
293.470812
 31
0.0
  0
LINE
  8
LC-007-005-----0
  6
CONTINUOUS
  5
178
 10
-102.911814
 20
293.067984
 30
0.0
 11
-102.131608
 21
293.84819
 31
0.0
  0
LINE
  8
LC-007-005-----0
  6
CONTINUOUS
  5
179
 10
-103.94865
 20
293.445361
 30
0.0
 11
-103.168444
 21
294.225567
 31
0.0
  0
LINE
  8
LC-007-005-----0
  6
CONTINUOUS
  5
17A
 10
-104.985486
 20
293.822739
 30
0.0
 11
-104.20528
 21
294.602945
 31
0.0
  0
LINE
  8
LC-007-005-----0
  6
CONTINUOUS
  5
17B
 10
-106.022322
 20
294.200116
 30
0.0
 11
-105.242116
 21
294.980322
 31
0.0
  0
LINE
  8
LC-007-005-----0
  6
CONTINUOUS
  5
17C
 10
-107.059158
 20
294.577494
 30
0.0
 11
-106.278952
 21
295.3577
 31
0.0
  0
LINE
  8
LC-007-005-----0
  6
CONTINUOUS
  5
17D
 10
-108.095994
 20
294.954871
 30
0.0
 11
-107.315788
 21
295.735077
 31
0.0
  0
LINE
  8
LC-007-005-----0
  6
CONTINUOUS
  5
17E
 10
-109.13283
 20
295.332249
 30
0.0
 11
-108.352624
 21
296.112455
 31
0.0
  0
LINE
  8
LC-007-005-----0
  6
CONTINUOUS
  5
17F
 10
-110.169666
 20
295.709626
 30
0.0
 11
-109.38946
 21
296.489832
 31
0.0
  0
LINE
  8
LC-007-005-----0
  6
CONTINUOUS
  5
180
 10
-111.206503
 20
296.087003
 30
0.0
 11
-110.426296
 21
296.867209
 31
0.0
  0
ENDBLK
  8
0
  5
181
  0
BLOCK
  8
0
  5
183
  2
BLK10
 70
    64
 10
0.0
 20
0.0
 30
0.0
  3
BLK10
  0
ENDBLK
  8
0
  5
184
  0
BLOCK
  8
0
  5
186
  2
*X25
 70
    65
 10
95.005491
 20
270.716411
 30
0.0
  3
*X25
  0
LINE
  8
LC-007-005-----0
  6
CONTINUOUS
  5
187
 10
137.39815
 20
295.790069
 30
0.0
 11
138.316974
 21
296.708893
 31
0.0
  0
LINE
  8
LC-007-005-----0
  6
CONTINUOUS
  5
188
 10
135.174624
 20
294.980756
 30
0.0
 11
136.847803
 21
296.653936
 31
0.0
  0
LINE
  8
LC-007-005-----0
  6
CONTINUOUS
  5
189
 10
112.975758
 20
274.196104
 30
0.0
 11
115.004869
 21
276.225215
 31
0.0
  0
LINE
  8
LC-007-005-----0
  6
CONTINUOUS
  5
18A
 10
132.951097
 20
294.171443
 30
0.0
 11
134.624276
 21
295.844622
 31
0.0
  0
LINE
  8
LC-007-005-----0
  6
CONTINUOUS
  5
18B
 10
111.561536
 20
274.196095
 30
0.0
 11
112.561542
 21
275.196102
 31
0.0
  0
LINE
  8
LC-007-005-----0
  6
CONTINUOUS
  5
18C
 10
114.004854
 20
276.639413
 30
0.0
 11
115.004859
 21
277.639419
 31
0.0
  0
LINE
  8
LC-007-005-----0
  6
CONTINUOUS
  5
18D
 10
130.72757
 20
293.362129
 30
0.0
 11
132.400749
 21
295.035309
 31
0.0
  0
LINE
  8
LC-007-005-----0
  6
CONTINUOUS
  5
18E
 10
111.004869
 20
275.053642
 30
0.0
 11
111.14732
 21
275.196093
 31
0.0
  0
LINE
  8
LC-007-005-----0
  6
CONTINUOUS
  5
18F
 10
114.004844
 20
278.053617
 30
0.0
 11
115.00485
 21
279.053623
 31
0.0
  0
LINE
  8
LC-007-005-----0
  6
CONTINUOUS
  5
190
 10
128.504043
 20
292.552816
 30
0.0
 11
130.177222
 21
294.225996
 31
0.0
  0
LINE
  8
LC-007-005-----0
  6
CONTINUOUS
  5
191
 10
114.004834
 20
279.467821
 30
0.0
 11
115.00484
 21
280.467827
 31
0.0
  0
LINE
  8
LC-007-005-----0
  6
CONTINUOUS
  5
192
 10
126.280516
 20
291.743502
 30
0.0
 11
127.953695
 21
293.416682
 31
0.0
  0
LINE
  8
LC-007-005-----0
  6
CONTINUOUS
  5
193
 10
114.004825
 20
280.882025
 30
0.0
 11
115.00483
 21
281.882031
 31
0.0
  0
LINE
  8
LC-007-005-----0
  6
CONTINUOUS
  5
194
 10
124.056989
 20
290.934189
 30
0.0
 11
125.730168
 21
292.607369
 31
0.0
  0
LINE
  8
LC-007-005-----0
  6
CONTINUOUS
  5
195
 10
114.004815
 20
282.296229
 30
0.0
 11
115.004821
 21
283.296234
 31
0.0
  0
LINE
  8
LC-007-005-----0
  6
CONTINUOUS
  5
196
 10
121.833462
 20
290.124876
 30
0.0
 11
123.506641
 21
291.798055
 31
0.0
  0
LINE
  8
LC-007-005-----0
  6
CONTINUOUS
  5
197
 10
114.004805
 20
283.710433
 30
0.0
 11
115.004811
 21
284.710438
 31
0.0
  0
LINE
  8
LC-007-005-----0
  6
CONTINUOUS
  5
198
 10
119.609935
 20
289.315562
 30
0.0
 11
121.283114
 21
290.988742
 31
0.0
  0
LINE
  8
LC-007-005-----0
  6
CONTINUOUS
  5
199
 10
103.076201
 20
274.196042
 30
0.0
 11
104.004868
 21
275.124709
 31
0.0
  0
LINE
  8
LC-007-005-----0
  6
CONTINUOUS
  5
19A
 10
114.004795
 20
285.124637
 30
0.0
 11
115.004801
 21
286.124642
 31
0.0
  0
LINE
  8
LC-007-005-----0
  6
CONTINUOUS
  5
19B
 10
117.386408
 20
288.506249
 30
0.0
 11
119.059587
 21
290.179428
 31
0.0
  0
LINE
  8
LC-007-005-----0
  6
CONTINUOUS
  5
19C
 10
98.182371
 20
270.716426
 30
0.0
 11
100.004871
 21
272.538926
 31
0.0
  0
LINE
  8
LC-007-005-----0
  6
CONTINUOUS
  5
19D
 10
101.661979
 20
274.196033
 30
0.0
 11
102.661985
 21
275.19604
 31
0.0
  0
LINE
  8
LC-007-005-----0
  6
CONTINUOUS
  5
19E
 10
114.004786
 20
286.53884
 30
0.0
 11
116.83606
 21
289.370115
 31
0.0
  0
LINE
  8
LC-007-005-----0
  6
CONTINUOUS
  5
19F
 10
96.768151
 20
270.716419
 30
0.0
 11
97.768156
 21
271.716424
 31
0.0
  0
LINE
  8
LC-007-005-----0
  6
CONTINUOUS
  5
1A0
 10
99.00487
 20
272.953138
 30
0.0
 11
101.247763
 21
275.196031
 31
0.0
  0
LINE
  8
LC-007-005-----0
  6
CONTINUOUS
  5
1A1
 10
95.353931
 20
270.716412
 30
0.0
 11
96.353935
 21
271.716417
 31
0.0
  0
ENDBLK
  8
0
  5
1A2
  0
BLOCK
  8
0
  5
1A4
  2
BLK11
 70
    64
 10
0.0
 20
0.0
 30
0.0
  3
BLK11
  0
ENDBLK
  8
0
  5
1A5
  0
BLOCK
  8
0
  5
1A7
  2
BLK12
 70
    64
 10
0.0
 20
0.0
 30
0.0
  3
BLK12
  0
ENDBLK
  8
0
  5
1A8
  0
BLOCK
  8
0
  5
1AA
  2
*X28
 70
    65
 10
-85.981428
 20
298.642495
 30
0.0
  3
*X28
  0
LINE
  8
LC-007-005-----0
  6
CONTINUOUS
  5
1AB
 10
-75.02068
 20
300.587743
 30
0.0
 11
-75.122212
 21
300.689275
 31
0.0
  0
LINE
  8
LC-007-005-----0
  6
CONTINUOUS
  5
1AC
 10
-75.126874
 20
299.986831
 30
0.0
 11
-75.586141
 21
300.446097
 31
0.0
  0
LINE
  8
LC-007-005-----0
  6
CONTINUOUS
  5
1AD
 10
-75.590804
 20
299.743653
 30
0.0
 11
-76.05007
 21
300.20292
 31
0.0
  0
LINE
  8
LC-007-005-----0
  6
CONTINUOUS
  5
1AE
 10
-76.054733
 20
299.500476
 30
0.0
 11
-76.596752
 21
300.042495
 31
0.0
  0
LINE
  8
LC-007-005-----0
  6
CONTINUOUS
  5
1AF
 10
-76.603859
 20
299.342495
 30
0.0
 11
-77.301054
 21
300.03969
 31
0.0
  0
LINE
  8
LC-007-005-----0
  6
CONTINUOUS
  5
1B0
 10
-83.701054
 20
299.368622
 30
0.0
 11
-84.374926
 21
300.042495
 31
0.0
  0
LINE
  8
LC-007-005-----0
  6
CONTINUOUS
  5
1B1
 10
-84.382033
 20
299.342495
 30
0.0
 11
-84.932073
 21
299.892534
 31
0.0
  0
LINE
  8
LC-007-005-----0
  6
CONTINUOUS
  5
1B2
 10
-84.936735
 20
299.19009
 30
0.0
 11
-85.396002
 21
299.649357
 31
0.0
  0
LINE
  8
LC-007-005-----0
  6
CONTINUOUS
  5
1B3
 10
-85.400665
 20
298.946913
 30
0.0
 11
-85.859931
 21
299.406179
 31
0.0
  0
LINE
  8
LC-007-005-----0
  6
CONTINUOUS
  5
1B4
 10
-85.864594
 20
298.703735
 30
0.0
 11
-85.981428
 21
298.820569
 31
0.0
  0
ENDBLK
  8
0
  5
1B5
  0
BLOCK
  8
0
  5
1B7
  2
*X29
 70
    65
 10
102.030409
 20
298.642495
 30
0.0
  3
*X29
  0
LINE
  8
LC-007-005-----0
  6
CONTINUOUS
  5
1B8
 10
112.991157
 20
299.252096
 30
0.0
 11
112.801177
 21
299.442076
 31
0.0
  0
LINE
  8
LC-007-005-----0
  6
CONTINUOUS
  5
1B9
 10
112.786242
 20
298.749905
 30
0.0
 11
111.493652
 21
300.042495
 31
0.0
  0
LINE
  8
LC-007-005-----0
  6
CONTINUOUS
  5
1BA
 10
111.486545
 20
299.342495
 30
0.0
 11
110.786545
 21
300.042495
 31
0.0
  0
LINE
  8
LC-007-005-----0
  6
CONTINUOUS
  5
1BB
 10
110.779438
 20
299.342495
 30
0.0
 11
110.710783
 21
299.41115
 31
0.0
  0
LINE
  8
LC-007-005-----0
  6
CONTINUOUS
  5
1BC
 10
104.310783
 20
299.447189
 30
0.0
 11
103.715477
 21
300.042495
 31
0.0
  0
LINE
  8
LC-007-005-----0
  6
CONTINUOUS
  5
1BD
 10
103.708371
 20
299.342495
 30
0.0
 11
102.61457
 21
300.436296
 31
0.0
  0
LINE
  8
LC-007-005-----0
  6
CONTINUOUS
  5
1BE
 10
102.599634
 20
299.744125
 30
0.0
 11
102.030409
 21
300.313349
 31
0.0
  0
ENDBLK
  8
0
  5
1BF
  0
BLOCK
  8
0
  5
1C1
  2
BLK13
 70
    64
 10
0.0
 20
0.0
 30
0.0
  3
BLK13
  0
ENDBLK
  8
0
  5
1C2
  0
BLOCK
  8
0
  5
1C4
  2
BLK14
 70
    64
 10
0.0
 20
0.0
 30
0.0
  3
BLK14
  0
ENDBLK
  8
0
  5
1C5
  0
BLOCK
  8
0
  5
1C7
  2
BLK15
 70
    64
 10
0.0
 20
0.0
 30
0.0
  3
BLK15
  0
ARC
  8
LC-001-002-----0
  6
CONTINUOUS
  5
1C9
 10
-83.758928
 20
273.516633
 30
0.0
 40
0.373547
 50
0.657559
 51
42.030202
  0
ARC
  8
LC-001-002-----0
  6
CONTINUOUS
  5
1CA
 10
-84.141205
 20
273.180742
 30
0.0
 40
0.88241
 50
41.611658
 51
64.786099
  0
ARC
  8
LC-001-002-----0
  6
CONTINUOUS
  5
1CB
 10
-84.592841
 20
272.283907
 30
0.0
 40
1.886381
 50
63.979499
 51
77.898183
  0
ARC
  8
LC-001-002-----0
  6
CONTINUOUS
  5
1CC
 10
-84.810986
 20
271.350087
 30
0.0
 40
2.845236
 50
77.545331
 51
88.115595
  0
ENDBLK
  8
0
  5
1CD
  0
BLOCK
  8
0
  5
1CF
  2
BLK16
 70
    64
 10
0.0
 20
0.0
 30
0.0
  3
BLK16
  0
ARC
  8
LC-001-002-----0
  6
CONTINUOUS
  5
1D0
 10
-75.11005
 20
273.51308
 30
0.0
 40
0.385191
 50
2.018909
 51
44.427197
  0
ARC
  8
LC-001-002-----0
  6
CONTINUOUS
  5
1D1
 10
-75.526144
 20
273.120528
 30
0.0
 40
0.95719
 50
43.772899
 51
66.721011
  0
ARC
  8
LC-001-002-----0
  6
CONTINUOUS
  5
1D2
 10
-75.980205
 20
272.141074
 30
0.0
 40
2.036578
 50
65.876784
 51
79.701704
  0
ARC
  8
LC-001-002-----0
  6
CONTINUOUS
  5
1D3
 10
-76.162184
 20
271.243522
 30
0.0
 40
2.952262
 50
79.340928
 51
90.122105
  0
ENDBLK
  8
0
  5
1D4
  0
BLOCK
  8
0
  5
1D6
  2
BLK17
 70
    64
 10
0.0
 20
0.0
 30
0.0
  3
BLK17
  0
ARC
  8
LC-001-002-----0
  6
CONTINUOUS
  5
1D7
 10
-77.225999
 20
269.679376
 30
0.0
 40
0.386326
 50
182.99596
 51
223.976142
  0
ARC
  8
LC-001-002-----0
  6
CONTINUOUS
  5
1D8
 10
-76.82411
 20
270.05374
 30
0.0
 40
0.935529
 50
223.385026
 51
245.959244
  0
ARC
  8
LC-001-002-----0
  6
CONTINUOUS
  5
1D9
 10
-76.376666
 20
270.989728
 30
0.0
 40
1.972798
 50
245.165703
 51
258.849172
  0
ARC
  8
LC-001-002-----0
  6
CONTINUOUS
  5
1DA
 10
-76.179677
 20
271.898705
 30
0.0
 40
2.902764
 50
258.504134
 51
269.069552
  0
ENDBLK
  8
0
  5
1DB
  0
BLOCK
  8
0
  5
1DD
  2
BLK18
 70
    64
 10
0.0
 20
0.0
 30
0.0
  3
BLK18
  0
ARC
  8
LC-001-002-----0
  6
CONTINUOUS
  5
1DE
 10
-85.887153
 20
269.678475
 30
0.0
 40
0.385189
 50
182.018675
 51
224.427045
  0
ARC
  8
LC-001-002-----0
  6
CONTINUOUS
  5
1DF
 10
-85.47106
 20
270.071023
 30
0.0
 40
0.957186
 50
223.77276
 51
246.720935
  0
ARC
  8
LC-001-002-----0
  6
CONTINUOUS
  5
1E0
 10
-85.016999
 20
271.050476
 30
0.0
 40
2.036573
 50
245.876705
 51
259.701648
  0
ARC
  8
LC-001-002-----0
  6
CONTINUOUS
  5
1E1
 10
-84.835018
 20
271.94803
 30
0.0
 40
2.95226
 50
259.340871
 51
270.122053
  0
ENDBLK
  8
0
  5
1E2
  0
BLOCK
  8
0
  5
1E4
  2
BLK19
 70
    64
 10
0.0
 20
0.0
 30
0.0
  3
BLK19
  0
ARC
  8
LC-001-002-----0
  6
CONTINUOUS
  5
1E5
 10
-77.912074
 20
273.482031
 30
0.0
 40
0.302628
 50
7.383711
 51
67.142408
  0
ARC
  8
LC-001-002-----0
  6
CONTINUOUS
  5
1E6
 10
-78.796892
 20
271.969658
 30
0.0
 40
2.052627
 50
60.768737
 51
77.015522
  0
ARC
  8
LC-001-002-----0
  6
CONTINUOUS
  5
1E7
 10
-79.873732
 20
267.845776
 30
0.0
 40
6.31421
 50
75.901848
 51
83.543485
  0
ARC
  8
LC-001-002-----0
  6
CONTINUOUS
  5
1E8
 10
-80.436412
 20
263.322907
 30
0.0
 40
10.871784
 50
83.277243
 51
88.589223
  0
ENDBLK
  8
0
  5
1E9
  0
BLOCK
  8
0
  5
1EB
  2
BLK20
 70
    64
 10
0.0
 20
0.0
 30
0.0
  3
BLK20
  0
ARC
  8
LC-001-002-----0
  6
CONTINUOUS
  5
1EC
 10
-83.057556
 20
269.726252
 30
0.0
 40
0.333487
 50
190.600065
 51
249.40857
  0
ARC
  8
LC-001-002-----0
  6
CONTINUOUS
  5
1ED
 10
-82.087582
 20
271.513487
 30
0.0
 40
2.364252
 50
242.620928
 51
258.126773
  0
ARC
  8
LC-001-002-----0
  6
CONTINUOUS
  5
1EE
 10
-80.998104
 20
276.063347
 30
0.0
 40
7.042127
 50
257.068609
 51
264.520876
  0
ARC
  8
LC-001-002-----0
  6
CONTINUOUS
  5
1EF
 10
-80.523668
 20
280.468472
 30
0.0
 40
11.472542
 50
264.26291
 51
269.638364
  0
ENDBLK
  8
0
  5
1F0
  0
BLOCK
  8
0
  5
1F2
  2
BLK21
 70
    64
 10
0.0
 20
0.0
 30
0.0
  3
BLK21
  0
ARC
  8
LC-001-002-----0
  6
CONTINUOUS
  5
1F3
 10
-84.835018
 20
271.243523
 30
0.0
 40
2.952261
 50
89.877925
 51
100.659105
  0
ARC
  8
LC-001-002-----0
  6
CONTINUOUS
  5
1F4
 10
-85.016998
 20
272.141077
 30
0.0
 40
2.036575
 50
100.298328
 51
114.123262
  0
ARC
  8
LC-001-002-----0
  6
CONTINUOUS
  5
1F5
 10
-85.471059
 20
273.12053
 30
0.0
 40
0.957187
 50
113.279034
 51
136.227183
  0
ARC
  8
LC-001-002-----0
  6
CONTINUOUS
  5
1F6
 10
-85.887153
 20
273.51308
 30
0.0
 40
0.38519
 50
135.572893
 51
177.981231
  0
ENDBLK
  8
0
  5
1F7
  0
BLOCK
  8
0
  5
1F9
  2
BLK22
 70
    64
 10
0.0
 20
0.0
 30
0.0
  3
BLK22
  0
ARC
  8
LC-001-002-----0
  6
CONTINUOUS
  5
1FA
 10
-80.529724
 20
262.837195
 30
0.0
 40
11.358311
 50
90.565096
 51
95.951156
  0
ARC
  8
LC-001-002-----0
  6
CONTINUOUS
  5
1FB
 10
-81.027274
 20
267.304854
 30
0.0
 40
6.863217
 50
95.686863
 51
103.232882
  0
ARC
  8
LC-001-002-----0
  6
CONTINUOUS
  5
1FC
 10
-82.123
 20
271.774464
 30
0.0
 40
2.261882
 50
102.13101
 51
118.029685
  0
ARC
  8
LC-001-002-----0
  6
CONTINUOUS
  5
1FD
 10
-83.071689
 20
273.475519
 30
0.0
 40
0.316829
 50
111.134524
 51
171.760103
  0
ENDBLK
  8
0
  5
1FE
  0
BLOCK
  8
0
  5
200
  2
BLK23
 70
    64
 10
0.0
 20
0.0
 30
0.0
  3
BLK23
  0
ENDBLK
  8
0
  5
201
  0
BLOCK
  8
0
  5
203
  2
BLK24
 70
    64
 10
0.0
 20
0.0
 30
0.0
  3
BLK24
  0
ARC
  8
LC-001-002-----0
  6
CONTINUOUS
  5
204
 10
-76.18785
 20
271.361884
 30
0.0
 40
2.833346
 50
92.161965
 51
102.568484
  0
ARC
  8
LC-001-002-----0
  6
CONTINUOUS
  5
205
 10
-76.404653
 20
272.283508
 30
0.0
 40
1.886661
 50
102.232724
 51
115.895493
  0
ARC
  8
LC-001-002-----0
  6
CONTINUOUS
  5
206
 10
-76.847528
 20
273.168586
 30
0.0
 40
0.897113
 50
115.137669
 51
137.634308
  0
ARC
  8
LC-001-002-----0
  6
CONTINUOUS
  5
207
 10
-77.230345
 20
273.513398
 30
0.0
 40
0.381924
 50
137.154587
 51
177.151708
  0
ENDBLK
  8
0
  5
208
  0
BLOCK
  8
0
  5
20A
  2
BLK25
 70
    64
 10
0.0
 20
0.0
 30
0.0
  3
BLK25
  0
ARC
  8
LC-001-002-----0
  6
CONTINUOUS
  5
20B
 10
-84.814115
 20
271.867812
 30
0.0
 40
2.871728
 50
271.463232
 51
282.021484
  0
ARC
  8
LC-001-002-----0
  6
CONTINUOUS
  5
20C
 10
-84.605619
 20
270.944939
 30
0.0
 40
1.925705
 50
281.673088
 51
295.470569
  0
ARC
  8
LC-001-002-----0
  6
CONTINUOUS
  5
20D
 10
-84.156054
 20
270.030556
 30
0.0
 40
0.906947
 50
294.671916
 51
317.539566
  0
ARC
  8
LC-001-002-----0
  6
CONTINUOUS
  5
20E
 10
-83.764732
 20
269.676976
 30
0.0
 40
0.379571
 50
317.037941
 51
358.17767
  0
ENDBLK
  8
0
  5
20F
  0
BLOCK
  8
0
  5
211
  2
BLK26
 70
    64
 10
0.0
 20
0.0
 30
0.0
  3
BLK26
  0
ENDBLK
  8
0
  5
212
  0
BLOCK
  8
0
  5
214
  2
BLK27
 70
    64
 10
0.0
 20
0.0
 30
0.0
  3
BLK27
  0
ARC
  8
LC-001-002-----0
  6
CONTINUOUS
  5
215
 10
-80.490786
 20
280.856168
 30
0.0
 40
11.860476
 50
269.492895
 51
274.950272
  0
ARC
  8
LC-001-002-----0
  6
CONTINUOUS
  5
216
 10
-80.094219
 20
276.668921
 30
0.0
 40
7.654702
 50
274.697532
 51
282.013901
  0
ARC
  8
LC-001-002-----0
  6
CONTINUOUS
  5
217
 10
-79.007243
 20
271.785577
 30
0.0
 40
2.652475
 50
281.00498
 51
295.90883
  0
ARC
  8
LC-001-002-----0
  6
CONTINUOUS
  5
218
 10
-77.966378
 20
269.744613
 30
0.0
 40
0.364574
 50
288.902859
 51
346.447647
  0
ENDBLK
  8
0
  5
219
  0
BLOCK
  8
0
  5
21B
  2
BLK28
 70
    64
 10
0.0
 20
0.0
 30
0.0
  3
BLK28
  0
ARC
  8
LC-001-002-----0
  6
CONTINUOUS
  5
21C
 10
-76.162184
 20
271.948031
 30
0.0
 40
2.952261
 50
269.877925
 51
280.65911
  0
ARC
  8
LC-001-002-----0
  6
CONTINUOUS
  5
21D
 10
-75.980203
 20
271.050477
 30
0.0
 40
2.036574
 50
280.298333
 51
294.123276
  0
ARC
  8
LC-001-002-----0
  6
CONTINUOUS
  5
21E
 10
-75.526142
 20
270.071023
 30
0.0
 40
0.957186
 50
293.279046
 51
316.227222
  0
ARC
  8
LC-001-002-----0
  6
CONTINUOUS
  5
21F
 10
-75.110049
 20
269.678475
 30
0.0
 40
0.38519
 50
315.572935
 51
357.981322
  0
ENDBLK
  8
0
  5
220
  0
BLOCK
  8
0
  5
222
  2
BLK29
 70
    64
 10
0.0
 20
0.0
 30
0.0
  3
BLK29
  0
ENDBLK
  8
0
  5
223
  0
BLOCK
  8
0
  5
225
  2
BLK30
 70
    64
 10
0.0
 20
0.0
 30
0.0
  3
BLK30
  0
ENDBLK
  8
0
  5
226
  0
BLOCK
  8
0
  5
228
  2
BLK31
 70
    64
 10
0.0
 20
0.0
 30
0.0
  3
BLK31
  0
ENDBLK
  8
0
  5
229
  0
BLOCK
  8
0
  5
22B
  2
BLK32
 70
    64
 10
0.0
 20
0.0
 30
0.0
  3
BLK32
  0
ARC
  8
LC-001-002-----0
  6
CONTINUOUS
  5
22C
 10
111.820715
 20
271.350087
 30
0.0
 40
2.845236
 50
91.884405
 51
102.454669
  0
ARC
  8
LC-001-002-----0
  6
CONTINUOUS
  5
22D
 10
111.60257
 20
272.283907
 30
0.0
 40
1.886381
 50
102.101817
 51
116.020501
  0
ARC
  8
LC-001-002-----0
  6
CONTINUOUS
  5
22E
 10
111.150934
 20
273.180742
 30
0.0
 40
0.88241
 50
115.213901
 51
138.388342
  0
ARC
  8
LC-001-002-----0
  6
CONTINUOUS
  5
22F
 10
110.768657
 20
273.516633
 30
0.0
 40
0.373547
 50
137.969798
 51
179.342441
  0
ENDBLK
  8
0
  5
230
  0
BLOCK
  8
0
  5
232
  2
BLK33
 70
    64
 10
0.0
 20
0.0
 30
0.0
  3
BLK33
  0
ARC
  8
LC-001-002-----0
  6
CONTINUOUS
  5
233
 10
103.171913
 20
271.243522
 30
0.0
 40
2.952262
 50
89.877895
 51
100.659072
  0
ARC
  8
LC-001-002-----0
  6
CONTINUOUS
  5
234
 10
102.989934
 20
272.141074
 30
0.0
 40
2.036578
 50
100.298296
 51
114.123216
  0
ARC
  8
LC-001-002-----0
  6
CONTINUOUS
  5
235
 10
102.535873
 20
273.120528
 30
0.0
 40
0.95719
 50
113.278989
 51
136.227101
  0
ARC
  8
LC-001-002-----0
  6
CONTINUOUS
  5
236
 10
102.119779
 20
273.51308
 30
0.0
 40
0.385191
 50
135.572803
 51
177.981091
  0
ENDBLK
  8
0
  5
237
  0
BLOCK
  8
0
  5
239
  2
BLK34
 70
    64
 10
0.0
 20
0.0
 30
0.0
  3
BLK34
  0
ARC
  8
LC-001-002-----0
  6
CONTINUOUS
  5
23A
 10
103.189406
 20
271.898705
 30
0.0
 40
2.902764
 50
270.930448
 51
281.495866
  0
ARC
  8
LC-001-002-----0
  6
CONTINUOUS
  5
23B
 10
103.386395
 20
270.989728
 30
0.0
 40
1.972798
 50
281.150828
 51
294.834297
  0
ARC
  8
LC-001-002-----0
  6
CONTINUOUS
  5
23C
 10
103.833839
 20
270.05374
 30
0.0
 40
0.935529
 50
294.040756
 51
316.614974
  0
ARC
  8
LC-001-002-----0
  6
CONTINUOUS
  5
23D
 10
104.235728
 20
269.679376
 30
0.0
 40
0.386326
 50
316.023858
 51
357.00404
  0
ENDBLK
  8
0
  5
23E
  0
BLOCK
  8
0
  5
240
  2
BLK35
 70
    64
 10
0.0
 20
0.0
 30
0.0
  3
BLK35
  0
ARC
  8
LC-001-002-----0
  6
CONTINUOUS
  5
241
 10
111.844747
 20
271.94803
 30
0.0
 40
2.95226
 50
269.877947
 51
280.659129
  0
ARC
  8
LC-001-002-----0
  6
CONTINUOUS
  5
242
 10
112.026728
 20
271.050476
 30
0.0
 40
2.036573
 50
280.298352
 51
294.123295
  0
ARC
  8
LC-001-002-----0
  6
CONTINUOUS
  5
243
 10
112.480789
 20
270.071023
 30
0.0
 40
0.957186
 50
293.279065
 51
316.22724
  0
ARC
  8
LC-001-002-----0
  6
CONTINUOUS
  5
244
 10
112.896882
 20
269.678475
 30
0.0
 40
0.385189
 50
315.572955
 51
357.981325
  0
ENDBLK
  8
0
  5
245
  0
BLOCK
  8
0
  5
247
  2
BLK36
 70
    64
 10
0.0
 20
0.0
 30
0.0
  3
BLK36
  0
ARC
  8
LC-001-002-----0
  6
CONTINUOUS
  5
248
 10
107.446141
 20
263.322907
 30
0.0
 40
10.871784
 50
91.410777
 51
96.722757
  0
ARC
  8
LC-001-002-----0
  6
CONTINUOUS
  5
249
 10
106.883461
 20
267.845776
 30
0.0
 40
6.31421
 50
96.456515
 51
104.098152
  0
ARC
  8
LC-001-002-----0
  6
CONTINUOUS
  5
24A
 10
105.806621
 20
271.969658
 30
0.0
 40
2.052627
 50
102.984478
 51
119.231263
  0
ARC
  8
LC-001-002-----0
  6
CONTINUOUS
  5
24B
 10
104.921803
 20
273.482031
 30
0.0
 40
0.302628
 50
112.857592
 51
172.616289
  0
ENDBLK
  8
0
  5
24C
  0
BLOCK
  8
0
  5
24E
  2
BLK37
 70
    64
 10
0.0
 20
0.0
 30
0.0
  3
BLK37
  0
ARC
  8
LC-001-002-----0
  6
CONTINUOUS
  5
24F
 10
107.533397
 20
280.468472
 30
0.0
 40
11.472542
 50
270.361636
 51
275.73709
  0
ARC
  8
LC-001-002-----0
  6
CONTINUOUS
  5
250
 10
108.007833
 20
276.063347
 30
0.0
 40
7.042127
 50
275.479124
 51
282.931391
  0
ARC
  8
LC-001-002-----0
  6
CONTINUOUS
  5
251
 10
109.097311
 20
271.513487
 30
0.0
 40
2.364252
 50
281.873227
 51
297.379072
  0
ARC
  8
LC-001-002-----0
  6
CONTINUOUS
  5
252
 10
110.067285
 20
269.726252
 30
0.0
 40
0.333487
 50
290.59143
 51
349.399935
  0
ENDBLK
  8
0
  5
253
  0
BLOCK
  8
0
  5
255
  2
BLK38
 70
    64
 10
0.0
 20
0.0
 30
0.0
  3
BLK38
  0
ARC
  8
LC-001-002-----0
  6
CONTINUOUS
  5
256
 10
112.896882
 20
273.51308
 30
0.0
 40
0.38519
 50
2.018769
 51
44.427107
  0
ARC
  8
LC-001-002-----0
  6
CONTINUOUS
  5
257
 10
112.480788
 20
273.12053
 30
0.0
 40
0.957187
 50
43.772817
 51
66.720966
  0
ARC
  8
LC-001-002-----0
  6
CONTINUOUS
  5
258
 10
112.026727
 20
272.141077
 30
0.0
 40
2.036575
 50
65.876738
 51
79.701672
  0
ARC
  8
LC-001-002-----0
  6
CONTINUOUS
  5
259
 10
111.844747
 20
271.243523
 30
0.0
 40
2.952261
 50
79.340895
 51
90.122075
  0
ENDBLK
  8
0
  5
25A
  0
BLOCK
  8
0
  5
25C
  2
BLK39
 70
    64
 10
0.0
 20
0.0
 30
0.0
  3
BLK39
  0
ARC
  8
LC-001-002-----0
  6
CONTINUOUS
  5
25D
 10
110.081418
 20
273.475519
 30
0.0
 40
0.316829
 50
8.239897
 51
68.865476
  0
ARC
  8
LC-001-002-----0
  6
CONTINUOUS
  5
25E
 10
109.132729
 20
271.774464
 30
0.0
 40
2.261882
 50
61.970315
 51
77.86899
  0
ARC
  8
LC-001-002-----0
  6
CONTINUOUS
  5
25F
 10
108.037003
 20
267.304854
 30
0.0
 40
6.863217
 50
76.767118
 51
84.313137
  0
ARC
  8
LC-001-002-----0
  6
CONTINUOUS
  5
260
 10
107.539453
 20
262.837195
 30
0.0
 40
11.358311
 50
84.048844
 51
89.434904
  0
ENDBLK
  8
0
  5
261
  0
BLOCK
  8
0
  5
263
  2
BLK40
 70
    64
 10
0.0
 20
0.0
 30
0.0
  3
BLK40
  0
ENDBLK
  8
0
  5
264
  0
BLOCK
  8
0
  5
266
  2
BLK41
 70
    64
 10
0.0
 20
0.0
 30
0.0
  3
BLK41
  0
ARC
  8
LC-001-002-----0
  6
CONTINUOUS
  5
267
 10
104.240074
 20
273.513398
 30
0.0
 40
0.381924
 50
2.848292
 51
42.845413
  0
ARC
  8
LC-001-002-----0
  6
CONTINUOUS
  5
268
 10
103.857257
 20
273.168586
 30
0.0
 40
0.897113
 50
42.365692
 51
64.862331
  0
ARC
  8
LC-001-002-----0
  6
CONTINUOUS
  5
269
 10
103.414382
 20
272.283508
 30
0.0
 40
1.886661
 50
64.104507
 51
77.767276
  0
ARC
  8
LC-001-002-----0
  6
CONTINUOUS
  5
26A
 10
103.197579
 20
271.361884
 30
0.0
 40
2.833346
 50
77.431516
 51
87.838035
  0
ENDBLK
  8
0
  5
26B
  0
BLOCK
  8
0
  5
26D
  2
BLK42
 70
    64
 10
0.0
 20
0.0
 30
0.0
  3
BLK42
  0
ARC
  8
LC-001-002-----0
  6
CONTINUOUS
  5
26E
 10
110.774461
 20
269.676976
 30
0.0
 40
0.379571
 50
181.82233
 51
222.962059
  0
ARC
  8
LC-001-002-----0
  6
CONTINUOUS
  5
26F
 10
111.165783
 20
270.030556
 30
0.0
 40
0.906947
 50
222.460434
 51
245.328084
  0
ARC
  8
LC-001-002-----0
  6
CONTINUOUS
  5
270
 10
111.615348
 20
270.944939
 30
0.0
 40
1.925705
 50
244.529431
 51
258.326912
  0
ARC
  8
LC-001-002-----0
  6
CONTINUOUS
  5
271
 10
111.823844
 20
271.867812
 30
0.0
 40
2.871728
 50
257.978516
 51
268.536768
  0
ENDBLK
  8
0
  5
272
  0
BLOCK
  8
0
  5
274
  2
BLK43
 70
    64
 10
0.0
 20
0.0
 30
0.0
  3
BLK43
  0
ENDBLK
  8
0
  5
275
  0
BLOCK
  8
0
  5
277
  2
BLK44
 70
    64
 10
0.0
 20
0.0
 30
0.0
  3
BLK44
  0
ARC
  8
LC-001-002-----0
  6
CONTINUOUS
  5
278
 10
104.976107
 20
269.744613
 30
0.0
 40
0.364574
 50
193.552353
 51
251.097141
  0
ARC
  8
LC-001-002-----0
  6
CONTINUOUS
  5
279
 10
106.016972
 20
271.785577
 30
0.0
 40
2.652475
 50
244.09117
 51
258.99502
  0
ARC
  8
LC-001-002-----0
  6
CONTINUOUS
  5
27A
 10
107.103948
 20
276.668921
 30
0.0
 40
7.654702
 50
257.986099
 51
265.302468
  0
ARC
  8
LC-001-002-----0
  6
CONTINUOUS
  5
27B
 10
107.500515
 20
280.856168
 30
0.0
 40
11.860476
 50
265.049728
 51
270.507105
  0
ENDBLK
  8
0
  5
27C
  0
BLOCK
  8
0
  5
27E
  2
BLK45
 70
    64
 10
0.0
 20
0.0
 30
0.0
  3
BLK45
  0
ARC
  8
LC-001-002-----0
  6
CONTINUOUS
  5
27F
 10
102.119778
 20
269.678475
 30
0.0
 40
0.38519
 50
182.018678
 51
224.427065
  0
ARC
  8
LC-001-002-----0
  6
CONTINUOUS
  5
280
 10
102.535871
 20
270.071023
 30
0.0
 40
0.957186
 50
223.772778
 51
246.720954
  0
ARC
  8
LC-001-002-----0
  6
CONTINUOUS
  5
281
 10
102.989932
 20
271.050477
 30
0.0
 40
2.036574
 50
245.876724
 51
259.701667
  0
ARC
  8
LC-001-002-----0
  6
CONTINUOUS
  5
282
 10
103.171913
 20
271.948031
 30
0.0
 40
2.952261
 50
259.34089
 51
270.122075
  0
ENDBLK
  8
0
  5
283
  0
BLOCK
  8
0
  5
285
  2
BLK46
 70
    64
 10
0.0
 20
0.0
 30
0.0
  3
BLK46
  0
ENDBLK
  8
0
  5
286
  0
BLOCK
  8
0
  5
288
  2
*X64
 70
    65
 10
48.504865
 20
142.450875
 30
0.0
  3
*X64
  0
LINE
  8
LC-004-003-----0
  6
CONTINUOUS
  5
289
 10
48.504868
 20
143.828177
 30
0.0
 11
49.88217
 21
142.450875
 31
0.0
  0
LINE
  8
LC-004-003-----0
  6
CONTINUOUS
  5
28A
 10
48.504875
 20
146.656597
 30
0.0
 11
50.625691
 21
144.53578
 31
0.0
  0
LINE
  8
LC-004-003-----0
  6
CONTINUOUS
  5
28B
 10
48.504881
 20
149.485017
 30
0.0
 11
51.004865
 21
146.985034
 31
0.0
  0
LINE
  8
LC-004-003-----0
  6
CONTINUOUS
  5
28C
 10
48.504888
 20
152.313438
 30
0.0
 11
51.004865
 21
149.813461
 31
0.0
  0
LINE
  8
LC-004-003-----0
  6
CONTINUOUS
  5
28D
 10
48.504895
 20
155.141858
 30
0.0
 11
51.004865
 21
152.641888
 31
0.0
  0
LINE
  8
LC-004-003-----0
  6
CONTINUOUS
  5
28E
 10
48.504902
 20
157.970279
 30
0.0
 11
51.004865
 21
155.470316
 31
0.0
  0
LINE
  8
LC-004-003-----0
  6
CONTINUOUS
  5
28F
 10
48.504908
 20
160.798699
 30
0.0
 11
51.004865
 21
158.298743
 31
0.0
  0
LINE
  8
LC-004-003-----0
  6
CONTINUOUS
  5
290
 10
48.504915
 20
163.627119
 30
0.0
 11
51.004865
 21
161.12717
 31
0.0
  0
LINE
  8
LC-004-003-----0
  6
CONTINUOUS
  5
291
 10
48.504922
 20
166.45554
 30
0.0
 11
51.004865
 21
163.955597
 31
0.0
  0
LINE
  8
LC-004-003-----0
  6
CONTINUOUS
  5
292
 10
48.504929
 20
169.28396
 30
0.0
 11
51.004865
 21
166.784024
 31
0.0
  0
LINE
  8
LC-004-003-----0
  6
CONTINUOUS
  5
293
 10
48.504935
 20
172.11238
 30
0.0
 11
51.004865
 21
169.612451
 31
0.0
  0
LINE
  8
LC-004-003-----0
  6
CONTINUOUS
  5
294
 10
48.504942
 20
174.940801
 30
0.0
 11
51.004865
 21
172.440878
 31
0.0
  0
LINE
  8
LC-004-003-----0
  6
CONTINUOUS
  5
295
 10
48.504949
 20
177.769221
 30
0.0
 11
51.004865
 21
175.269305
 31
0.0
  0
LINE
  8
LC-004-003-----0
  6
CONTINUOUS
  5
296
 10
48.504956
 20
180.597642
 30
0.0
 11
51.004865
 21
178.097733
 31
0.0
  0
LINE
  8
LC-004-003-----0
  6
CONTINUOUS
  5
297
 10
48.504962
 20
183.426062
 30
0.0
 11
51.004865
 21
180.92616
 31
0.0
  0
LINE
  8
LC-004-003-----0
  6
CONTINUOUS
  5
298
 10
48.504969
 20
186.254482
 30
0.0
 11
51.004865
 21
183.754587
 31
0.0
  0
LINE
  8
LC-004-003-----0
  6
CONTINUOUS
  5
299
 10
48.504976
 20
189.082903
 30
0.0
 11
51.004865
 21
186.583014
 31
0.0
  0
LINE
  8
LC-004-003-----0
  6
CONTINUOUS
  5
29A
 10
48.504982
 20
191.911323
 30
0.0
 11
51.004865
 21
189.411441
 31
0.0
  0
LINE
  8
LC-004-003-----0
  6
CONTINUOUS
  5
29B
 10
48.504989
 20
194.739743
 30
0.0
 11
51.004865
 21
192.239868
 31
0.0
  0
LINE
  8
LC-004-003-----0
  6
CONTINUOUS
  5
29C
 10
48.504996
 20
197.568164
 30
0.0
 11
51.004865
 21
195.068295
 31
0.0
  0
LINE
  8
LC-004-003-----0
  6
CONTINUOUS
  5
29D
 10
48.505003
 20
200.396584
 30
0.0
 11
51.004865
 21
197.896722
 31
0.0
  0
LINE
  8
LC-004-003-----0
  6
CONTINUOUS
  5
29E
 10
48.505009
 20
203.225005
 30
0.0
 11
51.004865
 21
200.72515
 31
0.0
  0
LINE
  8
LC-004-003-----0
  6
CONTINUOUS
  5
29F
 10
48.505016
 20
206.053425
 30
0.0
 11
51.004865
 21
203.553577
 31
0.0
  0
LINE
  8
LC-004-003-----0
  6
CONTINUOUS
  5
2A0
 10
48.505023
 20
208.881845
 30
0.0
 11
51.004865
 21
206.382004
 31
0.0
  0
LINE
  8
LC-004-003-----0
  6
CONTINUOUS
  5
2A1
 10
49.686772
 20
210.528523
 30
0.0
 11
51.894114
 21
208.321181
 31
0.0
  0
LINE
  8
LC-004-003-----0
  6
CONTINUOUS
  5
2A2
 10
52.201925
 20
210.841798
 30
0.0
 11
54.592848
 21
208.450875
 31
0.0
  0
LINE
  8
LC-004-003-----0
  6
CONTINUOUS
  5
2A3
 10
54.717078
 20
211.155072
 30
0.0
 11
57.421275
 21
208.450875
 31
0.0
  0
LINE
  8
LC-004-003-----0
  6
CONTINUOUS
  5
2A4
 10
57.232231
 20
211.468346
 30
0.0
 11
60.249702
 21
208.450875
 31
0.0
  0
LINE
  8
LC-004-003-----0
  6
CONTINUOUS
  5
2A5
 10
59.747384
 20
211.78162
 30
0.0
 11
63.078129
 21
208.450875
 31
0.0
  0
LINE
  8
LC-004-003-----0
  6
CONTINUOUS
  5
2A6
 10
62.262537
 20
212.094894
 30
0.0
 11
65.906556
 21
208.450875
 31
0.0
  0
LINE
  8
LC-004-003-----0
  6
CONTINUOUS
  5
2A7
 10
64.77769
 20
212.408169
 30
0.0
 11
68.734984
 21
208.450875
 31
0.0
  0
LINE
  8
LC-004-003-----0
  6
CONTINUOUS
  5
2A8
 10
67.292843
 20
212.721443
 30
0.0
 11
71.563411
 21
208.450875
 31
0.0
  0
LINE
  8
LC-004-003-----0
  6
CONTINUOUS
  5
2A9
 10
69.807995
 20
213.034717
 30
0.0
 11
74.391838
 21
208.450875
 31
0.0
  0
LINE
  8
LC-004-003-----0
  6
CONTINUOUS
  5
2AA
 10
72.323148
 20
213.347991
 30
0.0
 11
77.220265
 21
208.450875
 31
0.0
  0
LINE
  8
LC-004-003-----0
  6
CONTINUOUS
  5
2AB
 10
74.838301
 20
213.661265
 30
0.0
 11
80.048692
 21
208.450875
 31
0.0
  0
LINE
  8
LC-004-003-----0
  6
CONTINUOUS
  5
2AC
 10
77.353454
 20
213.97454
 30
0.0
 11
81.254158
 21
210.073836
 31
0.0
  0
LINE
  8
LC-004-003-----0
  6
CONTINUOUS
  5
2AD
 10
78.004865
 20
216.151556
 30
0.0
 11
81.254158
 21
212.902263
 31
0.0
  0
LINE
  8
LC-004-003-----0
  6
CONTINUOUS
  5
2AE
 10
78.004865
 20
218.979984
 30
0.0
 11
81.254158
 21
215.73069
 31
0.0
  0
LINE
  8
LC-004-003-----0
  6
CONTINUOUS
  5
2AF
 10
78.004865
 20
221.808411
 30
0.0
 11
81.254158
 21
218.559118
 31
0.0
  0
LINE
  8
LC-004-003-----0
  6
CONTINUOUS
  5
2B0
 10
91.004158
 20
208.809118
 30
0.0
 11
91.362401
 21
208.450875
 31
0.0
  0
LINE
  8
LC-004-003-----0
  6
CONTINUOUS
  5
2B1
 10
78.004865
 20
224.636838
 30
0.0
 11
81.254158
 21
221.387545
 31
0.0
  0
LINE
  8
LC-004-003-----0
  6
CONTINUOUS
  5
2B2
 10
91.004158
 20
211.637545
 30
0.0
 11
93.504865
 21
209.136838
 31
0.0
  0
LINE
  8
LC-004-003-----0
  6
CONTINUOUS
  5
2B3
 10
78.004865
 20
227.465265
 30
0.0
 11
81.254158
 21
224.215972
 31
0.0
  0
LINE
  8
LC-004-003-----0
  6
CONTINUOUS
  5
2B4
 10
91.004158
 20
214.465972
 30
0.0
 11
93.504865
 21
211.965265
 31
0.0
  0
LINE
  8
LC-004-003-----0
  6
CONTINUOUS
  5
2B5
 10
78.004865
 20
230.293692
 30
0.0
 11
81.254158
 21
227.044399
 31
0.0
  0
LINE
  8
LC-004-003-----0
  6
CONTINUOUS
  5
2B6
 10
91.004158
 20
217.294399
 30
0.0
 11
93.504865
 21
214.793692
 31
0.0
  0
LINE
  8
LC-004-003-----0
  6
CONTINUOUS
  5
2B7
 10
78.004865
 20
233.122119
 30
0.0
 11
81.254158
 21
229.872826
 31
0.0
  0
LINE
  8
LC-004-003-----0
  6
CONTINUOUS
  5
2B8
 10
91.004158
 20
220.122826
 30
0.0
 11
93.504865
 21
217.622119
 31
0.0
  0
LINE
  8
LC-004-003-----0
  6
CONTINUOUS
  5
2B9
 10
78.004865
 20
235.950546
 30
0.0
 11
81.254158
 21
232.701253
 31
0.0
  0
LINE
  8
LC-004-003-----0
  6
CONTINUOUS
  5
2BA
 10
91.004158
 20
222.951253
 30
0.0
 11
93.504865
 21
220.450546
 31
0.0
  0
LINE
  8
LC-004-003-----0
  6
CONTINUOUS
  5
2BB
 10
78.004865
 20
238.778973
 30
0.0
 11
81.254158
 21
235.52968
 31
0.0
  0
LINE
  8
LC-004-003-----0
  6
CONTINUOUS
  5
2BC
 10
91.004158
 20
225.77968
 30
0.0
 11
93.504865
 21
223.278973
 31
0.0
  0
LINE
  8
LC-004-003-----0
  6
CONTINUOUS
  5
2BD
 10
78.004865
 20
241.607401
 30
0.0
 11
81.254158
 21
238.358107
 31
0.0
  0
LINE
  8
LC-004-003-----0
  6
CONTINUOUS
  5
2BE
 10
91.004158
 20
228.608107
 30
0.0
 11
93.504865
 21
226.107401
 31
0.0
  0
LINE
  8
LC-004-003-----0
  6
CONTINUOUS
  5
2BF
 10
78.004865
 20
244.435828
 30
0.0
 11
81.254158
 21
241.186535
 31
0.0
  0
LINE
  8
LC-004-003-----0
  6
CONTINUOUS
  5
2C0
 10
91.004158
 20
231.436535
 30
0.0
 11
93.504865
 21
228.935828
 31
0.0
  0
LINE
  8
LC-004-003-----0
  6
CONTINUOUS
  5
2C1
 10
78.79122
 20
246.4779
 30
0.0
 11
82.318131
 21
242.950988
 31
0.0
  0
LINE
  8
LC-004-003-----0
  6
CONTINUOUS
  5
2C2
 10
91.004158
 20
234.264962
 30
0.0
 11
93.504865
 21
231.764255
 31
0.0
  0
LINE
  8
LC-004-003-----0
  6
CONTINUOUS
  5
2C3
 10
81.596558
 20
246.500988
 30
0.0
 11
84.971982
 21
243.125564
 31
0.0
  0
LINE
  8
LC-004-003-----0
  6
CONTINUOUS
  5
2C4
 10
91.004158
 20
237.093389
 30
0.0
 11
93.504865
 21
234.592682
 31
0.0
  0
LINE
  8
LC-004-003-----0
  6
CONTINUOUS
  5
2C5
 10
83.99931
 20
246.926664
 30
0.0
 11
86.383309
 21
244.542664
 31
0.0
  0
LINE
  8
LC-004-003-----0
  6
CONTINUOUS
  5
2C6
 10
91.004158
 20
239.921816
 30
0.0
 11
93.504865
 21
237.421109
 31
0.0
  0
LINE
  8
LC-004-003-----0
  6
CONTINUOUS
  5
2C7
 10
84.004865
 20
249.749536
 30
0.0
 11
86.554158
 21
247.200243
 31
0.0
  0
LINE
  8
LC-004-003-----0
  6
CONTINUOUS
  5
2C8
 10
91.004158
 20
242.750243
 30
0.0
 11
93.504865
 21
240.249536
 31
0.0
  0
LINE
  8
LC-004-003-----0
  6
CONTINUOUS
  5
2C9
 10
84.004865
 20
252.577963
 30
0.0
 11
86.554158
 21
250.02867
 31
0.0
  0
LINE
  8
LC-004-003-----0
  6
CONTINUOUS
  5
2CA
 10
91.004158
 20
245.57867
 30
0.0
 11
93.504865
 21
243.077963
 31
0.0
  0
LINE
  8
LC-004-003-----0
  6
CONTINUOUS
  5
2CB
 10
84.004865
 20
255.40639
 30
0.0
 11
86.554158
 21
252.857097
 31
0.0
  0
LINE
  8
LC-004-003-----0
  6
CONTINUOUS
  5
2CC
 10
91.004158
 20
248.407097
 30
0.0
 11
93.504865
 21
245.90639
 31
0.0
  0
LINE
  8
LC-004-003-----0
  6
CONTINUOUS
  5
2CD
 10
84.004865
 20
258.234818
 30
0.0
 11
86.554158
 21
255.685524
 31
0.0
  0
LINE
  8
LC-004-003-----0
  6
CONTINUOUS
  5
2CE
 10
91.004158
 20
251.235524
 30
0.0
 11
93.504865
 21
248.734818
 31
0.0
  0
LINE
  8
LC-004-003-----0
  6
CONTINUOUS
  5
2CF
 10
84.113613
 20
260.954497
 30
0.0
 11
88.167121
 21
256.900988
 31
0.0
  0
LINE
  8
LC-004-003-----0
  6
CONTINUOUS
  5
2D0
 10
91.004158
 20
254.063952
 30
0.0
 11
93.504865
 21
251.563245
 31
0.0
  0
LINE
  8
LC-004-003-----0
  6
CONTINUOUS
  5
2D1
 10
86.395548
 20
261.500988
 30
0.0
 11
93.504865
 21
254.391672
 31
0.0
  0
LINE
  8
LC-004-003-----0
  6
CONTINUOUS
  5
2D2
 10
89.223975
 20
261.500988
 30
0.0
 11
93.504865
 21
257.220099
 31
0.0
  0
LINE
  8
LC-004-003-----0
  6
CONTINUOUS
  5
2D3
 10
91.254865
 20
262.298526
 30
0.0
 11
93.504865
 21
260.048526
 31
0.0
  0
LINE
  8
LC-004-003-----0
  6
CONTINUOUS
  5
2D4
 10
91.254865
 20
265.126953
 30
0.0
 11
93.504865
 21
262.876953
 31
0.0
  0
LINE
  8
LC-004-003-----0
  6
CONTINUOUS
  5
2D5
 10
91.254865
 20
267.95538
 30
0.0
 11
93.504865
 21
265.70538
 31
0.0
  0
LINE
  8
LC-004-003-----0
  6
CONTINUOUS
  5
2D6
 10
91.254865
 20
270.783807
 30
0.0
 11
93.504865
 21
268.533807
 31
0.0
  0
LINE
  8
LC-004-003-----0
  6
CONTINUOUS
  5
2D7
 10
91.959883
 20
272.907216
 30
0.0
 11
93.504865
 21
271.362235
 31
0.0
  0
LINE
  8
LC-004-003-----0
  6
CONTINUOUS
  5
2D8
 10
93.374097
 20
274.321429
 30
0.0
 11
94.879403
 21
272.816123
 31
0.0
  0
LINE
  8
LC-004-003-----0
  6
CONTINUOUS
  5
2D9
 10
94.78831
 20
275.735643
 30
0.0
 11
97.70783
 21
272.816123
 31
0.0
  0
LINE
  8
LC-004-003-----0
  6
CONTINUOUS
  5
2DA
 10
96.004863
 20
277.347517
 30
0.0
 11
98.50514
 21
274.847241
 31
0.0
  0
LINE
  8
LC-004-003-----0
  6
CONTINUOUS
  5
2DB
 10
96.004863
 20
280.175944
 30
0.0
 11
98.504889
 21
277.675919
 31
0.0
  0
LINE
  8
LC-004-003-----0
  6
CONTINUOUS
  5
2DC
 10
96.004863
 20
283.004371
 30
0.0
 11
98.504638
 21
280.504596
 31
0.0
  0
LINE
  8
LC-004-003-----0
  6
CONTINUOUS
  5
2DD
 10
101.504874
 20
277.50436
 30
0.0
 11
103.813444
 21
275.19579
 31
0.0
  0
LINE
  8
LC-004-003-----0
  6
CONTINUOUS
  5
2DE
 10
96.004863
 20
285.832798
 30
0.0
 11
98.504388
 21
283.333274
 31
0.0
  0
LINE
  8
LC-004-003-----0
  6
CONTINUOUS
  5
2DF
 10
101.504872
 20
280.33279
 30
0.0
 11
104.758682
 21
277.07898
 31
0.0
  0
LINE
  8
LC-004-003-----0
  6
CONTINUOUS
  5
2E0
 10
96.004863
 20
288.661225
 30
0.0
 11
98.504137
 21
286.161952
 31
0.0
  0
LINE
  8
LC-004-003-----0
  6
CONTINUOUS
  5
2E1
 10
101.50487
 20
283.161219
 30
0.0
 11
104.758931
 21
279.907158
 31
0.0
  0
LINE
  8
LC-004-003-----0
  6
CONTINUOUS
  5
2E2
 10
96.004863
 20
291.489653
 30
0.0
 11
98.503887
 21
288.99063
 31
0.0
  0
LINE
  8
LC-004-003-----0
  6
CONTINUOUS
  5
2E3
 10
101.504868
 20
285.989648
 30
0.0
 11
104.75918
 21
282.735337
 31
0.0
  0
LINE
  8
LC-004-003-----0
  6
CONTINUOUS
  5
2E4
 10
110.258695
 20
277.235821
 30
0.0
 11
112.298726
 21
275.19579
 31
0.0
  0
LINE
  8
LC-004-003-----0
  6
CONTINUOUS
  5
2E5
 10
96.626988
 20
293.695956
 30
0.0
 11
99.128684
 21
291.194259
 31
0.0
  0
LINE
  8
LC-004-003-----0
  6
CONTINUOUS
  5
2E6
 10
101.504865
 20
288.818078
 30
0.0
 11
104.759429
 21
285.563515
 31
0.0
  0
LINE
  8
LC-004-003-----0
  6
CONTINUOUS
  5
2E7
 10
110.258944
 20
280.063999
 30
0.0
 11
113.458606
 21
276.864337
 31
0.0
  0
LINE
  8
LC-004-003-----0
  6
CONTINUOUS
  5
2E8
 10
99.455677
 20
293.695693
 30
0.0
 11
104.759678
 21
288.391693
 31
0.0
  0
LINE
  8
LC-004-003-----0
  6
CONTINUOUS
  5
2E9
 10
110.259193
 20
282.892177
 30
0.0
 11
113.458604
 21
279.692766
 31
0.0
  0
LINE
  8
LC-004-003-----0
  6
CONTINUOUS
  5
2EA
 10
102.284367
 20
293.695431
 30
0.0
 11
104.759927
 21
291.219871
 31
0.0
  0
LINE
  8
LC-004-003-----0
  6
CONTINUOUS
  5
2EB
 10
110.259442
 20
285.720355
 30
0.0
 11
113.458602
 21
282.521196
 31
0.0
  0
LINE
  8
LC-004-003-----0
  6
CONTINUOUS
  5
2EC
 10
110.259691
 20
288.548533
 30
0.0
 11
113.4586
 21
285.349625
 31
0.0
  0
LINE
  8
LC-004-003-----0
  6
CONTINUOUS
  5
2ED
 10
110.25994
 20
291.376711
 30
0.0
 11
113.458597
 21
288.178054
 31
0.0
  0
LINE
  8
LC-004-003-----0
  6
CONTINUOUS
  5
2EE
 10
110.770388
 20
293.694691
 30
0.0
 11
113.458595
 21
291.006484
 31
0.0
  0
LINE
  8
LC-004-003-----0
  6
CONTINUOUS
  5
2EF
 10
113.598815
 20
293.694691
 30
0.0
 11
116.098815
 21
291.194691
 31
0.0
  0
LINE
  8
LC-004-003-----0
  6
CONTINUOUS
  5
2F0
 10
116.427242
 20
293.694691
 30
0.0
 11
118.898834
 21
291.223099
 31
0.0
  0
LINE
  8
LC-004-003-----0
  6
CONTINUOUS
  5
2F1
 10
118.69999
 20
294.25037
 30
0.0
 11
120.972678
 21
291.977682
 31
0.0
  0
LINE
  8
LC-004-003-----0
  6
CONTINUOUS
  5
2F2
 10
120.773828
 20
295.004959
 30
0.0
 11
123.046522
 21
292.732265
 31
0.0
  0
LINE
  8
LC-004-003-----0
  6
CONTINUOUS
  5
2F3
 10
122.847666
 20
295.759548
 30
0.0
 11
125.120366
 21
293.486848
 31
0.0
  0
LINE
  8
LC-004-003-----0
  6
CONTINUOUS
  5
2F4
 10
124.921504
 20
296.514138
 30
0.0
 11
127.19421
 21
294.241431
 31
0.0
  0
LINE
  8
LC-004-003-----0
  6
CONTINUOUS
  5
2F5
 10
126.995342
 20
297.268727
 30
0.0
 11
129.268054
 21
294.996014
 31
0.0
  0
LINE
  8
LC-004-003-----0
  6
CONTINUOUS
  5
2F6
 10
129.06918
 20
298.023316
 30
0.0
 11
131.341899
 21
295.750597
 31
0.0
  0
LINE
  8
LC-004-003-----0
  6
CONTINUOUS
  5
2F7
 10
131.143018
 20
298.777905
 30
0.0
 11
133.415743
 21
296.50518
 31
0.0
  0
LINE
  8
LC-004-003-----0
  6
CONTINUOUS
  5
2F8
 10
133.216855
 20
299.532495
 30
0.0
 11
135.489587
 21
297.259763
 31
0.0
  0
LINE
  8
LC-004-003-----0
  6
CONTINUOUS
  5
2F9
 10
135.290693
 20
300.287084
 30
0.0
 11
137.563431
 21
298.014346
 31
0.0
  0
LINE
  8
LC-004-003-----0
  6
CONTINUOUS
  5
2FA
 10
137.364531
 20
301.041673
 30
0.0
 11
139.637275
 21
298.768929
 31
0.0
  0
LINE
  8
LC-004-003-----0
  6
CONTINUOUS
  5
2FB
 10
139.438369
 20
301.796262
 30
0.0
 11
141.86145
 21
299.373181
 31
0.0
  0
LINE
  8
LC-004-003-----0
  6
CONTINUOUS
  5
2FC
 10
141.690707
 20
302.372352
 30
0.0
 11
144.689873
 21
299.373185
 31
0.0
  0
LINE
  8
LC-004-003-----0
  6
CONTINUOUS
  5
2FD
 10
144.519134
 20
302.372352
 30
0.0
 11
147.518296
 21
299.37319
 31
0.0
  0
LINE
  8
LC-004-003-----0
  6
CONTINUOUS
  5
2FE
 10
147.347561
 20
302.372352
 30
0.0
 11
150.346719
 21
299.373194
 31
0.0
  0
LINE
  8
LC-004-003-----0
  6
CONTINUOUS
  5
2FF
 10
150.175988
 20
302.372352
 30
0.0
 11
153.175142
 21
299.373198
 31
0.0
  0
LINE
  8
LC-004-003-----0
  6
CONTINUOUS
  5
300
 10
153.004415
 20
302.372352
 30
0.0
 11
156.003566
 21
299.373202
 31
0.0
  0
LINE
  8
LC-004-003-----0
  6
CONTINUOUS
  5
301
 10
155.832842
 20
302.372352
 30
0.0
 11
158.831989
 21
299.373206
 31
0.0
  0
LINE
  8
LC-004-003-----0
  6
CONTINUOUS
  5
302
 10
158.661269
 20
302.372352
 30
0.0
 11
161.660412
 21
299.37321
 31
0.0
  0
LINE
  8
LC-004-003-----0
  6
CONTINUOUS
  5
303
 10
161.489696
 20
302.372352
 30
0.0
 11
164.488835
 21
299.373214
 31
0.0
  0
LINE
  8
LC-004-003-----0
  6
CONTINUOUS
  5
304
 10
164.318124
 20
302.372352
 30
0.0
 11
167.317258
 21
299.373218
 31
0.0
  0
LINE
  8
LC-004-003-----0
  6
CONTINUOUS
  5
305
 10
167.146551
 20
302.372352
 30
0.0
 11
170.145681
 21
299.373222
 31
0.0
  0
LINE
  8
LC-004-003-----0
  6
CONTINUOUS
  5
306
 10
169.974978
 20
302.372352
 30
0.0
 11
172.974104
 21
299.373226
 31
0.0
  0
LINE
  8
LC-004-003-----0
  6
CONTINUOUS
  5
307
 10
172.803405
 20
302.372352
 30
0.0
 11
175.802527
 21
299.37323
 31
0.0
  0
LINE
  8
LC-004-003-----0
  6
CONTINUOUS
  5
308
 10
175.631832
 20
302.372352
 30
0.0
 11
178.63095
 21
299.373234
 31
0.0
  0
LINE
  8
LC-004-003-----0
  6
CONTINUOUS
  5
309
 10
178.460259
 20
302.372352
 30
0.0
 11
181.459374
 21
299.373238
 31
0.0
  0
LINE
  8
LC-004-003-----0
  6
CONTINUOUS
  5
30A
 10
181.288686
 20
302.372352
 30
0.0
 11
184.287797
 21
299.373242
 31
0.0
  0
LINE
  8
LC-004-003-----0
  6
CONTINUOUS
  5
30B
 10
184.117113
 20
302.372352
 30
0.0
 11
187.11622
 21
299.373246
 31
0.0
  0
LINE
  8
LC-004-003-----0
  6
CONTINUOUS
  5
30C
 10
186.945541
 20
302.372352
 30
0.0
 11
189.944643
 21
299.37325
 31
0.0
  0
ENDBLK
  8
0
  5
30D
  0
BLOCK
  8
0
  5
30F
  2
BLK47
 70
    64
 10
0.0
 20
0.0
 30
0.0
  3
BLK47
  0
ENDBLK
  8
0
  5
310
  0
BLOCK
  8
0
  5
312
  2
*D66
 70
    65
 10
0.0
 20
0.0
 30
0.0
  3
*D66
  0
LINE
  8
LC-005-003-MTH-0
  6
CONTINUOUS
  5
313
 10
-163.495124
 20
299.44375
 30
0.0
 11
-163.498058
 21
408.795612
 31
0.0
  0
LINE
  8
LC-005-003-MTH-0
  6
CONTINUOUS
  5
314
 10
190.50468
 20
299.45325
 30
0.0
 11
190.501745
 21
408.805113
 31
0.0
  0
LINE
  8
LC-006-003-MTG-0
  6
CONTINUOUS
  5
315
 10
-163.497607
 20
391.995612
 30
0.0
 11
190.502196
 21
392.005113
 31
0.0
  0
LINE
  8
LC-004-003-----0
  6
CONTINUOUS
  5
316
 10
-135.737249
 20
395.651091
 30
0.0
 11
-163.497607
 21
391.995612
 31
0.0
  0
LINE
  8
LC-004-003-----0
  6
CONTINUOUS
  5
317
 10
-163.497607
 20
391.995612
 30
0.0
 11
-135.737053
 21
388.341624
 31
0.0
  0
LINE
  8
LC-004-003-----0
  6
CONTINUOUS
  5
318
 10
-135.737053
 20
388.341624
 30
0.0
 11
-135.737249
 21
395.651091
 31
0.0
  0
LINE
  8
LC-004-003-----0
  6
CONTINUOUS
  5
319
 10
-135.674943
 20
394.700862
 30
0.0
 11
-156.217607
 21
391.995807
 31
0.0
  0
LINE
  8
LC-004-003-----0
  6
CONTINUOUS
  5
31A
 10
-156.217607
 20
391.995807
 30
0.0
 11
-135.674797
 21
389.291856
 31
0.0
  0
LINE
  8
LC-004-003-----0
  6
CONTINUOUS
  5
31B
 10
-135.612636
 20
393.750633
 30
0.0
 11
-148.937607
 21
391.996003
 31
0.0
  0
LINE
  8
LC-004-003-----0
  6
CONTINUOUS
  5
31C
 10
-148.937607
 20
391.996003
 30
0.0
 11
-135.612541
 21
390.242088
 31
0.0
  0
LINE
  8
LC-004-003-----0
  6
CONTINUOUS
  5
31D
 10
-135.550329
 20
392.800404
 30
0.0
 11
-141.657607
 21
391.996198
 31
0.0
  0
LINE
  8
LC-004-003-----0
  6
CONTINUOUS
  5
31E
 10
-141.657607
 20
391.996198
 30
0.0
 11
-135.550286
 21
391.192321
 31
0.0
  0
LINE
  8
LC-004-003-----0
  6
CONTINUOUS
  5
31F
 10
162.741838
 20
388.349635
 30
0.0
 11
190.502196
 21
392.005113
 31
0.0
  0
LINE
  8
LC-004-003-----0
  6
CONTINUOUS
  5
320
 10
190.502196
 20
392.005113
 30
0.0
 11
162.741642
 21
395.659101
 31
0.0
  0
LINE
  8
LC-004-003-----0
  6
CONTINUOUS
  5
321
 10
162.741642
 20
395.659101
 30
0.0
 11
162.741838
 21
388.349635
 31
0.0
  0
LINE
  8
LC-004-003-----0
  6
CONTINUOUS
  5
322
 10
162.679531
 20
389.299864
 30
0.0
 11
183.222196
 21
392.004918
 31
0.0
  0
LINE
  8
LC-004-003-----0
  6
CONTINUOUS
  5
323
 10
183.222196
 20
392.004918
 30
0.0
 11
162.679386
 21
394.708869
 31
0.0
  0
LINE
  8
LC-004-003-----0
  6
CONTINUOUS
  5
324
 10
162.617224
 20
390.250093
 30
0.0
 11
175.942196
 21
392.004722
 31
0.0
  0
LINE
  8
LC-004-003-----0
  6
CONTINUOUS
  5
325
 10
175.942196
 20
392.004722
 30
0.0
 11
162.61713
 21
393.758637
 31
0.0
  0
LINE
  8
LC-004-003-----0
  6
CONTINUOUS
  5
326
 10
162.554917
 20
391.200322
 30
0.0
 11
168.662196
 21
392.004527
 31
0.0
  0
LINE
  8
LC-004-003-----0
  6
CONTINUOUS
  5
327
 10
168.662196
 20
392.004527
 30
0.0
 11
162.554874
 21
392.808404
 31
0.0
  0
TEXT
  8
LC-004-003-----0
  6
CONTINUOUS
 62
     8
  5
328
 10
-20.42077
 20
399.827916
 30
0.0
 40
28.0
  1
Ø354
 41
0.9
 51
15.0
  7
LC-TXTSTYLE-150-400-0-0-A0
 72
     1
 11
17.85068
 21
399.827916
 31
0.0
  0
ENDBLK
  8
0
  5
329
  0
BLOCK
  8
0
  5
32B
  2
*D67
 70
    65
 10
0.0
 20
0.0
 30
0.0
  3
*D67
  0
LINE
  8
LC-005-003-MTH-0
  6
CONTINUOUS
  5
32C
 10
-58.995179
 20
198.450875
 30
0.0
 11
-170.8
 21
198.450875
 31
0.0
  0
LINE
  8
LC-005-003-MTH-0
  6
CONTINUOUS
  5
32D
 10
-163.495124
 20
299.44375
 30
0.0
 11
-137.2
 21
299.44375
 31
0.0
  0
LINE
  8
LC-006-003-MTG-0
  6
CONTINUOUS
  5
32E
 10
-154.0
 20
198.450875
 30
0.0
 11
-154.0
 21
299.44375
 31
0.0
  0
LINE
  8
LC-004-003-----0
  6
CONTINUOUS
  5
32F
 10
-157.654733
 20
226.211331
 30
0.0
 11
-154.0
 21
198.450875
 31
0.0
  0
LINE
  8
LC-004-003-----0
  6
CONTINUOUS
  5
330
 10
-154.0
 20
198.450875
 30
0.0
 11
-150.345267
 21
226.211331
 31
0.0
  0
LINE
  8
LC-004-003-----0
  6
CONTINUOUS
  5
331
 10
-150.345267
 20
226.211331
 30
0.0
 11
-157.654733
 21
226.211331
 31
0.0
  0
LINE
  8
LC-004-003-----0
  6
CONTINUOUS
  5
332
 10
-156.704503
 20
226.273612
 30
0.0
 11
-154.0
 21
205.730875
 31
0.0
  0
LINE
  8
LC-004-003-----0
  6
CONTINUOUS
  5
333
 10
-154.0
 20
205.730875
 30
0.0
 11
-151.295497
 21
226.273612
 31
0.0
  0
LINE
  8
LC-004-003-----0
  6
CONTINUOUS
  5
334
 10
-155.754272
 20
226.335894
 30
0.0
 11
-154.0
 21
213.010875
 31
0.0
  0
LINE
  8
LC-004-003-----0
  6
CONTINUOUS
  5
335
 10
-154.0
 20
213.010875
 30
0.0
 11
-152.245728
 21
226.335894
 31
0.0
  0
LINE
  8
LC-004-003-----0
  6
CONTINUOUS
  5
336
 10
-154.804041
 20
226.398175
 30
0.0
 11
-154.0
 21
220.290875
 31
0.0
  0
LINE
  8
LC-004-003-----0
  6
CONTINUOUS
  5
337
 10
-154.0
 20
220.290875
 30
0.0
 11
-153.195959
 21
226.398175
 31
0.0
  0
LINE
  8
LC-004-003-----0
  6
CONTINUOUS
  5
338
 10
-150.345267
 20
271.683294
 30
0.0
 11
-154.0
 21
299.44375
 31
0.0
  0
LINE
  8
LC-004-003-----0
  6
CONTINUOUS
  5
339
 10
-154.0
 20
299.44375
 30
0.0
 11
-157.654733
 21
271.683294
 31
0.0
  0
LINE
  8
LC-004-003-----0
  6
CONTINUOUS
  5
33A
 10
-157.654733
 20
271.683294
 30
0.0
 11
-150.345267
 21
271.683294
 31
0.0
  0
LINE
  8
LC-004-003-----0
  6
CONTINUOUS
  5
33B
 10
-151.295497
 20
271.621012
 30
0.0
 11
-154.0
 21
292.16375
 31
0.0
  0
LINE
  8
LC-004-003-----0
  6
CONTINUOUS
  5
33C
 10
-154.0
 20
292.16375
 30
0.0
 11
-156.704503
 21
271.621012
 31
0.0
  0
LINE
  8
LC-004-003-----0
  6
CONTINUOUS
  5
33D
 10
-152.245728
 20
271.558731
 30
0.0
 11
-154.0
 21
284.88375
 31
0.0
  0
LINE
  8
LC-004-003-----0
  6
CONTINUOUS
  5
33E
 10
-154.0
 20
284.88375
 30
0.0
 11
-155.754272
 21
271.558731
 31
0.0
  0
LINE
  8
LC-004-003-----0
  6
CONTINUOUS
  5
33F
 10
-153.195959
 20
271.496449
 30
0.0
 11
-154.0
 21
277.60375
 31
0.0
  0
LINE
  8
LC-004-003-----0
  6
CONTINUOUS
  5
340
 10
-154.0
 20
277.60375
 30
0.0
 11
-154.804041
 21
271.496449
 31
0.0
  0
TEXT
  8
LC-004-003-----0
  6
CONTINUOUS
 62
     8
  5
341
 10
-161.827554
 20
226.892172
 30
0.0
 40
28.0
  1
100
 50
90.0
 41
0.9
 51
15.0
  7
LC-TXTSTYLE-150-400-0-0-A0
 72
     1
 11
-161.827554
 21
253.295472
 31
0.0
  0
ENDBLK
  8
0
  5
342
  0
BLOCK
  8
0
  5
344
  2
BLK48
 70
    64
 10
0.0
 20
0.0
 30
0.0
  3
BLK48
  0
ENDBLK
  8
0
  5
345
  0
BLOCK
  8
0
  5
347
  2
BLK49
 70
    64
 10
0.0
 20
0.0
 30
0.0
  3
BLK49
  0
ENDBLK
  8
0
  5
348
  0
BLOCK
  8
0
  5
34A
  2
*X70
 70
    65
 10
-60.744429
 20
236.541822
 30
0.0
  3
*X70
  0
LINE
  8
LC-007-005-----0
  6
CONTINUOUS
  5
34B
 10
-55.567615
 20
237.174592
 30
0.0
 11
-54.877199
 21
237.865008
 31
0.0
  0
LINE
  8
LC-007-005-----0
  6
CONTINUOUS
  5
34C
 10
-57.612455
 20
236.543966
 30
0.0
 11
-54.246572
 21
239.909849
 31
0.0
  0
LINE
  8
LC-007-005-----0
  6
CONTINUOUS
  5
34D
 10
-58.768619
 20
236.802016
 30
0.0
 11
-54.504623
 21
241.066012
 31
0.0
  0
LINE
  8
LC-007-005-----0
  6
CONTINUOUS
  5
34E
 10
-59.636878
 20
237.34797
 30
0.0
 11
-55.050577
 21
241.934271
 31
0.0
  0
LINE
  8
LC-007-005-----0
  6
CONTINUOUS
  5
34F
 10
-60.280557
 20
238.118505
 30
0.0
 11
-55.821112
 21
242.57795
 31
0.0
  0
LINE
  8
LC-007-005-----0
  6
CONTINUOUS
  5
350
 10
-60.677521
 20
239.135754
 30
0.0
 11
-56.838361
 21
242.974914
 31
0.0
  0
LINE
  8
LC-007-005-----0
  6
CONTINUOUS
  5
351
 10
-60.64738
 20
240.580109
 30
0.0
 11
-58.282715
 21
242.944773
 31
0.0
  0
ENDBLK
  8
0
  5
352
  0
BLOCK
  8
0
  5
354
  2
BLK50
 70
    64
 10
0.0
 20
0.0
 30
0.0
  3
BLK50
  0
ENDBLK
  8
0
  5
355
  0
BLOCK
  8
0
  5
357
  2
BLK51
 70
    64
 10
0.0
 20
0.0
 30
0.0
  3
BLK51
  0
ENDBLK
  8
0
  5
358
  0
BLOCK
  8
0
  5
35A
  2
*X73
 70
    65
 10
-163.495134
 20
142.450875
 30
0.0
  3
*X73
  0
LINE
  8
LC-004-003-----0
  6
CONTINUOUS
  5
35B
 10
-23.873113
 20
145.495479
 30
0.0
 11
-21.495137
 21
143.117503
 31
0.0
  0
LINE
  8
LC-004-003-----0
  6
CONTINUOUS
  5
35C
 10
-23.995135
 20
148.445929
 30
0.0
 11
-21.495144
 21
145.945937
 31
0.0
  0
LINE
  8
LC-004-003-----0
  6
CONTINUOUS
  5
35D
 10
-23.995135
 20
151.274356
 30
0.0
 11
-21.495151
 21
148.774371
 31
0.0
  0
LINE
  8
LC-004-003-----0
  6
CONTINUOUS
  5
35E
 10
-23.995135
 20
154.102783
 30
0.0
 11
-21.495157
 21
151.602805
 31
0.0
  0
LINE
  8
LC-004-003-----0
  6
CONTINUOUS
  5
35F
 10
-23.995135
 20
156.93121
 30
0.0
 11
-21.495164
 21
154.431239
 31
0.0
  0
LINE
  8
LC-004-003-----0
  6
CONTINUOUS
  5
360
 10
-23.995135
 20
159.759637
 30
0.0
 11
-21.495171
 21
157.259673
 31
0.0
  0
LINE
  8
LC-004-003-----0
  6
CONTINUOUS
  5
361
 10
-163.044331
 20
301.63726
 30
0.0
 11
-160.780318
 21
299.373247
 31
0.0
  0
LINE
  8
LC-004-003-----0
  6
CONTINUOUS
  5
362
 10
-23.995135
 20
162.588065
 30
0.0
 11
-21.495178
 21
160.088107
 31
0.0
  0
LINE
  8
LC-004-003-----0
  6
CONTINUOUS
  5
363
 10
-160.950996
 20
302.372352
 30
0.0
 11
-157.951886
 21
299.373243
 31
0.0
  0
LINE
  8
LC-004-003-----0
  6
CONTINUOUS
  5
364
 10
-23.995135
 20
165.416492
 30
0.0
 11
-21.495184
 21
162.916541
 31
0.0
  0
LINE
  8
LC-004-003-----0
  6
CONTINUOUS
  5
365
 10
-158.122569
 20
302.372352
 30
0.0
 11
-155.123455
 21
299.373239
 31
0.0
  0
LINE
  8
LC-004-003-----0
  6
CONTINUOUS
  5
366
 10
-66.495135
 20
210.744919
 30
0.0
 11
-64.201091
 21
208.450875
 31
0.0
  0
LINE
  8
LC-004-003-----0
  6
CONTINUOUS
  5
367
 10
-23.995135
 20
168.244919
 30
0.0
 11
-21.495191
 21
165.744974
 31
0.0
  0
LINE
  8
LC-004-003-----0
  6
CONTINUOUS
  5
368
 10
-155.294142
 20
302.372352
 30
0.0
 11
-152.295024
 21
299.373235
 31
0.0
  0
LINE
  8
LC-004-003-----0
  6
CONTINUOUS
  5
369
 10
-66.495135
 20
213.573346
 30
0.0
 11
-63.994429
 21
211.072639
 31
0.0
  0
LINE
  8
LC-004-003-----0
  6
CONTINUOUS
  5
36A
 10
-23.995135
 20
171.073346
 30
0.0
 11
-21.495198
 21
168.573408
 31
0.0
  0
LINE
  8
LC-004-003-----0
  6
CONTINUOUS
  5
36B
 10
-152.465714
 20
302.372352
 30
0.0
 11
-149.466593
 21
299.373231
 31
0.0
  0
LINE
  8
LC-004-003-----0
  6
CONTINUOUS
  5
36C
 10
-66.495135
 20
216.401773
 30
0.0
 11
-63.994429
 21
213.901066
 31
0.0
  0
LINE
  8
LC-004-003-----0
  6
CONTINUOUS
  5
36D
 10
-23.995135
 20
173.901773
 30
0.0
 11
-21.495205
 21
171.401842
 31
0.0
  0
LINE
  8
LC-004-003-----0
  6
CONTINUOUS
  5
36E
 10
-149.637287
 20
302.372352
 30
0.0
 11
-146.638162
 21
299.373227
 31
0.0
  0
LINE
  8
LC-004-003-----0
  6
CONTINUOUS
  5
36F
 10
-66.495135
 20
219.2302
 30
0.0
 11
-63.994429
 21
216.729493
 31
0.0
  0
LINE
  8
LC-004-003-----0
  6
CONTINUOUS
  5
370
 10
-23.995135
 20
176.7302
 30
0.0
 11
-21.495211
 21
174.230276
 31
0.0
  0
LINE
  8
LC-004-003-----0
  6
CONTINUOUS
  5
371
 10
-146.80886
 20
302.372352
 30
0.0
 11
-143.809731
 21
299.373223
 31
0.0
  0
LINE
  8
LC-004-003-----0
  6
CONTINUOUS
  5
372
 10
-66.495135
 20
222.058627
 30
0.0
 11
-63.994429
 21
219.55792
 31
0.0
  0
LINE
  8
LC-004-003-----0
  6
CONTINUOUS
  5
373
 10
-54.244429
 20
209.80792
 30
0.0
 11
-52.887383
 21
208.450875
 31
0.0
  0
LINE
  8
LC-004-003-----0
  6
CONTINUOUS
  5
374
 10
-23.995135
 20
179.558627
 30
0.0
 11
-21.495218
 21
177.05871
 31
0.0
  0
LINE
  8
LC-004-003-----0
  6
CONTINUOUS
  5
375
 10
-143.980433
 20
302.372352
 30
0.0
 11
-140.9813
 21
299.373219
 31
0.0
  0
LINE
  8
LC-004-003-----0
  6
CONTINUOUS
  5
376
 10
-66.495135
 20
224.887054
 30
0.0
 11
-63.994429
 21
222.386348
 31
0.0
  0
LINE
  8
LC-004-003-----0
  6
CONTINUOUS
  5
377
 10
-54.244429
 20
212.636348
 30
0.0
 11
-50.058956
 21
208.450875
 31
0.0
  0
LINE
  8
LC-004-003-----0
  6
CONTINUOUS
  5
378
 10
-23.995135
 20
182.387054
 30
0.0
 11
-21.495225
 21
179.887144
 31
0.0
  0
LINE
  8
LC-004-003-----0
  6
CONTINUOUS
  5
379
 10
-141.152006
 20
302.372352
 30
0.0
 11
-138.152868
 21
299.373215
 31
0.0
  0
LINE
  8
LC-004-003-----0
  6
CONTINUOUS
  5
37A
 10
-66.495135
 20
227.715482
 30
0.0
 11
-63.994429
 21
225.214775
 31
0.0
  0
LINE
  8
LC-004-003-----0
  6
CONTINUOUS
  5
37B
 10
-54.244429
 20
215.464775
 30
0.0
 11
-47.230529
 21
208.450875
 31
0.0
  0
LINE
  8
LC-004-003-----0
  6
CONTINUOUS
  5
37C
 10
-23.995135
 20
185.215482
 30
0.0
 11
-21.495232
 21
182.715578
 31
0.0
  0
LINE
  8
LC-004-003-----0
  6
CONTINUOUS
  5
37D
 10
-138.323579
 20
302.372352
 30
0.0
 11
-135.324437
 21
299.373211
 31
0.0
  0
LINE
  8
LC-004-003-----0
  6
CONTINUOUS
  5
37E
 10
-66.495135
 20
230.543909
 30
0.0
 11
-63.994429
 21
228.043202
 31
0.0
  0
LINE
  8
LC-004-003-----0
  6
CONTINUOUS
  5
37F
 10
-54.244429
 20
218.293202
 30
0.0
 11
-50.995135
 21
215.043909
 31
0.0
  0
LINE
  8
LC-004-003-----0
  6
CONTINUOUS
  5
380
 10
-49.866301
 20
213.915074
 30
0.0
 11
-44.402101
 21
208.450875
 31
0.0
  0
LINE
  8
LC-004-003-----0
  6
CONTINUOUS
  5
381
 10
-23.995135
 20
188.043909
 30
0.0
 11
-21.495238
 21
185.544012
 31
0.0
  0
LINE
  8
LC-004-003-----0
  6
CONTINUOUS
  5
382
 10
-135.495152
 20
302.372352
 30
0.0
 11
-132.496006
 21
299.373207
 31
0.0
  0
LINE
  8
LC-004-003-----0
  6
CONTINUOUS
  5
383
 10
-66.495135
 20
233.372336
 30
0.0
 11
-63.994429
 21
230.871629
 31
0.0
  0
LINE
  8
LC-004-003-----0
  6
CONTINUOUS
  5
384
 10
-54.244429
 20
221.121629
 30
0.0
 11
-50.995135
 21
217.872336
 31
0.0
  0
LINE
  8
LC-004-003-----0
  6
CONTINUOUS
  5
385
 10
-46.635457
 20
213.512657
 30
0.0
 11
-41.573674
 21
208.450875
 31
0.0
  0
LINE
  8
LC-004-003-----0
  6
CONTINUOUS
  5
386
 10
-23.995135
 20
190.872336
 30
0.0
 11
-21.495245
 21
188.372445
 31
0.0
  0
LINE
  8
LC-004-003-----0
  6
CONTINUOUS
  5
387
 10
-132.666725
 20
302.372352
 30
0.0
 11
-129.667575
 21
299.373202
 31
0.0
  0
LINE
  8
LC-004-003-----0
  6
CONTINUOUS
  5
388
 10
-66.495135
 20
236.200763
 30
0.0
 11
-63.994429
 21
233.700056
 31
0.0
  0
LINE
  8
LC-004-003-----0
  6
CONTINUOUS
  5
389
 10
-54.244429
 20
223.950056
 30
0.0
 11
-50.995135
 21
220.700763
 31
0.0
  0
LINE
  8
LC-004-003-----0
  6
CONTINUOUS
  5
38A
 10
-43.404613
 20
213.11024
 30
0.0
 11
-38.745247
 21
208.450875
 31
0.0
  0
LINE
  8
LC-004-003-----0
  6
CONTINUOUS
  5
38B
 10
-23.995135
 20
193.700763
 30
0.0
 11
-21.495252
 21
191.200879
 31
0.0
  0
LINE
  8
LC-004-003-----0
  6
CONTINUOUS
  5
38C
 10
-129.838297
 20
302.372352
 30
0.0
 11
-126.839144
 21
299.373198
 31
0.0
  0
LINE
  8
LC-004-003-----0
  6
CONTINUOUS
  5
38D
 10
-66.495135
 20
239.02919
 30
0.0
 11
-63.994429
 21
236.528483
 31
0.0
  0
LINE
  8
LC-004-003-----0
  6
CONTINUOUS
  5
38E
 10
-54.244429
 20
226.778483
 30
0.0
 11
-50.995135
 21
223.52919
 31
0.0
  0
LINE
  8
LC-004-003-----0
  6
CONTINUOUS
  5
38F
 10
-40.173769
 20
212.707823
 30
0.0
 11
-35.91682
 21
208.450875
 31
0.0
  0
LINE
  8
LC-004-003-----0
  6
CONTINUOUS
  5
390
 10
-23.995135
 20
196.52919
 30
0.0
 11
-21.495259
 21
194.029313
 31
0.0
  0
LINE
  8
LC-004-003-----0
  6
CONTINUOUS
  5
391
 10
-127.00987
 20
302.372352
 30
0.0
 11
-124.010713
 21
299.373194
 31
0.0
  0
LINE
  8
LC-004-003-----0
  6
CONTINUOUS
  5
392
 10
-66.495135
 20
241.857617
 30
0.0
 11
-63.994429
 21
239.35691
 31
0.0
  0
LINE
  8
LC-004-003-----0
  6
CONTINUOUS
  5
393
 10
-54.244429
 20
229.60691
 30
0.0
 11
-50.995135
 21
226.357617
 31
0.0
  0
LINE
  8
LC-004-003-----0
  6
CONTINUOUS
  5
394
 10
-36.942925
 20
212.305407
 30
0.0
 11
-33.088393
 21
208.450875
 31
0.0
  0
LINE
  8
LC-004-003-----0
  6
CONTINUOUS
  5
395
 10
-23.995135
 20
199.357617
 30
0.0
 11
-21.495265
 21
196.857747
 31
0.0
  0
LINE
  8
LC-004-003-----0
  6
CONTINUOUS
  5
396
 10
-124.181443
 20
302.372352
 30
0.0
 11
-121.182282
 21
299.37319
 31
0.0
  0
LINE
  8
LC-004-003-----0
  6
CONTINUOUS
  5
397
 10
-66.495135
 20
244.686044
 30
0.0
 11
-63.994429
 21
242.185337
 31
0.0
  0
LINE
  8
LC-004-003-----0
  6
CONTINUOUS
  5
398
 10
-54.244429
 20
232.435337
 30
0.0
 11
-50.995135
 21
229.186044
 31
0.0
  0
LINE
  8
LC-004-003-----0
  6
CONTINUOUS
  5
399
 10
-33.712081
 20
211.90299
 30
0.0
 11
-30.259966
 21
208.450875
 31
0.0
  0
LINE
  8
LC-004-003-----0
  6
CONTINUOUS
  5
39A
 10
-23.995135
 20
202.186044
 30
0.0
 11
-21.495272
 21
199.686181
 31
0.0
  0
LINE
  8
LC-004-003-----0
  6
CONTINUOUS
  5
39B
 10
-121.353016
 20
302.372352
 30
0.0
 11
-118.35385
 21
299.373186
 31
0.0
  0
LINE
  8
LC-004-003-----0
  6
CONTINUOUS
  5
39C
 10
-66.495135
 20
247.514471
 30
0.0
 11
-63.994429
 21
245.013765
 31
0.0
  0
LINE
  8
LC-004-003-----0
  6
CONTINUOUS
  5
39D
 10
-54.244429
 20
235.263765
 30
0.0
 11
-50.995135
 21
232.014471
 31
0.0
  0
LINE
  8
LC-004-003-----0
  6
CONTINUOUS
  5
39E
 10
-30.481237
 20
211.500573
 30
0.0
 11
-27.431539
 21
208.450875
 31
0.0
  0
LINE
  8
LC-004-003-----0
  6
CONTINUOUS
  5
39F
 10
-23.995135
 20
205.014471
 30
0.0
 11
-21.495279
 21
202.514615
 31
0.0
  0
LINE
  8
LC-004-003-----0
  6
CONTINUOUS
  5
3A0
 10
-118.524589
 20
302.372352
 30
0.0
 11
-115.525419
 21
299.373182
 31
0.0
  0
LINE
  8
LC-004-003-----0
  6
CONTINUOUS
  5
3A1
 10
-66.495135
 20
250.342899
 30
0.0
 11
-63.994429
 21
247.842192
 31
0.0
  0
LINE
  8
LC-004-003-----0
  6
CONTINUOUS
  5
3A2
 10
-54.244429
 20
238.092192
 30
0.0
 11
-50.995135
 21
234.842899
 31
0.0
  0
LINE
  8
LC-004-003-----0
  6
CONTINUOUS
  5
3A3
 10
-27.250393
 20
211.098156
 30
0.0
 11
-24.417633
 21
208.265396
 31
0.0
  0
LINE
  8
LC-004-003-----0
  6
CONTINUOUS
  5
3A4
 10
-23.995135
 20
207.842899
 30
0.0
 11
-21.495285
 21
205.343049
 31
0.0
  0
LINE
  8
LC-004-003-----0
  6
CONTINUOUS
  5
3A5
 10
-115.696162
 20
302.372352
 30
0.0
 11
-111.786843
 21
298.463033
 31
0.0
  0
LINE
  8
LC-004-003-----0
  6
CONTINUOUS
  5
3A6
 10
-66.495135
 20
253.171326
 30
0.0
 11
-63.994429
 21
250.670619
 31
0.0
  0
LINE
  8
LC-004-003-----0
  6
CONTINUOUS
  5
3A7
 10
-59.544429
 20
246.220619
 30
0.0
 11
-56.274798
 21
242.950988
 31
0.0
  0
LINE
  8
LC-004-003-----0
  6
CONTINUOUS
  5
3A8
 10
-54.244429
 20
240.920619
 30
0.0
 11
-50.995135
 21
237.671326
 31
0.0
  0
LINE
  8
LC-004-003-----0
  6
CONTINUOUS
  5
3A9
 10
-24.019549
 20
210.695739
 30
0.0
 11
-21.495292
 21
208.171482
 31
0.0
  0
LINE
  8
LC-004-003-----0
  6
CONTINUOUS
  5
3AA
 10
-112.213286
 20
301.717903
 30
0.0
 11
-107.340629
 21
296.845247
 31
0.0
  0
LINE
  8
LC-004-003-----0
  6
CONTINUOUS
  5
3AB
 10
-86.448878
 20
275.953495
 30
0.0
 11
-85.691173
 21
275.19579
 31
0.0
  0
LINE
  8
LC-004-003-----0
  6
CONTINUOUS
  5
3AC
 10
-66.495135
 20
255.999753
 30
0.0
 11
-63.994429
 21
253.499046
 31
0.0
  0
LINE
  8
LC-004-003-----0
  6
CONTINUOUS
  5
3AD
 10
-59.544429
 20
249.049046
 30
0.0
 11
-50.995135
 21
240.499753
 31
0.0
  0
LINE
  8
LC-004-003-----0
  6
CONTINUOUS
  5
3AE
 10
-107.767043
 20
300.100088
 30
0.0
 11
-102.894416
 21
295.22746
 31
0.0
  0
LINE
  8
LC-004-003-----0
  6
CONTINUOUS
  5
3AF
 10
-86.448876
 20
278.78192
 30
0.0
 11
-83.248821
 21
275.581865
 31
0.0
  0
LINE
  8
LC-004-003-----0
  6
CONTINUOUS
  5
3B0
 10
-66.495135
 20
258.82818
 30
0.0
 11
-63.927538
 21
256.260582
 31
0.0
  0
LINE
  8
LC-004-003-----0
  6
CONTINUOUS
  5
3B1
 10
-59.544429
 20
251.877473
 30
0.0
 11
-56.995135
 21
249.32818
 31
0.0
  0
LINE
  8
LC-004-003-----0
  6
CONTINUOUS
  5
3B2
 10
-54.167944
 20
246.500988
 30
0.0
 11
-50.995135
 21
243.32818
 31
0.0
  0
LINE
  8
LC-004-003-----0
  6
CONTINUOUS
  5
3B3
 10
-103.320801
 20
298.482273
 30
0.0
 11
-98.448202
 21
293.609674
 31
0.0
  0
LINE
  8
LC-004-003-----0
  6
CONTINUOUS
  5
3B4
 10
-86.448874
 20
281.610345
 30
0.0
 11
-83.24907
 21
278.410541
 31
0.0
  0
LINE
  8
LC-004-003-----0
  6
CONTINUOUS
  5
3B5
 10
-66.495135
 20
261.656607
 30
0.0
 11
-61.739517
 21
256.900988
 31
0.0
  0
LINE
  8
LC-004-003-----0
  6
CONTINUOUS
  5
3B6
 10
-59.544429
 20
254.7059
 30
0.0
 11
-56.995135
 21
252.156607
 31
0.0
  0
LINE
  8
LC-004-003-----0
  6
CONTINUOUS
  5
3B7
 10
-98.874558
 20
296.864457
 30
0.0
 11
-94.001988
 21
291.991887
 31
0.0
  0
LINE
  8
LC-004-003-----0
  6
CONTINUOUS
  5
3B8
 10
-86.448871
 20
284.43877
 30
0.0
 11
-83.249319
 21
281.239217
 31
0.0
  0
LINE
  8
LC-004-003-----0
  6
CONTINUOUS
  5
3B9
 10
-77.748834
 20
275.738733
 30
0.0
 11
-77.205892
 21
275.19579
 31
0.0
  0
LINE
  8
LC-004-003-----0
  6
CONTINUOUS
  5
3BA
 10
-66.495135
 20
264.485034
 30
0.0
 11
-64.245135
 21
262.235034
 31
0.0
  0
LINE
  8
LC-004-003-----0
  6
CONTINUOUS
  5
3BB
 10
-63.51109
 20
261.500988
 30
0.0
 11
-56.995135
 21
254.985034
 31
0.0
  0
LINE
  8
LC-004-003-----0
  6
CONTINUOUS
  5
3BC
 10
-94.428316
 20
295.246642
 30
0.0
 11
-90.376365
 21
291.194691
 31
0.0
  0
LINE
  8
LC-004-003-----0
  6
CONTINUOUS
  5
3BD
 10
-86.448869
 20
287.267195
 30
0.0
 11
-83.249568
 21
284.067894
 31
0.0
  0
LINE
  8
LC-004-003-----0
  6
CONTINUOUS
  5
3BE
 10
-77.749084
 20
278.567409
 30
0.0
 11
-74.495147
 21
275.313473
 31
0.0
  0
LINE
  8
LC-004-003-----0
  6
CONTINUOUS
  5
3BF
 10
-66.495135
 20
267.313461
 30
0.0
 11
-64.245135
 21
265.063461
 31
0.0
  0
LINE
  8
LC-004-003-----0
  6
CONTINUOUS
  5
3C0
 10
-60.682662
 20
261.500988
 30
0.0
 11
-56.995135
 21
257.813461
 31
0.0
  0
LINE
  8
LC-004-003-----0
  6
CONTINUOUS
  5
3C1
 10
-90.047938
 20
293.694691
 30
0.0
 11
-87.547938
 21
291.194691
 31
0.0
  0
LINE
  8
LC-004-003-----0
  6
CONTINUOUS
  5
3C2
 10
-86.448867
 20
290.09562
 30
0.0
 11
-83.249817
 21
286.89657
 31
0.0
  0
LINE
  8
LC-004-003-----0
  6
CONTINUOUS
  5
3C3
 10
-77.749333
 20
281.396086
 30
0.0
 11
-74.495145
 21
278.141898
 31
0.0
  0
LINE
  8
LC-004-003-----0
  6
CONTINUOUS
  5
3C4
 10
-71.495384
 20
275.142137
 30
0.0
 11
-69.16937
 21
272.816123
 31
0.0
  0
LINE
  8
LC-004-003-----0
  6
CONTINUOUS
  5
3C5
 10
-66.495135
 20
270.141888
 30
0.0
 11
-64.245135
 21
267.891888
 31
0.0
  0
LINE
  8
LC-004-003-----0
  6
CONTINUOUS
  5
3C6
 10
-57.842521
 20
261.489274
 30
0.0
 11
-57.00685
 21
260.653603
 31
0.0
  0
LINE
  8
LC-004-003-----0
  6
CONTINUOUS
  5
3C7
 10
-87.219511
 20
293.694691
 30
0.0
 11
-83.250066
 21
289.725246
 31
0.0
  0
LINE
  8
LC-004-003-----0
  6
CONTINUOUS
  5
3C8
 10
-77.749582
 20
284.224762
 30
0.0
 11
-74.495143
 21
280.970323
 31
0.0
  0
LINE
  8
LC-004-003-----0
  6
CONTINUOUS
  5
3C9
 10
-71.495134
 20
277.970314
 30
0.0
 11
-64.245135
 21
270.720316
 31
0.0
  0
LINE
  8
LC-004-003-----0
  6
CONTINUOUS
  5
3CA
 10
-84.391084
 20
293.694691
 30
0.0
 11
-83.250315
 21
292.553922
 31
0.0
  0
LINE
  8
LC-004-003-----0
  6
CONTINUOUS
  5
3CB
 10
-77.749831
 20
287.053438
 30
0.0
 11
-74.49514
 21
283.798748
 31
0.0
  0
LINE
  8
LC-004-003-----0
  6
CONTINUOUS
  5
3CC
 10
-71.494883
 20
280.798491
 30
0.0
 11
-68.995134
 21
278.298742
 31
0.0
  0
LINE
  8
LC-004-003-----0
  6
CONTINUOUS
  5
3CD
 10
-77.75008
 20
289.882114
 30
0.0
 11
-74.495138
 21
286.627172
 31
0.0
  0
LINE
  8
LC-004-003-----0
  6
CONTINUOUS
  5
3CE
 10
-71.494633
 20
283.626667
 30
0.0
 11
-68.995134
 21
281.127169
 31
0.0
  0
LINE
  8
LC-004-003-----0
  6
CONTINUOUS
  5
3CF
 10
-77.750329
 20
292.71079
 30
0.0
 11
-74.495136
 21
289.455597
 31
0.0
  0
LINE
  8
LC-004-003-----0
  6
CONTINUOUS
  5
3D0
 10
-71.494382
 20
286.454844
 30
0.0
 11
-68.995134
 21
283.955596
 31
0.0
  0
LINE
  8
LC-004-003-----0
  6
CONTINUOUS
  5
3D1
 10
-75.906484
 20
293.695372
 30
0.0
 11
-73.40537
 21
291.194259
 31
0.0
  0
LINE
  8
LC-004-003-----0
  6
CONTINUOUS
  5
3D2
 10
-71.494132
 20
289.28302
 30
0.0
 11
-68.995134
 21
286.784023
 31
0.0
  0
LINE
  8
LC-004-003-----0
  6
CONTINUOUS
  5
3D3
 10
-73.078319
 20
293.695635
 30
0.0
 11
-68.995134
 21
289.61245
 31
0.0
  0
LINE
  8
LC-004-003-----0
  6
CONTINUOUS
  5
3D4
 10
-70.250154
 20
293.695897
 30
0.0
 11
-68.995134
 21
292.440877
 31
0.0
  0
ENDBLK
  8
0
  5
3D5
  0
BLOCK
  8
0
  5
3D7
  2
BLK52
 70
    64
 10
0.0
 20
0.0
 30
0.0
  3
BLK52
  0
ENDBLK
  8
0
  5
3D8
  0
BLOCK
  8
0
  5
3DA
  2
*D75
 70
    65
 10
0.0
 20
0.0
 30
0.0
  3
*D75
  0
LINE
  8
LC-005-003-MTH-0
  6
CONTINUOUS
  5
3DB
 10
-87.99514
 20
281.492068
 30
0.0
 11
-87.994328
 21
22.399724
 31
0.0
  0
LINE
  8
LC-005-003-MTH-0
  6
CONTINUOUS
  5
3DC
 10
115.004833
 20
281.492704
 30
0.0
 11
115.005645
 21
22.40036
 31
0.0
  0
LINE
  8
LC-006-003-MTG-0
  6
CONTINUOUS
  5
3DD
 10
-87.994381
 20
39.199724
 30
0.0
 11
115.005592
 21
39.20036
 31
0.0
  0
LINE
  8
LC-004-003-----0
  6
CONTINUOUS
  5
3DE
 10
-60.233936
 20
42.854545
 30
0.0
 11
-87.994381
 21
39.199724
 31
0.0
  0
LINE
  8
LC-004-003-----0
  6
CONTINUOUS
  5
3DF
 10
-87.994381
 20
39.199724
 30
0.0
 11
-60.233913
 21
35.545078
 31
0.0
  0
LINE
  8
LC-004-003-----0
  6
CONTINUOUS
  5
3E0
 10
-60.233913
 20
35.545078
 30
0.0
 11
-60.233936
 21
42.854545
 31
0.0
  0
LINE
  8
LC-004-003-----0
  6
CONTINUOUS
  5
3E1
 10
-60.171652
 20
41.904314
 30
0.0
 11
-80.714381
 21
39.199747
 31
0.0
  0
LINE
  8
LC-004-003-----0
  6
CONTINUOUS
  5
3E2
 10
-80.714381
 20
39.199747
 30
0.0
 11
-60.171635
 21
36.495309
 31
0.0
  0
LINE
  8
LC-004-003-----0
  6
CONTINUOUS
  5
3E3
 10
-60.109367
 20
40.954084
 30
0.0
 11
-73.434381
 21
39.19977
 31
0.0
  0
LINE
  8
LC-004-003-----0
  6
CONTINUOUS
  5
3E4
 10
-73.434381
 20
39.19977
 30
0.0
 11
-60.109356
 21
37.44554
 31
0.0
  0
LINE
  8
LC-004-003-----0
  6
CONTINUOUS
  5
3E5
 10
-60.047083
 20
40.003853
 30
0.0
 11
-66.154381
 21
39.199793
 31
0.0
  0
LINE
  8
LC-004-003-----0
  6
CONTINUOUS
  5
3E6
 10
-66.154381
 20
39.199793
 30
0.0
 11
-60.047078
 21
38.395771
 31
0.0
  0
LINE
  8
LC-004-003-----0
  6
CONTINUOUS
  5
3E7
 10
87.245147
 20
35.54554
 30
0.0
 11
115.005592
 21
39.20036
 31
0.0
  0
LINE
  8
LC-004-003-----0
  6
CONTINUOUS
  5
3E8
 10
115.005592
 20
39.20036
 30
0.0
 11
87.245124
 21
42.855007
 31
0.0
  0
LINE
  8
LC-004-003-----0
  6
CONTINUOUS
  5
3E9
 10
87.245124
 20
42.855007
 30
0.0
 11
87.245147
 21
35.54554
 31
0.0
  0
LINE
  8
LC-004-003-----0
  6
CONTINUOUS
  5
3EA
 10
87.182863
 20
36.49577
 30
0.0
 11
107.725592
 21
39.200337
 31
0.0
  0
LINE
  8
LC-004-003-----0
  6
CONTINUOUS
  5
3EB
 10
107.725592
 20
39.200337
 30
0.0
 11
87.182846
 21
41.904776
 31
0.0
  0
LINE
  8
LC-004-003-----0
  6
CONTINUOUS
  5
3EC
 10
87.120578
 20
37.446001
 30
0.0
 11
100.445592
 21
39.200315
 31
0.0
  0
LINE
  8
LC-004-003-----0
  6
CONTINUOUS
  5
3ED
 10
100.445592
 20
39.200315
 30
0.0
 11
87.120567
 21
40.954545
 31
0.0
  0
LINE
  8
LC-004-003-----0
  6
CONTINUOUS
  5
3EE
 10
87.058294
 20
38.396231
 30
0.0
 11
93.165592
 21
39.200292
 31
0.0
  0
LINE
  8
LC-004-003-----0
  6
CONTINUOUS
  5
3EF
 10
93.165592
 20
39.200292
 30
0.0
 11
87.058289
 21
40.004314
 31
0.0
  0
TEXT
  8
LC-004-003-----0
  6
CONTINUOUS
 62
     8
  5
3F0
 10
-20.417658
 20
47.027596
 30
0.0
 40
28.0
  1
Ø203
 41
0.9
 51
15.0
  7
LC-TXTSTYLE-150-400-0-0-A0
 72
     1
 11
17.853792
 21
47.027596
 31
0.0
  0
ENDBLK
  8
0
  5
3F1
  0
ENDSEC
  0
SECTION
  2
ENTITIES
  0
VIEWPORT
  8
LC-000
  5
6E5
 67
     1
 68
     1
 10
420.0
 20
297.0
 30
0.0
 40
840.0
 41
594.0
 69
     1
1001
ACAD
1000
MVIEW
1002
{
1070
    16
1010
0.0
1020
0.0
1030
0.0
1010
0.0
1020
0.0
1030
1.0
1040
0.0
1040
594.0
1040
420.0
1040
297.0
1040
50.0
1040
0.0
1040
0.0
1070
     0
1070
   100
1070
     1
1070
     1
1070
     0
1070
     0
1070
     0
1070
     0
1040
0.0
1040
0.0
1040
0.0
1040
1.0
1040
1.0
1040
0.0
1040
0.0
1070
     0
1002
{
1002
}
1002
}
  0
VIEWPORT
  8
0
  5
6E6
 67
     1
 68
     1
 10
0.0
 20
0.0
 30
0.0
 40
0.0
 41
0.0
 69
     1
1001
ACAD
1000
MVIEW
1002
{
1070
    16
1010
0.0
1020
0.0
1030
0.0
1010
0.0
1020
0.0
1030
1.0
1040
0.0
1040
594.0
1040
0.0
1040
0.0
1040
50.0
1040
0.0
1040
0.0
1070
     0
1070
   100
1070
     0
1070
     1
1070
     0
1070
     0
1070
     0
1070
     0
1040
0.0
1040
0.0
1040
0.0
1040
0.5
1040
0.5
1040
0.5
1040
0.5
1070
     0
1002
{
1002
}
1002
}
  0
INSERT
  8
LC-003-000-----0
  5
3F3
  2
BLK1
 10
0.0
 20
0.0
 30
0.0
  0
INSERT
  8
LC-003-000-----0
  5
3F4
  2
BLK2
 10
0.0
 20
0.0
 30
0.0
  0
DIMENSION
  8
LC-004-003-----0
  6
CONTINUOUS
  5
3F5
  2
*D2
 10
158.015116
 20
117.6
 30
0.0
 11
158.015116
 21
117.6
 31
0.0
  1
DN70
 13
-23.995179
 23
145.950875
 33
0.0
 14
51.004821
 24
145.950875
 34
0.0
  3
LC-DIM-L-0140-02-02
  0
INSERT
  8
LC-007-005-----0
  6
CONTINUOUS
  5
3F6
  2
*X3
 10
-61.894834
 20
268.114251
 30
0.0
  0
INSERT
  8
LC-007-005-----0
  6
CONTINUOUS
  5
3F7
  2
*X4
 10
84.004601
 20
268.114446
 30
0.0
  0
INSERT
  8
LC-007-005-----0
  6
CONTINUOUS
  5
3F8
  2
*X5
 10
-44.387787
 20
331.751933
 30
0.0
  0
INSERT
  8
LC-008-000-----0
  5
3FA
  2
BLK3
 10
0.0
 20
0.0
 30
0.0
  0
INSERT
  8
LC-003-000-----0
  5
3FB
  2
BLK4
 10
0.0
 20
0.0
 30
0.0
  0
INSERT
  8
LC-003-000-----0
  5
3FC
  2
BLK5
 10
0.0
 20
0.0
 30
0.0
  0
INSERT
  8
LC-007-005-----0
  6
CONTINUOUS
  5
3FD
  2
*X9
 10
54.504762
 20
331.752092
 30
0.0
  0
INSERT
  8
LC-003-000-----0
  5
3FE
  2
BLK6
 10
0.0
 20
0.0
 30
0.0
  0
INSERT
  8
LC-003-000-----0
  5
3FF
  2
BLK7
 10
0.0
 20
0.0
 30
0.0
  0
INSERT
  8
LC-007-005-----0
  6
CONTINUOUS
  5
400
  2
*X12
 10
-63.745179
 20
259.000988
 30
0.0
  0
DIMENSION
  8
LC-004-003-----0
  6
CONTINUOUS
  5
401
  2
*D13
 10
13.504821
 20
78.4
 30
0.0
 11
13.504821
 21
78.4
 31
0.0
  1
%%c<>
 13
-66.495179
 23
210.850191
 33
0.0
 14
93.504821
 24
208.450875
 34
0.0
  3
LC-DIM-L-0140-01-02
  0
INSERT
  8
LC-007-005-----0
  6
CONTINUOUS
  5
402
  2
*X14
 10
87.504572
 20
272.142892
 30
0.0
  0
INSERT
  8
LC-007-005-----0
  6
CONTINUOUS
  5
403
  2
*X15
 10
111.004466
 20
296.142893
 30
0.0
  0
INSERT
  8
LC-007-005-----0
  6
CONTINUOUS
  5
404
  2
*X16
 10
51.004821
 20
200.950875
 30
0.0
  0
INSERT
  8
LC-007-005-----0
  6
CONTINUOUS
  5
405
  2
*X17
 10
-76.994834
 20
272.142568
 30
0.0
  0
INSERT
  8
LC-007-005-----0
  6
CONTINUOUS
  5
406
  2
*X18
 10
-111.185804
 20
296.142451
 30
0.0
  0
INSERT
  8
LC-007-005-----0
  6
CONTINUOUS
  5
407
  2
*X19
 10
51.004821
 20
200.950875
 30
0.0
  0
INSERT
  8
LC-003-000-----0
  5
408
  2
BLK8
 10
0.0
 20
0.0
 30
0.0
  0
INSERT
  8
LC-003-000-----0
  5
409
  2
BLK9
 10
0.0
 20
0.0
 30
0.0
  0
INSERT
  8
LC-007-005-----0
  6
CONTINUOUS
  5
40A
  2
*X22
 10
51.004821
 20
195.950875
 30
0.0
  0
INSERT
  8
LC-007-005-----0
  6
CONTINUOUS
  5
40B
  2
*X23
 10
-111.4952
 20
270.715895
 30
0.0
  0
INSERT
  8
LC-003-000-----0
  5
40C
  2
BLK10
 10
0.0
 20
0.0
 30
0.0
  0
INSERT
  8
LC-007-005-----0
  6
CONTINUOUS
  5
40D
  2
*X25
 10
95.005491
 20
270.716411
 30
0.0
  0
INSERT
  8
LC-003-000-----0
  5
40E
  2
BLK11
 10
0.0
 20
0.0
 30
0.0
  0
INSERT
  8
LC-003-000-----0
  5
40F
  2
BLK12
 10
0.0
 20
0.0
 30
0.0
  0
INSERT
  8
LC-007-005-----0
  6
CONTINUOUS
  5
410
  2
*X28
 10
-85.981428
 20
298.642495
 30
0.0
  0
INSERT
  8
LC-007-005-----0
  6
CONTINUOUS
  5
411
  2
*X29
 10
102.030409
 20
298.642495
 30
0.0
  0
INSERT
  8
LC-003-000-----0
  5
412
  2
BLK13
 10
0.0
 20
0.0
 30
0.0
  0
INSERT
  8
LC-003-000-----0
  5
413
  2
BLK14
 10
0.0
 20
0.0
 30
0.0
  0
INSERT
  8
LC-001-002-----0
  6
CONTINUOUS
  5
414
  2
BLK15
 10
0.0
 20
0.0
 30
0.0
  0
INSERT
  8
LC-001-002-----0
  6
CONTINUOUS
  5
415
  2
BLK16
 10
0.0
 20
0.0
 30
0.0
  0
INSERT
  8
LC-001-002-----0
  6
CONTINUOUS
  5
416
  2
BLK17
 10
0.0
 20
0.0
 30
0.0
  0
INSERT
  8
LC-001-002-----0
  6
CONTINUOUS
  5
417
  2
BLK18
 10
0.0
 20
0.0
 30
0.0
  0
INSERT
  8
LC-001-002-----0
  6
CONTINUOUS
  5
418
  2
BLK19
 10
0.0
 20
0.0
 30
0.0
  0
INSERT
  8
LC-001-002-----0
  6
CONTINUOUS
  5
419
  2
BLK20
 10
0.0
 20
0.0
 30
0.0
  0
INSERT
  8
LC-001-002-----0
  6
CONTINUOUS
  5
41A
  2
BLK21
 10
0.0
 20
0.0
 30
0.0
  0
INSERT
  8
LC-001-002-----0
  6
CONTINUOUS
  5
41B
  2
BLK22
 10
0.0
 20
0.0
 30
0.0
  0
INSERT
  8
LC-001-002-----0
  6
CONTINUOUS
  5
41C
  2
BLK23
 10
0.0
 20
0.0
 30
0.0
  0
INSERT
  8
LC-001-002-----0
  6
CONTINUOUS
  5
41D
  2
BLK24
 10
0.0
 20
0.0
 30
0.0
  0
INSERT
  8
LC-001-002-----0
  6
CONTINUOUS
  5
41E
  2
BLK25
 10
0.0
 20
0.0
 30
0.0
  0
INSERT
  8
LC-001-002-----0
  6
CONTINUOUS
  5
41F
  2
BLK26
 10
0.0
 20
0.0
 30
0.0
  0
INSERT
  8
LC-001-002-----0
  6
CONTINUOUS
  5
420
  2
BLK27
 10
0.0
 20
0.0
 30
0.0
  0
INSERT
  8
LC-001-002-----0
  6
CONTINUOUS
  5
421
  2
BLK28
 10
0.0
 20
0.0
 30
0.0
  0
INSERT
  8
LC-003-000-----0
  5
422
  2
BLK29
 10
0.0
 20
0.0
 30
0.0
  0
INSERT
  8
LC-003-000-----0
  5
423
  2
BLK30
 10
0.0
 20
0.0
 30
0.0
  0
INSERT
  8
LC-003-000-----0
  5
424
  2
BLK31
 10
0.0
 20
0.0
 30
0.0
  0
INSERT
  8
LC-001-002-----0
  6
CONTINUOUS
  5
425
  2
BLK32
 10
0.0
 20
0.0
 30
0.0
  0
INSERT
  8
LC-001-002-----0
  6
CONTINUOUS
  5
426
  2
BLK33
 10
0.0
 20
0.0
 30
0.0
  0
INSERT
  8
LC-001-002-----0
  6
CONTINUOUS
  5
427
  2
BLK34
 10
0.0
 20
0.0
 30
0.0
  0
INSERT
  8
LC-001-002-----0
  6
CONTINUOUS
  5
428
  2
BLK35
 10
0.0
 20
0.0
 30
0.0
  0
INSERT
  8
LC-001-002-----0
  6
CONTINUOUS
  5
429
  2
BLK36
 10
0.0
 20
0.0
 30
0.0
  0
INSERT
  8
LC-001-002-----0
  6
CONTINUOUS
  5
42A
  2
BLK37
 10
0.0
 20
0.0
 30
0.0
  0
INSERT
  8
LC-001-002-----0
  6
CONTINUOUS
  5
42B
  2
BLK38
 10
0.0
 20
0.0
 30
0.0
  0
INSERT
  8
LC-001-002-----0
  6
CONTINUOUS
  5
42C
  2
BLK39
 10
0.0
 20
0.0
 30
0.0
  0
INSERT
  8
LC-001-002-----0
  6
CONTINUOUS
  5
42D
  2
BLK40
 10
0.0
 20
0.0
 30
0.0
  0
INSERT
  8
LC-001-002-----0
  6
CONTINUOUS
  5
42E
  2
BLK41
 10
0.0
 20
0.0
 30
0.0
  0
INSERT
  8
LC-001-002-----0
  6
CONTINUOUS
  5
42F
  2
BLK42
 10
0.0
 20
0.0
 30
0.0
  0
INSERT
  8
LC-001-002-----0
  6
CONTINUOUS
  5
430
  2
BLK43
 10
0.0
 20
0.0
 30
0.0
  0
INSERT
  8
LC-001-002-----0
  6
CONTINUOUS
  5
431
  2
BLK44
 10
0.0
 20
0.0
 30
0.0
  0
INSERT
  8
LC-001-002-----0
  6
CONTINUOUS
  5
432
  2
BLK45
 10
0.0
 20
0.0
 30
0.0
  0
INSERT
  8
LC-003-000-----0
  5
433
  2
BLK46
 10
0.0
 20
0.0
 30
0.0
  0
INSERT
  8
LC-004-003-----0
  6
CONTINUOUS
  5
434
  2
*X64
 10
48.504865
 20
142.450875
 30
0.0
  0
INSERT
  8
LC-003-000-----0
  5
435
  2
BLK47
 10
0.0
 20
0.0
 30
0.0
  0
DIMENSION
  8
LC-004-003-----0
  6
CONTINUOUS
  5
436
  2
*D66
 10
13.502294
 20
392.000363
 30
0.0
 11
13.502294
 21
392.000363
 31
0.0
 70
     1
  1
%%c<>
 13
-163.495124
 23
299.44375
 33
0.0
 14
190.50468
 24
299.45325
 34
0.0
  3
LC-DIM-L-0140-02-02
  0
DIMENSION
  8
LC-004-003-----0
  6
CONTINUOUS
  5
437
  2
*D67
 10
-154.0
 20
248.947312
 30
0.0
 11
-154.0
 21
248.947312
 31
0.0
  1
100
 13
-163.495124
 23
299.44375
 33
0.0
 14
-58.995179
 24
198.450875
 34
0.0
 50
90.0
  3
LC-DIM-L-0140-02-02
  0
INSERT
  8
LC-003-000-----0
  5
438
  2
BLK48
 10
0.0
 20
0.0
 30
0.0
  0
INSERT
  8
LC-003-000-----0
  5
439
  2
BLK49
 10
0.0
 20
0.0
 30
0.0
  0
INSERT
  8
LC-007-005-----0
  6
CONTINUOUS
  5
43A
  2
*X70
 10
-60.744429
 20
236.541822
 30
0.0
  0
INSERT
  8
LC-007-005-----0
  6
CONTINUOUS
  5
43B
  2
BLK50
 10
0.0
 20
0.0
 30
0.0
  0
INSERT
  8
LC-007-005-----0
  6
CONTINUOUS
  5
43C
  2
BLK51
 10
0.0
 20
0.0
 30
0.0
  0
INSERT
  8
LC-004-003-----0
  6
CONTINUOUS
  5
43D
  2
*X73
 10
-163.495134
 20
142.450875
 30
0.0
  0
INSERT
  8
LC-007-005-----0
  6
CONTINUOUS
  5
43E
  2
BLK52
 10
0.0
 20
0.0
 30
0.0
  0
DIMENSION
  8
LC-004-003-----0
  6
CONTINUOUS
  5
43F
  2
*D75
 10
13.505606
 20
39.200042
 30
0.0
 11
13.505606
 21
39.200042
 31
0.0
 70
     1
  1
%%c<>
 13
-87.99514
 23
281.492068
 33
0.0
 14
115.004833
 24
281.492704
 34
0.0
  3
LC-DIM-L-0140-02-02
  0
LINE
  8
LC-001-002-----0
  6
CONTINUOUS
  5
440
 10
-77.498601
 20
275.195481
 30
0.0
 11
-73.495124
 21
275.195481
 31
0.0
  0
LINE
  8
LC-001-002-----0
  6
CONTINUOUS
  5
441
 10
-77.498601
 20
298.642495
 30
0.0
 11
-75.02068
 21
298.642495
 31
0.0
  0
LINE
  8
LC-001-002-----0
  6
CONTINUOUS
  5
442
 10
-83.994834
 20
298.642479
 30
0.0
 11
-85.473514
 21
298.642473
 31
0.0
  0
LINE
  8
LC-001-002-----0
  6
CONTINUOUS
  5
443
 10
-83.498644
 20
297.642482
 30
0.0
 11
-83.498601
 21
297.642482
 31
0.0
  0
LINE
  8
LC-001-002-----0
  6
CONTINUOUS
  5
444
 10
-75.52186
 20
300.74211
 30
0.0
 11
-77.498601
 21
300.742101
 31
0.0
  0
LINE
  8
LC-001-002-----0
  6
CONTINUOUS
  5
445
 10
-83.498601
 20
300.742075
 30
0.0
 11
-85.479219
 21
300.742067
 31
0.0
  0
LINE
  8
LC-001-002-----0
  6
CONTINUOUS
  5
446
 10
10.199448
 20
357.314312
 30
0.0
 11
10.199448
 21
372.114312
 31
0.0
  0
LINE
  8
LC-001-002-----0
  6
CONTINUOUS
  5
447
 10
-74.498644
 20
300.742495
 30
0.0
 11
-77.498601
 21
300.742495
 31
0.0
  0
LINE
  8
LC-001-002-----0
  6
CONTINUOUS
  5
448
 10
-83.498601
 20
300.742495
 30
0.0
 11
-86.498644
 21
300.742495
 31
0.0
  0
LINE
  8
LC-001-002-----0
  6
CONTINUOUS
  5
449
 10
-75.498644
 20
309.742495
 30
0.0
 11
-77.498601
 21
309.742495
 31
0.0
  0
LINE
  8
LC-001-002-----0
  6
CONTINUOUS
  5
44A
 10
-83.498601
 20
309.742495
 30
0.0
 11
-85.498644
 21
309.742495
 31
0.0
  0
LINE
  8
LC-001-002-----0
  6
CONTINUOUS
  5
44B
 10
-87.186544
 20
315.430321
 30
0.0
 11
-85.498644
 21
309.742495
 31
0.0
  0
LINE
  8
LC-001-002-----0
  6
CONTINUOUS
  5
44C
 10
-74.498644
 20
300.742495
 30
0.0
 11
-75.498644
 21
309.742495
 31
0.0
  0
LINE
  8
LC-001-002-----0
  6
CONTINUOUS
  5
44D
 10
-85.498644
 20
309.742495
 30
0.0
 11
-86.498644
 21
300.742495
 31
0.0
  0
LINE
  8
LC-001-002-----0
  6
CONTINUOUS
  5
44E
 10
16.810116
 20
357.314321
 30
0.0
 11
16.810075
 21
372.114321
 31
0.0
  0
ARC
  8
LC-002-002-RND-0
  6
CONTINUOUS
  5
450
 10
-90.80211
 20
313.817504
 30
0.0
 40
3.925
 50
24.105895
 51
90.12741
  0
LINE
  8
LC-001-002-----0
  6
CONTINUOUS
  5
451
 10
71.397421
 20
331.752092
 30
0.0
 11
13.504817
 21
331.751933
 31
0.0
  0
LINE
  8
LC-001-002-----0
  6
CONTINUOUS
  5
452
 10
-73.810744
 20
315.430321
 30
0.0
 11
-75.498644
 21
309.742495
 31
0.0
  0
ARC
  8
LC-002-002-RND-0
  6
CONTINUOUS
  5
453
 10
-68.923166
 20
313.272996
 30
0.0
 40
3.925
 50
315.504186
 51
40.088251
  0
LINE
  8
LC-001-002-----0
  6
CONTINUOUS
  5
454
 10
-54.881227
 20
297.114251
 30
0.0
 11
-40.617153
 21
331.751933
 31
0.0
  0
LINE
  8
LC-001-002-----0
  6
CONTINUOUS
  5
455
 10
-65.94376
 20
310.717852
 30
0.0
 11
-74.498644
 21
300.742495
 31
0.0
  0
LINE
  8
LC-001-002-----0
  6
CONTINUOUS
  5
456
 10
-95.053528
 20
310.717852
 30
0.0
 11
-86.498644
 21
300.742495
 31
0.0
  0
ARC
  8
LC-002-002-RND-0
  6
CONTINUOUS
  5
457
 10
-70.195178
 20
313.817504
 30
0.0
 40
3.925
 50
89.87259
 51
155.894105
  0
ARC
  8
LC-001-002-----0
  6
CONTINUOUS
  5
458
 10
-70.186353
 20
312.209737
 30
0.0
 40
5.576109
 50
40.088251
 51
90.091384
  0
LINE
  8
LC-001-002-----0
  6
CONTINUOUS
  5
459
 10
-83.498644
 20
300.742495
 30
0.0
 11
-83.498644
 21
300.742495
 31
0.0
  0
LINE
  8
LC-001-002-----0
  6
CONTINUOUS
  5
45A
 10
110.50833
 20
300.042495
 30
0.0
 11
110.710783
 21
300.042495
 31
0.0
  0
LINE
  8
LC-001-002-----0
  6
CONTINUOUS
  5
45B
 10
104.50833
 20
299.342495
 30
0.0
 11
104.310783
 21
299.342495
 31
0.0
  0
LINE
  8
LC-001-002-----0
  6
CONTINUOUS
  5
45C
 10
110.50833
 20
298.642482
 30
0.0
 11
112.483243
 21
298.642473
 31
0.0
  0
LINE
  8
LC-001-002-----0
  6
CONTINUOUS
  5
45D
 10
104.50833
 20
298.642495
 30
0.0
 11
102.030409
 21
298.642495
 31
0.0
  0
LINE
  8
LC-001-002-----0
  6
CONTINUOUS
  5
45E
 10
110.50833
 20
298.642901
 30
0.0
 11
112.483146
 21
298.642901
 31
0.0
  0
ARC
  8
LC-002-002-RND-0
  6
CONTINUOUS
  5
45F
 10
-34.943823
 20
357.11425
 30
0.0
 40
15.0
 50
90.000079
 51
160.0
  0
LINE
  8
LC-001-002-----0
  6
CONTINUOUS
  5
460
 10
1.704904
 20
268.114251
 30
0.0
 11
13.469161
 21
268.114251
 31
0.0
  0
LINE
  8
LC-001-002-----0
  6
CONTINUOUS
  5
461
 10
104.50833
 20
274.196051
 30
0.0
 11
104.004874
 21
274.196048
 31
0.0
  0
LINE
  8
LC-001-002-----0
  6
CONTINUOUS
  5
462
 10
104.50833
 20
275.196051
 30
0.0
 11
100.50486
 21
275.196026
 31
0.0
  0
LINE
  8
LC-001-002-----0
  6
CONTINUOUS
  5
463
 10
-12.366777
 20
336.414251
 30
0.0
 11
-7.911571
 21
357.314287
 31
0.0
  0
LINE
  8
LC-001-002-----0
  6
CONTINUOUS
  5
464
 10
-34.943844
 20
372.11425
 30
0.0
 11
13.504762
 21
372.114316
 31
0.0
  0
LINE
  8
LC-001-002-----0
  6
CONTINUOUS
  5
465
 10
25.304876
 20
288.414285
 30
0.0
 11
25.304904
 21
268.114283
 31
0.0
  0
LINE
  8
LC-001-002-----0
  6
CONTINUOUS
  5
466
 10
81.890956
 20
297.114439
 30
0.0
 11
67.626787
 21
331.752082
 31
0.0
  0
ARC
  8
LC-002-002-RND-0
  6
CONTINUOUS
  5
467
 10
61.953388
 20
357.114383
 30
0.0
 40
15.0
 50
20.000157
 51
90.000079
  0
LINE
  8
LC-001-002-----0
  6
CONTINUOUS
  5
468
 10
-56.994872
 20
297.114251
 30
0.0
 11
-29.697103
 21
372.114257
 31
0.0
  0
LINE
  8
LC-001-002-----0
  6
CONTINUOUS
  5
469
 10
-28.982106
 20
368.029125
 30
0.0
 11
-27.495238
 21
372.11426
 31
0.0
  0
LINE
  8
LC-001-002-----0
  6
CONTINUOUS
  5
46A
 10
-31.334971
 20
367.614251
 30
0.0
 11
-28.982106
 21
368.029125
 31
0.0
  0
LINE
  8
LC-001-002-----0
  6
CONTINUOUS
  5
46B
 10
25.304904
 20
268.114283
 30
0.0
 11
13.540647
 21
268.114251
 31
0.0
  0
LINE
  8
LC-001-002-----0
  6
CONTINUOUS
  5
46C
 10
39.376398
 20
336.414322
 30
0.0
 11
34.921135
 21
357.314346
 31
0.0
  0
LINE
  8
LC-001-002-----0
  6
CONTINUOUS
  5
46D
 10
99.090428
 20
298.93881
 30
0.0
 11
96.165412
 21
306.975156
 31
0.0
  0
LINE
  8
LC-001-002-----0
  6
CONTINUOUS
  5
46E
 10
84.004612
 20
289.414444
 30
0.0
 11
26.153957
 21
289.414286
 31
0.0
  0
LINE
  8
LC-001-002-----0
  6
CONTINUOUS
  5
46F
 10
27.304876
 20
288.414287
 30
0.0
 11
27.304887
 21
280.414289
 31
0.0
  0
ARC
  8
LC-002-002-RND-0
  6
CONTINUOUS
  5
470
 10
26.304876
 20
288.414286
 30
0.0
 40
1.0
 50
90.000157
 51
180.000079
  0
LINE
  8
LC-001-002-----0
  6
CONTINUOUS
  5
471
 10
84.004601
 20
297.114444
 30
0.0
 11
56.706626
 21
372.114375
 31
0.0
  0
LINE
  8
LC-001-002-----0
  6
CONTINUOUS
  5
472
 10
-68.888137
 20
297.114251
 30
0.0
 11
-72.080704
 21
298.938575
 31
0.0
  0
LINE
  8
LC-001-002-----0
  6
CONTINUOUS
  5
473
 10
55.991641
 20
368.029241
 30
0.0
 11
54.504762
 21
372.114372
 31
0.0
  0
LINE
  8
LC-001-002-----0
  6
CONTINUOUS
  5
474
 10
58.344506
 20
367.614374
 30
0.0
 11
55.991641
 21
368.029241
 31
0.0
  0
LINE
  8
LC-001-002-----0
  6
CONTINUOUS
  5
475
 10
92.950747
 20
315.807301
 30
0.0
 11
76.048763
 21
362.244723
 31
0.0
  0
LINE
  8
LC-001-002-----0
  6
CONTINUOUS
  5
476
 10
81.295672
 20
297.114437
 30
0.0
 11
67.031503
 21
331.75208
 31
0.0
  0
LINE
  8
LC-001-002-----0
  6
CONTINUOUS
  5
477
 10
59.46594
 20
336.414377
 30
0.0
 11
51.749245
 21
357.314369
 31
0.0
  0
LINE
  8
LC-001-002-----0
  6
CONTINUOUS
  5
478
 10
60.615939
 20
336.41438
 30
0.0
 11
52.899245
 21
357.31437
 31
0.0
  0
LINE
  8
LC-001-002-----0
  6
CONTINUOUS
  5
479
 10
64.162172
 20
297.11439
 30
0.0
 11
53.720053
 21
331.752044
 31
0.0
  0
LINE
  8
LC-001-002-----0
  6
CONTINUOUS
  5
47A
 10
62.535826
 20
297.114385
 30
0.0
 11
52.075481
 21
331.752039
 31
0.0
  0
LINE
  8
LC-001-002-----0
  6
CONTINUOUS
  5
47B
 10
65.706794
 20
336.414394
 30
0.0
 11
57.099948
 21
357.314376
 31
0.0
  0
LINE
  8
LC-001-002-----0
  6
CONTINUOUS
  5
47C
 10
95.947684
 20
297.142945
 30
0.0
 11
99.090428
 21
298.93881
 31
0.0
  0
LINE
  8
LC-001-002-----0
  6
CONTINUOUS
  5
47D
 10
12.355125
 20
357.314315
 30
0.0
 11
12.355125
 21
336.414251
 31
0.0
  0
ARC
  8
LC-002-002-RND-0
  6
CONTINUOUS
  5
47E
 10
-60.894834
 20
269.114251
 30
0.0
 40
1.0
 50
90.0
 51
180.000079
  0
LINE
  8
LC-001-002-----0
  6
CONTINUOUS
  5
47F
 10
-42.690842
 20
336.414251
 30
0.0
 11
-42.690842
 21
332.051151
 31
0.0
  0
ARC
  8
LC-002-002-RND-0
  6
CONTINUOUS
  5
480
 10
-60.894834
 20
269.114251
 30
0.0
 40
1.0
 50
180.000079
 51
270.0
  0
LINE
  8
LC-001-002-----0
  6
CONTINUOUS
  5
481
 10
-60.994834
 20
268.114251
 30
0.0
 11
-59.494832
 21
268.114251
 31
0.0
  0
LINE
  8
LC-001-002-----0
  6
CONTINUOUS
  5
482
 10
-64.394849
 20
280.414251
 30
0.0
 11
-60.394849
 21
280.414251
 31
0.0
  0
ARC
  8
LC-002-002-RND-0
  6
CONTINUOUS
  5
483
 10
-60.894836
 20
270.614251
 30
0.0
 40
0.5
 50
270.0
 51
0.000079
  0
LINE
  8
LC-001-002-----0
  6
CONTINUOUS
  5
484
 10
-60.894834
 20
268.114251
 30
0.0
 11
-57.494833
 21
268.114251
 31
0.0
  0
LINE
  8
LC-001-002-----0
  6
CONTINUOUS
  5
485
 10
-23.657871
 20
336.414251
 30
0.0
 11
-17.346263
 21
357.314274
 31
0.0
  0
LINE
  8
LC-001-002-----0
  6
CONTINUOUS
  5
486
 10
-44.387787
 20
331.751933
 30
0.0
 11
-42.690842
 21
332.051151
 31
0.0
  0
ARC
  8
LC-002-002-RND-0
  6
CONTINUOUS
  5
487
 10
-64.394849
 20
280.914251
 30
0.0
 40
0.5
 50
180.000079
 51
270.0
  0
LINE
  8
LC-001-002-----0
  6
CONTINUOUS
  5
488
 10
-25.304896
 20
336.414251
 30
0.0
 11
-19.004286
 21
357.314272
 31
0.0
  0
LINE
  8
LC-001-002-----0
  6
CONTINUOUS
  5
489
 10
-57.494862
 20
289.414251
 30
0.0
 11
-57.494833
 21
268.114251
 31
0.0
  0
LINE
  8
LC-001-002-----0
  6
CONTINUOUS
  5
48A
 10
-57.494849
 20
280.414251
 30
0.0
 11
-0.295113
 21
280.414251
 31
0.0
  0
LINE
  8
LC-001-002-----0
  6
CONTINUOUS
  5
48B
 10
-64.894872
 20
297.114251
 30
0.0
 11
-64.894849
 21
280.91425
 31
0.0
  0
LINE
  8
LC-001-002-----0
  6
CONTINUOUS
  5
48C
 10
-35.083865
 20
357.31425
 30
0.0
 11
13.504782
 21
357.314316
 31
0.0
  0
LINE
  8
LC-001-002-----0
  6
CONTINUOUS
  5
48D
 10
-14.358635
 20
336.414251
 30
0.0
 11
-9.903429
 21
357.314284
 31
0.0
  0
LINE
  8
LC-001-002-----0
  6
CONTINUOUS
  5
48E
 10
-42.690842
 20
336.414251
 30
0.0
 11
13.504811
 21
336.414251
 31
0.0
  0
LINE
  8
LC-001-002-----0
  6
CONTINUOUS
  5
48F
 10
-44.387787
 20
331.751933
 30
0.0
 11
13.504817
 21
331.751933
 31
0.0
  0
LINE
  8
LC-001-002-----0
  6
CONTINUOUS
  5
490
 10
75.126271
 20
297.11442
 30
0.0
 11
62.337359
 21
331.752067
 31
0.0
  0
LINE
  8
LC-001-002-----0
  6
CONTINUOUS
  5
491
 10
30.638104
 20
297.114298
 30
0.0
 11
26.815965
 21
331.75197
 31
0.0
  0
LINE
  8
LC-001-002-----0
  6
CONTINUOUS
  5
492
 10
-1.513503
 20
336.414251
 30
0.0
 11
0.792682
 21
357.314299
 31
0.0
  0
LINE
  8
LC-001-002-----0
  6
CONTINUOUS
  5
493
 10
1.704876
 20
288.414252
 30
0.0
 11
1.704904
 21
268.114251
 31
0.0
  0
LINE
  8
LC-001-002-----0
  6
CONTINUOUS
  5
494
 10
-56.994862
 20
289.414251
 30
0.0
 11
0.855793
 21
289.414251
 31
0.0
  0
LINE
  8
LC-001-002-----0
  6
CONTINUOUS
  5
495
 10
-0.295124
 20
288.41425
 30
0.0
 11
-0.295113
 21
280.414251
 31
0.0
  0
LINE
  8
LC-001-002-----0
  6
CONTINUOUS
  5
496
 10
32.859734
 20
297.114304
 30
0.0
 11
29.037594
 21
331.751976
 31
0.0
  0
ARC
  8
LC-002-002-RND-0
  6
CONTINUOUS
  5
497
 10
0.704876
 20
288.414251
 30
0.0
 40
1.0
 50
90.0
 51
180.000079
  0
LINE
  8
LC-001-002-----0
  6
CONTINUOUS
  5
498
 10
49.745843
 20
297.11435
 30
0.0
 11
42.362123
 21
331.752013
 31
0.0
  0
ARC
  8
LC-002-002-RND-0
  6
CONTINUOUS
  5
499
 10
0.704876
 20
288.414251
 30
0.0
 40
1.0
 50
0.000079
 51
90.0
  0
LINE
  8
LC-009-007-KH--0
  6
DASHDOT
  5
49C
 10
1301.789276
 20
254.393953
 30
0.0
 11
1301.789276
 21
1254.393953
 31
0.0
  0
LINE
  8
LC-001-002-----0
  6
CONTINUOUS
  5
49D
 10
47.753985
 20
297.114345
 30
0.0
 11
40.370265
 21
331.752007
 31
0.0
  0
LINE
  8
LC-001-002-----0
  6
CONTINUOUS
  5
49E
 10
73.976271
 20
297.114417
 30
0.0
 11
61.187359
 21
331.752064
 31
0.0
  0
LINE
  8
LC-001-002-----0
  6
CONTINUOUS
  5
49F
 10
0.708126
 20
336.414251
 30
0.0
 11
3.014311
 21
357.314302
 31
0.0
  0
LINE
  8
LC-001-002-----0
  6
CONTINUOUS
  5
4A0
 10
12.355125
 20
331.751933
 30
0.0
 11
12.355125
 21
297.114251
 31
0.0
  0
LINE
  8
LC-001-002-----0
  6
CONTINUOUS
  5
4A1
 10
65.111511
 20
336.414393
 30
0.0
 11
56.504664
 21
357.314375
 31
0.0
  0
LINE
  8
LC-001-002-----0
  6
CONTINUOUS
  5
4A2
 10
-57.494862
 20
289.414251
 30
0.0
 11
-56.994862
 21
289.414251
 31
0.0
  0
LINE
  8
LC-001-002-----0
  6
CONTINUOUS
  5
4A3
 10
-0.033026
 20
289.414251
 30
0.0
 11
13.504892
 21
289.414251
 31
0.0
  0
LINE
  8
LC-001-002-----0
  6
CONTINUOUS
  5
4A4
 10
-56.994872
 20
297.114251
 30
0.0
 11
-56.994862
 21
289.414251
 31
0.0
  0
LINE
  8
LC-001-002-----0
  6
CONTINUOUS
  5
4A5
 10
-60.394872
 20
297.114251
 30
0.0
 11
-60.394836
 21
270.614252
 31
0.0
  0
LINE
  8
LC-001-002-----0
  6
CONTINUOUS
  5
4A6
 10
-38.10189
 20
336.414251
 30
0.0
 11
-29.4951
 21
357.314257
 31
0.0
  0
LINE
  8
LC-001-002-----0
  6
CONTINUOUS
  5
4A7
 10
-46.966542
 20
297.114251
 30
0.0
 11
-34.177725
 21
331.751933
 31
0.0
  0
LINE
  8
LC-001-002-----0
  6
CONTINUOUS
  5
4A8
 10
-20.744256
 20
297.114251
 30
0.0
 11
-13.360631
 21
331.751933
 31
0.0
  0
LINE
  8
LC-001-002-----0
  6
CONTINUOUS
  5
4A9
 10
-22.736114
 20
297.114251
 30
0.0
 11
-15.352489
 21
331.751933
 31
0.0
  0
LINE
  8
LC-001-002-----0
  6
CONTINUOUS
  5
4AA
 10
-5.850005
 20
297.114251
 30
0.0
 11
-2.02796
 21
331.751933
 31
0.0
  0
LINE
  8
LC-001-002-----0
  6
CONTINUOUS
  5
4AB
 10
-3.628375
 20
297.114251
 30
0.0
 11
0.193669
 21
331.751933
 31
0.0
  0
LINE
  8
LC-001-002-----0
  6
CONTINUOUS
  5
4AC
 10
-48.116542
 20
297.114251
 30
0.0
 11
-35.327725
 21
331.751933
 31
0.0
  0
LINE
  8
LC-001-002-----0
  6
CONTINUOUS
  5
4AD
 10
-38.697173
 20
336.414251
 30
0.0
 11
-30.090384
 21
357.314256
 31
0.0
  0
LINE
  8
LC-001-002-----0
  6
CONTINUOUS
  5
4AE
 10
-35.526097
 20
297.114251
 30
0.0
 11
-25.065847
 21
331.751933
 31
0.0
  0
LINE
  8
LC-001-002-----0
  6
CONTINUOUS
  5
4AF
 10
-37.152443
 20
297.114251
 30
0.0
 11
-26.710419
 21
331.751933
 31
0.0
  0
LINE
  8
LC-001-002-----0
  6
CONTINUOUS
  5
4B0
 10
-33.606318
 20
336.414251
 30
0.0
 11
-25.889681
 21
357.314262
 31
0.0
  0
LINE
  8
LC-001-002-----0
  6
CONTINUOUS
  5
4B1
 10
-32.456319
 20
336.414251
 30
0.0
 11
-24.739681
 21
357.314264
 31
0.0
  0
LINE
  8
LC-001-002-----0
  6
CONTINUOUS
  5
4B2
 10
-54.285943
 20
297.114251
 30
0.0
 11
-40.021869
 21
331.751933
 31
0.0
  0
LINE
  8
LC-001-002-----0
  6
CONTINUOUS
  5
4B3
 10
-65.940993
 20
315.807292
 30
0.0
 11
-49.039213
 21
362.244552
 31
0.0
  0
LINE
  8
LC-001-002-----0
  6
CONTINUOUS
  5
4B4
 10
87.404601
 20
297.114454
 30
0.0
 11
87.404638
 21
270.614454
 31
0.0
  0
LINE
  8
LC-001-002-----0
  6
CONTINUOUS
  5
4B5
 10
84.004601
 20
297.114444
 30
0.0
 11
84.004612
 21
289.414444
 31
0.0
  0
LINE
  8
LC-001-002-----0
  6
CONTINUOUS
  5
4B6
 10
27.042776
 20
289.414288
 30
0.0
 11
13.504858
 21
289.414251
 31
0.0
  0
LINE
  8
LC-001-002-----0
  6
CONTINUOUS
  5
4B7
 10
84.504612
 20
289.414446
 30
0.0
 11
84.004612
 21
289.414444
 31
0.0
  0
LINE
  8
LC-001-002-----0
  6
CONTINUOUS
  5
4B8
 10
-72.080704
 20
298.938575
 30
0.0
 11
-69.155586
 21
306.975269
 31
0.0
  0
LINE
  8
LC-001-002-----0
  6
CONTINUOUS
  5
4B9
 10
-68.494832
 20
297.142588
 30
0.0
 11
13.504851
 21
297.142766
 31
0.0
  0
ARC
  8
LC-002-002-RND-0
  6
CONTINUOUS
  5
4BA
 10
26.304876
 20
288.414286
 30
0.0
 40
1.0
 50
0.000079
 51
90.000157
  0
LINE
  8
LC-001-002-----0
  6
CONTINUOUS
  5
4BB
 10
14.654439
 20
357.314318
 30
0.0
 11
14.654496
 21
336.414254
 31
0.0
  0
ARC
  8
LC-002-002-RND-0
  6
CONTINUOUS
  5
4BC
 10
87.90464
 20
269.114455
 30
0.0
 40
1.0
 50
0.000079
 51
90.000157
  0
LINE
  8
LC-001-002-----0
  6
CONTINUOUS
  5
4BD
 10
69.700463
 20
336.414405
 30
0.0
 11
69.700475
 21
332.051305
 31
0.0
  0
ARC
  8
LC-002-002-RND-0
  6
CONTINUOUS
  5
4BE
 10
87.90464
 20
269.114455
 30
0.0
 40
1.0
 50
270.000157
 51
0.000079
  0
LINE
  8
LC-001-002-----0
  6
CONTINUOUS
  5
4BF
 10
88.004643
 20
268.114455
 30
0.0
 11
86.504641
 21
268.114451
 31
0.0
  0
LINE
  8
LC-001-002-----0
  6
CONTINUOUS
  5
4C0
 10
91.404624
 20
280.414465
 30
0.0
 11
87.404624
 21
280.414454
 31
0.0
  0
ARC
  8
LC-002-002-RND-0
  6
CONTINUOUS
  5
4C1
 10
87.904638
 20
270.614455
 30
0.0
 40
0.5
 50
180.000079
 51
270.000157
  0
LINE
  8
LC-001-002-----0
  6
CONTINUOUS
  5
4C2
 10
87.904643
 20
268.114455
 30
0.0
 11
84.504641
 21
268.114446
 31
0.0
  0
LINE
  8
LC-001-002-----0
  6
CONTINUOUS
  5
4C3
 10
50.667493
 20
336.414353
 30
0.0
 11
44.355827
 21
357.314359
 31
0.0
  0
LINE
  8
LC-001-002-----0
  6
CONTINUOUS
  5
4C4
 10
71.397421
 20
331.752092
 30
0.0
 11
69.700475
 21
332.051305
 31
0.0
  0
ARC
  8
LC-002-002-RND-0
  6
CONTINUOUS
  5
4C5
 10
91.404623
 20
280.914465
 30
0.0
 40
0.5
 50
270.000157
 51
0.000079
  0
LINE
  8
LC-001-002-----0
  6
CONTINUOUS
  5
4C6
 10
52.314518
 20
336.414357
 30
0.0
 11
46.01385
 21
357.314361
 31
0.0
  0
LINE
  8
LC-001-002-----0
  6
CONTINUOUS
  5
4C7
 10
84.504612
 20
289.414446
 30
0.0
 11
84.504641
 21
268.114446
 31
0.0
  0
LINE
  8
LC-001-002-----0
  6
CONTINUOUS
  5
4C8
 10
91.904601
 20
297.114466
 30
0.0
 11
91.904623
 21
280.914465
 31
0.0
  0
LINE
  8
LC-001-002-----0
  6
CONTINUOUS
  5
4C9
 10
61.953367
 20
372.114383
 30
0.0
 11
13.504762
 21
372.114316
 31
0.0
  0
LINE
  8
LC-001-002-----0
  6
CONTINUOUS
  5
4CA
 10
41.368256
 20
336.414327
 30
0.0
 11
36.912993
 21
357.314348
 31
0.0
  0
LINE
  8
LC-001-002-----0
  6
CONTINUOUS
  5
4CB
 10
62.093429
 20
357.314383
 30
0.0
 11
13.504782
 21
357.314316
 31
0.0
  0
LINE
  8
LC-001-002-----0
  6
CONTINUOUS
  5
4CC
 10
69.700463
 20
336.414405
 30
0.0
 11
13.504811
 21
336.414251
 31
0.0
  0
LINE
  8
LC-001-002-----0
  6
CONTINUOUS
  5
4CD
 10
14.654509
 20
331.751937
 30
0.0
 11
14.654604
 21
297.114254
 31
0.0
  0
LINE
  8
LC-001-002-----0
  6
CONTINUOUS
  5
4CE
 10
26.301495
 20
336.414286
 30
0.0
 11
23.995253
 21
357.314331
 31
0.0
  0
LINE
  8
LC-001-002-----0
  6
CONTINUOUS
  5
4CF
 10
28.523125
 20
336.414292
 30
0.0
 11
26.216882
 21
357.314334
 31
0.0
  0
LINE
  8
LC-001-002-----0
  6
CONTINUOUS
  5
4D0
 10
95.504561
 20
297.142813
 30
0.0
 11
13.504877
 21
297.142766
 31
0.0
  0
LINE
  8
LC-001-002-----0
  6
CONTINUOUS
  5
4D1
 10
89.754821
 20
267.000988
 30
0.0
 11
-62.745179
 21
267.000988
 31
0.0
  0
LINE
  8
LC-009-007-KH--0
  6
DASHDOT
  5
4D2
 10
1280.242588
 20
120.038737
 30
0.0
 11
1280.242588
 21
1120.038737
 31
0.0
  0
LINE
  8
LC-001-002-----0
  6
CONTINUOUS
  5
4D3
 10
-63.745179
 20
262.500988
 30
0.0
 11
-62.745179
 21
261.500988
 31
0.0
  0
LINE
  8
LC-001-002-----0
  6
CONTINUOUS
  5
4D4
 10
89.754821
 20
261.500988
 30
0.0
 11
90.754821
 21
262.500988
 31
0.0
  0
LINE
  8
LC-001-002-----0
  6
CONTINUOUS
  5
4D5
 10
-86.99514
 20
275.695481
 30
0.0
 11
-86.99514
 21
287.288655
 31
0.0
  0
LINE
  8
LC-001-002-----0
  6
CONTINUOUS
  5
4D6
 10
89.754821
 20
267.000988
 30
0.0
 11
89.754821
 21
266.000988
 31
0.0
  0
LINE
  8
LC-001-002-----0
  6
CONTINUOUS
  5
4D7
 10
89.754821
 20
266.000988
 30
0.0
 11
90.754821
 21
266.000988
 31
0.0
  0
LINE
  8
LC-001-002-----0
  6
CONTINUOUS
  5
4D8
 10
90.754821
 20
262.500988
 30
0.0
 11
90.754821
 21
266.000988
 31
0.0
  0
LINE
  8
LC-001-002-----0
  6
CONTINUOUS
  5
4D9
 10
-86.500825
 20
300.742495
 30
0.0
 11
-83.498601
 21
300.742495
 31
0.0
  0
LINE
  8
LC-001-002-----0
  6
CONTINUOUS
  5
4DA
 10
-77.498601
 20
300.742495
 30
0.0
 11
-74.500825
 21
300.742495
 31
0.0
  0
LINE
  8
LC-001-002-----0
  6
CONTINUOUS
  5
4DB
 10
86.754821
 20
261.500988
 30
0.0
 11
89.754821
 21
261.500988
 31
0.0
  0
LINE
  8
LC-001-002-----0
  6
CONTINUOUS
  5
4DC
 10
86.754821
 20
261.500988
 30
0.0
 11
86.754821
 21
263.500988
 31
0.0
  0
LINE
  8
LC-001-002-----0
  6
CONTINUOUS
  5
4DD
 10
86.754821
 20
263.500988
 30
0.0
 11
82.254821
 21
263.500988
 31
0.0
  0
LINE
  8
LC-001-002-----0
  6
CONTINUOUS
  5
4DE
 10
79.254821
 20
267.000988
 30
0.0
 11
78.254821
 21
259.000988
 31
0.0
  0
LINE
  8
LC-001-002-----0
  6
CONTINUOUS
  5
4DF
 10
-63.995179
 20
208.450875
 30
0.0
 11
-63.995179
 21
217.450875
 31
0.0
  0
LINE
  8
LC-001-002-----0
  6
CONTINUOUS
  5
4E0
 10
79.254821
 20
259.000988
 30
0.0
 11
82.254821
 21
259.000988
 31
0.0
  0
LINE
  8
LC-001-002-----0
  6
CONTINUOUS
  5
4E1
 10
82.254821
 20
259.000988
 30
0.0
 11
82.254821
 21
263.500988
 31
0.0
  0
LINE
  8
LC-001-002-----0
  6
CONTINUOUS
  5
4E2
 10
-76.995132
 20
275.195481
 30
0.0
 11
-76.995132
 21
274.195777
 31
0.0
  0
ARC
  8
LC-002-002-RND-0
  6
CONTINUOUS
  5
4E3
 10
90.504572
 20
278.142885
 30
0.0
 40
3.0
 50
270.000248
 51
0.000111
  0
LINE
  8
LC-001-002-----0
  6
CONTINUOUS
  5
4E4
 10
93.504539
 20
294.142899
 30
0.0
 11
93.504572
 21
278.142891
 31
0.0
  0
ARC
  8
LC-002-002-RND-0
  6
CONTINUOUS
  5
4E5
 10
95.504539
 20
294.142899
 30
0.0
 40
2.0
 50
90.0
 51
180.0
  0
LINE
  8
LC-001-002-----0
  6
CONTINUOUS
  5
4E6
 10
100.611573
 20
296.142901
 30
0.0
 11
95.504539
 21
296.142899
 31
0.0
  0
LINE
  8
LC-001-002-----0
  6
CONTINUOUS
  5
4E7
 10
104.504466
 20
297.642901
 30
0.0
 11
102.525786
 21
297.642901
 31
0.0
  0
LINE
  8
LC-001-002-----0
  6
CONTINUOUS
  5
4E8
 10
115.427459
 20
296.142893
 30
0.0
 11
114.397347
 21
296.142904
 31
0.0
  0
LINE
  8
LC-001-002-----0
  6
CONTINUOUS
  5
4E9
 10
115.427459
 20
296.142893
 30
0.0
 11
135.819162
 21
300.477375
 31
0.0
  0
LINE
  8
LC-001-002-----0
  6
CONTINUOUS
  5
4EA
 10
104.504466
 20
297.642901
 30
0.0
 11
104.50833
 21
297.642901
 31
0.0
  0
LINE
  8
LC-001-002-----0
  6
CONTINUOUS
  5
4EB
 10
111.004466
 20
298.642901
 30
0.0
 11
111.004466
 21
297.642901
 31
0.0
  0
LINE
  8
LC-001-002-----0
  6
CONTINUOUS
  5
4EC
 10
104.004466
 20
298.642901
 30
0.0
 11
104.004466
 21
297.642901
 31
0.0
  0
ARC
  8
LC-002-002-RND-0
  6
CONTINUOUS
  5
4ED
 10
100.611573
 20
297.142901
 30
0.0
 40
1.0
 50
270.00002
 51
315.0
  0
ARC
  8
LC-002-002-RND-0
  6
CONTINUOUS
  5
4EE
 10
114.397357
 20
297.142904
 30
0.0
 40
1.0
 50
225.0
 51
269.999425
  0
ARC
  8
LC-002-002-RND-0
  6
CONTINUOUS
  5
4EF
 10
117.514391
 20
295.556929
 30
0.0
 40
1.0
 50
101.228794
 51
108.020284
  0
LINE
  8
LC-001-002-----0
  6
CONTINUOUS
  5
4F0
 10
112.483146
 20
297.642902
 30
0.0
 11
110.50833
 21
297.642901
 31
0.0
  0
LINE
  8
LC-001-002-----0
  6
CONTINUOUS
  5
4F1
 10
101.31868
 20
296.435794
 30
0.0
 11
102.525786
 21
297.642901
 31
0.0
  0
LINE
  8
LC-001-002-----0
  6
CONTINUOUS
  5
4F2
 10
112.483146
 20
297.642902
 30
0.0
 11
113.69025
 21
296.435797
 31
0.0
  0
LINE
  8
LC-001-002-----0
  6
CONTINUOUS
  5
4F3
 10
-62.745179
 20
267.000988
 30
0.0
 11
-62.745179
 21
266.000988
 31
0.0
  0
LINE
  8
LC-001-002-----0
  6
CONTINUOUS
  5
4F4
 10
-62.745179
 20
266.000988
 30
0.0
 11
-63.745179
 21
266.000988
 31
0.0
  0
LINE
  8
LC-001-002-----0
  6
CONTINUOUS
  5
4F5
 10
138.004384
 20
302.358397
 30
0.0
 11
136.886079
 21
302.343334
 31
0.0
  0
LINE
  8
LC-001-002-----0
  6
CONTINUOUS
  5
4F6
 10
90.504585
 20
275.142885
 30
0.0
 11
90.00493
 21
275.142883
 31
0.0
  0
LINE
  8
LC-001-002-----0
  6
CONTINUOUS
  5
4F7
 10
95.504526
 20
297.142911
 30
0.0
 11
100.611605
 21
297.142933
 31
0.0
  0
LINE
  8
LC-001-002-----0
  6
CONTINUOUS
  5
4F8
 10
88.504933
 20
274.642891
 30
0.0
 11
88.504943
 21
272.142892
 31
0.0
  0
ARC
  8
LC-002-002-RND-0
  6
CONTINUOUS
  5
4F9
 10
90.504572
 20
278.142897
 30
0.0
 40
2.0
 50
270.00002
 51
0.000111
  0
ARC
  8
LC-002-002-RND-0
  6
CONTINUOUS
  5
4FA
 10
95.504539
 20
294.142911
 30
0.0
 40
3.0
 50
90.000248
 51
180.000111
  0
ARC
  8
LC-001-002-----0
  6
CONTINUOUS
  5
4FB
 10
135.195415
 20
303.411815
 30
0.0
 40
3.0
 50
282.000248
 51
339.442977
  0
ARC
  8
LC-001-002-----0
  6
CONTINUOUS
  5
4FC
 10
135.195415
 20
303.411815
 30
0.0
 40
2.0
 50
282.000248
 51
327.70757
  0
ARC
  8
LC-002-002-RND-0
  6
CONTINUOUS
  5
4FD
 10
90.004933
 20
274.642883
 30
0.0
 40
0.5
 50
90.000248
 51
180.000248
  0
ARC
  8
LC-002-002-RND-0
  6
CONTINUOUS
  5
4FE
 10
90.004933
 20
274.642897
 30
0.0
 40
1.5
 50
90.00002
 51
180.000248
  0
LINE
  8
LC-001-002-----0
  6
CONTINUOUS
  5
4FF
 10
89.504933
 20
274.642881
 30
0.0
 11
89.504943
 21
272.142897
 31
0.0
  0
LINE
  8
LC-001-002-----0
  6
CONTINUOUS
  5
500
 10
89.504943
 20
272.142897
 30
0.0
 11
88.504943
 21
272.142892
 31
0.0
  0
LINE
  8
LC-001-002-----0
  6
CONTINUOUS
  5
501
 10
90.504572
 20
276.142897
 30
0.0
 11
90.004932
 21
276.142897
 31
0.0
  0
LINE
  8
LC-001-002-----0
  6
CONTINUOUS
  5
502
 10
92.504539
 20
294.142905
 30
0.0
 11
92.504572
 21
278.142901
 31
0.0
  0
LINE
  8
LC-001-002-----0
  6
CONTINUOUS
  5
503
 10
102.525787
 20
298.642901
 30
0.0
 11
104.50833
 21
298.642901
 31
0.0
  0
LINE
  8
LC-001-002-----0
  6
CONTINUOUS
  5
504
 10
100.611573
 20
297.142901
 30
0.0
 11
101.81868
 21
298.350008
 31
0.0
  0
LINE
  8
LC-001-002-----0
  6
CONTINUOUS
  5
505
 10
115.322357
 20
297.142894
 30
0.0
 11
114.397357
 21
297.142904
 31
0.0
  0
LINE
  8
LC-001-002-----0
  6
CONTINUOUS
  5
506
 10
113.190253
 20
298.350008
 30
0.0
 11
114.397357
 21
297.142904
 31
0.0
  0
LINE
  8
LC-001-002-----0
  6
CONTINUOUS
  5
507
 10
115.322357
 20
297.142894
 30
0.0
 11
135.611246
 21
301.455522
 31
0.0
  0
ARC
  8
LC-002-002-RND-0
  6
CONTINUOUS
  5
508
 10
102.525787
 20
297.642901
 30
0.0
 40
1.0
 50
90.0
 51
135.0
  0
ARC
  8
LC-002-002-RND-0
  6
CONTINUOUS
  5
509
 10
112.483146
 20
297.642901
 30
0.0
 40
1.0
 50
45.0
 51
90.0
  0
LINE
  8
LC-001-002-----0
  6
CONTINUOUS
  5
50A
 10
-66.995179
 20
208.450875
 30
0.0
 11
-63.995179
 21
208.450875
 31
0.0
  0
ARC
  8
LC-002-002-RND-0
  6
CONTINUOUS
  5
50B
 10
-58.995179
 20
203.450875
 30
0.0
 40
2.5
 50
180.0
 51
225.597065
  0
LINE
  8
LC-001-002-----0
  6
CONTINUOUS
  5
50C
 10
-66.995179
 20
206.450875
 30
0.0
 11
-66.995179
 21
208.450875
 31
0.0
  0
ARC
  8
LC-002-002-RND-0
  6
CONTINUOUS
  5
50D
 10
-58.995179
 20
206.450875
 30
0.0
 40
8.0
 50
180.0
 51
257.369881
  0
LINE
  8
LC-001-002-----0
  6
CONTINUOUS
  5
50E
 10
-63.745179
 20
266.000988
 30
0.0
 11
-63.745179
 21
262.500988
 31
0.0
  0
LINE
  8
LC-001-002-----0
  6
CONTINUOUS
  5
50F
 10
-62.745179
 20
261.500988
 30
0.0
 11
-59.745179
 21
261.500988
 31
0.0
  0
LINE
  8
LC-001-002-----0
  6
CONTINUOUS
  5
510
 10
-59.745179
 20
261.500988
 30
0.0
 11
-59.745179
 21
263.500988
 31
0.0
  0
ARC
  8
LC-002-002-RND-0
  6
CONTINUOUS
  5
511
 10
-63.494851
 20
278.142552
 30
0.0
 40
3.0
 50
180.000136
 51
270.0
  0
LINE
  8
LC-001-002-----0
  6
CONTINUOUS
  5
512
 10
-66.494888
 20
294.142553
 30
0.0
 11
-66.494851
 21
278.142545
 31
0.0
  0
ARC
  8
LC-002-002-RND-0
  6
CONTINUOUS
  5
513
 10
-68.494888
 20
294.142544
 30
0.0
 40
2.0
 50
0.000248
 51
90.000248
  0
LINE
  8
LC-001-002-----0
  6
CONTINUOUS
  5
514
 10
-73.601931
 20
296.142524
 30
0.0
 11
-68.494897
 21
296.142544
 31
0.0
  0
LINE
  8
LC-001-002-----0
  6
CONTINUOUS
  5
515
 10
-77.498601
 20
297.642508
 30
0.0
 11
-75.51615
 21
297.642516
 31
0.0
  0
LINE
  8
LC-001-002-----0
  6
CONTINUOUS
  5
516
 10
-88.417816
 20
296.142451
 30
0.0
 11
-87.387705
 21
296.142467
 31
0.0
  0
LINE
  8
LC-001-002-----0
  6
CONTINUOUS
  5
517
 10
-88.417816
 20
296.142451
 30
0.0
 11
-108.809539
 21
300.476846
 31
0.0
  0
LINE
  8
LC-001-002-----0
  6
CONTINUOUS
  5
518
 10
-59.745179
 20
263.500988
 30
0.0
 11
-55.245179
 21
263.500988
 31
0.0
  0
LINE
  8
LC-001-002-----0
  6
CONTINUOUS
  5
519
 10
-52.245179
 20
267.000988
 30
0.0
 11
-51.245179
 21
259.000988
 31
0.0
  0
LINE
  8
LC-001-002-----0
  6
CONTINUOUS
  5
51A
 10
79.254821
 20
259.000988
 30
0.0
 11
-55.245179
 21
259.000988
 31
0.0
  0
LINE
  8
LC-001-002-----0
  6
CONTINUOUS
  5
51B
 10
-77.49483
 20
297.642508
 30
0.0
 11
-77.498601
 21
297.642508
 31
0.0
  0
LINE
  8
LC-001-002-----0
  6
CONTINUOUS
  5
51C
 10
-83.994834
 20
298.642479
 30
0.0
 11
-83.99483
 21
297.642479
 31
0.0
  0
LINE
  8
LC-001-002-----0
  6
CONTINUOUS
  5
51D
 10
-76.994834
 20
298.64251
 30
0.0
 11
-76.99483
 21
297.64251
 31
0.0
  0
ARC
  8
LC-002-002-RND-0
  6
CONTINUOUS
  5
51E
 10
-73.601935
 20
297.142524
 30
0.0
 40
1.0
 50
225.000248
 51
270.000228
  0
ARC
  8
LC-002-002-RND-0
  6
CONTINUOUS
  5
51F
 10
-87.387719
 20
297.142467
 30
0.0
 40
1.0
 50
270.000823
 51
315.000248
  0
ARC
  8
LC-002-002-RND-0
  6
CONTINUOUS
  5
520
 10
-90.504746
 20
295.556479
 30
0.0
 40
1.0
 50
71.979964
 51
78.771454
  0
LINE
  8
LC-001-002-----0
  6
CONTINUOUS
  5
521
 10
-85.47351
 20
297.642474
 30
0.0
 11
-83.498601
 21
297.642482
 31
0.0
  0
LINE
  8
LC-001-002-----0
  6
CONTINUOUS
  5
522
 10
-74.309038
 20
296.435414
 30
0.0
 11
-75.51615
 21
297.642516
 31
0.0
  0
LINE
  8
LC-001-002-----0
  6
CONTINUOUS
  5
523
 10
-85.47351
 20
297.642474
 30
0.0
 11
-86.680609
 21
296.435364
 31
0.0
  0
LINE
  8
LC-001-002-----0
  6
CONTINUOUS
  5
524
 10
-55.245179
 20
259.000988
 30
0.0
 11
-55.245179
 21
263.500988
 31
0.0
  0
LINE
  8
LC-001-002-----0
  6
CONTINUOUS
  5
525
 10
86.754821
 20
261.500988
 30
0.0
 11
85.004821
 21
261.500988
 31
0.0
  0
LINE
  8
LC-001-002-----0
  6
CONTINUOUS
  5
526
 10
-110.994769
 20
302.357858
 30
0.0
 11
-109.876464
 21
302.3428
 31
0.0
  0
LINE
  8
LC-001-002-----0
  6
CONTINUOUS
  5
527
 10
-63.494851
 20
275.142552
 30
0.0
 11
-62.995197
 21
275.142552
 31
0.0
  0
LINE
  8
LC-001-002-----0
  6
CONTINUOUS
  5
528
 10
-68.494888
 20
297.142556
 30
0.0
 11
-73.601967
 21
297.142556
 31
0.0
  0
LINE
  8
LC-001-002-----0
  6
CONTINUOUS
  5
529
 10
-61.495197
 20
274.642566
 30
0.0
 11
-61.495197
 21
272.142568
 31
0.0
  0
ARC
  8
LC-002-002-RND-0
  6
CONTINUOUS
  5
52A
 10
-63.494851
 20
278.142564
 30
0.0
 40
2.0
 50
180.000136
 51
270.000228
  0
ARC
  8
LC-002-002-RND-0
  6
CONTINUOUS
  5
52B
 10
-68.494888
 20
294.142556
 30
0.0
 40
3.0
 50
0.000136
 51
90.0
  0
ARC
  8
LC-001-002-----0
  6
CONTINUOUS
  5
52C
 10
-108.185804
 20
303.411289
 30
0.0
 40
3.0
 50
200.557271
 51
258.0
  0
ARC
  8
LC-001-002-----0
  6
CONTINUOUS
  5
52D
 10
-108.185804
 20
303.411289
 30
0.0
 40
2.0
 50
212.292677
 51
258.0
  0
ARC
  8
LC-002-002-RND-0
  6
CONTINUOUS
  5
52E
 10
-62.995197
 20
274.642552
 30
0.0
 40
0.5
 50
0.0
 51
90.0
  0
ARC
  8
LC-002-002-RND-0
  6
CONTINUOUS
  5
52F
 10
-62.995197
 20
274.642566
 30
0.0
 40
1.5
 50
0.0
 51
90.000228
  0
LINE
  8
LC-001-002-----0
  6
CONTINUOUS
  5
530
 10
-62.495197
 20
274.642552
 30
0.0
 11
-62.495197
 21
272.142568
 31
0.0
  0
LINE
  8
LC-001-002-----0
  6
CONTINUOUS
  5
531
 10
-62.495197
 20
272.142568
 30
0.0
 11
-61.495197
 21
272.142568
 31
0.0
  0
LINE
  8
LC-001-002-----0
  6
CONTINUOUS
  5
532
 10
-63.494843
 20
276.142564
 30
0.0
 11
-62.995203
 21
276.142566
 31
0.0
  0
LINE
  8
LC-001-002-----0
  6
CONTINUOUS
  5
533
 10
-65.494888
 20
294.142563
 30
0.0
 11
-65.494851
 21
278.142559
 31
0.0
  0
LINE
  8
LC-001-002-----0
  6
CONTINUOUS
  5
534
 10
-75.516155
 20
298.642516
 30
0.0
 11
-76.994834
 21
298.64251
 31
0.0
  0
LINE
  8
LC-001-002-----0
  6
CONTINUOUS
  5
535
 10
-73.601935
 20
297.142524
 30
0.0
 11
-74.809047
 21
298.349626
 31
0.0
  0
LINE
  8
LC-001-002-----0
  6
CONTINUOUS
  5
536
 10
-88.312719
 20
297.142453
 30
0.0
 11
-87.387719
 21
297.142467
 31
0.0
  0
LINE
  8
LC-001-002-----0
  6
CONTINUOUS
  5
537
 10
-86.18062
 20
298.349577
 30
0.0
 11
-87.387719
 21
297.142467
 31
0.0
  0
LINE
  8
LC-001-002-----0
  6
CONTINUOUS
  5
538
 10
-88.312719
 20
297.142453
 30
0.0
 11
-108.601627
 21
301.454993
 31
0.0
  0
ARC
  8
LC-002-002-RND-0
  6
CONTINUOUS
  5
539
 10
-75.516151
 20
297.642516
 30
0.0
 40
1.0
 50
45.000248
 51
90.000248
  0
ARC
  8
LC-002-002-RND-0
  6
CONTINUOUS
  5
53A
 10
-85.47351
 20
297.642473
 30
0.0
 40
1.0
 50
90.000248
 51
135.000248
  0
LINE
  8
LC-001-002-----0
  6
CONTINUOUS
  5
53B
 10
-59.745179
 20
261.500988
 30
0.0
 11
-57.995179
 21
261.500988
 31
0.0
  0
LINE
  8
LC-001-002-----0
  6
CONTINUOUS
  5
53C
 10
-61.795179
 20
215.950875
 30
0.0
 11
-61.795179
 21
217.450875
 31
0.0
  0
LINE
  8
LC-001-002-----0
  6
CONTINUOUS
  5
53D
 10
-61.795179
 20
215.950875
 30
0.0
 11
-61.495179
 21
215.950875
 31
0.0
  0
LINE
  8
LC-001-002-----0
  6
CONTINUOUS
  5
53E
 10
-61.495179
 20
203.450875
 30
0.0
 11
-61.495179
 21
215.950875
 31
0.0
  0
LINE
  8
LC-001-002-----0
  6
CONTINUOUS
  5
53F
 10
-63.995179
 20
217.450875
 30
0.0
 11
-61.795179
 21
217.450875
 31
0.0
  0
LINE
  8
LC-001-002-----0
  6
CONTINUOUS
  5
540
 10
91.004821
 20
217.450875
 30
0.0
 11
88.804821
 21
217.450875
 31
0.0
  0
LINE
  8
LC-001-002-----0
  6
CONTINUOUS
  5
541
 10
94.004821
 20
206.450875
 30
0.0
 11
94.004821
 21
208.450875
 31
0.0
  0
ARC
  8
LC-002-002-RND-0
  6
CONTINUOUS
  5
542
 10
86.004821
 20
206.450875
 30
0.0
 40
8.0
 50
270.0
 51
0.0
  0
LINE
  8
LC-001-002-----0
  6
CONTINUOUS
  5
543
 10
94.004821
 20
208.450875
 30
0.0
 11
91.004821
 21
208.450875
 31
0.0
  0
LINE
  8
LC-001-002-----0
  6
CONTINUOUS
  5
544
 10
91.004821
 20
208.450875
 30
0.0
 11
91.004821
 21
217.450875
 31
0.0
  0
ARC
  8
LC-002-002-RND-0
  6
CONTINUOUS
  5
545
 10
86.004821
 20
203.450875
 30
0.0
 40
2.5
 50
270.0
 51
0.0
  0
LINE
  8
LC-001-002-----0
  6
CONTINUOUS
  5
546
 10
88.504821
 20
203.450875
 30
0.0
 11
88.504821
 21
215.950875
 31
0.0
  0
LINE
  8
LC-001-002-----0
  6
CONTINUOUS
  5
547
 10
88.804821
 20
215.950875
 30
0.0
 11
88.804821
 21
217.450875
 31
0.0
  0
LINE
  8
LC-001-002-----0
  6
CONTINUOUS
  5
548
 10
88.804821
 20
215.950875
 30
0.0
 11
88.504821
 21
215.950875
 31
0.0
  0
LINE
  8
LC-001-002-----0
  6
CONTINUOUS
  5
549
 10
-86.49514
 20
274.195481
 30
0.0
 11
-84.834559
 21
274.195481
 31
0.0
  0
LINE
  8
LC-001-002-----0
  6
CONTINUOUS
  5
54A
 10
-54.244429
 20
198.450875
 30
0.0
 11
-53.987771
 21
198.450875
 31
0.0
  0
LINE
  8
LC-001-002-----0
  6
CONTINUOUS
  5
54B
 10
-86.49514
 20
275.195481
 30
0.0
 11
-83.498601
 21
275.195481
 31
0.0
  0
ARC
  8
LC-002-002-RND-0
  6
CONTINUOUS
  5
54C
 10
-73.495124
 20
273.695481
 30
0.0
 40
1.5
 50
360.0
 51
90.0
  0
LINE
  8
LC-001-002-----0
  6
CONTINUOUS
  5
54D
 10
-53.987771
 20
198.450875
 30
0.0
 11
-53.987771
 21
195.950875
 31
0.0
  0
LINE
  8
LC-001-002-----0
  6
CONTINUOUS
  5
54E
 10
-53.987771
 20
195.950875
 30
0.0
 11
-43.986482
 21
195.950875
 31
0.0
  0
LINE
  8
LC-001-002-----0
  6
CONTINUOUS
  5
54F
 10
-43.986482
 20
195.950875
 30
0.0
 11
-43.986482
 21
198.450875
 31
0.0
  0
LINE
  8
LC-001-002-----0
  6
CONTINUOUS
  5
550
 10
-43.986482
 20
198.450875
 30
0.0
 11
-23.995179
 21
198.450875
 31
0.0
  0
LINE
  8
LC-001-002-----0
  6
CONTINUOUS
  5
551
 10
-54.244429
 20
200.950875
 30
0.0
 11
-23.995179
 21
200.950875
 31
0.0
  0
ARC
  8
LC-002-002-RND-0
  6
CONTINUOUS
  5
552
 10
-71.495124
 20
272.215895
 30
0.0
 40
0.5
 50
180.0
 51
270.000111
  0
ARC
  8
LC-002-002-RND-0
  6
CONTINUOUS
  5
553
 10
115.504793
 20
287.289294
 30
0.0
 40
0.5
 50
110.000359
 51
180.000359
  0
LINE
  8
LC-001-002-----0
  6
CONTINUOUS
  5
554
 10
-71.995124
 20
272.215895
 30
0.0
 11
-71.995124
 21
273.695481
 31
0.0
  0
LINE
  8
LC-001-002-----0
  6
CONTINUOUS
  5
555
 10
70.996125
 20
198.450875
 30
0.0
 11
70.996125
 21
195.950875
 31
0.0
  0
LINE
  8
LC-001-002-----0
  6
CONTINUOUS
  5
556
 10
70.996125
 20
195.950875
 30
0.0
 11
80.997413
 21
195.950875
 31
0.0
  0
LINE
  8
LC-001-002-----0
  6
CONTINUOUS
  5
557
 10
80.997413
 20
195.950875
 30
0.0
 11
80.997413
 21
198.450875
 31
0.0
  0
LINE
  8
LC-001-002-----0
  6
CONTINUOUS
  5
558
 10
51.004821
 20
198.450875
 30
0.0
 11
70.996125
 21
198.450875
 31
0.0
  0
LINE
  8
LC-001-002-----0
  6
CONTINUOUS
  5
559
 10
80.997413
 20
198.450875
 30
0.0
 11
86.004821
 21
198.450875
 31
0.0
  0
LINE
  8
LC-001-002-----0
  6
CONTINUOUS
  5
55A
 10
86.004821
 20
200.950875
 30
0.0
 11
51.004821
 21
200.950875
 31
0.0
  0
LINE
  8
LC-001-002-----0
  6
CONTINUOUS
  5
55B
 10
138.504797
 20
296.192864
 30
0.0
 11
115.33378
 21
287.759139
 31
0.0
  0
LINE
  8
LC-001-002-----0
  6
CONTINUOUS
  5
55C
 10
-67.99512
 20
271.715902
 30
0.0
 11
-67.99512
 21
270.715902
 31
0.0
  0
LINE
  8
LC-001-002-----0
  6
CONTINUOUS
  5
55D
 10
-76.162644
 20
274.195481
 30
0.0
 11
-73.495124
 21
274.195481
 31
0.0
  0
LINE
  8
LC-001-002-----0
  6
CONTINUOUS
  5
55E
 10
-111.153179
 20
297.131773
 30
0.0
 11
-87.98211
 21
288.698194
 31
0.0
  0
LINE
  8
LC-001-002-----0
  6
DASHDOT
 62
     2
  5
55F
 10
13.504865
 20
372.114312
 30
0.0
 11
13.504865
 21
142.450875
 31
0.0
  0
ARC
  8
LC-002-002-RND-0
  6
CONTINUOUS
  5
560
 10
115.504781
 20
287.289289
 30
0.0
 40
1.5
 50
110.000359
 51
180.000359
  0
LINE
  8
LC-001-002-----0
  6
CONTINUOUS
 62
     2
  5
561
 10
114.991742
 20
288.698825
 30
0.0
 11
114.004774
 21
288.339591
 31
0.0
  0
LINE
  8
LC-001-002-----0
  6
CONTINUOUS
  5
562
 10
-85.500825
 20
309.742495
 30
0.0
 11
-83.498601
 21
309.742495
 31
0.0
  0
LINE
  8
LC-001-002-----0
  6
CONTINUOUS
  5
563
 10
-77.498601
 20
309.742495
 30
0.0
 11
-75.500825
 21
309.742495
 31
0.0
  0
LINE
  8
LC-001-002-----0
  6
CONTINUOUS
  5
564
 10
138.504797
 20
296.192864
 30
0.0
 11
138.162771
 21
297.132554
 31
0.0
  0
LINE
  8
LC-001-002-----0
  6
CONTINUOUS
  5
565
 10
-83.995132
 20
275.195481
 30
0.0
 11
-83.995132
 21
274.195777
 31
0.0
  0
LINE
  8
LC-001-002-----0
  6
CONTINUOUS
 62
     2
  5
566
 10
114.004781
 20
287.289289
 30
0.0
 11
114.004781
 21
288.339591
 31
0.0
  0
ARC
  8
LC-002-002-RND-0
  6
CONTINUOUS
  5
567
 10
-86.49514
 20
275.695481
 30
0.0
 40
0.5
 50
180.0
 51
270.0
  0
LINE
  8
LC-001-002-----0
  6
CONTINUOUS
  5
568
 10
-73.812925
 20
315.430321
 30
0.0
 11
-75.500825
 21
309.742495
 31
0.0
  0
LINE
  8
LC-001-002-----0
  6
CONTINUOUS
  5
569
 10
-111.4952
 20
296.192081
 30
0.0
 11
-111.153179
 21
297.131773
 31
0.0
  0
LINE
  8
LC-001-002-----0
  6
CONTINUOUS
  5
56A
 10
114.00486
 20
275.696111
 30
0.0
 11
114.004781
 21
287.28928
 31
0.0
  0
LINE
  8
LC-001-002-----0
  6
CONTINUOUS
  5
56B
 10
104.004868
 20
275.196048
 30
0.0
 11
104.004874
 21
274.196048
 31
0.0
  0
LINE
  8
LC-001-002-----0
  6
CONTINUOUS
  5
56C
 10
113.504863
 20
275.196108
 30
0.0
 11
110.50833
 21
275.196089
 31
0.0
  0
ARC
  8
LC-002-002-RND-0
  6
CONTINUOUS
  5
56D
 10
100.504869
 20
273.696026
 30
0.0
 40
1.5
 50
90.000359
 51
180.000359
  0
LINE
  8
LC-001-002-----0
  6
CONTINUOUS
  5
56E
 10
-86.500825
 20
300.742495
 30
0.0
 11
-85.500825
 21
309.742495
 31
0.0
  0
ARC
  8
LC-002-002-RND-0
  6
CONTINUOUS
  5
56F
 10
98.504871
 20
272.216427
 30
0.0
 40
0.5
 50
270.000247
 51
0.000359
  0
LINE
  8
LC-001-002-----0
  6
CONTINUOUS
  5
570
 10
-75.500825
 20
309.742495
 30
0.0
 11
-74.500825
 21
300.742495
 31
0.0
  0
LINE
  8
LC-001-002-----0
  6
CONTINUOUS
  5
571
 10
99.004871
 20
272.21643
 30
0.0
 11
99.004869
 21
273.696017
 31
0.0
  0
ARC
  8
LC-002-002-RND-0
  6
CONTINUOUS
  5
572
 10
-70.197358
 20
313.817504
 30
0.0
 40
3.925
 50
89.87259
 51
155.894105
  0
LINE
  8
LC-001-002-----0
  6
CONTINUOUS
  5
573
 10
98.504874
 20
271.716427
 30
0.0
 11
95.005491
 21
271.716408
 31
0.0
  0
LINE
  8
LC-001-002-----0
  6
CONTINUOUS
  5
574
 10
95.005491
 20
271.716408
 30
0.0
 11
95.005497
 21
270.716411
 31
0.0
  0
LINE
  8
LC-001-002-----0
  6
CONTINUOUS
 62
     2
  5
575
 10
-87.98211
 20
288.698194
 30
0.0
 11
-86.996857
 21
288.339591
 31
0.0
  0
LINE
  8
LC-001-002-----0
  6
CONTINUOUS
  5
576
 10
138.162771
 20
297.132554
 30
0.0
 11
114.991742
 21
288.698825
 31
0.0
  0
LINE
  8
LC-001-002-----0
  6
CONTINUOUS
 62
     2
  5
577
 10
-86.99514
 20
287.288655
 30
0.0
 11
-86.99514
 21
288.339591
 31
0.0
  0
LINE
  8
LC-001-002-----0
  6
CONTINUOUS
  5
578
 10
111.004868
 20
275.196092
 30
0.0
 11
111.004874
 21
274.196092
 31
0.0
  0
ARC
  8
LC-002-002-RND-0
  6
CONTINUOUS
  5
579
 10
113.50486
 20
275.696108
 30
0.0
 40
0.5
 50
270.000359
 51
0.000359
  0
ARC
  8
LC-001-002-----0
  6
CONTINUOUS
  5
57A
 10
-70.188534
 20
312.209737
 30
0.0
 40
5.576109
 50
40.088251
 51
90.091384
  0
LINE
  8
LC-001-002-----0
  6
CONTINUOUS
  5
57B
 10
115.004793
 20
287.289291
 30
0.0
 11
115.004873
 21
275.696117
 31
0.0
  0
ARC
  8
LC-002-002-RND-0
  6
CONTINUOUS
  5
57C
 10
-68.925347
 20
313.272996
 30
0.0
 40
3.925
 50
315.504186
 51
40.088251
  0
LINE
  8
LC-001-002-----0
  6
CONTINUOUS
  5
57D
 10
-71.495123
 20
271.715895
 30
0.0
 11
-67.99512
 21
271.715902
 31
0.0
  0
LINE
  8
LC-001-002-----0
  6
CONTINUOUS
  5
57E
 10
-87.188724
 20
315.430321
 30
0.0
 11
-85.500825
 21
309.742495
 31
0.0
  0
ARC
  8
LC-002-002-RND-0
  6
CONTINUOUS
  5
57F
 10
-92.076302
 20
313.272996
 30
0.0
 40
3.925
 50
139.911749
 51
224.495814
  0
ARC
  8
LC-001-002-----0
  6
CONTINUOUS
  5
580
 10
113.504873
 20
275.696108
 30
0.0
 40
1.5
 50
270.000359
 51
0.000359
  0
LINE
  8
LC-001-002-----0
  6
CONTINUOUS
  5
581
 10
113.504882
 20
274.196108
 30
0.0
 11
111.004874
 21
274.196092
 31
0.0
  0
LINE
  8
LC-001-002-----0
  6
CONTINUOUS
  5
582
 10
-95.055709
 20
310.717852
 30
0.0
 11
-86.500825
 21
300.742495
 31
0.0
  0
LINE
  8
LC-001-002-----0
  6
CONTINUOUS
  5
583
 10
-65.945941
 20
310.717852
 30
0.0
 11
-74.500825
 21
300.742495
 31
0.0
  0
LINE
  8
LC-001-002-----0
  6
CONTINUOUS
  5
584
 10
-111.4952
 20
296.192081
 30
0.0
 11
-88.32413
 21
287.758501
 31
0.0
  0
LINE
  8
LC-001-002-----0
  6
CONTINUOUS
  5
585
 10
111.004874
 20
274.196092
 30
0.0
 11
110.50833
 21
274.196089
 31
0.0
  0
LINE
  8
LC-001-002-----0
  6
CONTINUOUS
  5
586
 10
-87.99514
 20
287.288655
 30
0.0
 11
-87.99514
 21
275.695481
 31
0.0
  0
ARC
  8
LC-001-002-----0
  6
CONTINUOUS
  5
587
 10
-86.49514
 20
275.695481
 30
0.0
 40
1.5
 50
180.0
 51
270.0
  0
LINE
  8
LC-001-002-----0
  6
CONTINUOUS
  5
588
 10
104.004874
 20
274.196048
 30
0.0
 11
100.504866
 21
274.196026
 31
0.0
  0
ARC
  8
LC-001-002-----0
  6
CONTINUOUS
  5
589
 10
-73.495124
 20
273.695481
 30
0.0
 40
0.5
 50
0.0
 51
90.0
  0
LINE
  8
LC-001-002-----0
  6
CONTINUOUS
  5
58A
 10
-72.995124
 20
273.695481
 30
0.0
 11
-72.995124
 21
272.215895
 31
0.0
  0
ARC
  8
LC-001-002-----0
  6
CONTINUOUS
  5
58B
 10
-71.495124
 20
272.215895
 30
0.0
 40
1.5
 50
180.0
 51
270.000125
  0
LINE
  8
LC-001-002-----0
  6
CONTINUOUS
  5
58C
 10
-71.495121
 20
270.715895
 30
0.0
 11
-67.99512
 21
270.715902
 31
0.0
  0
ARC
  8
LC-001-002-----0
  6
CONTINUOUS
  5
58D
 10
100.504869
 20
273.696026
 30
0.0
 40
0.5
 50
90.000359
 51
180.000359
  0
ARC
  8
LC-001-002-----0
  6
CONTINUOUS
  5
58E
 10
98.504871
 20
272.216427
 30
0.0
 40
1.5
 50
270.000234
 51
0.000359
  0
LINE
  8
LC-001-002-----0
  6
CONTINUOUS
  5
58F
 10
100.004869
 20
273.696023
 30
0.0
 11
100.004871
 21
272.216437
 31
0.0
  0
LINE
  8
LC-001-002-----0
  6
CONTINUOUS
  5
590
 10
98.504878
 20
270.716427
 30
0.0
 11
95.005497
 21
270.716411
 31
0.0
  0
ARC
  8
LC-002-002-RND-0
  6
CONTINUOUS
  5
591
 10
-88.49514
 20
287.288655
 30
0.0
 40
1.5
 50
0.0
 51
70.0
  0
ARC
  8
LC-002-002-RND-0
  6
CONTINUOUS
  5
592
 10
-88.49514
 20
287.288655
 30
0.0
 40
0.5
 50
0.0
 51
70.0
  0
ARC
  8
LC-002-002-RND-0
  6
CONTINUOUS
  5
593
 10
-90.804291
 20
313.817504
 30
0.0
 40
3.925
 50
24.105895
 51
90.12741
  0
LINE
  8
LC-001-002-----0
  6
CONTINUOUS
  5
594
 10
-77.500825
 20
298.642495
 30
0.0
 11
-77.500825
 21
298.642495
 31
0.0
  0
LINE
  8
LC-001-002-----0
  6
CONTINUOUS
  5
595
 10
-77.498601
 20
300.042495
 30
0.0
 11
-76.356127
 21
300.042495
 31
0.0
  0
LINE
  8
LC-001-002-----0
  6
CONTINUOUS
  5
596
 10
-77.498601
 20
299.342495
 30
0.0
 11
-76.356127
 21
299.342495
 31
0.0
  0
LINE
  8
LC-001-002-----0
  6
CONTINUOUS
  5
597
 10
-85.981428
 20
298.642495
 30
0.0
 11
-83.498601
 21
298.642495
 31
0.0
  0
LINE
  8
LC-001-002-----0
  6
CONTINUOUS
  5
598
 10
-85.981428
 20
300.742495
 30
0.0
 11
-83.498601
 21
300.742495
 31
0.0
  0
LINE
  8
LC-001-002-----0
  6
CONTINUOUS
  5
599
 10
-77.498601
 20
300.742495
 30
0.0
 11
-75.02068
 21
300.742495
 31
0.0
  0
LINE
  8
LC-001-002-----0
  6
CONTINUOUS
  5
59A
 10
-83.701054
 20
300.042495
 30
0.0
 11
-83.701054
 21
299.342495
 31
0.0
  0
LINE
  8
LC-001-002-----0
  6
CONTINUOUS
  5
59B
 10
-77.301054
 20
299.342495
 30
0.0
 11
-77.301054
 21
300.042495
 31
0.0
  0
LINE
  8
LC-001-002-----0
  6
CONTINUOUS
  5
59C
 10
-85.981428
 20
298.642495
 30
0.0
 11
-84.645981
 21
299.342495
 31
0.0
  0
LINE
  8
LC-001-002-----0
  6
CONTINUOUS
  5
59D
 10
-85.981428
 20
300.042495
 30
0.0
 11
-85.313705
 21
299.692495
 31
0.0
  0
LINE
  8
LC-001-002-----0
  6
CONTINUOUS
  5
59E
 10
-85.981428
 20
300.042495
 30
0.0
 11
-85.981428
 21
300.742495
 31
0.0
  0
LINE
  8
LC-001-002-----0
  6
CONTINUOUS
  5
59F
 10
-85.981428
 20
300.742495
 30
0.0
 11
-84.645981
 21
300.042495
 31
0.0
  0
LINE
  8
LC-001-002-----0
  6
CONTINUOUS
  5
5A0
 10
113.510554
 20
300.742495
 30
0.0
 11
110.50833
 21
300.742495
 31
0.0
  0
LINE
  8
LC-001-002-----0
  6
CONTINUOUS
  5
5A1
 10
104.50833
 20
300.742495
 30
0.0
 11
101.510554
 21
300.742495
 31
0.0
  0
LINE
  8
LC-001-002-----0
  6
CONTINUOUS
  5
5A2
 10
-75.02068
 20
300.742495
 30
0.0
 11
-76.356127
 21
300.042495
 31
0.0
  0
LINE
  8
LC-001-002-----0
  6
CONTINUOUS
  5
5A3
 10
-75.02068
 20
300.042495
 30
0.0
 11
-76.356127
 21
299.342495
 31
0.0
  0
LINE
  8
LC-001-002-----0
  6
CONTINUOUS
  5
5A4
 10
-75.02068
 20
299.342495
 30
0.0
 11
-75.688404
 21
299.692495
 31
0.0
  0
LINE
  8
LC-001-002-----0
  6
CONTINUOUS
  5
5A5
 10
-75.02068
 20
298.642495
 30
0.0
 11
-76.356127
 21
299.342495
 31
0.0
  0
LINE
  8
LC-001-002-----0
  6
CONTINUOUS
  5
5A6
 10
-84.645981
 20
300.042495
 30
0.0
 11
-83.498601
 21
300.042495
 31
0.0
  0
LINE
  8
LC-001-002-----0
  6
CONTINUOUS
  5
5A7
 10
-84.645981
 20
299.342495
 30
0.0
 11
-83.498601
 21
299.342495
 31
0.0
  0
LINE
  8
LC-001-002-----0
  6
CONTINUOUS
  5
5A8
 10
-85.981428
 20
299.342495
 30
0.0
 11
-84.645981
 21
300.042495
 31
0.0
  0
LINE
  8
LC-001-002-----0
  6
CONTINUOUS
  5
5A9
 10
-85.981428
 20
299.342495
 30
0.0
 11
-85.981428
 21
298.642495
 31
0.0
  0
LINE
  8
LC-001-002-----0
  6
CONTINUOUS
  5
5AA
 10
-75.02068
 20
299.342495
 30
0.0
 11
-75.02068
 21
298.642495
 31
0.0
  0
LINE
  8
LC-001-002-----0
  6
CONTINUOUS
  5
5AB
 10
-75.02068
 20
300.042495
 30
0.0
 11
-75.02068
 21
300.742495
 31
0.0
  0
LINE
  8
LC-001-002-----0
  6
CONTINUOUS
  5
5AC
 10
102.525884
 20
298.642516
 30
0.0
 11
104.50833
 21
298.642508
 31
0.0
  0
LINE
  8
LC-001-002-----0
  6
CONTINUOUS
  5
5AD
 10
104.510554
 20
298.642495
 30
0.0
 11
104.510554
 21
298.642495
 31
0.0
  0
LINE
  8
LC-001-002-----0
  6
CONTINUOUS
  5
5AE
 10
104.310783
 20
300.042495
 30
0.0
 11
103.365856
 21
300.042495
 31
0.0
  0
LINE
  8
LC-001-002-----0
  6
CONTINUOUS
  5
5AF
 10
104.310783
 20
299.342495
 30
0.0
 11
103.365856
 21
299.342495
 31
0.0
  0
LINE
  8
LC-001-002-----0
  6
CONTINUOUS
  5
5B0
 10
112.991157
 20
298.642495
 30
0.0
 11
110.50833
 21
298.642495
 31
0.0
  0
LINE
  8
LC-001-002-----0
  6
CONTINUOUS
  5
5B1
 10
112.991157
 20
300.742495
 30
0.0
 11
110.50833
 21
300.742495
 31
0.0
  0
LINE
  8
LC-001-002-----0
  6
CONTINUOUS
  5
5B2
 10
104.50833
 20
300.742495
 30
0.0
 11
102.030409
 21
300.742495
 31
0.0
  0
LINE
  8
LC-001-002-----0
  6
CONTINUOUS
  5
5B3
 10
110.710783
 20
300.042495
 30
0.0
 11
110.710783
 21
299.342495
 31
0.0
  0
LINE
  8
LC-001-002-----0
  6
CONTINUOUS
  5
5B4
 10
110.710783
 20
299.342495
 30
0.0
 11
110.50833
 21
299.342495
 31
0.0
  0
LINE
  8
LC-001-002-----0
  6
CONTINUOUS
  5
5B5
 10
104.310783
 20
299.342495
 30
0.0
 11
104.310783
 21
300.042495
 31
0.0
  0
LINE
  8
LC-001-002-----0
  6
CONTINUOUS
  5
5B6
 10
104.310783
 20
300.042495
 30
0.0
 11
104.50833
 21
300.042495
 31
0.0
  0
LINE
  8
LC-001-002-----0
  6
CONTINUOUS
  5
5B7
 10
112.991157
 20
298.642495
 30
0.0
 11
111.65571
 21
299.342495
 31
0.0
  0
LINE
  8
LC-001-002-----0
  6
CONTINUOUS
  5
5B8
 10
112.991157
 20
300.042495
 30
0.0
 11
112.323434
 21
299.692495
 31
0.0
  0
LINE
  8
LC-001-002-----0
  6
CONTINUOUS
  5
5B9
 10
112.991157
 20
300.042495
 30
0.0
 11
112.991157
 21
300.742495
 31
0.0
  0
LINE
  8
LC-001-002-----0
  6
CONTINUOUS
  5
5BA
 10
112.991157
 20
300.742495
 30
0.0
 11
111.65571
 21
300.042495
 31
0.0
  0
LINE
  8
LC-001-002-----0
  6
CONTINUOUS
  5
5BB
 10
102.030409
 20
300.742495
 30
0.0
 11
103.365856
 21
300.042495
 31
0.0
  0
LINE
  8
LC-001-002-----0
  6
CONTINUOUS
  5
5BC
 10
102.030409
 20
300.042495
 30
0.0
 11
103.365856
 21
299.342495
 31
0.0
  0
LINE
  8
LC-001-002-----0
  6
CONTINUOUS
  5
5BD
 10
102.030409
 20
299.342495
 30
0.0
 11
102.698133
 21
299.692495
 31
0.0
  0
LINE
  8
LC-001-002-----0
  6
CONTINUOUS
  5
5BE
 10
102.030409
 20
298.642495
 30
0.0
 11
103.365856
 21
299.342495
 31
0.0
  0
LINE
  8
LC-001-002-----0
  6
CONTINUOUS
  5
5BF
 10
111.65571
 20
300.042495
 30
0.0
 11
110.710783
 21
300.042495
 31
0.0
  0
LINE
  8
LC-001-002-----0
  6
CONTINUOUS
  5
5C0
 10
111.65571
 20
299.342495
 30
0.0
 11
110.710783
 21
299.342495
 31
0.0
  0
LINE
  8
LC-001-002-----0
  6
CONTINUOUS
  5
5C1
 10
112.991157
 20
299.342495
 30
0.0
 11
111.65571
 21
300.042495
 31
0.0
  0
LINE
  8
LC-001-002-----0
  6
CONTINUOUS
  5
5C2
 10
112.991157
 20
299.342495
 30
0.0
 11
112.991157
 21
298.642495
 31
0.0
  0
LINE
  8
LC-001-002-----0
  6
CONTINUOUS
  5
5C3
 10
102.030409
 20
299.342495
 30
0.0
 11
102.030409
 21
298.642495
 31
0.0
  0
LINE
  8
LC-001-002-----0
  6
CONTINUOUS
  5
5C4
 10
102.030409
 20
300.042495
 30
0.0
 11
102.030409
 21
300.742495
 31
0.0
  0
LINE
  8
LC-001-002-----0
  6
CONTINUOUS
  5
5C5
 10
113.510554
 20
300.742495
 30
0.0
 11
112.510554
 21
309.742495
 31
0.0
  0
LINE
  8
LC-001-002-----0
  6
CONTINUOUS
  5
5C6
 10
122.065438
 20
310.717852
 30
0.0
 11
113.510554
 21
300.742495
 31
0.0
  0
ARC
  8
LC-002-002-RND-0
  6
CONTINUOUS
  5
5C7
 10
119.086031
 20
313.272996
 30
0.0
 40
3.925
 50
315.504186
 51
40.088251
  0
ARC
  8
LC-001-002-----0
  6
CONTINUOUS
  5
5C8
 10
117.822844
 20
312.209737
 30
0.0
 40
5.576109
 50
40.088251
 51
90.091384
  0
LINE
  8
LC-001-002-----0
  6
CONTINUOUS
  5
5C9
 10
114.198453
 20
315.430321
 30
0.0
 11
112.510554
 21
309.742495
 31
0.0
  0
LINE
  8
LC-001-002-----0
  6
CONTINUOUS
  5
5CA
 10
112.510554
 20
309.742495
 30
0.0
 11
110.50833
 21
309.742495
 31
0.0
  0
LINE
  8
LC-001-002-----0
  6
CONTINUOUS
  5
5CB
 10
104.50833
 20
309.742495
 30
0.0
 11
102.510554
 21
309.742495
 31
0.0
  0
LINE
  8
LC-001-002-----0
  6
CONTINUOUS
  5
5CC
 10
100.822654
 20
315.430321
 30
0.0
 11
102.510554
 21
309.742495
 31
0.0
  0
ARC
  8
LC-002-002-RND-0
  6
CONTINUOUS
  5
5CD
 10
97.207087
 20
313.817504
 30
0.0
 40
3.925
 50
24.105895
 51
90.12741
  0
ARC
  8
LC-001-002-----0
  6
CONTINUOUS
  5
5CE
 10
97.198263
 20
312.209737
 30
0.0
 40
5.576109
 50
89.908616
 51
139.911749
  0
ARC
  8
LC-002-002-RND-0
  6
CONTINUOUS
  5
5CF
 10
95.935076
 20
313.272996
 30
0.0
 40
3.925
 50
139.911749
 51
224.495814
  0
LINE
  8
LC-001-002-----0
  6
CONTINUOUS
  5
5D0
 10
92.95567
 20
310.717852
 30
0.0
 11
101.510554
 21
300.742495
 31
0.0
  0
LINE
  8
LC-001-002-----0
  6
CONTINUOUS
  5
5D1
 10
102.510554
 20
309.742495
 30
0.0
 11
101.510554
 21
300.742495
 31
0.0
  0
ARC
  8
LC-002-002-RND-0
  6
CONTINUOUS
  5
5D2
 10
117.816615
 20
313.815676
 30
0.0
 40
3.925
 50
89.862426
 51
155.883941
  0
ARC
  8
LC-001-002-----0
  6
CONTINUOUS
  5
5D3
 10
-90.810848
 20
312.209737
 30
0.0
 40
5.576109
 50
89.908616
 51
139.911749
  0
LINE
  8
LC-001-002-----0
  6
CONTINUOUS
  5
5D4
 10
-51.995135
 20
246.500988
 30
0.0
 11
79.004865
 21
246.500988
 31
0.0
  0
LINE
  8
LC-001-002-----0
  6
CONTINUOUS
  5
5D5
 10
-84.828729
 20
268.995777
 30
0.0
 11
-76.168474
 21
268.995777
 31
0.0
  0
LINE
  8
LC-001-002-----0
  6
CONTINUOUS
  5
5D6
 10
-84.828729
 20
274.195777
 30
0.0
 11
-76.168475
 21
274.195777
 31
0.0
  0
LINE
  8
LC-001-002-----0
  6
CONTINUOUS
  5
5D7
 10
-86.272103
 20
273.526649
 30
0.0
 11
-86.272103
 21
269.664906
 31
0.0
  0
LINE
  8
LC-001-002-----0
  6
CONTINUOUS
  5
5D8
 10
-74.725098
 20
273.526649
 30
0.0
 11
-74.725098
 21
269.664906
 31
0.0
  0
LINE
  8
LC-001-002-----0
  6
CONTINUOUS
  5
5D9
 10
-83.385352
 20
269.664854
 30
0.0
 11
-83.385352
 21
273.532377
 31
0.0
  0
LINE
  8
LC-001-002-----0
  6
CONTINUOUS
  5
5DA
 10
-77.611849
 20
269.664905
 30
0.0
 11
-77.611849
 21
273.526622
 31
0.0
  0
LINE
  8
LC-001-002-----0
  6
CONTINUOUS
  5
5DB
 10
-83.498601
 20
265.69579
 30
0.0
 11
-83.498601
 21
268.995777
 31
0.0
  0
LINE
  8
LC-001-002-----0
  6
CONTINUOUS
  5
5DC
 10
-83.498601
 20
274.195777
 30
0.0
 11
-83.498601
 21
277.19579
 31
0.0
  0
LINE
  8
LC-001-002-----0
  6
CONTINUOUS
  5
5DD
 10
-77.998601
 20
265.19579
 30
0.0
 11
-82.998601
 21
265.19579
 31
0.0
  0
LINE
  8
LC-001-002-----0
  6
CONTINUOUS
  5
5DE
 10
-77.498601
 20
265.69579
 30
0.0
 11
-77.498601
 21
268.995777
 31
0.0
  0
LINE
  8
LC-001-002-----0
  6
CONTINUOUS
  5
5DF
 10
-77.498601
 20
274.195777
 30
0.0
 11
-77.498601
 21
277.19579
 31
0.0
  0
LINE
  8
LC-001-002-----0
  6
CONTINUOUS
  5
5E0
 10
-82.998601
 20
315.19579
 30
0.0
 11
-77.998601
 21
315.19579
 31
0.0
  0
LINE
  8
LC-001-002-----0
  6
CONTINUOUS
  5
5E1
 10
-82.998601
 20
315.19579
 30
0.0
 11
-83.498601
 21
314.69579
 31
0.0
  0
LINE
  8
LC-001-002-----0
  6
CONTINUOUS
  5
5E2
 10
-77.998601
 20
315.19579
 30
0.0
 11
-77.498601
 21
314.69579
 31
0.0
  0
LINE
  8
LC-001-002-----0
  6
CONTINUOUS
  5
5E3
 10
-83.498601
 20
314.69579
 30
0.0
 11
-77.498601
 21
314.69579
 31
0.0
  0
LINE
  8
LC-001-002-----0
  6
CONTINUOUS
  5
5E4
 10
-77.998601
 20
265.19579
 30
0.0
 11
-77.498601
 21
265.69579
 31
0.0
  0
LINE
  8
LC-001-002-----0
  6
CONTINUOUS
  5
5E5
 10
-82.998601
 20
265.19579
 30
0.0
 11
-83.498601
 21
265.69579
 31
0.0
  0
LINE
  8
LC-001-002-----0
  6
CONTINUOUS
  5
5E6
 10
-77.498601
 20
265.69579
 30
0.0
 11
-83.498601
 21
265.69579
 31
0.0
  0
LINE
  8
LC-004-003-----0
  6
CONTINUOUS
  5
5E7
 10
-82.998601
 20
265.19579
 30
0.0
 11
-82.998601
 21
268.995777
 31
0.0
  0
LINE
  8
LC-004-003-----0
  6
CONTINUOUS
  5
5E8
 10
-82.998601
 20
274.195777
 30
0.0
 11
-82.998601
 21
277.19579
 31
0.0
  0
LINE
  8
LC-004-003-----0
  6
CONTINUOUS
  5
5E9
 10
-77.998601
 20
265.19579
 30
0.0
 11
-77.998601
 21
268.995777
 31
0.0
  0
LINE
  8
LC-004-003-----0
  6
CONTINUOUS
  5
5EA
 10
-77.998601
 20
274.195777
 30
0.0
 11
-77.998601
 21
277.19579
 31
0.0
  0
LINE
  8
LC-010-006-MLN-0
  6
DASHDOT
  5
5ED
 10
-80.498601
 20
325.19579
 30
0.0
 11
-80.498601
 21
255.19579
 31
0.0
  0
LINE
  8
LC-001-002-----0
  6
CONTINUOUS
  5
5EE
 10
-77.498601
 20
277.19579
 30
0.0
 11
-79.498601
 21
277.19579
 31
0.0
  0
LINE
  8
LC-001-002-----0
  6
CONTINUOUS
  5
5EF
 10
-75.498601
 20
283.19579
 30
0.0
 11
-75.498601
 21
279.19579
 31
0.0
  0
LINE
  8
LC-001-002-----0
  6
CONTINUOUS
  5
5F0
 10
-85.498601
 20
283.19579
 30
0.0
 11
-85.498601
 21
279.19579
 31
0.0
  0
LINE
  8
LC-001-002-----0
  6
CONTINUOUS
  5
5F1
 10
-77.498601
 20
285.19579
 30
0.0
 11
-79.498601
 21
285.19579
 31
0.0
  0
LINE
  8
LC-001-002-----0
  6
CONTINUOUS
  5
5F2
 10
-81.498601
 20
285.19579
 30
0.0
 11
-83.498601
 21
285.19579
 31
0.0
  0
LINE
  8
LC-001-002-----0
  6
CONTINUOUS
  5
5F3
 10
-81.498601
 20
277.19579
 30
0.0
 11
-83.498601
 21
277.19579
 31
0.0
  0
LINE
  8
LC-001-002-----0
  6
CONTINUOUS
  5
5F4
 10
-83.498601
 20
285.19579
 30
0.0
 11
-83.498601
 21
314.69579
 31
0.0
  0
LINE
  8
LC-001-002-----0
  6
CONTINUOUS
  5
5F5
 10
-77.498601
 20
285.19579
 30
0.0
 11
-77.498601
 21
314.69579
 31
0.0
  0
LINE
  8
LC-004-003-----0
  6
CONTINUOUS
  5
5F6
 10
-77.998601
 20
285.19579
 30
0.0
 11
-77.998601
 21
315.19579
 31
0.0
  0
LINE
  8
LC-004-003-----0
  6
CONTINUOUS
  5
5F7
 10
-82.998601
 20
285.19579
 30
0.0
 11
-82.998601
 21
315.19579
 31
0.0
  0
LINE
  8
LC-001-002-----0
  6
CONTINUOUS
  5
5F8
 10
-81.498601
 20
285.19579
 30
0.0
 11
-81.498601
 21
277.19579
 31
0.0
  0
LINE
  8
LC-001-002-----0
  6
CONTINUOUS
  5
5F9
 10
-79.498601
 20
285.19579
 30
0.0
 11
-79.498601
 21
277.19579
 31
0.0
  0
ARC
  8
LC-002-002-RND-0
  6
CONTINUOUS
  5
5FA
 10
-83.498601
 20
283.19579
 30
0.0
 40
2.0
 50
90.0
 51
180.0
  0
ARC
  8
LC-002-002-RND-0
  6
CONTINUOUS
  5
5FB
 10
-83.498601
 20
279.19579
 30
0.0
 40
2.0
 50
180.0
 51
270.0
  0
ARC
  8
LC-002-002-RND-0
  6
CONTINUOUS
  5
5FC
 10
-77.498601
 20
279.19579
 30
0.0
 40
2.0
 50
270.0
 51
0.0
  0
ARC
  8
LC-002-002-RND-0
  6
CONTINUOUS
  5
5FD
 10
-77.498601
 20
283.19579
 30
0.0
 40
2.0
 50
0.0
 51
90.0
  0
LINE
  8
LC-001-002-----0
  6
CONTINUOUS
  5
5FE
 10
27.304887
 20
280.414289
 30
0.0
 11
84.504624
 21
280.414367
 31
0.0
  0
LINE
  8
LC-001-002-----0
  6
CONTINUOUS
  5
5FF
 10
110.50833
 20
265.69579
 30
0.0
 11
110.50833
 21
268.995777
 31
0.0
  0
LINE
  8
LC-001-002-----0
  6
CONTINUOUS
  5
600
 10
110.50833
 20
274.195777
 30
0.0
 11
110.50833
 21
277.19579
 31
0.0
  0
LINE
  8
LC-001-002-----0
  6
CONTINUOUS
  5
601
 10
105.00833
 20
265.19579
 30
0.0
 11
110.00833
 21
265.19579
 31
0.0
  0
LINE
  8
LC-001-002-----0
  6
CONTINUOUS
  5
602
 10
104.50833
 20
265.69579
 30
0.0
 11
104.50833
 21
268.995777
 31
0.0
  0
LINE
  8
LC-001-002-----0
  6
CONTINUOUS
  5
603
 10
104.50833
 20
274.195777
 30
0.0
 11
104.50833
 21
277.19579
 31
0.0
  0
LINE
  8
LC-001-002-----0
  6
CONTINUOUS
  5
604
 10
110.00833
 20
315.19579
 30
0.0
 11
105.00833
 21
315.19579
 31
0.0
  0
LINE
  8
LC-001-002-----0
  6
CONTINUOUS
  5
605
 10
110.00833
 20
315.19579
 30
0.0
 11
110.50833
 21
314.69579
 31
0.0
  0
LINE
  8
LC-001-002-----0
  6
CONTINUOUS
  5
606
 10
105.00833
 20
315.19579
 30
0.0
 11
104.50833
 21
314.69579
 31
0.0
  0
LINE
  8
LC-001-002-----0
  6
CONTINUOUS
  5
607
 10
110.50833
 20
314.69579
 30
0.0
 11
104.50833
 21
314.69579
 31
0.0
  0
LINE
  8
LC-001-002-----0
  6
CONTINUOUS
  5
608
 10
105.00833
 20
265.19579
 30
0.0
 11
104.50833
 21
265.69579
 31
0.0
  0
LINE
  8
LC-001-002-----0
  6
CONTINUOUS
  5
609
 10
110.00833
 20
265.19579
 30
0.0
 11
110.50833
 21
265.69579
 31
0.0
  0
LINE
  8
LC-001-002-----0
  6
CONTINUOUS
  5
60A
 10
104.50833
 20
265.69579
 30
0.0
 11
110.50833
 21
265.69579
 31
0.0
  0
LINE
  8
LC-004-003-----0
  6
CONTINUOUS
  5
60B
 10
110.00833
 20
265.19579
 30
0.0
 11
110.00833
 21
268.995777
 31
0.0
  0
LINE
  8
LC-004-003-----0
  6
CONTINUOUS
  5
60C
 10
110.00833
 20
274.195777
 30
0.0
 11
110.00833
 21
277.19579
 31
0.0
  0
LINE
  8
LC-004-003-----0
  6
CONTINUOUS
  5
60D
 10
105.00833
 20
265.19579
 30
0.0
 11
105.00833
 21
268.995777
 31
0.0
  0
LINE
  8
LC-004-003-----0
  6
CONTINUOUS
  5
60E
 10
105.00833
 20
274.195777
 30
0.0
 11
105.00833
 21
277.19579
 31
0.0
  0
LINE
  8
LC-010-006-MLN-0
  6
DASHDOT
  5
60F
 10
107.50833
 20
325.19579
 30
0.0
 11
107.50833
 21
255.19579
 31
0.0
  0
LINE
  8
LC-001-002-----0
  6
CONTINUOUS
  5
610
 10
104.50833
 20
277.19579
 30
0.0
 11
106.50833
 21
277.19579
 31
0.0
  0
LINE
  8
LC-001-002-----0
  6
CONTINUOUS
  5
611
 10
102.50833
 20
283.19579
 30
0.0
 11
102.50833
 21
279.19579
 31
0.0
  0
LINE
  8
LC-001-002-----0
  6
CONTINUOUS
  5
612
 10
112.50833
 20
283.19579
 30
0.0
 11
112.50833
 21
279.19579
 31
0.0
  0
LINE
  8
LC-001-002-----0
  6
CONTINUOUS
  5
613
 10
104.50833
 20
285.19579
 30
0.0
 11
106.50833
 21
285.19579
 31
0.0
  0
LINE
  8
LC-001-002-----0
  6
CONTINUOUS
  5
614
 10
108.50833
 20
285.19579
 30
0.0
 11
110.50833
 21
285.19579
 31
0.0
  0
LINE
  8
LC-001-002-----0
  6
CONTINUOUS
  5
615
 10
108.50833
 20
277.19579
 30
0.0
 11
110.50833
 21
277.19579
 31
0.0
  0
LINE
  8
LC-001-002-----0
  6
CONTINUOUS
  5
616
 10
110.50833
 20
285.19579
 30
0.0
 11
110.50833
 21
314.69579
 31
0.0
  0
LINE
  8
LC-001-002-----0
  6
CONTINUOUS
  5
617
 10
104.50833
 20
285.19579
 30
0.0
 11
104.50833
 21
314.69579
 31
0.0
  0
LINE
  8
LC-004-003-----0
  6
CONTINUOUS
  5
618
 10
105.00833
 20
285.19579
 30
0.0
 11
105.00833
 21
315.19579
 31
0.0
  0
LINE
  8
LC-004-003-----0
  6
CONTINUOUS
  5
619
 10
110.00833
 20
285.19579
 30
0.0
 11
110.00833
 21
315.19579
 31
0.0
  0
LINE
  8
LC-001-002-----0
  6
CONTINUOUS
  5
61A
 10
108.50833
 20
285.19579
 30
0.0
 11
108.50833
 21
277.19579
 31
0.0
  0
LINE
  8
LC-001-002-----0
  6
CONTINUOUS
  5
61B
 10
106.50833
 20
285.19579
 30
0.0
 11
106.50833
 21
277.19579
 31
0.0
  0
ARC
  8
LC-002-002-RND-0
  6
CONTINUOUS
  5
61C
 10
110.50833
 20
283.19579
 30
0.0
 40
2.0
 50
360.0
 51
90.0
  0
ARC
  8
LC-002-002-RND-0
  6
CONTINUOUS
  5
61D
 10
110.50833
 20
279.19579
 30
0.0
 40
2.0
 50
270.0
 51
360.0
  0
ARC
  8
LC-002-002-RND-0
  6
CONTINUOUS
  5
61E
 10
104.50833
 20
279.19579
 30
0.0
 40
2.0
 50
180.0
 51
270.0
  0
ARC
  8
LC-002-002-RND-0
  6
CONTINUOUS
  5
61F
 10
104.50833
 20
283.19579
 30
0.0
 40
2.0
 50
90.0
 51
180.0
  0
LINE
  8
LC-001-002-----0
  6
CONTINUOUS
  5
620
 10
111.838458
 20
268.995777
 30
0.0
 11
103.178203
 21
268.995777
 31
0.0
  0
LINE
  8
LC-001-002-----0
  6
CONTINUOUS
  5
621
 10
111.838458
 20
274.195777
 30
0.0
 11
103.178204
 21
274.195777
 31
0.0
  0
LINE
  8
LC-001-002-----0
  6
CONTINUOUS
  5
622
 10
113.281832
 20
273.526649
 30
0.0
 11
113.281832
 21
269.664906
 31
0.0
  0
LINE
  8
LC-001-002-----0
  6
CONTINUOUS
  5
623
 10
101.734827
 20
273.526649
 30
0.0
 11
101.734827
 21
269.664906
 31
0.0
  0
LINE
  8
LC-001-002-----0
  6
CONTINUOUS
  5
624
 10
110.395081
 20
269.664854
 30
0.0
 11
110.395081
 21
273.532377
 31
0.0
  0
LINE
  8
LC-001-002-----0
  6
CONTINUOUS
  5
625
 10
104.621578
 20
269.664905
 30
0.0
 11
104.621578
 21
273.526622
 31
0.0
  0
LINE
  8
LC-001-002-----0
  6
CONTINUOUS
  5
626
 10
-63.745135
 20
261.500988
 30
0.0
 11
-57.995135
 21
261.500988
 31
0.0
  0
LINE
  8
LC-001-002-----0
  6
CONTINUOUS
  5
627
 10
-50.555696
 20
214.000942
 30
0.0
 11
-21.504344
 21
210.456141
 31
0.0
  0
LINE
  8
LC-001-002-----0
  6
CONTINUOUS
  5
628
 10
-57.995135
 20
261.500988
 30
0.0
 11
-55.245179
 21
261.500988
 31
0.0
  0
LINE
  8
LC-001-002-----0
  6
CONTINUOUS
  5
629
 10
-23.995135
 20
208.207459
 30
0.0
 11
-23.995135
 21
145.950875
 31
0.0
  0
LINE
  8
LC-001-002-----0
  6
CONTINUOUS
  5
62A
 10
91.004158
 20
208.450875
 30
0.0
 11
93.504865
 21
208.450875
 31
0.0
  0
LINE
  8
LC-001-002-----0
  6
CONTINUOUS
  5
62B
 10
52.979257
 20
208.450875
 30
0.0
 11
51.0051
 21
208.214928
 31
0.0
  0
LINE
  8
LC-001-002-----0
  6
CONTINUOUS
  5
62C
 10
-51.995135
 20
246.500988
 30
0.0
 11
79.004865
 21
246.500988
 31
0.0
  0
LINE
  8
LC-001-002-----0
  6
CONTINUOUS
  5
62D
 10
-66.495135
 20
208.450875
 30
0.0
 11
-63.994429
 21
208.450875
 31
0.0
  0
LINE
  8
LC-001-002-----0
  6
CONTINUOUS
  5
62E
 10
-23.057313
 20
142.450875
 30
0.0
 11
13.504865
 21
142.450875
 31
0.0
  0
LINE
  8
LC-001-002-----0
  6
CONTINUOUS
  5
62F
 10
13.504865
 20
142.450875
 30
0.0
 11
50.067042
 21
142.450875
 31
0.0
  0
LINE
  8
LC-001-002-----0
  6
CONTINUOUS
  5
630
 10
51.004865
 20
208.207459
 30
0.0
 11
51.004865
 21
145.950875
 31
0.0
  0
LINE
  8
LC-001-002-----0
  6
CONTINUOUS
  5
631
 10
-54.244429
 20
208.450875
 30
0.0
 11
-25.969528
 21
208.450875
 31
0.0
  0
LINE
  8
LC-001-002-----0
  6
CONTINUOUS
  5
632
 10
-50.995135
 20
214.497261
 30
0.0
 11
-50.995135
 21
245.500988
 31
0.0
  0
ARC
  8
LC-001-002-----0
  6
CONTINUOUS
  5
633
 10
-50.495135
 20
214.497261
 30
0.0
 40
0.5
 50
180.0
 51
263.0
  0
LINE
  8
LC-001-002-----0
  6
CONTINUOUS
  5
634
 10
-68.995137
 20
276.952196
 30
0.0
 11
-68.995137
 21
293.696013
 31
0.0
  0
LINE
  8
LC-001-002-----0
  6
CONTINUOUS
  5
635
 10
-63.745135
 20
261.500988
 30
0.0
 11
-57.995135
 21
261.500988
 31
0.0
  0
LINE
  8
LC-001-002-----0
  6
CONTINUOUS
  5
636
 10
96.004863
 20
293.696013
 30
0.0
 11
96.004863
 21
276.952196
 31
0.0
  0
LINE
  8
LC-001-002-----0
  6
CONTINUOUS
  5
637
 10
96.004863
 20
276.952196
 30
0.0
 11
93.258162
 21
276.952196
 31
0.0
  0
LINE
  8
LC-001-002-----0
  6
CONTINUOUS
  5
638
 10
90.754865
 20
261.500988
 30
0.0
 11
85.004865
 21
261.500988
 31
0.0
  0
LINE
  8
LC-001-002-----0
  6
CONTINUOUS
  5
639
 10
-56.995135
 20
247.000988
 30
0.0
 11
-56.995135
 21
260.500988
 31
0.0
  0
ARC
  8
LC-001-002-----0
  6
CONTINUOUS
  5
63A
 10
-57.995135
 20
260.500988
 30
0.0
 40
1.0
 50
0.0
 51
90.0
  0
ARC
  8
LC-001-002-----0
  6
CONTINUOUS
  5
63B
 10
-56.495135
 20
247.000988
 30
0.0
 40
0.5
 50
180.0
 51
270.0
  0
ARC
  8
LC-001-002-----0
  6
CONTINUOUS
  5
63C
 10
-51.995135
 20
245.500988
 30
0.0
 40
1.0
 50
0.0
 51
90.0
  0
LINE
  8
LC-001-002-----0
  6
CONTINUOUS
  5
63D
 10
81.254158
 20
208.450875
 30
0.0
 11
52.979257
 21
208.450875
 31
0.0
  0
LINE
  8
LC-001-002-----0
  6
CONTINUOUS
  5
63E
 10
78.004865
 20
214.497261
 30
0.0
 11
78.004865
 21
245.500988
 31
0.0
  0
ARC
  8
LC-001-002-----0
  6
CONTINUOUS
  5
63F
 10
77.504865
 20
214.497261
 30
0.0
 40
0.5
 50
277.0
 51
0.0
  0
LINE
  8
LC-001-002-----0
  6
CONTINUOUS
  5
640
 10
48.505027
 20
210.381331
 30
0.0
 11
77.565799
 21
214.000988
 31
0.0
  0
LINE
  8
LC-001-002-----0
  6
CONTINUOUS
  5
641
 10
-68.995137
 20
276.952196
 30
0.0
 11
-64.245137
 21
272.202196
 31
0.0
  0
LINE
  8
LC-001-002-----0
  6
CONTINUOUS
  5
642
 10
-71.45755
 20
272.816123
 30
0.0
 11
-67.49482
 21
272.816123
 31
0.0
  0
LINE
  8
LC-001-002-----0
  6
CONTINUOUS
  5
643
 10
96.004863
 20
276.952196
 30
0.0
 11
91.254863
 21
272.202196
 31
0.0
  0
LINE
  8
LC-001-002-----0
  6
CONTINUOUS
  5
644
 10
93.504865
 20
271.816416
 30
0.0
 11
94.504567
 21
272.816123
 31
0.0
  0
LINE
  8
LC-001-002-----0
  6
CONTINUOUS
  5
645
 10
94.504567
 20
272.816123
 30
0.0
 11
98.50532
 21
272.816123
 31
0.0
  0
LINE
  8
LC-001-002-----0
  6
CONTINUOUS
  5
646
 10
-163.495128
 20
300.451639
 30
0.0
 11
-163.495124
 21
299.44375
 31
0.0
  0
LINE
  8
LC-001-002-----0
  6
CONTINUOUS
  5
647
 10
-114.235772
 20
302.451822
 30
0.0
 11
-90.180246
 21
293.696445
 31
0.0
  0
LINE
  8
LC-001-002-----0
  6
CONTINUOUS
  5
648
 10
-114.50996
 20
299.451821
 30
0.0
 11
-91.828175
 21
291.196438
 31
0.0
  0
LINE
  8
LC-001-002-----0
  6
CONTINUOUS
  5
649
 10
-83.498601
 20
293.694351
 30
0.0
 11
-90.180246
 21
293.696445
 31
0.0
  0
LINE
  8
LC-001-002-----0
  6
CONTINUOUS
  5
64A
 10
-86.448799
 20
291.194259
 30
0.0
 11
-91.828175
 21
291.196438
 31
0.0
  0
LINE
  8
LC-001-002-----0
  6
CONTINUOUS
  5
64B
 10
-86.448799
 20
291.194259
 30
0.0
 11
-86.448706
 21
275.195765
 31
0.0
  0
LINE
  8
LC-001-002-----0
  6
CONTINUOUS
  5
64C
 10
-86.448706
 20
275.195765
 30
0.0
 11
-83.498601
 21
275.195777
 31
0.0
  0
LINE
  8
LC-001-002-----0
  6
CONTINUOUS
  5
64D
 10
-69.002056
 20
293.695656
 30
0.0
 11
-77.498601
 21
293.694831
 31
0.0
  0
LINE
  8
LC-001-002-----0
  6
CONTINUOUS
  5
64E
 10
-71.45582
 20
291.194259
 30
0.0
 11
-71.45755
 21
272.816123
 31
0.0
  0
LINE
  8
LC-001-002-----0
  6
CONTINUOUS
  5
64F
 10
-54.244429
 20
208.450875
 30
0.0
 11
-54.244429
 21
242.000988
 31
0.0
  0
LINE
  8
LC-001-002-----0
  6
CONTINUOUS
  5
650
 10
-77.498601
 20
275.195803
 30
0.0
 11
-74.495112
 21
275.195816
 31
0.0
  0
LINE
  8
LC-001-002-----0
  6
CONTINUOUS
  5
651
 10
-62.994429
 20
256.900988
 30
0.0
 11
-60.544429
 21
256.900988
 31
0.0
  0
LINE
  8
LC-001-002-----0
  6
CONTINUOUS
  5
652
 10
-161.495135
 20
302.451648
 30
0.0
 11
-87.96683
 21
302.451919
 31
0.0
  0
LINE
  8
LC-001-002-----0
  6
CONTINUOUS
  5
653
 10
91.254865
 20
272.202196
 30
0.0
 11
89.504943
 21
272.202196
 31
0.0
  0
LINE
  8
LC-001-002-----0
  6
CONTINUOUS
  5
654
 10
-68.995137
 20
293.696013
 30
0.0
 11
-66.494887
 21
293.696021
 31
0.0
  0
LINE
  8
LC-001-002-----0
  6
CONTINUOUS
  5
655
 10
190.504863
 20
300.452352
 30
0.0
 11
190.504863
 21
299.45325
 31
0.0
  0
LINE
  8
LC-001-002-----0
  6
CONTINUOUS
  5
656
 10
141.241501
 20
302.452352
 30
0.0
 11
117.172819
 21
293.694691
 31
0.0
  0
LINE
  8
LC-001-002-----0
  6
CONTINUOUS
  5
657
 10
141.517826
 20
299.453181
 30
0.0
 11
118.820759
 21
291.194691
 31
0.0
  0
LINE
  8
LC-001-002-----0
  6
CONTINUOUS
  5
658
 10
110.50833
 20
293.694691
 30
0.0
 11
117.172819
 21
293.694691
 31
0.0
  0
LINE
  8
LC-001-002-----0
  6
CONTINUOUS
  5
659
 10
113.458595
 20
291.194691
 30
0.0
 11
118.820759
 21
291.194691
 31
0.0
  0
LINE
  8
LC-001-002-----0
  6
CONTINUOUS
  5
65A
 10
113.458595
 20
291.194691
 30
0.0
 11
113.458608
 21
275.19579
 31
0.0
  0
LINE
  8
LC-001-002-----0
  6
CONTINUOUS
  5
65B
 10
113.458608
 20
275.19579
 30
0.0
 11
110.50833
 21
275.19579
 31
0.0
  0
LINE
  8
LC-001-002-----0
  6
CONTINUOUS
  5
65C
 10
-59.544429
 20
245.500988
 30
0.0
 11
-59.544429
 21
255.900988
 31
0.0
  0
ARC
  8
LC-001-002-----0
  6
CONTINUOUS
  5
65D
 10
-60.544429
 20
255.900988
 30
0.0
 40
1.0
 50
0.0
 51
90.0
  0
ARC
  8
LC-001-002-----0
  6
CONTINUOUS
  5
65E
 10
-62.994429
 20
255.900988
 30
0.0
 40
1.0
 50
90.0
 51
180.0
  0
LINE
  8
LC-001-002-----0
  6
CONTINUOUS
  5
65F
 10
90.754865
 20
261.500988
 30
0.0
 11
85.004865
 21
261.500988
 31
0.0
  0
ARC
  8
LC-001-002-----0
  6
CONTINUOUS
  5
660
 10
-63.745135
 20
262.000988
 30
0.0
 40
0.5
 50
180.0
 51
270.0
  0
LINE
  8
LC-001-002-----0
  6
CONTINUOUS
  5
661
 10
84.004865
 20
247.000988
 30
0.0
 11
84.004865
 21
260.500988
 31
0.0
  0
ARC
  8
LC-001-002-----0
  6
CONTINUOUS
  5
662
 10
85.004865
 20
260.500988
 30
0.0
 40
1.0
 50
90.0
 51
180.0
  0
ARC
  8
LC-001-002-----0
  6
CONTINUOUS
  5
663
 10
83.504865
 20
247.000988
 30
0.0
 40
0.5
 50
270.0
 51
0.0
  0
ARC
  8
LC-001-002-----0
  6
CONTINUOUS
  5
664
 10
79.004865
 20
245.500988
 30
0.0
 40
1.0
 50
90.0
 51
180.0
  0
LINE
  8
LC-001-002-----0
  6
CONTINUOUS
  5
665
 10
81.254158
 20
208.450875
 30
0.0
 11
81.254158
 21
241.950988
 31
0.0
  0
LINE
  8
LC-001-002-----0
  6
CONTINUOUS
  5
666
 10
90.004158
 20
256.900988
 30
0.0
 11
87.554158
 21
256.900988
 31
0.0
  0
LINE
  8
LC-001-002-----0
  6
CONTINUOUS
  5
667
 10
86.554158
 20
245.450988
 30
0.0
 11
86.554158
 21
255.900988
 31
0.0
  0
ARC
  8
LC-001-002-----0
  6
CONTINUOUS
  5
668
 10
87.554158
 20
255.900988
 30
0.0
 40
1.0
 50
90.0
 51
180.0
  0
ARC
  8
LC-001-002-----0
  6
CONTINUOUS
  5
669
 10
90.004158
 20
255.900988
 30
0.0
 40
1.0
 50
0.0
 51
90.0
  0
ARC
  8
LC-001-002-----0
  6
CONTINUOUS
  5
66A
 10
90.754865
 20
262.000988
 30
0.0
 40
0.5
 50
270.0
 51
0.0
  0
LINE
  8
LC-001-002-----0
  6
CONTINUOUS
  5
66B
 10
-64.245135
 20
262.000988
 30
0.0
 11
-64.245135
 21
272.202195
 31
0.0
  0
LINE
  8
LC-001-002-----0
  6
CONTINUOUS
  5
66C
 10
91.254865
 20
262.000988
 30
0.0
 11
91.254865
 21
272.202197
 31
0.0
  0
LINE
  8
LC-001-002-----0
  6
CONTINUOUS
  5
66D
 10
83.504865
 20
246.500988
 30
0.0
 11
79.004865
 21
246.500988
 31
0.0
  0
ARC
  8
LC-001-002-----0
  6
CONTINUOUS
  5
66E
 10
84.054158
 20
245.450988
 30
0.0
 40
2.5
 50
270.0
 51
0.0
  0
ARC
  8
LC-001-002-----0
  6
CONTINUOUS
  5
66F
 10
82.254158
 20
241.950988
 30
0.0
 40
1.0
 50
90.0
 51
180.0
  0
LINE
  8
LC-001-002-----0
  6
CONTINUOUS
  5
670
 10
84.054158
 20
242.950988
 30
0.0
 11
82.254158
 21
242.950988
 31
0.0
  0
LINE
  8
LC-001-002-----0
  6
CONTINUOUS
  5
671
 10
-56.495135
 20
246.500988
 30
0.0
 11
-51.995135
 21
246.500988
 31
0.0
  0
ARC
  8
LC-001-002-----0
  6
CONTINUOUS
  5
672
 10
-57.044429
 20
245.500988
 30
0.0
 40
2.5
 50
180.0
 51
270.0
  0
ARC
  8
LC-001-002-----0
  6
CONTINUOUS
  5
673
 10
-55.244429
 20
242.000988
 30
0.0
 40
1.0
 50
0.0
 51
90.0
  0
LINE
  8
LC-001-002-----0
  6
CONTINUOUS
  5
674
 10
-57.044429
 20
243.000988
 30
0.0
 11
-55.244429
 21
243.000988
 31
0.0
  0
LINE
  8
LC-001-002-----0
  6
CONTINUOUS
  5
675
 10
-25.969528
 20
208.450875
 30
0.0
 11
-23.995135
 21
208.207459
 31
0.0
  0
LINE
  8
LC-001-002-----0
  6
CONTINUOUS
  5
676
 10
96.011841
 20
293.696013
 30
0.0
 11
104.50833
 21
293.695225
 31
0.0
  0
LINE
  8
LC-001-002-----0
  6
CONTINUOUS
  5
677
 10
91.004158
 20
208.450875
 30
0.0
 11
91.004158
 21
255.900988
 31
0.0
  0
LINE
  8
LC-001-002-----0
  6
CONTINUOUS
  5
678
 10
93.504865
 20
271.816416
 30
0.0
 11
93.504865
 21
208.450875
 31
0.0
  0
LINE
  8
LC-001-002-----0
  6
CONTINUOUS
  5
679
 10
98.503691
 20
291.194259
 30
0.0
 11
98.50532
 21
272.816123
 31
0.0
  0
LINE
  8
LC-001-002-----0
  6
CONTINUOUS
  5
67A
 10
-63.994429
 20
208.450875
 30
0.0
 11
-63.994429
 21
255.900988
 31
0.0
  0
LINE
  8
LC-001-002-----0
  6
CONTINUOUS
  5
67B
 10
-21.504344
 20
210.456141
 30
0.0
 11
-21.495135
 21
142.450875
 31
0.0
  0
LINE
  8
LC-001-002-----0
  6
CONTINUOUS
  5
67C
 10
48.505027
 20
210.381331
 30
0.0
 11
48.504865
 21
142.450875
 31
0.0
  0
LINE
  8
LC-001-002-----0
  6
CONTINUOUS
  5
67D
 10
51.004865
 20
145.950875
 30
0.0
 11
50.067042
 21
142.450875
 31
0.0
  0
LINE
  8
LC-001-002-----0
  6
CONTINUOUS
  5
67E
 10
-23.995135
 20
145.950875
 30
0.0
 11
-23.057313
 21
142.450875
 31
0.0
  0
LINE
  8
LC-001-002-----0
  6
CONTINUOUS
  5
67F
 10
-66.495135
 20
271.816439
 30
0.0
 11
-66.495135
 21
208.450875
 31
0.0
  0
LINE
  8
LC-001-002-----0
  6
CONTINUOUS
  5
680
 10
104.50833
 20
275.19579
 30
0.0
 11
101.504876
 21
275.19579
 31
0.0
  0
LINE
  8
LC-001-002-----0
  6
CONTINUOUS
  5
681
 10
-67.49482
 20
272.816123
 30
0.0
 11
-66.495135
 21
271.816439
 31
0.0
  0
LINE
  8
LC-001-002-----0
  6
CONTINUOUS
  5
682
 10
-74.495112
 20
275.195816
 30
0.0
 11
-74.495137
 21
291.194259
 31
0.0
  0
LINE
  8
LC-001-002-----0
  6
CONTINUOUS
  5
683
 10
-74.495137
 20
291.194259
 30
0.0
 11
-71.45582
 21
291.194259
 31
0.0
  0
LINE
  8
LC-001-002-----0
  6
CONTINUOUS
  5
684
 10
101.504876
 20
275.19579
 30
0.0
 11
101.504863
 21
291.194259
 31
0.0
  0
LINE
  8
LC-001-002-----0
  6
CONTINUOUS
  5
685
 10
101.504863
 20
291.194259
 30
0.0
 11
98.503691
 21
291.194259
 31
0.0
  0
LINE
  8
LC-001-002-----0
  6
CONTINUOUS
  5
686
 10
-163.495122
 20
299.45164
 30
0.0
 11
-114.50996
 21
299.451821
 31
0.0
  0
LINE
  8
LC-001-002-----0
  6
CONTINUOUS
  5
687
 10
96.004863
 20
293.696013
 30
0.0
 11
93.50454
 21
293.696021
 31
0.0
  0
LINE
  8
LC-001-002-----0
  6
CONTINUOUS
  5
688
 10
190.50468
 20
299.45325
 30
0.0
 11
141.517826
 21
299.453181
 31
0.0
  0
LINE
  8
LC-001-002-----0
  6
CONTINUOUS
  5
689
 10
97.811592
 20
302.452352
 30
0.0
 11
100.044177
 21
302.452352
 31
0.0
  0
LINE
  8
LC-001-002-----0
  6
CONTINUOUS
  5
68A
 10
-21.504344
 20
210.456141
 30
0.0
 11
48.505027
 21
210.456141
 31
0.0
  0
ARC
  8
LC-001-002-----0
  6
CONTINUOUS
  5
68B
 10
188.504863
 20
300.452352
 30
0.0
 40
2.0
 50
0.0
 51
90.0
  0
ARC
  8
LC-001-002-----0
  6
CONTINUOUS
  5
68C
 10
-161.495128
 20
300.451648
 30
0.0
 40
2.0
 50
90.000212
 51
180.000248
  0
LINE
  8
LC-001-002-----0
  6
CONTINUOUS
  5
68D
 10
-73.032591
 20
302.451975
 30
0.0
 11
-70.801928
 21
302.451983
 31
0.0
  0
LINE
  8
LC-001-002-----0
  6
CONTINUOUS
  5
68E
 10
114.97693
 20
302.452352
 30
0.0
 11
188.504863
 21
302.452352
 31
0.0
  0
LINE
  8
LC-001-002-----0
  6
CONTINUOUS
  5
68F
 10
13.504865
 20
293.696301
 30
0.0
 11
13.458595
 21
293.696301
 31
0.0
  0
LINE
  8
LC-001-002-----0
  6
CONTINUOUS
  5
690
 10
-66.248586
 20
276.952196
 30
0.0
 11
-68.995137
 21
276.952196
 31
0.0
  0
LINE
  8
LC-001-002-----0
  6
CONTINUOUS
  5
691
 10
82.254821
 20
261.500988
 30
0.0
 11
85.004865
 21
261.500988
 31
0.0
  0
LINE
  8
LC-001-002-----0
  6
CONTINUOUS
  5
692
 10
-60.394838
 20
272.202196
 30
0.0
 11
-64.245135
 21
272.202196
 31
0.0
  0
LINE
  8
LC-001-002-----0
  6
CONTINUOUS
  5
693
 10
-102.744429
 20
74.448432
 30
0.0
 11
-155.113238
 21
74.448432
 31
0.0
  0
LINE
  8
LC-001-002-----0
  6
CONTINUOUS
  5
694
 10
-102.744429
 20
80.948432
 30
0.0
 11
-155.113238
 21
80.948432
 31
0.0
  0
LINE
  8
LC-001-002-----0
  6
CONTINUOUS
  5
695
 10
-155.113238
 20
80.948432
 30
0.0
 11
-155.113238
 21
74.448432
 31
0.0
  0
LINE
  8
LC-001-002-----0
  6
CONTINUOUS
  5
696
 10
-155.113238
 20
79.950491
 30
0.0
 11
-179.86005
 21
81.247416
 31
0.0
  0
LINE
  8
LC-001-002-----0
  6
CONTINUOUS
  5
697
 10
-155.113238
 20
78.448432
 30
0.0
 11
-180.028572
 21
79.75419
 31
0.0
  0
LINE
  8
LC-001-002-----0
  6
CONTINUOUS
  5
698
 10
-155.113238
 20
78.448432
 30
0.0
 11
-180.113238
 21
78.448432
 31
0.0
  0
LINE
  8
LC-001-002-----0
  6
CONTINUOUS
  5
699
 10
-155.113238
 20
76.948432
 30
0.0
 11
-180.113238
 21
76.948432
 31
0.0
  0
LINE
  8
LC-001-002-----0
  6
CONTINUOUS
  5
69A
 10
-155.113238
 20
76.948432
 30
0.0
 11
-180.028572
 21
75.642675
 31
0.0
  0
LINE
  8
LC-001-002-----0
  6
CONTINUOUS
  5
69B
 10
-155.113238
 20
75.446374
 30
0.0
 11
-179.86005
 21
74.149448
 31
0.0
  0
LINE
  8
LC-001-002-----0
  6
CONTINUOUS
  5
69C
 10
-179.888137
 20
74.398319
 30
0.0
 11
-186.902354
 21
74.03072
 31
0.0
  0
LINE
  8
LC-001-002-----0
  6
CONTINUOUS
  5
69D
 10
-180.000485
 20
75.393804
 30
0.0
 11
-187.001526
 21
75.026895
 31
0.0
  0
LINE
  8
LC-001-002-----0
  6
CONTINUOUS
  5
69E
 10
-180.113238
 20
77.198432
 30
0.0
 11
-187.113238
 21
77.198432
 31
0.0
  0
LINE
  8
LC-001-002-----0
  6
CONTINUOUS
  5
69F
 10
-180.113238
 20
78.198432
 30
0.0
 11
-187.113238
 21
78.198432
 31
0.0
  0
LINE
  8
LC-001-002-----0
  6
CONTINUOUS
  5
6A0
 10
-180.000485
 20
80.003061
 30
0.0
 11
-187.001526
 21
80.36997
 31
0.0
  0
LINE
  8
LC-001-002-----0
  6
CONTINUOUS
  5
6A1
 10
-179.888137
 20
80.998545
 30
0.0
 11
-186.902354
 21
81.366145
 31
0.0
  0
LINE
  8
LC-001-002-----0
  6
CONTINUOUS
  5
6A2
 10
-179.86005
 20
81.247416
 30
0.0
 11
-180.028572
 21
79.75419
 31
0.0
  0
LINE
  8
LC-001-002-----0
  6
CONTINUOUS
  5
6A3
 10
-180.113238
 20
78.448432
 30
0.0
 11
-180.113238
 21
76.948432
 31
0.0
  0
LINE
  8
LC-001-002-----0
  6
CONTINUOUS
  5
6A4
 10
-179.86005
 20
74.149448
 30
0.0
 11
-180.028572
 21
75.642675
 31
0.0
  0
LINE
  8
LC-001-002-----0
  6
CONTINUOUS
  5
6A5
 10
-186.902354
 20
74.03072
 30
0.0
 11
-187.001526
 21
75.026895
 31
0.0
  0
LINE
  8
LC-001-002-----0
  6
CONTINUOUS
  5
6A6
 10
-187.113238
 20
78.198432
 30
0.0
 11
-187.113238
 21
77.198432
 31
0.0
  0
LINE
  8
LC-001-002-----0
  6
CONTINUOUS
  5
6A7
 10
-186.902354
 20
81.366145
 30
0.0
 11
-187.001526
 21
80.36997
 31
0.0
  0
LINE
  8
LC-001-002-----0
  6
DASHDOT
 62
     2
  5
6A8
 10
-102.744429
 20
90.488027
 30
0.0
 11
-102.744429
 21
62.828637
 31
0.0
  0
LINE
  8
LC-001-002-----0
  6
DASHDOT
 62
     2
  5
6A9
 10
-100.744429
 20
90.488027
 30
0.0
 11
-100.744429
 21
62.828637
 31
0.0
  0
ARC
  8
LC-002-002-RND-0
  6
CONTINUOUS
  5
6AA
 10
-100.744429
 20
120.948432
 30
0.0
 40
46.5
 50
270.0
 51
360.0
  0
ARC
  8
LC-002-002-RND-0
  6
CONTINUOUS
  5
6AB
 10
-100.744429
 20
120.948432
 30
0.0
 40
40.0
 50
270.0
 51
360.0
  0
LINE
  8
LC-001-002-----0
  6
DASHDOT
 62
     2
  5
6AC
 10
-63.416215
 20
164.021452
 30
0.0
 11
-51.631782
 21
164.021452
 31
0.0
  0
LINE
  8
LC-001-002-----0
  6
DASHDOT
 62
     2
  5
6AD
 10
-63.416215
 20
162.521452
 30
0.0
 11
-51.631782
 21
162.521452
 31
0.0
  0
LINE
  8
LC-001-002-----0
  6
CONTINUOUS
  5
6AE
 10
-54.244429
 20
162.521452
 30
0.0
 11
-54.244429
 21
120.948432
 31
0.0
  0
LINE
  8
LC-001-002-----0
  6
CONTINUOUS
  5
6AF
 10
-60.744429
 20
162.521452
 30
0.0
 11
-60.744429
 21
120.948432
 31
0.0
  0
LINE
  8
LC-001-002-----0
  6
CONTINUOUS
  5
6B0
 10
-54.244429
 20
200.960963
 30
0.0
 11
-54.244429
 21
164.021452
 31
0.0
  0
LINE
  8
LC-001-002-----0
  6
CONTINUOUS
  5
6B1
 10
-60.744429
 20
200.960963
 30
0.0
 11
-60.744429
 21
164.021452
 31
0.0
  0
LINE
  8
LC-001-002-----0
  6
CONTINUOUS
  5
6B2
 10
-60.744429
 20
240.049798
 30
0.0
 11
-60.744429
 21
200.960963
 31
0.0
  0
LINE
  8
LC-001-002-----0
  6
CONTINUOUS
  5
6B3
 10
-54.244429
 20
200.969864
 30
0.0
 11
-54.244429
 21
242.019978
 31
0.0
  0
CIRCLE
  8
LC-001-002-----0
  6
CONTINUOUS
  5
6B4
 10
-57.494429
 20
239.791822
 30
0.0
 40
3.25
  0
LINE
  8
LC-007-005-----0
  6
CONTINUOUS
  5
6B5
 10
-59.544472
 20
254.705943
 30
0.0
 11
-61.739517
 21
256.900988
 31
0.0
  0
LINE
  8
LC-007-005-----0
  6
CONTINUOUS
  5
6B6
 10
-54.244472
 20
240.920662
 30
0.0
 11
-54.606615
 21
241.282805
 31
0.0
  0
LINE
  8
LC-007-005-----0
  6
CONTINUOUS
  5
6B7
 10
-59.544472
 20
246.220662
 30
0.0
 11
-63.994472
 21
250.670662
 31
0.0
  0
LINE
  8
LC-007-005-----0
  6
CONTINUOUS
  5
6B8
 10
-23.995179
 20
202.186088
 30
0.0
 11
-30.259966
 21
208.450875
 31
0.0
  0
LINE
  8
LC-007-005-----0
  6
CONTINUOUS
  5
6B9
 10
-31.245247
 20
200.950875
 30
0.0
 11
-38.745247
 21
208.450875
 31
0.0
  0
LINE
  8
LC-007-005-----0
  6
CONTINUOUS
  5
6BA
 10
-39.730529
 20
200.950875
 30
0.0
 11
-47.230529
 21
208.450875
 31
0.0
  0
LINE
  8
LC-007-005-----0
  6
CONTINUOUS
  5
6BB
 10
-48.21581
 20
200.950875
 30
0.0
 11
-54.244429
 21
206.979493
 31
0.0
  0
LINE
  8
LC-007-005-----0
  6
CONTINUOUS
  5
6BC
 10
-60.579876
 20
238.770784
 30
0.0
 11
-63.994472
 21
242.185381
 31
0.0
  0
LINE
  8
LC-007-005-----0
  6
CONTINUOUS
  5
6BD
 10
-56.003445
 20
242.679636
 30
0.0
 11
-56.324798
 21
243.000988
 31
0.0
  0
LINE
  8
LC-007-005-----0
  6
CONTINUOUS
  5
6BE
 10
-28.151722
 20
200.950875
 30
0.0
 11
-23.995179
 21
205.107418
 31
0.0
  0
LINE
  8
LC-007-005-----0
  6
CONTINUOUS
  5
6BF
 10
-36.637004
 20
200.950875
 30
0.0
 11
-29.137004
 21
208.450875
 31
0.0
  0
LINE
  8
LC-007-005-----0
  6
CONTINUOUS
  5
6C0
 10
-45.122285
 20
200.950875
 30
0.0
 11
-37.622285
 21
208.450875
 31
0.0
  0
LINE
  8
LC-007-005-----0
  6
CONTINUOUS
  5
6C1
 10
-53.607567
 20
200.950875
 30
0.0
 11
-46.107567
 21
208.450875
 31
0.0
  0
LINE
  8
LC-007-005-----0
  6
CONTINUOUS
  5
6C2
 10
-61.036339
 20
202.007384
 30
0.0
 11
-60.744429
 21
202.299294
 31
0.0
  0
LINE
  8
LC-007-005-----0
  6
CONTINUOUS
  5
6C3
 10
-61.495179
 20
210.033825
 30
0.0
 11
-60.744429
 21
210.784575
 31
0.0
  0
LINE
  8
LC-007-005-----0
  6
CONTINUOUS
  5
6C4
 10
-62.563411
 20
217.450875
 30
0.0
 11
-60.744429
 21
219.269857
 31
0.0
  0
LINE
  8
LC-007-005-----0
  6
CONTINUOUS
  5
6C5
 10
-63.994472
 20
224.505095
 30
0.0
 11
-60.744429
 21
227.755138
 31
0.0
  0
LINE
  8
LC-007-005-----0
  6
CONTINUOUS
  5
6C6
 10
-63.994472
 20
232.990376
 30
0.0
 11
-59.636878
 21
237.34797
 31
0.0
  0
LINE
  8
LC-007-005-----0
  6
CONTINUOUS
  5
6C7
 10
-63.994472
 20
241.475658
 30
0.0
 11
-59.544472
 21
245.925658
 31
0.0
  0
LINE
  8
LC-007-005-----0
  6
CONTINUOUS
  5
6C8
 10
-63.994472
 20
249.960939
 30
0.0
 11
-59.544472
 21
254.410939
 31
0.0
  0
LINE
  8
LC-007-005-----0
  6
CONTINUOUS
  5
6C9
 10
-55.050577
 20
241.934271
 30
0.0
 11
-54.419169
 21
242.565679
 31
0.0
  0
LINE
  8
LC-007-005-----0
  6
CONTINUOUS
  5
6CA
 10
-60.744429
 20
230.450056
 30
0.0
 11
-63.994472
 21
233.700099
 31
0.0
  0
LINE
  8
LC-007-005-----0
  6
CONTINUOUS
  5
6CB
 10
-60.744429
 20
221.964775
 30
0.0
 11
-63.994472
 21
225.214818
 31
0.0
  0
LINE
  8
LC-007-005-----0
  6
CONTINUOUS
  5
6CC
 10
-60.744429
 20
213.479493
 30
0.0
 11
-61.495179
 21
214.230243
 31
0.0
  0
LINE
  8
LC-007-005-----0
  6
CONTINUOUS
  5
6CD
 10
-60.744429
 20
204.994212
 30
0.0
 11
-61.495179
 21
205.744962
 31
0.0
  0
LINE
  8
LC-007-005-----0
  6
CONTINUOUS
  5
6CE
 10
-24.994868
 20
198.450875
 30
0.0
 11
-23.995179
 21
199.450564
 31
0.0
  0
LINE
  8
LC-007-005-----0
  6
CONTINUOUS
  5
6CF
 10
-27.823295
 20
198.450875
 30
0.0
 11
-25.323295
 21
200.950875
 31
0.0
  0
LINE
  8
LC-007-005-----0
  6
CONTINUOUS
  5
6D0
 10
-30.651722
 20
198.450875
 30
0.0
 11
-28.151722
 21
200.950875
 31
0.0
  0
LINE
  8
LC-007-005-----0
  6
CONTINUOUS
  5
6D1
 10
-33.48015
 20
198.450875
 30
0.0
 11
-30.98015
 21
200.950875
 31
0.0
  0
LINE
  8
LC-007-005-----0
  6
CONTINUOUS
  5
6D2
 10
-36.308577
 20
198.450875
 30
0.0
 11
-33.808577
 21
200.950875
 31
0.0
  0
LINE
  8
LC-007-005-----0
  6
CONTINUOUS
  5
6D3
 10
-39.137004
 20
198.450875
 30
0.0
 11
-36.637004
 21
200.950875
 31
0.0
  0
LINE
  8
LC-007-005-----0
  6
CONTINUOUS
  5
6D4
 10
-44.465431
 20
195.950875
 30
0.0
 11
-43.986482
 21
196.429823
 31
0.0
  0
LINE
  8
LC-007-005-----0
  6
CONTINUOUS
  5
6D5
 10
-41.965431
 20
198.450875
 30
0.0
 11
-39.465431
 21
200.950875
 31
0.0
  0
LINE
  8
LC-007-005-----0
  6
CONTINUOUS
  5
6D6
 10
-47.293858
 20
195.950875
 30
0.0
 11
-42.293858
 21
200.950875
 31
0.0
  0
LINE
  8
LC-007-005-----0
  6
CONTINUOUS
  5
6D7
 10
-50.122285
 20
195.950875
 30
0.0
 11
-45.122285
 21
200.950875
 31
0.0
  0
LINE
  8
LC-007-005-----0
  6
CONTINUOUS
  5
6D8
 10
-52.950712
 20
195.950875
 30
0.0
 11
-47.950712
 21
200.950875
 31
0.0
  0
LINE
  8
LC-007-005-----0
  6
CONTINUOUS
  5
6D9
 10
-53.987771
 20
197.742243
 30
0.0
 11
-50.779139
 21
200.950875
 31
0.0
  0
LINE
  8
LC-007-005-----0
  6
CONTINUOUS
  5
6DA
 10
-54.244429
 20
200.314013
 30
0.0
 11
-53.607567
 21
200.950875
 31
0.0
  0
LINE
  8
LC-007-005-----0
  6
CONTINUOUS
  5
6DB
 10
-61.395754
 20
198.819542
 30
0.0
 11
-60.744429
 21
199.470867
 31
0.0
  0
LINE
  8
LC-007-005-----0
  6
CONTINUOUS
  5
6DC
 10
-63.32187
 20
199.721852
 30
0.0
 11
-61.036339
 21
202.007384
 31
0.0
  0
LINE
  8
LC-007-005-----0
  6
CONTINUOUS
  5
6DD
 10
-64.861068
 20
201.011082
 30
0.0
 11
-61.495179
 21
204.376971
 31
0.0
  0
LINE
  8
LC-007-005-----0
  6
CONTINUOUS
  5
6DE
 10
-66.040191
 20
202.660386
 30
0.0
 11
-61.495179
 21
207.205398
 31
0.0
  0
LINE
  8
LC-007-005-----0
  6
CONTINUOUS
  5
6DF
 10
-66.80629
 20
204.722714
 30
0.0
 11
-61.495179
 21
210.033825
 31
0.0
  0
LINE
  8
LC-007-005-----0
  6
CONTINUOUS
  5
6E0
 10
-66.995179
 20
207.362252
 30
0.0
 11
-65.906556
 21
208.450875
 31
0.0
  0
LINE
  8
LC-007-005-----0
  6
CONTINUOUS
  5
6E1
 10
-63.995179
 20
210.362252
 30
0.0
 11
-61.495179
 21
212.862252
 31
0.0
  0
LINE
  8
LC-007-005-----0
  6
CONTINUOUS
  5
6E2
 10
-63.995179
 20
213.190679
 30
0.0
 11
-61.495179
 21
215.690679
 31
0.0
  0
LINE
  8
LC-007-005-----0
  6
CONTINUOUS
  5
6E3
 10
-63.995179
 20
216.019107
 30
0.0
 11
-62.563411
 21
217.450875
 31
0.0
  0
ENDSEC
  0
EOF
