  0
SECTION
  2
HEADER
  9
$ACADVER
  1
AC1015
  9
$ACADMAINTVER
 70
     6
  9
$DWGCODEPAGE
  3
DOS850
  9
$INSBASE
 10
0.0
 20
0.0
 30
0.0
  9
$EXTMIN
 10
-210.0
 20
0.0
 30
0.0
  9
$EXTMAX
 10
630.0
 20
594.0
 30
0.0
  9
$LIMMIN
 10
-210.0
 20
0.0
  9
$LIMMAX
 10
630.0
 20
594.0
  9
$ORTHOMODE
 70
     0
  9
$REGENMODE
 70
     1
  9
$FILLMODE
 70
     1
  9
$QTEXTMODE
 70
     0
  9
$MIRRTEXT
 70
     1
  9
$LTSCALE
 40
2.0
  9
$ATTMODE
 70
     1
  9
$TEXTSIZE
 40
2.5
  9
$TRACEWID
 40
1.0
  9
$TEXTSTYLE
  7
Standard
  9
$CLAYER
  8
0
  9
$CELTYPE
  6
ByLayer
  9
$CECOLOR
 62
     7
  9
$CELTSCALE
 40
1.0
  9
$DISPSILH
 70
     0
  9
$DIMSCALE
 40
2.0
  9
$DIMASZ
 40
3.5
  9
$DIMEXO
 40
0.625
  9
$DIMDLI
 40
3.75
  9
$DIMRND
 40
0.0
  9
$DIMDLE
 40
0.0
  9
$DIMEXE
 40
1.25
  9
$DIMTP
 40
0.0
  9
$DIMTM
 40
0.0
  9
$DIMTXT
 40
3.5
  9
$DIMCEN
 40
2.5
  9
$DIMTSZ
 40
0.0
  9
$DIMTOL
 70
     0
  9
$DIMLIM
 70
     0
  9
$DIMTIH
 70
     0
  9
$DIMTOH
 70
     0
  9
$DIMSE1
 70
     0
  9
$DIMSE2
 70
     0
  9
$DIMTAD
 70
     1
  9
$DIMZIN
 70
     8
  9
$DIMBLK
  1

  9
$DIMASO
 70
     1
  9
$DIMSHO
 70
     1
  9
$DIMPOST
  1

  9
$DIMAPOST
  1

  9
$DIMALT
 70
     0
  9
$DIMALTD
 70
     3
  9
$DIMALTF
 40
0.03937
  9
$DIMLFAC
 40
1.0
  9
$DIMTOFL
 70
     1
  9
$DIMTVP
 40
0.0
  9
$DIMTIX
 70
     0
  9
$DIMSOXD
 70
     0
  9
$DIMSAH
 70
     0
  9
$DIMBLK1
  1

  9
$DIMBLK2
  1

  9
$DIMSTYLE
  2
ISO-25
  9
$DIMCLRD
 70
     0
  9
$DIMCLRE
 70
     0
  9
$DIMCLRT
 70
     0
  9
$DIMTFAC
 40
1.0
  9
$DIMGAP
 40
0.625
  9
$DIMJUST
 70
     0
  9
$DIMSD1
 70
     0
  9
$DIMSD2
 70
     0
  9
$DIMTOLJ
 70
     0
  9
$DIMTZIN
 70
     8
  9
$DIMALTZ
 70
     0
  9
$DIMALTTZ
 70
     0
  9
$DIMUPT
 70
     0
  9
$DIMDEC
 70
     2
  9
$DIMTDEC
 70
     2
  9
$DIMALTU
 70
     2
  9
$DIMALTTD
 70
     3
  9
$DIMTXSTY
  7
Standard
  9
$DIMAUNIT
 70
     0
  9
$DIMADEC
 70
     0
  9
$DIMALTRND
 40
0.0
  9
$DIMAZIN
 70
     0
  9
$DIMDSEP
 70
    44
  9
$DIMATFIT
 70
     3
  9
$DIMFRAC
 70
     0
  9
$DIMLDRBLK
  1

  9
$DIMLUNIT
 70
     2
  9
$DIMLWD
 70
    -2
  9
$DIMLWE
 70
    -2
  9
$DIMTMOVE
 70
     0
  9
$LUNITS
 70
     2
  9
$LUPREC
 70
     4
  9
$SKETCHINC
 40
1.0
  9
$FILLETRAD
 40
10.0
  9
$AUNITS
 70
     0
  9
$AUPREC
 70
     0
  9
$MENU
  1
.
  9
$ELEVATION
 40
0.0
  9
$PELEVATION
 40
0.0
  9
$THICKNESS
 40
0.0
  9
$LIMCHECK
 70
     0
  9
$CHAMFERA
 40
10.0
  9
$CHAMFERB
 40
10.0
  9
$CHAMFERC
 40
20.0
  9
$CHAMFERD
 40
0.0
  9
$SKPOLY
 70
     0
  9
$TDCREATE
 40
2453663.394630741
  9
$TDUCREATE
 40
2453663.311297407
  9
$TDUPDATE
 40
2453663.394630753
  9
$TDUUPDATE
 40
2453663.311297419
  9
$TDINDWG
 40
0.0000000116
  9
$TDUSRTIMER
 40
0.0000000116
  9
$USRTIMER
 70
     1
  9
$ANGBASE
 50
0.0
  9
$ANGDIR
 70
     0
  9
$PDMODE
 70
     0
  9
$PDSIZE
 40
0.0
  9
$PLINEWID
 40
0.0
  9
$SPLFRAME
 70
     0
  9
$SPLINETYPE
 70
     6
  9
$SPLINESEGS
 70
     8
  9
$HANDSEED
  5
660
  9
$SURFTAB1
 70
     6
  9
$SURFTAB2
 70
     6
  9
$SURFTYPE
 70
     6
  9
$SURFU
 70
     6
  9
$SURFV
 70
     6
  9
$UCSBASE
  2

  9
$UCSNAME
  2

  9
$UCSORG
 10
0.0
 20
0.0
 30
0.0
  9
$UCSXDIR
 10
1.0
 20
0.0
 30
0.0
  9
$UCSYDIR
 10
0.0
 20
1.0
 30
0.0
  9
$UCSORTHOREF
  2

  9
$UCSORTHOVIEW
 70
     0
  9
$UCSORGTOP
 10
0.0
 20
0.0
 30
0.0
  9
$UCSORGBOTTOM
 10
0.0
 20
0.0
 30
0.0
  9
$UCSORGLEFT
 10
0.0
 20
0.0
 30
0.0
  9
$UCSORGRIGHT
 10
0.0
 20
0.0
 30
0.0
  9
$UCSORGFRONT
 10
0.0
 20
0.0
 30
0.0
  9
$UCSORGBACK
 10
0.0
 20
0.0
 30
0.0
  9
$PUCSBASE
  2

  9
$PUCSNAME
  2

  9
$PUCSORG
 10
0.0
 20
0.0
 30
0.0
  9
$PUCSXDIR
 10
1.0
 20
0.0
 30
0.0
  9
$PUCSYDIR
 10
0.0
 20
1.0
 30
0.0
  9
$PUCSORTHOREF
  2

  9
$PUCSORTHOVIEW
 70
     0
  9
$PUCSORGTOP
 10
0.0
 20
0.0
 30
0.0
  9
$PUCSORGBOTTOM
 10
0.0
 20
0.0
 30
0.0
  9
$PUCSORGLEFT
 10
0.0
 20
0.0
 30
0.0
  9
$PUCSORGRIGHT
 10
0.0
 20
0.0
 30
0.0
  9
$PUCSORGFRONT
 10
0.0
 20
0.0
 30
0.0
  9
$PUCSORGBACK
 10
0.0
 20
0.0
 30
0.0
  9
$USERI1
 70
     0
  9
$USERI2
 70
     0
  9
$USERI3
 70
     0
  9
$USERI4
 70
     0
  9
$USERI5
 70
     0
  9
$USERR1
 40
0.0
  9
$USERR2
 40
0.0
  9
$USERR3
 40
0.0
  9
$USERR4
 40
0.0
  9
$USERR5
 40
0.0
  9
$WORLDVIEW
 70
     1
  9
$SHADEDGE
 70
     3
  9
$SHADEDIF
 70
    70
  9
$TILEMODE
 70
     1
  9
$MAXACTVP
 70
    64
  9
$PINSBASE
 10
0.0
 20
0.0
 30
0.0
  9
$PLIMCHECK
 70
     0
  9
$PEXTMIN
 10
-210.0
 20
0.0
 30
0.0
  9
$PEXTMAX
 10
630.0
 20
594.0
 30
0.0
  9
$PLIMMIN
 10
-210.0
 20
0.0
  9
$PLIMMAX
 10
630.0
 20
594.0
  9
$UNITMODE
 70
     0
  9
$VISRETAIN
 70
     1
  9
$PLINEGEN
 70
     0
  9
$PSLTSCALE
 70
     1
  9
$TREEDEPTH
 70
  3020
  9
$CMLSTYLE
  2
Standard
  9
$CMLJUST
 70
     0
  9
$CMLSCALE
 40
20.0
  9
$PROXYGRAPHICS
 70
     1
  9
$MEASUREMENT
 70
     1
  9
$CELWEIGHT
370
    -1
  9
$ENDCAPS
280
     0
  9
$JOINSTYLE
280
     0
  9
$LWDISPLAY
290
     0
  9
$INSUNITS
 70
     4
  9
$HYPERLINKBASE
  1

  9
$STYLESHEET
  1

  9
$XEDIT
290
     1
  9
$CEPSNTYPE
380
     0
  9
$PSTYLEMODE
290
     1
  9
$FINGERPRINTGUID
  2
{FAEB1C30-E019-11D5-929B-00C0DF256EC4}
  9
$VERSIONGUID
  2
{FAEB1C32-E019-11D5-929B-00C0DF256EC4}
  9
$EXTNAMES
290
     1
  9
$PSVPSCALE
 40
0.0
  9
$OLESTARTUP
290
     0
  0
ENDSEC
  0
SECTION
  2
CLASSES
  0
CLASS
  1
ACDBDICTIONARYWDFLT
  2
AcDbDictionaryWithDefault
  3
ObjectDBX Classes
 90
        0
280
     0
281
     0
  0
CLASS
  1
ACDBPLACEHOLDER
  2
AcDbPlaceHolder
  3
ObjectDBX Classes
 90
        0
280
     0
281
     0
  0
CLASS
  1
LAYOUT
  2
AcDbLayout
  3
ObjectDBX Classes
 90
        0
280
     0
281
     0
  0
ENDSEC
  0
SECTION
  2
TABLES
  0
TABLE
  2
VPORT
  5
8
330
0
100
AcDbSymbolTable
 70
     2
  0
VPORT
  5
29
330
8
100
AcDbSymbolTableRecord
100
AcDbViewportTableRecord
  2
*ACTIVE
 70
     0
 10
0.0
 20
0.0
 11
1.0
 21
1.0
 12
210.0
 22
297.0
 13
0.0
 23
0.0
 14
1.0
 24
1.0
 15
0.0
 25
0.0
 16
0.0
 26
0.0
 36
1.0
 17
0.0
 27
0.0
 37
0.0
 40
594.0
 41
1.414141
 42
50.0
 43
0.0
 44
0.0
 50
0.0
 51
0.0
 71
    16
 72
   100
 73
     1
 74
     0
 75
     0
 76
     0
 77
     0
 78
     0
281
     0
 65
     0
110
0.0
120
0.0
130
0.0
111
1.0
121
0.0
131
0.0
112
0.0
122
1.0
132
0.0
 79
     0
146
0.0
  0
ENDTAB
  0
TABLE
  2
LTYPE
  5
5
330
0
100
AcDbSymbolTable
 70
     3
  0
LTYPE
  5
14
330
5
100
AcDbSymbolTableRecord
100
AcDbLinetypeTableRecord
  2
ByBlock
 70
     0
  3

 72
    65
 73
     0
 40
0.0
  0
LTYPE
  5
15
330
5
100
AcDbSymbolTableRecord
100
AcDbLinetypeTableRecord
  2
ByLayer
 70
     0
  3

 72
    65
 73
     0
 40
0.0
  0
LTYPE
  5
16
330
5
100
AcDbSymbolTableRecord
100
AcDbLinetypeTableRecord
  2
Continuous
 70
     0
  3
Solid line
 72
    65
 73
     0
 40
0.0
  0
LTYPE
  5
2A
330
5
100
AcDbSymbolTableRecord
100
AcDbLinetypeTableRecord
  2
DASHED
 70
     0
  3
__ __ __ __ __
 72
    65
 73
     2
 40
6.25
 49
5.0
 74
     4
 75
     0
340
0
 46
1.0
 50
0.0
 44
0.0
 45
0.0
 49
-1.25
 74
     4
 75
     0
340
0
 46
1.0
 50
0.0
 44
0.0
 45
0.0
  0
LTYPE
  5
34
330
5
100
AcDbSymbolTableRecord
100
AcDbLinetypeTableRecord
  2
CENTER
 70
     0
  3
__ . __ . __ . __ . __
 72
    65
 73
     4
 40
7.5
 49
5.0
 74
     4
 75
     0
340
0
 46
1.0
 50
0.0
 44
0.0
 45
0.0
 49
-1.25
 74
     4
 75
     0
340
0
 46
1.0
 50
0.0
 44
0.0
 45
0.0
 49
0.0
 74
     4
 75
     0
340
0
 46
1.0
 50
0.0
 44
0.0
 45
0.0
 49
-1.25
 74
     4
 75
     0
340
0
 46
1.0
 50
0.0
 44
0.0
 45
0.0
  0
ENDTAB
  0
TABLE
  2
LAYER
  5
2
330
0
100
AcDbSymbolTable
 70
    14
  0
LAYER
  5
10
330
2
100
AcDbSymbolTableRecord
100
AcDbLayerTableRecord
  2
0
 70
     0
 62
     7
  6
Continuous
370
    -3
390
F
  0
LAYER
  5
2B
330
2
100
AcDbSymbolTableRecord
100
AcDbLayerTableRecord
  2
LC-INFO-1-2-mm-A3-0
 70
     1
 62
     7
  6
ByBlock
370
    -3
390
F
  0
LAYER
  5
2C
330
2
100
AcDbSymbolTableRecord
100
AcDbLayerTableRecord
  2
LC-CUT-HIDDEN
 70
     0
 62
     7
  6
DASHED
370
    -3
390
F
  0
LAYER
  5
2D
330
2
100
AcDbSymbolTableRecord
100
AcDbLayerTableRecord
  2
LC-VIEWPORT
 70
     0
 62
     7
  6
ByBlock
370
    -3
390
F
  0
LAYER
  5
2E
330
2
100
AcDbSymbolTableRecord
100
AcDbLayerTableRecord
  2
LC-3D-HIDDEN
 70
     0
 62
     9
  6
DASHED
370
    -3
390
F
  0
LAYER
  5
31
330
2
100
AcDbSymbolTableRecord
100
AcDbLayerTableRecord
  2
LC-001-002-----0
 70
     0
 62
     1
  6
ByBlock
370
    -3
390
F
  0
LAYER
  5
35
330
2
100
AcDbSymbolTableRecord
100
AcDbLayerTableRecord
  2
LC-002-006-MLN-0
 70
     0
 62
     2
  6
CENTER
370
    -3
390
F
  0
LAYER
  5
40
330
2
100
AcDbSymbolTableRecord
100
AcDbLayerTableRecord
  2
LC-003-002-RND-0
 70
     0
 62
     1
  6
ByBlock
370
    -3
390
F
  0
LAYER
  5
5F
330
2
100
AcDbSymbolTableRecord
100
AcDbLayerTableRecord
  2
LC-004-001-RND-0
 70
     0
 62
     1
  6
ByBlock
370
    -3
390
F
  0
LAYER
  5
64
330
2
100
AcDbSymbolTableRecord
100
AcDbLayerTableRecord
  2
LC-005-001-----0
 70
     0
 62
     1
  6
ByBlock
370
    -3
390
F
  0
LAYER
  5
D0
330
2
100
AcDbSymbolTableRecord
100
AcDbLayerTableRecord
  2
LC-006-005-----0
 70
     0
 62
     2
  6
ByBlock
370
    -3
390
F
  0
LAYER
  5
256
330
2
100
AcDbSymbolTableRecord
100
AcDbLayerTableRecord
  2
LC-007-103-D00-1
 70
     0
 62
     1
  6
ByBlock
370
    -3
390
F
  0
LAYER
  5
277
330
2
100
AcDbSymbolTableRecord
100
AcDbLayerTableRecord
  2
LC-008-003-----0
 70
     0
 62
     2
  6
ByBlock
370
    -3
390
F
  0
LAYER
  5
279
330
2
100
AcDbSymbolTableRecord
100
AcDbLayerTableRecord
  2
Defpoints
 70
     0
 62
     7
  6
Continuous
290
     0
370
    -3
390
F
  0
ENDTAB
  0
TABLE
  2
STYLE
  5
3
330
0
100
AcDbSymbolTable
 70
     4
  0
STYLE
  5
11
330
3
100
AcDbSymbolTableRecord
100
AcDbTextStyleTableRecord
  2
Standard
 70
     0
 40
0.0
 41
1.0
 50
0.0
 71
     0
 42
2.5
  3
txt
  4

  0
STYLE
  5
2F
330
3
100
AcDbSymbolTableRecord
100
AcDbTextStyleTableRecord
  2
LCTX0-500-0-0-DIN-Schrift
 70
     0
 40
0.0
 41
0.8
 50
0.0
 71
     0
 42
3.5
  3
MONOTXT
  4

  0
STYLE
  5
30
330
3
100
AcDbSymbolTableRecord
100
AcDbTextStyleTableRecord
  2
LCTX15-400-0-0-Arial
 70
     0
 40
0.0
 41
0.8
 50
0.0
 71
     0
 42
3.5
  3

  4

1001
ACAD
1000
Arial
1071
 16777218
  0
STYLE
  5
275
330
3
100
AcDbSymbolTableRecord
100
AcDbTextStyleTableRecord
  2
LCTX15-400-0-0pDIN-Schrift
 70
     0
 40
2.5
 41
0.8
 50
15.0
 71
     0
 42
3.5
  3
STANDARD
  4

  0
ENDTAB
  0
TABLE
  2
VIEW
  5
6
330
0
100
AcDbSymbolTable
 70
     0
  0
ENDTAB
  0
TABLE
  2
UCS
  5
7
330
0
100
AcDbSymbolTable
 70
     0
  0
ENDTAB
  0
TABLE
  2
APPID
  5
9
330
0
100
AcDbSymbolTable
 70
     1
  0
APPID
  5
12
330
9
100
AcDbSymbolTableRecord
100
AcDbRegAppTableRecord
  2
ACAD
 70
     0
  0
ENDTAB
  0
TABLE
  2
DIMSTYLE
  5
A
330
0
100
AcDbSymbolTable
 70
     2
100
AcDbDimStyleTable
  0
DIMSTYLE
105
27
330
A
100
AcDbSymbolTableRecord
100
AcDbDimStyleTableRecord
  2
ISO-25
 70
     0
 41
2.5
 42
0.625
 43
3.75
 44
1.25
 73
     0
 74
     0
 77
     1
 78
     8
140
2.5
141
2.5
143
0.03937
147
0.625
171
     3
172
     1
271
     2
272
     2
274
     3
278
    44
283
     0
284
     8
340
11
  0
DIMSTYLE
105
276
102
{ACAD_REACTORS
330
278
330
286
330
2ED
330
2FA
330
307
330
314
330
321
330
652
102
}
330
A
100
AcDbSymbolTableRecord
100
AcDbDimStyleTableRecord
  2
LC-DIM-L-0140-02-02
 70
     0
 40
2.0
 41
14.0
 42
0.0
 43
7.5
 44
1.8
 73
     0
 74
     0
 77
     1
 78
     8
 79
     2
140
14.0
141
0.0
146
0.71
147
1.5
176
     2
177
     2
178
     2
179
     2
271
     2
278
    44
289
     1
340
275
  0
ENDTAB
  0
TABLE
  2
BLOCK_RECORD
  5
1
330
0
100
AcDbSymbolTable
 70
    37
  0
BLOCK_RECORD
  5
1F
330
1
100
AcDbSymbolTableRecord
100
AcDbBlockTableRecord
  2
*Model_Space
340
22
  0
BLOCK_RECORD
  5
1B
330
1
100
AcDbSymbolTableRecord
100
AcDbBlockTableRecord
  2
*Paper_Space
340
1E
  0
BLOCK_RECORD
  5
23
330
1
100
AcDbSymbolTableRecord
100
AcDbBlockTableRecord
  2
*Paper_Space0
340
26
  0
BLOCK_RECORD
  5
CD
330
1
100
AcDbSymbolTableRecord
100
AcDbBlockTableRecord
  2
*X11
340
0
102
{BLKREFS
331
14F
102
}
  0
BLOCK_RECORD
  5
150
330
1
100
AcDbSymbolTableRecord
100
AcDbBlockTableRecord
  2
*X22
340
0
102
{BLKREFS
331
1C5
102
}
  0
BLOCK_RECORD
  5
1EB
330
1
100
AcDbSymbolTableRecord
100
AcDbBlockTableRecord
  2
*X33
340
0
102
{BLKREFS
331
24E
102
}
  0
BLOCK_RECORD
  5
263
330
1
100
AcDbSymbolTableRecord
100
AcDbBlockTableRecord
  2
*X44
340
0
102
{BLKREFS
331
274
102
}
  0
BLOCK_RECORD
  5
27A
330
1
100
AcDbSymbolTableRecord
100
AcDbBlockTableRecord
  2
*D5
340
0
  0
BLOCK_RECORD
  5
287
330
1
100
AcDbSymbolTableRecord
100
AcDbBlockTableRecord
  2
*D6
340
0
  0
BLOCK_RECORD
  5
293
330
1
100
AcDbSymbolTableRecord
100
AcDbBlockTableRecord
  2
*X57
340
0
102
{BLKREFS
331
2BF
102
}
  0
BLOCK_RECORD
  5
2C0
330
1
100
AcDbSymbolTableRecord
100
AcDbBlockTableRecord
  2
*X68
340
0
102
{BLKREFS
331
2EC
102
}
  0
BLOCK_RECORD
  5
2EE
330
1
100
AcDbSymbolTableRecord
100
AcDbBlockTableRecord
  2
*D9
340
0
  0
BLOCK_RECORD
  5
2FB
330
1
100
AcDbSymbolTableRecord
100
AcDbBlockTableRecord
  2
*D10
340
0
  0
BLOCK_RECORD
  5
308
330
1
100
AcDbSymbolTableRecord
100
AcDbBlockTableRecord
  2
*D11
340
0
  0
BLOCK_RECORD
  5
315
330
1
100
AcDbSymbolTableRecord
100
AcDbBlockTableRecord
  2
*D12
340
0
  0
BLOCK_RECORD
  5
322
330
1
100
AcDbSymbolTableRecord
100
AcDbBlockTableRecord
  2
*D13
340
0
  0
BLOCK_RECORD
  5
33C
330
1
100
AcDbSymbolTableRecord
100
AcDbBlockTableRecord
  2
*X714
340
0
102
{BLKREFS
331
34D
102
}
  0
BLOCK_RECORD
  5
36F
330
1
100
AcDbSymbolTableRecord
100
AcDbBlockTableRecord
  2
*X815
340
0
102
{BLKREFS
331
38B
102
}
  0
BLOCK_RECORD
  5
38C
330
1
100
AcDbSymbolTableRecord
100
AcDbBlockTableRecord
  2
*X916
340
0
102
{BLKREFS
331
3A9
102
}
  0
BLOCK_RECORD
  5
3AA
330
1
100
AcDbSymbolTableRecord
100
AcDbBlockTableRecord
  2
*X1017
340
0
102
{BLKREFS
331
3C7
102
}
  0
BLOCK_RECORD
  5
3C8
330
1
100
AcDbSymbolTableRecord
100
AcDbBlockTableRecord
  2
*X1118
340
0
102
{BLKREFS
331
3E5
102
}
  0
BLOCK_RECORD
  5
3E6
330
1
100
AcDbSymbolTableRecord
100
AcDbBlockTableRecord
  2
*X1219
340
0
102
{BLKREFS
331
403
102
}
  0
BLOCK_RECORD
  5
404
330
1
100
AcDbSymbolTableRecord
100
AcDbBlockTableRecord
  2
*X1320
340
0
102
{BLKREFS
331
421
102
}
  0
BLOCK_RECORD
  5
430
330
1
100
AcDbSymbolTableRecord
100
AcDbBlockTableRecord
  2
*X1421
340
0
102
{BLKREFS
331
43D
102
}
  0
BLOCK_RECORD
  5
44A
330
1
100
AcDbSymbolTableRecord
100
AcDbBlockTableRecord
  2
*X1522
340
0
102
{BLKREFS
331
467
102
}
  0
BLOCK_RECORD
  5
46A
330
1
100
AcDbSymbolTableRecord
100
AcDbBlockTableRecord
  2
*X1623
340
0
102
{BLKREFS
331
487
102
}
  0
BLOCK_RECORD
  5
48A
330
1
100
AcDbSymbolTableRecord
100
AcDbBlockTableRecord
  2
*X1724
340
0
102
{BLKREFS
331
4AB
102
}
  0
BLOCK_RECORD
  5
4D7
330
1
100
AcDbSymbolTableRecord
100
AcDbBlockTableRecord
  2
*X1825
340
0
102
{BLKREFS
331
4E5
102
}
  0
BLOCK_RECORD
  5
507
330
1
100
AcDbSymbolTableRecord
100
AcDbBlockTableRecord
  2
*X1926
340
0
102
{BLKREFS
331
51B
102
}
  0
BLOCK_RECORD
  5
51C
330
1
100
AcDbSymbolTableRecord
100
AcDbBlockTableRecord
  2
*X2027
340
0
102
{BLKREFS
331
539
102
}
  0
BLOCK_RECORD
  5
53A
330
1
100
AcDbSymbolTableRecord
100
AcDbBlockTableRecord
  2
*X2128
340
0
102
{BLKREFS
331
557
102
}
  0
BLOCK_RECORD
  5
558
330
1
100
AcDbSymbolTableRecord
100
AcDbBlockTableRecord
  2
*X2229
340
0
102
{BLKREFS
331
575
102
}
  0
BLOCK_RECORD
  5
576
330
1
100
AcDbSymbolTableRecord
100
AcDbBlockTableRecord
  2
*X2330
340
0
102
{BLKREFS
331
593
102
}
  0
BLOCK_RECORD
  5
594
330
1
100
AcDbSymbolTableRecord
100
AcDbBlockTableRecord
  2
*X2431
340
0
102
{BLKREFS
331
5B1
102
}
  0
BLOCK_RECORD
  5
5C0
330
1
100
AcDbSymbolTableRecord
100
AcDbBlockTableRecord
  2
*X2532
340
0
102
{BLKREFS
331
5CD
102
}
  0
BLOCK_RECORD
  5
5DA
330
1
100
AcDbSymbolTableRecord
100
AcDbBlockTableRecord
  2
*X2633
340
0
102
{BLKREFS
331
5F7
102
}
  0
BLOCK_RECORD
  5
5FA
330
1
100
AcDbSymbolTableRecord
100
AcDbBlockTableRecord
  2
*X2734
340
0
102
{BLKREFS
331
616
102
}
  0
BLOCK_RECORD
  5
619
330
1
100
AcDbSymbolTableRecord
100
AcDbBlockTableRecord
  2
*X2835
340
0
102
{BLKREFS
331
632
102
}
  0
BLOCK_RECORD
  5
653
330
1
100
AcDbSymbolTableRecord
100
AcDbBlockTableRecord
  2
*D36
340
0
  0
ENDTAB
  0
ENDSEC
  0
SECTION
  2
BLOCKS
  0
BLOCK
  5
20
330
1F
100
AcDbEntity
  8
0
100
AcDbBlockBegin
  2
*Model_Space
 70
     0
 71
     0
 10
0.0
 20
0.0
 30
0.0
  3
*Model_Space
  1

  0
ENDBLK
  5
21
330
1F
100
AcDbEntity
  8
0
100
AcDbBlockEnd
  0
BLOCK
  5
1C
330
1B
100
AcDbEntity
 67
     1
  8
0
100
AcDbBlockBegin
  2
*Paper_Space
 70
     0
 71
     0
 10
0.0
 20
0.0
 30
0.0
  3
*Paper_Space
  1

  0
ENDBLK
  5
1D
330
1B
100
AcDbEntity
 67
     1
  8
0
100
AcDbBlockEnd
  0
BLOCK
  5
24
330
23
100
AcDbEntity
  8
0
100
AcDbBlockBegin
  2
*Paper_Space0
 70
     0
 71
     0
 10
0.0
 20
0.0
 30
0.0
  3
*Paper_Space0
  1

  0
ENDBLK
  5
25
330
23
100
AcDbEntity
  8
0
100
AcDbBlockEnd
  0
BLOCK
  5
CE
330
CD
100
AcDbEntity
  8
0
100
AcDbBlockBegin
  2
*X11
 70
     1
 71
     0
 10
0.0
 20
0.0
 30
0.0
  3
*X11
  1

  4
*X1
  0
LINE
  5
D1
330
CD
100
AcDbEntity
  8
LC-006-005-----0
 62
     7
370
    25
100
AcDbLine
 10
200.857964
 20
226.313808
 30
0.0
 11
201.49456
 21
226.950404
 31
0.0
  0
LINE
  5
D2
330
CD
100
AcDbEntity
  8
LC-006-005-----0
 62
     7
370
    25
100
AcDbLine
 10
199.135963
 20
227.420234
 30
0.0
 11
201.49456
 21
229.778831
 31
0.0
  0
LINE
  5
D3
330
CD
100
AcDbEntity
  8
LC-006-005-----0
 62
     7
370
    25
100
AcDbLine
 10
198.538246
 20
229.650944
 30
0.0
 11
201.49456
 21
232.607258
 31
0.0
  0
LINE
  5
D4
330
CD
100
AcDbEntity
  8
LC-006-005-----0
 62
     7
370
    25
100
AcDbLine
 10
198.49456
 20
232.435685
 30
0.0
 11
201.49456
 21
235.435685
 31
0.0
  0
LINE
  5
D5
330
CD
100
AcDbEntity
  8
LC-006-005-----0
 62
     7
370
    25
100
AcDbLine
 10
198.49456
 20
235.264112
 30
0.0
 11
201.49456
 21
238.264112
 31
0.0
  0
LINE
  5
D6
330
CD
100
AcDbEntity
  8
LC-006-005-----0
 62
     7
370
    25
100
AcDbLine
 10
198.49456
 20
238.09254
 30
0.0
 11
201.49456
 21
241.09254
 31
0.0
  0
LINE
  5
D7
330
CD
100
AcDbEntity
  8
LC-006-005-----0
 62
     7
370
    25
100
AcDbLine
 10
198.49456
 20
240.920967
 30
0.0
 11
201.49456
 21
243.920967
 31
0.0
  0
LINE
  5
D8
330
CD
100
AcDbEntity
  8
LC-006-005-----0
 62
     7
370
    25
100
AcDbLine
 10
198.49456
 20
243.749394
 30
0.0
 11
201.49456
 21
246.749394
 31
0.0
  0
LINE
  5
D9
330
CD
100
AcDbEntity
  8
LC-006-005-----0
 62
     7
370
    25
100
AcDbLine
 10
198.49456
 20
246.577821
 30
0.0
 11
201.49456
 21
249.577821
 31
0.0
  0
LINE
  5
DA
330
CD
100
AcDbEntity
  8
LC-006-005-----0
 62
     7
370
    25
100
AcDbLine
 10
198.49456
 20
249.406248
 30
0.0
 11
201.49456
 21
252.406248
 31
0.0
  0
LINE
  5
DB
330
CD
100
AcDbEntity
  8
LC-006-005-----0
 62
     7
370
    25
100
AcDbLine
 10
198.49456
 20
252.234675
 30
0.0
 11
201.49456
 21
255.234675
 31
0.0
  0
LINE
  5
DC
330
CD
100
AcDbEntity
  8
LC-006-005-----0
 62
     7
370
    25
100
AcDbLine
 10
198.49456
 20
255.063102
 30
0.0
 11
201.49456
 21
258.063102
 31
0.0
  0
LINE
  5
DD
330
CD
100
AcDbEntity
  8
LC-006-005-----0
 62
     7
370
    25
100
AcDbLine
 10
198.491948
 20
257.888918
 30
0.0
 11
201.027316
 21
260.424285
 31
0.0
  0
LINE
  5
DE
330
CD
100
AcDbEntity
  8
LC-006-005-----0
 62
     7
370
    25
100
AcDbLine
 10
196.591299
 20
258.816696
 30
0.0
 11
199.43878
 21
261.664177
 31
0.0
  0
LINE
  5
DF
330
CD
100
AcDbEntity
  8
LC-006-005-----0
 62
     7
370
    25
100
AcDbLine
 10
195.492219
 20
260.546043
 30
0.0
 11
197.143037
 21
262.196861
 31
0.0
  0
LINE
  5
E0
330
CD
100
AcDbEntity
  8
LC-006-005-----0
 62
     7
370
    25
100
AcDbLine
 10
190.934444
 20
258.816695
 30
0.0
 11
196.005385
 21
263.887636
 31
0.0
  0
LINE
  5
E1
330
CD
100
AcDbEntity
  8
LC-006-005-----0
 62
     7
370
    25
100
AcDbLine
 10
188.106016
 20
258.816695
 30
0.0
 11
191.526859
 21
262.237537
 31
0.0
  0
LINE
  5
E2
330
CD
100
AcDbEntity
  8
LC-006-005-----0
 62
     7
370
    25
100
AcDbLine
 10
192.573718
 20
263.284396
 30
0.0
 11
195.952267
 21
266.662945
 31
0.0
  0
LINE
  5
E3
330
CD
100
AcDbEntity
  8
LC-006-005-----0
 62
     7
370
    25
100
AcDbLine
 10
185.277588
 20
258.816694
 30
0.0
 11
188.277591
 21
261.816696
 31
0.0
  0
LINE
  5
E4
330
CD
100
AcDbEntity
  8
LC-006-005-----0
 62
     7
370
    25
100
AcDbLine
 10
192.99456
 20
266.533665
 30
0.0
 11
195.927797
 21
269.466903
 31
0.0
  0
LINE
  5
E5
330
CD
100
AcDbEntity
  8
LC-006-005-----0
 62
     7
370
    25
100
AcDbLine
 10
182.44916
 20
258.816693
 30
0.0
 11
185.449163
 21
261.816696
 31
0.0
  0
LINE
  5
E6
330
CD
100
AcDbEntity
  8
LC-006-005-----0
 62
     7
370
    25
100
AcDbLine
 10
192.99456
 20
269.362092
 30
0.0
 11
195.903328
 21
272.27086
 31
0.0
  0
LINE
  5
E7
330
CD
100
AcDbEntity
  8
LC-006-005-----0
 62
     7
370
    25
100
AcDbLine
 10
179.620732
 20
258.816692
 30
0.0
 11
182.620736
 21
261.816696
 31
0.0
  0
LINE
  5
E8
330
CD
100
AcDbEntity
  8
LC-006-005-----0
 62
     7
370
    25
100
AcDbLine
 10
192.99456
 20
272.190519
 30
0.0
 11
195.878858
 21
275.074817
 31
0.0
  0
LINE
  5
E9
330
CD
100
AcDbEntity
  8
LC-006-005-----0
 62
     7
370
    25
100
AcDbLine
 10
176.792304
 20
258.816691
 30
0.0
 11
179.792309
 21
261.816696
 31
0.0
  0
LINE
  5
EA
330
CD
100
AcDbEntity
  8
LC-006-005-----0
 62
     7
370
    25
100
AcDbLine
 10
192.99456
 20
275.018946
 30
0.0
 11
195.854388
 21
277.878775
 31
0.0
  0
LINE
  5
EB
330
CD
100
AcDbEntity
  8
LC-006-005-----0
 62
     7
370
    25
100
AcDbLine
 10
173.963947
 20
258.81676
 30
0.0
 11
176.963882
 21
261.816696
 31
0.0
  0
LINE
  5
EC
330
CD
100
AcDbEntity
  8
LC-006-005-----0
 62
     7
370
    25
100
AcDbLine
 10
192.99456
 20
277.847374
 30
0.0
 11
195.829918
 21
280.682732
 31
0.0
  0
LINE
  5
ED
330
CD
100
AcDbEntity
  8
LC-006-005-----0
 62
     7
370
    25
100
AcDbLine
 10
171.13552
 20
258.816761
 30
0.0
 11
174.135455
 21
261.816696
 31
0.0
  0
LINE
  5
EE
330
CD
100
AcDbEntity
  8
LC-006-005-----0
 62
     7
370
    25
100
AcDbLine
 10
192.99456
 20
280.675801
 30
0.0
 11
195.805449
 21
283.48669
 31
0.0
  0
LINE
  5
EF
330
CD
100
AcDbEntity
  8
LC-006-005-----0
 62
     7
370
    25
100
AcDbLine
 10
168.307093
 20
258.816761
 30
0.0
 11
171.307028
 21
261.816696
 31
0.0
  0
LINE
  5
F0
330
CD
100
AcDbEntity
  8
LC-006-005-----0
 62
     7
370
    25
100
AcDbLine
 10
192.99456
 20
283.504228
 30
0.0
 11
195.780979
 21
286.290647
 31
0.0
  0
LINE
  5
F1
330
CD
100
AcDbEntity
  8
LC-006-005-----0
 62
     7
370
    25
100
AcDbLine
 10
165.478667
 20
258.816762
 30
0.0
 11
168.478601
 21
261.816696
 31
0.0
  0
LINE
  5
F2
330
CD
100
AcDbEntity
  8
LC-006-005-----0
 62
     7
370
    25
100
AcDbLine
 10
192.99456
 20
286.332655
 30
0.0
 11
195.756509
 21
289.094604
 31
0.0
  0
LINE
  5
F3
330
CD
100
AcDbEntity
  8
LC-006-005-----0
 62
     7
370
    25
100
AcDbLine
 10
162.65024
 20
258.816763
 30
0.0
 11
165.650174
 21
261.816696
 31
0.0
  0
LINE
  5
F4
330
CD
100
AcDbEntity
  8
LC-006-005-----0
 62
     7
370
    25
100
AcDbLine
 10
192.99456
 20
289.161082
 30
0.0
 11
195.732039
 21
291.898562
 31
0.0
  0
LINE
  5
F5
330
CD
100
AcDbEntity
  8
LC-006-005-----0
 62
     7
370
    25
100
AcDbLine
 10
159.821814
 20
258.816763
 30
0.0
 11
162.821746
 21
261.816696
 31
0.0
  0
LINE
  5
F6
330
CD
100
AcDbEntity
  8
LC-006-005-----0
 62
     7
370
    25
100
AcDbLine
 10
192.99456
 20
291.989509
 30
0.0
 11
195.70757
 21
294.702519
 31
0.0
  0
LINE
  5
F7
330
CD
100
AcDbEntity
  8
LC-006-005-----0
 62
     7
370
    25
100
AcDbLine
 10
156.993316
 20
258.816693
 30
0.0
 11
157.49456
 21
259.317936
 31
0.0
  0
LINE
  5
F8
330
CD
100
AcDbEntity
  8
LC-006-005-----0
 62
     7
370
    25
100
AcDbLine
 10
158.445274
 20
260.268651
 30
0.0
 11
159.993319
 21
261.816696
 31
0.0
  0
LINE
  5
F9
330
CD
100
AcDbEntity
  8
LC-006-005-----0
 62
     7
370
    25
100
AcDbLine
 10
192.99456
 20
294.817936
 30
0.0
 11
195.6831
 21
297.506476
 31
0.0
  0
LINE
  5
FA
330
CD
100
AcDbEntity
  8
LC-006-005-----0
 62
     7
370
    25
100
AcDbLine
 10
154.192312
 20
258.844115
 30
0.0
 11
157.164892
 21
261.816696
 31
0.0
  0
LINE
  5
FB
330
CD
100
AcDbEntity
  8
LC-006-005-----0
 62
     7
370
    25
100
AcDbLine
 10
157.49456
 20
262.146363
 30
0.0
 11
157.847557
 21
262.499361
 31
0.0
  0
LINE
  5
FC
330
CD
100
AcDbEntity
  8
LC-006-005-----0
 62
     7
370
    25
100
AcDbLine
 10
192.99456
 20
297.646363
 30
0.0
 11
195.65863
 21
300.310434
 31
0.0
  0
LINE
  5
FD
330
CD
100
AcDbEntity
  8
LC-006-005-----0
 62
     7
370
    25
100
AcDbLine
 10
151.783687
 20
259.263918
 30
0.0
 11
154.358985
 21
261.839216
 31
0.0
  0
LINE
  5
FE
330
CD
100
AcDbEntity
  8
LC-006-005-----0
 62
     7
370
    25
100
AcDbLine
 10
192.99456
 20
300.474791
 30
0.0
 11
195.63416
 21
303.114391
 31
0.0
  0
LINE
  5
FF
330
CD
100
AcDbEntity
  8
LC-006-005-----0
 62
     7
370
    25
100
AcDbLine
 10
149.745614
 20
260.054272
 30
0.0
 11
152.015596
 21
262.324254
 31
0.0
  0
LINE
  5
100
330
CD
100
AcDbEntity
  8
LC-006-005-----0
 62
     7
370
    25
100
AcDbLine
 10
192.99456
 20
303.303218
 30
0.0
 11
195.609691
 21
305.918348
 31
0.0
  0
LINE
  5
101
330
CD
100
AcDbEntity
  8
LC-006-005-----0
 62
     7
370
    25
100
AcDbLine
 10
147.993273
 20
261.130358
 30
0.0
 11
150.116621
 21
263.253706
 31
0.0
  0
LINE
  5
102
330
CD
100
AcDbEntity
  8
LC-006-005-----0
 62
     7
370
    25
100
AcDbLine
 10
192.99456
 20
306.131645
 30
0.0
 11
195.585221
 21
308.722306
 31
0.0
  0
LINE
  5
103
330
CD
100
AcDbEntity
  8
LC-006-005-----0
 62
     7
370
    25
100
AcDbLine
 10
146.491696
 20
262.457208
 30
0.0
 11
148.559672
 21
264.525184
 31
0.0
  0
LINE
  5
104
330
CD
100
AcDbEntity
  8
LC-006-005-----0
 62
     7
370
    25
100
AcDbLine
 10
192.99456
 20
308.960072
 30
0.0
 11
195.560751
 21
311.526263
 31
0.0
  0
LINE
  5
105
330
CD
100
AcDbEntity
  8
LC-006-005-----0
 62
     7
370
    25
100
AcDbLine
 10
145.232815
 20
264.026754
 30
0.0
 11
147.321036
 21
266.114975
 31
0.0
  0
LINE
  5
106
330
CD
100
AcDbEntity
  8
LC-006-005-----0
 62
     7
370
    25
100
AcDbLine
 10
192.99456
 20
311.788499
 30
0.0
 11
195.536281
 21
314.33022
 31
0.0
  0
LINE
  5
107
330
CD
100
AcDbEntity
  8
LC-006-005-----0
 62
     7
370
    25
100
AcDbLine
 10
144.231232
 20
265.853599
 30
0.0
 11
146.430234
 21
268.052601
 31
0.0
  0
LINE
  5
108
330
CD
100
AcDbEntity
  8
LC-006-005-----0
 62
     7
370
    25
100
AcDbLine
 10
192.99456
 20
314.616926
 30
0.0
 11
195.511811
 21
317.134178
 31
0.0
  0
LINE
  5
109
330
CD
100
AcDbEntity
  8
LC-006-005-----0
 62
     7
370
    25
100
AcDbLine
 10
143.532154
 20
267.982948
 30
0.0
 11
146.002602
 21
270.453396
 31
0.0
  0
LINE
  5
10A
330
CD
100
AcDbEntity
  8
LC-006-005-----0
 62
     7
370
    25
100
AcDbLine
 10
192.99456
 20
317.445353
 30
0.0
 11
195.487342
 21
319.938135
 31
0.0
  0
LINE
  5
10B
330
CD
100
AcDbEntity
  8
LC-006-005-----0
 62
     7
370
    25
100
AcDbLine
 10
143.244638
 20
270.523859
 30
0.0
 11
145.995267
 21
273.274487
 31
0.0
  0
LINE
  5
10C
330
CD
100
AcDbEntity
  8
LC-006-005-----0
 62
     7
370
    25
100
AcDbLine
 10
192.99456
 20
320.27378
 30
0.0
 11
195.462872
 21
322.742093
 31
0.0
  0
LINE
  5
10D
330
CD
100
AcDbEntity
  8
LC-006-005-----0
 62
     7
370
    25
100
AcDbLine
 10
143.24456
 20
273.352208
 30
0.0
 11
145.995267
 21
276.102914
 31
0.0
  0
LINE
  5
10E
330
CD
100
AcDbEntity
  8
LC-006-005-----0
 62
     7
370
    25
100
AcDbLine
 10
192.99456
 20
323.102208
 30
0.0
 11
195.438402
 21
325.54605
 31
0.0
  0
LINE
  5
10F
330
CD
100
AcDbEntity
  8
LC-006-005-----0
 62
     7
370
    25
100
AcDbLine
 10
143.24456
 20
276.180635
 30
0.0
 11
145.995267
 21
278.931342
 31
0.0
  0
LINE
  5
110
330
CD
100
AcDbEntity
  8
LC-006-005-----0
 62
     7
370
    25
100
AcDbLine
 10
192.99456
 20
325.930635
 30
0.0
 11
195.413932
 21
328.350007
 31
0.0
  0
LINE
  5
111
330
CD
100
AcDbEntity
  8
LC-006-005-----0
 62
     7
370
    25
100
AcDbLine
 10
143.24456
 20
279.009062
 30
0.0
 11
145.995267
 21
281.759769
 31
0.0
  0
LINE
  5
112
330
CD
100
AcDbEntity
  8
LC-006-005-----0
 62
     7
370
    25
100
AcDbLine
 10
192.99456
 20
328.759062
 30
0.0
 11
195.389463
 21
331.153965
 31
0.0
  0
LINE
  5
113
330
CD
100
AcDbEntity
  8
LC-006-005-----0
 62
     7
370
    25
100
AcDbLine
 10
143.24456
 20
281.837489
 30
0.0
 11
145.995267
 21
284.588196
 31
0.0
  0
LINE
  5
114
330
CD
100
AcDbEntity
  8
LC-006-005-----0
 62
     7
370
    25
100
AcDbLine
 10
192.99456
 20
331.587489
 30
0.0
 11
195.364993
 21
333.957922
 31
0.0
  0
LINE
  5
115
330
CD
100
AcDbEntity
  8
LC-006-005-----0
 62
     7
370
    25
100
AcDbLine
 10
143.24456
 20
284.665916
 30
0.0
 11
145.995267
 21
287.416623
 31
0.0
  0
LINE
  5
116
330
CD
100
AcDbEntity
  8
LC-006-005-----0
 62
     7
370
    25
100
AcDbLine
 10
192.99456
 20
334.415916
 30
0.0
 11
195.39534
 21
336.816696
 31
0.0
  0
LINE
  5
117
330
CD
100
AcDbEntity
  8
LC-006-005-----0
 62
     7
370
    25
100
AcDbLine
 10
143.24456
 20
287.494343
 30
0.0
 11
145.995267
 21
290.24505
 31
0.0
  0
LINE
  5
118
330
CD
100
AcDbEntity
  8
LC-006-005-----0
 62
     7
370
    25
100
AcDbLine
 10
143.24456
 20
290.32277
 30
0.0
 11
145.995267
 21
293.073477
 31
0.0
  0
LINE
  5
119
330
CD
100
AcDbEntity
  8
LC-006-005-----0
 62
     7
370
    25
100
AcDbLine
 10
143.24456
 20
293.151197
 30
0.0
 11
145.995267
 21
295.901904
 31
0.0
  0
LINE
  5
11A
330
CD
100
AcDbEntity
  8
LC-006-005-----0
 62
     7
370
    25
100
AcDbLine
 10
143.24456
 20
295.979625
 30
0.0
 11
145.995267
 21
298.730331
 31
0.0
  0
LINE
  5
11B
330
CD
100
AcDbEntity
  8
LC-006-005-----0
 62
     7
370
    25
100
AcDbLine
 10
143.24456
 20
298.808052
 30
0.0
 11
145.995267
 21
301.558759
 31
0.0
  0
LINE
  5
11C
330
CD
100
AcDbEntity
  8
LC-006-005-----0
 62
     7
370
    25
100
AcDbLine
 10
143.24456
 20
301.636479
 30
0.0
 11
145.995267
 21
304.387186
 31
0.0
  0
LINE
  5
11D
330
CD
100
AcDbEntity
  8
LC-006-005-----0
 62
     7
370
    25
100
AcDbLine
 10
143.24456
 20
304.464906
 30
0.0
 11
145.995267
 21
307.215613
 31
0.0
  0
LINE
  5
11E
330
CD
100
AcDbEntity
  8
LC-006-005-----0
 62
     7
370
    25
100
AcDbLine
 10
143.24456
 20
307.293333
 30
0.0
 11
145.995267
 21
310.04404
 31
0.0
  0
LINE
  5
11F
330
CD
100
AcDbEntity
  8
LC-006-005-----0
 62
     7
370
    25
100
AcDbLine
 10
143.24456
 20
310.12176
 30
0.0
 11
145.995267
 21
312.872467
 31
0.0
  0
LINE
  5
120
330
CD
100
AcDbEntity
  8
LC-006-005-----0
 62
     7
370
    25
100
AcDbLine
 10
143.24456
 20
312.950187
 30
0.0
 11
145.995267
 21
315.700894
 31
0.0
  0
LINE
  5
121
330
CD
100
AcDbEntity
  8
LC-006-005-----0
 62
     7
370
    25
100
AcDbLine
 10
143.24456
 20
315.778614
 30
0.0
 11
145.995267
 21
318.529321
 31
0.0
  0
LINE
  5
122
330
CD
100
AcDbEntity
  8
LC-006-005-----0
 62
     7
370
    25
100
AcDbLine
 10
143.24456
 20
318.607042
 30
0.0
 11
145.995267
 21
321.357748
 31
0.0
  0
LINE
  5
123
330
CD
100
AcDbEntity
  8
LC-006-005-----0
 62
     7
370
    25
100
AcDbLine
 10
143.24456
 20
321.435469
 30
0.0
 11
145.995267
 21
324.186176
 31
0.0
  0
LINE
  5
124
330
CD
100
AcDbEntity
  8
LC-006-005-----0
 62
     7
370
    25
100
AcDbLine
 10
143.24456
 20
324.263896
 30
0.0
 11
145.995267
 21
327.014603
 31
0.0
  0
LINE
  5
125
330
CD
100
AcDbEntity
  8
LC-006-005-----0
 62
     7
370
    25
100
AcDbLine
 10
143.24456
 20
327.092323
 30
0.0
 11
145.995267
 21
329.84303
 31
0.0
  0
LINE
  5
126
330
CD
100
AcDbEntity
  8
LC-006-005-----0
 62
     7
370
    25
100
AcDbLine
 10
143.24456
 20
329.92075
 30
0.0
 11
145.995267
 21
332.671457
 31
0.0
  0
LINE
  5
127
330
CD
100
AcDbEntity
  8
LC-006-005-----0
 62
     7
370
    25
100
AcDbLine
 10
143.24456
 20
332.749177
 30
0.0
 11
145.995267
 21
335.499884
 31
0.0
  0
LINE
  5
128
330
CD
100
AcDbEntity
  8
LC-006-005-----0
 62
     7
370
    25
100
AcDbLine
 10
142.288989
 20
334.622033
 30
0.0
 11
145.445267
 21
337.778311
 31
0.0
  0
LINE
  5
129
330
CD
100
AcDbEntity
  8
LC-006-005-----0
 62
     7
370
    25
100
AcDbLine
 10
141.124139
 20
336.285611
 30
0.0
 11
145.946389
 21
341.107861
 31
0.0
  0
LINE
  5
12A
330
CD
100
AcDbEntity
  8
LC-006-005-----0
 62
     7
370
    25
100
AcDbLine
 10
139.95929
 20
337.949188
 30
0.0
 11
146.314745
 21
344.304644
 31
0.0
  0
LINE
  5
12B
330
CD
100
AcDbEntity
  8
LC-006-005-----0
 62
     7
370
    25
100
AcDbLine
 10
138.79444
 20
339.612766
 30
0.0
 11
144.648364
 21
345.46669
 31
0.0
  0
LINE
  5
12C
330
CD
100
AcDbEntity
  8
LC-006-005-----0
 62
     7
370
    25
100
AcDbLine
 10
137.629591
 20
341.276344
 30
0.0
 11
141.819943
 21
345.466696
 31
0.0
  0
LINE
  5
12D
330
CD
100
AcDbEntity
  8
LC-006-005-----0
 62
     7
370
    25
100
AcDbLine
 10
136.464741
 20
342.939921
 30
0.0
 11
138.991516
 21
345.466696
 31
0.0
  0
LINE
  5
12E
330
CD
100
AcDbEntity
  8
LC-006-005-----0
 62
     7
370
    25
100
AcDbLine
 10
135.299891
 20
344.603499
 30
0.0
 11
136.746649
 21
346.050256
 31
0.0
  0
LINE
  5
12F
330
CD
100
AcDbEntity
  8
LC-006-005-----0
 62
     7
370
    25
100
AcDbLine
 10
134.135042
 20
346.267076
 30
0.0
 11
136.746649
 21
348.878683
 31
0.0
  0
LINE
  5
130
330
CD
100
AcDbEntity
  8
LC-006-005-----0
 62
     7
370
    25
100
AcDbLine
 10
133.995267
 20
348.955728
 30
0.0
 11
136.746649
 21
351.70711
 31
0.0
  0
LINE
  5
131
330
CD
100
AcDbEntity
  8
LC-006-005-----0
 62
     7
370
    25
100
AcDbLine
 10
133.995267
 20
351.784155
 30
0.0
 11
136.746649
 21
354.535537
 31
0.0
  0
LINE
  5
132
330
CD
100
AcDbEntity
  8
LC-006-005-----0
 62
     7
370
    25
100
AcDbLine
 10
133.334655
 20
353.95197
 30
0.0
 11
136.746649
 21
357.363964
 31
0.0
  0
LINE
  5
133
330
CD
100
AcDbEntity
  8
LC-006-005-----0
 62
     7
370
    25
100
AcDbLine
 10
131.088064
 20
354.533806
 30
0.0
 11
133.520953
 21
356.966696
 31
0.0
  0
LINE
  5
134
330
CD
100
AcDbEntity
  8
LC-006-005-----0
 62
     7
370
    25
100
AcDbLine
 10
134.745267
 20
358.19101
 30
0.0
 11
136.746649
 21
360.192391
 31
0.0
  0
LINE
  5
135
330
CD
100
AcDbEntity
  8
LC-006-005-----0
 62
     7
370
    25
100
AcDbLine
 10
129.350874
 20
355.625044
 30
0.0
 11
131.692842
 21
357.967012
 31
0.0
  0
LINE
  5
136
330
CD
100
AcDbEntity
  8
LC-006-005-----0
 62
     7
370
    25
100
AcDbLine
 10
134.745267
 20
361.019437
 30
0.0
 11
136.696093
 21
362.970263
 31
0.0
  0
LINE
  5
137
330
CD
100
AcDbEntity
  8
LC-006-005-----0
 62
     7
370
    25
100
AcDbLine
 10
128.697474
 20
357.800071
 30
0.0
 11
131.551992
 21
360.65459
 31
0.0
  0
LINE
  5
138
330
CD
100
AcDbEntity
  8
LC-006-005-----0
 62
     7
370
    25
100
AcDbLine
 10
128.556624
 20
360.487649
 30
0.0
 11
131.411142
 21
363.342167
 31
0.0
  0
LINE
  5
139
330
CD
100
AcDbEntity
  8
LC-006-005-----0
 62
     7
370
    25
100
AcDbLine
 10
128.100033
 20
362.859485
 30
0.0
 11
131.270293
 21
366.029744
 31
0.0
  0
LINE
  5
13A
330
CD
100
AcDbEntity
  8
LC-006-005-----0
 62
     7
370
    25
100
AcDbLine
 10
125.853439
 20
363.441317
 30
0.0
 11
128.664216
 21
366.252094
 31
0.0
  0
LINE
  5
13B
330
CD
100
AcDbEntity
  8
LC-006-005-----0
 62
     7
370
    25
100
AcDbLine
 10
123.209868
 20
363.626173
 30
0.0
 11
126.020645
 21
366.436951
 31
0.0
  0
LINE
  5
13C
330
CD
100
AcDbEntity
  8
LC-006-005-----0
 62
     7
370
    25
100
AcDbLine
 10
120.566297
 20
363.81103
 30
0.0
 11
123.377074
 21
366.621807
 31
0.0
  0
LINE
  5
13D
330
CD
100
AcDbEntity
  8
LC-006-005-----0
 62
     7
370
    25
100
AcDbLine
 10
117.922726
 20
363.995886
 30
0.0
 11
120.733503
 21
366.806663
 31
0.0
  0
LINE
  5
13E
330
CD
100
AcDbEntity
  8
LC-006-005-----0
 62
     7
370
    25
100
AcDbLine
 10
115.279155
 20
364.180742
 30
0.0
 11
118.089933
 21
366.99152
 31
0.0
  0
LINE
  5
13F
330
CD
100
AcDbEntity
  8
LC-006-005-----0
 62
     7
370
    25
100
AcDbLine
 10
113.272299
 20
365.002313
 30
0.0
 11
115.48843
 21
367.218444
 31
0.0
  0
LINE
  5
140
330
CD
100
AcDbEntity
  8
LC-006-005-----0
 62
     7
370
    25
100
AcDbLine
 10
111.43314
 20
365.991581
 30
0.0
 11
113.898855
 21
368.457296
 31
0.0
  0
LINE
  5
141
330
CD
100
AcDbEntity
  8
LC-006-005-----0
 62
     7
370
    25
100
AcDbLine
 10
108.653236
 20
366.040104
 30
0.0
 11
111.602218
 21
368.989087
 31
0.0
  0
LINE
  5
142
330
CD
100
AcDbEntity
  8
LC-006-005-----0
 62
     7
370
    25
100
AcDbLine
 10
105.873332
 20
366.088628
 30
0.0
 11
108.822314
 21
369.03761
 31
0.0
  0
LINE
  5
143
330
CD
100
AcDbEntity
  8
LC-006-005-----0
 62
     7
370
    25
100
AcDbLine
 10
103.093428
 20
366.137151
 30
0.0
 11
106.042411
 21
369.086133
 31
0.0
  0
LINE
  5
144
330
CD
100
AcDbEntity
  8
LC-006-005-----0
 62
     7
370
    25
100
AcDbLine
 10
100.313525
 20
366.185674
 30
0.0
 11
103.262507
 21
369.134657
 31
0.0
  0
LINE
  5
145
330
CD
100
AcDbEntity
  8
LC-006-005-----0
 62
     7
370
    25
100
AcDbLine
 10
97.533621
 20
366.234198
 30
0.0
 11
100.482603
 21
369.18318
 31
0.0
  0
LINE
  5
146
330
CD
100
AcDbEntity
  8
LC-006-005-----0
 62
     7
370
    25
100
AcDbLine
 10
94.753717
 20
366.282721
 30
0.0
 11
97.7027
 21
369.231704
 31
0.0
  0
LINE
  5
147
330
CD
100
AcDbEntity
  8
LC-006-005-----0
 62
     7
370
    25
100
AcDbLine
 10
91.973814
 20
366.331245
 30
0.0
 11
94.922796
 21
369.280227
 31
0.0
  0
LINE
  5
148
330
CD
100
AcDbEntity
  8
LC-006-005-----0
 62
     7
370
    25
100
AcDbLine
 10
89.19391
 20
366.379768
 30
0.0
 11
92.142892
 21
369.32875
 31
0.0
  0
LINE
  5
149
330
CD
100
AcDbEntity
  8
LC-006-005-----0
 62
     7
370
    25
100
AcDbLine
 10
86.414006
 20
366.428291
 30
0.0
 11
89.362988
 21
369.377274
 31
0.0
  0
LINE
  5
14A
330
CD
100
AcDbEntity
  8
LC-006-005-----0
 62
     7
370
    25
100
AcDbLine
 10
83.634102
 20
366.476815
 30
0.0
 11
86.583085
 21
369.425797
 31
0.0
  0
LINE
  5
14B
330
CD
100
AcDbEntity
  8
LC-006-005-----0
 62
     7
370
    25
100
AcDbLine
 10
80.854199
 20
366.525338
 30
0.0
 11
83.803181
 21
369.474321
 31
0.0
  0
LINE
  5
14C
330
CD
100
AcDbEntity
  8
LC-006-005-----0
 62
     7
370
    25
100
AcDbLine
 10
78.074295
 20
366.573862
 30
0.0
 11
81.023277
 21
369.522844
 31
0.0
  0
LINE
  5
14D
330
CD
100
AcDbEntity
  8
LC-006-005-----0
 62
     7
370
    25
100
AcDbLine
 10
75.294391
 20
366.622385
 30
0.0
 11
78.243373
 21
369.571367
 31
0.0
  0
LINE
  5
14E
330
CD
100
AcDbEntity
  8
LC-006-005-----0
 62
     7
370
    25
100
AcDbLine
 10
72.742817
 20
366.899238
 30
0.0
 11
75.46347
 21
369.619891
 31
0.0
  0
ENDBLK
  5
CF
330
CD
100
AcDbEntity
  8
0
100
AcDbBlockEnd
  0
BLOCK
  5
151
330
150
100
AcDbEntity
  8
0
100
AcDbBlockBegin
  2
*X22
 70
     1
 71
     0
 10
0.0
 20
0.0
 30
0.0
  3
*X22
  1

  4
*X2
  0
LINE
  5
153
330
150
100
AcDbEntity
  8
LC-006-005-----0
 62
     7
370
    25
100
AcDbLine
 10
296.473571
 20
259.704019
 30
0.0
 11
302.857384
 21
266.087832
 31
0.0
  0
LINE
  5
154
330
150
100
AcDbEntity
  8
LC-006-005-----0
 62
     7
370
    25
100
AcDbLine
 10
292.784556
 20
258.84343
 30
0.0
 11
303.717973
 21
269.776847
 31
0.0
  0
LINE
  5
155
330
150
100
AcDbEntity
  8
LC-006-005-----0
 62
     7
370
    25
100
AcDbLine
 10
289.929542
 20
258.816844
 30
0.0
 11
292.984029
 21
261.871331
 31
0.0
  0
LINE
  5
156
330
150
100
AcDbEntity
  8
LC-006-005-----0
 62
     7
370
    25
100
AcDbLine
 10
300.939218
 20
269.826519
 30
0.0
 11
303.74456
 21
272.631861
 31
0.0
  0
LINE
  5
157
330
150
100
AcDbEntity
  8
LC-006-005-----0
 62
     7
370
    25
100
AcDbLine
 10
287.101116
 20
258.816845
 30
0.0
 11
290.100967
 21
261.816696
 31
0.0
  0
LINE
  5
158
330
150
100
AcDbEntity
  8
LC-006-005-----0
 62
     7
370
    25
100
AcDbLine
 10
300.993853
 20
272.709582
 30
0.0
 11
303.74456
 21
275.460289
 31
0.0
  0
LINE
  5
159
330
150
100
AcDbEntity
  8
LC-006-005-----0
 62
     7
370
    25
100
AcDbLine
 10
284.27269
 20
258.816846
 30
0.0
 11
287.27254
 21
261.816696
 31
0.0
  0
LINE
  5
15A
330
150
100
AcDbEntity
  8
LC-006-005-----0
 62
     7
370
    25
100
AcDbLine
 10
300.993853
 20
275.538009
 30
0.0
 11
303.74456
 21
278.288716
 31
0.0
  0
LINE
  5
15B
330
150
100
AcDbEntity
  8
LC-006-005-----0
 62
     7
370
    25
100
AcDbLine
 10
281.444264
 20
258.816847
 30
0.0
 11
284.444113
 21
261.816696
 31
0.0
  0
LINE
  5
15C
330
150
100
AcDbEntity
  8
LC-006-005-----0
 62
     7
370
    25
100
AcDbLine
 10
300.993853
 20
278.366436
 30
0.0
 11
303.74456
 21
281.117143
 31
0.0
  0
LINE
  5
15D
330
150
100
AcDbEntity
  8
LC-006-005-----0
 62
     7
370
    25
100
AcDbLine
 10
246.112975
 20
226.313985
 30
0.0
 11
248.085192
 21
228.286202
 31
0.0
  0
LINE
  5
15E
330
150
100
AcDbEntity
  8
LC-006-005-----0
 62
     7
370
    25
100
AcDbLine
 10
278.615838
 20
258.816848
 30
0.0
 11
281.615686
 21
261.816696
 31
0.0
  0
LINE
  5
15F
330
150
100
AcDbEntity
  8
LC-006-005-----0
 62
     7
370
    25
100
AcDbLine
 10
300.993853
 20
281.194863
 30
0.0
 11
303.74456
 21
283.94557
 31
0.0
  0
LINE
  5
160
330
150
100
AcDbEntity
  8
LC-006-005-----0
 62
     7
370
    25
100
AcDbLine
 10
245.494687
 20
228.524124
 30
0.0
 11
248.49456
 21
231.523997
 31
0.0
  0
LINE
  5
161
330
150
100
AcDbEntity
  8
LC-006-005-----0
 62
     7
370
    25
100
AcDbLine
 10
275.787412
 20
258.816849
 30
0.0
 11
278.787259
 21
261.816696
 31
0.0
  0
LINE
  5
162
330
150
100
AcDbEntity
  8
LC-006-005-----0
 62
     7
370
    25
100
AcDbLine
 10
300.993853
 20
284.02329
 30
0.0
 11
303.74456
 21
286.773997
 31
0.0
  0
LINE
  5
163
330
150
100
AcDbEntity
  8
LC-006-005-----0
 62
     7
370
    25
100
AcDbLine
 10
245.494691
 20
231.352556
 30
0.0
 11
248.49456
 21
234.352424
 31
0.0
  0
LINE
  5
164
330
150
100
AcDbEntity
  8
LC-006-005-----0
 62
     7
370
    25
100
AcDbLine
 10
272.958986
 20
258.81685
 30
0.0
 11
275.958831
 21
261.816696
 31
0.0
  0
LINE
  5
165
330
150
100
AcDbEntity
  8
LC-006-005-----0
 62
     7
370
    25
100
AcDbLine
 10
300.993853
 20
286.851717
 30
0.0
 11
303.74456
 21
289.602424
 31
0.0
  0
LINE
  5
166
330
150
100
AcDbEntity
  8
LC-006-005-----0
 62
     7
370
    25
100
AcDbLine
 10
245.494695
 20
234.180987
 30
0.0
 11
248.49456
 21
237.180851
 31
0.0
  0
LINE
  5
167
330
150
100
AcDbEntity
  8
LC-006-005-----0
 62
     7
370
    25
100
AcDbLine
 10
270.13056
 20
258.816851
 30
0.0
 11
273.130404
 21
261.816696
 31
0.0
  0
LINE
  5
168
330
150
100
AcDbEntity
  8
LC-006-005-----0
 62
     7
370
    25
100
AcDbLine
 10
300.993853
 20
289.680144
 30
0.0
 11
303.74456
 21
292.430851
 31
0.0
  0
LINE
  5
169
330
150
100
AcDbEntity
  8
LC-006-005-----0
 62
     7
370
    25
100
AcDbLine
 10
245.494699
 20
237.009418
 30
0.0
 11
248.49456
 21
240.009278
 31
0.0
  0
LINE
  5
16A
330
150
100
AcDbEntity
  8
LC-006-005-----0
 62
     7
370
    25
100
AcDbLine
 10
267.302134
 20
258.816852
 30
0.0
 11
270.301977
 21
261.816696
 31
0.0
  0
LINE
  5
16B
330
150
100
AcDbEntity
  8
LC-006-005-----0
 62
     7
370
    25
100
AcDbLine
 10
300.993853
 20
292.508572
 30
0.0
 11
303.74456
 21
295.259278
 31
0.0
  0
LINE
  5
16C
330
150
100
AcDbEntity
  8
LC-006-005-----0
 62
     7
370
    25
100
AcDbLine
 10
245.494703
 20
239.837849
 30
0.0
 11
248.49456
 21
242.837706
 31
0.0
  0
LINE
  5
16D
330
150
100
AcDbEntity
  8
LC-006-005-----0
 62
     7
370
    25
100
AcDbLine
 10
264.473708
 20
258.816854
 30
0.0
 11
267.47355
 21
261.816696
 31
0.0
  0
LINE
  5
16E
330
150
100
AcDbEntity
  8
LC-006-005-----0
 62
     7
370
    25
100
AcDbLine
 10
300.993853
 20
295.336999
 30
0.0
 11
303.74456
 21
298.087706
 31
0.0
  0
LINE
  5
16F
330
150
100
AcDbEntity
  8
LC-006-005-----0
 62
     7
370
    25
100
AcDbLine
 10
372.289486
 20
366.632632
 30
0.0
 11
374.254017
 21
368.597163
 31
0.0
  0
LINE
  5
170
330
150
100
AcDbEntity
  8
LC-006-005-----0
 62
     7
370
    25
100
AcDbLine
 10
245.494707
 20
242.66628
 30
0.0
 11
248.49456
 21
245.666133
 31
0.0
  0
LINE
  5
171
330
150
100
AcDbEntity
  8
LC-006-005-----0
 62
     7
370
    25
100
AcDbLine
 10
261.645282
 20
258.816855
 30
0.0
 11
264.645123
 21
261.816696
 31
0.0
  0
LINE
  5
172
330
150
100
AcDbEntity
  8
LC-006-005-----0
 62
     7
370
    25
100
AcDbLine
 10
300.993853
 20
298.165426
 30
0.0
 11
303.74456
 21
300.916133
 31
0.0
  0
LINE
  5
173
330
150
100
AcDbEntity
  8
LC-006-005-----0
 62
     7
370
    25
100
AcDbLine
 10
369.410812
 20
366.582384
 30
0.0
 11
372.464572
 21
369.636145
 31
0.0
  0
LINE
  5
174
330
150
100
AcDbEntity
  8
LC-006-005-----0
 62
     7
370
    25
100
AcDbLine
 10
245.49471
 20
245.49471
 30
0.0
 11
248.49456
 21
248.49456
 31
0.0
  0
LINE
  5
175
330
150
100
AcDbEntity
  8
LC-006-005-----0
 62
     7
370
    25
100
AcDbLine
 10
258.816698
 20
258.816698
 30
0.0
 11
259.458779
 21
259.458779
 31
0.0
  0
LINE
  5
176
330
150
100
AcDbEntity
  8
LC-006-005-----0
 62
     7
370
    25
100
AcDbLine
 10
259.99456
 20
259.99456
 30
0.0
 11
261.816696
 21
261.816696
 31
0.0
  0
LINE
  5
177
330
150
100
AcDbEntity
  8
LC-006-005-----0
 62
     7
370
    25
100
AcDbLine
 10
300.993853
 20
300.993853
 30
0.0
 11
303.74456
 21
303.74456
 31
0.0
  0
LINE
  5
178
330
150
100
AcDbEntity
  8
LC-006-005-----0
 62
     7
370
    25
100
AcDbLine
 10
366.532137
 20
366.532137
 30
0.0
 11
369.585898
 21
369.585898
 31
0.0
  0
LINE
  5
179
330
150
100
AcDbEntity
  8
LC-006-005-----0
 62
     7
370
    25
100
AcDbLine
 10
245.494712
 20
248.323139
 30
0.0
 11
248.49456
 21
251.322987
 31
0.0
  0
LINE
  5
17A
330
150
100
AcDbEntity
  8
LC-006-005-----0
 62
     7
370
    25
100
AcDbLine
 10
255.988434
 20
258.816861
 30
0.0
 11
258.988269
 21
261.816696
 31
0.0
  0
LINE
  5
17B
330
150
100
AcDbEntity
  8
LC-006-005-----0
 62
     7
370
    25
100
AcDbLine
 10
259.855263
 20
262.68369
 30
0.0
 11
259.99456
 21
262.822987
 31
0.0
  0
LINE
  5
17C
330
150
100
AcDbEntity
  8
LC-006-005-----0
 62
     7
370
    25
100
AcDbLine
 10
300.993853
 20
303.82228
 30
0.0
 11
303.74456
 21
306.572987
 31
0.0
  0
LINE
  5
17D
330
150
100
AcDbEntity
  8
LC-006-005-----0
 62
     7
370
    25
100
AcDbLine
 10
363.653462
 20
366.48189
 30
0.0
 11
366.707223
 21
369.53565
 31
0.0
  0
LINE
  5
17E
330
150
100
AcDbEntity
  8
LC-006-005-----0
 62
     7
370
    25
100
AcDbLine
 10
245.494714
 20
251.151568
 30
0.0
 11
248.49456
 21
254.151414
 31
0.0
  0
LINE
  5
17F
330
150
100
AcDbEntity
  8
LC-006-005-----0
 62
     7
370
    25
100
AcDbLine
 10
254.023424
 20
259.680278
 30
0.0
 11
256.252951
 21
261.909805
 31
0.0
  0
LINE
  5
180
330
150
100
AcDbEntity
  8
LC-006-005-----0
 62
     7
370
    25
100
AcDbLine
 10
300.993853
 20
306.650707
 30
0.0
 11
303.74456
 21
309.401414
 31
0.0
  0
LINE
  5
181
330
150
100
AcDbEntity
  8
LC-006-005-----0
 62
     7
370
    25
100
AcDbLine
 10
360.774788
 20
366.431642
 30
0.0
 11
363.828548
 21
369.485403
 31
0.0
  0
LINE
  5
182
330
150
100
AcDbEntity
  8
LC-006-005-----0
 62
     7
370
    25
100
AcDbLine
 10
245.494715
 20
253.979997
 30
0.0
 11
248.49456
 21
256.979841
 31
0.0
  0
LINE
  5
183
330
150
100
AcDbEntity
  8
LC-006-005-----0
 62
     7
370
    25
100
AcDbLine
 10
250.331589
 20
258.81687
 30
0.0
 11
250.726651
 21
259.211932
 31
0.0
  0
LINE
  5
184
330
150
100
AcDbEntity
  8
LC-006-005-----0
 62
     7
370
    25
100
AcDbLine
 10
252.779092
 20
261.264373
 30
0.0
 11
254.56774
 21
263.053022
 31
0.0
  0
LINE
  5
185
330
150
100
AcDbEntity
  8
LC-006-005-----0
 62
     7
370
    25
100
AcDbLine
 10
300.993853
 20
309.479134
 30
0.0
 11
303.74456
 21
312.229841
 31
0.0
  0
LINE
  5
186
330
150
100
AcDbEntity
  8
LC-006-005-----0
 62
     7
370
    25
100
AcDbLine
 10
357.896113
 20
366.381395
 30
0.0
 11
360.949874
 21
369.435155
 31
0.0
  0
LINE
  5
187
330
150
100
AcDbEntity
  8
LC-006-005-----0
 62
     7
370
    25
100
AcDbLine
 10
245.494717
 20
256.808426
 30
0.0
 11
253.99456
 21
265.308268
 31
0.0
  0
LINE
  5
188
330
150
100
AcDbEntity
  8
LC-006-005-----0
 62
     7
370
    25
100
AcDbLine
 10
300.993853
 20
312.307561
 30
0.0
 11
303.74456
 21
315.058268
 31
0.0
  0
LINE
  5
189
330
150
100
AcDbEntity
  8
LC-006-005-----0
 62
     7
370
    25
100
AcDbLine
 10
355.017439
 20
366.331147
 30
0.0
 11
358.071199
 21
369.384908
 31
0.0
  0
LINE
  5
18A
330
150
100
AcDbEntity
  8
LC-006-005-----0
 62
     7
370
    25
100
AcDbLine
 10
245.661819
 20
259.803955
 30
0.0
 11
247.50746
 21
261.649595
 31
0.0
  0
LINE
  5
18B
330
150
100
AcDbEntity
  8
LC-006-005-----0
 62
     7
370
    25
100
AcDbLine
 10
251.030005
 20
265.17214
 30
0.0
 11
253.99456
 21
268.136695
 31
0.0
  0
LINE
  5
18C
330
150
100
AcDbEntity
  8
LC-006-005-----0
 62
     7
370
    25
100
AcDbLine
 10
300.993853
 20
315.135989
 30
0.0
 11
303.74456
 21
317.886695
 31
0.0
  0
LINE
  5
18D
330
150
100
AcDbEntity
  8
LC-006-005-----0
 62
     7
370
    25
100
AcDbLine
 10
352.138764
 20
366.2809
 30
0.0
 11
355.192525
 21
369.33466
 31
0.0
  0
LINE
  5
18E
330
150
100
AcDbEntity
  8
LC-006-005-----0
 62
     7
370
    25
100
AcDbLine
 10
251.060201
 20
268.030764
 30
0.0
 11
253.99456
 21
270.965123
 31
0.0
  0
LINE
  5
18F
330
150
100
AcDbEntity
  8
LC-006-005-----0
 62
     7
370
    25
100
AcDbLine
 10
300.993853
 20
317.964416
 30
0.0
 11
303.74456
 21
320.715123
 31
0.0
  0
LINE
  5
190
330
150
100
AcDbEntity
  8
LC-006-005-----0
 62
     7
370
    25
100
AcDbLine
 10
349.26009
 20
366.230652
 30
0.0
 11
352.31385
 21
369.284413
 31
0.0
  0
LINE
  5
191
330
150
100
AcDbEntity
  8
LC-006-005-----0
 62
     7
370
    25
100
AcDbLine
 10
251.090398
 20
270.889388
 30
0.0
 11
253.99456
 21
273.79355
 31
0.0
  0
LINE
  5
192
330
150
100
AcDbEntity
  8
LC-006-005-----0
 62
     7
370
    25
100
AcDbLine
 10
300.993853
 20
320.792843
 30
0.0
 11
303.74456
 21
323.54355
 31
0.0
  0
LINE
  5
193
330
150
100
AcDbEntity
  8
LC-006-005-----0
 62
     7
370
    25
100
AcDbLine
 10
346.381415
 20
366.180405
 30
0.0
 11
349.435176
 21
369.234165
 31
0.0
  0
LINE
  5
194
330
150
100
AcDbEntity
  8
LC-006-005-----0
 62
     7
370
    25
100
AcDbLine
 10
251.120595
 20
273.748012
 30
0.0
 11
253.99456
 21
276.621977
 31
0.0
  0
LINE
  5
195
330
150
100
AcDbEntity
  8
LC-006-005-----0
 62
     7
370
    25
100
AcDbLine
 10
300.993853
 20
323.62127
 30
0.0
 11
303.74456
 21
326.371977
 31
0.0
  0
LINE
  5
196
330
150
100
AcDbEntity
  8
LC-006-005-----0
 62
     7
370
    25
100
AcDbLine
 10
343.50274
 20
366.130157
 30
0.0
 11
346.556501
 21
369.183918
 31
0.0
  0
LINE
  5
197
330
150
100
AcDbEntity
  8
LC-006-005-----0
 62
     7
370
    25
100
AcDbLine
 10
251.150792
 20
276.606636
 30
0.0
 11
253.99456
 21
279.450404
 31
0.0
  0
LINE
  5
198
330
150
100
AcDbEntity
  8
LC-006-005-----0
 62
     7
370
    25
100
AcDbLine
 10
300.993853
 20
326.449697
 30
0.0
 11
303.74456
 21
329.200404
 31
0.0
  0
LINE
  5
199
330
150
100
AcDbEntity
  8
LC-006-005-----0
 62
     7
370
    25
100
AcDbLine
 10
340.624066
 20
366.07991
 30
0.0
 11
343.677826
 21
369.13367
 31
0.0
  0
LINE
  5
19A
330
150
100
AcDbEntity
  8
LC-006-005-----0
 62
     7
370
    25
100
AcDbLine
 10
251.180988
 20
279.46526
 30
0.0
 11
253.99456
 21
282.278831
 31
0.0
  0
LINE
  5
19B
330
150
100
AcDbEntity
  8
LC-006-005-----0
 62
     7
370
    25
100
AcDbLine
 10
300.993853
 20
329.278124
 30
0.0
 11
303.74456
 21
332.028831
 31
0.0
  0
LINE
  5
19C
330
150
100
AcDbEntity
  8
LC-006-005-----0
 62
     7
370
    25
100
AcDbLine
 10
337.745391
 20
366.029662
 30
0.0
 11
340.799152
 21
369.083423
 31
0.0
  0
LINE
  5
19D
330
150
100
AcDbEntity
  8
LC-006-005-----0
 62
     7
370
    25
100
AcDbLine
 10
251.211185
 20
282.323883
 30
0.0
 11
253.99456
 21
285.107258
 31
0.0
  0
LINE
  5
19E
330
150
100
AcDbEntity
  8
LC-006-005-----0
 62
     7
370
    25
100
AcDbLine
 10
300.993853
 20
332.106551
 30
0.0
 11
307.507135
 21
338.619834
 31
0.0
  0
LINE
  5
19F
330
150
100
AcDbEntity
  8
LC-006-005-----0
 62
     7
370
    25
100
AcDbLine
 10
334.866717
 20
365.979415
 30
0.0
 11
337.920477
 21
369.033176
 31
0.0
  0
LINE
  5
1A0
330
150
100
AcDbEntity
  8
LC-006-005-----0
 62
     7
370
    25
100
AcDbLine
 10
251.241382
 20
285.182507
 30
0.0
 11
253.99456
 21
287.935685
 31
0.0
  0
LINE
  5
1A1
330
150
100
AcDbEntity
  8
LC-006-005-----0
 62
     7
370
    25
100
AcDbLine
 10
300.993853
 20
334.934978
 30
0.0
 11
313.001567
 21
346.942693
 31
0.0
  0
LINE
  5
1A2
330
150
100
AcDbEntity
  8
LC-006-005-----0
 62
     7
370
    25
100
AcDbLine
 10
330.12849
 20
364.069616
 30
0.0
 11
335.041803
 21
368.982928
 31
0.0
  0
LINE
  5
1A3
330
150
100
AcDbEntity
  8
LC-006-005-----0
 62
     7
370
    25
100
AcDbLine
 10
251.271579
 20
288.041131
 30
0.0
 11
253.99456
 21
290.764112
 31
0.0
  0
LINE
  5
1A4
330
150
100
AcDbEntity
  8
LC-006-005-----0
 62
     7
370
    25
100
AcDbLine
 10
301.551567
 20
338.32112
 30
0.0
 11
308.697143
 21
345.466696
 31
0.0
  0
LINE
  5
1A5
330
150
100
AcDbEntity
  8
LC-006-005-----0
 62
     7
370
    25
100
AcDbLine
 10
310.251567
 20
347.02112
 30
0.0
 11
313.001567
 21
349.77112
 31
0.0
  0
LINE
  5
1A6
330
150
100
AcDbEntity
  8
LC-006-005-----0
 62
     7
370
    25
100
AcDbLine
 10
327.08741
 20
363.856963
 30
0.0
 11
330.320839
 21
367.090392
 31
0.0
  0
LINE
  5
1A7
330
150
100
AcDbEntity
  8
LC-006-005-----0
 62
     7
370
    25
100
AcDbLine
 10
251.301775
 20
290.899755
 30
0.0
 11
253.99456
 21
293.59254
 31
0.0
  0
LINE
  5
1A8
330
150
100
AcDbEntity
  8
LC-006-005-----0
 62
     7
370
    25
100
AcDbLine
 10
300.551567
 20
340.149547
 30
0.0
 11
305.868716
 21
345.466696
 31
0.0
  0
LINE
  5
1A9
330
150
100
AcDbEntity
  8
LC-006-005-----0
 62
     7
370
    25
100
AcDbLine
 10
310.251567
 20
349.849547
 30
0.0
 11
313.006306
 21
352.604285
 31
0.0
  0
LINE
  5
1AA
330
150
100
AcDbEntity
  8
LC-006-005-----0
 62
     7
370
    25
100
AcDbLine
 10
314.863978
 20
354.461957
 30
0.0
 11
318.304739
 21
357.902719
 31
0.0
  0
LINE
  5
1AB
330
150
100
AcDbEntity
  8
LC-006-005-----0
 62
     7
370
    25
100
AcDbLine
 10
324.04633
 20
363.64431
 30
0.0
 11
327.279759
 21
366.877739
 31
0.0
  0
LINE
  5
1AC
330
150
100
AcDbEntity
  8
LC-006-005-----0
 62
     7
370
    25
100
AcDbLine
 10
251.331972
 20
293.758379
 30
0.0
 11
253.99456
 21
296.420967
 31
0.0
  0
LINE
  5
1AD
330
150
100
AcDbEntity
  8
LC-006-005-----0
 62
     7
370
    25
100
AcDbLine
 10
300.652075
 20
343.078482
 30
0.0
 11
303.040289
 21
345.466696
 31
0.0
  0
LINE
  5
1AE
330
150
100
AcDbEntity
  8
LC-006-005-----0
 62
     7
370
    25
100
AcDbLine
 10
310.251567
 20
352.677974
 30
0.0
 11
314.579345
 21
357.005752
 31
0.0
  0
LINE
  5
1AF
330
150
100
AcDbEntity
  8
LC-006-005-----0
 62
     7
370
    25
100
AcDbLine
 10
315.263547
 20
357.689954
 30
0.0
 11
318.461169
 21
360.887576
 31
0.0
  0
LINE
  5
1B0
330
150
100
AcDbEntity
  8
LC-006-005-----0
 62
     7
370
    25
100
AcDbLine
 10
321.00525
 20
363.431657
 30
0.0
 11
324.238679
 21
366.665086
 31
0.0
  0
LINE
  5
1B1
330
150
100
AcDbEntity
  8
LC-006-005-----0
 62
     7
370
    25
100
AcDbLine
 10
251.362169
 20
296.617003
 30
0.0
 11
253.99456
 21
299.249394
 31
0.0
  0
LINE
  5
1B2
330
150
100
AcDbEntity
  8
LC-006-005-----0
 62
     7
370
    25
100
AcDbLine
 10
310.251567
 20
355.506401
 30
0.0
 11
312.250185
 21
357.505019
 31
0.0
  0
LINE
  5
1B3
330
150
100
AcDbEntity
  8
LC-006-005-----0
 62
     7
370
    25
100
AcDbLine
 10
315.447335
 20
360.702169
 30
0.0
 11
321.197599
 21
366.452433
 31
0.0
  0
LINE
  5
1B4
330
150
100
AcDbEntity
  8
LC-006-005-----0
 62
     7
370
    25
100
AcDbLine
 10
251.392365
 20
299.475627
 30
0.0
 11
253.99456
 21
302.077821
 31
0.0
  0
LINE
  5
1B5
330
150
100
AcDbEntity
  8
LC-006-005-----0
 62
     7
370
    25
100
AcDbLine
 10
310.251567
 20
358.334828
 30
0.0
 11
312.250185
 21
360.333447
 31
0.0
  0
LINE
  5
1B6
330
150
100
AcDbEntity
  8
LC-006-005-----0
 62
     7
370
    25
100
AcDbLine
 10
315.603765
 20
363.687026
 30
0.0
 11
318.156519
 21
366.23978
 31
0.0
  0
LINE
  5
1B7
330
150
100
AcDbEntity
  8
LC-006-005-----0
 62
     7
370
    25
100
AcDbLine
 10
251.422562
 20
302.33425
 30
0.0
 11
253.99456
 21
304.906248
 31
0.0
  0
LINE
  5
1B8
330
150
100
AcDbEntity
  8
LC-006-005-----0
 62
     7
370
    25
100
AcDbLine
 10
310.251567
 20
361.163256
 30
0.0
 11
312.055008
 21
362.966696
 31
0.0
  0
LINE
  5
1B9
330
150
100
AcDbEntity
  8
LC-006-005-----0
 62
     7
370
    25
100
AcDbLine
 10
251.452759
 20
305.192874
 30
0.0
 11
253.99456
 21
307.734675
 31
0.0
  0
LINE
  5
1BA
330
150
100
AcDbEntity
  8
LC-006-005-----0
 62
     7
370
    25
100
AcDbLine
 10
251.482956
 20
308.051498
 30
0.0
 11
253.99456
 21
310.563102
 31
0.0
  0
LINE
  5
1BB
330
150
100
AcDbEntity
  8
LC-006-005-----0
 62
     7
370
    25
100
AcDbLine
 10
251.513152
 20
310.910122
 30
0.0
 11
253.99456
 21
313.391529
 31
0.0
  0
LINE
  5
1BC
330
150
100
AcDbEntity
  8
LC-006-005-----0
 62
     7
370
    25
100
AcDbLine
 10
251.543349
 20
313.768746
 30
0.0
 11
253.99456
 21
316.219957
 31
0.0
  0
LINE
  5
1BD
330
150
100
AcDbEntity
  8
LC-006-005-----0
 62
     7
370
    25
100
AcDbLine
 10
251.573546
 20
316.62737
 30
0.0
 11
253.99456
 21
319.048384
 31
0.0
  0
LINE
  5
1BE
330
150
100
AcDbEntity
  8
LC-006-005-----0
 62
     7
370
    25
100
AcDbLine
 10
251.603743
 20
319.485994
 30
0.0
 11
253.99456
 21
321.876811
 31
0.0
  0
LINE
  5
1BF
330
150
100
AcDbEntity
  8
LC-006-005-----0
 62
     7
370
    25
100
AcDbLine
 10
251.633939
 20
322.344617
 30
0.0
 11
253.99456
 21
324.705238
 31
0.0
  0
LINE
  5
1C0
330
150
100
AcDbEntity
  8
LC-006-005-----0
 62
     7
370
    25
100
AcDbLine
 10
251.664136
 20
325.203241
 30
0.0
 11
253.99456
 21
327.533665
 31
0.0
  0
LINE
  5
1C1
330
150
100
AcDbEntity
  8
LC-006-005-----0
 62
     7
370
    25
100
AcDbLine
 10
251.694333
 20
328.061865
 30
0.0
 11
253.99456
 21
330.362092
 31
0.0
  0
LINE
  5
1C2
330
150
100
AcDbEntity
  8
LC-006-005-----0
 62
     7
370
    25
100
AcDbLine
 10
251.724529
 20
330.920489
 30
0.0
 11
253.99456
 21
333.190519
 31
0.0
  0
LINE
  5
1C3
330
150
100
AcDbEntity
  8
LC-006-005-----0
 62
     7
370
    25
100
AcDbLine
 10
251.754726
 20
333.779113
 30
0.0
 11
253.99456
 21
336.018946
 31
0.0
  0
LINE
  5
1C4
330
150
100
AcDbEntity
  8
LC-006-005-----0
 62
     7
370
    25
100
AcDbLine
 10
251.126
 20
335.978814
 30
0.0
 11
251.963882
 21
336.816696
 31
0.0
  0
ENDBLK
  5
152
330
150
100
AcDbEntity
  8
0
100
AcDbBlockEnd
  0
BLOCK
  5
1EC
330
1EB
100
AcDbEntity
  8
0
100
AcDbBlockBegin
  2
*X33
 70
     1
 71
     0
 10
0.0
 20
0.0
 30
0.0
  3
*X33
  1

  4
*X3
  0
LINE
  5
1EE
330
1EB
100
AcDbEntity
  8
LC-006-005-----0
 62
     7
370
    25
100
AcDbLine
 10
264.689488
 20
287.316905
 30
0.0
 11
264.963586
 21
287.591003
 31
0.0
  0
LINE
  5
1EF
330
1EB
100
AcDbEntity
  8
LC-006-005-----0
 62
     7
370
    25
100
AcDbLine
 10
263.963746
 20
289.419591
 30
0.0
 11
264.963588
 21
290.419432
 31
0.0
  0
LINE
  5
1F0
330
1EB
100
AcDbEntity
  8
LC-006-005-----0
 62
     7
370
    25
100
AcDbLine
 10
263.963741
 20
292.248012
 30
0.0
 11
264.96359
 21
293.247861
 31
0.0
  0
LINE
  5
1F1
330
1EB
100
AcDbEntity
  8
LC-006-005-----0
 62
     7
370
    25
100
AcDbLine
 10
263.963735
 20
295.076433
 30
0.0
 11
264.963592
 21
296.07629
 31
0.0
  0
LINE
  5
1F2
330
1EB
100
AcDbEntity
  8
LC-006-005-----0
 62
     7
370
    25
100
AcDbLine
 10
263.963729
 20
297.904854
 30
0.0
 11
264.963594
 21
298.904719
 31
0.0
  0
LINE
  5
1F3
330
1EB
100
AcDbEntity
  8
LC-006-005-----0
 62
     7
370
    25
100
AcDbLine
 10
263.963723
 20
300.733276
 30
0.0
 11
264.963595
 21
301.733148
 31
0.0
  0
LINE
  5
1F4
330
1EB
100
AcDbEntity
  8
LC-006-005-----0
 62
     7
370
    25
100
AcDbLine
 10
263.963717
 20
303.561697
 30
0.0
 11
264.963597
 21
304.561577
 31
0.0
  0
LINE
  5
1F5
330
1EB
100
AcDbEntity
  8
LC-006-005-----0
 62
     7
370
    25
100
AcDbLine
 10
263.963711
 20
306.390118
 30
0.0
 11
264.963599
 21
307.390006
 31
0.0
  0
LINE
  5
1F6
330
1EB
100
AcDbEntity
  8
LC-006-005-----0
 62
     7
370
    25
100
AcDbLine
 10
263.963705
 20
309.218539
 30
0.0
 11
264.963601
 21
310.218435
 31
0.0
  0
LINE
  5
1F7
330
1EB
100
AcDbEntity
  8
LC-006-005-----0
 62
     7
370
    25
100
AcDbLine
 10
263.9637
 20
312.046961
 30
0.0
 11
264.963603
 21
313.046864
 31
0.0
  0
LINE
  5
1F8
330
1EB
100
AcDbEntity
  8
LC-006-005-----0
 62
     7
370
    25
100
AcDbLine
 10
263.963694
 20
314.875382
 30
0.0
 11
264.963605
 21
315.875293
 31
0.0
  0
LINE
  5
1F9
330
1EB
100
AcDbEntity
  8
LC-006-005-----0
 62
     7
370
    25
100
AcDbLine
 10
263.963688
 20
317.703803
 30
0.0
 11
264.963607
 21
318.703722
 31
0.0
  0
LINE
  5
1FA
330
1EB
100
AcDbEntity
  8
LC-006-005-----0
 62
     7
370
    25
100
AcDbLine
 10
263.963682
 20
320.532225
 30
0.0
 11
264.963608
 21
321.532151
 31
0.0
  0
LINE
  5
1FB
330
1EB
100
AcDbEntity
  8
LC-006-005-----0
 62
     7
370
    25
100
AcDbLine
 10
263.963676
 20
323.360646
 30
0.0
 11
264.96361
 21
324.36058
 31
0.0
  0
LINE
  5
1FC
330
1EB
100
AcDbEntity
  8
LC-006-005-----0
 62
     7
370
    25
100
AcDbLine
 10
263.96367
 20
326.189067
 30
0.0
 11
264.963612
 21
327.189009
 31
0.0
  0
LINE
  5
1FD
330
1EB
100
AcDbEntity
  8
LC-006-005-----0
 62
     7
370
    25
100
AcDbLine
 10
263.963664
 20
329.017488
 30
0.0
 11
264.963614
 21
330.017438
 31
0.0
  0
LINE
  5
1FE
330
1EB
100
AcDbEntity
  8
LC-006-005-----0
 62
     7
370
    25
100
AcDbLine
 10
263.963659
 20
331.84591
 30
0.0
 11
264.963616
 21
332.845867
 31
0.0
  0
LINE
  5
1FF
330
1EB
100
AcDbEntity
  8
LC-006-005-----0
 62
     7
370
    25
100
AcDbLine
 10
263.963653
 20
334.674331
 30
0.0
 11
264.963618
 21
335.674296
 31
0.0
  0
LINE
  5
200
330
1EB
100
AcDbEntity
  8
LC-006-005-----0
 62
     7
370
    25
100
AcDbLine
 10
263.963647
 20
337.502752
 30
0.0
 11
264.963619
 21
338.502725
 31
0.0
  0
LINE
  5
201
330
1EB
100
AcDbEntity
  8
LC-006-005-----0
 62
     7
370
    25
100
AcDbLine
 10
263.963641
 20
340.331173
 30
0.0
 11
264.963621
 21
341.331154
 31
0.0
  0
LINE
  5
202
330
1EB
100
AcDbEntity
  8
LC-006-005-----0
 62
     7
370
    25
100
AcDbLine
 10
263.963635
 20
343.159595
 30
0.0
 11
264.963623
 21
344.159583
 31
0.0
  0
LINE
  5
203
330
1EB
100
AcDbEntity
  8
LC-006-005-----0
 62
     7
370
    25
100
AcDbLine
 10
263.963629
 20
345.988016
 30
0.0
 11
264.963625
 21
346.988012
 31
0.0
  0
LINE
  5
204
330
1EB
100
AcDbEntity
  8
LC-006-005-----0
 62
     7
370
    25
100
AcDbLine
 10
263.865007
 20
348.71782
 30
0.0
 11
264.744876
 21
349.59769
 31
0.0
  0
LINE
  5
205
330
1EB
100
AcDbEntity
  8
LC-006-005-----0
 62
     7
370
    25
100
AcDbLine
 10
263.277057
 20
350.958298
 30
0.0
 11
264.10162
 21
351.782861
 31
0.0
  0
LINE
  5
206
330
1EB
100
AcDbEntity
  8
LC-006-005-----0
 62
     7
370
    25
100
AcDbLine
 10
262.312066
 20
352.821734
 30
0.0
 11
263.150202
 21
353.65987
 31
0.0
  0
LINE
  5
207
330
1EB
100
AcDbEntity
  8
LC-006-005-----0
 62
     7
370
    25
100
AcDbLine
 10
261.042263
 20
354.380358
 30
0.0
 11
261.941286
 21
355.279381
 31
0.0
  0
LINE
  5
208
330
1EB
100
AcDbEntity
  8
LC-006-005-----0
 62
     7
370
    25
100
AcDbLine
 10
259.48673
 20
355.653253
 30
0.0
 11
260.493691
 21
356.660214
 31
0.0
  0
LINE
  5
209
330
1EB
100
AcDbEntity
  8
LC-006-005-----0
 62
     7
370
    25
100
AcDbLine
 10
257.626813
 20
356.621762
 30
0.0
 11
258.80449
 21
357.799439
 31
0.0
  0
LINE
  5
20A
330
1EB
100
AcDbEntity
  8
LC-006-005-----0
 62
     7
370
    25
100
AcDbLine
 10
255.391084
 20
357.214461
 30
0.0
 11
256.847566
 21
358.670942
 31
0.0
  0
LINE
  5
20B
330
1EB
100
AcDbEntity
  8
LC-006-005-----0
 62
     7
370
    25
100
AcDbLine
 10
182.665007
 20
287.316811
 30
0.0
 11
182.963585
 21
287.615389
 31
0.0
  0
LINE
  5
20C
330
1EB
100
AcDbEntity
  8
LC-006-005-----0
 62
     7
370
    25
100
AcDbLine
 10
224.164892
 20
328.816696
 30
0.0
 11
224.899276
 21
329.55108
 31
0.0
  0
LINE
  5
20D
330
1EB
100
AcDbEntity
  8
LC-006-005-----0
 62
     7
370
    25
100
AcDbLine
 10
252.665063
 20
357.316867
 30
0.0
 11
254.558594
 21
359.210398
 31
0.0
  0
LINE
  5
20E
330
1EB
100
AcDbEntity
  8
LC-006-005-----0
 62
     7
370
    25
100
AcDbLine
 10
181.96358
 20
289.443811
 30
0.0
 11
182.963577
 21
290.443808
 31
0.0
  0
LINE
  5
20F
330
1EB
100
AcDbEntity
  8
LC-006-005-----0
 62
     7
370
    25
100
AcDbLine
 10
221.336465
 20
328.816696
 30
0.0
 11
224.900042
 21
332.380273
 31
0.0
  0
LINE
  5
210
330
1EB
100
AcDbEntity
  8
LC-006-005-----0
 62
     7
370
    25
100
AcDbLine
 10
249.836636
 20
357.316867
 30
0.0
 11
251.836637
 21
359.316868
 31
0.0
  0
LINE
  5
211
330
1EB
100
AcDbEntity
  8
LC-006-005-----0
 62
     7
370
    25
100
AcDbLine
 10
181.963572
 20
292.27223
 30
0.0
 11
182.963569
 21
293.272227
 31
0.0
  0
LINE
  5
212
330
1EB
100
AcDbEntity
  8
LC-006-005-----0
 62
     7
370
    25
100
AcDbLine
 10
218.508038
 20
328.816696
 30
0.0
 11
224.900808
 21
335.209465
 31
0.0
  0
LINE
  5
213
330
1EB
100
AcDbEntity
  8
LC-006-005-----0
 62
     7
370
    25
100
AcDbLine
 10
247.008209
 20
357.316867
 30
0.0
 11
249.008212
 21
359.31687
 31
0.0
  0
LINE
  5
214
330
1EB
100
AcDbEntity
  8
LC-006-005-----0
 62
     7
370
    25
100
AcDbLine
 10
181.963564
 20
295.100649
 30
0.0
 11
182.963561
 21
296.100646
 31
0.0
  0
LINE
  5
215
330
1EB
100
AcDbEntity
  8
LC-006-005-----0
 62
     7
370
    25
100
AcDbLine
 10
215.679611
 20
328.816696
 30
0.0
 11
224.901573
 21
338.038658
 31
0.0
  0
LINE
  5
216
330
1EB
100
AcDbEntity
  8
LC-006-005-----0
 62
     7
370
    25
100
AcDbLine
 10
244.179782
 20
357.316867
 30
0.0
 11
246.179787
 21
359.316872
 31
0.0
  0
LINE
  5
217
330
1EB
100
AcDbEntity
  8
LC-006-005-----0
 62
     7
370
    25
100
AcDbLine
 10
181.963556
 20
297.929068
 30
0.0
 11
182.963553
 21
298.929065
 31
0.0
  0
LINE
  5
218
330
1EB
100
AcDbEntity
  8
LC-006-005-----0
 62
     7
370
    25
100
AcDbLine
 10
212.851184
 20
328.816696
 30
0.0
 11
224.902339
 21
340.867851
 31
0.0
  0
LINE
  5
219
330
1EB
100
AcDbEntity
  8
LC-006-005-----0
 62
     7
370
    25
100
AcDbLine
 10
241.351355
 20
357.316867
 30
0.0
 11
243.351362
 21
359.316874
 31
0.0
  0
LINE
  5
21A
330
1EB
100
AcDbEntity
  8
LC-006-005-----0
 62
     7
370
    25
100
AcDbLine
 10
181.963548
 20
300.757487
 30
0.0
 11
182.963545
 21
301.757484
 31
0.0
  0
LINE
  5
21B
330
1EB
100
AcDbEntity
  8
LC-006-005-----0
 62
     7
370
    25
100
AcDbLine
 10
210.022757
 20
328.816696
 30
0.0
 11
224.903105
 21
343.697044
 31
0.0
  0
LINE
  5
21C
330
1EB
100
AcDbEntity
  8
LC-006-005-----0
 62
     7
370
    25
100
AcDbLine
 10
238.522928
 20
357.316867
 30
0.0
 11
240.522937
 21
359.316876
 31
0.0
  0
LINE
  5
21D
330
1EB
100
AcDbEntity
  8
LC-006-005-----0
 62
     7
370
    25
100
AcDbLine
 10
181.96354
 20
303.585906
 30
0.0
 11
182.963537
 21
304.585903
 31
0.0
  0
LINE
  5
21E
330
1EB
100
AcDbEntity
  8
LC-006-005-----0
 62
     7
370
    25
100
AcDbLine
 10
207.194329
 20
328.816696
 30
0.0
 11
224.903871
 21
346.526237
 31
0.0
  0
LINE
  5
21F
330
1EB
100
AcDbEntity
  8
LC-006-005-----0
 62
     7
370
    25
100
AcDbLine
 10
235.694501
 20
357.316867
 30
0.0
 11
237.694511
 21
359.316878
 31
0.0
  0
LINE
  5
220
330
1EB
100
AcDbEntity
  8
LC-006-005-----0
 62
     7
370
    25
100
AcDbLine
 10
181.963532
 20
306.414325
 30
0.0
 11
182.963529
 21
307.414323
 31
0.0
  0
LINE
  5
221
330
1EB
100
AcDbEntity
  8
LC-006-005-----0
 62
     7
370
    25
100
AcDbLine
 10
204.365902
 20
328.816696
 30
0.0
 11
224.904637
 21
349.35543
 31
0.0
  0
LINE
  5
222
330
1EB
100
AcDbEntity
  8
LC-006-005-----0
 62
     7
370
    25
100
AcDbLine
 10
232.866074
 20
357.316867
 30
0.0
 11
237.124917
 21
361.575711
 31
0.0
  0
LINE
  5
223
330
1EB
100
AcDbEntity
  8
LC-006-005-----0
 62
     7
370
    25
100
AcDbLine
 10
181.963524
 20
309.242745
 30
0.0
 11
182.963521
 21
310.242742
 31
0.0
  0
LINE
  5
224
330
1EB
100
AcDbEntity
  8
LC-006-005-----0
 62
     7
370
    25
100
AcDbLine
 10
201.537475
 20
328.816696
 30
0.0
 11
224.905402
 21
352.184623
 31
0.0
  0
LINE
  5
225
330
1EB
100
AcDbEntity
  8
LC-006-005-----0
 62
     7
370
    25
100
AcDbLine
 10
230.037646
 20
357.316867
 30
0.0
 11
232.037661
 21
359.316882
 31
0.0
  0
LINE
  5
226
330
1EB
100
AcDbEntity
  8
LC-006-005-----0
 62
     7
370
    25
100
AcDbLine
 10
233.210422
 20
360.489643
 30
0.0
 11
236.514597
 21
363.793817
 31
0.0
  0
LINE
  5
227
330
1EB
100
AcDbEntity
  8
LC-006-005-----0
 62
     7
370
    25
100
AcDbLine
 10
181.963516
 20
312.071164
 30
0.0
 11
182.963513
 21
313.071161
 31
0.0
  0
LINE
  5
228
330
1EB
100
AcDbEntity
  8
LC-006-005-----0
 62
     7
370
    25
100
AcDbLine
 10
198.709048
 20
328.816696
 30
0.0
 11
224.906168
 21
355.013816
 31
0.0
  0
LINE
  5
229
330
1EB
100
AcDbEntity
  8
LC-006-005-----0
 62
     7
370
    25
100
AcDbLine
 10
227.209219
 20
357.316867
 30
0.0
 11
229.209236
 21
359.316884
 31
0.0
  0
LINE
  5
22A
330
1EB
100
AcDbEntity
  8
LC-006-005-----0
 62
     7
370
    25
100
AcDbLine
 10
232.603039
 20
362.710687
 30
0.0
 11
235.496481
 21
365.604129
 31
0.0
  0
LINE
  5
22B
330
1EB
100
AcDbEntity
  8
LC-006-005-----0
 62
     7
370
    25
100
AcDbLine
 10
181.963508
 20
314.899583
 30
0.0
 11
182.963505
 21
315.89958
 31
0.0
  0
LINE
  5
22C
330
1EB
100
AcDbEntity
  8
LC-006-005-----0
 62
     7
370
    25
100
AcDbLine
 10
196.482306
 20
329.418381
 30
0.0
 11
226.380811
 21
359.316886
 31
0.0
  0
LINE
  5
22D
330
1EB
100
AcDbEntity
  8
LC-006-005-----0
 62
     7
370
    25
100
AcDbLine
 10
231.307946
 20
364.244021
 30
0.0
 11
234.147342
 21
367.083417
 31
0.0
  0
LINE
  5
22E
330
1EB
100
AcDbEntity
  8
LC-006-005-----0
 62
     7
370
    25
100
AcDbLine
 10
181.9635
 20
317.728002
 30
0.0
 11
182.963497
 21
318.727999
 31
0.0
  0
LINE
  5
22F
330
1EB
100
AcDbEntity
  8
LC-006-005-----0
 62
     7
370
    25
100
AcDbLine
 10
195.884589
 20
331.649091
 30
0.0
 11
223.552386
 21
359.316888
 31
0.0
  0
LINE
  5
230
330
1EB
100
AcDbEntity
  8
LC-006-005-----0
 62
     7
370
    25
100
AcDbLine
 10
229.407514
 20
365.172016
 30
0.0
 11
232.477791
 21
368.242293
 31
0.0
  0
LINE
  5
231
330
1EB
100
AcDbEntity
  8
LC-006-005-----0
 62
     7
370
    25
100
AcDbLine
 10
181.963492
 20
320.556421
 30
0.0
 11
182.963489
 21
321.556418
 31
0.0
  0
LINE
  5
232
330
1EB
100
AcDbEntity
  8
LC-006-005-----0
 62
     7
370
    25
100
AcDbLine
 10
195.705705
 20
334.298634
 30
0.0
 11
220.723767
 21
359.316696
 31
0.0
  0
LINE
  5
233
330
1EB
100
AcDbEntity
  8
LC-006-005-----0
 62
     7
370
    25
100
AcDbLine
 10
226.723767
 20
365.316696
 30
0.0
 11
230.443179
 21
369.036108
 31
0.0
  0
LINE
  5
234
330
1EB
100
AcDbEntity
  8
LC-006-005-----0
 62
     7
370
    25
100
AcDbLine
 10
181.963484
 20
323.38484
 30
0.0
 11
182.963481
 21
324.384837
 31
0.0
  0
LINE
  5
235
330
1EB
100
AcDbEntity
  8
LC-006-005-----0
 62
     7
370
    25
100
AcDbLine
 10
195.39534
 20
336.816696
 30
0.0
 11
217.89534
 21
359.316696
 31
0.0
  0
LINE
  5
236
330
1EB
100
AcDbEntity
  8
LC-006-005-----0
 62
     7
370
    25
100
AcDbLine
 10
223.89534
 20
365.316696
 30
0.0
 11
227.89534
 21
369.316696
 31
0.0
  0
LINE
  5
237
330
1EB
100
AcDbEntity
  8
LC-006-005-----0
 62
     7
370
    25
100
AcDbLine
 10
181.963476
 20
326.213259
 30
0.0
 11
182.963473
 21
327.213256
 31
0.0
  0
LINE
  5
238
330
1EB
100
AcDbEntity
  8
LC-006-005-----0
 62
     7
370
    25
100
AcDbLine
 10
192.566912
 20
336.816696
 30
0.0
 11
215.066912
 21
359.316696
 31
0.0
  0
LINE
  5
239
330
1EB
100
AcDbEntity
  8
LC-006-005-----0
 62
     7
370
    25
100
AcDbLine
 10
221.066912
 20
365.316696
 30
0.0
 11
225.066913
 21
369.316696
 31
0.0
  0
LINE
  5
23A
330
1EB
100
AcDbEntity
  8
LC-006-005-----0
 62
     7
370
    25
100
AcDbLine
 10
181.963468
 20
329.041678
 30
0.0
 11
182.963465
 21
330.041675
 31
0.0
  0
LINE
  5
23B
330
1EB
100
AcDbEntity
  8
LC-006-005-----0
 62
     7
370
    25
100
AcDbLine
 10
192.20637
 20
339.28458
 30
0.0
 11
213.73848
 21
360.81669
 31
0.0
  0
LINE
  5
23C
330
1EB
100
AcDbEntity
  8
LC-006-005-----0
 62
     7
370
    25
100
AcDbLine
 10
218.213423
 20
365.291634
 30
0.0
 11
222.238485
 21
369.316696
 31
0.0
  0
LINE
  5
23D
330
1EB
100
AcDbEntity
  8
LC-006-005-----0
 62
     7
370
    25
100
AcDbLine
 10
181.96346
 20
331.870097
 30
0.0
 11
182.963457
 21
332.870095
 31
0.0
  0
LINE
  5
23E
330
1EB
100
AcDbEntity
  8
LC-006-005-----0
 62
     7
370
    25
100
AcDbLine
 10
192.207135
 20
342.113773
 30
0.0
 11
209.410058
 21
359.316696
 31
0.0
  0
LINE
  5
23F
330
1EB
100
AcDbEntity
  8
LC-006-005-----0
 62
     7
370
    25
100
AcDbLine
 10
209.713418
 20
359.620055
 30
0.0
 11
219.410058
 21
369.316696
 31
0.0
  0
LINE
  5
240
330
1EB
100
AcDbEntity
  8
LC-006-005-----0
 62
     7
370
    25
100
AcDbLine
 10
181.963452
 20
334.698517
 30
0.0
 11
182.963449
 21
335.698514
 31
0.0
  0
LINE
  5
241
330
1EB
100
AcDbEntity
  8
LC-006-005-----0
 62
     7
370
    25
100
AcDbLine
 10
192.207901
 20
344.942966
 30
0.0
 11
206.581631
 21
359.316696
 31
0.0
  0
LINE
  5
242
330
1EB
100
AcDbEntity
  8
LC-006-005-----0
 62
     7
370
    25
100
AcDbLine
 10
210.06194
 20
362.797004
 30
0.0
 11
216.233109
 21
368.968174
 31
0.0
  0
LINE
  5
243
330
1EB
100
AcDbEntity
  8
LC-006-005-----0
 62
     7
370
    25
100
AcDbLine
 10
181.963444
 20
337.526936
 30
0.0
 11
182.963441
 21
338.526933
 31
0.0
  0
LINE
  5
244
330
1EB
100
AcDbEntity
  8
LC-006-005-----0
 62
     7
370
    25
100
AcDbLine
 10
192.208667
 20
347.772159
 30
0.0
 11
203.753204
 21
359.316696
 31
0.0
  0
LINE
  5
245
330
1EB
100
AcDbEntity
  8
LC-006-005-----0
 62
     7
370
    25
100
AcDbLine
 10
181.963436
 20
340.355355
 30
0.0
 11
182.963433
 21
341.355352
 31
0.0
  0
LINE
  5
246
330
1EB
100
AcDbEntity
  8
LC-006-005-----0
 62
     7
370
    25
100
AcDbLine
 10
192.209433
 20
350.601352
 30
0.0
 11
200.924777
 21
359.316696
 31
0.0
  0
LINE
  5
247
330
1EB
100
AcDbEntity
  8
LC-006-005-----0
 62
     7
370
    25
100
AcDbLine
 10
181.963428
 20
343.183774
 30
0.0
 11
182.963425
 21
344.183771
 31
0.0
  0
LINE
  5
248
330
1EB
100
AcDbEntity
  8
LC-006-005-----0
 62
     7
370
    25
100
AcDbLine
 10
192.210199
 20
353.430545
 30
0.0
 11
198.09635
 21
359.316696
 31
0.0
  0
LINE
  5
249
330
1EB
100
AcDbEntity
  8
LC-006-005-----0
 62
     7
370
    25
100
AcDbLine
 10
181.96342
 20
346.012193
 30
0.0
 11
182.963417
 21
347.01219
 31
0.0
  0
LINE
  5
24A
330
1EB
100
AcDbEntity
  8
LC-006-005-----0
 62
     7
370
    25
100
AcDbLine
 10
192.210964
 20
356.259738
 30
0.0
 11
195.267923
 21
359.316696
 31
0.0
  0
LINE
  5
24B
330
1EB
100
AcDbEntity
  8
LC-006-005-----0
 62
     7
370
    25
100
AcDbLine
 10
182.075454
 20
348.952654
 30
0.0
 11
183.416969
 21
350.294169
 31
0.0
  0
LINE
  5
24C
330
1EB
100
AcDbEntity
  8
LC-006-005-----0
 62
     7
370
    25
100
AcDbLine
 10
189.985943
 20
356.863143
 30
0.0
 11
192.327457
 21
359.204658
 31
0.0
  0
LINE
  5
24D
330
1EB
100
AcDbEntity
  8
LC-006-005-----0
 62
     7
370
    25
100
AcDbLine
 10
183.517841
 20
353.223469
 30
0.0
 11
188.056643
 21
357.762271
 31
0.0
  0
ENDBLK
  5
1ED
330
1EB
100
AcDbEntity
  8
0
100
AcDbBlockEnd
  0
BLOCK
  5
264
330
263
100
AcDbEntity
  8
0
100
AcDbBlockBegin
  2
*X44
 70
     1
 71
     0
 10
0.0
 20
0.0
 30
0.0
  3
*X44
  1

  4
*X4
  0
LINE
  5
266
330
263
100
AcDbEntity
  8
LC-006-005-----0
 62
     7
370
    25
100
AcDbLine
 10
259.99456
 20
149.685902
 30
0.0
 11
260.99456
 21
150.685902
 31
0.0
  0
LINE
  5
267
330
263
100
AcDbEntity
  8
LC-006-005-----0
 62
     7
370
    25
100
AcDbLine
 10
259.99456
 20
152.514329
 30
0.0
 11
260.99456
 21
153.514329
 31
0.0
  0
LINE
  5
268
330
263
100
AcDbEntity
  8
LC-006-005-----0
 62
     7
370
    25
100
AcDbLine
 10
259.99456
 20
155.342756
 30
0.0
 11
260.99456
 21
156.342756
 31
0.0
  0
LINE
  5
269
330
263
100
AcDbEntity
  8
LC-006-005-----0
 62
     7
370
    25
100
AcDbLine
 10
259.99456
 20
158.171183
 30
0.0
 11
260.99456
 21
159.171183
 31
0.0
  0
LINE
  5
26A
330
263
100
AcDbEntity
  8
LC-006-005-----0
 62
     7
370
    25
100
AcDbLine
 10
259.99456
 20
160.99961
 30
0.0
 11
260.99456
 21
161.99961
 31
0.0
  0
LINE
  5
26B
330
263
100
AcDbEntity
  8
LC-006-005-----0
 62
     7
370
    25
100
AcDbLine
 10
259.99456
 20
163.828038
 30
0.0
 11
260.99456
 21
164.828038
 31
0.0
  0
LINE
  5
26C
330
263
100
AcDbEntity
  8
LC-006-005-----0
 62
     7
370
    25
100
AcDbLine
 10
259.99456
 20
166.656465
 30
0.0
 11
260.99456
 21
167.656465
 31
0.0
  0
LINE
  5
26D
330
263
100
AcDbEntity
  8
LC-006-005-----0
 62
     7
370
    25
100
AcDbLine
 10
185.99456
 20
149.225007
 30
0.0
 11
186.99456
 21
150.225007
 31
0.0
  0
LINE
  5
26E
330
263
100
AcDbEntity
  8
LC-006-005-----0
 62
     7
370
    25
100
AcDbLine
 10
185.99456
 20
152.053434
 30
0.0
 11
186.99456
 21
153.053434
 31
0.0
  0
LINE
  5
26F
330
263
100
AcDbEntity
  8
LC-006-005-----0
 62
     7
370
    25
100
AcDbLine
 10
185.99456
 20
154.881861
 30
0.0
 11
186.99456
 21
155.881861
 31
0.0
  0
LINE
  5
270
330
263
100
AcDbEntity
  8
LC-006-005-----0
 62
     7
370
    25
100
AcDbLine
 10
185.99456
 20
157.710289
 30
0.0
 11
186.99456
 21
158.710289
 31
0.0
  0
LINE
  5
271
330
263
100
AcDbEntity
  8
LC-006-005-----0
 62
     7
370
    25
100
AcDbLine
 10
185.99456
 20
160.538716
 30
0.0
 11
186.99456
 21
161.538716
 31
0.0
  0
LINE
  5
272
330
263
100
AcDbEntity
  8
LC-006-005-----0
 62
     7
370
    25
100
AcDbLine
 10
185.99456
 20
163.367143
 30
0.0
 11
186.99456
 21
164.367143
 31
0.0
  0
LINE
  5
273
330
263
100
AcDbEntity
  8
LC-006-005-----0
 62
     7
370
    25
100
AcDbLine
 10
185.99456
 20
166.19557
 30
0.0
 11
186.99456
 21
167.19557
 31
0.0
  0
ENDBLK
  5
265
330
263
100
AcDbEntity
  8
0
100
AcDbBlockEnd
  0
BLOCK
  5
284
330
27A
100
AcDbEntity
  8
0
100
AcDbBlockBegin
  2
*D5
 70
     1
 71
     0
 10
0.0
 20
0.0
 30
0.0
  3
*D5
  1

  0
LINE
  5
27B
330
27A
100
AcDbEntity
  8
LC-008-003-----0
 62
     2
370
    -2
100
AcDbLine
 10
181.99456
 20
148.816692
 30
0.0
 11
181.99456
 21
132.426
 31
0.0
  0
LINE
  5
27C
330
27A
100
AcDbEntity
  8
LC-008-003-----0
 62
     2
370
    -2
100
AcDbLine
 10
264.99456
 20
148.816692
 30
0.0
 11
264.99456
 21
132.426
 31
0.0
  0
LINE
  5
27D
330
27A
100
AcDbEntity
  8
LC-008-003-----0
 62
     2
370
    -2
100
AcDbLine
 10
209.99456
 20
136.026
 30
0.0
 11
236.99456
 21
136.026
 31
0.0
  0
SOLID
  5
27E
330
27A
100
AcDbEntity
  8
LC-008-003-----0
 62
     2
100
AcDbTrace
 10
209.99456
 20
140.692667
 30
0.0
 11
209.99456
 21
131.359333
 31
0.0
 12
181.99456
 22
136.026
 32
0.0
 13
181.99456
 23
136.026
 33
0.0
  0
SOLID
  5
27F
330
27A
100
AcDbEntity
  8
LC-008-003-----0
 62
     2
100
AcDbTrace
 10
236.99456
 20
131.359333
 30
0.0
 11
236.99456
 21
140.692667
 31
0.0
 12
264.99456
 22
136.026
 32
0.0
 13
264.99456
 23
136.026
 33
0.0
  0
MTEXT
  5
280
330
27A
100
AcDbEntity
  8
LC-008-003-----0
 62
     2
100
AcDbMText
 10
223.49456
 20
166.826
 30
0.0
 40
28.0
 41
0.0
 71
     5
 72
     1
  1
\A1;DN80(SML)
  7
LCTX15-400-0-0pDIN-Schrift
 73
     1
 44
1.0
  0
POINT
  5
281
330
27A
100
AcDbEntity
  8
Defpoints
 62
     0
100
AcDbPoint
 10
181.99456
 20
148.816692
 30
0.0
  0
POINT
  5
282
330
27A
100
AcDbEntity
  8
Defpoints
 62
     0
100
AcDbPoint
 10
264.99456
 20
148.816692
 30
0.0
  0
POINT
  5
283
330
27A
100
AcDbEntity
  8
Defpoints
 62
     0
100
AcDbPoint
 10
264.99456
 20
136.026
 30
0.0
  0
ENDBLK
  5
285
330
27A
100
AcDbEntity
  8
0
100
AcDbBlockEnd
  0
BLOCK
  5
291
330
287
100
AcDbEntity
  8
0
100
AcDbBlockBegin
  2
*D6
 70
     1
 71
     0
 10
0.0
 20
0.0
 30
0.0
  3
*D6
  1

  0
LINE
  5
288
330
287
100
AcDbEntity
  8
LC-008-003-----0
 62
     2
370
    -2
100
AcDbLine
 10
303.74456
 20
270.566696
 30
0.0
 11
303.74456
 21
77.778
 31
0.0
  0
LINE
  5
289
330
287
100
AcDbEntity
  8
LC-008-003-----0
 62
     2
370
    -2
100
AcDbLine
 10
143.24456
 20
270.566696
 30
0.0
 11
143.24456
 21
77.778
 31
0.0
  0
LINE
  5
28A
330
287
100
AcDbEntity
  8
LC-008-003-----0
 62
     2
370
    -2
100
AcDbLine
 10
275.74456
 20
81.378
 30
0.0
 11
171.24456
 21
81.378
 31
0.0
  0
SOLID
  5
28B
330
287
100
AcDbEntity
  8
LC-008-003-----0
 62
     2
100
AcDbTrace
 10
275.74456
 20
76.711333
 30
0.0
 11
275.74456
 21
86.044667
 31
0.0
 12
303.74456
 22
81.378
 32
0.0
 13
303.74456
 23
81.378
 33
0.0
  0
SOLID
  5
28C
330
287
100
AcDbEntity
  8
LC-008-003-----0
 62
     2
100
AcDbTrace
 10
171.24456
 20
86.044667
 30
0.0
 11
171.24456
 21
76.711333
 31
0.0
 12
143.24456
 22
81.378
 32
0.0
 13
143.24456
 23
81.378
 33
0.0
  0
MTEXT
  5
28D
330
287
100
AcDbEntity
  8
LC-008-003-----0
 62
     2
100
AcDbMText
 10
223.49456
 20
112.178
 30
0.0
 40
28.0
 41
0.0
 71
     5
 72
     1
  1
\A1;%%c160
  7
LCTX15-400-0-0pDIN-Schrift
 73
     1
 44
1.0
  0
POINT
  5
28E
330
287
100
AcDbEntity
  8
Defpoints
 62
     0
100
AcDbPoint
 10
303.74456
 20
270.566696
 30
0.0
  0
POINT
  5
28F
330
287
100
AcDbEntity
  8
Defpoints
 62
     0
100
AcDbPoint
 10
143.24456
 20
270.566696
 30
0.0
  0
POINT
  5
290
330
287
100
AcDbEntity
  8
Defpoints
 62
     0
100
AcDbPoint
 10
143.24456
 20
81.378
 30
0.0
  0
ENDBLK
  5
292
330
287
100
AcDbEntity
  8
0
100
AcDbBlockEnd
  0
BLOCK
  5
294
330
293
100
AcDbEntity
  8
0
100
AcDbBlockBegin
  2
*X57
 70
     1
 71
     0
 10
0.0
 20
0.0
 30
0.0
  3
*X57
  1

  4
*X5
  0
LINE
  5
296
330
293
100
AcDbEntity
  8
LC-006-005-----0
 62
     7
370
    25
100
AcDbLine
 10
185.586245
 20
148.816692
 30
0.0
 11
185.99456
 21
149.225007
 31
0.0
  0
LINE
  5
297
330
293
100
AcDbEntity
  8
LC-006-005-----0
 62
     7
370
    25
100
AcDbLine
 10
182.757818
 20
148.816692
 30
0.0
 11
185.99456
 21
152.053434
 31
0.0
  0
LINE
  5
298
330
293
100
AcDbEntity
  8
LC-006-005-----0
 62
     7
370
    25
100
AcDbLine
 10
181.99456
 20
150.881861
 30
0.0
 11
185.99456
 21
154.881861
 31
0.0
  0
LINE
  5
299
330
293
100
AcDbEntity
  8
LC-006-005-----0
 62
     7
370
    25
100
AcDbLine
 10
181.99456
 20
153.710289
 30
0.0
 11
185.99456
 21
157.710289
 31
0.0
  0
LINE
  5
29A
330
293
100
AcDbEntity
  8
LC-006-005-----0
 62
     7
370
    25
100
AcDbLine
 10
181.99456
 20
156.538716
 30
0.0
 11
185.99456
 21
160.538716
 31
0.0
  0
LINE
  5
29B
330
293
100
AcDbEntity
  8
LC-006-005-----0
 62
     7
370
    25
100
AcDbLine
 10
181.99456
 20
159.367143
 30
0.0
 11
185.99456
 21
163.367143
 31
0.0
  0
LINE
  5
29C
330
293
100
AcDbEntity
  8
LC-006-005-----0
 62
     7
370
    25
100
AcDbLine
 10
181.99456
 20
162.19557
 30
0.0
 11
185.99456
 21
166.19557
 31
0.0
  0
LINE
  5
29D
330
293
100
AcDbEntity
  8
LC-006-005-----0
 62
     7
370
    25
100
AcDbLine
 10
181.99456
 20
165.023997
 30
0.0
 11
185.99456
 21
169.023997
 31
0.0
  0
LINE
  5
29E
330
293
100
AcDbEntity
  8
LC-006-005-----0
 62
     7
370
    25
100
AcDbLine
 10
181.99456
 20
167.852424
 30
0.0
 11
185.99456
 21
171.852424
 31
0.0
  0
LINE
  5
29F
330
293
100
AcDbEntity
  8
LC-006-005-----0
 62
     7
370
    25
100
AcDbLine
 10
181.99456
 20
170.680851
 30
0.0
 11
185.99456
 21
174.680851
 31
0.0
  0
LINE
  5
2A0
330
293
100
AcDbEntity
  8
LC-006-005-----0
 62
     7
370
    25
100
AcDbLine
 10
181.99456
 20
173.509278
 30
0.0
 11
185.99456
 21
177.509278
 31
0.0
  0
LINE
  5
2A1
330
293
100
AcDbEntity
  8
LC-006-005-----0
 62
     7
370
    25
100
AcDbLine
 10
181.99456
 20
176.337706
 30
0.0
 11
185.99456
 21
180.337706
 31
0.0
  0
LINE
  5
2A2
330
293
100
AcDbEntity
  8
LC-006-005-----0
 62
     7
370
    25
100
AcDbLine
 10
181.99456
 20
179.166133
 30
0.0
 11
185.99456
 21
183.166133
 31
0.0
  0
LINE
  5
2A3
330
293
100
AcDbEntity
  8
LC-006-005-----0
 62
     7
370
    25
100
AcDbLine
 10
181.99456
 20
181.99456
 30
0.0
 11
185.99456
 21
185.99456
 31
0.0
  0
LINE
  5
2A4
330
293
100
AcDbEntity
  8
LC-006-005-----0
 62
     7
370
    25
100
AcDbLine
 10
181.99456
 20
184.822987
 30
0.0
 11
185.99456
 21
188.822987
 31
0.0
  0
LINE
  5
2A5
330
293
100
AcDbEntity
  8
LC-006-005-----0
 62
     7
370
    25
100
AcDbLine
 10
181.99456
 20
187.651414
 30
0.0
 11
185.99456
 21
191.651414
 31
0.0
  0
LINE
  5
2A6
330
293
100
AcDbEntity
  8
LC-006-005-----0
 62
     7
370
    25
100
AcDbLine
 10
181.99456
 20
190.479841
 30
0.0
 11
185.99456
 21
194.479841
 31
0.0
  0
LINE
  5
2A7
330
293
100
AcDbEntity
  8
LC-006-005-----0
 62
     7
370
    25
100
AcDbLine
 10
181.99456
 20
193.308268
 30
0.0
 11
185.99456
 21
197.308268
 31
0.0
  0
LINE
  5
2A8
330
293
100
AcDbEntity
  8
LC-006-005-----0
 62
     7
370
    25
100
AcDbLine
 10
181.99456
 20
196.136695
 30
0.0
 11
185.99456
 21
200.136695
 31
0.0
  0
LINE
  5
2A9
330
293
100
AcDbEntity
  8
LC-006-005-----0
 62
     7
370
    25
100
AcDbLine
 10
181.99456
 20
198.965123
 30
0.0
 11
185.99456
 21
202.965123
 31
0.0
  0
LINE
  5
2AA
330
293
100
AcDbEntity
  8
LC-006-005-----0
 62
     7
370
    25
100
AcDbLine
 10
181.99456
 20
201.79355
 30
0.0
 11
185.99456
 21
205.79355
 31
0.0
  0
LINE
  5
2AB
330
293
100
AcDbEntity
  8
LC-006-005-----0
 62
     7
370
    25
100
AcDbLine
 10
181.99456
 20
204.621977
 30
0.0
 11
185.99456
 21
208.621977
 31
0.0
  0
LINE
  5
2AC
330
293
100
AcDbEntity
  8
LC-006-005-----0
 62
     7
370
    25
100
AcDbLine
 10
181.99456
 20
207.450404
 30
0.0
 11
185.99456
 21
211.450404
 31
0.0
  0
LINE
  5
2AD
330
293
100
AcDbEntity
  8
LC-006-005-----0
 62
     7
370
    25
100
AcDbLine
 10
181.99456
 20
210.278831
 30
0.0
 11
185.99456
 21
214.278831
 31
0.0
  0
LINE
  5
2AE
330
293
100
AcDbEntity
  8
LC-006-005-----0
 62
     7
370
    25
100
AcDbLine
 10
181.99456
 20
213.107258
 30
0.0
 11
185.99456
 21
217.107258
 31
0.0
  0
LINE
  5
2AF
330
293
100
AcDbEntity
  8
LC-006-005-----0
 62
     7
370
    25
100
AcDbLine
 10
181.99456
 20
215.935685
 30
0.0
 11
185.99456
 21
219.935685
 31
0.0
  0
LINE
  5
2B0
330
293
100
AcDbEntity
  8
LC-006-005-----0
 62
     7
370
    25
100
AcDbLine
 10
181.99456
 20
218.764112
 30
0.0
 11
185.99456
 21
222.764112
 31
0.0
  0
LINE
  5
2B1
330
293
100
AcDbEntity
  8
LC-006-005-----0
 62
     7
370
    25
100
AcDbLine
 10
181.99456
 20
221.59254
 30
0.0
 11
185.99456
 21
225.59254
 31
0.0
  0
LINE
  5
2B2
330
293
100
AcDbEntity
  8
LC-006-005-----0
 62
     7
370
    25
100
AcDbLine
 10
181.99456
 20
224.420967
 30
0.0
 11
185.99456
 21
228.420967
 31
0.0
  0
LINE
  5
2B3
330
293
100
AcDbEntity
  8
LC-006-005-----0
 62
     7
370
    25
100
AcDbLine
 10
181.99456
 20
227.249394
 30
0.0
 11
185.99456
 21
231.249394
 31
0.0
  0
LINE
  5
2B4
330
293
100
AcDbEntity
  8
LC-006-005-----0
 62
     7
370
    25
100
AcDbLine
 10
181.99456
 20
230.077821
 30
0.0
 11
185.99456
 21
234.077821
 31
0.0
  0
LINE
  5
2B5
330
293
100
AcDbEntity
  8
LC-006-005-----0
 62
     7
370
    25
100
AcDbLine
 10
181.99456
 20
232.906248
 30
0.0
 11
185.99456
 21
236.906248
 31
0.0
  0
LINE
  5
2B6
330
293
100
AcDbEntity
  8
LC-006-005-----0
 62
     7
370
    25
100
AcDbLine
 10
181.99456
 20
235.734675
 30
0.0
 11
185.99456
 21
239.734675
 31
0.0
  0
LINE
  5
2B7
330
293
100
AcDbEntity
  8
LC-006-005-----0
 62
     7
370
    25
100
AcDbLine
 10
181.99456
 20
238.563102
 30
0.0
 11
185.99456
 21
242.563102
 31
0.0
  0
LINE
  5
2B8
330
293
100
AcDbEntity
  8
LC-006-005-----0
 62
     7
370
    25
100
AcDbLine
 10
181.99456
 20
241.391529
 30
0.0
 11
185.99456
 21
245.391529
 31
0.0
  0
LINE
  5
2B9
330
293
100
AcDbEntity
  8
LC-006-005-----0
 62
     7
370
    25
100
AcDbLine
 10
181.99456
 20
244.219957
 30
0.0
 11
185.99456
 21
248.219957
 31
0.0
  0
LINE
  5
2BA
330
293
100
AcDbEntity
  8
LC-006-005-----0
 62
     7
370
    25
100
AcDbLine
 10
181.99456
 20
247.048384
 30
0.0
 11
185.99456
 21
251.048384
 31
0.0
  0
LINE
  5
2BB
330
293
100
AcDbEntity
  8
LC-006-005-----0
 62
     7
370
    25
100
AcDbLine
 10
181.99456
 20
249.876811
 30
0.0
 11
185.99456
 21
253.876811
 31
0.0
  0
LINE
  5
2BC
330
293
100
AcDbEntity
  8
LC-006-005-----0
 62
     7
370
    25
100
AcDbLine
 10
181.99456
 20
252.705238
 30
0.0
 11
185.99456
 21
256.705238
 31
0.0
  0
LINE
  5
2BD
330
293
100
AcDbEntity
  8
LC-006-005-----0
 62
     7
370
    25
100
AcDbLine
 10
181.99456
 20
255.533665
 30
0.0
 11
185.277585
 21
258.81669
 31
0.0
  0
LINE
  5
2BE
330
293
100
AcDbEntity
  8
LC-006-005-----0
 62
     7
370
    25
100
AcDbLine
 10
181.99456
 20
258.362092
 30
0.0
 11
182.449158
 21
258.81669
 31
0.0
  0
ENDBLK
  5
295
330
293
100
AcDbEntity
  8
0
100
AcDbBlockEnd
  0
BLOCK
  5
2C1
330
2C0
100
AcDbEntity
  8
0
100
AcDbBlockBegin
  2
*X68
 70
     1
 71
     0
 10
0.0
 20
0.0
 30
0.0
  3
*X68
  1

  4
*X6
  0
LINE
  5
2C3
330
2C0
100
AcDbEntity
  8
LC-006-005-----0
 62
     7
370
    25
100
AcDbLine
 10
264.782204
 20
148.816692
 30
0.0
 11
264.99456
 21
149.029048
 31
0.0
  0
LINE
  5
2C4
330
2C0
100
AcDbEntity
  8
LC-006-005-----0
 62
     7
370
    25
100
AcDbLine
 10
261.953777
 20
148.816692
 30
0.0
 11
264.99456
 21
151.857475
 31
0.0
  0
LINE
  5
2C5
330
2C0
100
AcDbEntity
  8
LC-006-005-----0
 62
     7
370
    25
100
AcDbLine
 10
260.99456
 20
150.685902
 30
0.0
 11
264.99456
 21
154.685902
 31
0.0
  0
LINE
  5
2C6
330
2C0
100
AcDbEntity
  8
LC-006-005-----0
 62
     7
370
    25
100
AcDbLine
 10
260.99456
 20
153.514329
 30
0.0
 11
264.99456
 21
157.514329
 31
0.0
  0
LINE
  5
2C7
330
2C0
100
AcDbEntity
  8
LC-006-005-----0
 62
     7
370
    25
100
AcDbLine
 10
260.99456
 20
156.342756
 30
0.0
 11
264.99456
 21
160.342756
 31
0.0
  0
LINE
  5
2C8
330
2C0
100
AcDbEntity
  8
LC-006-005-----0
 62
     7
370
    25
100
AcDbLine
 10
260.99456
 20
159.171183
 30
0.0
 11
264.99456
 21
163.171183
 31
0.0
  0
LINE
  5
2C9
330
2C0
100
AcDbEntity
  8
LC-006-005-----0
 62
     7
370
    25
100
AcDbLine
 10
260.99456
 20
161.99961
 30
0.0
 11
264.99456
 21
165.99961
 31
0.0
  0
LINE
  5
2CA
330
2C0
100
AcDbEntity
  8
LC-006-005-----0
 62
     7
370
    25
100
AcDbLine
 10
260.99456
 20
164.828038
 30
0.0
 11
264.99456
 21
168.828038
 31
0.0
  0
LINE
  5
2CB
330
2C0
100
AcDbEntity
  8
LC-006-005-----0
 62
     7
370
    25
100
AcDbLine
 10
260.99456
 20
167.656465
 30
0.0
 11
264.99456
 21
171.656465
 31
0.0
  0
LINE
  5
2CC
330
2C0
100
AcDbEntity
  8
LC-006-005-----0
 62
     7
370
    25
100
AcDbLine
 10
260.99456
 20
170.484892
 30
0.0
 11
264.99456
 21
174.484892
 31
0.0
  0
LINE
  5
2CD
330
2C0
100
AcDbEntity
  8
LC-006-005-----0
 62
     7
370
    25
100
AcDbLine
 10
260.99456
 20
173.313319
 30
0.0
 11
264.99456
 21
177.313319
 31
0.0
  0
LINE
  5
2CE
330
2C0
100
AcDbEntity
  8
LC-006-005-----0
 62
     7
370
    25
100
AcDbLine
 10
260.99456
 20
176.141746
 30
0.0
 11
264.99456
 21
180.141746
 31
0.0
  0
LINE
  5
2CF
330
2C0
100
AcDbEntity
  8
LC-006-005-----0
 62
     7
370
    25
100
AcDbLine
 10
260.99456
 20
178.970173
 30
0.0
 11
264.99456
 21
182.970173
 31
0.0
  0
LINE
  5
2D0
330
2C0
100
AcDbEntity
  8
LC-006-005-----0
 62
     7
370
    25
100
AcDbLine
 10
260.99456
 20
181.7986
 30
0.0
 11
264.99456
 21
185.7986
 31
0.0
  0
LINE
  5
2D1
330
2C0
100
AcDbEntity
  8
LC-006-005-----0
 62
     7
370
    25
100
AcDbLine
 10
260.99456
 20
184.627027
 30
0.0
 11
264.99456
 21
188.627027
 31
0.0
  0
LINE
  5
2D2
330
2C0
100
AcDbEntity
  8
LC-006-005-----0
 62
     7
370
    25
100
AcDbLine
 10
260.99456
 20
187.455455
 30
0.0
 11
264.99456
 21
191.455455
 31
0.0
  0
LINE
  5
2D3
330
2C0
100
AcDbEntity
  8
LC-006-005-----0
 62
     7
370
    25
100
AcDbLine
 10
260.99456
 20
190.283882
 30
0.0
 11
264.99456
 21
194.283882
 31
0.0
  0
LINE
  5
2D4
330
2C0
100
AcDbEntity
  8
LC-006-005-----0
 62
     7
370
    25
100
AcDbLine
 10
260.99456
 20
193.112309
 30
0.0
 11
264.99456
 21
197.112309
 31
0.0
  0
LINE
  5
2D5
330
2C0
100
AcDbEntity
  8
LC-006-005-----0
 62
     7
370
    25
100
AcDbLine
 10
260.99456
 20
195.940736
 30
0.0
 11
264.99456
 21
199.940736
 31
0.0
  0
LINE
  5
2D6
330
2C0
100
AcDbEntity
  8
LC-006-005-----0
 62
     7
370
    25
100
AcDbLine
 10
260.99456
 20
198.769163
 30
0.0
 11
264.99456
 21
202.769163
 31
0.0
  0
LINE
  5
2D7
330
2C0
100
AcDbEntity
  8
LC-006-005-----0
 62
     7
370
    25
100
AcDbLine
 10
260.99456
 20
201.59759
 30
0.0
 11
264.99456
 21
205.59759
 31
0.0
  0
LINE
  5
2D8
330
2C0
100
AcDbEntity
  8
LC-006-005-----0
 62
     7
370
    25
100
AcDbLine
 10
260.99456
 20
204.426017
 30
0.0
 11
264.99456
 21
208.426017
 31
0.0
  0
LINE
  5
2D9
330
2C0
100
AcDbEntity
  8
LC-006-005-----0
 62
     7
370
    25
100
AcDbLine
 10
260.99456
 20
207.254444
 30
0.0
 11
264.99456
 21
211.254444
 31
0.0
  0
LINE
  5
2DA
330
2C0
100
AcDbEntity
  8
LC-006-005-----0
 62
     7
370
    25
100
AcDbLine
 10
260.99456
 20
210.082872
 30
0.0
 11
264.99456
 21
214.082872
 31
0.0
  0
LINE
  5
2DB
330
2C0
100
AcDbEntity
  8
LC-006-005-----0
 62
     7
370
    25
100
AcDbLine
 10
260.99456
 20
212.911299
 30
0.0
 11
264.99456
 21
216.911299
 31
0.0
  0
LINE
  5
2DC
330
2C0
100
AcDbEntity
  8
LC-006-005-----0
 62
     7
370
    25
100
AcDbLine
 10
260.99456
 20
215.739726
 30
0.0
 11
264.99456
 21
219.739726
 31
0.0
  0
LINE
  5
2DD
330
2C0
100
AcDbEntity
  8
LC-006-005-----0
 62
     7
370
    25
100
AcDbLine
 10
260.99456
 20
218.568153
 30
0.0
 11
264.99456
 21
222.568153
 31
0.0
  0
LINE
  5
2DE
330
2C0
100
AcDbEntity
  8
LC-006-005-----0
 62
     7
370
    25
100
AcDbLine
 10
260.99456
 20
221.39658
 30
0.0
 11
264.99456
 21
225.39658
 31
0.0
  0
LINE
  5
2DF
330
2C0
100
AcDbEntity
  8
LC-006-005-----0
 62
     7
370
    25
100
AcDbLine
 10
260.99456
 20
224.225007
 30
0.0
 11
264.99456
 21
228.225007
 31
0.0
  0
LINE
  5
2E0
330
2C0
100
AcDbEntity
  8
LC-006-005-----0
 62
     7
370
    25
100
AcDbLine
 10
260.99456
 20
227.053434
 30
0.0
 11
264.99456
 21
231.053434
 31
0.0
  0
LINE
  5
2E1
330
2C0
100
AcDbEntity
  8
LC-006-005-----0
 62
     7
370
    25
100
AcDbLine
 10
260.99456
 20
229.881861
 30
0.0
 11
264.99456
 21
233.881861
 31
0.0
  0
LINE
  5
2E2
330
2C0
100
AcDbEntity
  8
LC-006-005-----0
 62
     7
370
    25
100
AcDbLine
 10
260.99456
 20
232.710289
 30
0.0
 11
264.99456
 21
236.710289
 31
0.0
  0
LINE
  5
2E3
330
2C0
100
AcDbEntity
  8
LC-006-005-----0
 62
     7
370
    25
100
AcDbLine
 10
260.99456
 20
235.538716
 30
0.0
 11
264.99456
 21
239.538716
 31
0.0
  0
LINE
  5
2E4
330
2C0
100
AcDbEntity
  8
LC-006-005-----0
 62
     7
370
    25
100
AcDbLine
 10
260.99456
 20
238.367143
 30
0.0
 11
264.99456
 21
242.367143
 31
0.0
  0
LINE
  5
2E5
330
2C0
100
AcDbEntity
  8
LC-006-005-----0
 62
     7
370
    25
100
AcDbLine
 10
260.99456
 20
241.19557
 30
0.0
 11
264.99456
 21
245.19557
 31
0.0
  0
LINE
  5
2E6
330
2C0
100
AcDbEntity
  8
LC-006-005-----0
 62
     7
370
    25
100
AcDbLine
 10
260.99456
 20
244.023997
 30
0.0
 11
264.99456
 21
248.023997
 31
0.0
  0
LINE
  5
2E7
330
2C0
100
AcDbEntity
  8
LC-006-005-----0
 62
     7
370
    25
100
AcDbLine
 10
260.99456
 20
246.852424
 30
0.0
 11
264.99456
 21
250.852424
 31
0.0
  0
LINE
  5
2E8
330
2C0
100
AcDbEntity
  8
LC-006-005-----0
 62
     7
370
    25
100
AcDbLine
 10
260.99456
 20
249.680851
 30
0.0
 11
264.99456
 21
253.680851
 31
0.0
  0
LINE
  5
2E9
330
2C0
100
AcDbEntity
  8
LC-006-005-----0
 62
     7
370
    25
100
AcDbLine
 10
260.99456
 20
252.509278
 30
0.0
 11
264.99456
 21
256.509278
 31
0.0
  0
LINE
  5
2EA
330
2C0
100
AcDbEntity
  8
LC-006-005-----0
 62
     7
370
    25
100
AcDbLine
 10
260.99456
 20
255.337706
 30
0.0
 11
264.473544
 21
258.81669
 31
0.0
  0
LINE
  5
2EB
330
2C0
100
AcDbEntity
  8
LC-006-005-----0
 62
     7
370
    25
100
AcDbLine
 10
260.99456
 20
258.166133
 30
0.0
 11
261.645117
 21
258.81669
 31
0.0
  0
ENDBLK
  5
2C2
330
2C0
100
AcDbEntity
  8
0
100
AcDbBlockEnd
  0
BLOCK
  5
2F8
330
2EE
100
AcDbEntity
  8
0
100
AcDbBlockBegin
  2
*D9
 70
     1
 71
     0
 10
0.0
 20
0.0
 30
0.0
  3
*D9
  1

  0
LINE
  5
2EF
330
2EE
100
AcDbEntity
  8
LC-008-003-----0
 62
     2
370
    -2
100
AcDbLine
 10
72.742817
 20
369.66738
 30
0.0
 11
72.742817
 21
442.566
 31
0.0
  0
LINE
  5
2F0
330
2EE
100
AcDbEntity
  8
LC-008-003-----0
 62
     2
370
    -2
100
AcDbLine
 10
374.254017
 20
369.66738
 30
0.0
 11
374.254017
 21
442.566
 31
0.0
  0
LINE
  5
2F1
330
2EE
100
AcDbEntity
  8
LC-008-003-----0
 62
     2
370
    -2
100
AcDbLine
 10
100.742817
 20
438.966
 30
0.0
 11
346.254017
 21
438.966
 31
0.0
  0
SOLID
  5
2F2
330
2EE
100
AcDbEntity
  8
LC-008-003-----0
 62
     2
100
AcDbTrace
 10
100.742817
 20
443.632667
 30
0.0
 11
100.742817
 21
434.299333
 31
0.0
 12
72.742817
 22
438.966
 32
0.0
 13
72.742817
 23
438.966
 33
0.0
  0
SOLID
  5
2F3
330
2EE
100
AcDbEntity
  8
LC-008-003-----0
 62
     2
100
AcDbTrace
 10
346.254017
 20
434.299333
 30
0.0
 11
346.254017
 21
443.632667
 31
0.0
 12
374.254017
 22
438.966
 32
0.0
 13
374.254017
 23
438.966
 33
0.0
  0
MTEXT
  5
2F4
330
2EE
100
AcDbEntity
  8
LC-008-003-----0
 62
     2
100
AcDbMText
 10
223.498417
 20
469.766
 30
0.0
 40
28.0
 41
0.0
 71
     5
 72
     1
  1
\A1;%%c300
  7
LCTX15-400-0-0pDIN-Schrift
 73
     1
 44
1.0
  0
POINT
  5
2F5
330
2EE
100
AcDbEntity
  8
Defpoints
 62
     0
100
AcDbPoint
 10
72.742817
 20
369.66738
 30
0.0
  0
POINT
  5
2F6
330
2EE
100
AcDbEntity
  8
Defpoints
 62
     0
100
AcDbPoint
 10
374.254017
 20
369.66738
 30
0.0
  0
POINT
  5
2F7
330
2EE
100
AcDbEntity
  8
Defpoints
 62
     0
100
AcDbPoint
 10
374.254017
 20
438.966
 30
0.0
  0
ENDBLK
  5
2F9
330
2EE
100
AcDbEntity
  8
0
100
AcDbBlockEnd
  0
BLOCK
  5
305
330
2FB
100
AcDbEntity
  8
0
100
AcDbBlockBegin
  2
*D10
 70
     1
 71
     0
 10
0.0
 20
0.0
 30
0.0
  3
*D10
  1

  0
LINE
  5
2FC
330
2FB
100
AcDbEntity
  8
LC-008-003-----0
 62
     2
370
    -2
100
AcDbLine
 10
128.601916
 20
359.62344
 30
0.0
 11
128.602228
 21
396.234686
 31
0.0
  0
LINE
  5
2FD
330
2FB
100
AcDbEntity
  8
LC-008-003-----0
 62
     2
370
    -2
100
AcDbLine
 10
318.394834
 20
359.621836
 30
0.0
 11
318.395146
 21
396.233069
 31
0.0
  0
LINE
  5
2FE
330
2FB
100
AcDbEntity
  8
LC-008-003-----0
 62
     2
370
    -2
100
AcDbLine
 10
156.602197
 20
392.634447
 30
0.0
 11
290.395116
 21
392.633307
 31
0.0
  0
SOLID
  5
2FF
330
2FB
100
AcDbEntity
  8
LC-008-003-----0
 62
     2
100
AcDbTrace
 10
156.602237
 20
397.301114
 30
0.0
 11
156.602157
 21
387.967781
 31
0.0
 12
128.602197
 22
392.634686
 32
0.0
 13
128.602197
 23
392.634686
 33
0.0
  0
SOLID
  5
300
330
2FB
100
AcDbEntity
  8
LC-008-003-----0
 62
     2
100
AcDbTrace
 10
290.395076
 20
387.966641
 30
0.0
 11
290.395155
 21
397.299974
 31
0.0
 12
318.395116
 22
392.633069
 32
0.0
 13
318.395116
 23
392.633069
 33
0.0
  0
MTEXT
  5
301
330
2FB
100
AcDbEntity
  8
LC-008-003-----0
 62
     2
100
AcDbMText
 10
223.498916
 20
423.433877
 30
0.0
 40
28.0
 41
0.0
 71
     5
 72
     1
  1
\A1;%%c190
  7
LCTX15-400-0-0pDIN-Schrift
 11
0.9999999999636868
 21
-8.522115488105099E-6
 31
0.0
 73
     1
 44
1.0
  0
POINT
  5
302
330
2FB
100
AcDbEntity
  8
Defpoints
 62
     0
100
AcDbPoint
 10
128.601916
 20
359.62344
 30
0.0
  0
POINT
  5
303
330
2FB
100
AcDbEntity
  8
Defpoints
 62
     0
100
AcDbPoint
 10
318.394834
 20
359.621836
 30
0.0
  0
POINT
  5
304
330
2FB
100
AcDbEntity
  8
Defpoints
 62
     0
100
AcDbPoint
 10
318.395116
 20
392.633069
 30
0.0
  0
ENDBLK
  5
306
330
2FB
100
AcDbEntity
  8
0
100
AcDbBlockEnd
  0
BLOCK
  5
312
330
308
100
AcDbEntity
  8
0
100
AcDbBlockBegin
  2
*D11
 70
     1
 71
     0
 10
0.0
 20
0.0
 30
0.0
  3
*D11
  1

  0
LINE
  5
309
330
308
100
AcDbEntity
  8
LC-008-003-----0
 62
     2
370
    -2
100
AcDbLine
 10
72.742817
 20
366.666923
 30
0.0
 11
51.373633
 21
366.666923
 31
0.0
  0
LINE
  5
30A
330
308
100
AcDbEntity
  8
LC-008-003-----0
 62
     2
370
    -2
100
AcDbLine
 10
154.99456
 20
258.816696
 30
0.0
 11
51.373633
 21
258.816696
 31
0.0
  0
LINE
  5
30B
330
308
100
AcDbEntity
  8
LC-008-003-----0
 62
     2
370
    -2
100
AcDbLine
 10
54.973633
 20
338.666923
 30
0.0
 11
54.973633
 21
286.816696
 31
0.0
  0
SOLID
  5
30C
330
308
100
AcDbEntity
  8
LC-008-003-----0
 62
     2
100
AcDbTrace
 10
59.6403
 20
338.666923
 30
0.0
 11
50.306967
 21
338.666923
 31
0.0
 12
54.973633
 22
366.666923
 32
0.0
 13
54.973633
 23
366.666923
 33
0.0
  0
SOLID
  5
30D
330
308
100
AcDbEntity
  8
LC-008-003-----0
 62
     2
100
AcDbTrace
 10
50.306967
 20
286.816696
 30
0.0
 11
59.6403
 21
286.816696
 31
0.0
 12
54.973633
 22
258.816696
 32
0.0
 13
54.973633
 23
258.816696
 33
0.0
  0
MTEXT
  5
30E
330
308
100
AcDbEntity
  8
LC-008-003-----0
 62
     2
100
AcDbMText
 10
24.173633
 20
312.741809
 30
0.0
 40
28.0
 41
0.0
 71
     5
 72
     1
  1
\A1;110
  7
LCTX15-400-0-0pDIN-Schrift
 11
6.123031769111886E-17
 21
1.0
 31
0.0
 73
     1
 44
1.0
  0
POINT
  5
30F
330
308
100
AcDbEntity
  8
Defpoints
 62
     0
100
AcDbPoint
 10
72.742817
 20
366.666923
 30
0.0
  0
POINT
  5
310
330
308
100
AcDbEntity
  8
Defpoints
 62
     0
100
AcDbPoint
 10
154.99456
 20
258.816696
 30
0.0
  0
POINT
  5
311
330
308
100
AcDbEntity
  8
Defpoints
 62
     0
100
AcDbPoint
 10
54.973633
 20
258.816696
 30
0.0
  0
ENDBLK
  5
313
330
308
100
AcDbEntity
  8
0
100
AcDbBlockEnd
  0
BLOCK
  5
31F
330
315
100
AcDbEntity
  8
0
100
AcDbBlockBegin
  2
*D12
 70
     1
 71
     0
 10
0.0
 20
0.0
 30
0.0
  3
*D12
  1

  0
LINE
  5
316
330
315
100
AcDbEntity
  8
LC-008-003-----0
 62
     2
370
    -2
100
AcDbLine
 10
154.99456
 20
258.816696
 30
0.0
 11
51.373633
 21
258.816696
 31
0.0
  0
LINE
  5
317
330
315
100
AcDbEntity
  8
LC-008-003-----0
 62
     2
370
    -2
100
AcDbLine
 10
181.99456
 20
148.816692
 30
0.0
 11
51.373633
 21
148.816692
 31
0.0
  0
LINE
  5
318
330
315
100
AcDbEntity
  8
LC-008-003-----0
 62
     2
370
    -2
100
AcDbLine
 10
54.973633
 20
230.816696
 30
0.0
 11
54.973633
 21
176.816692
 31
0.0
  0
SOLID
  5
319
330
315
100
AcDbEntity
  8
LC-008-003-----0
 62
     2
100
AcDbTrace
 10
59.6403
 20
230.816696
 30
0.0
 11
50.306967
 21
230.816696
 31
0.0
 12
54.973633
 22
258.816696
 32
0.0
 13
54.973633
 23
258.816696
 33
0.0
  0
SOLID
  5
31A
330
315
100
AcDbEntity
  8
LC-008-003-----0
 62
     2
100
AcDbTrace
 10
50.306967
 20
176.816692
 30
0.0
 11
59.6403
 21
176.816692
 31
0.0
 12
54.973633
 22
148.816692
 32
0.0
 13
54.973633
 23
148.816692
 33
0.0
  0
MTEXT
  5
31B
330
315
100
AcDbEntity
  8
LC-008-003-----0
 62
     2
100
AcDbMText
 10
24.173633
 20
203.816694
 30
0.0
 40
28.0
 41
0.0
 71
     5
 72
     1
  1
\A1;110
  7
LCTX15-400-0-0pDIN-Schrift
 11
6.123031769111886E-17
 21
1.0
 31
0.0
 73
     1
 44
1.0
  0
POINT
  5
31C
330
315
100
AcDbEntity
  8
Defpoints
 62
     0
100
AcDbPoint
 10
154.99456
 20
258.816696
 30
0.0
  0
POINT
  5
31D
330
315
100
AcDbEntity
  8
Defpoints
 62
     0
100
AcDbPoint
 10
181.99456
 20
148.816692
 30
0.0
  0
POINT
  5
31E
330
315
100
AcDbEntity
  8
Defpoints
 62
     0
100
AcDbPoint
 10
54.973633
 20
148.816692
 30
0.0
  0
ENDBLK
  5
320
330
315
100
AcDbEntity
  8
0
100
AcDbBlockEnd
  0
BLOCK
  5
32E
330
322
100
AcDbEntity
  8
0
100
AcDbBlockBegin
  2
*D13
 70
     1
 71
     0
 10
0.0
 20
0.0
 30
0.0
  3
*D13
  1

  0
LINE
  5
323
330
322
100
AcDbEntity
  8
LC-008-003-----0
 62
     2
370
    -2
100
AcDbLine
 10
181.96342
 20
287.316693
 30
0.0
 11
112.394293
 21
287.316693
 31
0.0
  0
LINE
  5
324
330
322
100
AcDbEntity
  8
LC-008-003-----0
 62
     2
370
    -2
100
AcDbLine
 10
192.205702
 20
336.816696
 30
0.0
 11
112.394293
 21
336.816696
 31
0.0
  0
LINE
  5
325
330
322
100
AcDbEntity
  8
LC-008-003-----0
 62
     2
370
    -2
100
AcDbLine
 10
115.994293
 20
259.316693
 30
0.0
 11
115.994293
 21
231.316693
 31
0.0
  0
LINE
  5
326
330
322
100
AcDbEntity
  8
LC-008-003-----0
 62
     2
370
    -2
100
AcDbLine
 10
115.994293
 20
364.816696
 30
0.0
 11
115.994293
 21
392.816696
 31
0.0
  0
LINE
  5
327
330
322
100
AcDbEntity
  8
LC-008-003-----0
 62
     2
370
    -2
100
AcDbLine
 10
115.994293
 20
287.316693
 30
0.0
 11
115.994293
 21
336.816696
 31
0.0
  0
SOLID
  5
328
330
322
100
AcDbEntity
  8
LC-008-003-----0
 62
     2
100
AcDbTrace
 10
120.66096
 20
259.316693
 30
0.0
 11
111.327627
 21
259.316693
 31
0.0
 12
115.994293
 22
287.316693
 32
0.0
 13
115.994293
 23
287.316693
 33
0.0
  0
SOLID
  5
329
330
322
100
AcDbEntity
  8
LC-008-003-----0
 62
     2
100
AcDbTrace
 10
111.327627
 20
364.816696
 30
0.0
 11
120.66096
 21
364.816696
 31
0.0
 12
115.994293
 22
336.816696
 32
0.0
 13
115.994293
 23
336.816696
 33
0.0
  0
MTEXT
  5
32A
330
322
100
AcDbEntity
  8
LC-008-003-----0
 62
     2
100
AcDbMText
 10
85.194293
 20
312.066695
 30
0.0
 40
28.0
 41
0.0
 71
     5
 72
     1
  1
\A1;50
  7
LCTX15-400-0-0pDIN-Schrift
 11
6.123031769111886E-17
 21
1.0
 31
0.0
 73
     1
 44
1.0
  0
POINT
  5
32B
330
322
100
AcDbEntity
  8
Defpoints
 62
     0
100
AcDbPoint
 10
181.96342
 20
287.316693
 30
0.0
  0
POINT
  5
32C
330
322
100
AcDbEntity
  8
Defpoints
 62
     0
100
AcDbPoint
 10
192.205702
 20
336.816696
 30
0.0
  0
POINT
  5
32D
330
322
100
AcDbEntity
  8
Defpoints
 62
     0
100
AcDbPoint
 10
115.994293
 20
336.816696
 30
0.0
  0
ENDBLK
  5
32F
330
322
100
AcDbEntity
  8
0
100
AcDbBlockEnd
  0
BLOCK
  5
33D
330
33C
100
AcDbEntity
  8
0
100
AcDbBlockBegin
  2
*X714
 70
     1
 71
     0
 10
0.0
 20
0.0
 30
0.0
  3
*X714
  1

  4
*X7
  0
LINE
  5
33F
330
33C
100
AcDbEntity
  8
LC-006-005-----0
 62
     7
370
    25
100
AcDbLine
 10
143.12763
 20
352.431238
 30
0.0
 11
143.595977
 21
352.899584
 31
0.0
  0
LINE
  5
340
330
33C
100
AcDbEntity
  8
LC-006-005-----0
 62
     7
370
    25
100
AcDbLine
 10
137.981901
 20
350.113935
 30
0.0
 11
138.718221
 21
350.850255
 31
0.0
  0
LINE
  5
341
330
33C
100
AcDbEntity
  8
LC-006-005-----0
 62
     7
370
    25
100
AcDbLine
 10
141.053916
 20
353.185951
 30
0.0
 11
142.231114
 21
354.363148
 31
0.0
  0
LINE
  5
342
330
33C
100
AcDbEntity
  8
LC-006-005-----0
 62
     7
370
    25
100
AcDbLine
 10
136.46158
 20
351.422041
 30
0.0
 11
140.866252
 21
355.826713
 31
0.0
  0
LINE
  5
343
330
33C
100
AcDbEntity
  8
LC-006-005-----0
 62
     7
370
    25
100
AcDbLine
 10
136.461569
 20
354.250457
 30
0.0
 11
139.501389
 21
357.290278
 31
0.0
  0
LINE
  5
344
330
33C
100
AcDbEntity
  8
LC-006-005-----0
 62
     7
370
    25
100
AcDbLine
 10
142.050211
 20
359.839099
 30
0.0
 11
142.886784
 21
360.675673
 31
0.0
  0
LINE
  5
345
330
33C
100
AcDbEntity
  8
LC-006-005-----0
 62
     7
370
    25
100
AcDbLine
 10
136.461557
 20
357.078873
 30
0.0
 11
138.717981
 21
359.335297
 31
0.0
  0
LINE
  5
346
330
33C
100
AcDbEntity
  8
LC-006-005-----0
 62
     7
370
    25
100
AcDbLine
 10
139.974381
 20
360.591696
 30
0.0
 11
141.521922
 21
362.139237
 31
0.0
  0
LINE
  5
347
330
33C
100
AcDbEntity
  8
LC-006-005-----0
 62
     7
370
    25
100
AcDbLine
 10
133.619632
 20
357.065374
 30
0.0
 11
134.74361
 21
358.189353
 31
0.0
  0
LINE
  5
348
330
33C
100
AcDbEntity
  8
LC-006-005-----0
 62
     7
370
    25
100
AcDbLine
 10
136.461546
 20
359.907289
 30
0.0
 11
140.157059
 21
363.602802
 31
0.0
  0
LINE
  5
349
330
33C
100
AcDbEntity
  8
LC-006-005-----0
 62
     7
370
    25
100
AcDbLine
 10
131.643513
 20
357.917683
 30
0.0
 11
134.743598
 21
361.017768
 31
0.0
  0
LINE
  5
34A
330
33C
100
AcDbEntity
  8
LC-006-005-----0
 62
     7
370
    25
100
AcDbLine
 10
136.461535
 20
362.735705
 30
0.0
 11
138.792197
 21
365.066367
 31
0.0
  0
LINE
  5
34B
330
33C
100
AcDbEntity
  8
LC-006-005-----0
 62
     7
370
    25
100
AcDbLine
 10
131.602218
 20
360.704815
 30
0.0
 11
136.389912
 21
365.492509
 31
0.0
  0
LINE
  5
34C
330
33C
100
AcDbEntity
  8
LC-006-005-----0
 62
     7
370
    25
100
AcDbLine
 10
131.602206
 20
363.533231
 30
0.0
 11
133.746277
 21
365.677302
 31
0.0
  0
ENDBLK
  5
33E
330
33C
100
AcDbEntity
  8
0
100
AcDbBlockEnd
  0
BLOCK
  5
370
330
36F
100
AcDbEntity
  8
0
100
AcDbBlockBegin
  2
*X815
 70
     1
 71
     0
 10
0.0
 20
0.0
 30
0.0
  3
*X815
  1

  4
*X8
  0
LINE
  5
372
330
36F
100
AcDbEntity
  8
LC-006-005-----0
 62
     7
370
    25
100
AcDbLine
 10
148.578208
 20
340.911253
 30
0.0
 11
149.278208
 21
341.611253
 31
0.0
  0
LINE
  5
373
330
36F
100
AcDbEntity
  8
LC-006-005-----0
 62
     7
370
    25
100
AcDbLine
 10
146.465476
 20
341.626947
 30
0.0
 11
146.988102
 21
342.149574
 31
0.0
  0
LINE
  5
374
330
36F
100
AcDbEntity
  8
LC-006-005-----0
 62
     7
370
    25
100
AcDbLine
 10
148.125284
 20
343.286756
 30
0.0
 11
148.668591
 21
343.830062
 31
0.0
  0
LINE
  5
375
330
36F
100
AcDbEntity
  8
LC-006-005-----0
 62
     7
370
    25
100
AcDbLine
 10
148.044094
 20
346.033993
 30
0.0
 11
148.723753
 21
346.713652
 31
0.0
  0
LINE
  5
376
330
36F
100
AcDbEntity
  8
LC-006-005-----0
 62
     7
370
    25
100
AcDbLine
 10
146.303258
 20
347.121583
 30
0.0
 11
146.842167
 21
347.660493
 31
0.0
  0
LINE
  5
377
330
36F
100
AcDbEntity
  8
LC-006-005-----0
 62
     7
370
    25
100
AcDbLine
 10
144.789008
 20
348.435761
 30
0.0
 11
145.299403
 21
348.946156
 31
0.0
  0
LINE
  5
378
330
36F
100
AcDbEntity
  8
LC-006-005-----0
 62
     7
370
    25
100
AcDbLine
 10
144.244094
 20
350.719274
 30
0.0
 11
144.944094
 21
351.419274
 31
0.0
  0
LINE
  5
379
330
36F
100
AcDbEntity
  8
LC-006-005-----0
 62
     7
370
    25
100
AcDbLine
 10
144.244094
 20
353.547701
 30
0.0
 11
144.944094
 21
354.247701
 31
0.0
  0
LINE
  5
37A
330
36F
100
AcDbEntity
  8
LC-006-005-----0
 62
     7
370
    25
100
AcDbLine
 10
144.244094
 20
356.376128
 30
0.0
 11
144.944094
 21
357.076128
 31
0.0
  0
LINE
  5
37B
330
36F
100
AcDbEntity
  8
LC-006-005-----0
 62
     7
370
    25
100
AcDbLine
 10
144.244094
 20
359.204556
 30
0.0
 11
144.944094
 21
359.904556
 31
0.0
  0
LINE
  5
37C
330
36F
100
AcDbEntity
  8
LC-006-005-----0
 62
     7
370
    25
100
AcDbLine
 10
144.244094
 20
362.032983
 30
0.0
 11
144.944094
 21
362.732983
 31
0.0
  0
LINE
  5
37D
330
36F
100
AcDbEntity
  8
LC-006-005-----0
 62
     7
370
    25
100
AcDbLine
 10
144.191826
 20
364.809141
 30
0.0
 11
144.797323
 21
365.414639
 31
0.0
  0
LINE
  5
37E
330
36F
100
AcDbEntity
  8
LC-006-005-----0
 62
     7
370
    25
100
AcDbLine
 10
143.508246
 20
366.953989
 30
0.0
 11
144.019668
 21
367.465411
 31
0.0
  0
LINE
  5
37F
330
36F
100
AcDbEntity
  8
LC-006-005-----0
 62
     7
370
    25
100
AcDbLine
 10
142.288037
 20
368.562207
 30
0.0
 11
142.777737
 21
369.051907
 31
0.0
  0
LINE
  5
380
330
36F
100
AcDbEntity
  8
LC-006-005-----0
 62
     7
370
    25
100
AcDbLine
 10
140.606486
 20
369.709083
 30
0.0
 11
141.122781
 21
370.225378
 31
0.0
  0
LINE
  5
381
330
36F
100
AcDbEntity
  8
LC-006-005-----0
 62
     7
370
    25
100
AcDbLine
 10
138.354928
 20
370.285952
 30
0.0
 11
138.980537
 21
370.911561
 31
0.0
  0
LINE
  5
382
330
36F
100
AcDbEntity
  8
LC-006-005-----0
 62
     7
370
    25
100
AcDbLine
 10
135.711357
 20
370.470808
 30
0.0
 11
136.357316
 21
371.116768
 31
0.0
  0
LINE
  5
383
330
36F
100
AcDbEntity
  8
LC-006-005-----0
 62
     7
370
    25
100
AcDbLine
 10
133.067786
 20
370.655665
 30
0.0
 11
133.713746
 21
371.301624
 31
0.0
  0
LINE
  5
384
330
36F
100
AcDbEntity
  8
LC-006-005-----0
 62
     7
370
    25
100
AcDbLine
 10
130.424216
 20
370.840521
 30
0.0
 11
131.070175
 21
371.486481
 31
0.0
  0
LINE
  5
385
330
36F
100
AcDbEntity
  8
LC-006-005-----0
 62
     7
370
    25
100
AcDbLine
 10
127.780645
 20
371.025378
 30
0.0
 11
128.426604
 21
371.671337
 31
0.0
  0
LINE
  5
386
330
36F
100
AcDbEntity
  8
LC-006-005-----0
 62
     7
370
    25
100
AcDbLine
 10
125.137074
 20
371.210234
 30
0.0
 11
125.783034
 21
371.856194
 31
0.0
  0
LINE
  5
387
330
36F
100
AcDbEntity
  8
LC-006-005-----0
 62
     7
370
    25
100
AcDbLine
 10
122.493504
 20
371.395091
 30
0.0
 11
123.139463
 21
372.04105
 31
0.0
  0
LINE
  5
388
330
36F
100
AcDbEntity
  8
LC-006-005-----0
 62
     7
370
    25
100
AcDbLine
 10
119.889866
 20
371.61988
 30
0.0
 11
120.508672
 21
372.238686
 31
0.0
  0
LINE
  5
389
330
36F
100
AcDbEntity
  8
LC-006-005-----0
 62
     7
370
    25
100
AcDbLine
 10
117.799213
 20
372.357654
 30
0.0
 11
118.317841
 21
372.876282
 31
0.0
  0
LINE
  5
38A
330
36F
100
AcDbEntity
  8
LC-006-005-----0
 62
     7
370
    25
100
AcDbLine
 10
116.182386
 20
373.569255
 30
0.0
 11
116.677363
 21
374.064231
 31
0.0
  0
ENDBLK
  5
371
330
36F
100
AcDbEntity
  8
0
100
AcDbBlockEnd
  0
BLOCK
  5
38D
330
38C
100
AcDbEntity
  8
0
100
AcDbBlockBegin
  2
*X916
 70
     1
 71
     0
 10
0.0
 20
0.0
 30
0.0
  3
*X916
  1

  4
*X9
  0
LINE
  5
38F
330
38C
100
AcDbEntity
  8
LC-006-005-----0
 62
     7
370
    25
100
AcDbLine
 10
-16.696419
 20
369.666727
 30
0.0
 11
-16.303119
 21
370.060026
 31
0.0
  0
LINE
  5
390
330
38C
100
AcDbEntity
  8
LC-006-005-----0
 62
     7
370
    25
100
AcDbLine
 10
-17.262104
 20
369.666727
 30
0.0
 11
-16.303119
 21
370.625712
 31
0.0
  0
LINE
  5
391
330
38C
100
AcDbEntity
  8
LC-006-005-----0
 62
     7
370
    25
100
AcDbLine
 10
-17.827789
 20
369.666727
 30
0.0
 11
-16.303119
 21
371.191397
 31
0.0
  0
LINE
  5
392
330
38C
100
AcDbEntity
  8
LC-006-005-----0
 62
     7
370
    25
100
AcDbLine
 10
-18.393475
 20
369.666727
 30
0.0
 11
-16.303119
 21
371.757083
 31
0.0
  0
LINE
  5
393
330
38C
100
AcDbEntity
  8
LC-006-005-----0
 62
     7
370
    25
100
AcDbLine
 10
-18.95916
 20
369.666727
 30
0.0
 11
-16.303119
 21
372.322768
 31
0.0
  0
LINE
  5
394
330
38C
100
AcDbEntity
  8
LC-006-005-----0
 62
     7
370
    25
100
AcDbLine
 10
-19.524846
 20
369.666727
 30
0.0
 11
-16.303119
 21
372.888453
 31
0.0
  0
LINE
  5
395
330
38C
100
AcDbEntity
  8
LC-006-005-----0
 62
     7
370
    25
100
AcDbLine
 10
-20.090531
 20
369.666727
 30
0.0
 11
-16.303119
 21
373.454139
 31
0.0
  0
LINE
  5
396
330
38C
100
AcDbEntity
  8
LC-006-005-----0
 62
     7
370
    25
100
AcDbLine
 10
-20.656217
 20
369.666727
 30
0.0
 11
-16.303119
 21
374.019824
 31
0.0
  0
LINE
  5
397
330
38C
100
AcDbEntity
  8
LC-006-005-----0
 62
     7
370
    25
100
AcDbLine
 10
-21.221902
 20
369.666727
 30
0.0
 11
-16.521902
 21
374.366727
 31
0.0
  0
LINE
  5
398
330
38C
100
AcDbEntity
  8
LC-006-005-----0
 62
     7
370
    25
100
AcDbLine
 10
-21.787587
 20
369.666727
 30
0.0
 11
-17.087587
 21
374.366727
 31
0.0
  0
LINE
  5
399
330
38C
100
AcDbEntity
  8
LC-006-005-----0
 62
     7
370
    25
100
AcDbLine
 10
-22.353273
 20
369.666727
 30
0.0
 11
-17.653273
 21
374.366727
 31
0.0
  0
LINE
  5
39A
330
38C
100
AcDbEntity
  8
LC-006-005-----0
 62
     7
370
    25
100
AcDbLine
 10
-22.918958
 20
369.666727
 30
0.0
 11
-18.218958
 21
374.366727
 31
0.0
  0
LINE
  5
39B
330
38C
100
AcDbEntity
  8
LC-006-005-----0
 62
     7
370
    25
100
AcDbLine
 10
-23.484644
 20
369.666727
 30
0.0
 11
-18.784644
 21
374.366727
 31
0.0
  0
LINE
  5
39C
330
38C
100
AcDbEntity
  8
LC-006-005-----0
 62
     7
370
    25
100
AcDbLine
 10
-24.050329
 20
369.666727
 30
0.0
 11
-19.350329
 21
374.366727
 31
0.0
  0
LINE
  5
39D
330
38C
100
AcDbEntity
  8
LC-006-005-----0
 62
     7
370
    25
100
AcDbLine
 10
-24.616015
 20
369.666727
 30
0.0
 11
-19.916015
 21
374.366727
 31
0.0
  0
LINE
  5
39E
330
38C
100
AcDbEntity
  8
LC-006-005-----0
 62
     7
370
    25
100
AcDbLine
 10
-25.1817
 20
369.666727
 30
0.0
 11
-20.4817
 21
374.366727
 31
0.0
  0
LINE
  5
39F
330
38C
100
AcDbEntity
  8
LC-006-005-----0
 62
     7
370
    25
100
AcDbLine
 10
-25.747385
 20
369.666727
 30
0.0
 11
-21.047385
 21
374.366727
 31
0.0
  0
LINE
  5
3A0
330
38C
100
AcDbEntity
  8
LC-006-005-----0
 62
     7
370
    25
100
AcDbLine
 10
-26.303119
 20
369.676679
 30
0.0
 11
-21.613071
 21
374.366727
 31
0.0
  0
LINE
  5
3A1
330
38C
100
AcDbEntity
  8
LC-006-005-----0
 62
     7
370
    25
100
AcDbLine
 10
-26.303119
 20
370.242364
 30
0.0
 11
-22.178756
 21
374.366727
 31
0.0
  0
LINE
  5
3A2
330
38C
100
AcDbEntity
  8
LC-006-005-----0
 62
     7
370
    25
100
AcDbLine
 10
-26.303119
 20
370.808049
 30
0.0
 11
-22.744442
 21
374.366727
 31
0.0
  0
LINE
  5
3A3
330
38C
100
AcDbEntity
  8
LC-006-005-----0
 62
     7
370
    25
100
AcDbLine
 10
-26.303119
 20
371.373735
 30
0.0
 11
-23.310127
 21
374.366727
 31
0.0
  0
LINE
  5
3A4
330
38C
100
AcDbEntity
  8
LC-006-005-----0
 62
     7
370
    25
100
AcDbLine
 10
-26.303119
 20
371.93942
 30
0.0
 11
-23.875813
 21
374.366727
 31
0.0
  0
LINE
  5
3A5
330
38C
100
AcDbEntity
  8
LC-006-005-----0
 62
     7
370
    25
100
AcDbLine
 10
-26.303119
 20
372.505106
 30
0.0
 11
-24.441498
 21
374.366727
 31
0.0
  0
LINE
  5
3A6
330
38C
100
AcDbEntity
  8
LC-006-005-----0
 62
     7
370
    25
100
AcDbLine
 10
-26.303119
 20
373.070791
 30
0.0
 11
-25.007183
 21
374.366727
 31
0.0
  0
LINE
  5
3A7
330
38C
100
AcDbEntity
  8
LC-006-005-----0
 62
     7
370
    25
100
AcDbLine
 10
-26.303119
 20
373.636477
 30
0.0
 11
-25.572869
 21
374.366727
 31
0.0
  0
LINE
  5
3A8
330
38C
100
AcDbEntity
  8
LC-006-005-----0
 62
     7
370
    25
100
AcDbLine
 10
-26.303119
 20
374.202162
 30
0.0
 11
-26.138554
 21
374.366727
 31
0.0
  0
ENDBLK
  5
38E
330
38C
100
AcDbEntity
  8
0
100
AcDbBlockEnd
  0
BLOCK
  5
3AB
330
3AA
100
AcDbEntity
  8
0
100
AcDbBlockBegin
  2
*X1017
 70
     1
 71
     0
 10
0.0
 20
0.0
 30
0.0
  3
*X1017
  1

  4
*X10
  0
LINE
  5
3AD
330
3AA
100
AcDbEntity
  8
LC-006-005-----0
 62
     7
370
    25
100
AcDbLine
 10
3.668257
 20
369.666727
 30
0.0
 11
3.696881
 21
369.695351
 31
0.0
  0
LINE
  5
3AE
330
3AA
100
AcDbEntity
  8
LC-006-005-----0
 62
     7
370
    25
100
AcDbLine
 10
3.102571
 20
369.666727
 30
0.0
 11
3.696881
 21
370.261036
 31
0.0
  0
LINE
  5
3AF
330
3AA
100
AcDbEntity
  8
LC-006-005-----0
 62
     7
370
    25
100
AcDbLine
 10
2.536886
 20
369.666727
 30
0.0
 11
3.696881
 21
370.826722
 31
0.0
  0
LINE
  5
3B0
330
3AA
100
AcDbEntity
  8
LC-006-005-----0
 62
     7
370
    25
100
AcDbLine
 10
1.9712
 20
369.666727
 30
0.0
 11
3.696881
 21
371.392407
 31
0.0
  0
LINE
  5
3B1
330
3AA
100
AcDbEntity
  8
LC-006-005-----0
 62
     7
370
    25
100
AcDbLine
 10
1.405515
 20
369.666727
 30
0.0
 11
3.696881
 21
371.958093
 31
0.0
  0
LINE
  5
3B2
330
3AA
100
AcDbEntity
  8
LC-006-005-----0
 62
     7
370
    25
100
AcDbLine
 10
0.83983
 20
369.666727
 30
0.0
 11
3.696881
 21
372.523778
 31
0.0
  0
LINE
  5
3B3
330
3AA
100
AcDbEntity
  8
LC-006-005-----0
 62
     7
370
    25
100
AcDbLine
 10
0.274144
 20
369.666727
 30
0.0
 11
3.696881
 21
373.089464
 31
0.0
  0
LINE
  5
3B4
330
3AA
100
AcDbEntity
  8
LC-006-005-----0
 62
     7
370
    25
100
AcDbLine
 10
-0.291541
 20
369.666727
 30
0.0
 11
3.696881
 21
373.655149
 31
0.0
  0
LINE
  5
3B5
330
3AA
100
AcDbEntity
  8
LC-006-005-----0
 62
     7
370
    25
100
AcDbLine
 10
-0.857227
 20
369.666727
 30
0.0
 11
3.696881
 21
374.220834
 31
0.0
  0
LINE
  5
3B6
330
3AA
100
AcDbEntity
  8
LC-006-005-----0
 62
     7
370
    25
100
AcDbLine
 10
-1.422912
 20
369.666727
 30
0.0
 11
3.277088
 21
374.366727
 31
0.0
  0
LINE
  5
3B7
330
3AA
100
AcDbEntity
  8
LC-006-005-----0
 62
     7
370
    25
100
AcDbLine
 10
-1.988598
 20
369.666727
 30
0.0
 11
2.711402
 21
374.366727
 31
0.0
  0
LINE
  5
3B8
330
3AA
100
AcDbEntity
  8
LC-006-005-----0
 62
     7
370
    25
100
AcDbLine
 10
-2.554283
 20
369.666727
 30
0.0
 11
2.145717
 21
374.366727
 31
0.0
  0
LINE
  5
3B9
330
3AA
100
AcDbEntity
  8
LC-006-005-----0
 62
     7
370
    25
100
AcDbLine
 10
-3.119968
 20
369.666727
 30
0.0
 11
1.580032
 21
374.366727
 31
0.0
  0
LINE
  5
3BA
330
3AA
100
AcDbEntity
  8
LC-006-005-----0
 62
     7
370
    25
100
AcDbLine
 10
-3.685654
 20
369.666727
 30
0.0
 11
1.014346
 21
374.366727
 31
0.0
  0
LINE
  5
3BB
330
3AA
100
AcDbEntity
  8
LC-006-005-----0
 62
     7
370
    25
100
AcDbLine
 10
-4.251339
 20
369.666727
 30
0.0
 11
0.448661
 21
374.366727
 31
0.0
  0
LINE
  5
3BC
330
3AA
100
AcDbEntity
  8
LC-006-005-----0
 62
     7
370
    25
100
AcDbLine
 10
-4.817025
 20
369.666727
 30
0.0
 11
-0.117025
 21
374.366727
 31
0.0
  0
LINE
  5
3BD
330
3AA
100
AcDbEntity
  8
LC-006-005-----0
 62
     7
370
    25
100
AcDbLine
 10
-5.38271
 20
369.666727
 30
0.0
 11
-0.68271
 21
374.366727
 31
0.0
  0
LINE
  5
3BE
330
3AA
100
AcDbEntity
  8
LC-006-005-----0
 62
     7
370
    25
100
AcDbLine
 10
-5.948396
 20
369.666727
 30
0.0
 11
-1.248396
 21
374.366727
 31
0.0
  0
LINE
  5
3BF
330
3AA
100
AcDbEntity
  8
LC-006-005-----0
 62
     7
370
    25
100
AcDbLine
 10
-6.303119
 20
369.877689
 30
0.0
 11
-1.814081
 21
374.366727
 31
0.0
  0
LINE
  5
3C0
330
3AA
100
AcDbEntity
  8
LC-006-005-----0
 62
     7
370
    25
100
AcDbLine
 10
-6.303119
 20
370.443374
 30
0.0
 11
-2.379766
 21
374.366727
 31
0.0
  0
LINE
  5
3C1
330
3AA
100
AcDbEntity
  8
LC-006-005-----0
 62
     7
370
    25
100
AcDbLine
 10
-6.303119
 20
371.00906
 30
0.0
 11
-2.945452
 21
374.366727
 31
0.0
  0
LINE
  5
3C2
330
3AA
100
AcDbEntity
  8
LC-006-005-----0
 62
     7
370
    25
100
AcDbLine
 10
-6.303119
 20
371.574745
 30
0.0
 11
-3.511137
 21
374.366727
 31
0.0
  0
LINE
  5
3C3
330
3AA
100
AcDbEntity
  8
LC-006-005-----0
 62
     7
370
    25
100
AcDbLine
 10
-6.303119
 20
372.14043
 30
0.0
 11
-4.076823
 21
374.366727
 31
0.0
  0
LINE
  5
3C4
330
3AA
100
AcDbEntity
  8
LC-006-005-----0
 62
     7
370
    25
100
AcDbLine
 10
-6.303119
 20
372.706116
 30
0.0
 11
-4.642508
 21
374.366727
 31
0.0
  0
LINE
  5
3C5
330
3AA
100
AcDbEntity
  8
LC-006-005-----0
 62
     7
370
    25
100
AcDbLine
 10
-6.303119
 20
373.271801
 30
0.0
 11
-5.208194
 21
374.366727
 31
0.0
  0
LINE
  5
3C6
330
3AA
100
AcDbEntity
  8
LC-006-005-----0
 62
     7
370
    25
100
AcDbLine
 10
-6.303119
 20
373.837487
 30
0.0
 11
-5.773879
 21
374.366727
 31
0.0
  0
ENDBLK
  5
3AC
330
3AA
100
AcDbEntity
  8
0
100
AcDbBlockEnd
  0
BLOCK
  5
3C9
330
3C8
100
AcDbEntity
  8
0
100
AcDbBlockBegin
  2
*X1118
 70
     1
 71
     0
 10
0.0
 20
0.0
 30
0.0
  3
*X1118
  1

  4
*X11
  0
LINE
  5
3CB
330
3C8
100
AcDbEntity
  8
LC-006-005-----0
 62
     7
370
    25
100
AcDbLine
 10
23.467247
 20
369.666727
 30
0.0
 11
23.696881
 21
369.896361
 31
0.0
  0
LINE
  5
3CC
330
3C8
100
AcDbEntity
  8
LC-006-005-----0
 62
     7
370
    25
100
AcDbLine
 10
22.901561
 20
369.666727
 30
0.0
 11
23.696881
 21
370.462047
 31
0.0
  0
LINE
  5
3CD
330
3C8
100
AcDbEntity
  8
LC-006-005-----0
 62
     7
370
    25
100
AcDbLine
 10
22.335876
 20
369.666727
 30
0.0
 11
23.696881
 21
371.027732
 31
0.0
  0
LINE
  5
3CE
330
3C8
100
AcDbEntity
  8
LC-006-005-----0
 62
     7
370
    25
100
AcDbLine
 10
21.77019
 20
369.666727
 30
0.0
 11
23.696881
 21
371.593417
 31
0.0
  0
LINE
  5
3CF
330
3C8
100
AcDbEntity
  8
LC-006-005-----0
 62
     7
370
    25
100
AcDbLine
 10
21.204505
 20
369.666727
 30
0.0
 11
23.696881
 21
372.159103
 31
0.0
  0
LINE
  5
3D0
330
3C8
100
AcDbEntity
  8
LC-006-005-----0
 62
     7
370
    25
100
AcDbLine
 10
20.638819
 20
369.666727
 30
0.0
 11
23.696881
 21
372.724788
 31
0.0
  0
LINE
  5
3D1
330
3C8
100
AcDbEntity
  8
LC-006-005-----0
 62
     7
370
    25
100
AcDbLine
 10
20.073134
 20
369.666727
 30
0.0
 11
23.696881
 21
373.290474
 31
0.0
  0
LINE
  5
3D2
330
3C8
100
AcDbEntity
  8
LC-006-005-----0
 62
     7
370
    25
100
AcDbLine
 10
19.507449
 20
369.666727
 30
0.0
 11
23.696881
 21
373.856159
 31
0.0
  0
LINE
  5
3D3
330
3C8
100
AcDbEntity
  8
LC-006-005-----0
 62
     7
370
    25
100
AcDbLine
 10
18.941763
 20
369.666727
 30
0.0
 11
23.641763
 21
374.366727
 31
0.0
  0
LINE
  5
3D4
330
3C8
100
AcDbEntity
  8
LC-006-005-----0
 62
     7
370
    25
100
AcDbLine
 10
18.376078
 20
369.666727
 30
0.0
 11
23.076078
 21
374.366727
 31
0.0
  0
LINE
  5
3D5
330
3C8
100
AcDbEntity
  8
LC-006-005-----0
 62
     7
370
    25
100
AcDbLine
 10
17.810392
 20
369.666727
 30
0.0
 11
22.510392
 21
374.366727
 31
0.0
  0
LINE
  5
3D6
330
3C8
100
AcDbEntity
  8
LC-006-005-----0
 62
     7
370
    25
100
AcDbLine
 10
17.244707
 20
369.666727
 30
0.0
 11
21.944707
 21
374.366727
 31
0.0
  0
LINE
  5
3D7
330
3C8
100
AcDbEntity
  8
LC-006-005-----0
 62
     7
370
    25
100
AcDbLine
 10
16.679021
 20
369.666727
 30
0.0
 11
21.379021
 21
374.366727
 31
0.0
  0
LINE
  5
3D8
330
3C8
100
AcDbEntity
  8
LC-006-005-----0
 62
     7
370
    25
100
AcDbLine
 10
16.113336
 20
369.666727
 30
0.0
 11
20.813336
 21
374.366727
 31
0.0
  0
LINE
  5
3D9
330
3C8
100
AcDbEntity
  8
LC-006-005-----0
 62
     7
370
    25
100
AcDbLine
 10
15.547651
 20
369.666727
 30
0.0
 11
20.247651
 21
374.366727
 31
0.0
  0
LINE
  5
3DA
330
3C8
100
AcDbEntity
  8
LC-006-005-----0
 62
     7
370
    25
100
AcDbLine
 10
14.981965
 20
369.666727
 30
0.0
 11
19.681965
 21
374.366727
 31
0.0
  0
LINE
  5
3DB
330
3C8
100
AcDbEntity
  8
LC-006-005-----0
 62
     7
370
    25
100
AcDbLine
 10
14.41628
 20
369.666727
 30
0.0
 11
19.11628
 21
374.366727
 31
0.0
  0
LINE
  5
3DC
330
3C8
100
AcDbEntity
  8
LC-006-005-----0
 62
     7
370
    25
100
AcDbLine
 10
13.850594
 20
369.666727
 30
0.0
 11
18.550594
 21
374.366727
 31
0.0
  0
LINE
  5
3DD
330
3C8
100
AcDbEntity
  8
LC-006-005-----0
 62
     7
370
    25
100
AcDbLine
 10
13.696881
 20
370.078699
 30
0.0
 11
17.984909
 21
374.366727
 31
0.0
  0
LINE
  5
3DE
330
3C8
100
AcDbEntity
  8
LC-006-005-----0
 62
     7
370
    25
100
AcDbLine
 10
13.696881
 20
370.644384
 30
0.0
 11
17.419223
 21
374.366727
 31
0.0
  0
LINE
  5
3DF
330
3C8
100
AcDbEntity
  8
LC-006-005-----0
 62
     7
370
    25
100
AcDbLine
 10
13.696881
 20
371.21007
 30
0.0
 11
16.853538
 21
374.366727
 31
0.0
  0
LINE
  5
3E0
330
3C8
100
AcDbEntity
  8
LC-006-005-----0
 62
     7
370
    25
100
AcDbLine
 10
13.696881
 20
371.775755
 30
0.0
 11
16.287853
 21
374.366727
 31
0.0
  0
LINE
  5
3E1
330
3C8
100
AcDbEntity
  8
LC-006-005-----0
 62
     7
370
    25
100
AcDbLine
 10
13.696881
 20
372.341441
 30
0.0
 11
15.722167
 21
374.366727
 31
0.0
  0
LINE
  5
3E2
330
3C8
100
AcDbEntity
  8
LC-006-005-----0
 62
     7
370
    25
100
AcDbLine
 10
13.696881
 20
372.907126
 30
0.0
 11
15.156482
 21
374.366727
 31
0.0
  0
LINE
  5
3E3
330
3C8
100
AcDbEntity
  8
LC-006-005-----0
 62
     7
370
    25
100
AcDbLine
 10
13.696881
 20
373.472811
 30
0.0
 11
14.590796
 21
374.366727
 31
0.0
  0
LINE
  5
3E4
330
3C8
100
AcDbEntity
  8
LC-006-005-----0
 62
     7
370
    25
100
AcDbLine
 10
13.696881
 20
374.038497
 30
0.0
 11
14.025111
 21
374.366727
 31
0.0
  0
ENDBLK
  5
3CA
330
3C8
100
AcDbEntity
  8
0
100
AcDbBlockEnd
  0
BLOCK
  5
3E7
330
3E6
100
AcDbEntity
  8
0
100
AcDbBlockBegin
  2
*X1219
 70
     1
 71
     0
 10
0.0
 20
0.0
 30
0.0
  3
*X1219
  1

  4
*X12
  0
LINE
  5
3E9
330
3E6
100
AcDbEntity
  8
LC-006-005-----0
 62
     7
370
    25
100
AcDbLine
 10
43.266236
 20
369.666727
 30
0.0
 11
43.696881
 21
370.097371
 31
0.0
  0
LINE
  5
3EA
330
3E6
100
AcDbEntity
  8
LC-006-005-----0
 62
     7
370
    25
100
AcDbLine
 10
42.700551
 20
369.666727
 30
0.0
 11
43.696881
 21
370.663057
 31
0.0
  0
LINE
  5
3EB
330
3E6
100
AcDbEntity
  8
LC-006-005-----0
 62
     7
370
    25
100
AcDbLine
 10
42.134866
 20
369.666727
 30
0.0
 11
43.696881
 21
371.228742
 31
0.0
  0
LINE
  5
3EC
330
3E6
100
AcDbEntity
  8
LC-006-005-----0
 62
     7
370
    25
100
AcDbLine
 10
41.56918
 20
369.666727
 30
0.0
 11
43.696881
 21
371.794428
 31
0.0
  0
LINE
  5
3ED
330
3E6
100
AcDbEntity
  8
LC-006-005-----0
 62
     7
370
    25
100
AcDbLine
 10
41.003495
 20
369.666727
 30
0.0
 11
43.696881
 21
372.360113
 31
0.0
  0
LINE
  5
3EE
330
3E6
100
AcDbEntity
  8
LC-006-005-----0
 62
     7
370
    25
100
AcDbLine
 10
40.437809
 20
369.666727
 30
0.0
 11
43.696881
 21
372.925798
 31
0.0
  0
LINE
  5
3EF
330
3E6
100
AcDbEntity
  8
LC-006-005-----0
 62
     7
370
    25
100
AcDbLine
 10
39.872124
 20
369.666727
 30
0.0
 11
43.696881
 21
373.491484
 31
0.0
  0
LINE
  5
3F0
330
3E6
100
AcDbEntity
  8
LC-006-005-----0
 62
     7
370
    25
100
AcDbLine
 10
39.306438
 20
369.666727
 30
0.0
 11
43.696881
 21
374.057169
 31
0.0
  0
LINE
  5
3F1
330
3E6
100
AcDbEntity
  8
LC-006-005-----0
 62
     7
370
    25
100
AcDbLine
 10
38.740753
 20
369.666727
 30
0.0
 11
43.440753
 21
374.366727
 31
0.0
  0
LINE
  5
3F2
330
3E6
100
AcDbEntity
  8
LC-006-005-----0
 62
     7
370
    25
100
AcDbLine
 10
38.175068
 20
369.666727
 30
0.0
 11
42.875068
 21
374.366727
 31
0.0
  0
LINE
  5
3F3
330
3E6
100
AcDbEntity
  8
LC-006-005-----0
 62
     7
370
    25
100
AcDbLine
 10
37.609382
 20
369.666727
 30
0.0
 11
42.309382
 21
374.366727
 31
0.0
  0
LINE
  5
3F4
330
3E6
100
AcDbEntity
  8
LC-006-005-----0
 62
     7
370
    25
100
AcDbLine
 10
37.043697
 20
369.666727
 30
0.0
 11
41.743697
 21
374.366727
 31
0.0
  0
LINE
  5
3F5
330
3E6
100
AcDbEntity
  8
LC-006-005-----0
 62
     7
370
    25
100
AcDbLine
 10
36.478011
 20
369.666727
 30
0.0
 11
41.178011
 21
374.366727
 31
0.0
  0
LINE
  5
3F6
330
3E6
100
AcDbEntity
  8
LC-006-005-----0
 62
     7
370
    25
100
AcDbLine
 10
35.912326
 20
369.666727
 30
0.0
 11
40.612326
 21
374.366727
 31
0.0
  0
LINE
  5
3F7
330
3E6
100
AcDbEntity
  8
LC-006-005-----0
 62
     7
370
    25
100
AcDbLine
 10
35.34664
 20
369.666727
 30
0.0
 11
40.04664
 21
374.366727
 31
0.0
  0
LINE
  5
3F8
330
3E6
100
AcDbEntity
  8
LC-006-005-----0
 62
     7
370
    25
100
AcDbLine
 10
34.780955
 20
369.666727
 30
0.0
 11
39.480955
 21
374.366727
 31
0.0
  0
LINE
  5
3F9
330
3E6
100
AcDbEntity
  8
LC-006-005-----0
 62
     7
370
    25
100
AcDbLine
 10
34.21527
 20
369.666727
 30
0.0
 11
38.91527
 21
374.366727
 31
0.0
  0
LINE
  5
3FA
330
3E6
100
AcDbEntity
  8
LC-006-005-----0
 62
     7
370
    25
100
AcDbLine
 10
33.696881
 20
369.714024
 30
0.0
 11
38.349584
 21
374.366727
 31
0.0
  0
LINE
  5
3FB
330
3E6
100
AcDbEntity
  8
LC-006-005-----0
 62
     7
370
    25
100
AcDbLine
 10
33.696881
 20
370.279709
 30
0.0
 11
37.783899
 21
374.366727
 31
0.0
  0
LINE
  5
3FC
330
3E6
100
AcDbEntity
  8
LC-006-005-----0
 62
     7
370
    25
100
AcDbLine
 10
33.696881
 20
370.845394
 30
0.0
 11
37.218213
 21
374.366727
 31
0.0
  0
LINE
  5
3FD
330
3E6
100
AcDbEntity
  8
LC-006-005-----0
 62
     7
370
    25
100
AcDbLine
 10
33.696881
 20
371.41108
 30
0.0
 11
36.652528
 21
374.366727
 31
0.0
  0
LINE
  5
3FE
330
3E6
100
AcDbEntity
  8
LC-006-005-----0
 62
     7
370
    25
100
AcDbLine
 10
33.696881
 20
371.976765
 30
0.0
 11
36.086842
 21
374.366727
 31
0.0
  0
LINE
  5
3FF
330
3E6
100
AcDbEntity
  8
LC-006-005-----0
 62
     7
370
    25
100
AcDbLine
 10
33.696881
 20
372.542451
 30
0.0
 11
35.521157
 21
374.366727
 31
0.0
  0
LINE
  5
400
330
3E6
100
AcDbEntity
  8
LC-006-005-----0
 62
     7
370
    25
100
AcDbLine
 10
33.696881
 20
373.108136
 30
0.0
 11
34.955472
 21
374.366727
 31
0.0
  0
LINE
  5
401
330
3E6
100
AcDbEntity
  8
LC-006-005-----0
 62
     7
370
    25
100
AcDbLine
 10
33.696881
 20
373.673822
 30
0.0
 11
34.389786
 21
374.366727
 31
0.0
  0
LINE
  5
402
330
3E6
100
AcDbEntity
  8
LC-006-005-----0
 62
     7
370
    25
100
AcDbLine
 10
33.696881
 20
374.239507
 30
0.0
 11
33.824101
 21
374.366727
 31
0.0
  0
ENDBLK
  5
3E8
330
3E6
100
AcDbEntity
  8
0
100
AcDbBlockEnd
  0
BLOCK
  5
405
330
404
100
AcDbEntity
  8
0
100
AcDbBlockBegin
  2
*X1320
 70
     1
 71
     0
 10
0.0
 20
0.0
 30
0.0
  3
*X1320
  1

  4
*X13
  0
LINE
  5
407
330
404
100
AcDbEntity
  8
LC-006-005-----0
 62
     7
370
    25
100
AcDbLine
 10
63.630912
 20
369.666727
 30
0.0
 11
63.696881
 21
369.732696
 31
0.0
  0
LINE
  5
408
330
404
100
AcDbEntity
  8
LC-006-005-----0
 62
     7
370
    25
100
AcDbLine
 10
63.065226
 20
369.666727
 30
0.0
 11
63.696881
 21
370.298381
 31
0.0
  0
LINE
  5
409
330
404
100
AcDbEntity
  8
LC-006-005-----0
 62
     7
370
    25
100
AcDbLine
 10
62.499541
 20
369.666727
 30
0.0
 11
63.696881
 21
370.864067
 31
0.0
  0
LINE
  5
40A
330
404
100
AcDbEntity
  8
LC-006-005-----0
 62
     7
370
    25
100
AcDbLine
 10
61.933855
 20
369.666727
 30
0.0
 11
63.696881
 21
371.429752
 31
0.0
  0
LINE
  5
40B
330
404
100
AcDbEntity
  8
LC-006-005-----0
 62
     7
370
    25
100
AcDbLine
 10
61.36817
 20
369.666727
 30
0.0
 11
63.696881
 21
371.995438
 31
0.0
  0
LINE
  5
40C
330
404
100
AcDbEntity
  8
LC-006-005-----0
 62
     7
370
    25
100
AcDbLine
 10
60.802485
 20
369.666727
 30
0.0
 11
63.696881
 21
372.561123
 31
0.0
  0
LINE
  5
40D
330
404
100
AcDbEntity
  8
LC-006-005-----0
 62
     7
370
    25
100
AcDbLine
 10
60.236799
 20
369.666727
 30
0.0
 11
63.696881
 21
373.126809
 31
0.0
  0
LINE
  5
40E
330
404
100
AcDbEntity
  8
LC-006-005-----0
 62
     7
370
    25
100
AcDbLine
 10
59.671114
 20
369.666727
 30
0.0
 11
63.696881
 21
373.692494
 31
0.0
  0
LINE
  5
40F
330
404
100
AcDbEntity
  8
LC-006-005-----0
 62
     7
370
    25
100
AcDbLine
 10
59.105428
 20
369.666727
 30
0.0
 11
63.696881
 21
374.258179
 31
0.0
  0
LINE
  5
410
330
404
100
AcDbEntity
  8
LC-006-005-----0
 62
     7
370
    25
100
AcDbLine
 10
58.539743
 20
369.666727
 30
0.0
 11
63.239743
 21
374.366727
 31
0.0
  0
LINE
  5
411
330
404
100
AcDbEntity
  8
LC-006-005-----0
 62
     7
370
    25
100
AcDbLine
 10
57.974057
 20
369.666727
 30
0.0
 11
62.674057
 21
374.366727
 31
0.0
  0
LINE
  5
412
330
404
100
AcDbEntity
  8
LC-006-005-----0
 62
     7
370
    25
100
AcDbLine
 10
57.408372
 20
369.666727
 30
0.0
 11
62.108372
 21
374.366727
 31
0.0
  0
LINE
  5
413
330
404
100
AcDbEntity
  8
LC-006-005-----0
 62
     7
370
    25
100
AcDbLine
 10
56.842687
 20
369.666727
 30
0.0
 11
61.542687
 21
374.366727
 31
0.0
  0
LINE
  5
414
330
404
100
AcDbEntity
  8
LC-006-005-----0
 62
     7
370
    25
100
AcDbLine
 10
56.277001
 20
369.666727
 30
0.0
 11
60.977001
 21
374.366727
 31
0.0
  0
LINE
  5
415
330
404
100
AcDbEntity
  8
LC-006-005-----0
 62
     7
370
    25
100
AcDbLine
 10
55.711316
 20
369.666727
 30
0.0
 11
60.411316
 21
374.366727
 31
0.0
  0
LINE
  5
416
330
404
100
AcDbEntity
  8
LC-006-005-----0
 62
     7
370
    25
100
AcDbLine
 10
55.14563
 20
369.666727
 30
0.0
 11
59.84563
 21
374.366727
 31
0.0
  0
LINE
  5
417
330
404
100
AcDbEntity
  8
LC-006-005-----0
 62
     7
370
    25
100
AcDbLine
 10
54.579945
 20
369.666727
 30
0.0
 11
59.279945
 21
374.366727
 31
0.0
  0
LINE
  5
418
330
404
100
AcDbEntity
  8
LC-006-005-----0
 62
     7
370
    25
100
AcDbLine
 10
54.014259
 20
369.666727
 30
0.0
 11
58.714259
 21
374.366727
 31
0.0
  0
LINE
  5
419
330
404
100
AcDbEntity
  8
LC-006-005-----0
 62
     7
370
    25
100
AcDbLine
 10
53.696881
 20
369.915034
 30
0.0
 11
58.148574
 21
374.366727
 31
0.0
  0
LINE
  5
41A
330
404
100
AcDbEntity
  8
LC-006-005-----0
 62
     7
370
    25
100
AcDbLine
 10
53.696881
 20
370.480719
 30
0.0
 11
57.582889
 21
374.366727
 31
0.0
  0
LINE
  5
41B
330
404
100
AcDbEntity
  8
LC-006-005-----0
 62
     7
370
    25
100
AcDbLine
 10
53.696881
 20
371.046405
 30
0.0
 11
57.017203
 21
374.366727
 31
0.0
  0
LINE
  5
41C
330
404
100
AcDbEntity
  8
LC-006-005-----0
 62
     7
370
    25
100
AcDbLine
 10
53.696881
 20
371.61209
 30
0.0
 11
56.451518
 21
374.366727
 31
0.0
  0
LINE
  5
41D
330
404
100
AcDbEntity
  8
LC-006-005-----0
 62
     7
370
    25
100
AcDbLine
 10
53.696881
 20
372.177775
 30
0.0
 11
55.885832
 21
374.366727
 31
0.0
  0
LINE
  5
41E
330
404
100
AcDbEntity
  8
LC-006-005-----0
 62
     7
370
    25
100
AcDbLine
 10
53.696881
 20
372.743461
 30
0.0
 11
55.320147
 21
374.366727
 31
0.0
  0
LINE
  5
41F
330
404
100
AcDbEntity
  8
LC-006-005-----0
 62
     7
370
    25
100
AcDbLine
 10
53.696881
 20
373.309146
 30
0.0
 11
54.754461
 21
374.366727
 31
0.0
  0
LINE
  5
420
330
404
100
AcDbEntity
  8
LC-006-005-----0
 62
     7
370
    25
100
AcDbLine
 10
53.696881
 20
373.874832
 30
0.0
 11
54.188776
 21
374.366727
 31
0.0
  0
ENDBLK
  5
406
330
404
100
AcDbEntity
  8
0
100
AcDbBlockEnd
  0
BLOCK
  5
431
330
430
100
AcDbEntity
  8
0
100
AcDbBlockBegin
  2
*X1421
 70
     1
 71
     0
 10
0.0
 20
0.0
 30
0.0
  3
*X1421
  1

  4
*X14
  0
LINE
  5
433
330
430
100
AcDbEntity
  8
LC-006-005-----0
 62
     7
370
    25
100
AcDbLine
 10
152.350448
 20
347.51192
 30
0.0
 11
154.850448
 21
350.01192
 31
0.0
  0
LINE
  5
434
330
430
100
AcDbEntity
  8
LC-006-005-----0
 62
     7
370
    25
100
AcDbLine
 10
149.522021
 20
347.51192
 30
0.0
 11
152.022021
 21
350.01192
 31
0.0
  0
LINE
  5
435
330
430
100
AcDbEntity
  8
LC-006-005-----0
 62
     7
370
    25
100
AcDbLine
 10
147.350041
 20
348.168367
 30
0.0
 11
149.193594
 21
350.01192
 31
0.0
  0
LINE
  5
436
330
430
100
AcDbEntity
  8
LC-006-005-----0
 62
     7
370
    25
100
AcDbLine
 10
145.935828
 20
349.582581
 30
0.0
 11
147.506488
 21
351.153241
 31
0.0
  0
LINE
  5
437
330
430
100
AcDbEntity
  8
LC-006-005-----0
 62
     7
370
    25
100
AcDbLine
 10
145.006488
 20
351.481669
 30
0.0
 11
147.506488
 21
353.981669
 31
0.0
  0
LINE
  5
438
330
430
100
AcDbEntity
  8
LC-006-005-----0
 62
     7
370
    25
100
AcDbLine
 10
145.006488
 20
354.310096
 30
0.0
 11
147.506488
 21
356.810096
 31
0.0
  0
LINE
  5
439
330
430
100
AcDbEntity
  8
LC-006-005-----0
 62
     7
370
    25
100
AcDbLine
 10
145.006488
 20
357.138523
 30
0.0
 11
147.506488
 21
359.638523
 31
0.0
  0
LINE
  5
43A
330
430
100
AcDbEntity
  8
LC-006-005-----0
 62
     7
370
    25
100
AcDbLine
 10
145.006488
 20
359.96695
 30
0.0
 11
147.506488
 21
362.46695
 31
0.0
  0
LINE
  5
43B
330
430
100
AcDbEntity
  8
LC-006-005-----0
 62
     7
370
    25
100
AcDbLine
 10
145.006488
 20
362.795377
 30
0.0
 11
147.506488
 21
365.295377
 31
0.0
  0
LINE
  5
43C
330
430
100
AcDbEntity
  8
LC-006-005-----0
 62
     7
370
    25
100
AcDbLine
 10
145.006488
 20
365.623804
 30
0.0
 11
146.894248
 21
367.511564
 31
0.0
  0
ENDBLK
  5
432
330
430
100
AcDbEntity
  8
0
100
AcDbBlockEnd
  0
BLOCK
  5
44B
330
44A
100
AcDbEntity
  8
0
100
AcDbBlockBegin
  2
*X1522
 70
     1
 71
     0
 10
0.0
 20
0.0
 30
0.0
  3
*X1522
  1

  4
*X15
  0
LINE
  5
44D
330
44A
100
AcDbEntity
  8
LC-006-005-----0
 62
     7
370
    25
100
AcDbLine
 10
83.247252
 20
369.484077
 30
0.0
 11
83.55307
 21
369.789895
 31
0.0
  0
LINE
  5
44E
330
44A
100
AcDbEntity
  8
LC-006-005-----0
 62
     7
370
    25
100
AcDbLine
 10
82.691271
 20
369.493781
 30
0.0
 11
83.56312
 21
370.36563
 31
0.0
  0
LINE
  5
44F
330
44A
100
AcDbEntity
  8
LC-006-005-----0
 62
     7
370
    25
100
AcDbLine
 10
82.13529
 20
369.503486
 30
0.0
 11
83.573169
 21
370.941365
 31
0.0
  0
LINE
  5
450
330
44A
100
AcDbEntity
  8
LC-006-005-----0
 62
     7
370
    25
100
AcDbLine
 10
81.579309
 20
369.513191
 30
0.0
 11
83.583219
 21
371.5171
 31
0.0
  0
LINE
  5
451
330
44A
100
AcDbEntity
  8
LC-006-005-----0
 62
     7
370
    25
100
AcDbLine
 10
81.023329
 20
369.522895
 30
0.0
 11
83.593268
 21
372.092835
 31
0.0
  0
LINE
  5
452
330
44A
100
AcDbEntity
  8
LC-006-005-----0
 62
     7
370
    25
100
AcDbLine
 10
80.467348
 20
369.5326
 30
0.0
 11
83.603318
 21
372.66857
 31
0.0
  0
LINE
  5
453
330
44A
100
AcDbEntity
  8
LC-006-005-----0
 62
     7
370
    25
100
AcDbLine
 10
79.911367
 20
369.542305
 30
0.0
 11
83.613367
 21
373.244305
 31
0.0
  0
LINE
  5
454
330
44A
100
AcDbEntity
  8
LC-006-005-----0
 62
     7
370
    25
100
AcDbLine
 10
79.355386
 20
369.552009
 30
0.0
 11
83.623417
 21
373.82004
 31
0.0
  0
LINE
  5
455
330
44A
100
AcDbEntity
  8
LC-006-005-----0
 62
     7
370
    25
100
AcDbLine
 10
78.799406
 20
369.561714
 30
0.0
 11
83.419478
 21
374.181786
 31
0.0
  0
LINE
  5
456
330
44A
100
AcDbEntity
  8
LC-006-005-----0
 62
     7
370
    25
100
AcDbLine
 10
78.243425
 20
369.571419
 30
0.0
 11
82.863497
 21
374.191491
 31
0.0
  0
LINE
  5
457
330
44A
100
AcDbEntity
  8
LC-006-005-----0
 62
     7
370
    25
100
AcDbLine
 10
77.687444
 20
369.581123
 30
0.0
 11
82.307516
 21
374.201196
 31
0.0
  0
LINE
  5
458
330
44A
100
AcDbEntity
  8
LC-006-005-----0
 62
     7
370
    25
100
AcDbLine
 10
77.131463
 20
369.590828
 30
0.0
 11
81.751536
 21
374.2109
 31
0.0
  0
LINE
  5
459
330
44A
100
AcDbEntity
  8
LC-006-005-----0
 62
     7
370
    25
100
AcDbLine
 10
76.575483
 20
369.600533
 30
0.0
 11
81.195555
 21
374.220605
 31
0.0
  0
LINE
  5
45A
330
44A
100
AcDbEntity
  8
LC-006-005-----0
 62
     7
370
    25
100
AcDbLine
 10
76.019502
 20
369.610237
 30
0.0
 11
80.639574
 21
374.23031
 31
0.0
  0
LINE
  5
45B
330
44A
100
AcDbEntity
  8
LC-006-005-----0
 62
     7
370
    25
100
AcDbLine
 10
75.463521
 20
369.619942
 30
0.0
 11
80.083593
 21
374.240014
 31
0.0
  0
LINE
  5
45C
330
44A
100
AcDbEntity
  8
LC-006-005-----0
 62
     7
370
    25
100
AcDbLine
 10
74.90754
 20
369.629647
 30
0.0
 11
79.527613
 21
374.249719
 31
0.0
  0
LINE
  5
45D
330
44A
100
AcDbEntity
  8
LC-006-005-----0
 62
     7
370
    25
100
AcDbLine
 10
74.35156
 20
369.639352
 30
0.0
 11
78.971632
 21
374.259424
 31
0.0
  0
LINE
  5
45E
330
44A
100
AcDbEntity
  8
LC-006-005-----0
 62
     7
370
    25
100
AcDbLine
 10
73.795579
 20
369.649056
 30
0.0
 11
78.415651
 21
374.269128
 31
0.0
  0
LINE
  5
45F
330
44A
100
AcDbEntity
  8
LC-006-005-----0
 62
     7
370
    25
100
AcDbLine
 10
73.545497
 20
369.964659
 30
0.0
 11
77.859671
 21
374.278833
 31
0.0
  0
LINE
  5
460
330
44A
100
AcDbEntity
  8
LC-006-005-----0
 62
     7
370
    25
100
AcDbLine
 10
73.555546
 20
370.540394
 30
0.0
 11
77.30369
 21
374.288538
 31
0.0
  0
LINE
  5
461
330
44A
100
AcDbEntity
  8
LC-006-005-----0
 62
     7
370
    25
100
AcDbLine
 10
73.565596
 20
371.116129
 30
0.0
 11
76.747709
 21
374.298243
 31
0.0
  0
LINE
  5
462
330
44A
100
AcDbEntity
  8
LC-006-005-----0
 62
     7
370
    25
100
AcDbLine
 10
73.575645
 20
371.691864
 30
0.0
 11
76.191728
 21
374.307947
 31
0.0
  0
LINE
  5
463
330
44A
100
AcDbEntity
  8
LC-006-005-----0
 62
     7
370
    25
100
AcDbLine
 10
73.585695
 20
372.267599
 30
0.0
 11
75.635748
 21
374.317652
 31
0.0
  0
LINE
  5
464
330
44A
100
AcDbEntity
  8
LC-006-005-----0
 62
     7
370
    25
100
AcDbLine
 10
73.595744
 20
372.843334
 30
0.0
 11
75.079767
 21
374.327357
 31
0.0
  0
LINE
  5
465
330
44A
100
AcDbEntity
  8
LC-006-005-----0
 62
     7
370
    25
100
AcDbLine
 10
73.605794
 20
373.419069
 30
0.0
 11
74.523786
 21
374.337061
 31
0.0
  0
LINE
  5
466
330
44A
100
AcDbEntity
  8
LC-006-005-----0
 62
     7
370
    25
100
AcDbLine
 10
73.615843
 20
373.994804
 30
0.0
 11
73.967805
 21
374.346766
 31
0.0
  0
ENDBLK
  5
44C
330
44A
100
AcDbEntity
  8
0
100
AcDbBlockEnd
  0
BLOCK
  5
46B
330
46A
100
AcDbEntity
  8
0
100
AcDbBlockBegin
  2
*X1623
 70
     1
 71
     0
 10
0.0
 20
0.0
 30
0.0
  3
*X1623
  1

  4
*X16
  0
LINE
  5
46D
330
46A
100
AcDbEntity
  8
LC-006-005-----0
 62
     7
370
    25
100
AcDbLine
 10
103.262558
 20
369.134708
 30
0.0
 11
103.573047
 21
369.445196
 31
0.0
  0
LINE
  5
46E
330
46A
100
AcDbEntity
  8
LC-006-005-----0
 62
     7
370
    25
100
AcDbLine
 10
102.706578
 20
369.144413
 30
0.0
 11
103.583096
 21
370.020931
 31
0.0
  0
LINE
  5
46F
330
46A
100
AcDbEntity
  8
LC-006-005-----0
 62
     7
370
    25
100
AcDbLine
 10
102.150597
 20
369.154118
 30
0.0
 11
103.593146
 21
370.596666
 31
0.0
  0
LINE
  5
470
330
46A
100
AcDbEntity
  8
LC-006-005-----0
 62
     7
370
    25
100
AcDbLine
 10
101.594616
 20
369.163822
 30
0.0
 11
103.603195
 21
371.172401
 31
0.0
  0
LINE
  5
471
330
46A
100
AcDbEntity
  8
LC-006-005-----0
 62
     7
370
    25
100
AcDbLine
 10
101.038635
 20
369.173527
 30
0.0
 11
103.613245
 21
371.748136
 31
0.0
  0
LINE
  5
472
330
46A
100
AcDbEntity
  8
LC-006-005-----0
 62
     7
370
    25
100
AcDbLine
 10
100.482655
 20
369.183232
 30
0.0
 11
103.623294
 21
372.323871
 31
0.0
  0
LINE
  5
473
330
46A
100
AcDbEntity
  8
LC-006-005-----0
 62
     7
370
    25
100
AcDbLine
 10
99.926674
 20
369.192936
 30
0.0
 11
103.633344
 21
372.899606
 31
0.0
  0
LINE
  5
474
330
46A
100
AcDbEntity
  8
LC-006-005-----0
 62
     7
370
    25
100
AcDbLine
 10
99.370693
 20
369.202641
 30
0.0
 11
103.643393
 21
373.475341
 31
0.0
  0
LINE
  5
475
330
46A
100
AcDbEntity
  8
LC-006-005-----0
 62
     7
370
    25
100
AcDbLine
 10
98.814712
 20
369.212346
 30
0.0
 11
103.434785
 21
373.832418
 31
0.0
  0
LINE
  5
476
330
46A
100
AcDbEntity
  8
LC-006-005-----0
 62
     7
370
    25
100
AcDbLine
 10
98.258732
 20
369.22205
 30
0.0
 11
102.878804
 21
373.842123
 31
0.0
  0
LINE
  5
477
330
46A
100
AcDbEntity
  8
LC-006-005-----0
 62
     7
370
    25
100
AcDbLine
 10
97.702751
 20
369.231755
 30
0.0
 11
102.322823
 21
373.851827
 31
0.0
  0
LINE
  5
478
330
46A
100
AcDbEntity
  8
LC-006-005-----0
 62
     7
370
    25
100
AcDbLine
 10
97.14677
 20
369.24146
 30
0.0
 11
101.766843
 21
373.861532
 31
0.0
  0
LINE
  5
479
330
46A
100
AcDbEntity
  8
LC-006-005-----0
 62
     7
370
    25
100
AcDbLine
 10
96.59079
 20
369.251164
 30
0.0
 11
101.210862
 21
373.871237
 31
0.0
  0
LINE
  5
47A
330
46A
100
AcDbEntity
  8
LC-006-005-----0
 62
     7
370
    25
100
AcDbLine
 10
96.034809
 20
369.260869
 30
0.0
 11
100.654881
 21
373.880941
 31
0.0
  0
LINE
  5
47B
330
46A
100
AcDbEntity
  8
LC-006-005-----0
 62
     7
370
    25
100
AcDbLine
 10
95.478828
 20
369.270574
 30
0.0
 11
100.0989
 21
373.890646
 31
0.0
  0
LINE
  5
47C
330
46A
100
AcDbEntity
  8
LC-006-005-----0
 62
     7
370
    25
100
AcDbLine
 10
94.922847
 20
369.280278
 30
0.0
 11
99.54292
 21
373.900351
 31
0.0
  0
LINE
  5
47D
330
46A
100
AcDbEntity
  8
LC-006-005-----0
 62
     7
370
    25
100
AcDbLine
 10
94.366867
 20
369.289983
 30
0.0
 11
98.986939
 21
373.910055
 31
0.0
  0
LINE
  5
47E
330
46A
100
AcDbEntity
  8
LC-006-005-----0
 62
     7
370
    25
100
AcDbLine
 10
93.810886
 20
369.299688
 30
0.0
 11
98.430958
 21
373.91976
 31
0.0
  0
LINE
  5
47F
330
46A
100
AcDbEntity
  8
LC-006-005-----0
 62
     7
370
    25
100
AcDbLine
 10
93.565473
 20
369.61996
 30
0.0
 11
97.874977
 21
373.929465
 31
0.0
  0
LINE
  5
480
330
46A
100
AcDbEntity
  8
LC-006-005-----0
 62
     7
370
    25
100
AcDbLine
 10
93.575522
 20
370.195695
 30
0.0
 11
97.318997
 21
373.939169
 31
0.0
  0
LINE
  5
481
330
46A
100
AcDbEntity
  8
LC-006-005-----0
 62
     7
370
    25
100
AcDbLine
 10
93.585572
 20
370.77143
 30
0.0
 11
96.763016
 21
373.948874
 31
0.0
  0
LINE
  5
482
330
46A
100
AcDbEntity
  8
LC-006-005-----0
 62
     7
370
    25
100
AcDbLine
 10
93.595621
 20
371.347165
 30
0.0
 11
96.207035
 21
373.958579
 31
0.0
  0
LINE
  5
483
330
46A
100
AcDbEntity
  8
LC-006-005-----0
 62
     7
370
    25
100
AcDbLine
 10
93.605671
 20
371.9229
 30
0.0
 11
95.651054
 21
373.968283
 31
0.0
  0
LINE
  5
484
330
46A
100
AcDbEntity
  8
LC-006-005-----0
 62
     7
370
    25
100
AcDbLine
 10
93.61572
 20
372.498635
 30
0.0
 11
95.095074
 21
373.977988
 31
0.0
  0
LINE
  5
485
330
46A
100
AcDbEntity
  8
LC-006-005-----0
 62
     7
370
    25
100
AcDbLine
 10
93.62577
 20
373.07437
 30
0.0
 11
94.539093
 21
373.987693
 31
0.0
  0
LINE
  5
486
330
46A
100
AcDbEntity
  8
LC-006-005-----0
 62
     7
370
    25
100
AcDbLine
 10
93.635819
 20
373.650105
 30
0.0
 11
93.983112
 21
373.997397
 31
0.0
  0
ENDBLK
  5
46C
330
46A
100
AcDbEntity
  8
0
100
AcDbBlockEnd
  0
BLOCK
  5
48B
330
48A
100
AcDbEntity
  8
0
100
AcDbBlockBegin
  2
*X1724
 70
     1
 71
     0
 10
0.0
 20
0.0
 30
0.0
  3
*X1724
  1

  4
*X17
  0
LINE
  5
48D
330
48A
100
AcDbEntity
  8
LC-006-005-----0
 62
     7
370
    25
100
AcDbLine
 10
123.377095
 20
366.621827
 30
0.0
 11
123.696881
 21
366.941614
 31
0.0
  0
LINE
  5
48E
330
48A
100
AcDbEntity
  8
LC-006-005-----0
 62
     7
370
    25
100
AcDbLine
 10
122.84838
 20
366.658799
 30
0.0
 11
123.696881
 21
367.507299
 31
0.0
  0
LINE
  5
48F
330
48A
100
AcDbEntity
  8
LC-006-005-----0
 62
     7
370
    25
100
AcDbLine
 10
122.319666
 20
366.69577
 30
0.0
 11
123.696881
 21
368.072985
 31
0.0
  0
LINE
  5
490
330
48A
100
AcDbEntity
  8
LC-006-005-----0
 62
     7
370
    25
100
AcDbLine
 10
121.790952
 20
366.732741
 30
0.0
 11
123.696881
 21
368.63867
 31
0.0
  0
LINE
  5
491
330
48A
100
AcDbEntity
  8
LC-006-005-----0
 62
     7
370
    25
100
AcDbLine
 10
121.262238
 20
366.769712
 30
0.0
 11
123.696881
 21
369.204356
 31
0.0
  0
LINE
  5
492
330
48A
100
AcDbEntity
  8
LC-006-005-----0
 62
     7
370
    25
100
AcDbLine
 10
120.733524
 20
366.806684
 30
0.0
 11
123.696881
 21
369.770041
 31
0.0
  0
LINE
  5
493
330
48A
100
AcDbEntity
  8
LC-006-005-----0
 62
     7
370
    25
100
AcDbLine
 10
120.20481
 20
366.843655
 30
0.0
 11
123.696881
 21
370.335726
 31
0.0
  0
LINE
  5
494
330
48A
100
AcDbEntity
  8
LC-006-005-----0
 62
     7
370
    25
100
AcDbLine
 10
119.676095
 20
366.880626
 30
0.0
 11
123.696881
 21
370.901412
 31
0.0
  0
LINE
  5
495
330
48A
100
AcDbEntity
  8
LC-006-005-----0
 62
     7
370
    25
100
AcDbLine
 10
119.147381
 20
366.917597
 30
0.0
 11
123.550932
 21
371.321148
 31
0.0
  0
LINE
  5
496
330
48A
100
AcDbEntity
  8
LC-006-005-----0
 62
     7
370
    25
100
AcDbLine
 10
118.618667
 20
366.954569
 30
0.0
 11
123.022218
 21
371.35812
 31
0.0
  0
LINE
  5
497
330
48A
100
AcDbEntity
  8
LC-006-005-----0
 62
     7
370
    25
100
AcDbLine
 10
118.089953
 20
366.99154
 30
0.0
 11
122.493504
 21
371.395091
 31
0.0
  0
LINE
  5
498
330
48A
100
AcDbEntity
  8
LC-006-005-----0
 62
     7
370
    25
100
AcDbLine
 10
117.561239
 20
367.028511
 30
0.0
 11
121.96479
 21
371.432062
 31
0.0
  0
LINE
  5
499
330
48A
100
AcDbEntity
  8
LC-006-005-----0
 62
     7
370
    25
100
AcDbLine
 10
117.032525
 20
367.065482
 30
0.0
 11
121.436075
 21
371.469033
 31
0.0
  0
LINE
  5
49A
330
48A
100
AcDbEntity
  8
LC-006-005-----0
 62
     7
370
    25
100
AcDbLine
 10
116.50381
 20
367.102454
 30
0.0
 11
120.907361
 21
371.506005
 31
0.0
  0
LINE
  5
49B
330
48A
100
AcDbEntity
  8
LC-006-005-----0
 62
     7
370
    25
100
AcDbLine
 10
115.975096
 20
367.139425
 30
0.0
 11
120.378647
 21
371.542976
 31
0.0
  0
LINE
  5
49C
330
48A
100
AcDbEntity
  8
LC-006-005-----0
 62
     7
370
    25
100
AcDbLine
 10
115.488347
 20
367.218362
 30
0.0
 11
119.849933
 21
371.579947
 31
0.0
  0
LINE
  5
49D
330
48A
100
AcDbEntity
  8
LC-006-005-----0
 62
     7
370
    25
100
AcDbLine
 10
115.087586
 20
367.383286
 30
0.0
 11
119.321219
 21
371.616918
 31
0.0
  0
LINE
  5
49E
330
48A
100
AcDbEntity
  8
LC-006-005-----0
 62
     7
370
    25
100
AcDbLine
 10
114.751948
 20
367.613333
 30
0.0
 11
118.792505
 21
371.65389
 31
0.0
  0
LINE
  5
49F
330
48A
100
AcDbEntity
  8
LC-006-005-----0
 62
     7
370
    25
100
AcDbLine
 10
114.46428
 20
367.89135
 30
0.0
 11
118.263791
 21
371.690861
 31
0.0
  0
LINE
  5
4A0
330
48A
100
AcDbEntity
  8
LC-006-005-----0
 62
     7
370
    25
100
AcDbLine
 10
114.181437
 20
368.174193
 30
0.0
 11
117.735076
 21
371.727832
 31
0.0
  0
LINE
  5
4A1
330
48A
100
AcDbEntity
  8
LC-006-005-----0
 62
     7
370
    25
100
AcDbLine
 10
113.898594
 20
368.457036
 30
0.0
 11
117.221996
 21
371.780438
 31
0.0
  0
LINE
  5
4A2
330
48A
100
AcDbEntity
  8
LC-006-005-----0
 62
     7
370
    25
100
AcDbLine
 10
113.696881
 20
368.821008
 30
0.0
 11
116.939154
 21
372.06328
 31
0.0
  0
LINE
  5
4A3
330
48A
100
AcDbEntity
  8
LC-006-005-----0
 62
     7
370
    25
100
AcDbLine
 10
113.696881
 20
369.386693
 30
0.0
 11
116.656311
 21
372.346123
 31
0.0
  0
LINE
  5
4A4
330
48A
100
AcDbEntity
  8
LC-006-005-----0
 62
     7
370
    25
100
AcDbLine
 10
113.696881
 20
369.952379
 30
0.0
 11
116.373468
 21
372.628966
 31
0.0
  0
LINE
  5
4A5
330
48A
100
AcDbEntity
  8
LC-006-005-----0
 62
     7
370
    25
100
AcDbLine
 10
113.696881
 20
370.518064
 30
0.0
 11
116.090625
 21
372.911808
 31
0.0
  0
LINE
  5
4A6
330
48A
100
AcDbEntity
  8
LC-006-005-----0
 62
     7
370
    25
100
AcDbLine
 10
113.696881
 20
371.083749
 30
0.0
 11
115.807783
 21
373.194651
 31
0.0
  0
LINE
  5
4A7
330
48A
100
AcDbEntity
  8
LC-006-005-----0
 62
     7
370
    25
100
AcDbLine
 10
113.696881
 20
371.649435
 30
0.0
 11
115.52494
 21
373.477494
 31
0.0
  0
LINE
  5
4A8
330
48A
100
AcDbEntity
  8
LC-006-005-----0
 62
     7
370
    25
100
AcDbLine
 10
113.696881
 20
372.21512
 30
0.0
 11
115.11038
 21
373.62862
 31
0.0
  0
LINE
  5
4A9
330
48A
100
AcDbEntity
  8
LC-006-005-----0
 62
     7
370
    25
100
AcDbLine
 10
113.696881
 20
372.780806
 30
0.0
 11
114.5544
 21
373.638324
 31
0.0
  0
LINE
  5
4AA
330
48A
100
AcDbEntity
  8
LC-006-005-----0
 62
     7
370
    25
100
AcDbLine
 10
113.696881
 20
373.346491
 30
0.0
 11
113.998419
 21
373.648029
 31
0.0
  0
ENDBLK
  5
48C
330
48A
100
AcDbEntity
  8
0
100
AcDbBlockEnd
  0
BLOCK
  5
4D8
330
4D7
100
AcDbEntity
  8
0
100
AcDbBlockBegin
  2
*X1825
 70
     1
 71
     0
 10
0.0
 20
0.0
 30
0.0
  3
*X1825
  1

  4
*X18
  0
LINE
  5
4DA
330
4D7
100
AcDbEntity
  8
LC-006-005-----0
 62
     7
370
    25
100
AcDbLine
 10
310.516298
 20
350.114277
 30
0.0
 11
310.533624
 21
350.131604
 31
0.0
  0
LINE
  5
4DB
330
4D7
100
AcDbEntity
  8
LC-006-005-----0
 62
     7
370
    25
100
AcDbLine
 10
308.276981
 20
350.703388
 30
0.0
 11
310.533624
 21
352.960031
 31
0.0
  0
LINE
  5
4DC
330
4D7
100
AcDbEntity
  8
LC-006-005-----0
 62
     7
370
    25
100
AcDbLine
 10
314.851072
 20
357.277479
 30
0.0
 11
315.249401
 21
357.675808
 31
0.0
  0
LINE
  5
4DD
330
4D7
100
AcDbEntity
  8
LC-006-005-----0
 62
     7
370
    25
100
AcDbLine
 10
308.027161
 20
353.281995
 30
0.0
 11
310.533624
 21
355.788458
 31
0.0
  0
LINE
  5
4DE
330
4D7
100
AcDbEntity
  8
LC-006-005-----0
 62
     7
370
    25
100
AcDbLine
 10
312.251567
 20
357.506401
 30
0.0
 11
315.392949
 21
360.647783
 31
0.0
  0
LINE
  5
4DF
330
4D7
100
AcDbEntity
  8
LC-006-005-----0
 62
     7
370
    25
100
AcDbLine
 10
304.623369
 20
352.706631
 30
0.0
 11
310.533624
 21
358.616885
 31
0.0
  0
LINE
  5
4E0
330
4D7
100
AcDbEntity
  8
LC-006-005-----0
 62
     7
370
    25
100
AcDbLine
 10
312.251567
 20
360.334828
 30
0.0
 11
315.392949
 21
363.47621
 31
0.0
  0
LINE
  5
4E1
330
4D7
100
AcDbEntity
  8
LC-006-005-----0
 62
     7
370
    25
100
AcDbLine
 10
308.277188
 20
359.188876
 30
0.0
 11
310.533624
 21
361.445312
 31
0.0
  0
LINE
  5
4E2
330
4D7
100
AcDbEntity
  8
LC-006-005-----0
 62
     7
370
    25
100
AcDbLine
 10
312.055008
 20
362.966696
 30
0.0
 11
314.879997
 21
365.791685
 31
0.0
  0
LINE
  5
4E3
330
4D7
100
AcDbEntity
  8
LC-006-005-----0
 62
     7
370
    25
100
AcDbLine
 10
306.759825
 20
360.49994
 30
0.0
 11
311.838987
 21
365.579103
 31
0.0
  0
LINE
  5
4E4
330
4D7
100
AcDbEntity
  8
LC-006-005-----0
 62
     7
370
    25
100
AcDbLine
 10
304.121243
 20
360.689786
 30
0.0
 11
308.724085
 21
365.292627
 31
0.0
  0
ENDBLK
  5
4D9
330
4D7
100
AcDbEntity
  8
0
100
AcDbBlockEnd
  0
BLOCK
  5
508
330
507
100
AcDbEntity
  8
0
100
AcDbBlockBegin
  2
*X1926
 70
     1
 71
     0
 10
0.0
 20
0.0
 30
0.0
  3
*X1926
  1

  4
*X19
  0
LINE
  5
50A
330
507
100
AcDbEntity
  8
LC-006-005-----0
 62
     7
370
    25
100
AcDbLine
 10
298.485146
 20
340.911553
 30
0.0
 11
299.185149
 21
341.611556
 31
0.0
  0
LINE
  5
50B
330
507
100
AcDbEntity
  8
LC-006-005-----0
 62
     7
370
    25
100
AcDbLine
 10
300.048624
 20
342.475031
 30
0.0
 11
300.613291
 21
343.039698
 31
0.0
  0
LINE
  5
50C
330
507
100
AcDbEntity
  8
LC-006-005-----0
 62
     7
370
    25
100
AcDbLine
 10
298.412317
 20
343.667151
 30
0.0
 11
298.950677
 21
344.205511
 31
0.0
  0
LINE
  5
50D
330
507
100
AcDbEntity
  8
LC-006-005-----0
 62
     7
370
    25
100
AcDbLine
 10
326.263898
 20
371.518732
 30
0.0
 11
327.071547
 21
372.326381
 31
0.0
  0
LINE
  5
50E
330
507
100
AcDbEntity
  8
LC-006-005-----0
 62
     7
370
    25
100
AcDbLine
 10
298.25113
 20
346.334391
 30
0.0
 11
299.434293
 21
347.517554
 31
0.0
  0
LINE
  5
50F
330
507
100
AcDbEntity
  8
LC-006-005-----0
 62
     7
370
    25
100
AcDbLine
 10
302.045116
 20
350.128377
 30
0.0
 11
302.751112
 21
350.834373
 31
0.0
  0
LINE
  5
510
330
507
100
AcDbEntity
  8
LC-006-005-----0
 62
     7
370
    25
100
AcDbLine
 10
323.222805
 20
371.306066
 30
0.0
 11
323.9659
 21
372.049161
 31
0.0
  0
LINE
  5
511
330
507
100
AcDbEntity
  8
LC-006-005-----0
 62
     7
370
    25
100
AcDbLine
 10
302.051104
 20
352.962792
 30
0.0
 11
302.751101
 21
353.662789
 31
0.0
  0
LINE
  5
512
330
507
100
AcDbEntity
  8
LC-006-005-----0
 62
     7
370
    25
100
AcDbLine
 10
320.181712
 20
371.0934
 30
0.0
 11
320.924806
 21
371.836495
 31
0.0
  0
LINE
  5
513
330
507
100
AcDbEntity
  8
LC-006-005-----0
 62
     7
370
    25
100
AcDbLine
 10
302.051092
 20
355.791208
 30
0.0
 11
302.75109
 21
356.491205
 31
0.0
  0
LINE
  5
514
330
507
100
AcDbEntity
  8
LC-006-005-----0
 62
     7
370
    25
100
AcDbLine
 10
317.140618
 20
370.880734
 30
0.0
 11
317.883713
 21
371.623828
 31
0.0
  0
LINE
  5
515
330
507
100
AcDbEntity
  8
LC-006-005-----0
 62
     7
370
    25
100
AcDbLine
 10
302.051081
 20
358.619624
 30
0.0
 11
302.751078
 21
359.319621
 31
0.0
  0
LINE
  5
516
330
507
100
AcDbEntity
  8
LC-006-005-----0
 62
     7
370
    25
100
AcDbLine
 10
314.099525
 20
370.668068
 30
0.0
 11
314.84262
 21
371.411162
 31
0.0
  0
LINE
  5
517
330
507
100
AcDbEntity
  8
LC-006-005-----0
 62
     7
370
    25
100
AcDbLine
 10
302.05107
 20
361.448039
 30
0.0
 11
302.751067
 21
362.148037
 31
0.0
  0
LINE
  5
518
330
507
100
AcDbEntity
  8
LC-006-005-----0
 62
     7
370
    25
100
AcDbLine
 10
311.058432
 20
370.455401
 30
0.0
 11
311.801526
 21
371.198496
 31
0.0
  0
LINE
  5
519
330
507
100
AcDbEntity
  8
LC-006-005-----0
 62
     7
370
    25
100
AcDbLine
 10
302.057218
 20
364.282615
 30
0.0
 11
302.842246
 21
365.067643
 31
0.0
  0
LINE
  5
51A
330
507
100
AcDbEntity
  8
LC-006-005-----0
 62
     7
370
    25
100
AcDbLine
 10
307.983055
 20
370.208452
 30
0.0
 11
308.760433
 21
370.98583
 31
0.0
  0
ENDBLK
  5
509
330
507
100
AcDbEntity
  8
0
100
AcDbBlockEnd
  0
BLOCK
  5
51D
330
51C
100
AcDbEntity
  8
0
100
AcDbBlockBegin
  2
*X2027
 70
     1
 71
     0
 10
0.0
 20
0.0
 30
0.0
  3
*X2027
  1

  4
*X20
  0
LINE
  5
51F
330
51C
100
AcDbEntity
  8
LC-006-005-----0
 62
     7
370
    25
100
AcDbLine
 10
473.188159
 20
369.667726
 30
0.0
 11
473.298249
 21
369.777817
 31
0.0
  0
LINE
  5
520
330
51C
100
AcDbEntity
  8
LC-006-005-----0
 62
     7
370
    25
100
AcDbLine
 10
472.622471
 20
369.667723
 30
0.0
 11
473.298247
 21
370.3435
 31
0.0
  0
LINE
  5
521
330
51C
100
AcDbEntity
  8
LC-006-005-----0
 62
     7
370
    25
100
AcDbLine
 10
472.056783
 20
369.667721
 30
0.0
 11
473.298245
 21
370.909183
 31
0.0
  0
LINE
  5
522
330
51C
100
AcDbEntity
  8
LC-006-005-----0
 62
     7
370
    25
100
AcDbLine
 10
471.491095
 20
369.667719
 30
0.0
 11
473.298243
 21
371.474866
 31
0.0
  0
LINE
  5
523
330
51C
100
AcDbEntity
  8
LC-006-005-----0
 62
     7
370
    25
100
AcDbLine
 10
470.925408
 20
369.667717
 30
0.0
 11
473.29824
 21
372.040549
 31
0.0
  0
LINE
  5
524
330
51C
100
AcDbEntity
  8
LC-006-005-----0
 62
     7
370
    25
100
AcDbLine
 10
470.35972
 20
369.667714
 30
0.0
 11
473.298238
 21
372.606233
 31
0.0
  0
LINE
  5
525
330
51C
100
AcDbEntity
  8
LC-006-005-----0
 62
     7
370
    25
100
AcDbLine
 10
469.794032
 20
369.667712
 30
0.0
 11
473.298236
 21
373.171916
 31
0.0
  0
LINE
  5
526
330
51C
100
AcDbEntity
  8
LC-006-005-----0
 62
     7
370
    25
100
AcDbLine
 10
469.228345
 20
369.66771
 30
0.0
 11
473.298234
 21
373.737599
 31
0.0
  0
LINE
  5
527
330
51C
100
AcDbEntity
  8
LC-006-005-----0
 62
     7
370
    25
100
AcDbLine
 10
468.662657
 20
369.667708
 30
0.0
 11
473.298231
 21
374.303282
 31
0.0
  0
LINE
  5
528
330
51C
100
AcDbEntity
  8
LC-006-005-----0
 62
     7
370
    25
100
AcDbLine
 10
468.096969
 20
369.667705
 30
0.0
 11
472.796988
 21
374.367724
 31
0.0
  0
LINE
  5
529
330
51C
100
AcDbEntity
  8
LC-006-005-----0
 62
     7
370
    25
100
AcDbLine
 10
467.531282
 20
369.667703
 30
0.0
 11
472.2313
 21
374.367722
 31
0.0
  0
LINE
  5
52A
330
51C
100
AcDbEntity
  8
LC-006-005-----0
 62
     7
370
    25
100
AcDbLine
 10
466.965594
 20
369.667701
 30
0.0
 11
471.665613
 21
374.36772
 31
0.0
  0
LINE
  5
52B
330
51C
100
AcDbEntity
  8
LC-006-005-----0
 62
     7
370
    25
100
AcDbLine
 10
466.399906
 20
369.667699
 30
0.0
 11
471.099925
 21
374.367717
 31
0.0
  0
LINE
  5
52C
330
51C
100
AcDbEntity
  8
LC-006-005-----0
 62
     7
370
    25
100
AcDbLine
 10
465.834219
 20
369.667696
 30
0.0
 11
470.534237
 21
374.367715
 31
0.0
  0
LINE
  5
52D
330
51C
100
AcDbEntity
  8
LC-006-005-----0
 62
     7
370
    25
100
AcDbLine
 10
465.268531
 20
369.667694
 30
0.0
 11
469.96855
 21
374.367713
 31
0.0
  0
LINE
  5
52E
330
51C
100
AcDbEntity
  8
LC-006-005-----0
 62
     7
370
    25
100
AcDbLine
 10
464.702843
 20
369.667692
 30
0.0
 11
469.402862
 21
374.367711
 31
0.0
  0
LINE
  5
52F
330
51C
100
AcDbEntity
  8
LC-006-005-----0
 62
     7
370
    25
100
AcDbLine
 10
464.137156
 20
369.66769
 30
0.0
 11
468.837174
 21
374.367708
 31
0.0
  0
LINE
  5
530
330
51C
100
AcDbEntity
  8
LC-006-005-----0
 62
     7
370
    25
100
AcDbLine
 10
463.571468
 20
369.667687
 30
0.0
 11
468.271487
 21
374.367706
 31
0.0
  0
LINE
  5
531
330
51C
100
AcDbEntity
  8
LC-006-005-----0
 62
     7
370
    25
100
AcDbLine
 10
463.298249
 20
369.960154
 30
0.0
 11
467.705799
 21
374.367704
 31
0.0
  0
LINE
  5
532
330
51C
100
AcDbEntity
  8
LC-006-005-----0
 62
     7
370
    25
100
AcDbLine
 10
463.298246
 20
370.525837
 30
0.0
 11
467.140111
 21
374.367702
 31
0.0
  0
LINE
  5
533
330
51C
100
AcDbEntity
  8
LC-006-005-----0
 62
     7
370
    25
100
AcDbLine
 10
463.298244
 20
371.09152
 30
0.0
 11
466.574424
 21
374.367699
 31
0.0
  0
LINE
  5
534
330
51C
100
AcDbEntity
  8
LC-006-005-----0
 62
     7
370
    25
100
AcDbLine
 10
463.298242
 20
371.657203
 30
0.0
 11
466.008736
 21
374.367697
 31
0.0
  0
LINE
  5
535
330
51C
100
AcDbEntity
  8
LC-006-005-----0
 62
     7
370
    25
100
AcDbLine
 10
463.29824
 20
372.222886
 30
0.0
 11
465.443048
 21
374.367695
 31
0.0
  0
LINE
  5
536
330
51C
100
AcDbEntity
  8
LC-006-005-----0
 62
     7
370
    25
100
AcDbLine
 10
463.298237
 20
372.788569
 30
0.0
 11
464.87736
 21
374.367693
 31
0.0
  0
LINE
  5
537
330
51C
100
AcDbEntity
  8
LC-006-005-----0
 62
     7
370
    25
100
AcDbLine
 10
463.298235
 20
373.354253
 30
0.0
 11
464.311673
 21
374.36769
 31
0.0
  0
LINE
  5
538
330
51C
100
AcDbEntity
  8
LC-006-005-----0
 62
     7
370
    25
100
AcDbLine
 10
463.298233
 20
373.919936
 30
0.0
 11
463.745985
 21
374.367688
 31
0.0
  0
ENDBLK
  5
51E
330
51C
100
AcDbEntity
  8
0
100
AcDbBlockEnd
  0
BLOCK
  5
53B
330
53A
100
AcDbEntity
  8
0
100
AcDbBlockBegin
  2
*X2128
 70
     1
 71
     0
 10
0.0
 20
0.0
 30
0.0
  3
*X2128
  1

  4
*X21
  0
LINE
  5
53D
330
53A
100
AcDbEntity
  8
LC-006-005-----0
 62
     7
370
    25
100
AcDbLine
 10
452.823402
 20
369.667644
 30
0.0
 11
453.298248
 21
370.142491
 31
0.0
  0
LINE
  5
53E
330
53A
100
AcDbEntity
  8
LC-006-005-----0
 62
     7
370
    25
100
AcDbLine
 10
452.257714
 20
369.667642
 30
0.0
 11
453.298246
 21
370.708174
 31
0.0
  0
LINE
  5
53F
330
53A
100
AcDbEntity
  8
LC-006-005-----0
 62
     7
370
    25
100
AcDbLine
 10
451.692026
 20
369.66764
 30
0.0
 11
453.298243
 21
371.273857
 31
0.0
  0
LINE
  5
540
330
53A
100
AcDbEntity
  8
LC-006-005-----0
 62
     7
370
    25
100
AcDbLine
 10
451.126339
 20
369.667637
 30
0.0
 11
453.298241
 21
371.83954
 31
0.0
  0
LINE
  5
541
330
53A
100
AcDbEntity
  8
LC-006-005-----0
 62
     7
370
    25
100
AcDbLine
 10
450.560651
 20
369.667635
 30
0.0
 11
453.298239
 21
372.405223
 31
0.0
  0
LINE
  5
542
330
53A
100
AcDbEntity
  8
LC-006-005-----0
 62
     7
370
    25
100
AcDbLine
 10
449.994963
 20
369.667633
 30
0.0
 11
453.298237
 21
372.970906
 31
0.0
  0
LINE
  5
543
330
53A
100
AcDbEntity
  8
LC-006-005-----0
 62
     7
370
    25
100
AcDbLine
 10
449.429276
 20
369.667631
 30
0.0
 11
453.298234
 21
373.53659
 31
0.0
  0
LINE
  5
544
330
53A
100
AcDbEntity
  8
LC-006-005-----0
 62
     7
370
    25
100
AcDbLine
 10
448.863588
 20
369.667628
 30
0.0
 11
453.298232
 21
374.102273
 31
0.0
  0
LINE
  5
545
330
53A
100
AcDbEntity
  8
LC-006-005-----0
 62
     7
370
    25
100
AcDbLine
 10
448.2979
 20
369.667626
 30
0.0
 11
452.997919
 21
374.367645
 31
0.0
  0
LINE
  5
546
330
53A
100
AcDbEntity
  8
LC-006-005-----0
 62
     7
370
    25
100
AcDbLine
 10
447.732213
 20
369.667624
 30
0.0
 11
452.432231
 21
374.367643
 31
0.0
  0
LINE
  5
547
330
53A
100
AcDbEntity
  8
LC-006-005-----0
 62
     7
370
    25
100
AcDbLine
 10
447.166525
 20
369.667622
 30
0.0
 11
451.866544
 21
374.36764
 31
0.0
  0
LINE
  5
548
330
53A
100
AcDbEntity
  8
LC-006-005-----0
 62
     7
370
    25
100
AcDbLine
 10
446.600837
 20
369.667619
 30
0.0
 11
451.300856
 21
374.367638
 31
0.0
  0
LINE
  5
549
330
53A
100
AcDbEntity
  8
LC-006-005-----0
 62
     7
370
    25
100
AcDbLine
 10
446.035149
 20
369.667617
 30
0.0
 11
450.735168
 21
374.367636
 31
0.0
  0
LINE
  5
54A
330
53A
100
AcDbEntity
  8
LC-006-005-----0
 62
     7
370
    25
100
AcDbLine
 10
445.469462
 20
369.667615
 30
0.0
 11
450.169481
 21
374.367634
 31
0.0
  0
LINE
  5
54B
330
53A
100
AcDbEntity
  8
LC-006-005-----0
 62
     7
370
    25
100
AcDbLine
 10
444.903774
 20
369.667613
 30
0.0
 11
449.603793
 21
374.367631
 31
0.0
  0
LINE
  5
54C
330
53A
100
AcDbEntity
  8
LC-006-005-----0
 62
     7
370
    25
100
AcDbLine
 10
444.338086
 20
369.66761
 30
0.0
 11
449.038105
 21
374.367629
 31
0.0
  0
LINE
  5
54D
330
53A
100
AcDbEntity
  8
LC-006-005-----0
 62
     7
370
    25
100
AcDbLine
 10
443.772399
 20
369.667608
 30
0.0
 11
448.472418
 21
374.367627
 31
0.0
  0
LINE
  5
54E
330
53A
100
AcDbEntity
  8
LC-006-005-----0
 62
     7
370
    25
100
AcDbLine
 10
443.29825
 20
369.759144
 30
0.0
 11
447.90673
 21
374.367625
 31
0.0
  0
LINE
  5
54F
330
53A
100
AcDbEntity
  8
LC-006-005-----0
 62
     7
370
    25
100
AcDbLine
 10
443.298247
 20
370.324827
 30
0.0
 11
447.341042
 21
374.367622
 31
0.0
  0
LINE
  5
550
330
53A
100
AcDbEntity
  8
LC-006-005-----0
 62
     7
370
    25
100
AcDbLine
 10
443.298245
 20
370.890511
 30
0.0
 11
446.775354
 21
374.36762
 31
0.0
  0
LINE
  5
551
330
53A
100
AcDbEntity
  8
LC-006-005-----0
 62
     7
370
    25
100
AcDbLine
 10
443.298243
 20
371.456194
 30
0.0
 11
446.209667
 21
374.367618
 31
0.0
  0
LINE
  5
552
330
53A
100
AcDbEntity
  8
LC-006-005-----0
 62
     7
370
    25
100
AcDbLine
 10
443.29824
 20
372.021877
 30
0.0
 11
445.643979
 21
374.367616
 31
0.0
  0
LINE
  5
553
330
53A
100
AcDbEntity
  8
LC-006-005-----0
 62
     7
370
    25
100
AcDbLine
 10
443.298238
 20
372.58756
 30
0.0
 11
445.078291
 21
374.367613
 31
0.0
  0
LINE
  5
554
330
53A
100
AcDbEntity
  8
LC-006-005-----0
 62
     7
370
    25
100
AcDbLine
 10
443.298236
 20
373.153243
 30
0.0
 11
444.512604
 21
374.367611
 31
0.0
  0
LINE
  5
555
330
53A
100
AcDbEntity
  8
LC-006-005-----0
 62
     7
370
    25
100
AcDbLine
 10
443.298234
 20
373.718926
 30
0.0
 11
443.946916
 21
374.367609
 31
0.0
  0
LINE
  5
556
330
53A
100
AcDbEntity
  8
LC-006-005-----0
 62
     7
370
    25
100
AcDbLine
 10
443.298231
 20
374.28461
 30
0.0
 11
443.381228
 21
374.367606
 31
0.0
  0
ENDBLK
  5
53C
330
53A
100
AcDbEntity
  8
0
100
AcDbBlockEnd
  0
BLOCK
  5
559
330
558
100
AcDbEntity
  8
0
100
AcDbBlockBegin
  2
*X2229
 70
     1
 71
     0
 10
0.0
 20
0.0
 30
0.0
  3
*X2229
  1

  4
*X22
  0
LINE
  5
55B
330
558
100
AcDbEntity
  8
LC-006-005-----0
 62
     7
370
    25
100
AcDbLine
 10
433.024333
 20
369.667565
 30
0.0
 11
433.298249
 21
369.941481
 31
0.0
  0
LINE
  5
55C
330
558
100
AcDbEntity
  8
LC-006-005-----0
 62
     7
370
    25
100
AcDbLine
 10
432.458645
 20
369.667563
 30
0.0
 11
433.298247
 21
370.507164
 31
0.0
  0
LINE
  5
55D
330
558
100
AcDbEntity
  8
LC-006-005-----0
 62
     7
370
    25
100
AcDbLine
 10
431.892957
 20
369.667561
 30
0.0
 11
433.298244
 21
371.072848
 31
0.0
  0
LINE
  5
55E
330
558
100
AcDbEntity
  8
LC-006-005-----0
 62
     7
370
    25
100
AcDbLine
 10
431.32727
 20
369.667558
 30
0.0
 11
433.298242
 21
371.638531
 31
0.0
  0
LINE
  5
55F
330
558
100
AcDbEntity
  8
LC-006-005-----0
 62
     7
370
    25
100
AcDbLine
 10
430.761582
 20
369.667556
 30
0.0
 11
433.29824
 21
372.204214
 31
0.0
  0
LINE
  5
560
330
558
100
AcDbEntity
  8
LC-006-005-----0
 62
     7
370
    25
100
AcDbLine
 10
430.195894
 20
369.667554
 30
0.0
 11
433.298238
 21
372.769897
 31
0.0
  0
LINE
  5
561
330
558
100
AcDbEntity
  8
LC-006-005-----0
 62
     7
370
    25
100
AcDbLine
 10
429.630207
 20
369.667551
 30
0.0
 11
433.298235
 21
373.33558
 31
0.0
  0
LINE
  5
562
330
558
100
AcDbEntity
  8
LC-006-005-----0
 62
     7
370
    25
100
AcDbLine
 10
429.064519
 20
369.667549
 30
0.0
 11
433.298233
 21
373.901263
 31
0.0
  0
LINE
  5
563
330
558
100
AcDbEntity
  8
LC-006-005-----0
 62
     7
370
    25
100
AcDbLine
 10
428.498831
 20
369.667547
 30
0.0
 11
433.19885
 21
374.367566
 31
0.0
  0
LINE
  5
564
330
558
100
AcDbEntity
  8
LC-006-005-----0
 62
     7
370
    25
100
AcDbLine
 10
427.933143
 20
369.667545
 30
0.0
 11
432.633162
 21
374.367563
 31
0.0
  0
LINE
  5
565
330
558
100
AcDbEntity
  8
LC-006-005-----0
 62
     7
370
    25
100
AcDbLine
 10
427.367456
 20
369.667542
 30
0.0
 11
432.067475
 21
374.367561
 31
0.0
  0
LINE
  5
566
330
558
100
AcDbEntity
  8
LC-006-005-----0
 62
     7
370
    25
100
AcDbLine
 10
426.801768
 20
369.66754
 30
0.0
 11
431.501787
 21
374.367559
 31
0.0
  0
LINE
  5
567
330
558
100
AcDbEntity
  8
LC-006-005-----0
 62
     7
370
    25
100
AcDbLine
 10
426.23608
 20
369.667538
 30
0.0
 11
430.936099
 21
374.367557
 31
0.0
  0
LINE
  5
568
330
558
100
AcDbEntity
  8
LC-006-005-----0
 62
     7
370
    25
100
AcDbLine
 10
425.670393
 20
369.667536
 30
0.0
 11
430.370411
 21
374.367554
 31
0.0
  0
LINE
  5
569
330
558
100
AcDbEntity
  8
LC-006-005-----0
 62
     7
370
    25
100
AcDbLine
 10
425.104705
 20
369.667533
 30
0.0
 11
429.804724
 21
374.367552
 31
0.0
  0
LINE
  5
56A
330
558
100
AcDbEntity
  8
LC-006-005-----0
 62
     7
370
    25
100
AcDbLine
 10
424.539017
 20
369.667531
 30
0.0
 11
429.239036
 21
374.36755
 31
0.0
  0
LINE
  5
56B
330
558
100
AcDbEntity
  8
LC-006-005-----0
 62
     7
370
    25
100
AcDbLine
 10
423.97333
 20
369.667529
 30
0.0
 11
428.673348
 21
374.367548
 31
0.0
  0
LINE
  5
56C
330
558
100
AcDbEntity
  8
LC-006-005-----0
 62
     7
370
    25
100
AcDbLine
 10
423.407642
 20
369.667527
 30
0.0
 11
428.107661
 21
374.367545
 31
0.0
  0
LINE
  5
56D
330
558
100
AcDbEntity
  8
LC-006-005-----0
 62
     7
370
    25
100
AcDbLine
 10
423.298248
 20
370.123818
 30
0.0
 11
427.541973
 21
374.367543
 31
0.0
  0
LINE
  5
56E
330
558
100
AcDbEntity
  8
LC-006-005-----0
 62
     7
370
    25
100
AcDbLine
 10
423.298246
 20
370.689501
 30
0.0
 11
426.976285
 21
374.367541
 31
0.0
  0
LINE
  5
56F
330
558
100
AcDbEntity
  8
LC-006-005-----0
 62
     7
370
    25
100
AcDbLine
 10
423.298244
 20
371.255184
 30
0.0
 11
426.410598
 21
374.367539
 31
0.0
  0
LINE
  5
570
330
558
100
AcDbEntity
  8
LC-006-005-----0
 62
     7
370
    25
100
AcDbLine
 10
423.298241
 20
371.820868
 30
0.0
 11
425.84491
 21
374.367536
 31
0.0
  0
LINE
  5
571
330
558
100
AcDbEntity
  8
LC-006-005-----0
 62
     7
370
    25
100
AcDbLine
 10
423.298239
 20
372.386551
 30
0.0
 11
425.279222
 21
374.367534
 31
0.0
  0
LINE
  5
572
330
558
100
AcDbEntity
  8
LC-006-005-----0
 62
     7
370
    25
100
AcDbLine
 10
423.298237
 20
372.952234
 30
0.0
 11
424.713535
 21
374.367532
 31
0.0
  0
LINE
  5
573
330
558
100
AcDbEntity
  8
LC-006-005-----0
 62
     7
370
    25
100
AcDbLine
 10
423.298235
 20
373.517917
 30
0.0
 11
424.147847
 21
374.36753
 31
0.0
  0
LINE
  5
574
330
558
100
AcDbEntity
  8
LC-006-005-----0
 62
     7
370
    25
100
AcDbLine
 10
423.298232
 20
374.0836
 30
0.0
 11
423.582159
 21
374.367527
 31
0.0
  0
ENDBLK
  5
55A
330
558
100
AcDbEntity
  8
0
100
AcDbBlockEnd
  0
BLOCK
  5
577
330
576
100
AcDbEntity
  8
0
100
AcDbBlockBegin
  2
*X2330
 70
     1
 71
     0
 10
0.0
 20
0.0
 30
0.0
  3
*X2330
  1

  4
*X23
  0
LINE
  5
579
330
576
100
AcDbEntity
  8
LC-006-005-----0
 62
     7
370
    25
100
AcDbLine
 10
413.225264
 20
369.667486
 30
0.0
 11
413.29825
 21
369.740472
 31
0.0
  0
LINE
  5
57A
330
576
100
AcDbEntity
  8
LC-006-005-----0
 62
     7
370
    25
100
AcDbLine
 10
412.659576
 20
369.667484
 30
0.0
 11
413.298247
 21
370.306155
 31
0.0
  0
LINE
  5
57B
330
576
100
AcDbEntity
  8
LC-006-005-----0
 62
     7
370
    25
100
AcDbLine
 10
412.093888
 20
369.667481
 30
0.0
 11
413.298245
 21
370.871838
 31
0.0
  0
LINE
  5
57C
330
576
100
AcDbEntity
  8
LC-006-005-----0
 62
     7
370
    25
100
AcDbLine
 10
411.5282
 20
369.667479
 30
0.0
 11
413.298243
 21
371.437521
 31
0.0
  0
LINE
  5
57D
330
576
100
AcDbEntity
  8
LC-006-005-----0
 62
     7
370
    25
100
AcDbLine
 10
410.962513
 20
369.667477
 30
0.0
 11
413.298241
 21
372.003205
 31
0.0
  0
LINE
  5
57E
330
576
100
AcDbEntity
  8
LC-006-005-----0
 62
     7
370
    25
100
AcDbLine
 10
410.396825
 20
369.667474
 30
0.0
 11
413.298238
 21
372.568888
 31
0.0
  0
LINE
  5
57F
330
576
100
AcDbEntity
  8
LC-006-005-----0
 62
     7
370
    25
100
AcDbLine
 10
409.831137
 20
369.667472
 30
0.0
 11
413.298236
 21
373.134571
 31
0.0
  0
LINE
  5
580
330
576
100
AcDbEntity
  8
LC-006-005-----0
 62
     7
370
    25
100
AcDbLine
 10
409.26545
 20
369.66747
 30
0.0
 11
413.298234
 21
373.700254
 31
0.0
  0
LINE
  5
581
330
576
100
AcDbEntity
  8
LC-006-005-----0
 62
     7
370
    25
100
AcDbLine
 10
408.699762
 20
369.667468
 30
0.0
 11
413.298232
 21
374.265937
 31
0.0
  0
LINE
  5
582
330
576
100
AcDbEntity
  8
LC-006-005-----0
 62
     7
370
    25
100
AcDbLine
 10
408.134074
 20
369.667465
 30
0.0
 11
412.834093
 21
374.367484
 31
0.0
  0
LINE
  5
583
330
576
100
AcDbEntity
  8
LC-006-005-----0
 62
     7
370
    25
100
AcDbLine
 10
407.568387
 20
369.667463
 30
0.0
 11
412.268405
 21
374.367482
 31
0.0
  0
LINE
  5
584
330
576
100
AcDbEntity
  8
LC-006-005-----0
 62
     7
370
    25
100
AcDbLine
 10
407.002699
 20
369.667461
 30
0.0
 11
411.702718
 21
374.36748
 31
0.0
  0
LINE
  5
585
330
576
100
AcDbEntity
  8
LC-006-005-----0
 62
     7
370
    25
100
AcDbLine
 10
406.437011
 20
369.667459
 30
0.0
 11
411.13703
 21
374.367477
 31
0.0
  0
LINE
  5
586
330
576
100
AcDbEntity
  8
LC-006-005-----0
 62
     7
370
    25
100
AcDbLine
 10
405.871324
 20
369.667456
 30
0.0
 11
410.571342
 21
374.367475
 31
0.0
  0
LINE
  5
587
330
576
100
AcDbEntity
  8
LC-006-005-----0
 62
     7
370
    25
100
AcDbLine
 10
405.305636
 20
369.667454
 30
0.0
 11
410.005655
 21
374.367473
 31
0.0
  0
LINE
  5
588
330
576
100
AcDbEntity
  8
LC-006-005-----0
 62
     7
370
    25
100
AcDbLine
 10
404.739948
 20
369.667452
 30
0.0
 11
409.439967
 21
374.367471
 31
0.0
  0
LINE
  5
589
330
576
100
AcDbEntity
  8
LC-006-005-----0
 62
     7
370
    25
100
AcDbLine
 10
404.174261
 20
369.66745
 30
0.0
 11
408.874279
 21
374.367468
 31
0.0
  0
LINE
  5
58A
330
576
100
AcDbEntity
  8
LC-006-005-----0
 62
     7
370
    25
100
AcDbLine
 10
403.608573
 20
369.667447
 30
0.0
 11
408.308592
 21
374.367466
 31
0.0
  0
LINE
  5
58B
330
576
100
AcDbEntity
  8
LC-006-005-----0
 62
     7
370
    25
100
AcDbLine
 10
403.298249
 20
369.922809
 30
0.0
 11
407.742904
 21
374.367464
 31
0.0
  0
LINE
  5
58C
330
576
100
AcDbEntity
  8
LC-006-005-----0
 62
     7
370
    25
100
AcDbLine
 10
403.298247
 20
370.488492
 30
0.0
 11
407.177216
 21
374.367462
 31
0.0
  0
LINE
  5
58D
330
576
100
AcDbEntity
  8
LC-006-005-----0
 62
     7
370
    25
100
AcDbLine
 10
403.298244
 20
371.054175
 30
0.0
 11
406.611529
 21
374.367459
 31
0.0
  0
LINE
  5
58E
330
576
100
AcDbEntity
  8
LC-006-005-----0
 62
     7
370
    25
100
AcDbLine
 10
403.298242
 20
371.619858
 30
0.0
 11
406.045841
 21
374.367457
 31
0.0
  0
LINE
  5
58F
330
576
100
AcDbEntity
  8
LC-006-005-----0
 62
     7
370
    25
100
AcDbLine
 10
403.29824
 20
372.185541
 30
0.0
 11
405.480153
 21
374.367455
 31
0.0
  0
LINE
  5
590
330
576
100
AcDbEntity
  8
LC-006-005-----0
 62
     7
370
    25
100
AcDbLine
 10
403.298238
 20
372.751225
 30
0.0
 11
404.914466
 21
374.367453
 31
0.0
  0
LINE
  5
591
330
576
100
AcDbEntity
  8
LC-006-005-----0
 62
     7
370
    25
100
AcDbLine
 10
403.298235
 20
373.316908
 30
0.0
 11
404.348778
 21
374.36745
 31
0.0
  0
LINE
  5
592
330
576
100
AcDbEntity
  8
LC-006-005-----0
 62
     7
370
    25
100
AcDbLine
 10
403.298233
 20
373.882591
 30
0.0
 11
403.78309
 21
374.367448
 31
0.0
  0
ENDBLK
  5
578
330
576
100
AcDbEntity
  8
0
100
AcDbBlockEnd
  0
BLOCK
  5
595
330
594
100
AcDbEntity
  8
0
100
AcDbBlockBegin
  2
*X2431
 70
     1
 71
     0
 10
0.0
 20
0.0
 30
0.0
  3
*X2431
  1

  4
*X24
  0
LINE
  5
597
330
594
100
AcDbEntity
  8
LC-006-005-----0
 62
     7
370
    25
100
AcDbLine
 10
392.860507
 20
369.667404
 30
0.0
 11
393.298248
 21
370.105146
 31
0.0
  0
LINE
  5
598
330
594
100
AcDbEntity
  8
LC-006-005-----0
 62
     7
370
    25
100
AcDbLine
 10
392.294819
 20
369.667402
 30
0.0
 11
393.298246
 21
370.670829
 31
0.0
  0
LINE
  5
599
330
594
100
AcDbEntity
  8
LC-006-005-----0
 62
     7
370
    25
100
AcDbLine
 10
391.729131
 20
369.6674
 30
0.0
 11
393.298244
 21
371.236512
 31
0.0
  0
LINE
  5
59A
330
594
100
AcDbEntity
  8
LC-006-005-----0
 62
     7
370
    25
100
AcDbLine
 10
391.163444
 20
369.667398
 30
0.0
 11
393.298241
 21
371.802195
 31
0.0
  0
LINE
  5
59B
330
594
100
AcDbEntity
  8
LC-006-005-----0
 62
     7
370
    25
100
AcDbLine
 10
390.597756
 20
369.667395
 30
0.0
 11
393.298239
 21
372.367878
 31
0.0
  0
LINE
  5
59C
330
594
100
AcDbEntity
  8
LC-006-005-----0
 62
     7
370
    25
100
AcDbLine
 10
390.032068
 20
369.667393
 30
0.0
 11
393.298237
 21
372.933562
 31
0.0
  0
LINE
  5
59D
330
594
100
AcDbEntity
  8
LC-006-005-----0
 62
     7
370
    25
100
AcDbLine
 10
389.466381
 20
369.667391
 30
0.0
 11
393.298235
 21
373.499245
 31
0.0
  0
LINE
  5
59E
330
594
100
AcDbEntity
  8
LC-006-005-----0
 62
     7
370
    25
100
AcDbLine
 10
388.900693
 20
369.667388
 30
0.0
 11
393.298232
 21
374.064928
 31
0.0
  0
LINE
  5
59F
330
594
100
AcDbEntity
  8
LC-006-005-----0
 62
     7
370
    25
100
AcDbLine
 10
388.335005
 20
369.667386
 30
0.0
 11
393.035024
 21
374.367405
 31
0.0
  0
LINE
  5
5A0
330
594
100
AcDbEntity
  8
LC-006-005-----0
 62
     7
370
    25
100
AcDbLine
 10
387.769318
 20
369.667384
 30
0.0
 11
392.469336
 21
374.367403
 31
0.0
  0
LINE
  5
5A1
330
594
100
AcDbEntity
  8
LC-006-005-----0
 62
     7
370
    25
100
AcDbLine
 10
387.20363
 20
369.667382
 30
0.0
 11
391.903649
 21
374.3674
 31
0.0
  0
LINE
  5
5A2
330
594
100
AcDbEntity
  8
LC-006-005-----0
 62
     7
370
    25
100
AcDbLine
 10
386.637942
 20
369.667379
 30
0.0
 11
391.337961
 21
374.367398
 31
0.0
  0
LINE
  5
5A3
330
594
100
AcDbEntity
  8
LC-006-005-----0
 62
     7
370
    25
100
AcDbLine
 10
386.072254
 20
369.667377
 30
0.0
 11
390.772273
 21
374.367396
 31
0.0
  0
LINE
  5
5A4
330
594
100
AcDbEntity
  8
LC-006-005-----0
 62
     7
370
    25
100
AcDbLine
 10
385.506567
 20
369.667375
 30
0.0
 11
390.206586
 21
374.367394
 31
0.0
  0
LINE
  5
5A5
330
594
100
AcDbEntity
  8
LC-006-005-----0
 62
     7
370
    25
100
AcDbLine
 10
384.940879
 20
369.667373
 30
0.0
 11
389.640898
 21
374.367391
 31
0.0
  0
LINE
  5
5A6
330
594
100
AcDbEntity
  8
LC-006-005-----0
 62
     7
370
    25
100
AcDbLine
 10
384.375191
 20
369.66737
 30
0.0
 11
389.07521
 21
374.367389
 31
0.0
  0
LINE
  5
5A7
330
594
100
AcDbEntity
  8
LC-006-005-----0
 62
     7
370
    25
100
AcDbLine
 10
383.809504
 20
369.667368
 30
0.0
 11
388.509523
 21
374.367387
 31
0.0
  0
LINE
  5
5A8
330
594
100
AcDbEntity
  8
LC-006-005-----0
 62
     7
370
    25
100
AcDbLine
 10
383.29825
 20
369.721799
 30
0.0
 11
387.943835
 21
374.367385
 31
0.0
  0
LINE
  5
5A9
330
594
100
AcDbEntity
  8
LC-006-005-----0
 62
     7
370
    25
100
AcDbLine
 10
383.298247
 20
370.287483
 30
0.0
 11
387.378147
 21
374.367382
 31
0.0
  0
LINE
  5
5AA
330
594
100
AcDbEntity
  8
LC-006-005-----0
 62
     7
370
    25
100
AcDbLine
 10
383.298245
 20
370.853166
 30
0.0
 11
386.812459
 21
374.36738
 31
0.0
  0
LINE
  5
5AB
330
594
100
AcDbEntity
  8
LC-006-005-----0
 62
     7
370
    25
100
AcDbLine
 10
383.298243
 20
371.418849
 30
0.0
 11
386.246772
 21
374.367378
 31
0.0
  0
LINE
  5
5AC
330
594
100
AcDbEntity
  8
LC-006-005-----0
 62
     7
370
    25
100
AcDbLine
 10
383.298241
 20
371.984532
 30
0.0
 11
385.681084
 21
374.367376
 31
0.0
  0
LINE
  5
5AD
330
594
100
AcDbEntity
  8
LC-006-005-----0
 62
     7
370
    25
100
AcDbLine
 10
383.298238
 20
372.550215
 30
0.0
 11
385.115396
 21
374.367373
 31
0.0
  0
LINE
  5
5AE
330
594
100
AcDbEntity
  8
LC-006-005-----0
 62
     7
370
    25
100
AcDbLine
 10
383.298236
 20
373.115898
 30
0.0
 11
384.549709
 21
374.367371
 31
0.0
  0
LINE
  5
5AF
330
594
100
AcDbEntity
  8
LC-006-005-----0
 62
     7
370
    25
100
AcDbLine
 10
383.298234
 20
373.681582
 30
0.0
 11
383.984021
 21
374.367369
 31
0.0
  0
LINE
  5
5B0
330
594
100
AcDbEntity
  8
LC-006-005-----0
 62
     7
370
    25
100
AcDbLine
 10
383.298232
 20
374.247265
 30
0.0
 11
383.418333
 21
374.367367
 31
0.0
  0
ENDBLK
  5
596
330
594
100
AcDbEntity
  8
0
100
AcDbBlockEnd
  0
BLOCK
  5
5C1
330
5C0
100
AcDbEntity
  8
0
100
AcDbBlockBegin
  2
*X2532
 70
     1
 71
     0
 10
0.0
 20
0.0
 30
0.0
  3
*X2532
  1

  4
*X25
  0
LINE
  5
5C3
330
5C0
100
AcDbEntity
  8
LC-006-005-----0
 62
     7
370
    25
100
AcDbLine
 10
296.600524
 20
347.512212
 30
0.0
 11
299.100534
 21
350.012222
 31
0.0
  0
LINE
  5
5C4
330
5C0
100
AcDbEntity
  8
LC-006-005-----0
 62
     7
370
    25
100
AcDbLine
 10
299.48872
 20
350.400408
 30
0.0
 11
301.98871
 21
352.900398
 31
0.0
  0
LINE
  5
5C5
330
5C0
100
AcDbEntity
  8
LC-006-005-----0
 62
     7
370
    25
100
AcDbLine
 10
293.772086
 20
347.512201
 30
0.0
 11
296.272096
 21
350.012211
 31
0.0
  0
LINE
  5
5C6
330
5C0
100
AcDbEntity
  8
LC-006-005-----0
 62
     7
370
    25
100
AcDbLine
 10
299.488708
 20
353.228824
 30
0.0
 11
301.988698
 21
355.728814
 31
0.0
  0
LINE
  5
5C7
330
5C0
100
AcDbEntity
  8
LC-006-005-----0
 62
     7
370
    25
100
AcDbLine
 10
291.988727
 20
348.55727
 30
0.0
 11
293.443657
 21
350.0122
 31
0.0
  0
LINE
  5
5C8
330
5C0
100
AcDbEntity
  8
LC-006-005-----0
 62
     7
370
    25
100
AcDbLine
 10
299.488697
 20
356.05724
 30
0.0
 11
301.988687
 21
358.55723
 31
0.0
  0
LINE
  5
5C9
330
5C0
100
AcDbEntity
  8
LC-006-005-----0
 62
     7
370
    25
100
AcDbLine
 10
299.488686
 20
358.885655
 30
0.0
 11
301.988676
 21
361.385645
 31
0.0
  0
LINE
  5
5CA
330
5C0
100
AcDbEntity
  8
LC-006-005-----0
 62
     7
370
    25
100
AcDbLine
 10
299.488674
 20
361.714071
 30
0.0
 11
301.988664
 21
364.214061
 31
0.0
  0
LINE
  5
5CB
330
5C0
100
AcDbEntity
  8
LC-006-005-----0
 62
     7
370
    25
100
AcDbLine
 10
299.488663
 20
364.542487
 30
0.0
 11
301.988653
 21
367.042477
 31
0.0
  0
LINE
  5
5CC
330
5C0
100
AcDbEntity
  8
LC-006-005-----0
 62
     7
370
    25
100
AcDbLine
 10
299.488652
 20
367.370903
 30
0.0
 11
299.629618
 21
367.511869
 31
0.0
  0
ENDBLK
  5
5C2
330
5C0
100
AcDbEntity
  8
0
100
AcDbBlockEnd
  0
BLOCK
  5
5DB
330
5DA
100
AcDbEntity
  8
0
100
AcDbBlockBegin
  2
*X2633
 70
     1
 71
     0
 10
0.0
 20
0.0
 30
0.0
  3
*X2633
  1

  4
*X26
  0
LINE
  5
5DD
330
5DA
100
AcDbEntity
  8
LC-006-005-----0
 62
     7
370
    25
100
AcDbLine
 10
373.041
 20
369.646887
 30
0.0
 11
373.448084
 21
370.053972
 31
0.0
  0
LINE
  5
5DE
330
5DA
100
AcDbEntity
  8
LC-006-005-----0
 62
     7
370
    25
100
AcDbLine
 10
372.465262
 20
369.636835
 30
0.0
 11
373.438378
 21
370.60995
 31
0.0
  0
LINE
  5
5DF
330
5DA
100
AcDbEntity
  8
LC-006-005-----0
 62
     7
370
    25
100
AcDbLine
 10
371.889525
 20
369.626783
 30
0.0
 11
373.428671
 21
371.165929
 31
0.0
  0
LINE
  5
5E0
330
5DA
100
AcDbEntity
  8
LC-006-005-----0
 62
     7
370
    25
100
AcDbLine
 10
371.313788
 20
369.616732
 30
0.0
 11
373.418964
 21
371.721908
 31
0.0
  0
LINE
  5
5E1
330
5DA
100
AcDbEntity
  8
LC-006-005-----0
 62
     7
370
    25
100
AcDbLine
 10
370.738051
 20
369.60668
 30
0.0
 11
373.409257
 21
372.277886
 31
0.0
  0
LINE
  5
5E2
330
5DA
100
AcDbEntity
  8
LC-006-005-----0
 62
     7
370
    25
100
AcDbLine
 10
370.162313
 20
369.596628
 30
0.0
 11
373.39955
 21
372.833865
 31
0.0
  0
LINE
  5
5E3
330
5DA
100
AcDbEntity
  8
LC-006-005-----0
 62
     7
370
    25
100
AcDbLine
 10
369.586576
 20
369.586576
 30
0.0
 11
373.389843
 21
373.389843
 31
0.0
  0
LINE
  5
5E4
330
5DA
100
AcDbEntity
  8
LC-006-005-----0
 62
     7
370
    25
100
AcDbLine
 10
369.010839
 20
369.576524
 30
0.0
 11
373.380136
 21
373.945822
 31
0.0
  0
LINE
  5
5E5
330
5DA
100
AcDbEntity
  8
LC-006-005-----0
 62
     7
370
    25
100
AcDbLine
 10
368.435102
 20
369.566472
 30
0.0
 11
373.219346
 21
374.350717
 31
0.0
  0
LINE
  5
5E6
330
5DA
100
AcDbEntity
  8
LC-006-005-----0
 62
     7
370
    25
100
AcDbLine
 10
367.859364
 20
369.556421
 30
0.0
 11
372.643609
 21
374.340665
 31
0.0
  0
LINE
  5
5E7
330
5DA
100
AcDbEntity
  8
LC-006-005-----0
 62
     7
370
    25
100
AcDbLine
 10
367.283627
 20
369.546369
 30
0.0
 11
372.067872
 21
374.330613
 31
0.0
  0
LINE
  5
5E8
330
5DA
100
AcDbEntity
  8
LC-006-005-----0
 62
     7
370
    25
100
AcDbLine
 10
366.70789
 20
369.536317
 30
0.0
 11
371.492134
 21
374.320562
 31
0.0
  0
LINE
  5
5E9
330
5DA
100
AcDbEntity
  8
LC-006-005-----0
 62
     7
370
    25
100
AcDbLine
 10
366.132153
 20
369.526265
 30
0.0
 11
370.916397
 21
374.31051
 31
0.0
  0
LINE
  5
5EA
330
5DA
100
AcDbEntity
  8
LC-006-005-----0
 62
     7
370
    25
100
AcDbLine
 10
365.556415
 20
369.516213
 30
0.0
 11
370.34066
 21
374.300458
 31
0.0
  0
LINE
  5
5EB
330
5DA
100
AcDbEntity
  8
LC-006-005-----0
 62
     7
370
    25
100
AcDbLine
 10
364.980678
 20
369.506161
 30
0.0
 11
369.764923
 21
374.290406
 31
0.0
  0
LINE
  5
5EC
330
5DA
100
AcDbEntity
  8
LC-006-005-----0
 62
     7
370
    25
100
AcDbLine
 10
364.404941
 20
369.49611
 30
0.0
 11
369.189185
 21
374.280354
 31
0.0
  0
LINE
  5
5ED
330
5DA
100
AcDbEntity
  8
LC-006-005-----0
 62
     7
370
    25
100
AcDbLine
 10
363.829203
 20
369.486058
 30
0.0
 11
368.613448
 21
374.270302
 31
0.0
  0
LINE
  5
5EE
330
5DA
100
AcDbEntity
  8
LC-006-005-----0
 62
     7
370
    25
100
AcDbLine
 10
363.44422
 20
369.666759
 30
0.0
 11
368.037711
 21
374.260251
 31
0.0
  0
LINE
  5
5EF
330
5DA
100
AcDbEntity
  8
LC-006-005-----0
 62
     7
370
    25
100
AcDbLine
 10
363.434513
 20
370.222738
 30
0.0
 11
367.461974
 21
374.250199
 31
0.0
  0
LINE
  5
5F0
330
5DA
100
AcDbEntity
  8
LC-006-005-----0
 62
     7
370
    25
100
AcDbLine
 10
363.424806
 20
370.778717
 30
0.0
 11
366.886236
 21
374.240147
 31
0.0
  0
LINE
  5
5F1
330
5DA
100
AcDbEntity
  8
LC-006-005-----0
 62
     7
370
    25
100
AcDbLine
 10
363.415099
 20
371.334695
 30
0.0
 11
366.310499
 21
374.230095
 31
0.0
  0
LINE
  5
5F2
330
5DA
100
AcDbEntity
  8
LC-006-005-----0
 62
     7
370
    25
100
AcDbLine
 10
363.405392
 20
371.890674
 30
0.0
 11
365.734762
 21
374.220043
 31
0.0
  0
LINE
  5
5F3
330
5DA
100
AcDbEntity
  8
LC-006-005-----0
 62
     7
370
    25
100
AcDbLine
 10
363.395685
 20
372.446652
 30
0.0
 11
365.159025
 21
374.209991
 31
0.0
  0
LINE
  5
5F4
330
5DA
100
AcDbEntity
  8
LC-006-005-----0
 62
     7
370
    25
100
AcDbLine
 10
363.385979
 20
373.002631
 30
0.0
 11
364.583287
 21
374.19994
 31
0.0
  0
LINE
  5
5F5
330
5DA
100
AcDbEntity
  8
LC-006-005-----0
 62
     7
370
    25
100
AcDbLine
 10
363.376272
 20
373.558609
 30
0.0
 11
364.00755
 21
374.189888
 31
0.0
  0
LINE
  5
5F6
330
5DA
100
AcDbEntity
  8
LC-006-005-----0
 62
     7
370
    25
100
AcDbLine
 10
363.366565
 20
374.114588
 30
0.0
 11
363.431813
 21
374.179836
 31
0.0
  0
ENDBLK
  5
5DC
330
5DA
100
AcDbEntity
  8
0
100
AcDbBlockEnd
  0
BLOCK
  5
5FB
330
5FA
100
AcDbEntity
  8
0
100
AcDbBlockBegin
  2
*X2734
 70
     1
 71
     0
 10
0.0
 20
0.0
 30
0.0
  3
*X2734
  1

  4
*X27
  0
LINE
  5
5FD
330
5FA
100
AcDbEntity
  8
LC-006-005-----0
 62
     7
370
    25
100
AcDbLine
 10
352.890196
 20
369.295073
 30
0.0
 11
353.425985
 21
369.830863
 31
0.0
  0
LINE
  5
5FE
330
5FA
100
AcDbEntity
  8
LC-006-005-----0
 62
     7
370
    25
100
AcDbLine
 10
352.314458
 20
369.285021
 30
0.0
 11
353.416279
 21
370.386841
 31
0.0
  0
LINE
  5
5FF
330
5FA
100
AcDbEntity
  8
LC-006-005-----0
 62
     7
370
    25
100
AcDbLine
 10
351.738721
 20
369.274969
 30
0.0
 11
353.406572
 21
370.94282
 31
0.0
  0
LINE
  5
600
330
5FA
100
AcDbEntity
  8
LC-006-005-----0
 62
     7
370
    25
100
AcDbLine
 10
351.162984
 20
369.264917
 30
0.0
 11
353.396865
 21
371.498798
 31
0.0
  0
LINE
  5
601
330
5FA
100
AcDbEntity
  8
LC-006-005-----0
 62
     7
370
    25
100
AcDbLine
 10
350.587246
 20
369.254865
 30
0.0
 11
353.387158
 21
372.054777
 31
0.0
  0
LINE
  5
602
330
5FA
100
AcDbEntity
  8
LC-006-005-----0
 62
     7
370
    25
100
AcDbLine
 10
350.011509
 20
369.244814
 30
0.0
 11
353.377451
 21
372.610755
 31
0.0
  0
LINE
  5
603
330
5FA
100
AcDbEntity
  8
LC-006-005-----0
 62
     7
370
    25
100
AcDbLine
 10
349.435772
 20
369.234762
 30
0.0
 11
353.367744
 21
373.166734
 31
0.0
  0
LINE
  5
604
330
5FA
100
AcDbEntity
  8
LC-006-005-----0
 62
     7
370
    25
100
AcDbLine
 10
348.860035
 20
369.22471
 30
0.0
 11
353.358037
 21
373.722713
 31
0.0
  0
LINE
  5
605
330
5FA
100
AcDbEntity
  8
LC-006-005-----0
 62
     7
370
    25
100
AcDbLine
 10
348.284297
 20
369.214658
 30
0.0
 11
353.068542
 21
373.998903
 31
0.0
  0
LINE
  5
606
330
5FA
100
AcDbEntity
  8
LC-006-005-----0
 62
     7
370
    25
100
AcDbLine
 10
347.70856
 20
369.204606
 30
0.0
 11
352.492805
 21
373.988851
 31
0.0
  0
LINE
  5
607
330
5FA
100
AcDbEntity
  8
LC-006-005-----0
 62
     7
370
    25
100
AcDbLine
 10
347.132823
 20
369.194554
 30
0.0
 11
351.917068
 21
373.978799
 31
0.0
  0
LINE
  5
608
330
5FA
100
AcDbEntity
  8
LC-006-005-----0
 62
     7
370
    25
100
AcDbLine
 10
346.557086
 20
369.184503
 30
0.0
 11
351.34133
 21
373.968747
 31
0.0
  0
LINE
  5
609
330
5FA
100
AcDbEntity
  8
LC-006-005-----0
 62
     7
370
    25
100
AcDbLine
 10
345.981348
 20
369.174451
 30
0.0
 11
350.765593
 21
373.958696
 31
0.0
  0
LINE
  5
60A
330
5FA
100
AcDbEntity
  8
LC-006-005-----0
 62
     7
370
    25
100
AcDbLine
 10
345.405611
 20
369.164399
 30
0.0
 11
350.189856
 21
373.948644
 31
0.0
  0
LINE
  5
60B
330
5FA
100
AcDbEntity
  8
LC-006-005-----0
 62
     7
370
    25
100
AcDbLine
 10
344.829874
 20
369.154347
 30
0.0
 11
349.614119
 21
373.938592
 31
0.0
  0
LINE
  5
60C
330
5FA
100
AcDbEntity
  8
LC-006-005-----0
 62
     7
370
    25
100
AcDbLine
 10
344.254137
 20
369.144295
 30
0.0
 11
349.038381
 21
373.92854
 31
0.0
  0
LINE
  5
60D
330
5FA
100
AcDbEntity
  8
LC-006-005-----0
 62
     7
370
    25
100
AcDbLine
 10
343.678399
 20
369.134243
 30
0.0
 11
348.462644
 21
373.918488
 31
0.0
  0
LINE
  5
60E
330
5FA
100
AcDbEntity
  8
LC-006-005-----0
 62
     7
370
    25
100
AcDbLine
 10
343.422121
 20
369.44365
 30
0.0
 11
347.886907
 21
373.908436
 31
0.0
  0
LINE
  5
60F
330
5FA
100
AcDbEntity
  8
LC-006-005-----0
 62
     7
370
    25
100
AcDbLine
 10
343.412414
 20
369.999629
 30
0.0
 11
347.31117
 21
373.898385
 31
0.0
  0
LINE
  5
610
330
5FA
100
AcDbEntity
  8
LC-006-005-----0
 62
     7
370
    25
100
AcDbLine
 10
343.402707
 20
370.555607
 30
0.0
 11
346.735432
 21
373.888333
 31
0.0
  0
LINE
  5
611
330
5FA
100
AcDbEntity
  8
LC-006-005-----0
 62
     7
370
    25
100
AcDbLine
 10
343.393
 20
371.111586
 30
0.0
 11
346.159695
 21
373.878281
 31
0.0
  0
LINE
  5
612
330
5FA
100
AcDbEntity
  8
LC-006-005-----0
 62
     7
370
    25
100
AcDbLine
 10
343.383293
 20
371.667564
 30
0.0
 11
345.583958
 21
373.868229
 31
0.0
  0
LINE
  5
613
330
5FA
100
AcDbEntity
  8
LC-006-005-----0
 62
     7
370
    25
100
AcDbLine
 10
343.373586
 20
372.223543
 30
0.0
 11
345.00822
 21
373.858177
 31
0.0
  0
LINE
  5
614
330
5FA
100
AcDbEntity
  8
LC-006-005-----0
 62
     7
370
    25
100
AcDbLine
 10
343.363879
 20
372.779522
 30
0.0
 11
344.432483
 21
373.848125
 31
0.0
  0
LINE
  5
615
330
5FA
100
AcDbEntity
  8
LC-006-005-----0
 62
     7
370
    25
100
AcDbLine
 10
343.354173
 20
373.3355
 30
0.0
 11
343.856746
 21
373.838073
 31
0.0
  0
ENDBLK
  5
5FC
330
5FA
100
AcDbEntity
  8
0
100
AcDbBlockEnd
  0
BLOCK
  5
61A
330
619
100
AcDbEntity
  8
0
100
AcDbBlockBegin
  2
*X2835
 70
     1
 71
     0
 10
0.0
 20
0.0
 30
0.0
  3
*X2835
  1

  4
*X28
  0
LINE
  5
61C
330
619
100
AcDbEntity
  8
LC-006-005-----0
 62
     7
370
    25
100
AcDbLine
 10
331.615471
 20
367.253653
 30
0.0
 11
333.298253
 21
368.936435
 31
0.0
  0
LINE
  5
61D
330
619
100
AcDbEntity
  8
LC-006-005-----0
 62
     7
370
    25
100
AcDbLine
 10
330.929668
 20
367.133535
 30
0.0
 11
333.298251
 21
369.502118
 31
0.0
  0
LINE
  5
61E
330
619
100
AcDbEntity
  8
LC-006-005-----0
 62
     7
370
    25
100
AcDbLine
 10
330.321449
 20
367.091002
 30
0.0
 11
333.298248
 21
370.067801
 31
0.0
  0
LINE
  5
61F
330
619
100
AcDbEntity
  8
LC-006-005-----0
 62
     7
370
    25
100
AcDbLine
 10
329.713231
 20
367.048469
 30
0.0
 11
333.298246
 21
370.633484
 31
0.0
  0
LINE
  5
620
330
619
100
AcDbEntity
  8
LC-006-005-----0
 62
     7
370
    25
100
AcDbLine
 10
329.105012
 20
367.005935
 30
0.0
 11
333.298244
 21
371.199167
 31
0.0
  0
LINE
  5
621
330
619
100
AcDbEntity
  8
LC-006-005-----0
 62
     7
370
    25
100
AcDbLine
 10
328.496793
 20
366.963402
 30
0.0
 11
333.298242
 21
371.76485
 31
0.0
  0
LINE
  5
622
330
619
100
AcDbEntity
  8
LC-006-005-----0
 62
     7
370
    25
100
AcDbLine
 10
327.888575
 20
366.920869
 30
0.0
 11
333.298239
 21
372.330534
 31
0.0
  0
LINE
  5
623
330
619
100
AcDbEntity
  8
LC-006-005-----0
 62
     7
370
    25
100
AcDbLine
 10
327.280356
 20
366.878336
 30
0.0
 11
333.298237
 21
372.896217
 31
0.0
  0
LINE
  5
624
330
619
100
AcDbEntity
  8
LC-006-005-----0
 62
     7
370
    25
100
AcDbLine
 10
326.672138
 20
366.835803
 30
0.0
 11
333.298235
 21
373.4619
 31
0.0
  0
LINE
  5
625
330
619
100
AcDbEntity
  8
LC-006-005-----0
 62
     7
370
    25
100
AcDbLine
 10
326.063919
 20
366.793269
 30
0.0
 11
332.917738
 21
373.647089
 31
0.0
  0
LINE
  5
626
330
619
100
AcDbEntity
  8
LC-006-005-----0
 62
     7
370
    25
100
AcDbLine
 10
325.4557
 20
366.750736
 30
0.0
 11
332.342001
 21
373.637037
 31
0.0
  0
LINE
  5
627
330
619
100
AcDbEntity
  8
LC-006-005-----0
 62
     7
370
    25
100
AcDbLine
 10
324.847482
 20
366.708203
 30
0.0
 11
331.766263
 21
373.626985
 31
0.0
  0
LINE
  5
628
330
619
100
AcDbEntity
  8
LC-006-005-----0
 62
     7
370
    25
100
AcDbLine
 10
324.239263
 20
366.66567
 30
0.0
 11
329.304992
 21
371.731398
 31
0.0
  0
LINE
  5
629
330
619
100
AcDbEntity
  8
LC-006-005-----0
 62
     7
370
    25
100
AcDbLine
 10
323.631044
 20
366.623137
 30
0.0
 11
328.696773
 21
371.688865
 31
0.0
  0
LINE
  5
62A
330
619
100
AcDbEntity
  8
LC-006-005-----0
 62
     7
370
    25
100
AcDbLine
 10
323.298261
 20
366.856039
 30
0.0
 11
328.088554
 21
371.646332
 31
0.0
  0
LINE
  5
62B
330
619
100
AcDbEntity
  8
LC-006-005-----0
 62
     7
370
    25
100
AcDbLine
 10
323.298259
 20
367.421722
 30
0.0
 11
327.480336
 21
371.603799
 31
0.0
  0
LINE
  5
62C
330
619
100
AcDbEntity
  8
LC-006-005-----0
 62
     7
370
    25
100
AcDbLine
 10
323.298257
 20
367.987405
 30
0.0
 11
326.872117
 21
371.561266
 31
0.0
  0
LINE
  5
62D
330
619
100
AcDbEntity
  8
LC-006-005-----0
 62
     7
370
    25
100
AcDbLine
 10
323.298254
 20
368.553088
 30
0.0
 11
326.263898
 21
371.518732
 31
0.0
  0
LINE
  5
62E
330
619
100
AcDbEntity
  8
LC-006-005-----0
 62
     7
370
    25
100
AcDbLine
 10
323.298252
 20
369.118772
 30
0.0
 11
325.65568
 21
371.476199
 31
0.0
  0
LINE
  5
62F
330
619
100
AcDbEntity
  8
LC-006-005-----0
 62
     7
370
    25
100
AcDbLine
 10
323.29825
 20
369.684455
 30
0.0
 11
325.047461
 21
371.433666
 31
0.0
  0
LINE
  5
630
330
619
100
AcDbEntity
  8
LC-006-005-----0
 62
     7
370
    25
100
AcDbLine
 10
323.298248
 20
370.250138
 30
0.0
 11
324.439243
 21
371.391133
 31
0.0
  0
LINE
  5
631
330
619
100
AcDbEntity
  8
LC-006-005-----0
 62
     7
370
    25
100
AcDbLine
 10
323.298245
 20
370.815821
 30
0.0
 11
323.831024
 21
371.3486
 31
0.0
  0
ENDBLK
  5
61B
330
619
100
AcDbEntity
  8
0
100
AcDbBlockEnd
  0
BLOCK
  5
65D
330
653
100
AcDbEntity
  8
0
100
AcDbBlockBegin
  2
*D36
 70
     1
 71
     0
 10
0.0
 20
0.0
 30
0.0
  3
*D36
  1

  0
LINE
  5
654
330
653
100
AcDbEntity
  8
LC-008-003-----0
 62
     2
370
    -2
100
AcDbLine
 10
-26.303119
 20
374.366727
 30
0.0
 11
-26.303119
 21
493.65
 31
0.0
  0
LINE
  5
655
330
653
100
AcDbEntity
  8
LC-008-003-----0
 62
     2
370
    -2
100
AcDbLine
 10
473.298231
 20
374.367726
 30
0.0
 11
473.298231
 21
493.65
 31
0.0
  0
LINE
  5
656
330
653
100
AcDbEntity
  8
LC-008-003-----0
 62
     2
370
    -2
100
AcDbLine
 10
1.696881
 20
490.05
 30
0.0
 11
445.298231
 21
490.05
 31
0.0
  0
SOLID
  5
657
330
653
100
AcDbEntity
  8
LC-008-003-----0
 62
     2
100
AcDbTrace
 10
1.696881
 20
494.716667
 30
0.0
 11
1.696881
 21
485.383333
 31
0.0
 12
-26.303119
 22
490.05
 32
0.0
 13
-26.303119
 23
490.05
 33
0.0
  0
SOLID
  5
658
330
653
100
AcDbEntity
  8
LC-008-003-----0
 62
     2
100
AcDbTrace
 10
445.298231
 20
485.383333
 30
0.0
 11
445.298231
 21
494.716667
 31
0.0
 12
473.298231
 22
490.05
 32
0.0
 13
473.298231
 23
490.05
 33
0.0
  0
MTEXT
  5
659
330
653
100
AcDbEntity
  8
LC-008-003-----0
 62
     2
100
AcDbMText
 10
223.497556
 20
520.85
 30
0.0
 40
28.0
 41
0.0
 71
     5
 72
     1
  1
\A1;%%c500
  7
LCTX15-400-0-0pDIN-Schrift
 73
     1
 44
1.0
  0
POINT
  5
65A
330
653
100
AcDbEntity
  8
Defpoints
 62
     0
100
AcDbPoint
 10
-26.303119
 20
374.366727
 30
0.0
  0
POINT
  5
65B
330
653
100
AcDbEntity
  8
Defpoints
 62
     0
100
AcDbPoint
 10
473.298231
 20
374.367726
 30
0.0
  0
POINT
  5
65C
330
653
100
AcDbEntity
  8
Defpoints
 62
     0
100
AcDbPoint
 10
473.298231
 20
490.05
 30
0.0
  0
ENDBLK
  5
65E
330
653
100
AcDbEntity
  8
0
100
AcDbBlockEnd
  0
ENDSEC
  0
SECTION
  2
ENTITIES
  0
LINE
  5
32
330
1F
100
AcDbEntity
  8
LC-001-002-----0
 62
     7
370
    50
100
AcDbLine
 10
240.174805
 20
336.816696
 30
0.0
 11
240.174805
 21
357.316867
 31
0.0
  0
LINE
  5
33
330
1F
100
AcDbEntity
  8
LC-001-002-----0
 62
     7
370
    50
100
AcDbLine
 10
72.742817
 20
369.66738
 30
0.0
 11
113.398417
 21
368.957734
 31
0.0
  0
LINE
  5
36
330
1F
100
AcDbEntity
  8
LC-002-006-MLN-0
 62
     7
370
    25
100
AcDbLine
 10
223.49456
 20
379.66738
 30
0.0
 11
223.49456
 21
138.816692
 31
0.0
  0
LINE
  5
37
330
1F
100
AcDbEntity
  8
LC-001-002-----0
 62
     7
370
    50
100
AcDbLine
 10
72.742817
 20
366.666923
 30
0.0
 11
112.29813
 21
365.976482
 31
0.0
  0
LINE
  5
38
330
1F
100
AcDbEntity
  8
LC-001-002-----0
 62
     7
370
    50
100
AcDbLine
 10
374.254017
 20
369.66738
 30
0.0
 11
333.598417
 21
368.957734
 31
0.0
  0
LINE
  5
39
330
1F
100
AcDbEntity
  8
LC-001-002-----0
 62
     7
370
    50
100
AcDbLine
 10
248.49456
 20
257.816871
 30
0.0
 11
248.49456
 21
226.313984
 31
0.0
  0
LINE
  5
3A
330
1F
100
AcDbEntity
  8
LC-001-002-----0
 62
     7
370
    50
100
AcDbLine
 10
192.99456
 20
336.816696
 30
0.0
 11
195.49456
 21
336.816696
 31
0.0
  0
LINE
  5
3B
330
1F
100
AcDbEntity
  8
LC-001-002-----0
 62
     7
370
    50
100
AcDbLine
 10
240.174805
 20
357.316867
 30
0.0
 11
251.026261
 21
357.316867
 31
0.0
  0
LINE
  5
3C
330
1F
100
AcDbEntity
  8
LC-001-002-----0
 62
     7
370
    50
100
AcDbLine
 10
251.49456
 20
336.816696
 30
0.0
 11
238.424803
 21
336.816696
 31
0.0
  0
LINE
  5
3D
330
1F
100
AcDbEntity
  8
LC-001-002-----0
 62
     7
370
    50
100
AcDbLine
 10
251.494559
 20
335.816696
 30
0.0
 11
238.013969
 21
335.816696
 31
0.0
  0
LINE
  5
3E
330
1F
100
AcDbEntity
  8
LC-001-002-----0
 62
     7
370
    50
100
AcDbLine
 10
260.99456
 20
258.816864
 30
0.0
 11
250.498561
 21
258.81687
 31
0.0
  0
LINE
  5
3F
330
1F
100
AcDbEntity
  8
LC-001-002-----0
 62
     7
370
    50
100
AcDbLine
 10
181.99456
 20
258.81669
 30
0.0
 11
154.99456
 21
258.816696
 31
0.0
  0
ARC
  5
41
330
1F
100
AcDbEntity
  8
LC-003-002-RND-0
 62
     7
370
    50
100
AcDbCircle
 10
116.045192
 20
369.139385
 30
0.0
 40
2.000000000000016
100
AcDbArc
 50
225.0
 51
266.000003
  0
LINE
  5
42
330
1F
100
AcDbEntity
  8
LC-001-002-----0
 62
     7
370
    50
100
AcDbLine
 10
374.254017
 20
366.666923
 30
0.0
 11
334.698704
 21
365.976482
 31
0.0
  0
ARC
  5
43
330
1F
100
AcDbEntity
  8
LC-003-002-RND-0
 62
     7
370
    50
100
AcDbCircle
 10
330.951642
 20
369.139385
 30
0.0
 40
1.999999999999945
100
AcDbArc
 50
273.999997
 51
315.0
  0
LINE
  5
44
330
1F
100
AcDbEntity
  8
LC-001-002-----0
 62
     7
370
    50
100
AcDbLine
 10
310.250185
 20
356.470263
 30
0.0
 11
310.250185
 21
362.970263
 31
0.0
  0
LINE
  5
45
330
1F
100
AcDbEntity
  8
LC-001-002-----0
 62
     7
370
    50
100
AcDbLine
 10
312.250185
 20
362.970263
 30
0.0
 11
310.251567
 21
362.970263
 31
0.0
  0
LINE
  5
46
330
1F
100
AcDbEntity
  8
LC-001-002-----0
 62
     7
370
    50
100
AcDbLine
 10
312.250185
 20
356.970263
 30
0.0
 11
312.250185
 21
362.970263
 31
0.0
  0
LINE
  5
47
330
1F
100
AcDbEntity
  8
LC-001-002-----0
 62
     7
370
    50
100
AcDbLine
 10
314.250185
 20
356.970263
 30
0.0
 11
312.250185
 21
356.970263
 31
0.0
  0
LINE
  5
48
330
1F
100
AcDbEntity
  8
LC-001-002-----0
 62
     7
370
    50
100
AcDbLine
 10
301.551567
 20
344.666696
 30
0.0
 11
301.351567
 21
344.666696
 31
0.0
  0
LINE
  5
49
330
1F
100
AcDbEntity
  8
LC-001-002-----0
 62
     7
370
    50
100
AcDbLine
 10
310.251567
 20
345.966696
 30
0.0
 11
310.251567
 21
362.966696
 31
0.0
  0
LINE
  5
4A
330
1F
100
AcDbEntity
  8
LC-001-002-----0
 62
     7
370
    50
100
AcDbLine
 10
310.250185
 20
356.751328
 30
0.0
 11
310.250185
 21
356.751328
 31
0.0
  0
LINE
  5
4B
330
1F
100
AcDbEntity
  8
LC-001-002-----0
 62
     7
370
    50
100
AcDbLine
 10
301.551567
 20
341.166696
 30
0.0
 11
301.551567
 21
342.666696
 31
0.0
  0
LINE
  5
4C
330
1F
100
AcDbEntity
  8
LC-001-002-----0
 62
     7
370
    50
100
AcDbLine
 10
301.551567
 20
337.716696
 30
0.0
 11
301.551567
 21
338.216696
 31
0.0
  0
LINE
  5
4D
330
1F
100
AcDbEntity
  8
LC-001-002-----0
 62
     7
370
    50
100
AcDbLine
 10
301.551567
 20
336.216696
 30
0.0
 11
301.551567
 21
339.166696
 31
0.0
  0
LINE
  5
4E
330
1F
100
AcDbEntity
  8
LC-001-002-----0
 62
     7
370
    50
100
AcDbLine
 10
301.551567
 20
336.216696
 30
0.0
 11
300.993853
 21
336.216696
 31
0.0
  0
LINE
  5
4F
330
1F
100
AcDbEntity
  8
LC-001-002-----0
 62
     7
370
    50
100
AcDbLine
 10
301.551567
 20
339.166696
 30
0.0
 11
301.351567
 21
339.166696
 31
0.0
  0
ARC
  5
50
330
1F
100
AcDbEntity
  8
LC-003-002-RND-0
 62
     7
370
    50
100
AcDbCircle
 10
301.351567
 20
343.866696
 30
0.0
 40
0.8000000000001819
100
AcDbArc
 50
90.0
 51
180.0
  0
ARC
  5
51
330
1F
100
AcDbEntity
  8
LC-003-002-RND-0
 62
     7
370
    50
100
AcDbCircle
 10
301.351567
 20
340.366696
 30
0.0
 40
0.8000000000001819
100
AcDbArc
 50
90.0
 51
180.0
  0
LINE
  5
52
330
1F
100
AcDbEntity
  8
LC-001-002-----0
 62
     7
370
    50
100
AcDbLine
 10
300.551567
 20
339.966696
 30
0.0
 11
300.551567
 21
340.366696
 31
0.0
  0
LINE
  5
53
330
1F
100
AcDbEntity
  8
LC-001-002-----0
 62
     7
370
    50
100
AcDbLine
 10
300.551567
 20
343.466696
 30
0.0
 11
300.551567
 21
343.866696
 31
0.0
  0
ARC
  5
54
330
1F
100
AcDbEntity
  8
LC-003-002-RND-0
 62
     7
370
    50
100
AcDbCircle
 10
301.351567
 20
339.966696
 30
0.0
 40
0.8000000000001819
100
AcDbArc
 50
180.0
 51
270.0
  0
ARC
  5
55
330
1F
100
AcDbEntity
  8
LC-003-002-RND-0
 62
     7
370
    50
100
AcDbCircle
 10
301.351567
 20
343.466696
 30
0.0
 40
0.8000000000001819
100
AcDbArc
 50
180.0
 51
270.0
  0
LINE
  5
56
330
1F
100
AcDbEntity
  8
LC-001-002-----0
 62
     7
370
    50
100
AcDbLine
 10
301.551567
 20
342.666696
 30
0.0
 11
301.351567
 21
342.666696
 31
0.0
  0
ARC
  5
57
330
1F
100
AcDbEntity
  8
LC-003-002-RND-0
 62
     7
370
    50
100
AcDbCircle
 10
309.751567
 20
345.966696
 30
0.0
 40
0.5
100
AcDbArc
 50
270.0
 51
0.0
  0
LINE
  5
58
330
1F
100
AcDbEntity
  8
LC-001-002-----0
 62
     7
370
    50
100
AcDbLine
 10
331.091154
 20
367.144257
 30
0.0
 11
315.728652
 21
366.070007
 31
0.0
  0
ARC
  5
59
330
1F
100
AcDbEntity
  8
LC-003-002-RND-0
 62
     7
370
    50
100
AcDbCircle
 10
314.302603
 20
357.966696
 30
0.0
 40
1.0
100
AcDbArc
 50
270.0
 51
357.0
  0
LINE
  5
5A
330
1F
100
AcDbEntity
  8
LC-001-002-----0
 62
     7
370
    50
100
AcDbLine
 10
315.728652
 20
366.070007
 30
0.0
 11
315.301232
 21
357.91436
 31
0.0
  0
LINE
  5
5B
330
1F
100
AcDbEntity
  8
LC-001-002-----0
 62
     7
370
    50
100
AcDbLine
 10
374.254017
 20
369.66738
 30
0.0
 11
374.254017
 21
366.666923
 31
0.0
  0
LINE
  5
5C
330
1F
100
AcDbEntity
  8
LC-001-002-----0
 62
     7
370
    50
100
AcDbLine
 10
318.516009
 20
361.933983
 30
0.0
 11
318.27366
 21
357.309688
 31
0.0
  0
LINE
  5
5D
330
1F
100
AcDbEntity
  8
LC-001-002-----0
 62
     7
370
    50
100
AcDbLine
 10
334.698704
 20
365.976482
 30
0.0
 11
332.992079
 21
364.269857
 31
0.0
  0
LINE
  5
5E
330
1F
100
AcDbEntity
  8
LC-001-002-----0
 62
     7
370
    50
100
AcDbLine
 10
301.551567
 20
341.166696
 30
0.0
 11
301.351567
 21
341.166696
 31
0.0
  0
ARC
  5
60
330
1F
100
AcDbEntity
  8
LC-004-001-RND-0
 62
     7
370
    50
100
AcDbCircle
 10
319.987821
 20
361.856849
 30
0.0
 40
1.499999999999829
100
AcDbArc
 50
93.999997
 51
177.0
  0
LINE
  5
61
330
1F
100
AcDbEntity
  8
LC-001-002-----0
 62
     7
370
    50
100
AcDbLine
 10
313.001567
 20
346.466696
 30
0.0
 11
303.74456
 21
333.246319
 31
0.0
  0
LINE
  5
62
330
1F
100
AcDbEntity
  8
LC-001-002-----0
 62
     7
370
    50
100
AcDbLine
 10
315.277771
 20
354.466696
 30
0.0
 11
315.001567
 21
354.466696
 31
0.0
  0
LINE
  5
63
330
1F
100
AcDbEntity
  8
LC-001-002-----0
 62
     7
370
    50
100
AcDbLine
 10
136.746649
 20
346.003844
 30
0.0
 11
136.746649
 21
362.970263
 31
0.0
  0
LINE
  5
65
330
1F
100
AcDbEntity
  8
LC-005-001-----0
 62
     7
370
    50
100
AcDbLine
 10
332.992079
 20
364.269857
 30
0.0
 11
319.883186
 21
363.353195
 31
0.0
  0
ARC
  5
66
330
1F
100
AcDbEntity
  8
LC-003-002-RND-0
 62
     7
370
    50
100
AcDbCircle
 10
315.277771
 20
357.466696
 30
0.0
 40
3.0
100
AcDbArc
 50
270.0
 51
357.0
  0
LINE
  5
67
330
1F
100
AcDbEntity
  8
LC-001-002-----0
 62
     7
370
    50
100
AcDbLine
 10
134.745267
 20
362.970263
 30
0.0
 11
136.746649
 21
362.970263
 31
0.0
  0
ARC
  5
68
330
1F
100
AcDbEntity
  8
LC-003-002-RND-0
 62
     7
370
    50
100
AcDbCircle
 10
315.001567
 20
352.466696
 30
0.0
 40
2.0
100
AcDbArc
 50
90.0
 51
180.0
  0
LINE
  5
69
330
1F
100
AcDbEntity
  8
LC-001-002-----0
 62
     7
370
    50
100
AcDbLine
 10
313.001567
 20
346.466696
 30
0.0
 11
313.001567
 21
352.466696
 31
0.0
  0
LINE
  5
6A
330
1F
100
AcDbEntity
  8
LC-001-002-----0
 62
     7
370
    50
100
AcDbLine
 10
301.551567
 20
337.716696
 30
0.0
 11
301.551567
 21
337.716696
 31
0.0
  0
LINE
  5
6B
330
1F
100
AcDbEntity
  8
LC-001-002-----0
 62
     7
370
    50
100
AcDbLine
 10
309.751567
 20
345.466696
 30
0.0
 11
302.351567
 21
345.466696
 31
0.0
  0
LINE
  5
6C
330
1F
100
AcDbEntity
  8
LC-001-002-----0
 62
     7
370
    50
100
AcDbLine
 10
310.251567
 20
346.966696
 30
0.0
 11
310.251567
 21
348.266078
 31
0.0
  0
LINE
  5
6D
330
1F
100
AcDbEntity
  8
LC-001-002-----0
 62
     7
370
    50
100
AcDbLine
 10
312.251567
 20
362.966696
 30
0.0
 11
310.251567
 21
362.966696
 31
0.0
  0
LINE
  5
6E
330
1F
100
AcDbEntity
  8
LC-001-002-----0
 62
     7
370
    50
100
AcDbLine
 10
301.551567
 20
337.466696
 30
0.0
 11
301.551567
 21
337.966696
 31
0.0
  0
LINE
  5
6F
330
1F
100
AcDbEntity
  8
LC-001-002-----0
 62
     7
370
    50
100
AcDbLine
 10
301.551567
 20
337.666696
 30
0.0
 11
301.551567
 21
338.166696
 31
0.0
  0
LINE
  5
70
330
1F
100
AcDbEntity
  8
LC-001-002-----0
 62
     7
370
    50
100
AcDbLine
 10
333.598417
 20
368.957734
 30
0.0
 11
332.365855
 21
367.725172
 31
0.0
  0
LINE
  5
71
330
1F
100
AcDbEntity
  8
LC-001-002-----0
 62
     7
370
    50
100
AcDbLine
 10
301.551567
 20
337.716696
 30
0.0
 11
301.551567
 21
337.716696
 31
0.0
  0
ARC
  5
72
330
1F
100
AcDbEntity
  8
LC-003-002-RND-0
 62
     7
370
    50
100
AcDbCircle
 10
302.351567
 20
344.666696
 30
0.0
 40
0.8000000000001819
100
AcDbArc
 50
90.0
 51
180.0
  0
LINE
  5
73
330
1F
100
AcDbEntity
  8
LC-001-002-----0
 62
     7
370
    50
100
AcDbLine
 10
301.551567
 20
344.666696
 30
0.0
 11
301.551567
 21
344.666696
 31
0.0
  0
LINE
  5
74
330
1F
100
AcDbEntity
  8
LC-001-002-----0
 62
     7
370
    50
100
AcDbLine
 10
145.995267
 20
270.816696
 30
0.0
 11
145.995267
 21
336.216696
 31
0.0
  0
LINE
  5
75
330
1F
100
AcDbEntity
  8
LC-001-002-----0
 62
     7
370
    50
100
AcDbLine
 10
245.494709
 20
243.816873
 30
0.0
 11
245.494719
 21
258.816698
 31
0.0
  0
LINE
  5
76
330
1F
100
AcDbEntity
  8
LC-001-002-----0
 62
     7
370
    50
100
AcDbLine
 10
201.49456
 20
243.816696
 30
0.0
 11
201.49456
 21
258.816696
 31
0.0
  0
LINE
  5
77
330
1F
100
AcDbEntity
  8
LC-001-002-----0
 62
     7
370
    50
100
AcDbLine
 10
245.494684
 20
226.313986
 30
0.0
 11
245.494709
 21
243.816873
 31
0.0
  0
LINE
  5
78
330
1F
100
AcDbEntity
  8
LC-001-002-----0
 62
     7
370
    50
100
AcDbLine
 10
248.49456
 20
226.313984
 30
0.0
 11
223.49456
 21
226.314
 31
0.0
  0
LINE
  5
79
330
1F
100
AcDbEntity
  8
LC-001-002-----0
 62
     7
370
    50
100
AcDbLine
 10
145.445267
 20
344.666696
 30
0.0
 11
145.645267
 21
344.666696
 31
0.0
  0
LINE
  5
7A
330
1F
100
AcDbEntity
  8
LC-001-002-----0
 62
     7
370
    50
100
AcDbLine
 10
136.746649
 20
356.751328
 30
0.0
 11
136.746649
 21
356.751328
 31
0.0
  0
LINE
  5
7B
330
1F
100
AcDbEntity
  8
LC-001-002-----0
 62
     7
370
    50
100
AcDbLine
 10
145.445267
 20
341.166696
 30
0.0
 11
145.445267
 21
342.666696
 31
0.0
  0
LINE
  5
7C
330
1F
100
AcDbEntity
  8
LC-001-002-----0
 62
     7
370
    50
100
AcDbLine
 10
145.445267
 20
337.716696
 30
0.0
 11
145.445267
 21
338.216696
 31
0.0
  0
LINE
  5
7D
330
1F
100
AcDbEntity
  8
LC-001-002-----0
 62
     7
370
    50
100
AcDbLine
 10
145.445267
 20
336.216696
 30
0.0
 11
145.445267
 21
339.166696
 31
0.0
  0
LINE
  5
7E
330
1F
100
AcDbEntity
  8
LC-001-002-----0
 62
     7
370
    50
100
AcDbLine
 10
145.445267
 20
336.216696
 30
0.0
 11
145.995267
 21
336.216696
 31
0.0
  0
LINE
  5
7F
330
1F
100
AcDbEntity
  8
LC-001-002-----0
 62
     7
370
    50
100
AcDbLine
 10
145.445267
 20
339.166696
 30
0.0
 11
145.645267
 21
339.166696
 31
0.0
  0
ARC
  5
80
330
1F
100
AcDbEntity
  8
LC-003-002-RND-0
 62
     7
370
    50
100
AcDbCircle
 10
145.645267
 20
343.866696
 30
0.0
 40
0.7999999999992724
100
AcDbArc
 50
0.0
 51
90.0
  0
ARC
  5
81
330
1F
100
AcDbEntity
  8
LC-003-002-RND-0
 62
     7
370
    50
100
AcDbCircle
 10
145.645267
 20
340.366696
 30
0.0
 40
0.7999999999992724
100
AcDbArc
 50
0.0
 51
90.0
  0
LINE
  5
82
330
1F
100
AcDbEntity
  8
LC-001-002-----0
 62
     7
370
    50
100
AcDbLine
 10
146.445267
 20
339.966696
 30
0.0
 11
146.445267
 21
340.366696
 31
0.0
  0
LINE
  5
83
330
1F
100
AcDbEntity
  8
LC-001-002-----0
 62
     7
370
    50
100
AcDbLine
 10
146.445267
 20
343.466696
 30
0.0
 11
146.445267
 21
343.866696
 31
0.0
  0
ARC
  5
84
330
1F
100
AcDbEntity
  8
LC-003-002-RND-0
 62
     7
370
    50
100
AcDbCircle
 10
145.645267
 20
339.966696
 30
0.0
 40
0.7999999999997272
100
AcDbArc
 50
270.0
 51
0.0
  0
ARC
  5
85
330
1F
100
AcDbEntity
  8
LC-003-002-RND-0
 62
     7
370
    50
100
AcDbCircle
 10
145.645267
 20
343.466696
 30
0.0
 40
0.7999999999997272
100
AcDbArc
 50
270.0
 51
0.0
  0
LINE
  5
86
330
1F
100
AcDbEntity
  8
LC-001-002-----0
 62
     7
370
    50
100
AcDbLine
 10
145.445267
 20
342.666696
 30
0.0
 11
145.645267
 21
342.666696
 31
0.0
  0
ARC
  5
87
330
1F
100
AcDbEntity
  8
LC-003-002-RND-0
 62
     7
370
    50
100
AcDbCircle
 10
137.245267
 20
345.966696
 30
0.0
 40
0.5
100
AcDbArc
 50
180.0
 51
270.0
  0
LINE
  5
88
330
1F
100
AcDbEntity
  8
LC-001-002-----0
 62
     7
370
    50
100
AcDbLine
 10
115.90568
 20
367.144257
 30
0.0
 11
131.268182
 21
366.070007
 31
0.0
  0
LINE
  5
89
330
1F
100
AcDbEntity
  8
LC-001-002-----0
 62
     7
370
    50
100
AcDbLine
 10
132.694231
 20
356.966696
 30
0.0
 11
134.745267
 21
356.966696
 31
0.0
  0
ARC
  5
8A
330
1F
100
AcDbEntity
  8
LC-003-002-RND-0
 62
     7
370
    50
100
AcDbCircle
 10
132.694231
 20
357.966696
 30
0.0
 40
1.00000000000074
100
AcDbArc
 50
183.0
 51
270.0
  0
LINE
  5
8B
330
1F
100
AcDbEntity
  8
LC-001-002-----0
 62
     7
370
    50
100
AcDbLine
 10
300.993853
 20
270.816696
 30
0.0
 11
300.993853
 21
336.216696
 31
0.0
  0
LINE
  5
8C
330
1F
100
AcDbEntity
  8
LC-001-002-----0
 62
     7
370
    50
100
AcDbLine
 10
134.745267
 20
356.966696
 30
0.0
 11
134.745267
 21
362.970263
 31
0.0
  0
LINE
  5
8D
330
1F
100
AcDbEntity
  8
LC-001-002-----0
 62
     7
370
    50
100
AcDbLine
 10
131.268182
 20
366.070007
 30
0.0
 11
131.695602
 21
357.91436
 31
0.0
  0
LINE
  5
8E
330
1F
100
AcDbEntity
  8
LC-001-002-----0
 62
     7
370
    50
100
AcDbLine
 10
72.742817
 20
369.66738
 30
0.0
 11
72.742817
 21
366.666923
 31
0.0
  0
ARC
  5
8F
330
1F
100
AcDbEntity
  8
LC-001-002-----0
 62
     7
370
    50
100
AcDbCircle
 10
195.49456
 20
336.316696
 30
0.0
 40
0.5000000000001301
100
AcDbArc
 50
270.000117
 51
89.999981
  0
LINE
  5
90
330
1F
100
AcDbEntity
  8
LC-001-002-----0
 62
     7
370
    50
100
AcDbLine
 10
128.480657
 20
361.937192
 30
0.0
 11
128.723174
 21
357.309688
 31
0.0
  0
LINE
  5
91
330
1F
100
AcDbEntity
  8
LC-001-002-----0
 62
     7
370
    50
100
AcDbLine
 10
112.29813
 20
365.976482
 30
0.0
 11
114.004755
 21
364.269857
 31
0.0
  0
LINE
  5
92
330
1F
100
AcDbEntity
  8
LC-001-002-----0
 62
     7
370
    50
100
AcDbLine
 10
192.99456
 20
264.816696
 30
0.0
 11
192.99456
 21
336.816696
 31
0.0
  0
LINE
  5
93
330
1F
100
AcDbEntity
  8
LC-001-002-----0
 62
     7
370
    50
100
AcDbLine
 10
201.49456
 20
226.313808
 30
0.0
 11
201.49456
 21
243.816696
 31
0.0
  0
LINE
  5
94
330
1F
100
AcDbEntity
  8
LC-001-002-----0
 62
     7
370
    50
100
AcDbLine
 10
145.445267
 20
341.166696
 30
0.0
 11
145.645267
 21
341.166696
 31
0.0
  0
LINE
  5
95
330
1F
100
AcDbEntity
  8
LC-001-002-----0
 62
     7
370
    50
100
AcDbLine
 10
198.49456
 20
226.313808
 30
0.0
 11
223.49456
 21
226.313808
 31
0.0
  0
ARC
  5
96
330
1F
100
AcDbEntity
  8
LC-003-002-RND-0
 62
     7
370
    50
100
AcDbCircle
 10
154.995267
 20
270.816696
 30
0.0
 40
9.0
100
AcDbArc
 50
180.0
 51
270.0
  0
ARC
  5
97
330
1F
100
AcDbEntity
  8
LC-003-002-RND-0
 62
     7
370
    50
100
AcDbCircle
 10
291.993853
 20
270.816696
 30
0.0
 40
9.0
100
AcDbArc
 50
270.0
 51
0.0
  0
LINE
  5
98
330
1F
100
AcDbEntity
  8
LC-001-002-----0
 62
     7
370
    50
100
AcDbLine
 10
133.995267
 20
346.466696
 30
0.0
 11
143.24456
 21
333.257336
 31
0.0
  0
LINE
  5
99
330
1F
100
AcDbEntity
  8
LC-001-002-----0
 62
     7
370
    50
100
AcDbLine
 10
131.719063
 20
354.466696
 30
0.0
 11
131.995267
 21
354.466696
 31
0.0
  0
LINE
  5
9A
330
1F
100
AcDbEntity
  8
LC-005-001-----0
 62
     7
370
    50
100
AcDbLine
 10
114.004755
 20
364.269857
 30
0.0
 11
127.087347
 21
363.355034
 31
0.0
  0
ARC
  5
9B
330
1F
100
AcDbEntity
  8
LC-003-002-RND-0
 62
     7
370
    50
100
AcDbCircle
 10
131.719063
 20
357.466696
 30
0.0
 40
2.999999999999495
100
AcDbArc
 50
183.0
 51
270.0
  0
ARC
  5
9C
330
1F
100
AcDbEntity
  8
LC-003-002-RND-0
 62
     7
370
    50
100
AcDbCircle
 10
131.995267
 20
352.466696
 30
0.0
 40
2.0
100
AcDbArc
 50
0.0
 51
90.0
  0
LINE
  5
9D
330
1F
100
AcDbEntity
  8
LC-001-002-----0
 62
     7
370
    50
100
AcDbLine
 10
133.995267
 20
346.466696
 30
0.0
 11
133.995267
 21
352.466696
 31
0.0
  0
LINE
  5
9E
330
1F
100
AcDbEntity
  8
LC-001-002-----0
 62
     7
370
    50
100
AcDbLine
 10
145.445267
 20
337.716696
 30
0.0
 11
145.445267
 21
337.716696
 31
0.0
  0
LINE
  5
9F
330
1F
100
AcDbEntity
  8
LC-001-002-----0
 62
     7
370
    50
100
AcDbLine
 10
137.245267
 20
345.466696
 30
0.0
 11
144.645267
 21
345.466696
 31
0.0
  0
LINE
  5
A0
330
1F
100
AcDbEntity
  8
LC-001-002-----0
 62
     7
370
    50
100
AcDbLine
 10
145.445267
 20
337.466696
 30
0.0
 11
145.445267
 21
337.966696
 31
0.0
  0
LINE
  5
A1
330
1F
100
AcDbEntity
  8
LC-001-002-----0
 62
     7
370
    50
100
AcDbLine
 10
145.445267
 20
337.666696
 30
0.0
 11
145.445267
 21
338.166696
 31
0.0
  0
LINE
  5
A2
330
1F
100
AcDbEntity
  8
LC-001-002-----0
 62
     7
370
    50
100
AcDbLine
 10
113.398417
 20
368.957734
 30
0.0
 11
114.630979
 21
367.725172
 31
0.0
  0
LINE
  5
A3
330
1F
100
AcDbEntity
  8
LC-001-002-----0
 62
     7
370
    50
100
AcDbLine
 10
145.445267
 20
337.716696
 30
0.0
 11
145.445267
 21
337.716696
 31
0.0
  0
ARC
  5
A4
330
1F
100
AcDbEntity
  8
LC-003-002-RND-0
 62
     7
370
    50
100
AcDbCircle
 10
144.645267
 20
344.666696
 30
0.0
 40
0.7999999999992724
100
AcDbArc
 50
0.0
 51
90.0
  0
LINE
  5
A5
330
1F
100
AcDbEntity
  8
LC-001-002-----0
 62
     7
370
    50
100
AcDbLine
 10
145.445267
 20
344.666696
 30
0.0
 11
145.445267
 21
344.666696
 31
0.0
  0
LINE
  5
A6
330
1F
100
AcDbEntity
  8
LC-001-002-----0
 62
     7
370
    50
100
AcDbLine
 10
291.994552
 20
258.816843
 30
0.0
 11
264.99456
 21
258.816863
 31
0.0
  0
ARC
  5
A7
330
1F
100
AcDbEntity
  8
LC-003-002-RND-0
 62
     7
370
    50
100
AcDbCircle
 10
256.99456
 20
264.816696
 30
0.0
 40
3.0
100
AcDbArc
 50
180.0
 51
270.0
  0
LINE
  5
A8
330
1F
100
AcDbEntity
  8
LC-001-002-----0
 62
     7
370
    50
100
AcDbLine
 10
195.974248
 20
264.144215
 30
0.0
 11
195.348772
 21
335.816696
 31
0.0
  0
ARC
  5
A9
330
1F
100
AcDbEntity
  8
LC-003-002-RND-0
 62
     7
370
    50
100
AcDbCircle
 10
189.99456
 20
264.816696
 30
0.0
 40
3.0
100
AcDbArc
 50
270.0
 51
0.0
  0
LINE
  5
AA
330
1F
100
AcDbEntity
  8
LC-001-002-----0
 62
     7
370
    50
100
AcDbLine
 10
154.995267
 20
261.816696
 30
0.0
 11
189.99456
 21
261.816696
 31
0.0
  0
LINE
  5
AB
330
1F
100
AcDbEntity
  8
LC-001-002-----0
 62
     7
370
    50
100
AcDbLine
 10
253.99456
 20
264.816696
 30
0.0
 11
253.99456
 21
336.816696
 31
0.0
  0
LINE
  5
AC
330
1F
100
AcDbEntity
  8
LC-001-002-----0
 62
     7
370
    50
100
AcDbLine
 10
251.494559
 20
335.816696
 30
0.0
 11
251.77625
 21
335.816696
 31
0.0
  0
ARC
  5
AD
330
1F
100
AcDbEntity
  8
LC-001-002-----0
 62
     7
370
    50
100
AcDbCircle
 10
251.49456
 20
336.316696
 30
0.0
 40
0.5000000000000267
100
AcDbArc
 50
90.000019
 51
269.999883
  0
LINE
  5
AE
330
1F
100
AcDbEntity
  8
LC-001-002-----0
 62
     7
370
    50
100
AcDbLine
 10
291.993853
 20
261.816696
 30
0.0
 11
256.99456
 21
261.816696
 31
0.0
  0
LINE
  5
AF
330
1F
100
AcDbEntity
  8
LC-001-002-----0
 62
     7
370
    50
100
AcDbLine
 10
198.494401
 20
261.816696
 30
0.0
 11
248.494719
 21
261.816696
 31
0.0
  0
LINE
  5
B0
330
1F
100
AcDbEntity
  8
LC-001-002-----0
 62
     7
370
    50
100
AcDbLine
 10
251.020689
 20
264.290289
 30
0.0
 11
251.77625
 21
335.816696
 31
0.0
  0
LINE
  5
B1
330
1F
100
AcDbEntity
  8
LC-001-002-----0
 62
     7
370
    50
100
AcDbLine
 10
253.99456
 20
336.816696
 30
0.0
 11
251.49456
 21
336.816696
 31
0.0
  0
LINE
  5
B2
330
1F
100
AcDbEntity
  8
LC-001-002-----0
 62
     7
370
    50
100
AcDbLine
 10
198.49456
 20
257.816696
 30
0.0
 11
198.49456
 21
226.313808
 31
0.0
  0
ARC
  5
B3
330
1F
100
AcDbEntity
  8
LC-003-002-RND-0
 62
     7
370
    50
100
AcDbCircle
 10
249.49456
 20
257.816871
 30
0.0
 40
0.9999999999999862
100
AcDbArc
 50
89.999963
 51
180.0
  0
ARC
  5
B4
330
1F
100
AcDbEntity
  8
LC-003-002-RND-0
 62
     7
370
    50
100
AcDbCircle
 10
197.49456
 20
257.816696
 30
0.0
 40
1.0
100
AcDbArc
 50
0.0
 51
90.0
  0
LINE
  5
B5
330
1F
100
AcDbEntity
  8
LC-001-002-----0
 62
     7
370
    50
100
AcDbLine
 10
303.74456
 20
333.246319
 30
0.0
 11
303.74456
 21
270.566843
 31
0.0
  0
LINE
  5
B6
330
1F
100
AcDbEntity
  8
LC-001-002-----0
 62
     7
370
    50
100
AcDbLine
 10
143.24456
 20
333.257336
 30
0.0
 11
143.24456
 21
270.566696
 31
0.0
  0
ARC
  5
B7
330
1F
100
AcDbEntity
  8
LC-003-002-RND-0
 62
     7
370
    50
100
AcDbCircle
 10
291.99456
 20
270.566843
 30
0.0
 40
11.75000000000001
100
AcDbArc
 50
269.999963
 51
0.0
  0
ARC
  5
B8
330
1F
100
AcDbEntity
  8
LC-003-002-RND-0
 62
     7
370
    50
100
AcDbCircle
 10
154.99456
 20
270.566696
 30
0.0
 40
11.75
100
AcDbArc
 50
180.0
 51
270.0
  0
LINE
  5
B9
330
1F
100
AcDbEntity
  8
LC-001-002-----0
 62
     7
370
    50
100
AcDbLine
 10
253.376263
 20
260.801193
 30
0.0
 11
254.521915
 21
258.816868
 31
0.0
  0
LINE
  5
BA
330
1F
100
AcDbEntity
  8
LC-001-002-----0
 62
     7
370
    50
100
AcDbLine
 10
251.644212
 20
260.801193
 30
0.0
 11
250.498561
 21
258.81687
 31
0.0
  0
ARC
  5
BB
330
1F
100
AcDbEntity
  8
LC-003-002-RND-0
 62
     7
370
    50
100
AcDbCircle
 10
252.510238
 20
260.301192
 30
0.0
 40
1.000000000000029
100
AcDbArc
 50
30.000037
 51
149.999963
  0
LINE
  5
BC
330
1F
100
AcDbEntity
  8
LC-001-002-----0
 62
     7
370
    50
100
AcDbLine
 10
193.612857
 20
260.801193
 30
0.0
 11
192.467105
 21
258.816696
 31
0.0
  0
LINE
  5
BD
330
1F
100
AcDbEntity
  8
LC-001-002-----0
 62
     7
370
    50
100
AcDbLine
 10
195.344907
 20
260.801193
 30
0.0
 11
196.490659
 21
258.816696
 31
0.0
  0
ARC
  5
BE
330
1F
100
AcDbEntity
  8
LC-003-002-RND-0
 62
     7
370
    50
100
AcDbCircle
 10
194.478882
 20
260.301192
 30
0.0
 40
1.000000000000143
100
AcDbArc
 50
30.000037
 51
149.999963
  0
LINE
  5
BF
330
1F
100
AcDbEntity
  8
LC-001-002-----0
 62
     7
370
    50
100
AcDbLine
 10
197.49456
 20
258.816696
 30
0.0
 11
196.490659
 21
258.816696
 31
0.0
  0
LINE
  5
C0
330
1F
100
AcDbEntity
  8
LC-001-002-----0
 62
     7
370
    50
100
AcDbLine
 10
302.351567
 20
345.466696
 30
0.0
 11
264.963624
 21
345.466696
 31
0.0
  0
LINE
  5
C1
330
1F
100
AcDbEntity
  8
LC-001-002-----0
 62
     7
370
    50
100
AcDbLine
 10
300.993853
 20
336.216696
 30
0.0
 11
264.963618
 21
336.216696
 31
0.0
  0
LINE
  5
C2
330
1F
100
AcDbEntity
  8
LC-001-002-----0
 62
     7
370
    50
100
AcDbLine
 10
248.494719
 20
261.816696
 30
0.0
 11
248.520829
 21
261.816696
 31
0.0
  0
ARC
  5
C3
330
1F
100
AcDbEntity
  8
LC-003-002-RND-0
 62
     7
370
    50
100
AcDbCircle
 10
248.494719
 20
258.816696
 30
0.0
 40
3.000000000000227
100
AcDbArc
 50
90.0
 51
179.999963
  0
ARC
  5
C4
330
1F
100
AcDbEntity
  8
LC-003-002-RND-0
 62
     7
370
    50
100
AcDbCircle
 10
248.520829
 20
264.316696
 30
0.0
 40
2.5
100
AcDbArc
 50
270.0
 51
359.394785
  0
ARC
  5
C5
330
1F
100
AcDbEntity
  8
LC-003-002-RND-0
 62
     7
370
    50
100
AcDbCircle
 10
198.468291
 20
264.316696
 30
0.0
 40
2.50000000000014
100
AcDbArc
 50
180.605215
 51
270.0
  0
ARC
  5
C6
330
1F
100
AcDbEntity
  8
LC-003-002-RND-0
 62
     7
370
    50
100
AcDbCircle
 10
198.494401
 20
258.816696
 30
0.0
 40
2.999999999999959
100
AcDbArc
 50
0.000037
 51
90.0
  0
LINE
  5
C7
330
1F
100
AcDbEntity
  8
LC-001-002-----0
 62
     7
370
    50
100
AcDbLine
 10
250.498561
 20
258.81687
 30
0.0
 11
249.49456
 21
258.816871
 31
0.0
  0
LINE
  5
C8
330
1F
100
AcDbEntity
  8
LC-001-002-----0
 62
     7
370
    50
100
AcDbLine
 10
196.490659
 20
258.816696
 30
0.0
 11
185.99456
 21
258.816694
 31
0.0
  0
LINE
  5
C9
330
1F
100
AcDbEntity
  8
LC-001-002-----0
 62
     7
370
    50
100
AcDbLine
 10
195.49456
 20
336.816696
 30
0.0
 11
195.705702
 21
336.816696
 31
0.0
  0
LINE
  5
CA
330
1F
100
AcDbEntity
  8
LC-001-002-----0
 62
     7
370
    50
100
AcDbLine
 10
145.995267
 20
336.216696
 30
0.0
 11
181.963447
 21
336.216696
 31
0.0
  0
LINE
  5
CB
330
1F
100
AcDbEntity
  8
LC-001-002-----0
 62
     7
370
    50
100
AcDbLine
 10
144.645267
 20
345.466696
 30
0.0
 11
181.963421
 21
345.466696
 31
0.0
  0
ARC
  5
CC
330
1F
100
AcDbEntity
  8
LC-004-001-RND-0
 62
     7
370
    50
100
AcDbCircle
 10
126.982713
 20
361.858688
 30
0.0
 40
1.499999999999963
100
AcDbArc
 50
3.0
 51
86.000003
  0
INSERT
  5
14F
330
1F
100
AcDbEntity
  8
LC-006-005-----0
 62
     7
370
    25
100
AcDbBlockReference
  2
*X11
 10
0.0
 20
0.0
 30
0.0
  0
INSERT
  5
1C5
330
1F
100
AcDbEntity
  8
LC-006-005-----0
 62
     7
370
    25
100
AcDbBlockReference
  2
*X22
 10
0.0
 20
0.0
 30
0.0
  0
LINE
  5
1C6
330
1F
100
AcDbEntity
  8
LC-001-002-----0
 62
     7
370
    50
100
AcDbLine
 10
181.99456
 20
258.850811
 30
0.0
 11
181.99456
 21
148.816692
 31
0.0
  0
LINE
  5
1C7
330
1F
100
AcDbEntity
  8
LC-001-002-----0
 62
     7
370
    50
100
AcDbLine
 10
264.99456
 20
258.816863
 30
0.0
 11
264.99456
 21
148.816692
 31
0.0
  0
LINE
  5
1C8
330
1F
100
AcDbEntity
  8
LC-001-002-----0
 62
     7
370
    50
100
AcDbLine
 10
185.99456
 20
258.816694
 30
0.0
 11
185.99456
 21
148.816692
 31
0.0
  0
LINE
  5
1C9
330
1F
100
AcDbEntity
  8
LC-001-002-----0
 62
     7
370
    50
100
AcDbLine
 10
260.99456
 20
258.816864
 30
0.0
 11
260.99456
 21
148.816692
 31
0.0
  0
LINE
  5
1CA
330
1F
100
AcDbEntity
  8
LC-001-002-----0
 62
     7
370
    50
100
AcDbLine
 10
181.99456
 20
148.816692
 30
0.0
 11
264.99456
 21
148.816692
 31
0.0
  0
LINE
  5
1CB
330
1F
100
AcDbEntity
  8
LC-001-002-----0
 62
     7
370
    50
100
AcDbLine
 10
181.963416
 20
347.316696
 30
0.0
 11
181.963586
 21
287.316861
 31
0.0
  0
LINE
  5
1CC
330
1F
100
AcDbEntity
  8
LC-001-002-----0
 62
     7
370
    50
100
AcDbLine
 10
182.963416
 20
347.316696
 30
0.0
 11
182.963586
 21
287.316861
 31
0.0
  0
LINE
  5
1CD
330
1F
100
AcDbEntity
  8
LC-001-002-----0
 62
     7
370
    50
100
AcDbLine
 10
193.081136
 20
287.318554
 30
0.0
 11
181.96342
 21
287.316693
 31
0.0
  0
ARC
  5
1CE
330
1F
100
AcDbEntity
  8
LC-001-002-----0
 62
     7
370
    50
100
AcDbCircle
 10
192.963416
 20
347.316696
 30
0.0
 40
9.999999999999634
100
AcDbArc
 50
94.313709
 51
179.999848
  0
ARC
  5
1CF
330
1F
100
AcDbEntity
  8
LC-003-002-RND-0
 62
     7
370
    50
100
AcDbCircle
 10
193.963416
 20
347.316696
 30
0.0
 40
12.0
100
AcDbArc
 50
90.0
 51
180.0
  0
LINE
  5
1D0
330
1F
100
AcDbEntity
  8
LC-001-002-----0
 62
     7
370
    50
100
AcDbLine
 10
252.963634
 20
359.316867
 30
0.0
 11
237.213414
 21
359.316878
 31
0.0
  0
LINE
  5
1D1
330
1F
100
AcDbEntity
  8
LC-001-002-----0
 62
     7
370
    50
100
AcDbLine
 10
253.963633
 20
357.316867
 30
0.0
 11
224.906792
 21
357.316867
 31
0.0
  0
LINE
  5
1D2
330
1F
100
AcDbEntity
  8
LC-001-002-----0
 62
     7
370
    50
100
AcDbLine
 10
193.963416
 20
359.316696
 30
0.0
 11
209.713418
 21
359.316696
 31
0.0
  0
ARC
  5
1D3
330
1F
100
AcDbEntity
  8
LC-003-002-RND-0
 62
     7
370
    50
100
AcDbCircle
 10
228.213414
 20
360.316696
 30
0.0
 40
9.000000000000043
100
AcDbArc
 50
0.000006
 51
90.000006
  0
ARC
  5
1D4
330
1F
100
AcDbEntity
  8
LC-001-002-----0
 62
     7
370
    50
100
AcDbCircle
 10
253.963627
 20
347.316867
 30
0.0
 40
10.00000000000127
100
AcDbArc
 50
0.000096
 51
89.999963
  0
ARC
  5
1D5
330
1F
100
AcDbEntity
  8
LC-001-002-----0
 62
     7
370
    50
100
AcDbCircle
 10
252.963627
 20
347.316867
 30
0.0
 40
12.00000000000043
100
AcDbArc
 50
0.000096
 51
89.999963
  0
LINE
  5
1D6
330
1F
100
AcDbEntity
  8
LC-001-002-----0
 62
     7
370
    50
100
AcDbLine
 10
264.963625
 20
347.316859
 30
0.0
 11
264.963586
 21
287.316859
 31
0.0
  0
LINE
  5
1D7
330
1F
100
AcDbEntity
  8
LC-001-002-----0
 62
     7
370
    50
100
AcDbLine
 10
263.963625
 20
347.316861
 30
0.0
 11
263.963751
 21
287.317025
 31
0.0
  0
LINE
  5
1D8
330
1F
100
AcDbEntity
  8
LC-001-002-----0
 62
     7
370
    50
100
AcDbLine
 10
253.838071
 20
287.318707
 30
0.0
 11
264.963586
 21
287.316859
 31
0.0
  0
LINE
  5
1D9
330
1F
100
AcDbEntity
  8
LC-001-002-----0
 62
     7
370
    50
100
AcDbLine
 10
192.205702
 20
336.816696
 30
0.0
 11
192.211253
 21
357.325717
 31
0.0
  0
LINE
  5
1DA
330
1F
100
AcDbEntity
  8
LC-001-002-----0
 62
     7
370
    50
100
AcDbLine
 10
224.899077
 20
328.816696
 30
0.0
 11
196.643528
 21
328.816696
 31
0.0
  0
LINE
  5
1DB
330
1F
100
AcDbEntity
  8
LC-001-002-----0
 62
     7
370
    50
100
AcDbLine
 10
195.705705
 20
332.316696
 30
0.0
 11
196.643528
 21
328.816696
 31
0.0
  0
LINE
  5
1DC
330
1F
100
AcDbEntity
  8
LC-001-002-----0
 62
     7
370
    50
100
AcDbLine
 10
195.705705
 20
335.402483
 30
0.0
 11
195.705705
 21
332.316696
 31
0.0
  0
ARC
  5
1DD
330
1F
100
AcDbEntity
  8
LC-001-002-----0
 62
     7
370
    50
100
AcDbCircle
 10
195.455702
 20
336.109589
 30
0.0
 40
0.7500000000001456
100
AcDbArc
 50
289.471622
 51
70.528779
  0
LINE
  5
1DE
330
1F
100
AcDbEntity
  8
LC-001-002-----0
 62
     7
370
    50
100
AcDbLine
 10
193.081136
 20
336.816696
 30
0.0
 11
195.705702
 21
336.816696
 31
0.0
  0
LINE
  5
1DF
330
1F
100
AcDbEntity
  8
LC-001-002-----0
 62
     7
370
    50
100
AcDbLine
 10
228.213414
 20
365.316696
 30
0.0
 11
223.463415
 21
365.316696
 31
0.0
  0
LINE
  5
1E0
330
1F
100
AcDbEntity
  8
LC-001-002-----0
 62
     7
370
    50
100
AcDbLine
 10
233.213414
 20
359.316697
 30
0.0
 11
233.213414
 21
360.316697
 31
0.0
  0
ARC
  5
1E1
330
1F
100
AcDbEntity
  8
LC-001-002-----0
 62
     7
370
    50
100
AcDbCircle
 10
228.213414
 20
360.316696
 30
0.0
 40
5.00000000000002
100
AcDbArc
 50
0.000005
 51
90.000006
  0
ARC
  5
1E2
330
1F
100
AcDbEntity
  8
LC-003-002-RND-0
 62
     7
370
    50
100
AcDbCircle
 10
218.713418
 20
360.316696
 30
0.0
 40
9.0
100
AcDbArc
 50
90.0
 51
180.000001
  0
LINE
  5
1E3
330
1F
100
AcDbEntity
  8
LC-001-002-----0
 62
     7
370
    50
100
AcDbLine
 10
218.713418
 20
365.316696
 30
0.0
 11
223.463416
 21
365.316696
 31
0.0
  0
LINE
  5
1E4
330
1F
100
AcDbEntity
  8
LC-001-002-----0
 62
     7
370
    50
100
AcDbLine
 10
213.713418
 20
359.316696
 30
0.0
 11
213.713418
 21
360.316696
 31
0.0
  0
LINE
  5
1E5
330
1F
100
AcDbEntity
  8
LC-001-002-----0
 62
     7
370
    50
100
AcDbLine
 10
228.213413
 20
369.316696
 30
0.0
 11
223.463415
 21
369.316696
 31
0.0
  0
LINE
  5
1E6
330
1F
100
AcDbEntity
  8
LC-001-002-----0
 62
     7
370
    50
100
AcDbLine
 10
237.213414
 20
359.316697
 30
0.0
 11
237.213414
 21
360.316697
 31
0.0
  0
ARC
  5
1E7
330
1F
100
AcDbEntity
  8
LC-001-002-----0
 62
     7
370
    50
100
AcDbCircle
 10
218.713418
 20
360.316696
 30
0.0
 40
5.0
100
AcDbArc
 50
90.0
 51
180.000001
  0
LINE
  5
1E8
330
1F
100
AcDbEntity
  8
LC-001-002-----0
 62
     7
370
    50
100
AcDbLine
 10
218.713418
 20
369.316696
 30
0.0
 11
223.463416
 21
369.316696
 31
0.0
  0
LINE
  5
1E9
330
1F
100
AcDbEntity
  8
LC-001-002-----0
 62
     7
370
    50
100
AcDbLine
 10
209.713418
 20
359.316696
 30
0.0
 11
209.713418
 21
360.316696
 31
0.0
  0
LINE
  5
1EA
330
1F
100
AcDbEntity
  8
LC-001-002-----0
 62
     7
370
    50
100
AcDbLine
 10
224.899077
 20
328.816696
 30
0.0
 11
224.906792
 21
357.316867
 31
0.0
  0
INSERT
  5
24E
330
1F
100
AcDbEntity
  8
LC-006-005-----0
 62
     7
370
    25
100
AcDbBlockReference
  2
*X33
 10
0.0
 20
0.0
 30
0.0
  0
LINE
  5
24F
330
1F
100
AcDbEntity
  8
LC-001-002-----0
 62
     7
370
    50
100
AcDbLine
 10
213.713418
 20
359.316696
 30
0.0
 11
223.463416
 21
359.316696
 31
0.0
  0
LINE
  5
250
330
1F
100
AcDbEntity
  8
LC-001-002-----0
 62
     7
370
    50
100
AcDbLine
 10
233.213414
 20
359.316881
 30
0.0
 11
223.463416
 21
359.316888
 31
0.0
  0
LINE
  5
251
330
1F
100
AcDbEntity
  8
LC-001-002-----0
 62
     7
370
    50
100
AcDbLine
 10
224.899077
 20
328.816696
 30
0.0
 11
237.955892
 21
328.816696
 31
0.0
  0
LINE
  5
252
330
1F
100
AcDbEntity
  8
LC-001-002-----0
 62
     7
370
    50
100
AcDbLine
 10
237.955892
 20
328.816696
 30
0.0
 11
238.424803
 21
332.316696
 31
0.0
  0
LINE
  5
253
330
1F
100
AcDbEntity
  8
LC-001-002-----0
 62
     7
370
    50
100
AcDbLine
 10
238.424803
 20
332.316696
 30
0.0
 11
238.424803
 21
335.402483
 31
0.0
  0
LINE
  5
254
330
1F
100
AcDbEntity
  8
LC-001-002-----0
 62
     7
370
    50
100
AcDbLine
 10
238.424803
 20
336.816696
 30
0.0
 11
240.174805
 21
336.816696
 31
0.0
  0
ARC
  5
255
330
1F
100
AcDbEntity
  8
LC-001-002-----0
 62
     7
370
    50
100
AcDbCircle
 10
238.723497
 20
336.10959
 30
0.0
 40
0.7676047231126102
100
AcDbArc
 50
112.900021
 51
247.099979
  0
LINE
  5
257
330
1F
100
AcDbEntity
  8
LC-007-103-D00-1
 62
     7
370
    50
100
AcDbLine
 10
193.081136
 20
287.318554
 30
0.0
 11
193.081136
 21
287.316861
 31
0.0
  0
LINE
  5
258
330
1F
100
AcDbEntity
  8
LC-001-002-----0
 62
     7
370
    50
100
AcDbLine
 10
192.205702
 20
336.816696
 30
0.0
 11
195.705702
 21
336.816696
 31
0.0
  0
LINE
  5
259
330
1F
100
AcDbEntity
  8
LC-007-103-D00-1
 62
     7
370
    50
100
AcDbLine
 10
253.838071
 20
287.318707
 30
0.0
 11
253.838071
 21
287.316861
 31
0.0
  0
LINE
  5
25A
330
1F
100
AcDbEntity
  8
LC-001-002-----0
 62
     7
370
    50
100
AcDbLine
 10
253.838071
 20
287.316861
 30
0.0
 11
253.845667
 21
287.316861
 31
0.0
  0
LINE
  5
25B
330
1F
100
AcDbEntity
  8
LC-001-002-----0
 62
     7
370
    50
100
AcDbLine
 10
238.424803
 20
336.816696
 30
0.0
 11
253.838071
 21
336.816696
 31
0.0
  0
LINE
  5
25C
330
1F
100
AcDbEntity
  8
LC-001-002-----0
 62
     7
370
    50
100
AcDbLine
 10
263.963217
 20
287.316861
 30
0.0
 11
263.963751
 21
287.316861
 31
0.0
  0
LINE
  5
25D
330
1F
100
AcDbEntity
  8
LC-001-002-----0
 62
     7
370
    50
100
AcDbLine
 10
185.99456
 20
168.816692
 30
0.0
 11
185.99456
 21
148.816692
 31
0.0
  0
LINE
  5
25E
330
1F
100
AcDbEntity
  8
LC-001-002-----0
 62
     7
370
    50
100
AcDbLine
 10
186.99456
 20
168.816692
 30
0.0
 11
186.99456
 21
148.816692
 31
0.0
  0
LINE
  5
25F
330
1F
100
AcDbEntity
  8
LC-001-002-----0
 62
     7
370
    50
100
AcDbLine
 10
259.99456
 20
168.816692
 30
0.0
 11
259.99456
 21
148.816692
 31
0.0
  0
LINE
  5
260
330
1F
100
AcDbEntity
  8
LC-001-002-----0
 62
     7
370
    50
100
AcDbLine
 10
260.99456
 20
168.816692
 30
0.0
 11
260.99456
 21
148.816692
 31
0.0
  0
LINE
  5
261
330
1F
100
AcDbEntity
  8
LC-001-002-----0
 62
     7
370
    50
100
AcDbLine
 10
185.99456
 20
148.816692
 30
0.0
 11
260.99456
 21
148.816692
 31
0.0
  0
LINE
  5
262
330
1F
100
AcDbEntity
  8
LC-001-002-----0
 62
     7
370
    50
100
AcDbLine
 10
185.99456
 20
168.816692
 30
0.0
 11
260.99456
 21
168.816692
 31
0.0
  0
INSERT
  5
274
330
1F
100
AcDbEntity
  8
LC-006-005-----0
 62
     7
370
    25
100
AcDbBlockReference
  2
*X44
 10
0.0
 20
0.0
 30
0.0
  0
DIMENSION
  5
278
330
1F
100
AcDbEntity
  8
LC-008-003-----0
 62
     7
370
    25
100
AcDbDimension
  2
*D5
 10
264.99456
 20
136.026
 30
0.0
 11
223.49456
 21
166.826
 31
0.0
 70
   160
  1
DN80(SML)
 71
     5
 42
83.0
  3
LC-DIM-L-0140-02-02
100
AcDbAlignedDimension
 13
181.99456
 23
148.816692
 33
0.0
 14
264.99456
 24
148.816692
 34
0.0
100
AcDbRotatedDimension
  0
DIMENSION
  5
286
330
1F
100
AcDbEntity
  8
LC-008-003-----0
 62
     7
370
    25
100
AcDbDimension
  2
*D6
 10
143.24456
 20
81.378
 30
0.0
 11
223.49456
 21
112.178
 31
0.0
 70
   160
  1
%%c160
 71
     5
 42
160.5
  3
LC-DIM-L-0140-02-02
100
AcDbAlignedDimension
 13
303.74456
 23
270.566696
 33
0.0
 14
143.24456
 24
270.566696
 34
0.0
100
AcDbRotatedDimension
  0
INSERT
  5
2BF
330
1F
100
AcDbEntity
  8
LC-006-005-----0
 62
     7
370
    25
100
AcDbBlockReference
  2
*X57
 10
0.0
 20
0.0
 30
0.0
  0
INSERT
  5
2EC
330
1F
100
AcDbEntity
  8
LC-006-005-----0
 62
     7
370
    25
100
AcDbBlockReference
  2
*X68
 10
0.0
 20
0.0
 30
0.0
  0
DIMENSION
  5
2ED
330
1F
100
AcDbEntity
  8
LC-008-003-----0
 62
     7
370
    25
100
AcDbDimension
  2
*D9
 10
374.254017
 20
438.966
 30
0.0
 11
223.498417
 21
469.766
 31
0.0
 70
   160
  1
%%c300
 71
     5
 42
301.5112
  3
LC-DIM-L-0140-02-02
100
AcDbAlignedDimension
 13
72.742817
 23
369.66738
 33
0.0
 14
374.254017
 24
369.66738
 34
0.0
100
AcDbRotatedDimension
  0
DIMENSION
  5
2FA
330
1F
100
AcDbEntity
  8
LC-008-003-----0
 62
     7
370
    25
100
AcDbDimension
  2
*D10
 10
318.395116
 20
392.633069
 30
0.0
 11
223.498916
 21
423.433877
 31
0.0
 70
   160
  1
%%c190
 71
     5
 42
189.792919
 53
359.999512
  3
LC-DIM-L-0140-02-02
100
AcDbAlignedDimension
 13
128.601916
 23
359.62344
 33
0.0
 14
318.394834
 24
359.621836
 34
0.0
 50
359.999512
100
AcDbRotatedDimension
  0
DIMENSION
  5
307
330
1F
100
AcDbEntity
  8
LC-008-003-----0
 62
     7
370
    25
100
AcDbDimension
  2
*D11
 10
54.973633
 20
258.816696
 30
0.0
 11
24.173633
 21
312.741809
 31
0.0
 70
   160
  1
110
 71
     5
 42
107.850227
 53
90.0
  3
LC-DIM-L-0140-02-02
100
AcDbAlignedDimension
 13
72.742817
 23
366.666923
 33
0.0
 14
154.99456
 24
258.816696
 34
0.0
 50
90.0
100
AcDbRotatedDimension
  0
DIMENSION
  5
314
330
1F
100
AcDbEntity
  8
LC-008-003-----0
 62
     7
370
    25
100
AcDbDimension
  2
*D12
 10
54.973633
 20
148.816692
 30
0.0
 11
24.173633
 21
203.816694
 31
0.0
 70
   160
 71
     5
 42
110.000004
 53
90.0
  3
LC-DIM-L-0140-02-02
100
AcDbAlignedDimension
 13
154.99456
 23
258.816696
 33
0.0
 14
181.99456
 24
148.816692
 34
0.0
 50
90.0
100
AcDbRotatedDimension
  0
DIMENSION
  5
321
330
1F
100
AcDbEntity
  8
LC-008-003-----0
 62
     7
370
    25
100
AcDbDimension
  2
*D13
 10
115.994293
 20
336.816696
 30
0.0
 11
85.194293
 21
312.066695
 31
0.0
 70
   160
  1
50
 71
     5
 42
49.500003
 53
90.0
  3
LC-DIM-L-0140-02-02
100
AcDbAlignedDimension
 13
181.96342
 23
287.316693
 33
0.0
 14
192.205702
 24
336.816696
 34
0.0
 50
90.0
100
AcDbRotatedDimension
  0
LINE
  5
330
102
{ACAD_REACTORS
330
65F
102
}
330
1F
100
AcDbEntity
  8
LC-001-002-----0
 62
     7
370
    50
100
AcDbLine
 10
72.742817
 20
369.66738
 30
0.0
 11
113.398417
 21
368.957734
 31
0.0
  0
ARC
  5
331
102
{ACAD_REACTORS
330
65F
102
}
330
1F
100
AcDbEntity
  8
LC-003-002-RND-0
 62
     7
370
    50
100
AcDbCircle
 10
116.045192
 20
369.139385
 30
0.0
 40
2.000000000000016
100
AcDbArc
 50
225.0
 51
266.000003
  0
LINE
  5
332
102
{ACAD_REACTORS
330
65F
102
}
330
1F
100
AcDbEntity
  8
LC-001-002-----0
 62
     7
370
    50
100
AcDbLine
 10
115.90568
 20
367.144257
 30
0.0
 11
131.268182
 21
366.070007
 31
0.0
  0
LINE
  5
333
102
{ACAD_REACTORS
330
65F
102
}
330
1F
100
AcDbEntity
  8
LC-001-002-----0
 62
     7
370
    50
100
AcDbLine
 10
134.745267
 20
356.966696
 30
0.0
 11
134.745267
 21
362.970263
 31
0.0
  0
LINE
  5
334
102
{ACAD_REACTORS
330
65F
102
}
330
1F
100
AcDbEntity
  8
LC-001-002-----0
 62
     7
370
    50
100
AcDbLine
 10
113.398417
 20
368.957734
 30
0.0
 11
114.630979
 21
367.725172
 31
0.0
  0
LINE
  5
335
102
{ACAD_REACTORS
330
65F
102
}
330
1F
100
AcDbEntity
  8
LC-001-002-----0
 62
     7
370
    50
100
AcDbLine
 10
131.602449
 20
365.827157
 30
0.0
 11
137.538103
 21
365.41212
 31
0.0
  0
LINE
  5
336
102
{ACAD_REACTORS
330
65F
102
}
330
1F
100
AcDbEntity
  8
LC-001-002-----0
 62
     7
370
    50
100
AcDbLine
 10
136.461534
 20
362.966348
 30
0.0
 11
136.461585
 21
350.113929
 31
0.0
  0
LINE
  5
337
102
{ACAD_REACTORS
330
65F
102
}
330
1F
100
AcDbEntity
  8
LC-001-002-----0
 62
     7
370
    50
100
AcDbLine
 10
136.461534
 20
362.966348
 30
0.0
 11
134.743591
 21
362.966341
 31
0.0
  0
LINE
  5
338
102
{ACAD_REACTORS
330
65F
102
}
330
1F
100
AcDbEntity
  8
LC-001-002-----0
 62
     7
370
    50
100
AcDbLine
 10
131.602197
 20
365.823553
 30
0.0
 11
131.602228
 21
358.20058
 31
0.0
  0
ARC
  5
339
102
{ACAD_REACTORS
330
65F
102
}
330
1F
100
AcDbEntity
  8
LC-003-002-RND-0
 62
     7
370
    50
100
AcDbCircle
 10
132.682078
 20
358.213417
 30
0.0
 40
1.079850015200128
100
AcDbArc
 50
180.000229
 51
266.000233
  0
LINE
  5
33A
102
{ACAD_REACTORS
330
65F
102
}
330
1F
100
AcDbEntity
  8
LC-001-002-----0
 62
     7
370
    50
100
AcDbLine
 10
132.606756
 20
357.136198
 30
0.0
 11
134.743614
 21
356.986783
 31
0.0
  0
LINE
  5
33B
102
{ACAD_REACTORS
330
65F
102
}
330
1F
100
AcDbEntity
  8
LC-001-002-----0
 62
     7
370
    50
100
AcDbLine
 10
134.743614
 20
356.986783
 30
0.0
 11
134.743591
 21
362.966341
 31
0.0
  0
INSERT
  5
34D
102
{ACAD_REACTORS
330
65F
102
}
330
1F
100
AcDbEntity
  8
LC-006-005-----0
 62
     7
370
    25
100
AcDbBlockReference
  2
*X714
 10
0.0
 20
0.0
 30
0.0
  0
ARC
  5
34E
102
{ACAD_REACTORS
330
65F
102
}
330
1F
100
AcDbEntity
  8
LC-001-002-----0
 62
     7
370
    50
100
AcDbCircle
 10
137.257448
 20
361.398333
 30
0.0
 40
4.023715445600717
100
AcDbArc
 50
68.753917
 51
86.001394
  0
LINE
  5
34F
102
{ACAD_REACTORS
330
65F
102
}
330
1F
100
AcDbEntity
  8
LC-001-002-----0
 62
     7
370
    50
100
AcDbLine
 10
143.655435
 20
359.851436
 30
0.0
 11
138.715539
 21
365.148567
 31
0.0
  0
ARC
  5
350
102
{ACAD_REACTORS
330
65F
102
}
330
1F
100
AcDbEntity
  8
LC-001-002-----0
 62
     7
370
    50
100
AcDbCircle
 10
143.438207
 20
359.651058
 30
0.0
 40
0.2964426900001759
100
AcDbArc
 50
250.000094
 51
43.000094
  0
LINE
  5
351
102
{ACAD_REACTORS
330
65F
102
}
330
1F
100
AcDbEntity
  8
LC-001-002-----0
 62
     7
370
    50
100
AcDbLine
 10
143.337253
 20
359.370689
 30
0.0
 11
140.044057
 21
360.569224
 31
0.0
  0
ARC
  5
352
102
{ACAD_REACTORS
330
65F
102
}
330
1F
100
AcDbEntity
  8
LC-001-002-----0
 62
     7
370
    50
100
AcDbCircle
 10
139.706115
 20
359.640666
 30
0.0
 40
0.9881423000000442
100
AcDbArc
 50
70.00139
 51
180.001643
  0
LINE
  5
353
102
{ACAD_REACTORS
330
65F
102
}
330
1F
100
AcDbEntity
  8
LC-001-002-----0
 62
     7
370
    50
100
AcDbLine
 10
138.717973
 20
359.640662
 30
0.0
 11
138.718009
 21
358.324923
 31
0.0
  0
ARC
  5
354
102
{ACAD_REACTORS
330
65F
102
}
330
1F
100
AcDbEntity
  8
LC-001-002-----0
 62
     7
370
    50
100
AcDbCircle
 10
139.21208
 20
358.324936
 30
0.0
 40
0.4940711499999986
100
AcDbArc
 50
180.001526
 51
223.00139
  0
LINE
  5
355
102
{ACAD_REACTORS
330
65F
102
}
330
1F
100
AcDbEntity
  8
LC-001-002-----0
 62
     7
370
    50
100
AcDbLine
 10
143.655622
 20
352.835625
 30
0.0
 11
138.850747
 21
357.987972
 31
0.0
  0
ARC
  5
356
102
{ACAD_REACTORS
330
65F
102
}
330
1F
100
AcDbEntity
  8
LC-001-002-----0
 62
     7
370
    50
100
AcDbCircle
 10
143.438235
 20
352.635247
 30
0.0
 40
0.2964426900000496
100
AcDbArc
 50
250.000094
 51
43.000094
  0
LINE
  5
357
102
{ACAD_REACTORS
330
65F
102
}
330
1F
100
AcDbEntity
  8
LC-001-002-----0
 62
     7
370
    50
100
AcDbLine
 10
143.33744
 20
352.354879
 30
0.0
 11
140.044244
 21
353.553414
 31
0.0
  0
ARC
  5
358
102
{ACAD_REACTORS
330
65F
102
}
330
1F
100
AcDbEntity
  8
LC-001-002-----0
 62
     7
370
    50
100
AcDbCircle
 10
139.706302
 20
352.624856
 30
0.0
 40
0.9881423000000636
100
AcDbArc
 50
70.00139
 51
180.001643
  0
LINE
  5
359
102
{ACAD_REACTORS
330
65F
102
}
330
1F
100
AcDbEntity
  8
LC-001-002-----0
 62
     7
370
    50
100
AcDbLine
 10
138.718174
 20
352.624829
 30
0.0
 11
138.718246
 21
350.11203
 31
0.0
  0
LINE
  5
35A
102
{ACAD_REACTORS
330
65F
102
}
330
1F
100
AcDbEntity
  8
LC-001-002-----0
 62
     7
370
    50
100
AcDbLine
 10
136.462114
 20
350.113929
 30
0.0
 11
138.718246
 21
350.113938
 31
0.0
  0
LINE
  5
35B
102
{ACAD_REACTORS
330
65F
102
}
330
1F
100
AcDbEntity
  8
LC-006-005-----0
 62
     7
370
    25
100
AcDbLine
 10
146.319586
 20
342.670845
 30
0.0
 11
146.497611
 21
342.84887
 31
0.0
  0
LINE
  5
35C
102
{ACAD_REACTORS
330
65F
102
}
330
1F
100
AcDbEntity
  8
LC-001-002-----0
 62
     7
370
    50
100
AcDbLine
 10
-16.303119
 20
374.366727
 30
0.0
 11
-16.303119
 21
369.666727
 31
0.0
  0
LINE
  5
35D
102
{ACAD_REACTORS
330
65F
102
}
330
1F
100
AcDbEntity
  8
LC-001-002-----0
 62
     7
370
    50
100
AcDbLine
 10
-6.303119
 20
374.366727
 30
0.0
 11
-6.303119
 21
369.666727
 31
0.0
  0
LINE
  5
35E
102
{ACAD_REACTORS
330
65F
102
}
330
1F
100
AcDbEntity
  8
LC-001-002-----0
 62
     7
370
    50
100
AcDbLine
 10
3.696881
 20
374.366727
 30
0.0
 11
3.696881
 21
369.666727
 31
0.0
  0
LINE
  5
35F
102
{ACAD_REACTORS
330
65F
102
}
330
1F
100
AcDbEntity
  8
LC-001-002-----0
 62
     7
370
    50
100
AcDbLine
 10
13.696881
 20
374.366727
 30
0.0
 11
13.696881
 21
369.666727
 31
0.0
  0
LINE
  5
360
102
{ACAD_REACTORS
330
65F
102
}
330
1F
100
AcDbEntity
  8
LC-001-002-----0
 62
     7
370
    50
100
AcDbLine
 10
23.696881
 20
374.366727
 30
0.0
 11
23.696881
 21
369.666727
 31
0.0
  0
LINE
  5
361
102
{ACAD_REACTORS
330
65F
102
}
330
1F
100
AcDbEntity
  8
LC-001-002-----0
 62
     7
370
    50
100
AcDbLine
 10
33.696881
 20
374.366727
 30
0.0
 11
33.696881
 21
369.666727
 31
0.0
  0
LINE
  5
362
102
{ACAD_REACTORS
330
65F
102
}
330
1F
100
AcDbEntity
  8
LC-001-002-----0
 62
     7
370
    50
100
AcDbLine
 10
43.696881
 20
374.366727
 30
0.0
 11
43.696881
 21
369.666727
 31
0.0
  0
LINE
  5
363
102
{ACAD_REACTORS
330
65F
102
}
330
1F
100
AcDbEntity
  8
LC-001-002-----0
 62
     7
370
    50
100
AcDbLine
 10
53.696881
 20
374.366727
 30
0.0
 11
53.696881
 21
369.666727
 31
0.0
  0
LINE
  5
364
102
{ACAD_REACTORS
330
65F
102
}
330
1F
100
AcDbEntity
  8
LC-001-002-----0
 62
     7
370
    50
100
AcDbLine
 10
63.696881
 20
374.366727
 30
0.0
 11
63.696881
 21
369.666727
 31
0.0
  0
LINE
  5
365
102
{ACAD_REACTORS
330
65F
102
}
330
1F
100
AcDbEntity
  8
LC-001-002-----0
 62
     7
370
    50
100
AcDbLine
 10
120.656301
 20
371.52356
 30
0.0
 11
138.38356
 21
370.28395
 31
0.0
  0
LINE
  5
366
102
{ACAD_REACTORS
330
65F
102
}
330
1F
100
AcDbEntity
  8
LC-001-002-----0
 62
     7
370
    50
100
AcDbLine
 10
120.702914
 20
372.21143
 30
0.0
 11
138.432389
 21
370.971664
 31
0.0
  0
ARC
  5
367
102
{ACAD_REACTORS
330
65F
102
}
330
1F
100
AcDbEntity
  8
LC-003-002-RND-0
 62
     7
370
    50
100
AcDbCircle
 10
137.944094
 20
363.999296
 30
0.0
 40
6.300000000000011
100
AcDbArc
 50
0.0
 51
86.0
  0
LINE
  5
368
102
{ACAD_REACTORS
330
65F
102
}
330
1F
100
AcDbEntity
  8
LC-001-002-----0
 62
     7
370
    50
100
AcDbLine
 10
144.244094
 20
363.999296
 30
0.0
 11
144.244094
 21
350.311253
 31
0.0
  0
ARC
  5
369
102
{ACAD_REACTORS
330
65F
102
}
330
1F
100
AcDbEntity
  8
LC-001-002-----0
 62
     7
370
    50
100
AcDbCircle
 10
147.744094
 20
350.311253
 30
0.0
 40
3.500000000000398
100
AcDbArc
 50
180.0
 51
270.0
  0
LINE
  5
36A
102
{ACAD_REACTORS
330
65F
102
}
330
1F
100
AcDbEntity
  8
LC-001-002-----0
 62
     7
370
    50
100
AcDbLine
 10
148.044094
 20
346.511253
 30
0.0
 11
148.044094
 21
344.211253
 31
0.0
  0
ARC
  5
36B
102
{ACAD_REACTORS
330
65F
102
}
330
1F
100
AcDbEntity
  8
LC-001-002-----0
 62
     7
370
    50
100
AcDbCircle
 10
147.744617
 20
344.211253
 30
0.0
 40
0.3000000000000682
100
AcDbArc
 50
270.0
 51
0.0
  0
ARC
  5
36C
102
{ACAD_REACTORS
330
65F
102
}
330
1F
100
AcDbEntity
  8
LC-001-002-----0
 62
     7
370
    50
100
AcDbCircle
 10
147.744094
 20
342.411253
 30
0.0
 40
1.5
100
AcDbArc
 50
90.0
 51
180.0
  0
ARC
  5
36D
102
{ACAD_REACTORS
330
65F
102
}
330
1F
100
AcDbEntity
  8
LC-001-002-----0
 62
     7
370
    50
100
AcDbCircle
 10
147.744094
 20
342.411253
 30
0.0
 40
1.500000000000057
100
AcDbArc
 50
180.0
 51
270.0
  0
LINE
  5
36E
102
{ACAD_REACTORS
330
65F
102
}
330
1F
100
AcDbEntity
  8
LC-001-002-----0
 62
     7
370
    50
100
AcDbLine
 10
147.744094
 20
340.911253
 30
0.0
 11
150.526363
 21
340.911253
 31
0.0
  0
INSERT
  5
38B
102
{ACAD_REACTORS
330
65F
102
}
330
1F
100
AcDbEntity
  8
LC-006-005-----0
 62
     7
370
    25
100
AcDbBlockReference
  2
*X815
 10
0.0
 20
0.0
 30
0.0
  0
INSERT
  5
3A9
102
{ACAD_REACTORS
330
65F
102
}
330
1F
100
AcDbEntity
  8
LC-006-005-----0
 62
     7
370
    25
100
AcDbBlockReference
  2
*X916
 10
0.0
 20
0.0
 30
0.0
  0
INSERT
  5
3C7
102
{ACAD_REACTORS
330
65F
102
}
330
1F
100
AcDbEntity
  8
LC-006-005-----0
 62
     7
370
    25
100
AcDbBlockReference
  2
*X1017
 10
0.0
 20
0.0
 30
0.0
  0
INSERT
  5
3E5
102
{ACAD_REACTORS
330
65F
102
}
330
1F
100
AcDbEntity
  8
LC-006-005-----0
 62
     7
370
    25
100
AcDbBlockReference
  2
*X1118
 10
0.0
 20
0.0
 30
0.0
  0
INSERT
  5
403
102
{ACAD_REACTORS
330
65F
102
}
330
1F
100
AcDbEntity
  8
LC-006-005-----0
 62
     7
370
    25
100
AcDbBlockReference
  2
*X1219
 10
0.0
 20
0.0
 30
0.0
  0
INSERT
  5
421
102
{ACAD_REACTORS
330
65F
102
}
330
1F
100
AcDbEntity
  8
LC-006-005-----0
 62
     7
370
    25
100
AcDbBlockReference
  2
*X1320
 10
0.0
 20
0.0
 30
0.0
  0
LINE
  5
422
102
{ACAD_REACTORS
330
65F
102
}
330
1F
100
AcDbEntity
  8
LC-001-002-----0
 62
     7
370
    50
100
AcDbLine
 10
145.006488
 20
350.51192
 30
0.0
 11
148.006488
 21
347.51192
 31
0.0
  0
LINE
  5
423
102
{ACAD_REACTORS
330
65F
102
}
330
1F
100
AcDbEntity
  8
LC-001-002-----0
 62
     7
370
    50
100
AcDbLine
 10
147.506488
 20
366.511564
 30
0.0
 11
149.006488
 21
366.511564
 31
0.0
  0
LINE
  5
424
102
{ACAD_REACTORS
330
65F
102
}
330
1F
100
AcDbEntity
  8
LC-001-002-----0
 62
     7
370
    50
100
AcDbLine
 10
147.506488
 20
366.511564
 30
0.0
 11
147.506488
 21
367.511564
 31
0.0
  0
ARC
  5
425
102
{ACAD_REACTORS
330
65F
102
}
330
1F
100
AcDbEntity
  8
LC-003-002-RND-0
 62
     7
370
    50
100
AcDbCircle
 10
149.006488
 20
364.511564
 30
0.0
 40
2.0
100
AcDbArc
 50
0.0
 51
90.0
  0
LINE
  5
426
102
{ACAD_REACTORS
330
65F
102
}
330
1F
100
AcDbEntity
  8
LC-001-002-----0
 62
     7
370
    50
100
AcDbLine
 10
167.933748
 20
347.51192
 30
0.0
 11
167.933748
 21
350.01192
 31
0.0
  0
LINE
  5
427
102
{ACAD_REACTORS
330
65F
102
}
330
1F
100
AcDbEntity
  8
LC-001-002-----0
 62
     7
370
    50
100
AcDbLine
 10
179.196784
 20
347.51192
 30
0.0
 11
179.196784
 21
350.01192
 31
0.0
  0
LINE
  5
428
102
{ACAD_REACTORS
330
65F
102
}
330
1F
100
AcDbEntity
  8
LC-001-002-----0
 62
     7
370
    50
100
AcDbLine
 10
182.304236
 20
350.01192
 30
0.0
 11
179.196784
 21
350.01192
 31
0.0
  0
LINE
  5
429
102
{ACAD_REACTORS
330
65F
102
}
330
1F
100
AcDbEntity
  8
LC-001-002-----0
 62
     7
370
    50
100
AcDbLine
 10
167.933748
 20
350.01192
 30
0.0
 11
147.744094
 21
350.01192
 31
0.0
  0
LINE
  5
42A
102
{ACAD_REACTORS
330
65F
102
}
330
1F
100
AcDbEntity
  8
LC-001-002-----0
 62
     7
370
    50
100
AcDbLine
 10
151.006488
 20
364.511564
 30
0.0
 11
151.006488
 21
350.01192
 31
0.0
  0
LINE
  5
42B
102
{ACAD_REACTORS
330
65F
102
}
330
1F
100
AcDbEntity
  8
LC-001-002-----0
 62
     7
370
    50
100
AcDbLine
 10
153.256488
 20
347.51192
 30
0.0
 11
181.999231
 21
347.51192
 31
0.0
  0
LINE
  5
42C
102
{ACAD_REACTORS
330
65F
102
}
330
1F
100
AcDbEntity
  8
LC-001-002-----0
 62
     7
370
    50
100
AcDbLine
 10
145.006488
 20
367.511564
 30
0.0
 11
213.340809
 21
367.511564
 31
0.0
  0
LINE
  5
42D
102
{ACAD_REACTORS
330
65F
102
}
330
1F
100
AcDbEntity
  8
LC-001-002-----0
 62
     7
370
    50
100
AcDbLine
 10
153.256488
 20
347.51192
 30
0.0
 11
148.006488
 21
347.51192
 31
0.0
  0
LINE
  5
42E
102
{ACAD_REACTORS
330
65F
102
}
330
1F
100
AcDbEntity
  8
LC-001-002-----0
 62
     7
370
    50
100
AcDbLine
 10
144.944094
 20
363.988716
 30
0.0
 11
144.944094
 21
350.311253
 31
0.0
  0
LINE
  5
42F
102
{ACAD_REACTORS
330
65F
102
}
330
1F
100
AcDbEntity
  8
LC-001-002-----0
 62
     7
370
    50
100
AcDbLine
 10
147.506488
 20
350.01192
 30
0.0
 11
147.506488
 21
367.511564
 31
0.0
  0
INSERT
  5
43D
102
{ACAD_REACTORS
330
65F
102
}
330
1F
100
AcDbEntity
  8
LC-006-005-----0
 62
     7
370
    25
100
AcDbBlockReference
  2
*X1421
 10
0.0
 20
0.0
 30
0.0
  0
LINE
  5
43E
102
{ACAD_REACTORS
330
65F
102
}
330
1F
100
AcDbEntity
  8
LC-001-002-----0
 62
     7
370
    50
100
AcDbLine
 10
156.474177
 20
366.511564
 30
0.0
 11
160.006986
 21
366.511564
 31
0.0
  0
LINE
  5
43F
102
{ACAD_REACTORS
330
65F
102
}
330
1F
100
AcDbEntity
  8
LC-001-002-----0
 62
     7
370
    50
100
AcDbLine
 10
156.474177
 20
350.01192
 30
0.0
 11
156.474177
 21
366.511564
 31
0.0
  0
LINE
  5
440
102
{ACAD_REACTORS
330
65F
102
}
330
1F
100
AcDbEntity
  8
LC-001-002-----0
 62
     7
370
    50
100
AcDbLine
 10
185.112983
 20
355.382848
 30
0.0
 11
185.112983
 21
364.511564
 31
0.0
  0
LINE
  5
441
102
{ACAD_REACTORS
330
65F
102
}
330
1F
100
AcDbEntity
  8
LC-001-002-----0
 62
     7
370
    50
100
AcDbLine
 10
189.44311
 20
358.418778
 30
0.0
 11
189.44311
 21
364.511564
 31
0.0
  0
LINE
  5
442
102
{ACAD_REACTORS
330
65F
102
}
330
1F
100
AcDbEntity
  8
LC-001-002-----0
 62
     7
370
    50
100
AcDbLine
 10
183.36199
 20
366.511564
 30
0.0
 11
187.44311
 21
366.511564
 31
0.0
  0
ARC
  5
443
102
{ACAD_REACTORS
330
65F
102
}
330
1F
100
AcDbEntity
  8
LC-001-002-----0
 62
     7
370
    50
100
AcDbCircle
 10
187.44311
 20
364.511564
 30
0.0
 40
2.0
100
AcDbArc
 50
0.0
 51
90.0
  0
ARC
  5
444
102
{ACAD_REACTORS
330
65F
102
}
330
1F
100
AcDbEntity
  8
LC-001-002-----0
 62
     7
370
    50
100
AcDbCircle
 10
183.112983
 20
364.511564
 30
0.0
 40
2.0
100
AcDbArc
 50
0.0
 51
82.903005
  0
LINE
  5
445
102
{ACAD_REACTORS
330
65F
102
}
330
1F
100
AcDbEntity
  8
LC-001-002-----0
 62
     7
370
    50
100
AcDbLine
 10
183.36199
 20
352.873932
 30
0.0
 11
183.36199
 21
366.511564
 31
0.0
  0
LINE
  5
446
102
{ACAD_REACTORS
330
65F
102
}
330
1F
100
AcDbEntity
  8
LC-001-002-----0
 62
     7
370
    50
100
AcDbLine
 10
73.622092
 20
374.366727
 30
0.0
 11
-26.303119
 21
374.366727
 31
0.0
  0
LINE
  5
447
102
{ACAD_REACTORS
330
65F
102
}
330
1F
100
AcDbEntity
  8
LC-001-002-----0
 62
     7
370
    50
100
AcDbLine
 10
72.82426
 20
369.666727
 30
0.0
 11
-26.303119
 21
369.666727
 31
0.0
  0
LINE
  5
448
102
{ACAD_REACTORS
330
65F
102
}
330
1F
100
AcDbEntity
  8
LC-001-002-----0
 62
     7
370
    50
100
AcDbLine
 10
73.621849
 20
374.352805
 30
0.0
 11
115.378494
 21
373.62394
 31
0.0
  0
LINE
  5
449
102
{ACAD_REACTORS
330
65F
102
}
330
1F
100
AcDbEntity
  8
LC-001-002-----0
 62
     7
370
    50
100
AcDbLine
 10
73.622092
 20
374.3528
 30
0.0
 11
73.540066
 21
369.653516
 31
0.0
  0
INSERT
  5
467
102
{ACAD_REACTORS
330
65F
102
}
330
1F
100
AcDbEntity
  8
LC-006-005-----0
 62
     7
370
    25
100
AcDbBlockReference
  2
*X1522
 10
0.0
 20
0.0
 30
0.0
  0
LINE
  5
468
102
{ACAD_REACTORS
330
65F
102
}
330
1F
100
AcDbEntity
  8
LC-001-002-----0
 62
     7
370
    50
100
AcDbLine
 10
83.629667
 20
374.178118
 30
0.0
 11
83.547641
 21
369.478833
 31
0.0
  0
LINE
  5
469
102
{ACAD_REACTORS
330
65F
102
}
330
1F
100
AcDbEntity
  8
LC-001-002-----0
 62
     7
370
    50
100
AcDbLine
 10
93.640404
 20
374.003379
 30
0.0
 11
93.558378
 21
369.304095
 31
0.0
  0
INSERT
  5
487
102
{ACAD_REACTORS
330
65F
102
}
330
1F
100
AcDbEntity
  8
LC-006-005-----0
 62
     7
370
    25
100
AcDbBlockReference
  2
*X1623
 10
0.0
 20
0.0
 30
0.0
  0
LINE
  5
488
102
{ACAD_REACTORS
330
65F
102
}
330
1F
100
AcDbEntity
  8
LC-001-002-----0
 62
     7
370
    50
100
AcDbLine
 10
103.64956
 20
373.828669
 30
0.0
 11
103.567534
 21
369.129385
 31
0.0
  0
LINE
  5
489
102
{ACAD_REACTORS
330
65F
102
}
330
1F
100
AcDbEntity
  8
LC-001-002-----0
 62
     7
370
    50
100
AcDbLine
 10
113.696881
 20
373.653292
 30
0.0
 11
113.696881
 21
368.658749
 31
0.0
  0
INSERT
  5
4AB
102
{ACAD_REACTORS
330
65F
102
}
330
1F
100
AcDbEntity
  8
LC-006-005-----0
 62
     7
370
    25
100
AcDbBlockReference
  2
*X1724
 10
0.0
 20
0.0
 30
0.0
  0
LINE
  5
4AC
102
{ACAD_REACTORS
330
65F
102
}
330
1F
100
AcDbEntity
  8
LC-001-002-----0
 62
     7
370
    50
100
AcDbLine
 10
123.696881
 20
371.310943
 30
0.0
 11
123.696881
 21
366.599466
 31
0.0
  0
LINE
  5
4AD
102
{ACAD_REACTORS
330
65F
102
}
330
1F
100
AcDbEntity
  8
LC-001-002-----0
 62
     7
370
    50
100
AcDbLine
 10
131.267599
 20
366.07007
 30
0.0
 11
131.267599
 21
370.781547
 31
0.0
  0
LINE
  5
4AE
102
{ACAD_REACTORS
330
65F
102
}
330
1F
100
AcDbEntity
  8
LC-001-002-----0
 62
     7
370
    50
100
AcDbLine
 10
115.378494
 20
373.62394
 30
0.0
 11
117.239981
 21
371.762453
 31
0.0
  0
LINE
  5
4AF
102
{ACAD_REACTORS
330
65F
102
}
330
1F
100
AcDbEntity
  8
LC-001-002-----0
 62
     7
370
    50
100
AcDbLine
 10
117.239981
 20
371.762453
 30
0.0
 11
131.267599
 21
370.781547
 31
0.0
  0
LINE
  5
4B0
102
{ACAD_REACTORS
330
65F
102
}
330
1F
100
AcDbEntity
  8
LC-001-002-----0
 62
     7
370
    50
100
AcDbLine
 10
-26.303119
 20
369.666727
 30
0.0
 11
-26.303119
 21
374.366727
 31
0.0
  0
LINE
  5
4B1
102
{ACAD_REACTORS
330
65F
102
}
330
1F
100
AcDbEntity
  8
LC-001-002-----0
 62
     7
370
    50
100
AcDbLine
 10
223.497557
 20
374.100611
 30
0.0
 11
115.687241
 21
374.100179
 31
0.0
  0
LINE
  5
4B2
102
{ACAD_REACTORS
330
65F
102
}
330
1F
100
AcDbEntity
  8
LC-001-002-----0
 62
     7
370
    50
100
AcDbLine
 10
144.988719
 20
350.511606
 30
0.0
 11
147.988731
 21
347.511618
 31
0.0
  0
LINE
  5
4B3
102
{ACAD_REACTORS
330
65F
102
}
330
1F
100
AcDbEntity
  8
LC-001-002-----0
 62
     7
370
    50
100
AcDbLine
 10
154.988731
 20
347.511646
 30
0.0
 11
154.988721
 21
350.011646
 31
0.0
  0
LINE
  5
4B4
102
{ACAD_REACTORS
330
65F
102
}
330
1F
100
AcDbEntity
  8
LC-001-002-----0
 62
     7
370
    50
100
AcDbLine
 10
160.415991
 20
347.511667
 30
0.0
 11
160.415981
 21
350.011667
 31
0.0
  0
LINE
  5
4B5
102
{ACAD_REACTORS
330
65F
102
}
330
1F
100
AcDbEntity
  8
LC-001-002-----0
 62
     7
370
    50
100
AcDbLine
 10
167.915938
 20
350.011697
 30
0.0
 11
147.488721
 21
350.011616
 31
0.0
  0
LINE
  5
4B6
102
{ACAD_REACTORS
330
65F
102
}
330
1F
100
AcDbEntity
  8
LC-001-002-----0
 62
     7
370
    50
100
AcDbLine
 10
144.988651
 20
367.51125
 30
0.0
 11
144.988719
 21
350.511606
 31
0.0
  0
LINE
  5
4B7
102
{ACAD_REACTORS
330
65F
102
}
330
1F
100
AcDbEntity
  8
LC-001-002-----0
 62
     7
370
    50
100
AcDbLine
 10
153.238731
 20
347.511639
 30
0.0
 11
181.998951
 21
347.511754
 31
0.0
  0
LINE
  5
4B8
102
{ACAD_REACTORS
330
65F
102
}
330
1F
100
AcDbEntity
  8
LC-001-002-----0
 62
     7
370
    50
100
AcDbLine
 10
144.988651
 20
367.51125
 30
0.0
 11
213.340662
 21
367.511523
 31
0.0
  0
LINE
  5
4B9
102
{ACAD_REACTORS
330
65F
102
}
330
1F
100
AcDbEntity
  8
LC-001-002-----0
 62
     7
370
    50
100
AcDbLine
 10
153.238731
 20
347.511639
 30
0.0
 11
147.988731
 21
347.511618
 31
0.0
  0
ARC
  5
4BA
102
{ACAD_REACTORS
330
65F
102
}
330
1F
100
AcDbEntity
  8
LC-001-002-----0
 62
     7
370
    50
100
AcDbCircle
 10
121.126715
 20
378.506099
 30
0.0
 40
6.300000000000785
100
AcDbArc
 50
224.378301
 51
266.000229
  0
ARC
  5
4BB
102
{ACAD_REACTORS
330
65F
102
}
330
1F
100
AcDbEntity
  8
LC-001-002-----0
 62
     7
370
    50
100
AcDbCircle
 10
121.126715
 20
378.506099
 30
0.0
 40
7.000000000000889
100
AcDbArc
 50
219.007133
 51
266.000229
  0
ARC
  5
4BC
102
{ACAD_REACTORS
330
65F
102
}
330
1F
100
AcDbEntity
  8
LC-003-002-RND-0
 62
     7
370
    50
100
AcDbCircle
 10
137.926271
 20
363.988374
 30
0.0
 40
7.000000000000055
100
AcDbArc
 50
0.000229
 51
86.000229
  0
ARC
  5
4BD
102
{ACAD_REACTORS
330
65F
102
}
330
1F
100
AcDbEntity
  8
LC-001-002-----0
 62
     7
370
    50
100
AcDbCircle
 10
147.726326
 20
350.310949
 30
0.0
 40
2.800000000000317
100
AcDbArc
 50
180.000229
 51
270.000229
  0
ARC
  5
4BE
102
{ACAD_REACTORS
330
65F
102
}
330
1F
100
AcDbEntity
  8
LC-001-002-----0
 62
     7
370
    50
100
AcDbCircle
 10
147.726621
 20
346.511317
 30
0.0
 40
1.000000000000225
100
AcDbArc
 50
359.999949
 51
89.999949
  0
ARC
  5
4BF
102
{ACAD_REACTORS
330
65F
102
}
330
1F
100
AcDbEntity
  8
LC-001-002-----0
 62
     7
370
    50
100
AcDbCircle
 10
147.726621
 20
346.511317
 30
0.0
 40
0.3000000000001301
100
AcDbArc
 50
359.999949
 51
89.999949
  0
LINE
  5
4C0
102
{ACAD_REACTORS
330
65F
102
}
330
1F
100
AcDbEntity
  8
LC-001-002-----0
 62
     7
370
    50
100
AcDbLine
 10
148.726341
 20
346.510953
 30
0.0
 11
148.72635
 21
344.210953
 31
0.0
  0
ARC
  5
4C1
102
{ACAD_REACTORS
330
65F
102
}
330
1F
100
AcDbEntity
  8
LC-001-002-----0
 62
     7
370
    50
100
AcDbCircle
 10
147.72635
 20
344.210949
 30
0.0
 40
1.000000000000105
100
AcDbArc
 50
270.000229
 51
0.000229
  0
ARC
  5
4C2
102
{ACAD_REACTORS
330
65F
102
}
330
1F
100
AcDbEntity
  8
LC-001-002-----0
 62
     7
370
    50
100
AcDbCircle
 10
147.726357
 20
342.410949
 30
0.0
 40
0.8000000000000501
100
AcDbArc
 50
90.000229
 51
180.000229
  0
ARC
  5
4C3
102
{ACAD_REACTORS
330
65F
102
}
330
1F
100
AcDbEntity
  8
LC-001-002-----0
 62
     7
370
    50
100
AcDbCircle
 10
147.726357
 20
342.410949
 30
0.0
 40
0.8000000000002775
100
AcDbArc
 50
180.000229
 51
270.000229
  0
LINE
  5
4C4
102
{ACAD_REACTORS
330
65F
102
}
330
1F
100
AcDbEntity
  8
LC-001-002-----0
 62
     7
370
    50
100
AcDbLine
 10
147.72636
 20
341.610949
 30
0.0
 11
150.52636
 21
341.610961
 31
0.0
  0
LINE
  5
4C5
102
{ACAD_REACTORS
330
65F
102
}
330
1F
100
AcDbEntity
  8
LC-001-002-----0
 62
     7
370
    50
100
AcDbLine
 10
150.526363
 20
340.910961
 30
0.0
 11
150.52636
 21
341.610961
 31
0.0
  0
ARC
  5
4C6
102
{ACAD_REACTORS
330
65F
102
}
330
1F
100
AcDbEntity
  8
LC-001-002-----0
 62
     7
370
    50
100
AcDbCircle
 10
159.989161
 20
364.51131
 30
0.0
 40
1.999999999999983
100
AcDbArc
 50
0.000229
 51
90.000229
  0
LINE
  5
4C7
102
{ACAD_REACTORS
330
65F
102
}
330
1F
100
AcDbEntity
  8
LC-001-002-----0
 62
     7
370
    50
100
AcDbLine
 10
156.474177
 20
366.511296
 30
0.0
 11
159.989153
 21
366.51131
 31
0.0
  0
LINE
  5
4C8
102
{ACAD_REACTORS
330
65F
102
}
330
1F
100
AcDbEntity
  8
LC-001-002-----0
 62
     7
370
    50
100
AcDbLine
 10
159.489219
 20
350.011664
 30
0.0
 11
159.489161
 21
364.511308
 31
0.0
  0
LINE
  5
4C9
102
{ACAD_REACTORS
330
65F
102
}
330
1F
100
AcDbEntity
  8
LC-001-002-----0
 62
     7
370
    50
100
AcDbLine
 10
161.989219
 20
350.011674
 30
0.0
 11
161.989161
 21
364.511318
 31
0.0
  0
ARC
  5
4CA
102
{ACAD_REACTORS
330
65F
102
}
330
1F
100
AcDbEntity
  8
LC-001-002-----0
 62
     7
370
    50
100
AcDbCircle
 10
157.489161
 20
364.5113
 30
0.0
 40
2.00000000000004
100
AcDbArc
 50
0.000229
 51
90.000229
  0
LINE
  5
4CB
102
{ACAD_REACTORS
330
65F
102
}
330
1F
100
AcDbEntity
  8
LC-001-002-----0
 62
     7
370
    50
100
AcDbLine
 10
374.252314
 20
369.667983
 30
0.0
 11
333.596717
 21
368.958174
 31
0.0
  0
ARC
  5
4CC
102
{ACAD_REACTORS
330
65F
102
}
330
1F
100
AcDbEntity
  8
LC-003-002-RND-0
 62
     7
370
    50
100
AcDbCircle
 10
330.949941
 20
369.139815
 30
0.0
 40
1.999999999999917
100
AcDbArc
 50
274.000226
 51
315.000229
  0
LINE
  5
4CD
102
{ACAD_REACTORS
330
65F
102
}
330
1F
100
AcDbEntity
  8
LC-001-002-----0
 62
     7
370
    50
100
AcDbLine
 10
331.089461
 20
367.144688
 30
0.0
 11
315.726963
 21
366.070376
 31
0.0
  0
LINE
  5
4CE
102
{ACAD_REACTORS
330
65F
102
}
330
1F
100
AcDbEntity
  8
LC-001-002-----0
 62
     7
370
    50
100
AcDbLine
 10
312.249915
 20
356.967051
 30
0.0
 11
312.249891
 21
362.970618
 31
0.0
  0
LINE
  5
4CF
102
{ACAD_REACTORS
330
65F
102
}
330
1F
100
AcDbEntity
  8
LC-001-002-----0
 62
     7
370
    50
100
AcDbLine
 10
333.596717
 20
368.958174
 30
0.0
 11
332.36416
 21
367.725607
 31
0.0
  0
LINE
  5
4D0
102
{ACAD_REACTORS
330
65F
102
}
330
1F
100
AcDbEntity
  8
LC-001-002-----0
 62
     7
370
    50
100
AcDbLine
 10
315.392697
 20
365.827525
 30
0.0
 11
309.457045
 21
365.412464
 31
0.0
  0
LINE
  5
4D1
102
{ACAD_REACTORS
330
65F
102
}
330
1F
100
AcDbEntity
  8
LC-001-002-----0
 62
     7
370
    50
100
AcDbLine
 10
310.533624
 20
362.966696
 30
0.0
 11
310.533624
 21
350.114277
 31
0.0
  0
LINE
  5
4D2
102
{ACAD_REACTORS
330
65F
102
}
330
1F
100
AcDbEntity
  8
LC-001-002-----0
 62
     7
370
    50
100
AcDbLine
 10
310.533624
 20
362.966696
 30
0.0
 11
312.251567
 21
362.966696
 31
0.0
  0
LINE
  5
4D3
102
{ACAD_REACTORS
330
65F
102
}
330
1F
100
AcDbEntity
  8
LC-001-002-----0
 62
     7
370
    50
100
AcDbLine
 10
315.392949
 20
365.823921
 30
0.0
 11
315.392949
 21
358.200948
 31
0.0
  0
ARC
  5
4D4
102
{ACAD_REACTORS
330
65F
102
}
330
1F
100
AcDbEntity
  8
LC-003-002-RND-0
 62
     7
370
    50
100
AcDbCircle
 10
314.313099
 20
358.213781
 30
0.0
 40
1.079850015200107
100
AcDbArc
 50
273.999997
 51
0.0
  0
LINE
  5
4D5
102
{ACAD_REACTORS
330
65F
102
}
330
1F
100
AcDbEntity
  8
LC-001-002-----0
 62
     7
370
    50
100
AcDbLine
 10
314.388426
 20
357.136561
 30
0.0
 11
312.251567
 21
356.987138
 31
0.0
  0
LINE
  5
4D6
102
{ACAD_REACTORS
330
65F
102
}
330
1F
100
AcDbEntity
  8
LC-001-002-----0
 62
     7
370
    50
100
AcDbLine
 10
312.251567
 20
356.987138
 30
0.0
 11
312.251567
 21
362.966696
 31
0.0
  0
INSERT
  5
4E5
102
{ACAD_REACTORS
330
65F
102
}
330
1F
100
AcDbEntity
  8
LC-006-005-----0
 62
     7
370
    25
100
AcDbBlockReference
  2
*X1825
 10
0.0
 20
0.0
 30
0.0
  0
ARC
  5
4E6
102
{ACAD_REACTORS
330
65F
102
}
330
1F
100
AcDbEntity
  8
LC-001-002-----0
 62
     7
370
    50
100
AcDbCircle
 10
309.737716
 20
361.398678
 30
0.0
 40
4.023715445600718
100
AcDbArc
 50
93.998836
 51
111.246312
  0
LINE
  5
4E7
102
{ACAD_REACTORS
330
65F
102
}
330
1F
100
AcDbEntity
  8
LC-001-002-----0
 62
     7
370
    50
100
AcDbLine
 10
303.339735
 20
359.851755
 30
0.0
 11
308.27961
 21
365.148907
 31
0.0
  0
ARC
  5
4E8
102
{ACAD_REACTORS
330
65F
102
}
330
1F
100
AcDbEntity
  8
LC-001-002-----0
 62
     7
370
    50
100
AcDbCircle
 10
303.556964
 20
359.651378
 30
0.0
 40
0.2964426900001378
100
AcDbArc
 50
137.000136
 51
290.000136
  0
LINE
  5
4E9
102
{ACAD_REACTORS
330
65F
102
}
330
1F
100
AcDbEntity
  8
LC-001-002-----0
 62
     7
370
    50
100
AcDbLine
 10
303.657919
 20
359.37101
 30
0.0
 11
306.95111
 21
360.569558
 31
0.0
  0
ARC
  5
4EA
102
{ACAD_REACTORS
330
65F
102
}
330
1F
100
AcDbEntity
  8
LC-001-002-----0
 62
     7
370
    50
100
AcDbCircle
 10
307.289056
 20
359.641001
 30
0.0
 40
0.9881422999999463
100
AcDbArc
 50
359.998586
 51
109.998839
  0
LINE
  5
4EB
102
{ACAD_REACTORS
330
65F
102
}
330
1F
100
AcDbEntity
  8
LC-001-002-----0
 62
     7
370
    50
100
AcDbLine
 10
308.277198
 20
359.641001
 30
0.0
 11
308.277168
 21
358.325263
 31
0.0
  0
ARC
  5
4EC
102
{ACAD_REACTORS
330
65F
102
}
330
1F
100
AcDbEntity
  8
LC-001-002-----0
 62
     7
370
    50
100
AcDbCircle
 10
307.783097
 20
358.325274
 30
0.0
 40
0.494071149999996
100
AcDbArc
 50
316.998839
 51
359.998703
  0
LINE
  5
4ED
102
{ACAD_REACTORS
330
65F
102
}
330
1F
100
AcDbEntity
  8
LC-001-002-----0
 62
     7
370
    50
100
AcDbLine
 10
303.339576
 20
352.835945
 30
0.0
 11
308.144431
 21
357.988311
 31
0.0
  0
ARC
  5
4EE
102
{ACAD_REACTORS
330
65F
102
}
330
1F
100
AcDbEntity
  8
LC-001-002-----0
 62
     7
370
    50
100
AcDbCircle
 10
303.556964
 20
352.635568
 30
0.0
 40
0.2964426900000603
100
AcDbArc
 50
137.000136
 51
290.000136
  0
LINE
  5
4EF
102
{ACAD_REACTORS
330
65F
102
}
330
1F
100
AcDbEntity
  8
LC-001-002-----0
 62
     7
370
    50
100
AcDbLine
 10
303.657761
 20
352.3552
 30
0.0
 11
306.950951
 21
353.553748
 31
0.0
  0
ARC
  5
4F0
102
{ACAD_REACTORS
330
65F
102
}
330
1F
100
AcDbEntity
  8
LC-001-002-----0
 62
     7
370
    50
100
AcDbCircle
 10
307.288897
 20
352.625191
 30
0.0
 40
0.9881423000000601
100
AcDbArc
 50
359.998586
 51
109.998839
  0
LINE
  5
4F1
102
{ACAD_REACTORS
330
65F
102
}
330
1F
100
AcDbEntity
  8
LC-001-002-----0
 62
     7
370
    50
100
AcDbLine
 10
308.277025
 20
352.625168
 30
0.0
 11
308.276963
 21
350.11237
 31
0.0
  0
LINE
  5
4F2
102
{ACAD_REACTORS
330
65F
102
}
330
1F
100
AcDbEntity
  8
LC-001-002-----0
 62
     7
370
    50
100
AcDbLine
 10
310.533096
 20
350.114277
 30
0.0
 11
308.276963
 21
350.114277
 31
0.0
  0
LINE
  5
4F3
102
{ACAD_REACTORS
330
65F
102
}
330
1F
100
AcDbEntity
  8
LC-006-005-----0
 62
     7
370
    25
100
AcDbLine
 10
300.675653
 20
342.671154
 30
0.0
 11
300.497627
 21
342.849178
 31
0.0
  0
LINE
  5
4F4
102
{ACAD_REACTORS
330
65F
102
}
330
1F
100
AcDbEntity
  8
LC-001-002-----0
 62
     7
370
    50
100
AcDbLine
 10
463.298231
 20
374.367686
 30
0.0
 11
463.29825
 21
369.667686
 31
0.0
  0
LINE
  5
4F5
102
{ACAD_REACTORS
330
65F
102
}
330
1F
100
AcDbEntity
  8
LC-001-002-----0
 62
     7
370
    50
100
AcDbLine
 10
453.298231
 20
374.367646
 30
0.0
 11
453.29825
 21
369.667646
 31
0.0
  0
LINE
  5
4F6
102
{ACAD_REACTORS
330
65F
102
}
330
1F
100
AcDbEntity
  8
LC-001-002-----0
 62
     7
370
    50
100
AcDbLine
 10
443.298231
 20
374.367606
 30
0.0
 11
443.29825
 21
369.667606
 31
0.0
  0
LINE
  5
4F7
102
{ACAD_REACTORS
330
65F
102
}
330
1F
100
AcDbEntity
  8
LC-001-002-----0
 62
     7
370
    50
100
AcDbLine
 10
433.298231
 20
374.367566
 30
0.0
 11
433.29825
 21
369.667566
 31
0.0
  0
LINE
  5
4F8
102
{ACAD_REACTORS
330
65F
102
}
330
1F
100
AcDbEntity
  8
LC-001-002-----0
 62
     7
370
    50
100
AcDbLine
 10
423.298231
 20
374.367526
 30
0.0
 11
423.29825
 21
369.667526
 31
0.0
  0
LINE
  5
4F9
102
{ACAD_REACTORS
330
65F
102
}
330
1F
100
AcDbEntity
  8
LC-001-002-----0
 62
     7
370
    50
100
AcDbLine
 10
413.298231
 20
374.367486
 30
0.0
 11
413.29825
 21
369.667486
 31
0.0
  0
LINE
  5
4FA
102
{ACAD_REACTORS
330
65F
102
}
330
1F
100
AcDbEntity
  8
LC-001-002-----0
 62
     7
370
    50
100
AcDbLine
 10
403.298231
 20
374.367446
 30
0.0
 11
403.29825
 21
369.667446
 31
0.0
  0
LINE
  5
4FB
102
{ACAD_REACTORS
330
65F
102
}
330
1F
100
AcDbEntity
  8
LC-001-002-----0
 62
     7
370
    50
100
AcDbLine
 10
393.298231
 20
374.367406
 30
0.0
 11
393.29825
 21
369.667406
 31
0.0
  0
LINE
  5
4FC
102
{ACAD_REACTORS
330
65F
102
}
330
1F
100
AcDbEntity
  8
LC-001-002-----0
 62
     7
370
    50
100
AcDbLine
 10
383.298231
 20
374.367366
 30
0.0
 11
383.29825
 21
369.667366
 31
0.0
  0
LINE
  5
4FD
102
{ACAD_REACTORS
330
65F
102
}
330
1F
100
AcDbEntity
  8
LC-001-002-----0
 62
     7
370
    50
100
AcDbLine
 10
326.338823
 20
371.523972
 30
0.0
 11
308.611569
 21
370.28429
 31
0.0
  0
LINE
  5
4FE
102
{ACAD_REACTORS
330
65F
102
}
330
1F
100
AcDbEntity
  8
LC-001-002-----0
 62
     7
370
    50
100
AcDbLine
 10
326.292207
 20
372.211841
 30
0.0
 11
308.562736
 21
370.972005
 31
0.0
  0
ARC
  5
4FF
102
{ACAD_REACTORS
330
65F
102
}
330
1F
100
AcDbEntity
  8
LC-003-002-RND-0
 62
     7
370
    50
100
AcDbCircle
 10
309.05106
 20
363.999639
 30
0.0
 40
6.300000000000032
100
AcDbArc
 50
94.000229
 51
180.000229
  0
LINE
  5
500
102
{ACAD_REACTORS
330
65F
102
}
330
1F
100
AcDbEntity
  8
LC-001-002-----0
 62
     7
370
    50
100
AcDbLine
 10
302.75106
 20
363.999613
 30
0.0
 11
302.751114
 21
350.31157
 31
0.0
  0
ARC
  5
501
102
{ACAD_REACTORS
330
65F
102
}
330
1F
100
AcDbEntity
  8
LC-001-002-----0
 62
     7
370
    50
100
AcDbCircle
 10
299.251114
 20
350.311556
 30
0.0
 40
3.500000000000397
100
AcDbArc
 50
270.000229
 51
0.000229
  0
LINE
  5
502
102
{ACAD_REACTORS
330
65F
102
}
330
1F
100
AcDbEntity
  8
LC-001-002-----0
 62
     7
370
    50
100
AcDbLine
 10
298.95113
 20
346.511555
 30
0.0
 11
298.951139
 21
344.211555
 31
0.0
  0
ARC
  5
503
102
{ACAD_REACTORS
330
65F
102
}
330
1F
100
AcDbEntity
  8
LC-001-002-----0
 62
     7
370
    50
100
AcDbCircle
 10
299.250616
 20
344.211556
 30
0.0
 40
0.3000000000000828
100
AcDbArc
 50
180.000229
 51
270.000229
  0
ARC
  5
504
102
{ACAD_REACTORS
330
65F
102
}
330
1F
100
AcDbEntity
  8
LC-001-002-----0
 62
     7
370
    50
100
AcDbCircle
 10
299.251146
 20
342.411556
 30
0.0
 40
1.499999999999959
100
AcDbArc
 50
0.000229
 51
90.000229
  0
ARC
  5
505
102
{ACAD_REACTORS
330
65F
102
}
330
1F
100
AcDbEntity
  8
LC-001-002-----0
 62
     7
370
    50
100
AcDbCircle
 10
299.251146
 20
342.411556
 30
0.0
 40
1.500000000000073
100
AcDbArc
 50
270.000229
 51
0.000229
  0
LINE
  5
506
102
{ACAD_REACTORS
330
65F
102
}
330
1F
100
AcDbEntity
  8
LC-001-002-----0
 62
     7
370
    50
100
AcDbLine
 10
299.251152
 20
340.911556
 30
0.0
 11
296.468883
 21
340.911545
 31
0.0
  0
INSERT
  5
51B
102
{ACAD_REACTORS
330
65F
102
}
330
1F
100
AcDbEntity
  8
LC-006-005-----0
 62
     7
370
    25
100
AcDbBlockReference
  2
*X1926
 10
0.0
 20
0.0
 30
0.0
  0
INSERT
  5
539
102
{ACAD_REACTORS
330
65F
102
}
330
1F
100
AcDbEntity
  8
LC-006-005-----0
 62
     7
370
    25
100
AcDbBlockReference
  2
*X2027
 10
0.0
 20
0.0
 30
0.0
  0
INSERT
  5
557
102
{ACAD_REACTORS
330
65F
102
}
330
1F
100
AcDbEntity
  8
LC-006-005-----0
 62
     7
370
    25
100
AcDbBlockReference
  2
*X2128
 10
0.0
 20
0.0
 30
0.0
  0
INSERT
  5
575
102
{ACAD_REACTORS
330
65F
102
}
330
1F
100
AcDbEntity
  8
LC-006-005-----0
 62
     7
370
    25
100
AcDbBlockReference
  2
*X2229
 10
0.0
 20
0.0
 30
0.0
  0
INSERT
  5
593
102
{ACAD_REACTORS
330
65F
102
}
330
1F
100
AcDbEntity
  8
LC-006-005-----0
 62
     7
370
    25
100
AcDbBlockReference
  2
*X2330
 10
0.0
 20
0.0
 30
0.0
  0
INSERT
  5
5B1
102
{ACAD_REACTORS
330
65F
102
}
330
1F
100
AcDbEntity
  8
LC-006-005-----0
 62
     7
370
    25
100
AcDbBlockReference
  2
*X2431
 10
0.0
 20
0.0
 30
0.0
  0
LINE
  5
5B2
102
{ACAD_REACTORS
330
65F
102
}
330
1F
100
AcDbEntity
  8
LC-001-002-----0
 62
     7
370
    50
100
AcDbLine
 10
301.988719
 20
350.512234
 30
0.0
 11
298.988731
 21
347.512222
 31
0.0
  0
LINE
  5
5B3
102
{ACAD_REACTORS
330
65F
102
}
330
1F
100
AcDbEntity
  8
LC-001-002-----0
 62
     7
370
    50
100
AcDbLine
 10
299.488655
 20
366.511868
 30
0.0
 11
297.988655
 21
366.511862
 31
0.0
  0
LINE
  5
5B4
102
{ACAD_REACTORS
330
65F
102
}
330
1F
100
AcDbEntity
  8
LC-001-002-----0
 62
     7
370
    50
100
AcDbLine
 10
299.488655
 20
366.511868
 30
0.0
 11
299.488651
 21
367.511868
 31
0.0
  0
ARC
  5
5B5
102
{ACAD_REACTORS
330
65F
102
}
330
1F
100
AcDbEntity
  8
LC-003-002-RND-0
 62
     7
370
    50
100
AcDbCircle
 10
297.988663
 20
364.511862
 30
0.0
 40
1.999999999999983
100
AcDbArc
 50
90.000229
 51
180.000229
  0
LINE
  5
5B6
102
{ACAD_REACTORS
330
65F
102
}
330
1F
100
AcDbEntity
  8
LC-001-002-----0
 62
     7
370
    50
100
AcDbLine
 10
279.061471
 20
347.512142
 30
0.0
 11
279.061461
 21
350.012142
 31
0.0
  0
LINE
  5
5B7
102
{ACAD_REACTORS
330
65F
102
}
330
1F
100
AcDbEntity
  8
LC-001-002-----0
 62
     7
370
    50
100
AcDbLine
 10
267.798436
 20
347.512097
 30
0.0
 11
267.798426
 21
350.012097
 31
0.0
  0
LINE
  5
5B8
102
{ACAD_REACTORS
330
65F
102
}
330
1F
100
AcDbEntity
  8
LC-001-002-----0
 62
     7
370
    50
100
AcDbLine
 10
264.690973
 20
350.012085
 30
0.0
 11
267.798426
 21
350.012097
 31
0.0
  0
LINE
  5
5B9
102
{ACAD_REACTORS
330
65F
102
}
330
1F
100
AcDbEntity
  8
LC-001-002-----0
 62
     7
370
    50
100
AcDbLine
 10
279.061461
 20
350.012142
 30
0.0
 11
299.251116
 21
350.012223
 31
0.0
  0
LINE
  5
5BA
102
{ACAD_REACTORS
330
65F
102
}
330
1F
100
AcDbEntity
  8
LC-001-002-----0
 62
     7
370
    50
100
AcDbLine
 10
295.988663
 20
364.511854
 30
0.0
 11
295.988721
 21
350.01221
 31
0.0
  0
LINE
  5
5BB
102
{ACAD_REACTORS
330
65F
102
}
330
1F
100
AcDbEntity
  8
LC-001-002-----0
 62
     7
370
    50
100
AcDbLine
 10
293.738731
 20
347.512201
 30
0.0
 11
264.995988
 21
347.512086
 31
0.0
  0
LINE
  5
5BC
102
{ACAD_REACTORS
330
65F
102
}
330
1F
100
AcDbEntity
  8
LC-001-002-----0
 62
     7
370
    50
100
AcDbLine
 10
301.988651
 20
367.511878
 30
0.0
 11
233.65433
 21
367.511605
 31
0.0
  0
LINE
  5
5BD
102
{ACAD_REACTORS
330
65F
102
}
330
1F
100
AcDbEntity
  8
LC-001-002-----0
 62
     7
370
    50
100
AcDbLine
 10
293.738731
 20
347.512201
 30
0.0
 11
298.988731
 21
347.512222
 31
0.0
  0
LINE
  5
5BE
102
{ACAD_REACTORS
330
65F
102
}
330
1F
100
AcDbEntity
  8
LC-001-002-----0
 62
     7
370
    50
100
AcDbLine
 10
302.05106
 20
363.98903
 30
0.0
 11
302.051114
 21
350.311567
 31
0.0
  0
LINE
  5
5BF
102
{ACAD_REACTORS
330
65F
102
}
330
1F
100
AcDbEntity
  8
LC-001-002-----0
 62
     7
370
    50
100
AcDbLine
 10
299.488721
 20
350.012224
 30
0.0
 11
299.488651
 21
367.511868
 31
0.0
  0
INSERT
  5
5CD
102
{ACAD_REACTORS
330
65F
102
}
330
1F
100
AcDbEntity
  8
LC-006-005-----0
 62
     7
370
    25
100
AcDbBlockReference
  2
*X2532
 10
0.0
 20
0.0
 30
0.0
  0
LINE
  5
5CE
102
{ACAD_REACTORS
330
65F
102
}
330
1F
100
AcDbEntity
  8
LC-001-002-----0
 62
     7
370
    50
100
AcDbLine
 10
290.520967
 20
366.511832
 30
0.0
 11
286.988157
 21
366.511818
 31
0.0
  0
LINE
  5
5CF
102
{ACAD_REACTORS
330
65F
102
}
330
1F
100
AcDbEntity
  8
LC-001-002-----0
 62
     7
370
    50
100
AcDbLine
 10
290.521033
 20
350.012188
 30
0.0
 11
290.520967
 21
366.511832
 31
0.0
  0
LINE
  5
5D0
102
{ACAD_REACTORS
330
65F
102
}
330
1F
100
AcDbEntity
  8
LC-001-002-----0
 62
     7
370
    50
100
AcDbLine
 10
261.882205
 20
355.383002
 30
0.0
 11
261.882169
 21
364.511718
 31
0.0
  0
LINE
  5
5D1
102
{ACAD_REACTORS
330
65F
102
}
330
1F
100
AcDbEntity
  8
LC-001-002-----0
 62
     7
370
    50
100
AcDbLine
 10
257.552066
 20
358.418914
 30
0.0
 11
257.552042
 21
364.5117
 31
0.0
  0
LINE
  5
5D2
102
{ACAD_REACTORS
330
65F
102
}
330
1F
100
AcDbEntity
  8
LC-001-002-----0
 62
     7
370
    50
100
AcDbLine
 10
263.633154
 20
366.511725
 30
0.0
 11
259.552034
 21
366.511708
 31
0.0
  0
ARC
  5
5D3
102
{ACAD_REACTORS
330
65F
102
}
330
1F
100
AcDbEntity
  8
LC-001-002-----0
 62
     7
370
    50
100
AcDbCircle
 10
259.552042
 20
364.511708
 30
0.0
 40
1.999999999999983
100
AcDbArc
 50
90.000229
 51
180.000229
  0
ARC
  5
5D4
102
{ACAD_REACTORS
330
65F
102
}
330
1F
100
AcDbEntity
  8
LC-001-002-----0
 62
     7
370
    50
100
AcDbCircle
 10
263.882169
 20
364.511726
 30
0.0
 40
1.999999999999942
100
AcDbArc
 50
97.097224
 51
180.000229
  0
LINE
  5
5D5
102
{ACAD_REACTORS
330
65F
102
}
330
1F
100
AcDbEntity
  8
LC-001-002-----0
 62
     7
370
    50
100
AcDbLine
 10
263.633209
 20
352.874092
 30
0.0
 11
263.633154
 21
366.511725
 31
0.0
  0
LINE
  5
5D6
102
{ACAD_REACTORS
330
65F
102
}
330
1F
100
AcDbEntity
  8
LC-001-002-----0
 62
     7
370
    50
100
AcDbLine
 10
373.37302
 20
374.367326
 30
0.0
 11
473.298231
 21
374.367726
 31
0.0
  0
LINE
  5
5D7
102
{ACAD_REACTORS
330
65F
102
}
330
1F
100
AcDbEntity
  8
LC-001-002-----0
 62
     7
370
    50
100
AcDbLine
 10
374.170871
 20
369.66733
 30
0.0
 11
473.29825
 21
369.667726
 31
0.0
  0
LINE
  5
5D8
102
{ACAD_REACTORS
330
65F
102
}
330
1F
100
AcDbEntity
  8
LC-001-002-----0
 62
     7
370
    50
100
AcDbLine
 10
373.373263
 20
374.353404
 30
0.0
 11
331.616621
 21
373.624372
 31
0.0
  0
LINE
  5
5D9
102
{ACAD_REACTORS
330
65F
102
}
330
1F
100
AcDbEntity
  8
LC-001-002-----0
 62
     7
370
    50
100
AcDbLine
 10
373.37302
 20
374.3534
 30
0.0
 11
373.455066
 21
369.654116
 31
0.0
  0
INSERT
  5
5F7
102
{ACAD_REACTORS
330
65F
102
}
330
1F
100
AcDbEntity
  8
LC-006-005-----0
 62
     7
370
    25
100
AcDbBlockReference
  2
*X2633
 10
0.0
 20
0.0
 30
0.0
  0
LINE
  5
5F8
102
{ACAD_REACTORS
330
65F
102
}
330
1F
100
AcDbEntity
  8
LC-001-002-----0
 62
     7
370
    50
100
AcDbLine
 10
363.365446
 20
374.178677
 30
0.0
 11
363.447491
 21
369.479393
 31
0.0
  0
LINE
  5
5F9
102
{ACAD_REACTORS
330
65F
102
}
330
1F
100
AcDbEntity
  8
LC-001-002-----0
 62
     7
370
    50
100
AcDbLine
 10
353.354709
 20
374.003899
 30
0.0
 11
353.436755
 21
369.304615
 31
0.0
  0
INSERT
  5
616
102
{ACAD_REACTORS
330
65F
102
}
330
1F
100
AcDbEntity
  8
LC-006-005-----0
 62
     7
370
    25
100
AcDbBlockReference
  2
*X2734
 10
0.0
 20
0.0
 30
0.0
  0
LINE
  5
617
102
{ACAD_REACTORS
330
65F
102
}
330
1F
100
AcDbEntity
  8
LC-001-002-----0
 62
     7
370
    50
100
AcDbLine
 10
343.345554
 20
373.829149
 30
0.0
 11
343.427599
 21
369.129865
 31
0.0
  0
LINE
  5
618
102
{ACAD_REACTORS
330
65F
102
}
330
1F
100
AcDbEntity
  8
LC-001-002-----0
 62
     7
370
    50
100
AcDbLine
 10
333.298234
 20
373.653732
 30
0.0
 11
333.298254
 21
368.659188
 31
0.0
  0
INSERT
  5
632
102
{ACAD_REACTORS
330
65F
102
}
330
1F
100
AcDbEntity
  8
LC-006-005-----0
 62
     7
370
    25
100
AcDbBlockReference
  2
*X2835
 10
0.0
 20
0.0
 30
0.0
  0
LINE
  5
633
102
{ACAD_REACTORS
330
65F
102
}
330
1F
100
AcDbEntity
  8
LC-001-002-----0
 62
     7
370
    50
100
AcDbLine
 10
323.298243
 20
371.311342
 30
0.0
 11
323.298262
 21
366.599865
 31
0.0
  0
LINE
  5
634
102
{ACAD_REACTORS
330
65F
102
}
330
1F
100
AcDbEntity
  8
LC-001-002-----0
 62
     7
370
    50
100
AcDbLine
 10
315.727546
 20
366.070439
 30
0.0
 11
315.727527
 21
370.781916
 31
0.0
  0
LINE
  5
635
102
{ACAD_REACTORS
330
65F
102
}
330
1F
100
AcDbEntity
  8
LC-001-002-----0
 62
     7
370
    50
100
AcDbLine
 10
331.616621
 20
373.624372
 30
0.0
 11
329.755141
 21
371.762878
 31
0.0
  0
LINE
  5
636
102
{ACAD_REACTORS
330
65F
102
}
330
1F
100
AcDbEntity
  8
LC-001-002-----0
 62
     7
370
    50
100
AcDbLine
 10
329.755141
 20
371.762878
 30
0.0
 11
315.727527
 21
370.781916
 31
0.0
  0
LINE
  5
637
102
{ACAD_REACTORS
330
65F
102
}
330
1F
100
AcDbEntity
  8
LC-001-002-----0
 62
     7
370
    50
100
AcDbLine
 10
473.29825
 20
369.667726
 30
0.0
 11
473.298231
 21
374.367726
 31
0.0
  0
LINE
  5
638
102
{ACAD_REACTORS
330
65F
102
}
330
1F
100
AcDbEntity
  8
LC-001-002-----0
 62
     7
370
    50
100
AcDbLine
 10
223.497557
 20
374.100611
 30
0.0
 11
331.307872
 21
374.100611
 31
0.0
  0
LINE
  5
639
102
{ACAD_REACTORS
330
65F
102
}
330
1F
100
AcDbEntity
  8
LC-001-002-----0
 62
     7
370
    50
100
AcDbLine
 10
302.006488
 20
350.51192
 30
0.0
 11
299.006488
 21
347.51192
 31
0.0
  0
LINE
  5
63A
102
{ACAD_REACTORS
330
65F
102
}
330
1F
100
AcDbEntity
  8
LC-001-002-----0
 62
     7
370
    50
100
AcDbLine
 10
292.006488
 20
347.51192
 30
0.0
 11
292.006488
 21
350.01192
 31
0.0
  0
LINE
  5
63B
102
{ACAD_REACTORS
330
65F
102
}
330
1F
100
AcDbEntity
  8
LC-001-002-----0
 62
     7
370
    50
100
AcDbLine
 10
286.579229
 20
347.51192
 30
0.0
 11
286.579229
 21
350.01192
 31
0.0
  0
LINE
  5
63C
102
{ACAD_REACTORS
330
65F
102
}
330
1F
100
AcDbEntity
  8
LC-001-002-----0
 62
     7
370
    50
100
AcDbLine
 10
279.079272
 20
350.01192
 30
0.0
 11
299.506488
 21
350.01192
 31
0.0
  0
LINE
  5
63D
102
{ACAD_REACTORS
330
65F
102
}
330
1F
100
AcDbEntity
  8
LC-001-002-----0
 62
     7
370
    50
100
AcDbLine
 10
302.006488
 20
367.511564
 30
0.0
 11
302.006488
 21
350.51192
 31
0.0
  0
LINE
  5
63E
102
{ACAD_REACTORS
330
65F
102
}
330
1F
100
AcDbEntity
  8
LC-001-002-----0
 62
     7
370
    50
100
AcDbLine
 10
293.756488
 20
347.51192
 30
0.0
 11
264.996269
 21
347.51192
 31
0.0
  0
LINE
  5
63F
102
{ACAD_REACTORS
330
65F
102
}
330
1F
100
AcDbEntity
  8
LC-001-002-----0
 62
     7
370
    50
100
AcDbLine
 10
302.006488
 20
367.511564
 30
0.0
 11
233.654478
 21
367.511564
 31
0.0
  0
LINE
  5
640
102
{ACAD_REACTORS
330
65F
102
}
330
1F
100
AcDbEntity
  8
LC-001-002-----0
 62
     7
370
    50
100
AcDbLine
 10
293.756488
 20
347.51192
 30
0.0
 11
299.006488
 21
347.51192
 31
0.0
  0
ARC
  5
641
102
{ACAD_REACTORS
330
65F
102
}
330
1F
100
AcDbEntity
  8
LC-001-002-----0
 62
     7
370
    50
100
AcDbCircle
 10
325.868381
 20
378.506509
 30
0.0
 40
6.300000000000705
100
AcDbArc
 50
274.0
 51
315.621929
  0
ARC
  5
642
102
{ACAD_REACTORS
330
65F
102
}
330
1F
100
AcDbEntity
  8
LC-001-002-----0
 62
     7
370
    50
100
AcDbCircle
 10
325.868381
 20
378.506509
 30
0.0
 40
7.000000000001022
100
AcDbArc
 50
274.0
 51
320.993096
  0
ARC
  5
643
102
{ACAD_REACTORS
330
65F
102
}
330
1F
100
AcDbEntity
  8
LC-003-002-RND-0
 62
     7
370
    50
100
AcDbCircle
 10
309.068883
 20
363.988716
 30
0.0
 40
7.000000000000123
100
AcDbArc
 50
94.0
 51
180.0
  0
ARC
  5
644
102
{ACAD_REACTORS
330
65F
102
}
330
1F
100
AcDbEntity
  8
LC-001-002-----0
 62
     7
370
    50
100
AcDbCircle
 10
299.268883
 20
350.311253
 30
0.0
 40
2.800000000000352
100
AcDbArc
 50
270.0
 51
360.0
  0
ARC
  5
645
102
{ACAD_REACTORS
330
65F
102
}
330
1F
100
AcDbEntity
  8
LC-001-002-----0
 62
     7
370
    50
100
AcDbCircle
 10
299.268603
 20
346.511621
 30
0.0
 40
1.000000000000195
100
AcDbArc
 50
90.00028
 51
180.00028
  0
ARC
  5
646
102
{ACAD_REACTORS
330
65F
102
}
330
1F
100
AcDbEntity
  8
LC-001-002-----0
 62
     7
370
    50
100
AcDbCircle
 10
299.268603
 20
346.511621
 30
0.0
 40
0.3000000000001326
100
AcDbArc
 50
90.00028
 51
180.00028
  0
LINE
  5
647
102
{ACAD_REACTORS
330
65F
102
}
330
1F
100
AcDbEntity
  8
LC-001-002-----0
 62
     7
370
    50
100
AcDbLine
 10
298.268883
 20
346.511253
 30
0.0
 11
298.268883
 21
344.211253
 31
0.0
  0
ARC
  5
648
102
{ACAD_REACTORS
330
65F
102
}
330
1F
100
AcDbEntity
  8
LC-001-002-----0
 62
     7
370
    50
100
AcDbCircle
 10
299.268883
 20
344.211253
 30
0.0
 40
1.000000000000114
100
AcDbArc
 50
180.0
 51
270.0
  0
ARC
  5
649
102
{ACAD_REACTORS
330
65F
102
}
330
1F
100
AcDbEntity
  8
LC-001-002-----0
 62
     7
370
    50
100
AcDbCircle
 10
299.268883
 20
342.411253
 30
0.0
 40
0.8000000000000682
100
AcDbArc
 50
0.0
 51
90.0
  0
ARC
  5
64A
102
{ACAD_REACTORS
330
65F
102
}
330
1F
100
AcDbEntity
  8
LC-001-002-----0
 62
     7
370
    50
100
AcDbCircle
 10
299.268883
 20
342.411253
 30
0.0
 40
0.8000000000002956
100
AcDbArc
 50
270.0
 51
0.0
  0
LINE
  5
64B
102
{ACAD_REACTORS
330
65F
102
}
330
1F
100
AcDbEntity
  8
LC-001-002-----0
 62
     7
370
    50
100
AcDbLine
 10
299.268883
 20
341.611253
 30
0.0
 11
296.468883
 21
341.611253
 31
0.0
  0
LINE
  5
64C
102
{ACAD_REACTORS
330
65F
102
}
330
1F
100
AcDbEntity
  8
LC-001-002-----0
 62
     7
370
    50
100
AcDbLine
 10
296.468883
 20
340.911253
 30
0.0
 11
296.468883
 21
341.611253
 31
0.0
  0
ARC
  5
64D
102
{ACAD_REACTORS
330
65F
102
}
330
1F
100
AcDbEntity
  8
LC-001-002-----0
 62
     7
370
    50
100
AcDbCircle
 10
287.00599
 20
364.511564
 30
0.0
 40
2.0
100
AcDbArc
 50
90.0
 51
180.0
  0
LINE
  5
64E
102
{ACAD_REACTORS
330
65F
102
}
330
1F
100
AcDbEntity
  8
LC-001-002-----0
 62
     7
370
    50
100
AcDbLine
 10
290.520967
 20
366.511564
 30
0.0
 11
287.00599
 21
366.511564
 31
0.0
  0
LINE
  5
64F
102
{ACAD_REACTORS
330
65F
102
}
330
1F
100
AcDbEntity
  8
LC-001-002-----0
 62
     7
370
    50
100
AcDbLine
 10
287.50599
 20
350.01192
 30
0.0
 11
287.50599
 21
364.511564
 31
0.0
  0
LINE
  5
650
102
{ACAD_REACTORS
330
65F
102
}
330
1F
100
AcDbEntity
  8
LC-001-002-----0
 62
     7
370
    50
100
AcDbLine
 10
285.00599
 20
350.01192
 30
0.0
 11
285.00599
 21
364.511564
 31
0.0
  0
ARC
  5
651
102
{ACAD_REACTORS
330
65F
102
}
330
1F
100
AcDbEntity
  8
LC-001-002-----0
 62
     7
370
    50
100
AcDbCircle
 10
289.50599
 20
364.511564
 30
0.0
 40
2.000000000000057
100
AcDbArc
 50
90.0
 51
180.0
  0
DIMENSION
  5
652
330
1F
100
AcDbEntity
  8
LC-008-003-----0
 62
     7
370
    25
100
AcDbDimension
  2
*D36
 10
473.298231
 20
490.05
 30
0.0
 11
223.497556
 21
520.85
 31
0.0
 70
   160
  1
%%c500
 71
     5
 42
499.60135
  3
LC-DIM-L-0140-02-02
100
AcDbAlignedDimension
 13
-26.303119
 23
374.366727
 33
0.0
 14
473.298231
 24
374.367726
 34
0.0
100
AcDbRotatedDimension
  0
ENDSEC
  0
SECTION
  2
OBJECTS
  0
DICTIONARY
  5
C
330
0
100
AcDbDictionary
281
     1
  3
ACAD_GROUP
350
D
  3
ACAD_LAYOUT
350
1A
  3
ACAD_MLINESTYLE
350
17
  3
ACAD_PLOTSETTINGS
350
19
  3
ACAD_PLOTSTYLENAME
350
E
  0
DICTIONARY
  5
D
102
{ACAD_REACTORS
330
C
102
}
330
C
100
AcDbDictionary
281
     1
  3
LCGROUP559
350
65F
  0
DICTIONARY
  5
1A
102
{ACAD_REACTORS
330
C
102
}
330
C
100
AcDbDictionary
281
     1
  3
Layout1
350
1E
  3
Layout2
350
26
  3
Model
350
22
  0
DICTIONARY
  5
17
102
{ACAD_REACTORS
330
C
102
}
330
C
100
AcDbDictionary
281
     1
  3
Standard
350
18
  0
DICTIONARY
  5
19
102
{ACAD_REACTORS
330
C
102
}
330
C
100
AcDbDictionary
281
     1
  0
ACDBDICTIONARYWDFLT
  5
E
102
{ACAD_REACTORS
330
C
102
}
330
C
100
AcDbDictionary
281
     1
  3
Normal
350
F
100
AcDbDictionaryWithDefault
340
F
  0
GROUP
  5
65F
102
{ACAD_REACTORS
330
D
102
}
330
D
100
AcDbGroup
300
Folie
 70
     1
 71
     1
340
330
340
331
340
332
340
333
340
334
340
335
340
336
340
337
340
338
340
339
340
33A
340
33B
340
34D
340
34E
340
34F
340
350
340
351
340
352
340
353
340
354
340
355
340
356
340
357
340
358
340
359
340
35A
340
35B
340
35C
340
35D
340
35E
340
35F
340
360
340
361
340
362
340
363
340
364
340
365
340
366
340
367
340
368
340
369
340
36A
340
36B
340
36C
340
36D
340
36E
340
38B
340
3A9
340
3C7
340
3E5
340
403
340
421
340
422
340
423
340
424
340
425
340
426
340
427
340
428
340
429
340
42A
340
42B
340
42C
340
42D
340
42E
340
42F
340
43D
340
43E
340
43F
340
440
340
441
340
442
340
443
340
444
340
445
340
446
340
447
340
448
340
449
340
467
340
468
340
469
340
487
340
488
340
489
340
4AB
340
4AC
340
4AD
340
4AE
340
4AF
340
4B0
340
4B1
340
4B2
340
4B3
340
4B4
340
4B5
340
4B6
340
4B7
340
4B8
340
4B9
340
4BA
340
4BB
340
4BC
340
4BD
340
4BE
340
4BF
340
4C0
340
4C1
340
4C2
340
4C3
340
4C4
340
4C5
340
4C6
340
4C7
340
4C8
340
4C9
340
4CA
340
4CB
340
4CC
340
4CD
340
4CE
340
4CF
340
4D0
340
4D1
340
4D2
340
4D3
340
4D4
340
4D5
340
4D6
340
4E5
340
4E6
340
4E7
340
4E8
340
4E9
340
4EA
340
4EB
340
4EC
340
4ED
340
4EE
340
4EF
340
4F0
340
4F1
340
4F2
340
4F3
340
4F4
340
4F5
340
4F6
340
4F7
340
4F8
340
4F9
340
4FA
340
4FB
340
4FC
340
4FD
340
4FE
340
4FF
340
500
340
501
340
502
340
503
340
504
340
505
340
506
340
51B
340
539
340
557
340
575
340
593
340
5B1
340
5B2
340
5B3
340
5B4
340
5B5
340
5B6
340
5B7
340
5B8
340
5B9
340
5BA
340
5BB
340
5BC
340
5BD
340
5BE
340
5BF
340
5CD
340
5CE
340
5CF
340
5D0
340
5D1
340
5D2
340
5D3
340
5D4
340
5D5
340
5D6
340
5D7
340
5D8
340
5D9
340
5F7
340
5F8
340
5F9
340
616
340
617
340
618
340
632
340
633
340
634
340
635
340
636
340
637
340
638
340
639
340
63A
340
63B
340
63C
340
63D
340
63E
340
63F
340
640
340
641
340
642
340
643
340
644
340
645
340
646
340
647
340
648
340
649
340
64A
340
64B
340
64C
340
64D
340
64E
340
64F
340
650
340
651
  0
LAYOUT
  5
1E
102
{ACAD_REACTORS
330
1A
102
}
330
1A
100
AcDbPlotSettings
  1

  2

  4

  6

 40
0.0
 41
0.0
 42
0.0
 43
0.0
 44
0.0
 45
0.0
 46
0.0
 47
0.0
 48
0.0
 49
0.0
140
0.0
141
0.0
142
1.0
143
1.0
 70
   688
 72
     0
 73
     0
 74
     5
  7

 75
    16
147
1.0
148
0.0
149
0.0
100
AcDbLayout
  1
Layout1
 70
     1
 71
     1
 10
-210.0
 20
0.0
 11
630.0
 21
594.0
 12
0.0
 22
0.0
 32
0.0
 14
-210.0
 24
0.0
 34
0.0
 15
630.0
 25
594.0
 35
0.0
146
0.0
 13
0.0
 23
0.0
 33
0.0
 16
1.0
 26
0.0
 36
0.0
 17
0.0
 27
1.0
 37
0.0
 76
     0
330
1B
  0
LAYOUT
  5
26
102
{ACAD_REACTORS
330
1A
102
}
330
1A
100
AcDbPlotSettings
  1

  2

  4

  6

 40
0.0
 41
0.0
 42
0.0
 43
0.0
 44
0.0
 45
0.0
 46
0.0
 47
0.0
 48
0.0
 49
0.0
140
0.0
141
0.0
142
1.0
143
1.0
 70
   688
 72
     0
 73
     0
 74
     5
  7

 75
    16
147
1.0
148
0.0
149
0.0
100
AcDbLayout
  1
Layout2
 70
     1
 71
     2
 10
0.0
 20
0.0
 11
0.0
 21
0.0
 12
0.0
 22
0.0
 32
0.0
 14
0.0
 24
0.0
 34
0.0
 15
0.0
 25
0.0
 35
0.0
146
0.0
 13
0.0
 23
0.0
 33
0.0
 16
1.0
 26
0.0
 36
0.0
 17
0.0
 27
1.0
 37
0.0
 76
     0
330
23
  0
LAYOUT
  5
22
102
{ACAD_REACTORS
330
1A
102
}
330
1A
100
AcDbPlotSettings
  1

  2

  4

  6

 40
0.0
 41
0.0
 42
0.0
 43
0.0
 44
0.0
 45
0.0
 46
0.0
 47
0.0
 48
0.0
 49
0.0
140
0.0
141
0.0
142
1.0
143
1.0
 70
  1776
 72
     0
 73
     0
 74
     0
  7

 75
     0
147
1.0
148
0.0
149
0.0
100
AcDbLayout
  1
Model
 70
     1
 71
     0
 10
-210.0
 20
0.0
 11
630.0
 21
594.0
 12
0.0
 22
0.0
 32
0.0
 14
-210.0
 24
0.0
 34
0.0
 15
630.0
 25
594.0
 35
0.0
146
0.0
 13
0.0
 23
0.0
 33
0.0
 16
1.0
 26
0.0
 36
0.0
 17
0.0
 27
1.0
 37
0.0
 76
     0
330
1F
  0
MLINESTYLE
  5
18
102
{ACAD_REACTORS
330
17
102
}
330
17
100
AcDbMlineStyle
  2
Standard
 70
     0
  3

 62
   256
 51
90.0
 52
90.0
 71
     2
 49
0.5
 62
   256
  6
BYLAYER
 49
-0.5
 62
   256
  6
BYLAYER
  0
ACDBPLACEHOLDER
  5
F
102
{ACAD_REACTORS
330
E
102
}
330
E
  0
ENDSEC
  0
EOF
