  0
SECTION
  2
HEADER
  9
$ACADVER
  1
AC1009
  9
$DWGCODEPAGE
  3
dos850
  9
$INSBASE
 10
0.0
 20
0.0
 30
0.0
  9
$EXTMIN
 10
-210.0
 20
0.0
 30
0.0
  9
$EXTMAX
 10
630.0
 20
594.0
 30
0.0
  9
$LIMMIN
 10
-210.0
 20
0.0
  9
$LIMMAX
 10
630.0
 20
594.0
  9
$ORTHOMODE
 70
     0
  9
$REGENMODE
 70
     1
  9
$FILLMODE
 70
     1
  9
$QTEXTMODE
 70
     0
  9
$MIRRTEXT
 70
     1
  9
$DRAGMODE
 70
     2
  9
$LTSCALE
 40
2.0
  9
$OSMODE
 70
     0
  9
$ATTMODE
 70
     1
  9
$TEXTSIZE
 40
0.2
  9
$TRACEWID
 40
0.05
  9
$TEXTSTYLE
  7
STANDARD
  9
$CLAYER
  8
0
  9
$CELTYPE
  6
BYBLOCK
  9
$CECOLOR
 62
     7
  9
$DIMSCALE
 40
2.0
  9
$DIMASZ
 40
3.5
  9
$DIMEXO
 40
0.0625
  9
$DIMDLI
 40
0.38
  9
$DIMRND
 40
0.0
  9
$DIMDLE
 40
0.0
  9
$DIMEXE
 40
0.18
  9
$DIMTP
 40
0.0
  9
$DIMTM
 40
0.0
  9
$DIMTXT
 40
3.5
  9
$DIMCEN
 40
0.09
  9
$DIMTSZ
 40
0.0
  9
$DIMTOL
 70
     0
  9
$DIMLIM
 70
     0
  9
$DIMTIH
 70
     1
  9
$DIMTOH
 70
     1
  9
$DIMSE1
 70
     0
  9
$DIMSE2
 70
     0
  9
$DIMTAD
 70
     1
  9
$DIMZIN
 70
     0
  9
$DIMBLK
  1

  9
$DIMASO
 70
     1
  9
$DIMSHO
 70
     1
  9
$DIMPOST
  1

  9
$DIMAPOST
  1

  9
$DIMALT
 70
     0
  9
$DIMALTD
 70
     2
  9
$DIMALTF
 40
25.4
  9
$DIMLFAC
 40
1.0
  9
$DIMTOFL
 70
     0
  9
$DIMTVP
 40
0.0
  9
$DIMTIX
 70
     0
  9
$DIMSOXD
 70
     0
  9
$DIMSAH
 70
     0
  9
$DIMBLK1
  1

  9
$DIMBLK2
  1

  9
$DIMSTYLE
  2
STANDARD
  9
$DIMCLRD
 70
     0
  9
$DIMCLRE
 70
     0
  9
$DIMCLRT
 70
     0
  9
$DIMTFAC
 40
1.0
  9
$DIMGAP
 40
0.09
  9
$LUNITS
 70
     2
  9
$LUPREC
 70
     6
  9
$AXISMODE
 70
     0
  9
$AXISUNIT
 10
0.0
 20
0.0
  9
$SKETCHINC
 40
0.1
  9
$FILLETRAD
 40
0.0
  9
$AUNITS
 70
     0
  9
$AUPREC
 70
     0
  9
$MENU
  1
acad
  9
$ELEVATION
 40
0.0
  9
$PELEVATION
 40
0.0
  9
$THICKNESS
 40
0.0
  9
$LIMCHECK
 70
     0
  9
$BLIPMODE
 70
     1
  9
$CHAMFERA
 40
0.0
  9
$CHAMFERB
 40
0.0
  9
$SKPOLY
 70
     0
  9
$TDCREATE
 40
0.000000000
  9
$TDUPDATE
 40
0.000000000
  9
$TDINDWG
 40
0.0000000000
  9
$TDUSRTIMER
 40
0.0000000000
  9
$USRTIMER
 70
     1
  9
$ANGBASE
 50
0.0
  9
$ANGDIR
 70
     0
  9
$PDMODE
 70
     0
  9
$PDSIZE
 40
0.0
  9
$PLINEWID
 40
0.0
  9
$COORDS
 70
     0
  9
$SPLFRAME
 70
     0
  9
$SPLINETYPE
 70
     6
  9
$SPLINESEGS
 70
     8
  9
$ATTDIA
 70
     0
  9
$ATTREQ
 70
     1
  9
$HANDLING
 70
     1
  9
$HANDSEED
  5
6B1
  9
$SURFTAB1
 70
     6
  9
$SURFTAB2
 70
     6
  9
$SURFTYPE
 70
     6
  9
$SURFU
 70
     6
  9
$SURFV
 70
     6
  9
$UCSNAME
  2

  9
$UCSORG
 10
0.0
 20
0.0
 30
0.0
  9
$UCSXDIR
 10
1.0
 20
0.0
 30
0.0
  9
$UCSYDIR
 10
0.0
 20
1.0
 30
0.0
  9
$PUCSNAME
  2

  9
$PUCSORG
 10
0.0
 20
0.0
 30
0.0
  9
$PUCSXDIR
 10
1.0
 20
0.0
 30
0.0
  9
$PUCSYDIR
 10
0.0
 20
1.0
 30
0.0
  9
$USERI1
 70
     0
  9
$USERI2
 70
     0
  9
$USERI3
 70
     0
  9
$USERI4
 70
     0
  9
$USERI5
 70
     0
  9
$USERR1
 40
0.0
  9
$USERR2
 40
0.0
  9
$USERR3
 40
0.0
  9
$USERR4
 40
0.0
  9
$USERR5
 40
0.0
  9
$WORLDVIEW
 70
     1
  9
$SHADEDGE
 70
     3
  9
$SHADEDIF
 70
    70
  9
$TILEMODE
 70
     1
  9
$MAXACTVP
 70
    16
  9
$PINSBASE
 10
0.0
 20
0.0
 30
0.0
  9
$PLIMCHECK
 70
     0
  9
$PEXTMIN
 10
-210.0
 20
0.0
 30
0.0
  9
$PEXTMAX
 10
630.0
 20
594.0
 30
0.0
  9
$PLIMMIN
 10
-210.0
 20
0.0
  9
$PLIMMAX
 10
630.0
 20
594.0
  9
$UNITMODE
 70
     0
  9
$VISRETAIN
 70
     0
  9
$PLINEGEN
 70
     1
  9
$PSLTSCALE
 70
     0
  9
$TREEDEPTH
 70
  3020
  0
ENDSEC
  0
SECTION
  2
TABLES
  0
TABLE
  2
VPORT
 70
     1
  0
VPORT
  2
*ACTIVE
 70
     0
 10
0.0
 20
0.0
 11
1.0
 21
1.0
 12
420.0
 22
297.0
 13
0.0
 23
0.0
 14
1.0
 24
1.0
 15
0.0
 25
0.0
 16
0.0
 26
0.0
 36
1.0
 17
-210.0
 27
0.0
 37
0.0
 40
594.0
 41
1.604229
 42
50.0
 43
0.0
 44
0.0
 50
0.0
 51
0.0
 71
     0
 72
   100
 73
     1
 74
     1
 75
     0
 76
     0
 77
     0
 78
     0
  0
ENDTAB
  0
TABLE
  2
LTYPE
 70
     3
  0
LTYPE
  2
CONTINUOUS
 70
    64
  3
Solid line
 72
    65
 73
     0
 40
0.0
  0
LTYPE
  2
DASHED
 70
    64
  3
__ __ __ __ __
 72
    65
 73
     2
 40
6.25
 49
5.0
 49
-1.25
  0
LTYPE
  2
DASHDOT
 70
    64
  3
__ . __ . __ . __ . __
 72
    65
 73
     4
 40
7.5
 49
5.0
 49
-1.25
 49
0.0
 49
-1.25
  0
ENDTAB
  0
TABLE
  2
LAYER
 70
    13
  0
LAYER
  2
0
 70
     0
 62
     7
  6
CONTINUOUS
  0
LAYER
  2
LC-INFO-1-2-MM-A3-0
 70
     1
 62
   255
  6
BYBLOCK
  0
LAYER
  2
LC-3D-HIDDEN
 70
     0
 62
     9
  6
DASHED
  0
LAYER
  2
LC-CUT-HIDDEN
 70
     0
 62
     9
  6
DASHED
  0
LAYER
  2
LC-VIEWPORT
 70
     0
 62
     7
  6
BYBLOCK
  0
LAYER
  2
LC-001-002-----0
 70
     0
 62
     1
  6
BYBLOCK
  0
LAYER
  2
LC-002-002-RND-0
 70
     0
 62
     1
  6
BYBLOCK
  0
LAYER
  2
LC-003-001-RND-0
 70
     0
 62
     1
  6
BYBLOCK
  0
LAYER
  2
LC-004-001-----0
 70
     0
 62
     1
  6
BYBLOCK
  0
LAYER
  2
LC-005-005-----0
 70
     0
 62
     2
  6
BYBLOCK
  0
LAYER
  2
LC-006-003-MTH-0
 70
     0
 62
     2
  6
BYBLOCK
  0
LAYER
  2
LC-007-003-----0
 70
     0
 62
     2
  6
BYBLOCK
  0
LAYER
  2
LC-008-003-MTG-0
 70
     0
 62
     2
  6
BYBLOCK
  0
ENDTAB
  0
TABLE
  2
STYLE
 70
     4
  0
STYLE
  2
STANDARD
 70
     0
 40
0.0
 41
1.0
 50
0.0
 71
     0
 42
0.0
  3
txt
  4

  0
STYLE
  2
LCTX0-500-0-0-DIN-SCHRIFT
 70
    64
 40
3.5
 41
1.0
 50
0.0
 71
     0
 42
0.0
  3
MONOTXT
  4

  0
STYLE
  2
LCTX15-400-0-0-ARIAL
 70
    64
 40
3.5
 41
1.0
 50
0.0
 71
     0
 42
0.0
  3
Arial
  4

  0
STYLE
  2
LCTX15-400-0-0-DIN-SCHRIFT__P_
 70
    64
 40
0.0
 41
1.0
 50
1.5
 71
     0
 42
3.5
  3
STANDARD
  4

  0
ENDTAB
  0
TABLE
  2
VIEW
 70
     0
  0
ENDTAB
  0
TABLE
  2
UCS
 70
     0
  0
ENDTAB
  0
TABLE
  2
APPID
 70
     1
  0
APPID
  2
ACAD
 70
     0
  0
ENDTAB
  0
TABLE
  2
DIMSTYLE
 70
     2
  0
DIMSTYLE
  2
STANDARD
 70
     0
  3

  4

  5

  6

  7

 40
1.0
 41
0.18
 42
0.0625
 43
0.38
 44
0.18
 45
0.0
 46
0.0
 47
0.0
 48
0.0
 71
     0
 72
     0
 73
     1
 74
     1
 75
     0
 76
     0
 77
     0
 78
     0
140
0.18
141
0.09
142
0.0
143
25.4
144
1.0
145
0.0
146
1.0
147
0.09
170
     0
171
     2
172
     0
173
     0
174
     0
175
     0
176
     0
177
     0
178
     0
  0
DIMSTYLE
  2
LC-DIM-L-0140-02-02
 70
     0
  3

  4

  5

  6

  7

 40
2.0
 41
3.5
 42
0.0
 43
7.5
 44
1.8
 45
0.0
 46
0.0
 47
0.0
 48
0.0
 71
     0
 72
     0
 73
     0
 74
     0
 75
     0
 76
     0
 77
     1
 78
     8
140
14.0
141
0.0
142
0.0
143
25.4
144
1.0
145
0.0
146
0.71
147
1.5
170
     0
171
     2
172
     0
173
     0
174
     0
175
     0
176
     2
177
     2
178
     2
  0
ENDTAB
  0
ENDSEC
  0
SECTION
  2
BLOCKS
  0
BLOCK
  8
0
  5
BD
  2
*X0
 70
    65
 10
0.0
 20
0.0
 30
0.0
  3
*X0
  0
LINE
  8
LC-005-005-----0
 62
     2
  5
BF
 10
200.885672
 20
215.027808
 30
0.0
 11
202.532301
 21
216.674436
 31
0.0
  0
LINE
  8
LC-005-005-----0
 62
     2
  5
C0
 10
199.960259
 20
216.930822
 30
0.0
 11
202.532301
 21
219.502864
 31
0.0
  0
LINE
  8
LC-005-005-----0
 62
     2
  5
C1
 10
199.532301
 20
219.331291
 30
0.0
 11
202.532301
 21
222.331291
 31
0.0
  0
LINE
  8
LC-005-005-----0
 62
     2
  5
C2
 10
199.532301
 20
222.159718
 30
0.0
 11
202.532301
 21
225.159718
 31
0.0
  0
LINE
  8
LC-005-005-----0
 62
     2
  5
C3
 10
199.532301
 20
224.988145
 30
0.0
 11
202.532301
 21
227.988145
 31
0.0
  0
LINE
  8
LC-005-005-----0
 62
     2
  5
C4
 10
199.532301
 20
227.816572
 30
0.0
 11
202.532301
 21
230.816572
 31
0.0
  0
LINE
  8
LC-005-005-----0
 62
     2
  5
C5
 10
199.532301
 20
230.644999
 30
0.0
 11
202.532301
 21
233.644999
 31
0.0
  0
LINE
  8
LC-005-005-----0
 62
     2
  5
C6
 10
199.532301
 20
233.473426
 30
0.0
 11
202.532301
 21
236.473426
 31
0.0
  0
LINE
  8
LC-005-005-----0
 62
     2
  5
C7
 10
199.532301
 20
236.301853
 30
0.0
 11
202.532301
 21
239.301853
 31
0.0
  0
LINE
  8
LC-005-005-----0
 62
     2
  5
C8
 10
199.532301
 20
239.130281
 30
0.0
 11
202.532301
 21
242.130281
 31
0.0
  0
LINE
  8
LC-005-005-----0
 62
     2
  5
C9
 10
199.532301
 20
241.958708
 30
0.0
 11
202.532301
 21
244.958708
 31
0.0
  0
LINE
  8
LC-005-005-----0
 62
     2
  5
CA
 10
199.532301
 20
244.787135
 30
0.0
 11
202.522026
 21
247.77686
 31
0.0
  0
LINE
  8
LC-005-005-----0
 62
     2
  5
CB
 10
199.1957
 20
247.278961
 30
0.0
 11
201.610686
 21
249.693947
 31
0.0
  0
LINE
  8
LC-005-005-----0
 62
     2
  5
CC
 10
197.195539
 20
248.107227
 30
0.0
 11
199.617785
 21
250.529473
 31
0.0
  0
LINE
  8
LC-005-005-----0
 62
     2
  5
CD
 10
196.092567
 20
249.832682
 30
0.0
 11
197.633825
 21
251.37394
 31
0.0
  0
LINE
  8
LC-005-005-----0
 62
     2
  5
CE
 10
190.962152
 20
247.530695
 30
0.0
 11
197.00574
 21
253.574282
 31
0.0
  0
LINE
  8
LC-005-005-----0
 62
     2
  5
CF
 10
188.133724
 20
247.530694
 30
0.0
 11
191.135502
 21
250.532471
 31
0.0
  0
LINE
  8
LC-005-005-----0
 62
     2
  5
D0
 10
194.030525
 20
253.427495
 30
0.0
 11
196.98127
 21
256.37824
 31
0.0
  0
LINE
  8
LC-005-005-----0
 62
     2
  5
D1
 10
185.305296
 20
247.530693
 30
0.0
 11
188.305299
 21
250.530696
 31
0.0
  0
LINE
  8
LC-005-005-----0
 62
     2
  5
D2
 10
194.032301
 20
256.257698
 30
0.0
 11
196.9568
 21
259.182197
 31
0.0
  0
LINE
  8
LC-005-005-----0
 62
     2
  5
D3
 10
182.476868
 20
247.530692
 30
0.0
 11
185.476872
 21
250.530696
 31
0.0
  0
LINE
  8
LC-005-005-----0
 62
     2
  5
D4
 10
194.032301
 20
259.086125
 30
0.0
 11
196.932331
 21
261.986154
 31
0.0
  0
LINE
  8
LC-005-005-----0
 62
     2
  5
D5
 10
179.64844
 20
247.530691
 30
0.0
 11
182.648445
 21
250.530696
 31
0.0
  0
LINE
  8
LC-005-005-----0
 62
     2
  5
D6
 10
194.032301
 20
261.914552
 30
0.0
 11
196.907861
 21
264.790112
 31
0.0
  0
LINE
  8
LC-005-005-----0
 62
     2
  5
D7
 10
176.820084
 20
247.530762
 30
0.0
 11
179.820018
 21
250.530696
 31
0.0
  0
LINE
  8
LC-005-005-----0
 62
     2
  5
D8
 10
194.032301
 20
264.742979
 30
0.0
 11
196.883391
 21
267.594069
 31
0.0
  0
LINE
  8
LC-005-005-----0
 62
     2
  5
D9
 10
173.991587
 20
247.530692
 30
0.0
 11
174.532301
 21
248.071406
 31
0.0
  0
LINE
  8
LC-005-005-----0
 62
     2
  5
DA
 10
175.474674
 20
249.013779
 30
0.0
 11
176.991591
 21
250.530696
 31
0.0
  0
LINE
  8
LC-005-005-----0
 62
     2
  5
DB
 10
194.032301
 20
267.571406
 30
0.0
 11
196.858921
 21
270.398027
 31
0.0
  0
LINE
  8
LC-005-005-----0
 62
     2
  5
DC
 10
171.163161
 20
247.530693
 30
0.0
 11
174.163163
 21
250.530696
 31
0.0
  0
LINE
  8
LC-005-005-----0
 62
     2
  5
DD
 10
174.532301
 20
250.899833
 30
0.0
 11
174.876957
 21
251.24449
 31
0.0
  0
LINE
  8
LC-005-005-----0
 62
     2
  5
DE
 10
194.032301
 20
270.399833
 30
0.0
 11
196.834452
 21
273.201984
 31
0.0
  0
LINE
  8
LC-005-005-----0
 62
     2
  5
DF
 10
168.334734
 20
247.530693
 30
0.0
 11
171.334736
 21
250.530696
 31
0.0
  0
LINE
  8
LC-005-005-----0
 62
     2
  5
E0
 10
194.032301
 20
273.22826
 30
0.0
 11
196.809982
 21
276.005941
 31
0.0
  0
LINE
  8
LC-005-005-----0
 62
     2
  5
E1
 10
165.506307
 20
247.530694
 30
0.0
 11
168.506309
 21
250.530696
 31
0.0
  0
LINE
  8
LC-005-005-----0
 62
     2
  5
E2
 10
194.032301
 20
276.056687
 30
0.0
 11
196.785512
 21
278.809899
 31
0.0
  0
LINE
  8
LC-005-005-----0
 62
     2
  5
E3
 10
162.677881
 20
247.530695
 30
0.0
 11
165.677882
 21
250.530696
 31
0.0
  0
LINE
  8
LC-005-005-----0
 62
     2
  5
E4
 10
194.032301
 20
278.885115
 30
0.0
 11
196.761042
 21
281.613856
 31
0.0
  0
LINE
  8
LC-005-005-----0
 62
     2
  5
E5
 10
159.849454
 20
247.530695
 30
0.0
 11
162.849455
 21
250.530696
 31
0.0
  0
LINE
  8
LC-005-005-----0
 62
     2
  5
E6
 10
194.032301
 20
281.713542
 30
0.0
 11
196.736572
 21
284.417813
 31
0.0
  0
LINE
  8
LC-005-005-----0
 62
     2
  5
E7
 10
157.021028
 20
247.530696
 30
0.0
 11
160.021028
 21
250.530696
 31
0.0
  0
LINE
  8
LC-005-005-----0
 62
     2
  5
E8
 10
194.032301
 20
284.541969
 30
0.0
 11
196.712103
 21
287.221771
 31
0.0
  0
LINE
  8
LC-005-005-----0
 62
     2
  5
E9
 10
154.318287
 20
247.656383
 30
0.0
 11
157.192601
 21
250.530696
 31
0.0
  0
LINE
  8
LC-005-005-----0
 62
     2
  5
EA
 10
194.032301
 20
287.370396
 30
0.0
 11
196.687633
 21
290.025728
 31
0.0
  0
LINE
  8
LC-005-005-----0
 62
     2
  5
EB
 10
152.057053
 20
248.223576
 30
0.0
 11
154.496331
 21
250.662854
 31
0.0
  0
LINE
  8
LC-005-005-----0
 62
     2
  5
EC
 10
194.032301
 20
290.198823
 30
0.0
 11
196.663163
 21
292.829685
 31
0.0
  0
LINE
  8
LC-005-005-----0
 62
     2
  5
ED
 10
150.127318
 20
249.122267
 30
0.0
 11
152.331954
 21
251.326904
 31
0.0
  0
LINE
  8
LC-005-005-----0
 62
     2
  5
EE
 10
194.032301
 20
293.02725
 30
0.0
 11
196.638693
 21
295.633643
 31
0.0
  0
LINE
  8
LC-005-005-----0
 62
     2
  5
EF
 10
148.466913
 20
250.290289
 30
0.0
 11
150.561505
 21
252.384882
 31
0.0
  0
LINE
  8
LC-005-005-----0
 62
     2
  5
F0
 10
194.032301
 20
295.855677
 30
0.0
 11
196.614224
 21
298.4376
 31
0.0
  0
LINE
  8
LC-005-005-----0
 62
     2
  5
F1
 10
147.051777
 20
251.70358
 30
0.0
 11
149.118206
 21
253.770009
 31
0.0
  0
LINE
  8
LC-005-005-----0
 62
     2
  5
F2
 10
194.032301
 20
298.684104
 30
0.0
 11
196.589754
 21
301.241558
 31
0.0
  0
LINE
  8
LC-005-005-----0
 62
     2
  5
F3
 10
145.881824
 20
253.362055
 30
0.0
 11
147.997331
 21
255.477562
 31
0.0
  0
LINE
  8
LC-005-005-----0
 62
     2
  5
F4
 10
194.032301
 20
301.512532
 30
0.0
 11
196.565284
 21
304.045515
 31
0.0
  0
LINE
  8
LC-005-005-----0
 62
     2
  5
F5
 10
144.980905
 20
255.289563
 30
0.0
 11
147.251402
 21
257.56006
 31
0.0
  0
LINE
  8
LC-005-005-----0
 62
     2
  5
F6
 10
194.032301
 20
304.340959
 30
0.0
 11
196.540814
 21
306.849472
 31
0.0
  0
LINE
  8
LC-005-005-----0
 62
     2
  5
F7
 10
144.410778
 20
257.547863
 30
0.0
 11
147.033008
 21
260.170093
 31
0.0
  0
LINE
  8
LC-005-005-----0
 62
     2
  5
F8
 10
194.032301
 20
307.169386
 30
0.0
 11
196.516345
 21
309.65343
 31
0.0
  0
LINE
  8
LC-005-005-----0
 62
     2
  5
F9
 10
144.282301
 20
260.247813
 30
0.0
 11
147.033008
 21
262.99852
 31
0.0
  0
LINE
  8
LC-005-005-----0
 62
     2
  5
FA
 10
194.032301
 20
309.997813
 30
0.0
 11
196.491875
 21
312.457387
 31
0.0
  0
LINE
  8
LC-005-005-----0
 62
     2
  5
FB
 10
144.282301
 20
263.07624
 30
0.0
 11
147.033008
 21
265.826947
 31
0.0
  0
LINE
  8
LC-005-005-----0
 62
     2
  5
FC
 10
194.032301
 20
312.82624
 30
0.0
 11
196.467405
 21
315.261344
 31
0.0
  0
LINE
  8
LC-005-005-----0
 62
     2
  5
FD
 10
144.282301
 20
265.904667
 30
0.0
 11
147.033008
 21
268.655374
 31
0.0
  0
LINE
  8
LC-005-005-----0
 62
     2
  5
FE
 10
194.032301
 20
315.654667
 30
0.0
 11
196.442935
 21
318.065302
 31
0.0
  0
LINE
  8
LC-005-005-----0
 62
     2
  5
FF
 10
144.282301
 20
268.733094
 30
0.0
 11
147.033008
 21
271.483801
 31
0.0
  0
LINE
  8
LC-005-005-----0
 62
     2
  5
100
 10
194.032301
 20
318.483094
 30
0.0
 11
196.418466
 21
320.869259
 31
0.0
  0
LINE
  8
LC-005-005-----0
 62
     2
  5
101
 10
144.282301
 20
271.561521
 30
0.0
 11
147.033008
 21
274.312228
 31
0.0
  0
LINE
  8
LC-005-005-----0
 62
     2
  5
102
 10
194.032301
 20
321.311521
 30
0.0
 11
196.393996
 21
323.673216
 31
0.0
  0
LINE
  8
LC-005-005-----0
 62
     2
  5
103
 10
144.282301
 20
274.389949
 30
0.0
 11
147.033008
 21
277.140656
 31
0.0
  0
LINE
  8
LC-005-005-----0
 62
     2
  5
104
 10
194.032301
 20
324.139949
 30
0.0
 11
195.423048
 21
325.530696
 31
0.0
  0
LINE
  8
LC-005-005-----0
 62
     2
  5
105
 10
144.282301
 20
277.218376
 30
0.0
 11
147.033008
 21
279.969083
 31
0.0
  0
LINE
  8
LC-005-005-----0
 62
     2
  5
106
 10
144.282301
 20
280.046803
 30
0.0
 11
147.033008
 21
282.79751
 31
0.0
  0
LINE
  8
LC-005-005-----0
 62
     2
  5
107
 10
144.282301
 20
282.87523
 30
0.0
 11
147.033008
 21
285.625937
 31
0.0
  0
LINE
  8
LC-005-005-----0
 62
     2
  5
108
 10
144.282301
 20
285.703657
 30
0.0
 11
147.033008
 21
288.454364
 31
0.0
  0
LINE
  8
LC-005-005-----0
 62
     2
  5
109
 10
144.282301
 20
288.532084
 30
0.0
 11
147.033008
 21
291.282791
 31
0.0
  0
LINE
  8
LC-005-005-----0
 62
     2
  5
10A
 10
144.282301
 20
291.360511
 30
0.0
 11
147.033008
 21
294.111218
 31
0.0
  0
LINE
  8
LC-005-005-----0
 62
     2
  5
10B
 10
144.282301
 20
294.188938
 30
0.0
 11
147.033008
 21
296.939645
 31
0.0
  0
LINE
  8
LC-005-005-----0
 62
     2
  5
10C
 10
144.282301
 20
297.017366
 30
0.0
 11
147.033008
 21
299.768073
 31
0.0
  0
LINE
  8
LC-005-005-----0
 62
     2
  5
10D
 10
144.282301
 20
299.845793
 30
0.0
 11
147.033008
 21
302.5965
 31
0.0
  0
LINE
  8
LC-005-005-----0
 62
     2
  5
10E
 10
144.282301
 20
302.67422
 30
0.0
 11
147.033008
 21
305.424927
 31
0.0
  0
LINE
  8
LC-005-005-----0
 62
     2
  5
10F
 10
144.282301
 20
305.502647
 30
0.0
 11
147.033008
 21
308.253354
 31
0.0
  0
LINE
  8
LC-005-005-----0
 62
     2
  5
110
 10
144.282301
 20
308.331074
 30
0.0
 11
147.033008
 21
311.081781
 31
0.0
  0
LINE
  8
LC-005-005-----0
 62
     2
  5
111
 10
144.282301
 20
311.159501
 30
0.0
 11
147.033008
 21
313.910208
 31
0.0
  0
LINE
  8
LC-005-005-----0
 62
     2
  5
112
 10
144.282301
 20
313.987928
 30
0.0
 11
147.033008
 21
316.738635
 31
0.0
  0
LINE
  8
LC-005-005-----0
 62
     2
  5
113
 10
144.282301
 20
316.816355
 30
0.0
 11
147.033008
 21
319.567062
 31
0.0
  0
LINE
  8
LC-005-005-----0
 62
     2
  5
114
 10
144.282301
 20
319.644783
 30
0.0
 11
147.033008
 21
322.39549
 31
0.0
  0
LINE
  8
LC-005-005-----0
 62
     2
  5
115
 10
144.075611
 20
322.26652
 30
0.0
 11
146.739787
 21
324.930696
 31
0.0
  0
LINE
  8
LC-005-005-----0
 62
     2
  5
116
 10
142.910762
 20
323.930098
 30
0.0
 11
146.483008
 21
327.502344
 31
0.0
  0
LINE
  8
LC-005-005-----0
 62
     2
  5
117
 10
146.888094
 20
327.90743
 30
0.0
 11
147.456273
 21
328.475609
 31
0.0
  0
LINE
  8
LC-005-005-----0
 62
     2
  5
118
 10
141.745912
 20
325.593675
 30
0.0
 11
146.483008
 21
330.330771
 31
0.0
  0
LINE
  8
LC-005-005-----0
 62
     2
  5
119
 10
140.581062
 20
327.257253
 30
0.0
 11
146.704224
 21
333.380414
 31
0.0
  0
LINE
  8
LC-005-005-----0
 62
     2
  5
11A
 10
139.416213
 20
328.92083
 30
0.0
 11
144.676078
 21
334.180696
 31
0.0
  0
LINE
  8
LC-005-005-----0
 62
     2
  5
11B
 10
138.251363
 20
330.584408
 30
0.0
 11
141.847651
 21
334.180696
 31
0.0
  0
LINE
  8
LC-005-005-----0
 62
     2
  5
11C
 10
137.086514
 20
332.247985
 30
0.0
 11
139.019224
 21
334.180696
 31
0.0
  0
LINE
  8
LC-005-005-----0
 62
     2
  5
11D
 10
135.921664
 20
333.911563
 30
0.0
 11
137.78439
 21
335.774288
 31
0.0
  0
LINE
  8
LC-005-005-----0
 62
     2
  5
11E
 10
135.033008
 20
335.851334
 30
0.0
 11
137.78439
 21
338.602715
 31
0.0
  0
LINE
  8
LC-005-005-----0
 62
     2
  5
11F
 10
135.033008
 20
338.679761
 30
0.0
 11
137.78439
 21
341.431143
 31
0.0
  0
LINE
  8
LC-005-005-----0
 62
     2
  5
120
 10
135.009735
 20
341.484915
 30
0.0
 11
137.78439
 21
344.25957
 31
0.0
  0
LINE
  8
LC-005-005-----0
 62
     2
  5
121
 10
133.74577
 20
343.049377
 30
0.0
 11
137.78439
 21
347.087997
 31
0.0
  0
LINE
  8
LC-005-005-----0
 62
     2
  5
122
 10
131.382145
 20
343.514179
 30
0.0
 11
133.563035
 21
345.695069
 31
0.0
  0
LINE
  8
LC-005-005-----0
 62
     2
  5
123
 10
135.783008
 20
347.915042
 30
0.0
 11
137.78439
 21
349.916424
 31
0.0
  0
LINE
  8
LC-005-005-----0
 62
     2
  5
124
 10
130.011213
 20
344.971675
 30
0.0
 11
132.680286
 21
347.640747
 31
0.0
  0
LINE
  8
LC-005-005-----0
 62
     2
  5
125
 10
135.783008
 20
350.743469
 30
0.0
 11
136.723802
 21
351.684263
 31
0.0
  0
LINE
  8
LC-005-005-----0
 62
     2
  5
126
 10
129.684918
 20
347.473806
 30
0.0
 11
132.539436
 21
350.328324
 31
0.0
  0
LINE
  8
LC-005-005-----0
 62
     2
  5
127
 10
129.544068
 20
350.161384
 30
0.0
 11
132.398586
 21
353.015902
 31
0.0
  0
LINE
  8
LC-005-005-----0
 62
     2
  5
128
 10
128.535682
 20
351.981425
 30
0.0
 11
131.401507
 21
354.84725
 31
0.0
  0
LINE
  8
LC-005-005-----0
 62
     2
  5
129
 10
125.947159
 20
352.221329
 30
0.0
 11
128.757937
 21
355.032107
 31
0.0
  0
LINE
  8
LC-005-005-----0
 62
     2
  5
12A
 10
123.303589
 20
352.406186
 30
0.0
 11
126.114366
 21
355.216963
 31
0.0
  0
LINE
  8
LC-005-005-----0
 62
     2
  5
12B
 10
120.660018
 20
352.591042
 30
0.0
 11
123.470795
 21
355.401819
 31
0.0
  0
LINE
  8
LC-005-005-----0
 62
     2
  5
12C
 10
118.016447
 20
352.775898
 30
0.0
 11
120.827224
 21
355.586676
 31
0.0
  0
LINE
  8
LC-005-005-----0
 62
     2
  5
12D
 10
115.372876
 20
352.960755
 30
0.0
 11
118.183653
 21
355.771532
 31
0.0
  0
LINE
  8
LC-005-005-----0
 62
     2
  5
12E
 10
113.805024
 20
354.22133
 30
0.0
 11
115.856923
 21
356.273228
 31
0.0
  0
LINE
  8
LC-005-005-----0
 62
     2
  5
12F
 10
111.478176
 20
354.722909
 30
0.0
 11
114.427158
 21
357.671891
 31
0.0
  0
LINE
  8
LC-005-005-----0
 62
     2
  5
130
 10
108.698272
 20
354.771432
 30
0.0
 11
111.647254
 21
357.720414
 31
0.0
  0
LINE
  8
LC-005-005-----0
 62
     2
  5
131
 10
105.918368
 20
354.819955
 30
0.0
 11
108.867351
 21
357.768938
 31
0.0
  0
LINE
  8
LC-005-005-----0
 62
     2
  5
132
 10
103.138465
 20
354.868479
 30
0.0
 11
106.087447
 21
357.817461
 31
0.0
  0
LINE
  8
LC-005-005-----0
 62
     2
  5
133
 10
100.358561
 20
354.917002
 30
0.0
 11
103.307543
 21
357.865984
 31
0.0
  0
LINE
  8
LC-005-005-----0
 62
     2
  5
134
 10
97.578657
 20
354.965526
 30
0.0
 11
100.527639
 21
357.914508
 31
0.0
  0
LINE
  8
LC-005-005-----0
 62
     2
  5
135
 10
94.798753
 20
355.014049
 30
0.0
 11
97.747736
 21
357.963031
 31
0.0
  0
LINE
  8
LC-005-005-----0
 62
     2
  5
136
 10
92.01885
 20
355.062572
 30
0.0
 11
94.967832
 21
358.011555
 31
0.0
  0
LINE
  8
LC-005-005-----0
 62
     2
  5
137
 10
89.238946
 20
355.111096
 30
0.0
 11
92.187928
 21
358.060078
 31
0.0
  0
LINE
  8
LC-005-005-----0
 62
     2
  5
138
 10
86.459042
 20
355.159619
 30
0.0
 11
89.408025
 21
358.108601
 31
0.0
  0
LINE
  8
LC-005-005-----0
 62
     2
  5
139
 10
83.679139
 20
355.208143
 30
0.0
 11
86.628121
 21
358.157125
 31
0.0
  0
LINE
  8
LC-005-005-----0
 62
     2
  5
13A
 10
80.899235
 20
355.256666
 30
0.0
 11
83.848217
 21
358.205648
 31
0.0
  0
LINE
  8
LC-005-005-----0
 62
     2
  5
13B
 10
78.119331
 20
355.305189
 30
0.0
 11
81.068313
 21
358.254172
 31
0.0
  0
LINE
  8
LC-005-005-----0
 62
     2
  5
13C
 10
75.339427
 20
355.353713
 30
0.0
 11
78.28841
 21
358.302695
 31
0.0
  0
LINE
  8
LC-005-005-----0
 62
     2
  5
13D
 10
73.780558
 20
356.62327
 30
0.0
 11
75.508506
 21
358.351218
 31
0.0
  0
ENDBLK
  8
0
  5
13E
  0
BLOCK
  8
0
  5
146
  2
*X1
 70
    65
 10
0.0
 20
0.0
 30
0.0
  3
*X1
  0
LINE
  8
LC-005-005-----0
 62
     2
  5
147
 10
261.981486
 20
137.530692
 30
0.0
 11
263.532301
 21
139.081507
 31
0.0
  0
LINE
  8
LC-005-005-----0
 62
     2
  5
148
 10
259.532301
 20
137.909935
 30
0.0
 11
263.532301
 21
141.909935
 31
0.0
  0
LINE
  8
LC-005-005-----0
 62
     2
  5
149
 10
259.532301
 20
140.738362
 30
0.0
 11
263.532301
 21
144.738362
 31
0.0
  0
LINE
  8
LC-005-005-----0
 62
     2
  5
14A
 10
259.532301
 20
143.566789
 30
0.0
 11
263.532301
 21
147.566789
 31
0.0
  0
LINE
  8
LC-005-005-----0
 62
     2
  5
14B
 10
259.532301
 20
146.395216
 30
0.0
 11
263.532301
 21
150.395216
 31
0.0
  0
LINE
  8
LC-005-005-----0
 62
     2
  5
14C
 10
259.532301
 20
149.223643
 30
0.0
 11
263.532301
 21
153.223643
 31
0.0
  0
LINE
  8
LC-005-005-----0
 62
     2
  5
14D
 10
259.532301
 20
152.05207
 30
0.0
 11
263.532301
 21
156.05207
 31
0.0
  0
LINE
  8
LC-005-005-----0
 62
     2
  5
14E
 10
259.532301
 20
154.880497
 30
0.0
 11
263.532301
 21
158.880497
 31
0.0
  0
LINE
  8
LC-005-005-----0
 62
     2
  5
14F
 10
259.532301
 20
157.708924
 30
0.0
 11
263.532301
 21
161.708924
 31
0.0
  0
LINE
  8
LC-005-005-----0
 62
     2
  5
150
 10
259.532301
 20
160.537352
 30
0.0
 11
263.532301
 21
164.537352
 31
0.0
  0
LINE
  8
LC-005-005-----0
 62
     2
  5
151
 10
259.532301
 20
163.365779
 30
0.0
 11
263.532301
 21
167.365779
 31
0.0
  0
LINE
  8
LC-005-005-----0
 62
     2
  5
152
 10
259.532301
 20
166.194206
 30
0.0
 11
263.532301
 21
170.194206
 31
0.0
  0
LINE
  8
LC-005-005-----0
 62
     2
  5
153
 10
259.532301
 20
169.022633
 30
0.0
 11
263.532301
 21
173.022633
 31
0.0
  0
LINE
  8
LC-005-005-----0
 62
     2
  5
154
 10
259.532301
 20
171.85106
 30
0.0
 11
263.532301
 21
175.85106
 31
0.0
  0
LINE
  8
LC-005-005-----0
 62
     2
  5
155
 10
259.532301
 20
174.679487
 30
0.0
 11
263.532301
 21
178.679487
 31
0.0
  0
LINE
  8
LC-005-005-----0
 62
     2
  5
156
 10
259.532301
 20
177.507914
 30
0.0
 11
263.532301
 21
181.507914
 31
0.0
  0
LINE
  8
LC-005-005-----0
 62
     2
  5
157
 10
259.532301
 20
180.336341
 30
0.0
 11
263.532301
 21
184.336341
 31
0.0
  0
LINE
  8
LC-005-005-----0
 62
     2
  5
158
 10
259.532301
 20
183.164769
 30
0.0
 11
263.532301
 21
187.164769
 31
0.0
  0
LINE
  8
LC-005-005-----0
 62
     2
  5
159
 10
259.532301
 20
185.993196
 30
0.0
 11
263.532301
 21
189.993196
 31
0.0
  0
LINE
  8
LC-005-005-----0
 62
     2
  5
15A
 10
259.532301
 20
188.821623
 30
0.0
 11
263.532301
 21
192.821623
 31
0.0
  0
LINE
  8
LC-005-005-----0
 62
     2
  5
15B
 10
259.532301
 20
191.65005
 30
0.0
 11
263.532301
 21
195.65005
 31
0.0
  0
LINE
  8
LC-005-005-----0
 62
     2
  5
15C
 10
259.532301
 20
194.478477
 30
0.0
 11
263.532301
 21
198.478477
 31
0.0
  0
LINE
  8
LC-005-005-----0
 62
     2
  5
15D
 10
259.532301
 20
197.306904
 30
0.0
 11
263.532301
 21
201.306904
 31
0.0
  0
LINE
  8
LC-005-005-----0
 62
     2
  5
15E
 10
259.532301
 20
200.135331
 30
0.0
 11
263.532301
 21
204.135331
 31
0.0
  0
LINE
  8
LC-005-005-----0
 62
     2
  5
15F
 10
259.532301
 20
202.963758
 30
0.0
 11
263.532301
 21
206.963758
 31
0.0
  0
LINE
  8
LC-005-005-----0
 62
     2
  5
160
 10
259.532301
 20
205.792186
 30
0.0
 11
263.532301
 21
209.792186
 31
0.0
  0
LINE
  8
LC-005-005-----0
 62
     2
  5
161
 10
188.44238
 20
137.530692
 30
0.0
 11
189.532301
 21
138.620613
 31
0.0
  0
LINE
  8
LC-005-005-----0
 62
     2
  5
162
 10
259.532301
 20
208.620613
 30
0.0
 11
263.532301
 21
212.620613
 31
0.0
  0
LINE
  8
LC-005-005-----0
 62
     2
  5
163
 10
185.613953
 20
137.530692
 30
0.0
 11
189.532301
 21
141.44904
 31
0.0
  0
LINE
  8
LC-005-005-----0
 62
     2
  5
164
 10
259.532301
 20
211.44904
 30
0.0
 11
263.532301
 21
215.44904
 31
0.0
  0
LINE
  8
LC-005-005-----0
 62
     2
  5
165
 10
185.532301
 20
140.277467
 30
0.0
 11
189.532301
 21
144.277467
 31
0.0
  0
LINE
  8
LC-005-005-----0
 62
     2
  5
166
 10
259.532301
 20
214.277467
 30
0.0
 11
263.532301
 21
218.277467
 31
0.0
  0
LINE
  8
LC-005-005-----0
 62
     2
  5
167
 10
185.532301
 20
143.105894
 30
0.0
 11
189.532301
 21
147.105894
 31
0.0
  0
LINE
  8
LC-005-005-----0
 62
     2
  5
168
 10
259.532301
 20
217.105894
 30
0.0
 11
263.532301
 21
221.105894
 31
0.0
  0
LINE
  8
LC-005-005-----0
 62
     2
  5
169
 10
185.532301
 20
145.934321
 30
0.0
 11
189.532301
 21
149.934321
 31
0.0
  0
LINE
  8
LC-005-005-----0
 62
     2
  5
16A
 10
259.532301
 20
219.934321
 30
0.0
 11
263.532301
 21
223.934321
 31
0.0
  0
LINE
  8
LC-005-005-----0
 62
     2
  5
16B
 10
185.532301
 20
148.762748
 30
0.0
 11
189.532301
 21
152.762748
 31
0.0
  0
LINE
  8
LC-005-005-----0
 62
     2
  5
16C
 10
259.532301
 20
222.762748
 30
0.0
 11
263.532301
 21
226.762748
 31
0.0
  0
LINE
  8
LC-005-005-----0
 62
     2
  5
16D
 10
185.532301
 20
151.591175
 30
0.0
 11
189.532301
 21
155.591175
 31
0.0
  0
LINE
  8
LC-005-005-----0
 62
     2
  5
16E
 10
259.532301
 20
225.591175
 30
0.0
 11
263.532301
 21
229.591175
 31
0.0
  0
LINE
  8
LC-005-005-----0
 62
     2
  5
16F
 10
185.532301
 20
154.419603
 30
0.0
 11
189.532301
 21
158.419603
 31
0.0
  0
LINE
  8
LC-005-005-----0
 62
     2
  5
170
 10
259.532301
 20
228.419603
 30
0.0
 11
263.532301
 21
232.419603
 31
0.0
  0
LINE
  8
LC-005-005-----0
 62
     2
  5
171
 10
185.532301
 20
157.24803
 30
0.0
 11
189.532301
 21
161.24803
 31
0.0
  0
LINE
  8
LC-005-005-----0
 62
     2
  5
172
 10
259.532301
 20
231.24803
 30
0.0
 11
263.532301
 21
235.24803
 31
0.0
  0
LINE
  8
LC-005-005-----0
 62
     2
  5
173
 10
185.532301
 20
160.076457
 30
0.0
 11
189.532301
 21
164.076457
 31
0.0
  0
LINE
  8
LC-005-005-----0
 62
     2
  5
174
 10
259.532301
 20
234.076457
 30
0.0
 11
263.532301
 21
238.076457
 31
0.0
  0
LINE
  8
LC-005-005-----0
 62
     2
  5
175
 10
185.532301
 20
162.904884
 30
0.0
 11
189.532301
 21
166.904884
 31
0.0
  0
LINE
  8
LC-005-005-----0
 62
     2
  5
176
 10
259.532301
 20
236.904884
 30
0.0
 11
263.532301
 21
240.904884
 31
0.0
  0
LINE
  8
LC-005-005-----0
 62
     2
  5
177
 10
185.532301
 20
165.733311
 30
0.0
 11
189.532301
 21
169.733311
 31
0.0
  0
LINE
  8
LC-005-005-----0
 62
     2
  5
178
 10
259.532301
 20
239.733311
 30
0.0
 11
263.532301
 21
243.733311
 31
0.0
  0
LINE
  8
LC-005-005-----0
 62
     2
  5
179
 10
185.532301
 20
168.561738
 30
0.0
 11
189.532301
 21
172.561738
 31
0.0
  0
LINE
  8
LC-005-005-----0
 62
     2
  5
17A
 10
259.532301
 20
242.561738
 30
0.0
 11
263.532301
 21
246.561738
 31
0.0
  0
LINE
  8
LC-005-005-----0
 62
     2
  5
17B
 10
185.532301
 20
171.390165
 30
0.0
 11
189.532301
 21
175.390165
 31
0.0
  0
LINE
  8
LC-005-005-----0
 62
     2
  5
17C
 10
259.532301
 20
245.390165
 30
0.0
 11
261.706947
 21
247.564811
 31
0.0
  0
LINE
  8
LC-005-005-----0
 62
     2
  5
17D
 10
185.532301
 20
174.218592
 30
0.0
 11
189.532301
 21
178.218592
 31
0.0
  0
LINE
  8
LC-005-005-----0
 62
     2
  5
17E
 10
185.532301
 20
177.047019
 30
0.0
 11
189.532301
 21
181.047019
 31
0.0
  0
LINE
  8
LC-005-005-----0
 62
     2
  5
17F
 10
185.532301
 20
179.875447
 30
0.0
 11
189.532301
 21
183.875447
 31
0.0
  0
LINE
  8
LC-005-005-----0
 62
     2
  5
180
 10
185.532301
 20
182.703874
 30
0.0
 11
189.532301
 21
186.703874
 31
0.0
  0
LINE
  8
LC-005-005-----0
 62
     2
  5
181
 10
185.532301
 20
185.532301
 30
0.0
 11
189.532301
 21
189.532301
 31
0.0
  0
LINE
  8
LC-005-005-----0
 62
     2
  5
182
 10
185.532301
 20
188.360728
 30
0.0
 11
189.532301
 21
192.360728
 31
0.0
  0
LINE
  8
LC-005-005-----0
 62
     2
  5
183
 10
185.532301
 20
191.189155
 30
0.0
 11
189.532301
 21
195.189155
 31
0.0
  0
LINE
  8
LC-005-005-----0
 62
     2
  5
184
 10
185.532301
 20
194.017582
 30
0.0
 11
189.532301
 21
198.017582
 31
0.0
  0
LINE
  8
LC-005-005-----0
 62
     2
  5
185
 10
185.532301
 20
196.846009
 30
0.0
 11
189.532301
 21
200.846009
 31
0.0
  0
LINE
  8
LC-005-005-----0
 62
     2
  5
186
 10
185.532301
 20
199.674436
 30
0.0
 11
189.532301
 21
203.674436
 31
0.0
  0
LINE
  8
LC-005-005-----0
 62
     2
  5
187
 10
185.532301
 20
202.502864
 30
0.0
 11
189.532301
 21
206.502864
 31
0.0
  0
LINE
  8
LC-005-005-----0
 62
     2
  5
188
 10
185.532301
 20
205.331291
 30
0.0
 11
189.532301
 21
209.331291
 31
0.0
  0
LINE
  8
LC-005-005-----0
 62
     2
  5
189
 10
185.532301
 20
208.159718
 30
0.0
 11
189.532301
 21
212.159718
 31
0.0
  0
LINE
  8
LC-005-005-----0
 62
     2
  5
18A
 10
185.532301
 20
210.988145
 30
0.0
 11
189.532301
 21
214.988145
 31
0.0
  0
LINE
  8
LC-005-005-----0
 62
     2
  5
18B
 10
185.532301
 20
213.816572
 30
0.0
 11
189.532301
 21
217.816572
 31
0.0
  0
LINE
  8
LC-005-005-----0
 62
     2
  5
18C
 10
185.532301
 20
216.644999
 30
0.0
 11
189.532301
 21
220.644999
 31
0.0
  0
LINE
  8
LC-005-005-----0
 62
     2
  5
18D
 10
185.532301
 20
219.473426
 30
0.0
 11
189.532301
 21
223.473426
 31
0.0
  0
LINE
  8
LC-005-005-----0
 62
     2
  5
18E
 10
185.532301
 20
222.301853
 30
0.0
 11
189.532301
 21
226.301853
 31
0.0
  0
LINE
  8
LC-005-005-----0
 62
     2
  5
18F
 10
185.532301
 20
225.130281
 30
0.0
 11
189.532301
 21
229.130281
 31
0.0
  0
LINE
  8
LC-005-005-----0
 62
     2
  5
190
 10
185.532301
 20
227.958708
 30
0.0
 11
189.532301
 21
231.958708
 31
0.0
  0
LINE
  8
LC-005-005-----0
 62
     2
  5
191
 10
185.532301
 20
230.787135
 30
0.0
 11
189.532301
 21
234.787135
 31
0.0
  0
LINE
  8
LC-005-005-----0
 62
     2
  5
192
 10
185.532301
 20
233.615562
 30
0.0
 11
189.532301
 21
237.615562
 31
0.0
  0
LINE
  8
LC-005-005-----0
 62
     2
  5
193
 10
185.532301
 20
236.443989
 30
0.0
 11
189.532301
 21
240.443989
 31
0.0
  0
LINE
  8
LC-005-005-----0
 62
     2
  5
194
 10
185.532301
 20
239.272416
 30
0.0
 11
189.532301
 21
243.272416
 31
0.0
  0
LINE
  8
LC-005-005-----0
 62
     2
  5
195
 10
185.532301
 20
242.100843
 30
0.0
 11
189.532301
 21
246.100843
 31
0.0
  0
LINE
  8
LC-005-005-----0
 62
     2
  5
196
 10
185.532301
 20
244.92927
 30
0.0
 11
188.167841
 21
247.564811
 31
0.0
  0
ENDBLK
  8
0
  5
197
  0
BLOCK
  8
0
  5
1BA
  2
*X2
 70
    65
 10
0.0
 20
0.0
 30
0.0
  3
*X2
  0
LINE
  8
LC-005-005-----0
 62
     2
  5
1BB
 10
265.001491
 20
276.3152
 30
0.0
 11
266.001328
 21
277.315036
 31
0.0
  0
LINE
  8
LC-005-005-----0
 62
     2
  5
1BC
 10
265.001485
 20
279.143621
 30
0.0
 11
266.00133
 21
280.143465
 31
0.0
  0
LINE
  8
LC-005-005-----0
 62
     2
  5
1BD
 10
265.00148
 20
281.972042
 30
0.0
 11
266.001332
 21
282.971894
 31
0.0
  0
LINE
  8
LC-005-005-----0
 62
     2
  5
1BE
 10
265.001474
 20
284.800464
 30
0.0
 11
266.001333
 21
285.800323
 31
0.0
  0
LINE
  8
LC-005-005-----0
 62
     2
  5
1BF
 10
265.001468
 20
287.628885
 30
0.0
 11
266.001335
 21
288.628752
 31
0.0
  0
LINE
  8
LC-005-005-----0
 62
     2
  5
1C0
 10
265.001462
 20
290.457306
 30
0.0
 11
266.001337
 21
291.457181
 31
0.0
  0
LINE
  8
LC-005-005-----0
 62
     2
  5
1C1
 10
265.001456
 20
293.285727
 30
0.0
 11
266.001339
 21
294.28561
 31
0.0
  0
LINE
  8
LC-005-005-----0
 62
     2
  5
1C2
 10
265.00145
 20
296.114149
 30
0.0
 11
266.001341
 21
297.114039
 31
0.0
  0
LINE
  8
LC-005-005-----0
 62
     2
  5
1C3
 10
265.001444
 20
298.94257
 30
0.0
 11
266.001343
 21
299.942468
 31
0.0
  0
LINE
  8
LC-005-005-----0
 62
     2
  5
1C4
 10
265.001439
 20
301.770991
 30
0.0
 11
266.001345
 21
302.770897
 31
0.0
  0
LINE
  8
LC-005-005-----0
 62
     2
  5
1C5
 10
265.001433
 20
304.599412
 30
0.0
 11
266.001346
 21
305.599326
 31
0.0
  0
LINE
  8
LC-005-005-----0
 62
     2
  5
1C6
 10
265.001427
 20
307.427834
 30
0.0
 11
266.001348
 21
308.427755
 31
0.0
  0
LINE
  8
LC-005-005-----0
 62
     2
  5
1C7
 10
265.001421
 20
310.256255
 30
0.0
 11
266.00135
 21
311.256184
 31
0.0
  0
LINE
  8
LC-005-005-----0
 62
     2
  5
1C8
 10
265.001415
 20
313.084676
 30
0.0
 11
266.001352
 21
314.084613
 31
0.0
  0
LINE
  8
LC-005-005-----0
 62
     2
  5
1C9
 10
265.001409
 20
315.913098
 30
0.0
 11
266.001354
 21
316.913042
 31
0.0
  0
LINE
  8
LC-005-005-----0
 62
     2
  5
1CA
 10
265.001403
 20
318.741519
 30
0.0
 11
266.001356
 21
319.741471
 31
0.0
  0
LINE
  8
LC-005-005-----0
 62
     2
  5
1CB
 10
265.001398
 20
321.56994
 30
0.0
 11
266.001358
 21
322.5699
 31
0.0
  0
LINE
  8
LC-005-005-----0
 62
     2
  5
1CC
 10
265.001392
 20
324.398361
 30
0.0
 11
266.001359
 21
325.398329
 31
0.0
  0
LINE
  8
LC-005-005-----0
 62
     2
  5
1CD
 10
265.001386
 20
327.226783
 30
0.0
 11
266.001361
 21
328.226758
 31
0.0
  0
LINE
  8
LC-005-005-----0
 62
     2
  5
1CE
 10
265.00138
 20
330.055204
 30
0.0
 11
266.001363
 21
331.055187
 31
0.0
  0
LINE
  8
LC-005-005-----0
 62
     2
  5
1CF
 10
265.001374
 20
332.883625
 30
0.0
 11
266.001365
 21
333.883616
 31
0.0
  0
LINE
  8
LC-005-005-----0
 62
     2
  5
1D0
 10
265.001368
 20
335.712046
 30
0.0
 11
265.983046
 21
336.693724
 31
0.0
  0
LINE
  8
LC-005-005-----0
 62
     2
  5
1D1
 10
264.744356
 20
338.283461
 30
0.0
 11
265.593557
 21
339.132663
 31
0.0
  0
LINE
  8
LC-005-005-----0
 62
     2
  5
1D2
 10
264.008167
 20
340.375699
 30
0.0
 11
264.831447
 21
341.198979
 31
0.0
  0
LINE
  8
LC-005-005-----0
 62
     2
  5
1D3
 10
262.929524
 20
342.125483
 30
0.0
 11
263.784305
 21
342.980265
 31
0.0
  0
LINE
  8
LC-005-005-----0
 62
     2
  5
1D4
 10
261.557473
 20
343.581859
 30
0.0
 11
262.489205
 21
344.513592
 31
0.0
  0
LINE
  8
LC-005-005-----0
 62
     2
  5
1D5
 10
259.897468
 20
344.750282
 30
0.0
 11
260.956742
 21
345.809556
 31
0.0
  0
LINE
  8
LC-005-005-----0
 62
     2
  5
1D6
 10
257.915576
 20
345.596817
 30
0.0
 11
259.1764
 21
346.857641
 31
0.0
  0
LINE
  8
LC-005-005-----0
 62
     2
  5
1D7
 10
255.50834
 20
346.018008
 30
0.0
 11
257.111228
 21
347.620896
 31
0.0
  0
LINE
  8
LC-005-005-----0
 62
     2
  5
1D8
 10
183.001326
 20
276.339421
 30
0.0
 11
184.001323
 21
277.339418
 31
0.0
  0
LINE
  8
LC-005-005-----0
 62
     2
  5
1D9
 10
224.192601
 20
317.530696
 30
0.0
 11
225.937291
 21
319.275386
 31
0.0
  0
LINE
  8
LC-005-005-----0
 62
     2
  5
1DA
 10
252.692772
 20
346.030867
 30
0.0
 11
254.673911
 21
348.012006
 31
0.0
  0
LINE
  8
LC-005-005-----0
 62
     2
  5
1DB
 10
183.001318
 20
279.16784
 30
0.0
 11
184.001315
 21
280.167838
 31
0.0
  0
LINE
  8
LC-005-005-----0
 62
     2
  5
1DC
 10
221.364174
 20
317.530696
 30
0.0
 11
225.938056
 21
322.104579
 31
0.0
  0
LINE
  8
LC-005-005-----0
 62
     2
  5
1DD
 10
249.864345
 20
346.030867
 30
0.0
 11
251.864346
 21
348.030869
 31
0.0
  0
LINE
  8
LC-005-005-----0
 62
     2
  5
1DE
 10
183.00131
 20
281.99626
 30
0.0
 11
184.001307
 21
282.996257
 31
0.0
  0
LINE
  8
LC-005-005-----0
 62
     2
  5
1DF
 10
218.535746
 20
317.530696
 30
0.0
 11
225.938822
 21
324.933772
 31
0.0
  0
LINE
  8
LC-005-005-----0
 62
     2
  5
1E0
 10
247.035918
 20
346.030867
 30
0.0
 11
249.035921
 21
348.030871
 31
0.0
  0
LINE
  8
LC-005-005-----0
 62
     2
  5
1E1
 10
183.001302
 20
284.824679
 30
0.0
 11
184.001299
 21
285.824676
 31
0.0
  0
LINE
  8
LC-005-005-----0
 62
     2
  5
1E2
 10
215.707319
 20
317.530696
 30
0.0
 11
225.939588
 21
327.762964
 31
0.0
  0
LINE
  8
LC-005-005-----0
 62
     2
  5
1E3
 10
244.207491
 20
346.030867
 30
0.0
 11
246.207496
 21
348.030873
 31
0.0
  0
LINE
  8
LC-005-005-----0
 62
     2
  5
1E4
 10
183.001294
 20
287.653098
 30
0.0
 11
184.001291
 21
288.653095
 31
0.0
  0
LINE
  8
LC-005-005-----0
 62
     2
  5
1E5
 10
212.878892
 20
317.530696
 30
0.0
 11
225.940354
 21
330.592157
 31
0.0
  0
LINE
  8
LC-005-005-----0
 62
     2
  5
1E6
 10
241.379063
 20
346.030867
 30
0.0
 11
243.379071
 21
348.030875
 31
0.0
  0
LINE
  8
LC-005-005-----0
 62
     2
  5
1E7
 10
183.001286
 20
290.481517
 30
0.0
 11
184.001283
 21
291.481514
 31
0.0
  0
LINE
  8
LC-005-005-----0
 62
     2
  5
1E8
 10
210.050465
 20
317.530696
 30
0.0
 11
225.94112
 21
333.42135
 31
0.0
  0
LINE
  8
LC-005-005-----0
 62
     2
  5
1E9
 10
238.550636
 20
346.030867
 30
0.0
 11
240.550646
 21
348.030877
 31
0.0
  0
LINE
  8
LC-005-005-----0
 62
     2
  5
1EA
 10
183.001278
 20
293.309936
 30
0.0
 11
184.001275
 21
294.309933
 31
0.0
  0
LINE
  8
LC-005-005-----0
 62
     2
  5
1EB
 10
207.222038
 20
317.530696
 30
0.0
 11
225.941885
 21
336.250543
 31
0.0
  0
LINE
  8
LC-005-005-----0
 62
     2
  5
1EC
 10
235.722209
 20
346.030867
 30
0.0
 11
238.251155
 21
348.559813
 31
0.0
  0
LINE
  8
LC-005-005-----0
 62
     2
  5
1ED
 10
183.00127
 20
296.138355
 30
0.0
 11
184.001267
 21
297.138352
 31
0.0
  0
LINE
  8
LC-005-005-----0
 62
     2
  5
1EE
 10
204.393611
 20
317.530696
 30
0.0
 11
225.942651
 21
339.079736
 31
0.0
  0
LINE
  8
LC-005-005-----0
 62
     2
  5
1EF
 10
232.893782
 20
346.030867
 30
0.0
 11
238.00096
 21
351.138045
 31
0.0
  0
LINE
  8
LC-005-005-----0
 62
     2
  5
1F0
 10
183.001262
 20
298.966774
 30
0.0
 11
184.001259
 21
299.966771
 31
0.0
  0
LINE
  8
LC-005-005-----0
 62
     2
  5
1F1
 10
201.565184
 20
317.530696
 30
0.0
 11
225.943417
 21
341.908929
 31
0.0
  0
LINE
  8
LC-005-005-----0
 62
     2
  5
1F2
 10
230.065355
 20
346.030867
 30
0.0
 11
232.06537
 21
348.030883
 31
0.0
  0
LINE
  8
LC-005-005-----0
 62
     2
  5
1F3
 10
234.135299
 20
350.100811
 30
0.0
 11
237.229685
 21
353.195197
 31
0.0
  0
LINE
  8
LC-005-005-----0
 62
     2
  5
1F4
 10
183.001254
 20
301.795193
 30
0.0
 11
184.001251
 21
302.79519
 31
0.0
  0
LINE
  8
LC-005-005-----0
 62
     2
  5
1F5
 10
198.736757
 20
317.530696
 30
0.0
 11
225.944183
 21
344.738122
 31
0.0
  0
LINE
  8
LC-005-005-----0
 62
     2
  5
1F6
 10
227.236928
 20
346.030867
 30
0.0
 11
229.236945
 21
348.030885
 31
0.0
  0
LINE
  8
LC-005-005-----0
 62
     2
  5
1F7
 10
233.244977
 20
352.038916
 30
0.0
 11
236.088808
 21
354.882748
 31
0.0
  0
LINE
  8
LC-005-005-----0
 62
     2
  5
1F8
 10
183.001246
 20
304.623612
 30
0.0
 11
184.001243
 21
305.62361
 31
0.0
  0
LINE
  8
LC-005-005-----0
 62
     2
  5
1F9
 10
197.306602
 20
318.928969
 30
0.0
 11
226.40852
 21
348.030887
 31
0.0
  0
LINE
  8
LC-005-005-----0
 62
     2
  5
1FA
 10
231.743099
 20
353.365465
 30
0.0
 11
234.626647
 21
356.249013
 31
0.0
  0
LINE
  8
LC-005-005-----0
 62
     2
  5
1FB
 10
183.001238
 20
307.452032
 30
0.0
 11
184.001235
 21
308.452029
 31
0.0
  0
LINE
  8
LC-005-005-----0
 62
     2
  5
1FC
 10
196.743446
 20
321.19424
 30
0.0
 11
223.579902
 21
348.030696
 31
0.0
  0
LINE
  8
LC-005-005-----0
 62
     2
  5
1FD
 10
229.569743
 20
354.020536
 30
0.0
 11
232.835398
 21
357.286192
 31
0.0
  0
LINE
  8
LC-005-005-----0
 62
     2
  5
1FE
 10
183.00123
 20
310.280451
 30
0.0
 11
184.001227
 21
311.280448
 31
0.0
  0
LINE
  8
LC-005-005-----0
 62
     2
  5
1FF
 10
196.743446
 20
324.022667
 30
0.0
 11
196.94722
 21
324.22644
 31
0.0
  0
LINE
  8
LC-005-005-----0
 62
     2
  5
200
 10
197.090592
 20
324.369812
 30
0.0
 11
220.751475
 21
348.030696
 31
0.0
  0
LINE
  8
LC-005-005-----0
 62
     2
  5
201
 10
226.751475
 20
354.030696
 30
0.0
 11
230.643173
 21
357.922394
 31
0.0
  0
LINE
  8
LC-005-005-----0
 62
     2
  5
202
 10
183.001222
 20
313.10887
 30
0.0
 11
184.001219
 21
314.108867
 31
0.0
  0
LINE
  8
LC-005-005-----0
 62
     2
  5
203
 10
195.423048
 20
325.530696
 30
0.0
 11
217.923048
 21
348.030696
 31
0.0
  0
LINE
  8
LC-005-005-----0
 62
     2
  5
204
 10
223.923048
 20
354.030696
 30
0.0
 11
227.923048
 21
358.030696
 31
0.0
  0
LINE
  8
LC-005-005-----0
 62
     2
  5
205
 10
183.001214
 20
315.937289
 30
0.0
 11
184.001211
 21
316.937286
 31
0.0
  0
LINE
  8
LC-005-005-----0
 62
     2
  5
206
 10
193.243618
 20
326.179693
 30
0.0
 11
215.094621
 21
348.030696
 31
0.0
  0
LINE
  8
LC-005-005-----0
 62
     2
  5
207
 10
221.094621
 20
354.030696
 30
0.0
 11
225.094621
 21
358.030696
 31
0.0
  0
LINE
  8
LC-005-005-----0
 62
     2
  5
208
 10
183.001206
 20
318.765708
 30
0.0
 11
184.001203
 21
319.765705
 31
0.0
  0
LINE
  8
LC-005-005-----0
 62
     2
  5
209
 10
193.244384
 20
329.008886
 30
0.0
 11
215.099312
 21
350.863814
 31
0.0
  0
LINE
  8
LC-005-005-----0
 62
     2
  5
20A
 10
217.918041
 20
353.682543
 30
0.0
 11
222.266194
 21
358.030696
 31
0.0
  0
LINE
  8
LC-005-005-----0
 62
     2
  5
20B
 10
183.001198
 20
321.594127
 30
0.0
 11
184.001195
 21
322.594124
 31
0.0
  0
LINE
  8
LC-005-005-----0
 62
     2
  5
20C
 10
193.24515
 20
331.838079
 30
0.0
 11
209.437767
 21
348.030696
 31
0.0
  0
LINE
  8
LC-005-005-----0
 62
     2
  5
20D
 10
210.756816
 20
349.349745
 30
0.0
 11
219.43211
 21
358.025039
 31
0.0
  0
LINE
  8
LC-005-005-----0
 62
     2
  5
20E
 10
183.00119
 20
324.422546
 30
0.0
 11
184.001187
 21
325.422543
 31
0.0
  0
LINE
  8
LC-005-005-----0
 62
     2
  5
20F
 10
193.245916
 20
334.667272
 30
0.0
 11
206.60934
 21
348.030696
 31
0.0
  0
LINE
  8
LC-005-005-----0
 62
     2
  5
210
 10
211.771308
 20
353.192664
 30
0.0
 11
215.589191
 21
357.010547
 31
0.0
  0
LINE
  8
LC-005-005-----0
 62
     2
  5
211
 10
183.001182
 20
327.250965
 30
0.0
 11
184.001179
 21
328.250962
 31
0.0
  0
LINE
  8
LC-005-005-----0
 62
     2
  5
212
 10
193.246682
 20
337.496465
 30
0.0
 11
203.780912
 21
348.030696
 31
0.0
  0
LINE
  8
LC-005-005-----0
 62
     2
  5
213
 10
183.001174
 20
330.079384
 30
0.0
 11
184.001171
 21
331.079382
 31
0.0
  0
LINE
  8
LC-005-005-----0
 62
     2
  5
214
 10
193.247447
 20
340.325658
 30
0.0
 11
200.952485
 21
348.030696
 31
0.0
  0
LINE
  8
LC-005-005-----0
 62
     2
  5
215
 10
183.001166
 20
332.907804
 30
0.0
 11
184.001163
 21
333.907801
 31
0.0
  0
LINE
  8
LC-005-005-----0
 62
     2
  5
216
 10
193.248213
 20
343.154851
 30
0.0
 11
198.124058
 21
348.030696
 31
0.0
  0
LINE
  8
LC-005-005-----0
 62
     2
  5
217
 10
183.001158
 20
335.736223
 30
0.0
 11
184.028012
 21
336.763077
 31
0.0
  0
LINE
  8
LC-005-005-----0
 62
     2
  5
218
 10
193.248979
 20
345.984044
 30
0.0
 11
195.295631
 21
348.030696
 31
0.0
  0
LINE
  8
LC-005-005-----0
 62
     2
  5
219
 10
183.353421
 20
338.916913
 30
0.0
 11
185.182833
 21
340.746325
 31
0.0
  0
LINE
  8
LC-005-005-----0
 62
     2
  5
21A
 10
189.285528
 20
344.84902
 30
0.0
 11
192.11494
 21
347.678432
 31
0.0
  0
ENDBLK
  8
0
  5
21B
  0
BLOCK
  8
0
  5
22F
  2
*X3
 70
    65
 10
0.0
 20
0.0
 30
0.0
  3
*X3
  0
LINE
  8
LC-005-005-----0
 62
     2
  5
230
 10
259.153059
 20
137.530692
 30
0.0
 11
259.532301
 21
137.909935
 31
0.0
  0
LINE
  8
LC-005-005-----0
 62
     2
  5
231
 10
258.532301
 20
139.738362
 30
0.0
 11
259.532301
 21
140.738362
 31
0.0
  0
LINE
  8
LC-005-005-----0
 62
     2
  5
232
 10
258.532301
 20
142.566789
 30
0.0
 11
259.532301
 21
143.566789
 31
0.0
  0
LINE
  8
LC-005-005-----0
 62
     2
  5
233
 10
258.532301
 20
145.395216
 30
0.0
 11
259.532301
 21
146.395216
 31
0.0
  0
LINE
  8
LC-005-005-----0
 62
     2
  5
234
 10
258.532301
 20
148.223643
 30
0.0
 11
259.532301
 21
149.223643
 31
0.0
  0
LINE
  8
LC-005-005-----0
 62
     2
  5
235
 10
258.532301
 20
151.05207
 30
0.0
 11
259.532301
 21
152.05207
 31
0.0
  0
LINE
  8
LC-005-005-----0
 62
     2
  5
236
 10
258.532301
 20
153.880497
 30
0.0
 11
259.532301
 21
154.880497
 31
0.0
  0
LINE
  8
LC-005-005-----0
 62
     2
  5
237
 10
258.532301
 20
156.708924
 30
0.0
 11
259.354069
 21
157.530692
 31
0.0
  0
LINE
  8
LC-005-005-----0
 62
     2
  5
238
 10
189.532301
 20
138.620613
 30
0.0
 11
190.532301
 21
139.620613
 31
0.0
  0
LINE
  8
LC-005-005-----0
 62
     2
  5
239
 10
189.532301
 20
141.44904
 30
0.0
 11
190.532301
 21
142.44904
 31
0.0
  0
LINE
  8
LC-005-005-----0
 62
     2
  5
23A
 10
189.532301
 20
144.277467
 30
0.0
 11
190.532301
 21
145.277467
 31
0.0
  0
LINE
  8
LC-005-005-----0
 62
     2
  5
23B
 10
189.532301
 20
147.105894
 30
0.0
 11
190.532301
 21
148.105894
 31
0.0
  0
LINE
  8
LC-005-005-----0
 62
     2
  5
23C
 10
189.532301
 20
149.934321
 30
0.0
 11
190.532301
 21
150.934321
 31
0.0
  0
LINE
  8
LC-005-005-----0
 62
     2
  5
23D
 10
189.532301
 20
152.762748
 30
0.0
 11
190.532301
 21
153.762748
 31
0.0
  0
LINE
  8
LC-005-005-----0
 62
     2
  5
23E
 10
189.532301
 20
155.591175
 30
0.0
 11
190.532301
 21
156.591175
 31
0.0
  0
ENDBLK
  8
0
  5
23F
  0
BLOCK
  8
0
  5
244
  2
*D4
 70
    65
 10
0.0
 20
0.0
 30
0.0
  3
*D4
  0
LINE
  8
LC-006-003-MTH-0
 62
     2
  5
246
 10
185.532301
 20
137.530692
 30
0.0
 11
185.532301
 21
109.494259
 31
0.0
  0
LINE
  8
LC-006-003-MTH-0
 62
     2
  5
247
 10
263.532301
 20
137.530692
 30
0.0
 11
263.532301
 21
109.494259
 31
0.0
  0
LINE
  8
LC-007-003-----0
 62
     2
  5
249
 10
157.771845
 20
122.639526
 30
0.0
 11
185.532301
 21
126.294259
 31
0.0
  0
LINE
  8
LC-007-003-----0
 62
     2
  5
24A
 10
185.532301
 20
126.294259
 30
0.0
 11
157.771845
 21
129.948992
 31
0.0
  0
LINE
  8
LC-007-003-----0
 62
     2
  5
24B
 10
157.771845
 20
129.948992
 30
0.0
 11
157.771845
 21
122.639526
 31
0.0
  0
LINE
  8
LC-007-003-----0
 62
     2
  5
24C
 10
157.709563
 20
123.589756
 30
0.0
 11
178.252301
 21
126.294259
 31
0.0
  0
LINE
  8
LC-007-003-----0
 62
     2
  5
24D
 10
178.252301
 20
126.294259
 30
0.0
 11
157.709563
 21
128.998762
 31
0.0
  0
LINE
  8
LC-007-003-----0
 62
     2
  5
24E
 10
157.647282
 20
124.539987
 30
0.0
 11
170.972301
 21
126.294259
 31
0.0
  0
LINE
  8
LC-007-003-----0
 62
     2
  5
24F
 10
170.972301
 20
126.294259
 30
0.0
 11
157.647282
 21
128.048531
 31
0.0
  0
LINE
  8
LC-007-003-----0
 62
     2
  5
250
 10
157.585001
 20
125.490218
 30
0.0
 11
163.692301
 21
126.294259
 31
0.0
  0
LINE
  8
LC-007-003-----0
 62
     2
  5
251
 10
163.692301
 20
126.294259
 30
0.0
 11
157.585001
 21
127.0983
 31
0.0
  0
LINE
  8
LC-007-003-----0
 62
     2
  5
252
 10
291.292757
 20
129.948992
 30
0.0
 11
263.532301
 21
126.294259
 31
0.0
  0
LINE
  8
LC-007-003-----0
 62
     2
  5
253
 10
263.532301
 20
126.294259
 30
0.0
 11
291.292757
 21
122.639526
 31
0.0
  0
LINE
  8
LC-007-003-----0
 62
     2
  5
254
 10
291.292757
 20
122.639526
 30
0.0
 11
291.292757
 21
129.948992
 31
0.0
  0
LINE
  8
LC-007-003-----0
 62
     2
  5
255
 10
291.355038
 20
128.998762
 30
0.0
 11
270.812301
 21
126.294259
 31
0.0
  0
LINE
  8
LC-007-003-----0
 62
     2
  5
256
 10
270.812301
 20
126.294259
 30
0.0
 11
291.355038
 21
123.589756
 31
0.0
  0
LINE
  8
LC-007-003-----0
 62
     2
  5
257
 10
291.41732
 20
128.048531
 30
0.0
 11
278.092301
 21
126.294259
 31
0.0
  0
LINE
  8
LC-007-003-----0
 62
     2
  5
258
 10
278.092301
 20
126.294259
 30
0.0
 11
291.41732
 21
124.539987
 31
0.0
  0
LINE
  8
LC-007-003-----0
 62
     2
  5
259
 10
291.479601
 20
127.0983
 30
0.0
 11
285.372301
 21
126.294259
 31
0.0
  0
LINE
  8
LC-007-003-----0
 62
     2
  5
25A
 10
285.372301
 20
126.294259
 30
0.0
 11
291.479601
 21
125.490218
 31
0.0
  0
LINE
  8
LC-008-003-MTG-0
 62
     2
  5
25C
 10
146.332301
 20
126.294259
 30
0.0
 11
447.932301
 21
126.294259
 31
0.0
  0
TEXT
  8
LC-007-003-----0
 62
     8
  5
25D
 10
305.631074
 20
128.712628
 30
0.0
 40
28.0
  1
DN70(SML)
 41
0.8
 51
15.0
  7
LCTX15-400-0-0-ARIAL
  0
ENDBLK
  8
0
  5
25E
  0
BLOCK
  8
0
  5
261
  2
*D5
 70
    65
 10
0.0
 20
0.0
 30
0.0
  3
*D5
  0
LINE
  8
LC-006-003-MTH-0
 62
     2
  5
262
 10
144.282301
 20
259.280696
 30
0.0
 11
144.282301
 21
47.895543
 31
0.0
  0
LINE
  8
LC-006-003-MTH-0
 62
     2
  5
263
 10
304.782301
 20
259.280696
 30
0.0
 11
304.782301
 21
47.895543
 31
0.0
  0
LINE
  8
LC-008-003-MTG-0
 62
     2
  5
264
 10
144.282301
 20
64.695543
 30
0.0
 11
304.782301
 21
64.695543
 31
0.0
  0
LINE
  8
LC-007-003-----0
 62
     2
  5
265
 10
172.042757
 20
68.350276
 30
0.0
 11
144.282301
 21
64.695543
 31
0.0
  0
LINE
  8
LC-007-003-----0
 62
     2
  5
266
 10
144.282301
 20
64.695543
 30
0.0
 11
172.042757
 21
61.040809
 31
0.0
  0
LINE
  8
LC-007-003-----0
 62
     2
  5
267
 10
172.042757
 20
61.040809
 30
0.0
 11
172.042757
 21
68.350276
 31
0.0
  0
LINE
  8
LC-007-003-----0
 62
     2
  5
268
 10
172.105038
 20
67.400045
 30
0.0
 11
151.562301
 21
64.695543
 31
0.0
  0
LINE
  8
LC-007-003-----0
 62
     2
  5
269
 10
151.562301
 20
64.695543
 30
0.0
 11
172.105038
 21
61.99104
 31
0.0
  0
LINE
  8
LC-007-003-----0
 62
     2
  5
26A
 10
172.16732
 20
66.449815
 30
0.0
 11
158.842301
 21
64.695543
 31
0.0
  0
LINE
  8
LC-007-003-----0
 62
     2
  5
26B
 10
158.842301
 20
64.695543
 30
0.0
 11
172.16732
 21
62.941271
 31
0.0
  0
LINE
  8
LC-007-003-----0
 62
     2
  5
26C
 10
172.229601
 20
65.499584
 30
0.0
 11
166.122301
 21
64.695543
 31
0.0
  0
LINE
  8
LC-007-003-----0
 62
     2
  5
26D
 10
166.122301
 20
64.695543
 30
0.0
 11
172.229601
 21
63.891501
 31
0.0
  0
LINE
  8
LC-007-003-----0
 62
     2
  5
26E
 10
277.021845
 20
61.040809
 30
0.0
 11
304.782301
 21
64.695543
 31
0.0
  0
LINE
  8
LC-007-003-----0
 62
     2
  5
26F
 10
304.782301
 20
64.695543
 30
0.0
 11
277.021845
 21
68.350276
 31
0.0
  0
LINE
  8
LC-007-003-----0
 62
     2
  5
270
 10
277.021845
 20
68.350276
 30
0.0
 11
277.021845
 21
61.040809
 31
0.0
  0
LINE
  8
LC-007-003-----0
 62
     2
  5
271
 10
276.959563
 20
61.99104
 30
0.0
 11
297.502301
 21
64.695543
 31
0.0
  0
LINE
  8
LC-007-003-----0
 62
     2
  5
272
 10
297.502301
 20
64.695543
 30
0.0
 11
276.959563
 21
67.400045
 31
0.0
  0
LINE
  8
LC-007-003-----0
 62
     2
  5
273
 10
276.897282
 20
62.941271
 30
0.0
 11
290.222301
 21
64.695543
 31
0.0
  0
LINE
  8
LC-007-003-----0
 62
     2
  5
274
 10
290.222301
 20
64.695543
 30
0.0
 11
276.897282
 21
66.449815
 31
0.0
  0
LINE
  8
LC-007-003-----0
 62
     2
  5
275
 10
276.835001
 20
63.891501
 30
0.0
 11
282.942301
 21
64.695543
 31
0.0
  0
LINE
  8
LC-007-003-----0
 62
     2
  5
276
 10
282.942301
 20
64.695543
 30
0.0
 11
276.835001
 21
65.499584
 31
0.0
  0
TEXT
  8
LC-007-003-----0
 62
     8
  5
277
 10
167.231074
 20
67.113912
 30
0.0
 40
28.0
  1
%%c160
 41
0.8
 51
15.0
  7
LCTX15-400-0-0-ARIAL
 72
     1
 11
227.431074
 21
67.113912
 31
0.0
  0
ENDBLK
  8
0
  5
278
  0
BLOCK
  8
0
  5
27B
  2
*X6
 70
    65
 10
0.0
 20
0.0
 30
0.0
  3
*X6
  0
LINE
  8
LC-005-005-----0
 62
     2
  5
27C
 10
295.993113
 20
247.909852
 30
0.0
 11
304.403145
 21
256.319884
 31
0.0
  0
LINE
  8
LC-005-005-----0
 62
     2
  5
27D
 10
292.78553
 20
247.530696
 30
0.0
 11
296.466995
 21
251.212161
 31
0.0
  0
LINE
  8
LC-005-005-----0
 62
     2
  5
27E
 10
301.350129
 20
256.095295
 30
0.0
 11
304.782301
 21
259.527467
 31
0.0
  0
LINE
  8
LC-005-005-----0
 62
     2
  5
27F
 10
289.957102
 20
247.530695
 30
0.0
 11
292.957103
 21
250.530696
 31
0.0
  0
LINE
  8
LC-005-005-----0
 62
     2
  5
280
 10
302.031594
 20
259.605187
 30
0.0
 11
304.782301
 21
262.355894
 31
0.0
  0
LINE
  8
LC-005-005-----0
 62
     2
  5
281
 10
287.128674
 20
247.530695
 30
0.0
 11
290.128676
 21
250.530696
 31
0.0
  0
LINE
  8
LC-005-005-----0
 62
     2
  5
282
 10
302.031594
 20
262.433614
 30
0.0
 11
304.782301
 21
265.184321
 31
0.0
  0
LINE
  8
LC-005-005-----0
 62
     2
  5
283
 10
284.300247
 20
247.530694
 30
0.0
 11
287.300248
 21
250.530696
 31
0.0
  0
LINE
  8
LC-005-005-----0
 62
     2
  5
284
 10
302.031594
 20
265.262041
 30
0.0
 11
304.782301
 21
268.012748
 31
0.0
  0
LINE
  8
LC-005-005-----0
 62
     2
  5
285
 10
281.471819
 20
247.530694
 30
0.0
 11
284.471821
 21
250.530696
 31
0.0
  0
LINE
  8
LC-005-005-----0
 62
     2
  5
286
 10
302.031594
 20
268.090468
 30
0.0
 11
304.782301
 21
270.841175
 31
0.0
  0
LINE
  8
LC-005-005-----0
 62
     2
  5
287
 10
246.532301
 20
215.419603
 30
0.0
 11
249.492631
 21
218.379932
 31
0.0
  0
LINE
  8
LC-005-005-----0
 62
     2
  5
288
 10
278.643391
 20
247.530693
 30
0.0
 11
281.643394
 21
250.530696
 31
0.0
  0
LINE
  8
LC-005-005-----0
 62
     2
  5
289
 10
302.031594
 20
270.918896
 30
0.0
 11
304.782301
 21
273.669603
 31
0.0
  0
LINE
  8
LC-005-005-----0
 62
     2
  5
28A
 10
246.532301
 20
218.24803
 30
0.0
 11
249.532301
 21
221.24803
 31
0.0
  0
LINE
  8
LC-005-005-----0
 62
     2
  5
28B
 10
275.814964
 20
247.530692
 30
0.0
 11
278.814967
 21
250.530696
 31
0.0
  0
LINE
  8
LC-005-005-----0
 62
     2
  5
28C
 10
302.031594
 20
273.747323
 30
0.0
 11
304.782301
 21
276.49803
 31
0.0
  0
LINE
  8
LC-005-005-----0
 62
     2
  5
28D
 10
246.532301
 20
221.076457
 30
0.0
 11
249.532301
 21
224.076457
 31
0.0
  0
LINE
  8
LC-005-005-----0
 62
     2
  5
28E
 10
272.986607
 20
247.530763
 30
0.0
 11
273.267937
 21
247.812092
 31
0.0
  0
LINE
  8
LC-005-005-----0
 62
     2
  5
28F
 10
274.532301
 20
249.076457
 30
0.0
 11
275.98654
 21
250.530696
 31
0.0
  0
LINE
  8
LC-005-005-----0
 62
     2
  5
290
 10
302.031594
 20
276.57575
 30
0.0
 11
304.782301
 21
279.326457
 31
0.0
  0
LINE
  8
LC-005-005-----0
 62
     2
  5
291
 10
246.532301
 20
223.904884
 30
0.0
 11
249.532301
 21
226.904884
 31
0.0
  0
LINE
  8
LC-005-005-----0
 62
     2
  5
292
 10
270.158108
 20
247.530691
 30
0.0
 11
273.158113
 21
250.530696
 31
0.0
  0
LINE
  8
LC-005-005-----0
 62
     2
  5
293
 10
274.303213
 20
251.675796
 30
0.0
 11
274.532301
 21
251.904884
 31
0.0
  0
LINE
  8
LC-005-005-----0
 62
     2
  5
294
 10
302.031594
 20
279.404177
 30
0.0
 11
304.782301
 21
282.154884
 31
0.0
  0
LINE
  8
LC-005-005-----0
 62
     2
  5
295
 10
246.532301
 20
226.733311
 30
0.0
 11
249.532301
 21
229.733311
 31
0.0
  0
LINE
  8
LC-005-005-----0
 62
     2
  5
296
 10
267.329682
 20
247.530692
 30
0.0
 11
270.329686
 21
250.530696
 31
0.0
  0
LINE
  8
LC-005-005-----0
 62
     2
  5
297
 10
302.031594
 20
282.232604
 30
0.0
 11
304.782301
 21
284.983311
 31
0.0
  0
LINE
  8
LC-005-005-----0
 62
     2
  5
298
 10
375.178063
 20
355.379073
 30
0.0
 11
375.284044
 21
355.485054
 31
0.0
  0
LINE
  8
LC-005-005-----0
 62
     2
  5
299
 10
246.532301
 20
229.561738
 30
0.0
 11
249.532301
 21
232.561738
 31
0.0
  0
LINE
  8
LC-005-005-----0
 62
     2
  5
29A
 10
264.501255
 20
247.530693
 30
0.0
 11
267.501259
 21
250.530696
 31
0.0
  0
LINE
  8
LC-005-005-----0
 62
     2
  5
29B
 10
302.031594
 20
285.061031
 30
0.0
 11
304.782301
 21
287.811738
 31
0.0
  0
LINE
  8
LC-005-005-----0
 62
     2
  5
29C
 10
372.299388
 20
355.328826
 30
0.0
 11
375.284044
 21
358.313481
 31
0.0
  0
LINE
  8
LC-005-005-----0
 62
     2
  5
29D
 10
246.532301
 20
232.390165
 30
0.0
 11
249.532301
 21
235.390165
 31
0.0
  0
LINE
  8
LC-005-005-----0
 62
     2
  5
29E
 10
261.672829
 20
247.530694
 30
0.0
 11
264.672831
 21
250.530696
 31
0.0
  0
LINE
  8
LC-005-005-----0
 62
     2
  5
29F
 10
302.031594
 20
287.889458
 30
0.0
 11
304.782301
 21
290.640165
 31
0.0
  0
LINE
  8
LC-005-005-----0
 62
     2
  5
2A0
 10
369.420714
 20
355.278578
 30
0.0
 11
372.474474
 21
358.332339
 31
0.0
  0
LINE
  8
LC-005-005-----0
 62
     2
  5
2A1
 10
246.532301
 20
235.218592
 30
0.0
 11
249.532301
 21
238.218592
 31
0.0
  0
LINE
  8
LC-005-005-----0
 62
     2
  5
2A2
 10
258.844403
 20
247.530695
 30
0.0
 11
261.844404
 21
250.530696
 31
0.0
  0
LINE
  8
LC-005-005-----0
 62
     2
  5
2A3
 10
302.031594
 20
290.717885
 30
0.0
 11
304.782301
 21
293.468592
 31
0.0
  0
LINE
  8
LC-005-005-----0
 62
     2
  5
2A4
 10
366.542039
 20
355.228331
 30
0.0
 11
369.5958
 21
358.282091
 31
0.0
  0
LINE
  8
LC-005-005-----0
 62
     2
  5
2A5
 10
246.532301
 20
238.047019
 30
0.0
 11
249.532301
 21
241.047019
 31
0.0
  0
LINE
  8
LC-005-005-----0
 62
     2
  5
2A6
 10
256.015977
 20
247.530696
 30
0.0
 11
259.015977
 21
250.530696
 31
0.0
  0
LINE
  8
LC-005-005-----0
 62
     2
  5
2A7
 10
302.031594
 20
293.546313
 30
0.0
 11
304.782301
 21
296.297019
 31
0.0
  0
LINE
  8
LC-005-005-----0
 62
     2
  5
2A8
 10
363.663365
 20
355.178083
 30
0.0
 11
366.717125
 21
358.231844
 31
0.0
  0
LINE
  8
LC-005-005-----0
 62
     2
  5
2A9
 10
246.532301
 20
240.875447
 30
0.0
 11
249.532301
 21
243.875447
 31
0.0
  0
LINE
  8
LC-005-005-----0
 62
     2
  5
2AA
 10
254.691467
 20
249.034613
 30
0.0
 11
256.568762
 21
250.911907
 31
0.0
  0
LINE
  8
LC-005-005-----0
 62
     2
  5
2AB
 10
302.031594
 20
296.37474
 30
0.0
 11
304.782301
 21
299.125447
 31
0.0
  0
LINE
  8
LC-005-005-----0
 62
     2
  5
2AC
 10
360.78469
 20
355.127836
 30
0.0
 11
363.838451
 21
358.181596
 31
0.0
  0
LINE
  8
LC-005-005-----0
 62
     2
  5
2AD
 10
246.532301
 20
243.703874
 30
0.0
 11
249.550853
 21
246.722426
 31
0.0
  0
LINE
  8
LC-005-005-----0
 62
     2
  5
2AE
 10
250.340571
 20
247.512143
 30
0.0
 11
255.246323
 21
252.417895
 31
0.0
  0
LINE
  8
LC-005-005-----0
 62
     2
  5
2AF
 10
302.031594
 20
299.203167
 30
0.0
 11
304.782301
 21
301.953874
 31
0.0
  0
LINE
  8
LC-005-005-----0
 62
     2
  5
2B0
 10
357.906015
 20
355.077588
 30
0.0
 11
360.959776
 21
358.131349
 31
0.0
  0
LINE
  8
LC-005-005-----0
 62
     2
  5
2B1
 10
246.532301
 20
246.532301
 30
0.0
 11
250.961338
 21
250.961338
 31
0.0
  0
LINE
  8
LC-005-005-----0
 62
     2
  5
2B2
 10
251.627927
 20
251.627927
 30
0.0
 11
255.032301
 21
255.032301
 31
0.0
  0
LINE
  8
LC-005-005-----0
 62
     2
  5
2B3
 10
302.031594
 20
302.031594
 30
0.0
 11
304.782301
 21
304.782301
 31
0.0
  0
LINE
  8
LC-005-005-----0
 62
     2
  5
2B4
 10
355.027341
 20
355.027341
 30
0.0
 11
358.081101
 21
358.081101
 31
0.0
  0
LINE
  8
LC-005-005-----0
 62
     2
  5
2B5
 10
252.070421
 20
254.898848
 30
0.0
 11
255.032301
 21
257.860728
 31
0.0
  0
LINE
  8
LC-005-005-----0
 62
     2
  5
2B6
 10
302.031594
 20
304.860021
 30
0.0
 11
304.782301
 21
307.610728
 31
0.0
  0
LINE
  8
LC-005-005-----0
 62
     2
  5
2B7
 10
352.148666
 20
354.977093
 30
0.0
 11
355.202427
 21
358.030854
 31
0.0
  0
LINE
  8
LC-005-005-----0
 62
     2
  5
2B8
 10
252.095322
 20
257.752176
 30
0.0
 11
255.032301
 21
260.689155
 31
0.0
  0
LINE
  8
LC-005-005-----0
 62
     2
  5
2B9
 10
302.031594
 20
307.688448
 30
0.0
 11
304.782301
 21
310.439155
 31
0.0
  0
LINE
  8
LC-005-005-----0
 62
     2
  5
2BA
 10
349.269992
 20
354.926846
 30
0.0
 11
352.323752
 21
357.980607
 31
0.0
  0
LINE
  8
LC-005-005-----0
 62
     2
  5
2BB
 10
252.120222
 20
260.605504
 30
0.0
 11
255.032301
 21
263.517582
 31
0.0
  0
LINE
  8
LC-005-005-----0
 62
     2
  5
2BC
 10
302.031594
 20
310.516875
 30
0.0
 11
304.782301
 21
313.267582
 31
0.0
  0
LINE
  8
LC-005-005-----0
 62
     2
  5
2BD
 10
346.391317
 20
354.876598
 30
0.0
 11
349.445078
 21
357.930359
 31
0.0
  0
LINE
  8
LC-005-005-----0
 62
     2
  5
2BE
 10
252.145123
 20
263.458832
 30
0.0
 11
255.032301
 21
266.346009
 31
0.0
  0
LINE
  8
LC-005-005-----0
 62
     2
  5
2BF
 10
302.031594
 20
313.345302
 30
0.0
 11
304.782301
 21
316.096009
 31
0.0
  0
LINE
  8
LC-005-005-----0
 62
     2
  5
2C0
 10
343.512643
 20
354.826351
 30
0.0
 11
346.566403
 21
357.880112
 31
0.0
  0
LINE
  8
LC-005-005-----0
 62
     2
  5
2C1
 10
252.170024
 20
266.312159
 30
0.0
 11
255.032301
 21
269.174436
 31
0.0
  0
LINE
  8
LC-005-005-----0
 62
     2
  5
2C2
 10
302.031594
 20
316.17373
 30
0.0
 11
304.782301
 21
318.924436
 31
0.0
  0
LINE
  8
LC-005-005-----0
 62
     2
  5
2C3
 10
340.633968
 20
354.776104
 30
0.0
 11
343.687729
 21
357.829864
 31
0.0
  0
LINE
  8
LC-005-005-----0
 62
     2
  5
2C4
 10
252.194924
 20
269.165487
 30
0.0
 11
255.032301
 21
272.002864
 31
0.0
  0
LINE
  8
LC-005-005-----0
 62
     2
  5
2C5
 10
302.031594
 20
319.002157
 30
0.0
 11
304.782301
 21
321.752864
 31
0.0
  0
LINE
  8
LC-005-005-----0
 62
     2
  5
2C6
 10
337.755293
 20
354.725856
 30
0.0
 11
340.809054
 21
357.779617
 31
0.0
  0
LINE
  8
LC-005-005-----0
 62
     2
  5
2C7
 10
252.219825
 20
272.018815
 30
0.0
 11
255.032301
 21
274.831291
 31
0.0
  0
LINE
  8
LC-005-005-----0
 62
     2
  5
2C8
 10
302.031594
 20
321.830584
 30
0.0
 11
310.878217
 21
330.677207
 31
0.0
  0
LINE
  8
LC-005-005-----0
 62
     2
  5
2C9
 10
333.12192
 20
352.92091
 30
0.0
 11
337.930379
 21
357.729369
 31
0.0
  0
LINE
  8
LC-005-005-----0
 62
     2
  5
2CA
 10
252.244725
 20
274.872142
 30
0.0
 11
255.032301
 21
277.659718
 31
0.0
  0
LINE
  8
LC-005-005-----0
 62
     2
  5
2CB
 10
302.031594
 20
324.659011
 30
0.0
 11
302.303279
 21
324.930696
 31
0.0
  0
LINE
  8
LC-005-005-----0
 62
     2
  5
2CC
 10
302.581594
 20
325.209011
 30
0.0
 11
314.031594
 21
336.659011
 31
0.0
  0
LINE
  8
LC-005-005-----0
 62
     2
  5
2CD
 10
330.08084
 20
352.708257
 30
0.0
 11
335.051705
 21
357.679122
 31
0.0
  0
LINE
  8
LC-005-005-----0
 62
     2
  5
2CE
 10
252.269626
 20
277.72547
 30
0.0
 11
255.032301
 21
280.488145
 31
0.0
  0
LINE
  8
LC-005-005-----0
 62
     2
  5
2CF
 10
302.424852
 20
327.880696
 30
0.0
 11
308.724852
 21
334.180696
 31
0.0
  0
LINE
  8
LC-005-005-----0
 62
     2
  5
2D0
 10
311.280212
 20
336.736056
 30
0.0
 11
314.031594
 21
339.487438
 31
0.0
  0
LINE
  8
LC-005-005-----0
 62
     2
  5
2D1
 10
327.03976
 20
352.495604
 30
0.0
 11
330.273189
 21
355.729033
 31
0.0
  0
LINE
  8
LC-005-005-----0
 62
     2
  5
2D2
 10
252.294527
 20
280.578798
 30
0.0
 11
255.032301
 21
283.316572
 31
0.0
  0
LINE
  8
LC-005-005-----0
 62
     2
  5
2D3
 10
302.581594
 20
330.865865
 30
0.0
 11
305.896425
 21
334.180696
 31
0.0
  0
LINE
  8
LC-005-005-----0
 62
     2
  5
2D4
 10
311.280212
 20
339.564483
 30
0.0
 11
319.3902
 21
347.674472
 31
0.0
  0
LINE
  8
LC-005-005-----0
 62
     2
  5
2D5
 10
323.99868
 20
352.282951
 30
0.0
 11
327.232109
 21
355.51638
 31
0.0
  0
LINE
  8
LC-005-005-----0
 62
     2
  5
2D6
 10
252.319427
 20
283.432126
 30
0.0
 11
255.032301
 21
286.144999
 31
0.0
  0
LINE
  8
LC-005-005-----0
 62
     2
  5
2D7
 10
301.591126
 20
332.703825
 30
0.0
 11
302.258465
 21
333.371164
 31
0.0
  0
LINE
  8
LC-005-005-----0
 62
     2
  5
2D8
 10
302.724917
 20
333.837616
 30
0.0
 11
302.924674
 21
334.037372
 31
0.0
  0
LINE
  8
LC-005-005-----0
 62
     2
  5
2D9
 10
311.280212
 20
342.39291
 30
0.0
 11
314.567997
 21
345.680696
 31
0.0
  0
LINE
  8
LC-005-005-----0
 62
     2
  5
2DA
 10
316.376367
 20
347.489065
 30
0.0
 11
319.546654
 21
350.659352
 31
0.0
  0
LINE
  8
LC-005-005-----0
 62
     2
  5
2DB
 10
320.9576
 20
352.070299
 30
0.0
 11
324.191029
 21
355.303727
 31
0.0
  0
LINE
  8
LC-005-005-----0
 62
     2
  5
2DC
 10
252.344328
 20
286.285453
 30
0.0
 11
255.032301
 21
288.973426
 31
0.0
  0
LINE
  8
LC-005-005-----0
 62
     2
  5
2DD
 10
311.280212
 20
345.221338
 30
0.0
 11
313.281594
 21
347.222719
 31
0.0
  0
LINE
  8
LC-005-005-----0
 62
     2
  5
2DE
 10
316.532796
 20
350.473922
 30
0.0
 11
321.149949
 21
355.091075
 31
0.0
  0
LINE
  8
LC-005-005-----0
 62
     2
  5
2DF
 10
252.369229
 20
289.138781
 30
0.0
 11
255.032301
 21
291.801853
 31
0.0
  0
LINE
  8
LC-005-005-----0
 62
     2
  5
2E0
 10
311.280212
 20
348.049765
 30
0.0
 11
313.281594
 21
350.051147
 31
0.0
  0
LINE
  8
LC-005-005-----0
 62
     2
  5
2E1
 10
316.689226
 20
353.458779
 30
0.0
 11
318.108869
 21
354.878422
 31
0.0
  0
LINE
  8
LC-005-005-----0
 62
     2
  5
2E2
 10
252.394129
 20
291.992109
 30
0.0
 11
255.032301
 21
294.630281
 31
0.0
  0
LINE
  8
LC-005-005-----0
 62
     2
  5
2E3
 10
311.280212
 20
350.878192
 30
0.0
 11
312.086283
 21
351.684263
 31
0.0
  0
LINE
  8
LC-005-005-----0
 62
     2
  5
2E4
 10
252.41903
 20
294.845437
 30
0.0
 11
255.032301
 21
297.458708
 31
0.0
  0
LINE
  8
LC-005-005-----0
 62
     2
  5
2E5
 10
252.44393
 20
297.698764
 30
0.0
 11
255.032301
 21
300.287135
 31
0.0
  0
LINE
  8
LC-005-005-----0
 62
     2
  5
2E6
 10
252.468831
 20
300.552092
 30
0.0
 11
255.032301
 21
303.115562
 31
0.0
  0
LINE
  8
LC-005-005-----0
 62
     2
  5
2E7
 10
252.493732
 20
303.40542
 30
0.0
 11
255.032301
 21
305.943989
 31
0.0
  0
LINE
  8
LC-005-005-----0
 62
     2
  5
2E8
 10
252.518632
 20
306.258748
 30
0.0
 11
255.032301
 21
308.772416
 31
0.0
  0
LINE
  8
LC-005-005-----0
 62
     2
  5
2E9
 10
252.543533
 20
309.112075
 30
0.0
 11
255.032301
 21
311.600843
 31
0.0
  0
LINE
  8
LC-005-005-----0
 62
     2
  5
2EA
 10
252.568433
 20
311.965403
 30
0.0
 11
255.032301
 21
314.42927
 31
0.0
  0
LINE
  8
LC-005-005-----0
 62
     2
  5
2EB
 10
252.593334
 20
314.818731
 30
0.0
 11
255.032301
 21
317.257698
 31
0.0
  0
LINE
  8
LC-005-005-----0
 62
     2
  5
2EC
 10
252.618235
 20
317.672059
 30
0.0
 11
255.032301
 21
320.086125
 31
0.0
  0
LINE
  8
LC-005-005-----0
 62
     2
  5
2ED
 10
252.643135
 20
320.525386
 30
0.0
 11
255.032301
 21
322.914552
 31
0.0
  0
LINE
  8
LC-005-005-----0
 62
     2
  5
2EE
 10
252.668036
 20
323.378714
 30
0.0
 11
254.820018
 21
325.530696
 31
0.0
  0
ENDBLK
  8
0
  5
2EF
  0
BLOCK
  8
0
  5
2F2
  2
*D7
 70
    65
 10
0.0
 20
0.0
 30
0.0
  3
*D7
  0
LINE
  8
LC-006-003-MTH-0
 62
     2
  5
2F3
 10
73.780558
 20
358.38138
 30
0.0
 11
73.780558
 21
444.927969
 31
0.0
  0
LINE
  8
LC-006-003-MTH-0
 62
     2
  5
2F4
 10
375.291758
 20
358.38138
 30
0.0
 11
375.291758
 21
444.927969
 31
0.0
  0
LINE
  8
LC-008-003-MTG-0
 62
     2
  5
2F5
 10
73.780558
 20
428.127969
 30
0.0
 11
180.959625
 21
428.127969
 31
0.0
  0
LINE
  8
LC-008-003-MTG-0
 62
     2
  5
2F6
 10
282.606558
 20
428.127969
 30
0.0
 11
375.291758
 21
428.127969
 31
0.0
  0
LINE
  8
LC-007-003-----0
 62
     2
  5
2F7
 10
101.541014
 20
431.782703
 30
0.0
 11
73.780558
 21
428.127969
 31
0.0
  0
LINE
  8
LC-007-003-----0
 62
     2
  5
2F8
 10
73.780558
 20
428.127969
 30
0.0
 11
101.541014
 21
424.473236
 31
0.0
  0
LINE
  8
LC-007-003-----0
 62
     2
  5
2F9
 10
101.541014
 20
424.473236
 30
0.0
 11
101.541014
 21
431.782703
 31
0.0
  0
LINE
  8
LC-007-003-----0
 62
     2
  5
2FA
 10
101.603296
 20
430.832472
 30
0.0
 11
81.060558
 21
428.127969
 31
0.0
  0
LINE
  8
LC-007-003-----0
 62
     2
  5
2FB
 10
81.060558
 20
428.127969
 30
0.0
 11
101.603296
 21
425.423467
 31
0.0
  0
LINE
  8
LC-007-003-----0
 62
     2
  5
2FC
 10
101.665577
 20
429.882241
 30
0.0
 11
88.340558
 21
428.127969
 31
0.0
  0
LINE
  8
LC-007-003-----0
 62
     2
  5
2FD
 10
88.340558
 20
428.127969
 30
0.0
 11
101.665577
 21
426.373697
 31
0.0
  0
LINE
  8
LC-007-003-----0
 62
     2
  5
2FE
 10
101.727858
 20
428.932011
 30
0.0
 11
95.620558
 21
428.127969
 31
0.0
  0
LINE
  8
LC-007-003-----0
 62
     2
  5
2FF
 10
95.620558
 20
428.127969
 30
0.0
 11
101.727858
 21
427.323928
 31
0.0
  0
LINE
  8
LC-007-003-----0
 62
     2
  5
300
 10
347.531302
 20
424.473236
 30
0.0
 11
375.291758
 21
428.127969
 31
0.0
  0
LINE
  8
LC-007-003-----0
 62
     2
  5
301
 10
375.291758
 20
428.127969
 30
0.0
 11
347.531302
 21
431.782703
 31
0.0
  0
LINE
  8
LC-007-003-----0
 62
     2
  5
302
 10
347.531302
 20
431.782703
 30
0.0
 11
347.531302
 21
424.473236
 31
0.0
  0
LINE
  8
LC-007-003-----0
 62
     2
  5
303
 10
347.469021
 20
425.423467
 30
0.0
 11
368.011758
 21
428.127969
 31
0.0
  0
LINE
  8
LC-007-003-----0
 62
     2
  5
304
 10
368.011758
 20
428.127969
 30
0.0
 11
347.469021
 21
430.832472
 31
0.0
  0
LINE
  8
LC-007-003-----0
 62
     2
  5
305
 10
347.406739
 20
426.373697
 30
0.0
 11
360.731758
 21
428.127969
 31
0.0
  0
LINE
  8
LC-007-003-----0
 62
     2
  5
306
 10
360.731758
 20
428.127969
 30
0.0
 11
347.406739
 21
429.882241
 31
0.0
  0
LINE
  8
LC-007-003-----0
 62
     2
  5
307
 10
347.344458
 20
427.323928
 30
0.0
 11
353.451758
 21
428.127969
 31
0.0
  0
LINE
  8
LC-007-003-----0
 62
     2
  5
308
 10
353.451758
 20
428.127969
 30
0.0
 11
347.344458
 21
428.932011
 31
0.0
  0
TEXT
  8
LC-007-003-----0
 62
     8
  5
309
 10
158.234931
 20
430.546339
 30
0.0
 40
28.0
  1
%%c300
 41
0.9
 51
15.0
  7
LCTX15-400-0-0-ARIAL
 72
     1
 11
227.434931
 21
430.546339
 31
0.0
  0
ENDBLK
  8
0
  5
30A
  0
BLOCK
  8
0
  5
30D
  2
*D8
 70
    65
 10
0.0
 20
0.0
 30
0.0
  3
*D8
  0
LINE
  8
LC-006-003-MTH-0
 62
     2
  5
30E
 10
129.518398
 20
350.651192
 30
0.0
 11
129.519192
 21
397.652866
 31
0.0
  0
LINE
  8
LC-006-003-MTH-0
 62
     2
  5
30F
 10
319.55375
 20
350.647983
 30
0.0
 11
319.554543
 21
397.649657
 31
0.0
  0
LINE
  8
LC-008-003-MTG-0
 62
     2
  5
310
 10
129.518908
 20
380.852866
 30
0.0
 11
180.960051
 21
380.851998
 31
0.0
  0
LINE
  8
LC-008-003-MTG-0
 62
     2
  5
311
 10
282.606984
 20
380.850281
 30
0.0
 11
319.55426
 21
380.849657
 31
0.0
  0
LINE
  8
LC-007-003-----0
 62
     2
  5
312
 10
157.279426
 20
384.507131
 30
0.0
 11
129.518908
 21
380.852866
 31
0.0
  0
LINE
  8
LC-007-003-----0
 62
     2
  5
313
 10
129.518908
 20
380.852866
 30
0.0
 11
157.279302
 21
377.197664
 31
0.0
  0
LINE
  8
LC-007-003-----0
 62
     2
  5
314
 10
157.279302
 20
377.197664
 30
0.0
 11
157.279426
 21
384.507131
 31
0.0
  0
LINE
  8
LC-007-003-----0
 62
     2
  5
315
 10
157.341691
 20
383.556899
 30
0.0
 11
136.798908
 21
380.852743
 31
0.0
  0
LINE
  8
LC-007-003-----0
 62
     2
  5
316
 10
136.798908
 20
380.852743
 30
0.0
 11
157.3416
 21
378.147894
 31
0.0
  0
LINE
  8
LC-007-003-----0
 62
     2
  5
317
 10
157.403957
 20
382.606667
 30
0.0
 11
144.078908
 21
380.85262
 31
0.0
  0
LINE
  8
LC-007-003-----0
 62
     2
  5
318
 10
144.078908
 20
380.85262
 30
0.0
 11
157.403897
 21
379.098123
 31
0.0
  0
LINE
  8
LC-007-003-----0
 62
     2
  5
319
 10
157.466222
 20
381.656436
 30
0.0
 11
151.358908
 21
380.852497
 31
0.0
  0
LINE
  8
LC-007-003-----0
 62
     2
  5
31A
 10
151.358908
 20
380.852497
 30
0.0
 11
157.466195
 21
380.048353
 31
0.0
  0
LINE
  8
LC-007-003-----0
 62
     2
  5
31B
 10
291.793742
 20
377.195393
 30
0.0
 11
319.55426
 21
380.849657
 31
0.0
  0
LINE
  8
LC-007-003-----0
 62
     2
  5
31C
 10
319.55426
 20
380.849657
 30
0.0
 11
291.793865
 21
384.50486
 31
0.0
  0
LINE
  8
LC-007-003-----0
 62
     2
  5
31D
 10
291.793865
 20
384.50486
 30
0.0
 11
291.793742
 21
377.195393
 31
0.0
  0
LINE
  8
LC-007-003-----0
 62
     2
  5
31E
 10
291.731477
 20
378.145625
 30
0.0
 11
312.27426
 21
380.84978
 31
0.0
  0
LINE
  8
LC-007-003-----0
 62
     2
  5
31F
 10
312.27426
 20
380.84978
 30
0.0
 11
291.731568
 21
383.55463
 31
0.0
  0
LINE
  8
LC-007-003-----0
 62
     2
  5
320
 10
291.669211
 20
379.095856
 30
0.0
 11
304.99426
 21
380.849903
 31
0.0
  0
LINE
  8
LC-007-003-----0
 62
     2
  5
321
 10
304.99426
 20
380.849903
 30
0.0
 11
291.669271
 21
382.6044
 31
0.0
  0
LINE
  8
LC-007-003-----0
 62
     2
  5
322
 10
291.606946
 20
380.046088
 30
0.0
 11
297.71426
 21
380.850026
 31
0.0
  0
LINE
  8
LC-007-003-----0
 62
     2
  5
323
 10
297.71426
 20
380.850026
 30
0.0
 11
291.606973
 21
381.654171
 31
0.0
  0
TEXT
  8
LC-007-003-----0
 62
     8
  5
324
 10
158.235414
 20
383.270809
 30
0.0
 40
28.0
  1
%%c190
 50
359.999033
 41
0.9
 51
15.0
  7
LCTX15-400-0-0-ARIAL
 72
     1
 11
227.435414
 21
383.26964
 31
0.0
  0
ENDBLK
  8
0
  5
325
  0
BLOCK
  8
0
  5
328
  2
*D9
 70
    65
 10
0.0
 20
0.0
 30
0.0
  3
*D9
  0
LINE
  8
LC-006-003-MTH-0
 62
     2
  5
329
 10
156.032301
 20
247.530696
 30
0.0
 11
46.339454
 21
247.530696
 31
0.0
  0
LINE
  8
LC-006-003-MTH-0
 62
     2
  5
32A
 10
73.780558
 20
355.380923
 30
0.0
 11
46.339454
 21
355.380923
 31
0.0
  0
LINE
  8
LC-008-003-MTG-0
 62
     2
  5
32B
 10
63.139454
 20
247.530696
 30
0.0
 11
63.139454
 21
269.879276
 31
0.0
  0
LINE
  8
LC-008-003-MTG-0
 62
     2
  5
32C
 10
63.139454
 20
347.526209
 30
0.0
 11
63.139454
 21
355.380923
 31
0.0
  0
LINE
  8
LC-007-003-----0
 62
     2
  5
32D
 10
60.197207
 20
269.879276
 30
0.0
 11
63.139454
 21
247.530696
 31
0.0
  0
LINE
  8
LC-007-003-----0
 62
     2
  5
32E
 10
63.139454
 20
247.530696
 30
0.0
 11
66.0817
 21
269.879276
 31
0.0
  0
LINE
  8
LC-007-003-----0
 62
     2
  5
32F
 10
61.155638
 20
269.879276
 30
0.0
 11
63.139454
 21
254.810696
 31
0.0
  0
LINE
  8
LC-007-003-----0
 62
     2
  5
330
 10
63.139454
 20
254.810696
 30
0.0
 11
65.12327
 21
269.879276
 31
0.0
  0
LINE
  8
LC-007-003-----0
 62
     2
  5
331
 10
62.114068
 20
269.879276
 30
0.0
 11
63.139454
 21
262.090696
 31
0.0
  0
LINE
  8
LC-007-003-----0
 62
     2
  5
332
 10
63.139454
 20
262.090696
 30
0.0
 11
64.16484
 21
269.879276
 31
0.0
  0
LINE
  8
LC-007-003-----0
 62
     2
  5
333
 10
63.072498
 20
269.879276
 30
0.0
 11
63.139454
 21
269.370696
 31
0.0
  0
LINE
  8
LC-007-003-----0
 62
     2
  5
334
 10
63.139454
 20
269.370696
 30
0.0
 11
63.20641
 21
269.879276
 31
0.0
  0
LINE
  8
LC-007-003-----0
 62
     2
  5
335
 10
64.173547
 20
347.526209
 30
0.0
 11
63.139454
 21
355.380923
 31
0.0
  0
LINE
  8
LC-007-003-----0
 62
     2
  5
336
 10
63.139454
 20
355.380923
 30
0.0
 11
62.105361
 21
347.526209
 31
0.0
  0
LINE
  8
LC-007-003-----0
 62
     2
  5
337
 10
63.215116
 20
347.526209
 30
0.0
 11
63.139454
 21
348.100923
 31
0.0
  0
LINE
  8
LC-007-003-----0
 62
     2
  5
338
 10
63.139454
 20
348.100923
 30
0.0
 11
63.063791
 21
347.526209
 31
0.0
  0
TEXT
  8
LC-007-003-----0
 62
     8
  5
339
 10
55.3119
 20
270.603969
 30
0.0
 40
28.0
  1
110
 50
90.0
 41
0.9
 51
15.0
  7
LCTX15-400-0-0-ARIAL
 72
     1
 11
55.3119
 21
305.803969
 31
0.0
  0
ENDBLK
  8
0
  5
33A
  0
BLOCK
  8
0
  5
33D
  2
*D10
 70
    65
 10
0.0
 20
0.0
 30
0.0
  3
*D10
  0
LINE
  8
LC-006-003-MTH-0
 62
     2
  5
33E
 10
185.532301
 20
137.530692
 30
0.0
 11
46.339454
 21
137.530692
 31
0.0
  0
LINE
  8
LC-006-003-MTH-0
 62
     2
  5
33F
 10
156.032301
 20
247.530696
 30
0.0
 11
46.339454
 21
247.530696
 31
0.0
  0
LINE
  8
LC-008-003-MTG-0
 62
     2
  5
340
 10
63.139454
 20
137.530692
 30
0.0
 11
63.139454
 21
160.954161
 31
0.0
  0
LINE
  8
LC-008-003-MTG-0
 62
     2
  5
341
 10
63.139454
 20
238.601094
 30
0.0
 11
63.139454
 21
247.530696
 31
0.0
  0
LINE
  8
LC-007-003-----0
 62
     2
  5
342
 10
60.055696
 20
160.954161
 30
0.0
 11
63.139454
 21
137.530692
 31
0.0
  0
LINE
  8
LC-007-003-----0
 62
     2
  5
343
 10
63.139454
 20
137.530692
 30
0.0
 11
66.223212
 21
160.954161
 31
0.0
  0
LINE
  8
LC-007-003-----0
 62
     2
  5
344
 10
61.014126
 20
160.954161
 30
0.0
 11
63.139454
 21
144.810692
 31
0.0
  0
LINE
  8
LC-007-003-----0
 62
     2
  5
345
 10
63.139454
 20
144.810692
 30
0.0
 11
65.264782
 21
160.954161
 31
0.0
  0
LINE
  8
LC-007-003-----0
 62
     2
  5
346
 10
61.972556
 20
160.954161
 30
0.0
 11
63.139454
 21
152.090692
 31
0.0
  0
LINE
  8
LC-007-003-----0
 62
     2
  5
347
 10
63.139454
 20
152.090692
 30
0.0
 11
64.306352
 21
160.954161
 31
0.0
  0
LINE
  8
LC-007-003-----0
 62
     2
  5
348
 10
62.930986
 20
160.954161
 30
0.0
 11
63.139454
 21
159.370692
 31
0.0
  0
LINE
  8
LC-007-003-----0
 62
     2
  5
349
 10
63.139454
 20
159.370692
 30
0.0
 11
63.347921
 21
160.954161
 31
0.0
  0
LINE
  8
LC-007-003-----0
 62
     2
  5
34A
 10
64.315058
 20
238.601094
 30
0.0
 11
63.139454
 21
247.530696
 31
0.0
  0
LINE
  8
LC-007-003-----0
 62
     2
  5
34B
 10
63.139454
 20
247.530696
 30
0.0
 11
61.963849
 21
238.601094
 31
0.0
  0
LINE
  8
LC-007-003-----0
 62
     2
  5
34C
 10
63.356628
 20
238.601094
 30
0.0
 11
63.139454
 21
240.250696
 31
0.0
  0
LINE
  8
LC-007-003-----0
 62
     2
  5
34D
 10
63.139454
 20
240.250696
 30
0.0
 11
62.92228
 21
238.601094
 31
0.0
  0
TEXT
  8
LC-007-003-----0
 62
     8
  5
34E
 10
55.3119
 20
161.678854
 30
0.0
 40
28.0
  1
110
 50
90.0
 41
0.9
 51
15.0
  7
LCTX15-400-0-0-ARIAL
 72
     1
 11
55.3119
 21
196.878854
 31
0.0
  0
ENDBLK
  8
0
  5
34F
  0
BLOCK
  8
0
  5
352
  2
*D11
 70
    65
 10
0.0
 20
0.0
 30
0.0
  3
*D11
  0
LINE
  8
LC-006-003-MTH-0
 62
     2
  5
353
 10
183.001161
 20
276.030693
 30
0.0
 11
104.58036
 21
276.030693
 31
0.0
  0
LINE
  8
LC-006-003-MTH-0
 62
     2
  5
354
 10
193.243443
 20
325.530696
 30
0.0
 11
126.98036
 21
325.530696
 31
0.0
  0
LINE
  8
LC-007-003-----0
 62
     2
  5
355
 10
125.035093
 20
248.270237
 30
0.0
 11
121.38036
 21
276.030693
 31
0.0
  0
LINE
  8
LC-007-003-----0
 62
     2
  5
356
 10
121.38036
 20
276.030693
 30
0.0
 11
117.725627
 21
248.270237
 31
0.0
  0
LINE
  8
LC-007-003-----0
 62
     2
  5
357
 10
117.725627
 20
248.270237
 30
0.0
 11
125.035093
 21
248.270237
 31
0.0
  0
LINE
  8
LC-007-003-----0
 62
     2
  5
358
 10
124.084863
 20
248.207956
 30
0.0
 11
121.38036
 21
268.750693
 31
0.0
  0
LINE
  8
LC-007-003-----0
 62
     2
  5
359
 10
121.38036
 20
268.750693
 30
0.0
 11
118.675857
 21
248.207956
 31
0.0
  0
LINE
  8
LC-007-003-----0
 62
     2
  5
35A
 10
123.134632
 20
248.145674
 30
0.0
 11
121.38036
 21
261.470693
 31
0.0
  0
LINE
  8
LC-007-003-----0
 62
     2
  5
35B
 10
121.38036
 20
261.470693
 30
0.0
 11
119.626088
 21
248.145674
 31
0.0
  0
LINE
  8
LC-007-003-----0
 62
     2
  5
35C
 10
122.184401
 20
248.083393
 30
0.0
 11
121.38036
 21
254.190693
 31
0.0
  0
LINE
  8
LC-007-003-----0
 62
     2
  5
35D
 10
121.38036
 20
254.190693
 30
0.0
 11
120.576319
 21
248.083393
 31
0.0
  0
LINE
  8
LC-007-003-----0
 62
     2
  5
35E
 10
117.725627
 20
353.291152
 30
0.0
 11
120.416611
 21
332.851094
 31
0.0
  0
LINE
  8
LC-007-003-----0
 62
     2
  5
35F
 10
122.344109
 20
332.851094
 30
0.0
 11
125.035093
 21
353.291152
 31
0.0
  0
LINE
  8
LC-007-003-----0
 62
     2
  5
360
 10
125.035093
 20
353.291152
 30
0.0
 11
117.725627
 21
353.291152
 31
0.0
  0
LINE
  8
LC-007-003-----0
 62
     2
  5
361
 10
118.675857
 20
353.353433
 30
0.0
 11
121.375041
 21
332.851094
 31
0.0
  0
LINE
  8
LC-007-003-----0
 62
     2
  5
362
 10
121.385679
 20
332.851094
 30
0.0
 11
124.084863
 21
353.353433
 31
0.0
  0
LINE
  8
LC-007-003-----0
 62
     2
  5
363
 10
119.626088
 20
353.415715
 30
0.0
 11
121.38036
 21
340.090696
 31
0.0
  0
LINE
  8
LC-007-003-----0
 62
     2
  5
364
 10
121.38036
 20
340.090696
 30
0.0
 11
123.134632
 21
353.415715
 31
0.0
  0
LINE
  8
LC-007-003-----0
 62
     2
  5
365
 10
120.576319
 20
353.477996
 30
0.0
 11
121.38036
 21
347.370696
 31
0.0
  0
LINE
  8
LC-007-003-----0
 62
     2
  5
366
 10
121.38036
 20
347.370696
 30
0.0
 11
122.184401
 21
353.477996
 31
0.0
  0
LINE
  8
LC-008-003-MTG-0
 62
     2
  5
367
 10
121.38036
 20
236.830693
 30
0.0
 11
121.38036
 21
283.204161
 31
0.0
  0
LINE
  8
LC-008-003-MTG-0
 62
     2
  5
368
 10
121.38036
 20
332.851094
 30
0.0
 11
121.38036
 21
364.730696
 31
0.0
  0
TEXT
  8
LC-007-003-----0
 62
     8
  5
369
 10
113.552806
 20
283.928854
 30
0.0
 40
28.0
  1
50
 50
90.0
 41
0.6
 51
15.0
  7
LCTX15-400-0-0-ARIAL
 72
     1
 11
113.552806
 21
305.128854
 31
0.0
  0
ENDBLK
  8
0
  5
36A
  0
BLOCK
  8
0
  5
379
  2
*X12
 70
    65
 10
0.0
 20
0.0
 30
0.0
  3
*X12
  0
LINE
  8
LC-005-005-----0
 62
     2
  5
37A
 10
143.424847
 20
341.414746
 30
0.0
 11
144.146325
 21
342.136223
 31
0.0
  0
LINE
  8
LC-005-005-----0
 62
     2
  5
37B
 10
138.009605
 20
338.827931
 30
0.0
 11
139.755927
 21
340.574253
 31
0.0
  0
LINE
  8
LC-005-005-----0
 62
     2
  5
37C
 10
141.351133
 20
342.169459
 30
0.0
 11
142.781462
 21
343.599788
 31
0.0
  0
LINE
  8
LC-005-005-----0
 62
     2
  5
37D
 10
137.499317
 20
341.14607
 30
0.0
 11
141.4166
 21
345.063353
 31
0.0
  0
LINE
  8
LC-005-005-----0
 62
     2
  5
37E
 10
144.426086
 20
348.072839
 30
0.0
 11
144.758392
 21
348.405145
 31
0.0
  0
LINE
  8
LC-005-005-----0
 62
     2
  5
37F
 10
137.499306
 20
343.974486
 30
0.0
 11
140.051737
 21
346.526917
 31
0.0
  0
LINE
  8
LC-005-005-----0
 62
     2
  5
380
 10
142.347427
 20
348.822608
 30
0.0
 11
143.437132
 21
349.912312
 31
0.0
  0
LINE
  8
LC-005-005-----0
 62
     2
  5
381
 10
137.499294
 20
346.802902
 30
0.0
 11
142.07227
 21
351.375877
 31
0.0
  0
LINE
  8
LC-005-005-----0
 62
     2
  5
382
 10
133.713349
 20
345.845383
 30
0.0
 11
135.781347
 21
347.913381
 31
0.0
  0
LINE
  8
LC-005-005-----0
 62
     2
  5
383
 10
137.499283
 20
349.631317
 30
0.0
 11
140.707407
 21
352.839442
 31
0.0
  0
LINE
  8
LC-005-005-----0
 62
     2
  5
384
 10
132.639966
 20
347.600428
 30
0.0
 11
135.781335
 21
350.741797
 31
0.0
  0
LINE
  8
LC-005-005-----0
 62
     2
  5
385
 10
136.719883
 20
351.680344
 30
0.0
 11
139.095245
 21
354.055707
 31
0.0
  0
LINE
  8
LC-005-005-----0
 62
     2
  5
386
 10
132.639955
 20
350.428843
 30
0.0
 11
136.48361
 21
354.272498
 31
0.0
  0
LINE
  8
LC-005-005-----0
 62
     2
  5
387
 10
132.639943
 20
353.257259
 30
0.0
 11
133.839975
 21
354.457291
 31
0.0
  0
ENDBLK
  8
0
  5
388
  0
BLOCK
  8
0
  5
3AC
  2
*X13
 70
    65
 10
0.0
 20
0.0
 30
0.0
  3
*X13
  0
LINE
  8
LC-005-005-----0
 62
     2
  5
3AD
 10
151.434344
 20
329.625253
 30
0.0
 11
151.581835
 21
329.772744
 31
0.0
  0
LINE
  8
LC-005-005-----0
 62
     2
  5
3AE
 10
148.615201
 20
329.634537
 30
0.0
 11
149.305917
 21
330.325253
 31
0.0
  0
LINE
  8
LC-005-005-----0
 62
     2
  5
3AF
 10
147.281841
 20
331.129605
 30
0.0
 11
148.777483
 21
332.625246
 31
0.0
  0
LINE
  8
LC-005-005-----0
 62
     2
  5
3B0
 10
149.081835
 20
332.929598
 30
0.0
 11
149.781835
 21
333.629598
 31
0.0
  0
LINE
  8
LC-005-005-----0
 62
     2
  5
3B1
 10
148.843155
 20
335.519345
 30
0.0
 11
149.363243
 21
336.039433
 31
0.0
  0
LINE
  8
LC-005-005-----0
 62
     2
  5
3B2
 10
146.704085
 20
336.208702
 30
0.0
 11
147.206102
 21
336.710719
 31
0.0
  0
LINE
  8
LC-005-005-----0
 62
     2
  5
3B3
 10
145.493505
 20
337.82655
 30
0.0
 11
146.055247
 21
338.388292
 31
0.0
  0
LINE
  8
LC-005-005-----0
 62
     2
  5
3B4
 10
145.281835
 20
340.443307
 30
0.0
 11
145.981835
 21
341.143307
 31
0.0
  0
LINE
  8
LC-005-005-----0
 62
     2
  5
3B5
 10
145.281835
 20
343.271734
 30
0.0
 11
145.981835
 21
343.971734
 31
0.0
  0
LINE
  8
LC-005-005-----0
 62
     2
  5
3B6
 10
145.281835
 20
346.100161
 30
0.0
 11
145.981835
 21
346.800161
 31
0.0
  0
LINE
  8
LC-005-005-----0
 62
     2
  5
3B7
 10
145.281835
 20
348.928588
 30
0.0
 11
145.981835
 21
349.628588
 31
0.0
  0
LINE
  8
LC-005-005-----0
 62
     2
  5
3B8
 10
145.281835
 20
351.757015
 30
0.0
 11
145.981835
 21
352.457015
 31
0.0
  0
LINE
  8
LC-005-005-----0
 62
     2
  5
3B9
 10
145.061448
 20
354.365055
 30
0.0
 11
145.620136
 21
354.923743
 31
0.0
  0
LINE
  8
LC-005-005-----0
 62
     2
  5
3BA
 10
144.163952
 20
356.295986
 30
0.0
 11
144.661838
 21
356.793873
 31
0.0
  0
LINE
  8
LC-005-005-----0
 62
     2
  5
3BB
 10
142.779521
 20
357.739983
 30
0.0
 11
143.272835
 21
358.233296
 31
0.0
  0
LINE
  8
LC-005-005-----0
 62
     2
  5
3BC
 10
140.919142
 20
358.708031
 30
0.0
 11
141.46035
 21
359.249239
 31
0.0
  0
LINE
  8
LC-005-005-----0
 62
     2
  5
3BD
 10
138.448648
 20
359.065964
 30
0.0
 11
139.094608
 21
359.711924
 31
0.0
  0
LINE
  8
LC-005-005-----0
 62
     2
  5
3BE
 10
135.805078
 20
359.250821
 30
0.0
 11
136.451037
 21
359.89678
 31
0.0
  0
LINE
  8
LC-005-005-----0
 62
     2
  5
3BF
 10
133.161507
 20
359.435677
 30
0.0
 11
133.807466
 21
360.081636
 31
0.0
  0
LINE
  8
LC-005-005-----0
 62
     2
  5
3C0
 10
130.517936
 20
359.620534
 30
0.0
 11
131.163896
 21
360.266493
 31
0.0
  0
LINE
  8
LC-005-005-----0
 62
     2
  5
3C1
 10
127.874366
 20
359.80539
 30
0.0
 11
128.520325
 21
360.451349
 31
0.0
  0
LINE
  8
LC-005-005-----0
 62
     2
  5
3C2
 10
125.230795
 20
359.990247
 30
0.0
 11
125.876754
 21
360.636206
 31
0.0
  0
LINE
  8
LC-005-005-----0
 62
     2
  5
3C3
 10
122.587225
 20
360.175103
 30
0.0
 11
123.233184
 21
360.821062
 31
0.0
  0
LINE
  8
LC-005-005-----0
 62
     2
  5
3C4
 10
120.116103
 20
360.532409
 30
0.0
 11
120.684781
 21
361.101087
 31
0.0
  0
LINE
  8
LC-005-005-----0
 62
     2
  5
3C5
 10
118.211214
 20
361.455946
 30
0.0
 11
118.715469
 21
361.960202
 31
0.0
  0
ENDBLK
  8
0
  5
3C6
  0
BLOCK
  8
0
  5
3C9
  2
*X14
 70
    65
 10
0.0
 20
0.0
 30
0.0
  3
*X14
  0
LINE
  8
LC-005-005-----0
 62
     2
  5
3CA
 10
-15.537339
 20
358.380727
 30
0.0
 11
-15.265378
 21
358.652688
 31
0.0
  0
LINE
  8
LC-005-005-----0
 62
     2
  5
3CB
 10
-16.103025
 20
358.380727
 30
0.0
 11
-15.265378
 21
359.218373
 31
0.0
  0
LINE
  8
LC-005-005-----0
 62
     2
  5
3CC
 10
-16.66871
 20
358.380727
 30
0.0
 11
-15.265378
 21
359.784059
 31
0.0
  0
LINE
  8
LC-005-005-----0
 62
     2
  5
3CD
 10
-17.234396
 20
358.380727
 30
0.0
 11
-15.265378
 21
360.349744
 31
0.0
  0
LINE
  8
LC-005-005-----0
 62
     2
  5
3CE
 10
-17.800081
 20
358.380727
 30
0.0
 11
-15.265378
 21
360.91543
 31
0.0
  0
LINE
  8
LC-005-005-----0
 62
     2
  5
3CF
 10
-18.365766
 20
358.380727
 30
0.0
 11
-15.265378
 21
361.481115
 31
0.0
  0
LINE
  8
LC-005-005-----0
 62
     2
  5
3D0
 10
-18.931452
 20
358.380727
 30
0.0
 11
-15.265378
 21
362.046801
 31
0.0
  0
LINE
  8
LC-005-005-----0
 62
     2
  5
3D1
 10
-19.497137
 20
358.380727
 30
0.0
 11
-15.265378
 21
362.612486
 31
0.0
  0
LINE
  8
LC-005-005-----0
 62
     2
  5
3D2
 10
-20.062823
 20
358.380727
 30
0.0
 11
-15.362823
 21
363.080727
 31
0.0
  0
LINE
  8
LC-005-005-----0
 62
     2
  5
3D3
 10
-20.628508
 20
358.380727
 30
0.0
 11
-15.928508
 21
363.080727
 31
0.0
  0
LINE
  8
LC-005-005-----0
 62
     2
  5
3D4
 10
-21.194194
 20
358.380727
 30
0.0
 11
-16.494194
 21
363.080727
 31
0.0
  0
LINE
  8
LC-005-005-----0
 62
     2
  5
3D5
 10
-21.759879
 20
358.380727
 30
0.0
 11
-17.059879
 21
363.080727
 31
0.0
  0
LINE
  8
LC-005-005-----0
 62
     2
  5
3D6
 10
-22.325564
 20
358.380727
 30
0.0
 11
-17.625564
 21
363.080727
 31
0.0
  0
LINE
  8
LC-005-005-----0
 62
     2
  5
3D7
 10
-22.89125
 20
358.380727
 30
0.0
 11
-18.19125
 21
363.080727
 31
0.0
  0
LINE
  8
LC-005-005-----0
 62
     2
  5
3D8
 10
-23.456935
 20
358.380727
 30
0.0
 11
-18.756935
 21
363.080727
 31
0.0
  0
LINE
  8
LC-005-005-----0
 62
     2
  5
3D9
 10
-24.022621
 20
358.380727
 30
0.0
 11
-19.322621
 21
363.080727
 31
0.0
  0
LINE
  8
LC-005-005-----0
 62
     2
  5
3DA
 10
-24.588306
 20
358.380727
 30
0.0
 11
-19.888306
 21
363.080727
 31
0.0
  0
LINE
  8
LC-005-005-----0
 62
     2
  5
3DB
 10
-25.153992
 20
358.380727
 30
0.0
 11
-20.453992
 21
363.080727
 31
0.0
  0
LINE
  8
LC-005-005-----0
 62
     2
  5
3DC
 10
-25.265378
 20
358.835026
 30
0.0
 11
-21.019677
 21
363.080727
 31
0.0
  0
LINE
  8
LC-005-005-----0
 62
     2
  5
3DD
 10
-25.265378
 20
359.400711
 30
0.0
 11
-21.585362
 21
363.080727
 31
0.0
  0
LINE
  8
LC-005-005-----0
 62
     2
  5
3DE
 10
-25.265378
 20
359.966397
 30
0.0
 11
-22.151048
 21
363.080727
 31
0.0
  0
LINE
  8
LC-005-005-----0
 62
     2
  5
3DF
 10
-25.265378
 20
360.532082
 30
0.0
 11
-22.716733
 21
363.080727
 31
0.0
  0
LINE
  8
LC-005-005-----0
 62
     2
  5
3E0
 10
-25.265378
 20
361.097767
 30
0.0
 11
-23.282419
 21
363.080727
 31
0.0
  0
LINE
  8
LC-005-005-----0
 62
     2
  5
3E1
 10
-25.265378
 20
361.663453
 30
0.0
 11
-23.848104
 21
363.080727
 31
0.0
  0
LINE
  8
LC-005-005-----0
 62
     2
  5
3E2
 10
-25.265378
 20
362.229138
 30
0.0
 11
-24.413789
 21
363.080727
 31
0.0
  0
LINE
  8
LC-005-005-----0
 62
     2
  5
3E3
 10
-25.265378
 20
362.794824
 30
0.0
 11
-24.979475
 21
363.080727
 31
0.0
  0
ENDBLK
  8
0
  5
3E4
  0
BLOCK
  8
0
  5
3E7
  2
*X15
 70
    65
 10
0.0
 20
0.0
 30
0.0
  3
*X15
  0
LINE
  8
LC-005-005-----0
 62
     2
  5
3E8
 10
4.261651
 20
358.380727
 30
0.0
 11
4.734622
 21
358.853698
 31
0.0
  0
LINE
  8
LC-005-005-----0
 62
     2
  5
3E9
 10
3.695965
 20
358.380727
 30
0.0
 11
4.734622
 21
359.419384
 31
0.0
  0
LINE
  8
LC-005-005-----0
 62
     2
  5
3EA
 10
3.13028
 20
358.380727
 30
0.0
 11
4.734622
 21
359.985069
 31
0.0
  0
LINE
  8
LC-005-005-----0
 62
     2
  5
3EB
 10
2.564594
 20
358.380727
 30
0.0
 11
4.734622
 21
360.550754
 31
0.0
  0
LINE
  8
LC-005-005-----0
 62
     2
  5
3EC
 10
1.998909
 20
358.380727
 30
0.0
 11
4.734622
 21
361.11644
 31
0.0
  0
LINE
  8
LC-005-005-----0
 62
     2
  5
3ED
 10
1.433223
 20
358.380727
 30
0.0
 11
4.734622
 21
361.682125
 31
0.0
  0
LINE
  8
LC-005-005-----0
 62
     2
  5
3EE
 10
0.867538
 20
358.380727
 30
0.0
 11
4.734622
 21
362.247811
 31
0.0
  0
LINE
  8
LC-005-005-----0
 62
     2
  5
3EF
 10
0.301853
 20
358.380727
 30
0.0
 11
4.734622
 21
362.813496
 31
0.0
  0
LINE
  8
LC-005-005-----0
 62
     2
  5
3F0
 10
-0.263833
 20
358.380727
 30
0.0
 11
4.436167
 21
363.080727
 31
0.0
  0
LINE
  8
LC-005-005-----0
 62
     2
  5
3F1
 10
-0.829518
 20
358.380727
 30
0.0
 11
3.870482
 21
363.080727
 31
0.0
  0
LINE
  8
LC-005-005-----0
 62
     2
  5
3F2
 10
-1.395204
 20
358.380727
 30
0.0
 11
3.304796
 21
363.080727
 31
0.0
  0
LINE
  8
LC-005-005-----0
 62
     2
  5
3F3
 10
-1.960889
 20
358.380727
 30
0.0
 11
2.739111
 21
363.080727
 31
0.0
  0
LINE
  8
LC-005-005-----0
 62
     2
  5
3F4
 10
-2.526575
 20
358.380727
 30
0.0
 11
2.173425
 21
363.080727
 31
0.0
  0
LINE
  8
LC-005-005-----0
 62
     2
  5
3F5
 10
-3.09226
 20
358.380727
 30
0.0
 11
1.60774
 21
363.080727
 31
0.0
  0
LINE
  8
LC-005-005-----0
 62
     2
  5
3F6
 10
-3.657945
 20
358.380727
 30
0.0
 11
1.042055
 21
363.080727
 31
0.0
  0
LINE
  8
LC-005-005-----0
 62
     2
  5
3F7
 10
-4.223631
 20
358.380727
 30
0.0
 11
0.476369
 21
363.080727
 31
0.0
  0
LINE
  8
LC-005-005-----0
 62
     2
  5
3F8
 10
-4.789316
 20
358.380727
 30
0.0
 11
-0.089316
 21
363.080727
 31
0.0
  0
LINE
  8
LC-005-005-----0
 62
     2
  5
3F9
 10
-5.265378
 20
358.47035
 30
0.0
 11
-0.655002
 21
363.080727
 31
0.0
  0
LINE
  8
LC-005-005-----0
 62
     2
  5
3FA
 10
-5.265378
 20
359.036036
 30
0.0
 11
-1.220687
 21
363.080727
 31
0.0
  0
LINE
  8
LC-005-005-----0
 62
     2
  5
3FB
 10
-5.265378
 20
359.601721
 30
0.0
 11
-1.786372
 21
363.080727
 31
0.0
  0
LINE
  8
LC-005-005-----0
 62
     2
  5
3FC
 10
-5.265378
 20
360.167407
 30
0.0
 11
-2.352058
 21
363.080727
 31
0.0
  0
LINE
  8
LC-005-005-----0
 62
     2
  5
3FD
 10
-5.265378
 20
360.733092
 30
0.0
 11
-2.917743
 21
363.080727
 31
0.0
  0
LINE
  8
LC-005-005-----0
 62
     2
  5
3FE
 10
-5.265378
 20
361.298778
 30
0.0
 11
-3.483429
 21
363.080727
 31
0.0
  0
LINE
  8
LC-005-005-----0
 62
     2
  5
3FF
 10
-5.265378
 20
361.864463
 30
0.0
 11
-4.049114
 21
363.080727
 31
0.0
  0
LINE
  8
LC-005-005-----0
 62
     2
  5
400
 10
-5.265378
 20
362.430148
 30
0.0
 11
-4.6148
 21
363.080727
 31
0.0
  0
LINE
  8
LC-005-005-----0
 62
     2
  5
401
 10
-5.265378
 20
362.995834
 30
0.0
 11
-5.180485
 21
363.080727
 31
0.0
  0
ENDBLK
  8
0
  5
402
  0
BLOCK
  8
0
  5
405
  2
*X16
 70
    65
 10
0.0
 20
0.0
 30
0.0
  3
*X16
  0
LINE
  8
LC-005-005-----0
 62
     2
  5
406
 10
24.626326
 20
358.380727
 30
0.0
 11
24.734622
 21
358.489023
 31
0.0
  0
LINE
  8
LC-005-005-----0
 62
     2
  5
407
 10
24.06064
 20
358.380727
 30
0.0
 11
24.734622
 21
359.054708
 31
0.0
  0
LINE
  8
LC-005-005-----0
 62
     2
  5
408
 10
23.494955
 20
358.380727
 30
0.0
 11
24.734622
 21
359.620394
 31
0.0
  0
LINE
  8
LC-005-005-----0
 62
     2
  5
409
 10
22.92927
 20
358.380727
 30
0.0
 11
24.734622
 21
360.186079
 31
0.0
  0
LINE
  8
LC-005-005-----0
 62
     2
  5
40A
 10
22.363584
 20
358.380727
 30
0.0
 11
24.734622
 21
360.751765
 31
0.0
  0
LINE
  8
LC-005-005-----0
 62
     2
  5
40B
 10
21.797899
 20
358.380727
 30
0.0
 11
24.734622
 21
361.31745
 31
0.0
  0
LINE
  8
LC-005-005-----0
 62
     2
  5
40C
 10
21.232213
 20
358.380727
 30
0.0
 11
24.734622
 21
361.883135
 31
0.0
  0
LINE
  8
LC-005-005-----0
 62
     2
  5
40D
 10
20.666528
 20
358.380727
 30
0.0
 11
24.734622
 21
362.448821
 31
0.0
  0
LINE
  8
LC-005-005-----0
 62
     2
  5
40E
 10
20.100842
 20
358.380727
 30
0.0
 11
24.734622
 21
363.014506
 31
0.0
  0
LINE
  8
LC-005-005-----0
 62
     2
  5
40F
 10
19.535157
 20
358.380727
 30
0.0
 11
24.235157
 21
363.080727
 31
0.0
  0
LINE
  8
LC-005-005-----0
 62
     2
  5
410
 10
18.969472
 20
358.380727
 30
0.0
 11
23.669472
 21
363.080727
 31
0.0
  0
LINE
  8
LC-005-005-----0
 62
     2
  5
411
 10
18.403786
 20
358.380727
 30
0.0
 11
23.103786
 21
363.080727
 31
0.0
  0
LINE
  8
LC-005-005-----0
 62
     2
  5
412
 10
17.838101
 20
358.380727
 30
0.0
 11
22.538101
 21
363.080727
 31
0.0
  0
LINE
  8
LC-005-005-----0
 62
     2
  5
413
 10
17.272415
 20
358.380727
 30
0.0
 11
21.972415
 21
363.080727
 31
0.0
  0
LINE
  8
LC-005-005-----0
 62
     2
  5
414
 10
16.70673
 20
358.380727
 30
0.0
 11
21.40673
 21
363.080727
 31
0.0
  0
LINE
  8
LC-005-005-----0
 62
     2
  5
415
 10
16.141044
 20
358.380727
 30
0.0
 11
20.841044
 21
363.080727
 31
0.0
  0
LINE
  8
LC-005-005-----0
 62
     2
  5
416
 10
15.575359
 20
358.380727
 30
0.0
 11
20.275359
 21
363.080727
 31
0.0
  0
LINE
  8
LC-005-005-----0
 62
     2
  5
417
 10
15.009674
 20
358.380727
 30
0.0
 11
19.709674
 21
363.080727
 31
0.0
  0
LINE
  8
LC-005-005-----0
 62
     2
  5
418
 10
14.734622
 20
358.671361
 30
0.0
 11
19.143988
 21
363.080727
 31
0.0
  0
LINE
  8
LC-005-005-----0
 62
     2
  5
419
 10
14.734622
 20
359.237046
 30
0.0
 11
18.578303
 21
363.080727
 31
0.0
  0
LINE
  8
LC-005-005-----0
 62
     2
  5
41A
 10
14.734622
 20
359.802731
 30
0.0
 11
18.012617
 21
363.080727
 31
0.0
  0
LINE
  8
LC-005-005-----0
 62
     2
  5
41B
 10
14.734622
 20
360.368417
 30
0.0
 11
17.446932
 21
363.080727
 31
0.0
  0
LINE
  8
LC-005-005-----0
 62
     2
  5
41C
 10
14.734622
 20
360.934102
 30
0.0
 11
16.881247
 21
363.080727
 31
0.0
  0
LINE
  8
LC-005-005-----0
 62
     2
  5
41D
 10
14.734622
 20
361.499788
 30
0.0
 11
16.315561
 21
363.080727
 31
0.0
  0
LINE
  8
LC-005-005-----0
 62
     2
  5
41E
 10
14.734622
 20
362.065473
 30
0.0
 11
15.749876
 21
363.080727
 31
0.0
  0
LINE
  8
LC-005-005-----0
 62
     2
  5
41F
 10
14.734622
 20
362.631159
 30
0.0
 11
15.18419
 21
363.080727
 31
0.0
  0
ENDBLK
  8
0
  5
420
  0
BLOCK
  8
0
  5
423
  2
*X17
 70
    65
 10
0.0
 20
0.0
 30
0.0
  3
*X17
  0
LINE
  8
LC-005-005-----0
 62
     2
  5
424
 10
44.425316
 20
358.380727
 30
0.0
 11
44.734622
 21
358.690033
 31
0.0
  0
LINE
  8
LC-005-005-----0
 62
     2
  5
425
 10
43.85963
 20
358.380727
 30
0.0
 11
44.734622
 21
359.255718
 31
0.0
  0
LINE
  8
LC-005-005-----0
 62
     2
  5
426
 10
43.293945
 20
358.380727
 30
0.0
 11
44.734622
 21
359.821404
 31
0.0
  0
LINE
  8
LC-005-005-----0
 62
     2
  5
427
 10
42.728259
 20
358.380727
 30
0.0
 11
44.734622
 21
360.387089
 31
0.0
  0
LINE
  8
LC-005-005-----0
 62
     2
  5
428
 10
42.162574
 20
358.380727
 30
0.0
 11
44.734622
 21
360.952775
 31
0.0
  0
LINE
  8
LC-005-005-----0
 62
     2
  5
429
 10
41.596889
 20
358.380727
 30
0.0
 11
44.734622
 21
361.51846
 31
0.0
  0
LINE
  8
LC-005-005-----0
 62
     2
  5
42A
 10
41.031203
 20
358.380727
 30
0.0
 11
44.734622
 21
362.084146
 31
0.0
  0
LINE
  8
LC-005-005-----0
 62
     2
  5
42B
 10
40.465518
 20
358.380727
 30
0.0
 11
44.734622
 21
362.649831
 31
0.0
  0
LINE
  8
LC-005-005-----0
 62
     2
  5
42C
 10
39.899832
 20
358.380727
 30
0.0
 11
44.599832
 21
363.080727
 31
0.0
  0
LINE
  8
LC-005-005-----0
 62
     2
  5
42D
 10
39.334147
 20
358.380727
 30
0.0
 11
44.034147
 21
363.080727
 31
0.0
  0
LINE
  8
LC-005-005-----0
 62
     2
  5
42E
 10
38.768461
 20
358.380727
 30
0.0
 11
43.468461
 21
363.080727
 31
0.0
  0
LINE
  8
LC-005-005-----0
 62
     2
  5
42F
 10
38.202776
 20
358.380727
 30
0.0
 11
42.902776
 21
363.080727
 31
0.0
  0
LINE
  8
LC-005-005-----0
 62
     2
  5
430
 10
37.637091
 20
358.380727
 30
0.0
 11
42.337091
 21
363.080727
 31
0.0
  0
LINE
  8
LC-005-005-----0
 62
     2
  5
431
 10
37.071405
 20
358.380727
 30
0.0
 11
41.771405
 21
363.080727
 31
0.0
  0
LINE
  8
LC-005-005-----0
 62
     2
  5
432
 10
36.50572
 20
358.380727
 30
0.0
 11
41.20572
 21
363.080727
 31
0.0
  0
LINE
  8
LC-005-005-----0
 62
     2
  5
433
 10
35.940034
 20
358.380727
 30
0.0
 11
40.640034
 21
363.080727
 31
0.0
  0
LINE
  8
LC-005-005-----0
 62
     2
  5
434
 10
35.374349
 20
358.380727
 30
0.0
 11
40.074349
 21
363.080727
 31
0.0
  0
LINE
  8
LC-005-005-----0
 62
     2
  5
435
 10
34.808664
 20
358.380727
 30
0.0
 11
39.508664
 21
363.080727
 31
0.0
  0
LINE
  8
LC-005-005-----0
 62
     2
  5
436
 10
34.734622
 20
358.872371
 30
0.0
 11
38.942978
 21
363.080727
 31
0.0
  0
LINE
  8
LC-005-005-----0
 62
     2
  5
437
 10
34.734622
 20
359.438056
 30
0.0
 11
38.377293
 21
363.080727
 31
0.0
  0
LINE
  8
LC-005-005-----0
 62
     2
  5
438
 10
34.734622
 20
360.003742
 30
0.0
 11
37.811607
 21
363.080727
 31
0.0
  0
LINE
  8
LC-005-005-----0
 62
     2
  5
439
 10
34.734622
 20
360.569427
 30
0.0
 11
37.245922
 21
363.080727
 31
0.0
  0
LINE
  8
LC-005-005-----0
 62
     2
  5
43A
 10
34.734622
 20
361.135112
 30
0.0
 11
36.680236
 21
363.080727
 31
0.0
  0
LINE
  8
LC-005-005-----0
 62
     2
  5
43B
 10
34.734622
 20
361.700798
 30
0.0
 11
36.114551
 21
363.080727
 31
0.0
  0
LINE
  8
LC-005-005-----0
 62
     2
  5
43C
 10
34.734622
 20
362.266483
 30
0.0
 11
35.548866
 21
363.080727
 31
0.0
  0
LINE
  8
LC-005-005-----0
 62
     2
  5
43D
 10
34.734622
 20
362.832169
 30
0.0
 11
34.98318
 21
363.080727
 31
0.0
  0
ENDBLK
  8
0
  5
43E
  0
BLOCK
  8
0
  5
441
  2
*X18
 70
    65
 10
0.0
 20
0.0
 30
0.0
  3
*X18
  0
LINE
  8
LC-005-005-----0
 62
     2
  5
442
 10
64.224306
 20
358.380727
 30
0.0
 11
64.734622
 21
358.891043
 31
0.0
  0
LINE
  8
LC-005-005-----0
 62
     2
  5
443
 10
63.65862
 20
358.380727
 30
0.0
 11
64.734622
 21
359.456729
 31
0.0
  0
LINE
  8
LC-005-005-----0
 62
     2
  5
444
 10
63.092935
 20
358.380727
 30
0.0
 11
64.734622
 21
360.022414
 31
0.0
  0
LINE
  8
LC-005-005-----0
 62
     2
  5
445
 10
62.527249
 20
358.380727
 30
0.0
 11
64.734622
 21
360.588099
 31
0.0
  0
LINE
  8
LC-005-005-----0
 62
     2
  5
446
 10
61.961564
 20
358.380727
 30
0.0
 11
64.734622
 21
361.153785
 31
0.0
  0
LINE
  8
LC-005-005-----0
 62
     2
  5
447
 10
61.395878
 20
358.380727
 30
0.0
 11
64.734622
 21
361.71947
 31
0.0
  0
LINE
  8
LC-005-005-----0
 62
     2
  5
448
 10
60.830193
 20
358.380727
 30
0.0
 11
64.734622
 21
362.285156
 31
0.0
  0
LINE
  8
LC-005-005-----0
 62
     2
  5
449
 10
60.264508
 20
358.380727
 30
0.0
 11
64.734622
 21
362.850841
 31
0.0
  0
LINE
  8
LC-005-005-----0
 62
     2
  5
44A
 10
59.698822
 20
358.380727
 30
0.0
 11
64.398822
 21
363.080727
 31
0.0
  0
LINE
  8
LC-005-005-----0
 62
     2
  5
44B
 10
59.133137
 20
358.380727
 30
0.0
 11
63.833137
 21
363.080727
 31
0.0
  0
LINE
  8
LC-005-005-----0
 62
     2
  5
44C
 10
58.567451
 20
358.380727
 30
0.0
 11
63.267451
 21
363.080727
 31
0.0
  0
LINE
  8
LC-005-005-----0
 62
     2
  5
44D
 10
58.001766
 20
358.380727
 30
0.0
 11
62.701766
 21
363.080727
 31
0.0
  0
LINE
  8
LC-005-005-----0
 62
     2
  5
44E
 10
57.436081
 20
358.380727
 30
0.0
 11
62.136081
 21
363.080727
 31
0.0
  0
LINE
  8
LC-005-005-----0
 62
     2
  5
44F
 10
56.870395
 20
358.380727
 30
0.0
 11
61.570395
 21
363.080727
 31
0.0
  0
LINE
  8
LC-005-005-----0
 62
     2
  5
450
 10
56.30471
 20
358.380727
 30
0.0
 11
61.00471
 21
363.080727
 31
0.0
  0
LINE
  8
LC-005-005-----0
 62
     2
  5
451
 10
55.739024
 20
358.380727
 30
0.0
 11
60.439024
 21
363.080727
 31
0.0
  0
LINE
  8
LC-005-005-----0
 62
     2
  5
452
 10
55.173339
 20
358.380727
 30
0.0
 11
59.873339
 21
363.080727
 31
0.0
  0
LINE
  8
LC-005-005-----0
 62
     2
  5
453
 10
54.734622
 20
358.507695
 30
0.0
 11
59.307653
 21
363.080727
 31
0.0
  0
LINE
  8
LC-005-005-----0
 62
     2
  5
454
 10
54.734622
 20
359.073381
 30
0.0
 11
58.741968
 21
363.080727
 31
0.0
  0
LINE
  8
LC-005-005-----0
 62
     2
  5
455
 10
54.734622
 20
359.639066
 30
0.0
 11
58.176283
 21
363.080727
 31
0.0
  0
LINE
  8
LC-005-005-----0
 62
     2
  5
456
 10
54.734622
 20
360.204752
 30
0.0
 11
57.610597
 21
363.080727
 31
0.0
  0
LINE
  8
LC-005-005-----0
 62
     2
  5
457
 10
54.734622
 20
360.770437
 30
0.0
 11
57.044912
 21
363.080727
 31
0.0
  0
LINE
  8
LC-005-005-----0
 62
     2
  5
458
 10
54.734622
 20
361.336122
 30
0.0
 11
56.479226
 21
363.080727
 31
0.0
  0
LINE
  8
LC-005-005-----0
 62
     2
  5
459
 10
54.734622
 20
361.901808
 30
0.0
 11
55.913541
 21
363.080727
 31
0.0
  0
LINE
  8
LC-005-005-----0
 62
     2
  5
45A
 10
54.734622
 20
362.467493
 30
0.0
 11
55.347855
 21
363.080727
 31
0.0
  0
LINE
  8
LC-005-005-----0
 62
     2
  5
45B
 10
54.734622
 20
363.033179
 30
0.0
 11
54.78217
 21
363.080727
 31
0.0
  0
ENDBLK
  8
0
  5
45C
  0
BLOCK
  8
0
  5
46D
  2
*X19
 70
    65
 10
0.0
 20
0.0
 30
0.0
  3
*X19
  0
LINE
  8
LC-005-005-----0
 62
     2
  5
46E
 10
155.206584
 20
336.22592
 30
0.0
 11
156.04423
 21
337.063565
 31
0.0
  0
LINE
  8
LC-005-005-----0
 62
     2
  5
46F
 10
152.378157
 20
336.22592
 30
0.0
 11
154.878157
 21
338.72592
 31
0.0
  0
LINE
  8
LC-005-005-----0
 62
     2
  5
470
 10
149.549729
 20
336.22592
 30
0.0
 11
152.049729
 21
338.72592
 31
0.0
  0
LINE
  8
LC-005-005-----0
 62
     2
  5
471
 10
147.882766
 20
337.387383
 30
0.0
 11
149.221302
 21
338.72592
 31
0.0
  0
LINE
  8
LC-005-005-----0
 62
     2
  5
472
 10
146.468552
 20
338.801597
 30
0.0
 11
148.54423
 21
340.877274
 31
0.0
  0
LINE
  8
LC-005-005-----0
 62
     2
  5
473
 10
146.04423
 20
341.205701
 30
0.0
 11
148.54423
 21
343.705701
 31
0.0
  0
LINE
  8
LC-005-005-----0
 62
     2
  5
474
 10
146.04423
 20
344.034128
 30
0.0
 11
148.54423
 21
346.534128
 31
0.0
  0
LINE
  8
LC-005-005-----0
 62
     2
  5
475
 10
146.04423
 20
346.862555
 30
0.0
 11
148.54423
 21
349.362555
 31
0.0
  0
LINE
  8
LC-005-005-----0
 62
     2
  5
476
 10
146.04423
 20
349.690982
 30
0.0
 11
148.54423
 21
352.190982
 31
0.0
  0
LINE
  8
LC-005-005-----0
 62
     2
  5
477
 10
146.04423
 20
352.51941
 30
0.0
 11
148.54423
 21
355.01941
 31
0.0
  0
LINE
  8
LC-005-005-----0
 62
     2
  5
478
 10
146.04423
 20
355.347837
 30
0.0
 11
146.921957
 21
356.225564
 31
0.0
  0
ENDBLK
  8
0
  5
479
  0
BLOCK
  8
0
  5
488
  2
*X20
 70
    65
 10
0.0
 20
0.0
 30
0.0
  3
*X20
  0
LINE
  8
LC-005-005-----0
 62
     2
  5
489
 10
84.404249
 20
358.195995
 30
0.0
 11
84.588656
 21
358.380402
 31
0.0
  0
LINE
  8
LC-005-005-----0
 62
     2
  5
48A
 10
83.848269
 20
358.2057
 30
0.0
 11
84.598705
 21
358.956136
 31
0.0
  0
LINE
  8
LC-005-005-----0
 62
     2
  5
48B
 10
83.292288
 20
358.215404
 30
0.0
 11
84.608755
 21
359.531871
 31
0.0
  0
LINE
  8
LC-005-005-----0
 62
     2
  5
48C
 10
82.736307
 20
358.225109
 30
0.0
 11
84.618804
 21
360.107606
 31
0.0
  0
LINE
  8
LC-005-005-----0
 62
     2
  5
48D
 10
82.180326
 20
358.234814
 30
0.0
 11
84.628854
 21
360.683341
 31
0.0
  0
LINE
  8
LC-005-005-----0
 62
     2
  5
48E
 10
81.624346
 20
358.244518
 30
0.0
 11
84.638903
 21
361.259076
 31
0.0
  0
LINE
  8
LC-005-005-----0
 62
     2
  5
48F
 10
81.068365
 20
358.254223
 30
0.0
 11
84.648953
 21
361.834811
 31
0.0
  0
LINE
  8
LC-005-005-----0
 62
     2
  5
490
 10
80.512384
 20
358.263928
 30
0.0
 11
84.659002
 21
362.410546
 31
0.0
  0
LINE
  8
LC-005-005-----0
 62
     2
  5
491
 10
79.956403
 20
358.273632
 30
0.0
 11
84.576476
 21
362.893705
 31
0.0
  0
LINE
  8
LC-005-005-----0
 62
     2
  5
492
 10
79.400423
 20
358.283337
 30
0.0
 11
84.020495
 21
362.903409
 31
0.0
  0
LINE
  8
LC-005-005-----0
 62
     2
  5
493
 10
78.844442
 20
358.293042
 30
0.0
 11
83.464514
 21
362.913114
 31
0.0
  0
LINE
  8
LC-005-005-----0
 62
     2
  5
494
 10
78.288461
 20
358.302747
 30
0.0
 11
82.908533
 21
362.922819
 31
0.0
  0
LINE
  8
LC-005-005-----0
 62
     2
  5
495
 10
77.73248
 20
358.312451
 30
0.0
 11
82.352553
 21
362.932523
 31
0.0
  0
LINE
  8
LC-005-005-----0
 62
     2
  5
496
 10
77.1765
 20
358.322156
 30
0.0
 11
81.796572
 21
362.942228
 31
0.0
  0
LINE
  8
LC-005-005-----0
 62
     2
  5
497
 10
76.620519
 20
358.331861
 30
0.0
 11
81.240591
 21
362.951933
 31
0.0
  0
LINE
  8
LC-005-005-----0
 62
     2
  5
498
 10
76.064538
 20
358.341565
 30
0.0
 11
80.68461
 21
362.961638
 31
0.0
  0
LINE
  8
LC-005-005-----0
 62
     2
  5
499
 10
75.508557
 20
358.35127
 30
0.0
 11
80.12863
 21
362.971342
 31
0.0
  0
LINE
  8
LC-005-005-----0
 62
     2
  5
49A
 10
74.952577
 20
358.360975
 30
0.0
 11
79.572649
 21
362.981047
 31
0.0
  0
LINE
  8
LC-005-005-----0
 62
     2
  5
49B
 10
74.581082
 20
358.555165
 30
0.0
 11
79.016668
 21
362.990752
 31
0.0
  0
LINE
  8
LC-005-005-----0
 62
     2
  5
49C
 10
74.591132
 20
359.1309
 30
0.0
 11
78.460687
 21
363.000456
 31
0.0
  0
LINE
  8
LC-005-005-----0
 62
     2
  5
49D
 10
74.601181
 20
359.706635
 30
0.0
 11
77.904707
 21
363.010161
 31
0.0
  0
LINE
  8
LC-005-005-----0
 62
     2
  5
49E
 10
74.611231
 20
360.28237
 30
0.0
 11
77.348726
 21
363.019866
 31
0.0
  0
LINE
  8
LC-005-005-----0
 62
     2
  5
49F
 10
74.62128
 20
360.858105
 30
0.0
 11
76.792745
 21
363.02957
 31
0.0
  0
LINE
  8
LC-005-005-----0
 62
     2
  5
4A0
 10
74.631329
 20
361.43384
 30
0.0
 11
76.236764
 21
363.039275
 31
0.0
  0
LINE
  8
LC-005-005-----0
 62
     2
  5
4A1
 10
74.641379
 20
362.009575
 30
0.0
 11
75.680784
 21
363.04898
 31
0.0
  0
LINE
  8
LC-005-005-----0
 62
     2
  5
4A2
 10
74.651428
 20
362.58531
 30
0.0
 11
75.124803
 21
363.058684
 31
0.0
  0
ENDBLK
  8
0
  5
4A3
  0
BLOCK
  8
0
  5
4A8
  2
*X21
 70
    65
 10
0.0
 20
0.0
 30
0.0
  3
*X21
  0
LINE
  8
LC-005-005-----0
 62
     2
  5
4A9
 10
104.419556
 20
357.846627
 30
0.0
 11
104.608632
 21
358.035702
 31
0.0
  0
LINE
  8
LC-005-005-----0
 62
     2
  5
4AA
 10
103.863575
 20
357.856331
 30
0.0
 11
104.618682
 21
358.611437
 31
0.0
  0
LINE
  8
LC-005-005-----0
 62
     2
  5
4AB
 10
103.307595
 20
357.866036
 30
0.0
 11
104.628731
 21
359.187172
 31
0.0
  0
LINE
  8
LC-005-005-----0
 62
     2
  5
4AC
 10
102.751614
 20
357.875741
 30
0.0
 11
104.638781
 21
359.762907
 31
0.0
  0
LINE
  8
LC-005-005-----0
 62
     2
  5
4AD
 10
102.195633
 20
357.885445
 30
0.0
 11
104.64883
 21
360.338642
 31
0.0
  0
LINE
  8
LC-005-005-----0
 62
     2
  5
4AE
 10
101.639652
 20
357.89515
 30
0.0
 11
104.65888
 21
360.914377
 31
0.0
  0
LINE
  8
LC-005-005-----0
 62
     2
  5
4AF
 10
101.083672
 20
357.904855
 30
0.0
 11
104.668929
 21
361.490112
 31
0.0
  0
LINE
  8
LC-005-005-----0
 62
     2
  5
4B0
 10
100.527691
 20
357.914559
 30
0.0
 11
104.678978
 21
362.065847
 31
0.0
  0
LINE
  8
LC-005-005-----0
 62
     2
  5
4B1
 10
99.97171
 20
357.924264
 30
0.0
 11
104.591782
 21
362.544336
 31
0.0
  0
LINE
  8
LC-005-005-----0
 62
     2
  5
4B2
 10
99.415729
 20
357.933969
 30
0.0
 11
104.035802
 21
362.554041
 31
0.0
  0
LINE
  8
LC-005-005-----0
 62
     2
  5
4B3
 10
98.859749
 20
357.943673
 30
0.0
 11
103.479821
 21
362.563746
 31
0.0
  0
LINE
  8
LC-005-005-----0
 62
     2
  5
4B4
 10
98.303768
 20
357.953378
 30
0.0
 11
102.92384
 21
362.57345
 31
0.0
  0
LINE
  8
LC-005-005-----0
 62
     2
  5
4B5
 10
97.747787
 20
357.963083
 30
0.0
 11
102.36786
 21
362.583155
 31
0.0
  0
LINE
  8
LC-005-005-----0
 62
     2
  5
4B6
 10
97.191806
 20
357.972787
 30
0.0
 11
101.811879
 21
362.59286
 31
0.0
  0
LINE
  8
LC-005-005-----0
 62
     2
  5
4B7
 10
96.635826
 20
357.982492
 30
0.0
 11
101.255898
 21
362.602564
 31
0.0
  0
LINE
  8
LC-005-005-----0
 62
     2
  5
4B8
 10
96.079845
 20
357.992197
 30
0.0
 11
100.699917
 21
362.612269
 31
0.0
  0
LINE
  8
LC-005-005-----0
 62
     2
  5
4B9
 10
95.523864
 20
358.001901
 30
0.0
 11
100.143937
 21
362.621974
 31
0.0
  0
LINE
  8
LC-005-005-----0
 62
     2
  5
4BA
 10
94.967884
 20
358.011606
 30
0.0
 11
99.587956
 21
362.631678
 31
0.0
  0
LINE
  8
LC-005-005-----0
 62
     2
  5
4BB
 10
94.601058
 20
358.210466
 30
0.0
 11
99.031975
 21
362.641383
 31
0.0
  0
LINE
  8
LC-005-005-----0
 62
     2
  5
4BC
 10
94.611108
 20
358.786201
 30
0.0
 11
98.475994
 21
362.651088
 31
0.0
  0
LINE
  8
LC-005-005-----0
 62
     2
  5
4BD
 10
94.621157
 20
359.361936
 30
0.0
 11
97.920014
 21
362.660792
 31
0.0
  0
LINE
  8
LC-005-005-----0
 62
     2
  5
4BE
 10
94.631207
 20
359.937671
 30
0.0
 11
97.364033
 21
362.670497
 31
0.0
  0
LINE
  8
LC-005-005-----0
 62
     2
  5
4BF
 10
94.641256
 20
360.513406
 30
0.0
 11
96.808052
 21
362.680202
 31
0.0
  0
LINE
  8
LC-005-005-----0
 62
     2
  5
4C0
 10
94.651306
 20
361.089141
 30
0.0
 11
96.252071
 21
362.689906
 31
0.0
  0
LINE
  8
LC-005-005-----0
 62
     2
  5
4C1
 10
94.661355
 20
361.664876
 30
0.0
 11
95.696091
 21
362.699611
 31
0.0
  0
LINE
  8
LC-005-005-----0
 62
     2
  5
4C2
 10
94.671405
 20
362.240611
 30
0.0
 11
95.14011
 21
362.709316
 31
0.0
  0
ENDBLK
  8
0
  5
4C3
  0
BLOCK
  8
0
  5
4C8
  2
*X22
 70
    65
 10
0.0
 20
0.0
 30
0.0
  3
*X22
  0
LINE
  8
LC-005-005-----0
 62
     2
  5
4C9
 10
124.528244
 20
355.327897
 30
0.0
 11
124.734622
 21
355.534276
 31
0.0
  0
LINE
  8
LC-005-005-----0
 62
     2
  5
4CA
 10
123.999529
 20
355.364868
 30
0.0
 11
124.734622
 21
356.099961
 31
0.0
  0
LINE
  8
LC-005-005-----0
 62
     2
  5
4CB
 10
123.470815
 20
355.40184
 30
0.0
 11
124.734622
 21
356.665646
 31
0.0
  0
LINE
  8
LC-005-005-----0
 62
     2
  5
4CC
 10
122.942101
 20
355.438811
 30
0.0
 11
124.734622
 21
357.231332
 31
0.0
  0
LINE
  8
LC-005-005-----0
 62
     2
  5
4CD
 10
122.413387
 20
355.475782
 30
0.0
 11
124.734622
 21
357.797017
 31
0.0
  0
LINE
  8
LC-005-005-----0
 62
     2
  5
4CE
 10
121.884673
 20
355.512753
 30
0.0
 11
124.734622
 21
358.362703
 31
0.0
  0
LINE
  8
LC-005-005-----0
 62
     2
  5
4CF
 10
121.355959
 20
355.549725
 30
0.0
 11
124.734622
 21
358.928388
 31
0.0
  0
LINE
  8
LC-005-005-----0
 62
     2
  5
4D0
 10
120.827244
 20
355.586696
 30
0.0
 11
124.734622
 21
359.494074
 31
0.0
  0
LINE
  8
LC-005-005-----0
 62
     2
  5
4D1
 10
120.29853
 20
355.623667
 30
0.0
 11
124.702081
 21
360.027218
 31
0.0
  0
LINE
  8
LC-005-005-----0
 62
     2
  5
4D2
 10
119.769816
 20
355.660638
 30
0.0
 11
124.173367
 21
360.064189
 31
0.0
  0
LINE
  8
LC-005-005-----0
 62
     2
  5
4D3
 10
119.241102
 20
355.69761
 30
0.0
 11
123.644653
 21
360.101161
 31
0.0
  0
LINE
  8
LC-005-005-----0
 62
     2
  5
4D4
 10
118.712388
 20
355.734581
 30
0.0
 11
123.115939
 21
360.138132
 31
0.0
  0
LINE
  8
LC-005-005-----0
 62
     2
  5
4D5
 10
118.183674
 20
355.771552
 30
0.0
 11
122.587225
 21
360.175103
 31
0.0
  0
LINE
  8
LC-005-005-----0
 62
     2
  5
4D6
 10
117.65496
 20
355.808523
 30
0.0
 11
122.05851
 21
360.212074
 31
0.0
  0
LINE
  8
LC-005-005-----0
 62
     2
  5
4D7
 10
117.126245
 20
355.845495
 30
0.0
 11
121.529796
 21
360.249046
 31
0.0
  0
LINE
  8
LC-005-005-----0
 62
     2
  5
4D8
 10
116.622174
 20
355.907108
 30
0.0
 11
121.001082
 21
360.286017
 31
0.0
  0
LINE
  8
LC-005-005-----0
 62
     2
  5
4D9
 10
116.20536
 20
356.055981
 30
0.0
 11
120.472368
 21
360.322988
 31
0.0
  0
LINE
  8
LC-005-005-----0
 62
     2
  5
4DA
 10
115.856703
 20
356.273009
 30
0.0
 11
119.943654
 21
360.359959
 31
0.0
  0
LINE
  8
LC-005-005-----0
 62
     2
  5
4DB
 10
115.56269
 20
356.544681
 30
0.0
 11
119.41494
 21
360.396931
 31
0.0
  0
LINE
  8
LC-005-005-----0
 62
     2
  5
4DC
 10
115.279847
 20
356.827524
 30
0.0
 11
118.886225
 21
360.433902
 31
0.0
  0
LINE
  8
LC-005-005-----0
 62
     2
  5
4DD
 10
114.997005
 20
357.110367
 30
0.0
 11
118.357511
 21
360.470873
 31
0.0
  0
LINE
  8
LC-005-005-----0
 62
     2
  5
4DE
 10
114.734622
 20
357.413669
 30
0.0
 11
118.037564
 21
360.716611
 31
0.0
  0
LINE
  8
LC-005-005-----0
 62
     2
  5
4DF
 10
114.734622
 20
357.979355
 30
0.0
 11
117.754721
 21
360.999454
 31
0.0
  0
LINE
  8
LC-005-005-----0
 62
     2
  5
4E0
 10
114.734622
 20
358.54504
 30
0.0
 11
117.471878
 21
361.282297
 31
0.0
  0
LINE
  8
LC-005-005-----0
 62
     2
  5
4E1
 10
114.734622
 20
359.110726
 30
0.0
 11
117.189036
 21
361.565139
 31
0.0
  0
LINE
  8
LC-005-005-----0
 62
     2
  5
4E2
 10
114.734622
 20
359.676411
 30
0.0
 11
116.906193
 21
361.847982
 31
0.0
  0
LINE
  8
LC-005-005-----0
 62
     2
  5
4E3
 10
114.734622
 20
360.242097
 30
0.0
 11
116.62335
 21
362.130825
 31
0.0
  0
LINE
  8
LC-005-005-----0
 62
     2
  5
4E4
 10
114.734622
 20
360.807782
 30
0.0
 11
116.267378
 21
362.340538
 31
0.0
  0
LINE
  8
LC-005-005-----0
 62
     2
  5
4E5
 10
114.734622
 20
361.373467
 30
0.0
 11
115.711397
 21
362.350243
 31
0.0
  0
LINE
  8
LC-005-005-----0
 62
     2
  5
4E6
 10
114.734622
 20
361.939153
 30
0.0
 11
115.155417
 21
362.359947
 31
0.0
  0
ENDBLK
  8
0
  5
4E7
  0
BLOCK
  8
0
  5
515
  2
*X23
 70
    65
 10
0.0
 20
0.0
 30
0.0
  3
*X23
  0
LINE
  8
LC-005-005-----0
 62
     2
  5
516
 10
310.544006
 20
338.828277
 30
0.0
 11
311.571365
 21
339.855636
 31
0.0
  0
LINE
  8
LC-005-005-----0
 62
     2
  5
517
 10
309.314753
 20
340.427451
 30
0.0
 11
311.571365
 21
342.684064
 31
0.0
  0
LINE
  8
LC-005-005-----0
 62
     2
  5
518
 10
314.686113
 20
345.798812
 30
0.0
 11
316.43069
 21
347.543389
 31
0.0
  0
LINE
  8
LC-005-005-----0
 62
     2
  5
519
 10
308.384511
 20
342.325637
 30
0.0
 11
311.571365
 21
345.512491
 31
0.0
  0
LINE
  8
LC-005-005-----0
 62
     2
  5
51A
 10
313.289308
 20
347.230434
 30
0.0
 11
316.43069
 21
350.371816
 31
0.0
  0
LINE
  8
LC-005-005-----0
 62
     2
  5
51B
 10
304.377872
 20
341.147425
 30
0.0
 11
311.571365
 21
348.340918
 31
0.0
  0
LINE
  8
LC-005-005-----0
 62
     2
  5
51C
 10
313.289308
 20
350.058861
 30
0.0
 11
316.43069
 21
353.200243
 31
0.0
  0
LINE
  8
LC-005-005-----0
 62
     2
  5
51D
 10
309.206694
 20
348.804674
 30
0.0
 11
311.571365
 21
351.169345
 31
0.0
  0
LINE
  8
LC-005-005-----0
 62
     2
  5
51E
 10
312.082716
 20
351.680696
 30
0.0
 11
314.831792
 21
354.429772
 31
0.0
  0
LINE
  8
LC-005-005-----0
 62
     2
  5
51F
 10
306.209596
 20
348.636003
 30
0.0
 11
311.790783
 21
354.21719
 31
0.0
  0
ENDBLK
  8
0
  5
520
  0
BLOCK
  8
0
  5
544
  2
*X24
 70
    65
 10
0.0
 20
0.0
 30
0.0
  3
*X24
  0
LINE
  8
LC-005-005-----0
 62
     2
  5
545
 10
298.51285
 20
329.625549
 30
0.0
 11
299.212853
 21
330.325551
 31
0.0
  0
LINE
  8
LC-005-005-----0
 62
     2
  5
546
 10
300.699463
 20
331.812161
 30
0.0
 11
301.202515
 21
332.315213
 31
0.0
  0
LINE
  8
LC-005-005-----0
 62
     2
  5
547
 10
329.696011
 20
360.808709
 30
0.0
 11
331.702341
 21
362.815039
 31
0.0
  0
LINE
  8
LC-005-005-----0
 62
     2
  5
548
 10
299.288879
 20
333.230004
 30
0.0
 11
299.988876
 21
333.930001
 31
0.0
  0
LINE
  8
LC-005-005-----0
 62
     2
  5
549
 10
302.073768
 20
336.014894
 30
0.0
 11
303.299518
 21
337.240643
 31
0.0
  0
LINE
  8
LC-005-005-----0
 62
     2
  5
54A
 10
326.215664
 20
360.156789
 30
0.0
 11
326.958758
 21
360.899884
 31
0.0
  0
LINE
  8
LC-005-005-----0
 62
     2
  5
54B
 10
303.088852
 20
339.858405
 30
0.0
 11
303.788849
 21
340.558402
 31
0.0
  0
LINE
  8
LC-005-005-----0
 62
     2
  5
54C
 10
323.17457
 20
359.944123
 30
0.0
 11
323.917665
 21
360.687218
 31
0.0
  0
LINE
  8
LC-005-005-----0
 62
     2
  5
54D
 10
303.088841
 20
342.686821
 30
0.0
 11
303.788838
 21
343.386818
 31
0.0
  0
LINE
  8
LC-005-005-----0
 62
     2
  5
54E
 10
320.133477
 20
359.731457
 30
0.0
 11
320.876572
 21
360.474551
 31
0.0
  0
LINE
  8
LC-005-005-----0
 62
     2
  5
54F
 10
303.08883
 20
345.515236
 30
0.0
 11
303.788827
 21
346.215234
 31
0.0
  0
LINE
  8
LC-005-005-----0
 62
     2
  5
550
 10
317.092384
 20
359.518791
 30
0.0
 11
317.835478
 21
360.261885
 31
0.0
  0
LINE
  8
LC-005-005-----0
 62
     2
  5
551
 10
303.088818
 20
348.343652
 30
0.0
 11
303.788815
 21
349.043649
 31
0.0
  0
LINE
  8
LC-005-005-----0
 62
     2
  5
552
 10
314.05129
 20
359.306124
 30
0.0
 11
314.794385
 21
360.049219
 31
0.0
  0
LINE
  8
LC-005-005-----0
 62
     2
  5
553
 10
303.088807
 20
351.172068
 30
0.0
 11
303.788804
 21
351.872065
 31
0.0
  0
LINE
  8
LC-005-005-----0
 62
     2
  5
554
 10
311.010197
 20
359.093458
 30
0.0
 11
311.753292
 21
359.836553
 31
0.0
  0
LINE
  8
LC-005-005-----0
 62
     2
  5
555
 10
303.240426
 20
354.152114
 30
0.0
 11
304.309213
 21
355.220901
 31
0.0
  0
LINE
  8
LC-005-005-----0
 62
     2
  5
556
 10
307.581538
 20
358.493226
 30
0.0
 11
308.639745
 21
359.551433
 31
0.0
  0
ENDBLK
  8
0
  5
557
  0
BLOCK
  8
0
  5
55A
  2
*X25
 70
    65
 10
0.0
 20
0.0
 30
0.0
  3
*X25
  0
LINE
  8
LC-005-005-----0
 62
     2
  5
55B
 10
473.781551
 20
358.381724
 30
0.0
 11
474.335989
 21
358.936162
 31
0.0
  0
LINE
  8
LC-005-005-----0
 62
     2
  5
55C
 10
473.215863
 20
358.381722
 30
0.0
 11
474.335986
 21
359.501845
 31
0.0
  0
LINE
  8
LC-005-005-----0
 62
     2
  5
55D
 10
472.650175
 20
358.381719
 30
0.0
 11
474.335984
 21
360.067528
 31
0.0
  0
LINE
  8
LC-005-005-----0
 62
     2
  5
55E
 10
472.084488
 20
358.381717
 30
0.0
 11
474.335982
 21
360.633212
 31
0.0
  0
LINE
  8
LC-005-005-----0
 62
     2
  5
55F
 10
471.5188
 20
358.381715
 30
0.0
 11
474.33598
 21
361.198895
 31
0.0
  0
LINE
  8
LC-005-005-----0
 62
     2
  5
560
 10
470.953112
 20
358.381713
 30
0.0
 11
474.335977
 21
361.764578
 31
0.0
  0
LINE
  8
LC-005-005-----0
 62
     2
  5
561
 10
470.387425
 20
358.38171
 30
0.0
 11
474.335975
 21
362.330261
 31
0.0
  0
LINE
  8
LC-005-005-----0
 62
     2
  5
562
 10
469.821737
 20
358.381708
 30
0.0
 11
474.335973
 21
362.895944
 31
0.0
  0
LINE
  8
LC-005-005-----0
 62
     2
  5
563
 10
469.256049
 20
358.381706
 30
0.0
 11
473.956068
 21
363.081725
 31
0.0
  0
LINE
  8
LC-005-005-----0
 62
     2
  5
564
 10
468.690361
 20
358.381704
 30
0.0
 11
473.39038
 21
363.081722
 31
0.0
  0
LINE
  8
LC-005-005-----0
 62
     2
  5
565
 10
468.124674
 20
358.381701
 30
0.0
 11
472.824693
 21
363.08172
 31
0.0
  0
LINE
  8
LC-005-005-----0
 62
     2
  5
566
 10
467.558986
 20
358.381699
 30
0.0
 11
472.259005
 21
363.081718
 31
0.0
  0
LINE
  8
LC-005-005-----0
 62
     2
  5
567
 10
466.993298
 20
358.381697
 30
0.0
 11
471.693317
 21
363.081716
 31
0.0
  0
LINE
  8
LC-005-005-----0
 62
     2
  5
568
 10
466.427611
 20
358.381695
 30
0.0
 11
471.12763
 21
363.081713
 31
0.0
  0
LINE
  8
LC-005-005-----0
 62
     2
  5
569
 10
465.861923
 20
358.381692
 30
0.0
 11
470.561942
 21
363.081711
 31
0.0
  0
LINE
  8
LC-005-005-----0
 62
     2
  5
56A
 10
465.296235
 20
358.38169
 30
0.0
 11
469.996254
 21
363.081709
 31
0.0
  0
LINE
  8
LC-005-005-----0
 62
     2
  5
56B
 10
464.730548
 20
358.381688
 30
0.0
 11
469.430566
 21
363.081707
 31
0.0
  0
LINE
  8
LC-005-005-----0
 62
     2
  5
56C
 10
464.33599
 20
358.552816
 30
0.0
 11
468.864879
 21
363.081704
 31
0.0
  0
LINE
  8
LC-005-005-----0
 62
     2
  5
56D
 10
464.335988
 20
359.118499
 30
0.0
 11
468.299191
 21
363.081702
 31
0.0
  0
LINE
  8
LC-005-005-----0
 62
     2
  5
56E
 10
464.335986
 20
359.684182
 30
0.0
 11
467.733503
 21
363.0817
 31
0.0
  0
LINE
  8
LC-005-005-----0
 62
     2
  5
56F
 10
464.335983
 20
360.249865
 30
0.0
 11
467.167816
 21
363.081698
 31
0.0
  0
LINE
  8
LC-005-005-----0
 62
     2
  5
570
 10
464.335981
 20
360.815548
 30
0.0
 11
466.602128
 21
363.081695
 31
0.0
  0
LINE
  8
LC-005-005-----0
 62
     2
  5
571
 10
464.335979
 20
361.381232
 30
0.0
 11
466.03644
 21
363.081693
 31
0.0
  0
LINE
  8
LC-005-005-----0
 62
     2
  5
572
 10
464.335977
 20
361.946915
 30
0.0
 11
465.470753
 21
363.081691
 31
0.0
  0
LINE
  8
LC-005-005-----0
 62
     2
  5
573
 10
464.335974
 20
362.512598
 30
0.0
 11
464.905065
 21
363.081688
 31
0.0
  0
LINE
  8
LC-005-005-----0
 62
     2
  5
574
 10
464.335972
 20
363.078281
 30
0.0
 11
464.339377
 21
363.081686
 31
0.0
  0
ENDBLK
  8
0
  5
575
  0
BLOCK
  8
0
  5
578
  2
*X26
 70
    65
 10
0.0
 20
0.0
 30
0.0
  3
*X26
  0
LINE
  8
LC-005-005-----0
 62
     2
  5
579
 10
453.982482
 20
358.381645
 30
0.0
 11
454.33599
 21
358.735153
 31
0.0
  0
LINE
  8
LC-005-005-----0
 62
     2
  5
57A
 10
453.416794
 20
358.381642
 30
0.0
 11
454.335987
 21
359.300836
 31
0.0
  0
LINE
  8
LC-005-005-----0
 62
     2
  5
57B
 10
452.851106
 20
358.38164
 30
0.0
 11
454.335985
 21
359.866519
 31
0.0
  0
LINE
  8
LC-005-005-----0
 62
     2
  5
57C
 10
452.285419
 20
358.381638
 30
0.0
 11
454.335983
 21
360.432202
 31
0.0
  0
LINE
  8
LC-005-005-----0
 62
     2
  5
57D
 10
451.719731
 20
358.381636
 30
0.0
 11
454.33598
 21
360.997885
 31
0.0
  0
LINE
  8
LC-005-005-----0
 62
     2
  5
57E
 10
451.154043
 20
358.381633
 30
0.0
 11
454.335978
 21
361.563569
 31
0.0
  0
LINE
  8
LC-005-005-----0
 62
     2
  5
57F
 10
450.588355
 20
358.381631
 30
0.0
 11
454.335976
 21
362.129252
 31
0.0
  0
LINE
  8
LC-005-005-----0
 62
     2
  5
580
 10
450.022668
 20
358.381629
 30
0.0
 11
454.335974
 21
362.694935
 31
0.0
  0
LINE
  8
LC-005-005-----0
 62
     2
  5
581
 10
449.45698
 20
358.381627
 30
0.0
 11
454.156999
 21
363.081645
 31
0.0
  0
LINE
  8
LC-005-005-----0
 62
     2
  5
582
 10
448.891292
 20
358.381624
 30
0.0
 11
453.591311
 21
363.081643
 31
0.0
  0
LINE
  8
LC-005-005-----0
 62
     2
  5
583
 10
448.325605
 20
358.381622
 30
0.0
 11
453.025623
 21
363.081641
 31
0.0
  0
LINE
  8
LC-005-005-----0
 62
     2
  5
584
 10
447.759917
 20
358.38162
 30
0.0
 11
452.459936
 21
363.081639
 31
0.0
  0
LINE
  8
LC-005-005-----0
 62
     2
  5
585
 10
447.194229
 20
358.381618
 30
0.0
 11
451.894248
 21
363.081636
 31
0.0
  0
LINE
  8
LC-005-005-----0
 62
     2
  5
586
 10
446.628542
 20
358.381615
 30
0.0
 11
451.32856
 21
363.081634
 31
0.0
  0
LINE
  8
LC-005-005-----0
 62
     2
  5
587
 10
446.062854
 20
358.381613
 30
0.0
 11
450.762873
 21
363.081632
 31
0.0
  0
LINE
  8
LC-005-005-----0
 62
     2
  5
588
 10
445.497166
 20
358.381611
 30
0.0
 11
450.197185
 21
363.08163
 31
0.0
  0
LINE
  8
LC-005-005-----0
 62
     2
  5
589
 10
444.931479
 20
358.381609
 30
0.0
 11
449.631497
 21
363.081627
 31
0.0
  0
LINE
  8
LC-005-005-----0
 62
     2
  5
58A
 10
444.365791
 20
358.381606
 30
0.0
 11
449.06581
 21
363.081625
 31
0.0
  0
LINE
  8
LC-005-005-----0
 62
     2
  5
58B
 10
444.335989
 20
358.91749
 30
0.0
 11
448.500122
 21
363.081623
 31
0.0
  0
LINE
  8
LC-005-005-----0
 62
     2
  5
58C
 10
444.335987
 20
359.483173
 30
0.0
 11
447.934434
 21
363.081621
 31
0.0
  0
LINE
  8
LC-005-005-----0
 62
     2
  5
58D
 10
444.335984
 20
360.048856
 30
0.0
 11
447.368747
 21
363.081618
 31
0.0
  0
LINE
  8
LC-005-005-----0
 62
     2
  5
58E
 10
444.335982
 20
360.614539
 30
0.0
 11
446.803059
 21
363.081616
 31
0.0
  0
LINE
  8
LC-005-005-----0
 62
     2
  5
58F
 10
444.33598
 20
361.180222
 30
0.0
 11
446.237371
 21
363.081614
 31
0.0
  0
LINE
  8
LC-005-005-----0
 62
     2
  5
590
 10
444.335978
 20
361.745905
 30
0.0
 11
445.671684
 21
363.081611
 31
0.0
  0
LINE
  8
LC-005-005-----0
 62
     2
  5
591
 10
444.335975
 20
362.311589
 30
0.0
 11
445.105996
 21
363.081609
 31
0.0
  0
LINE
  8
LC-005-005-----0
 62
     2
  5
592
 10
444.335973
 20
362.877272
 30
0.0
 11
444.540308
 21
363.081607
 31
0.0
  0
ENDBLK
  8
0
  5
593
  0
BLOCK
  8
0
  5
596
  2
*X27
 70
    65
 10
0.0
 20
0.0
 30
0.0
  3
*X27
  0
LINE
  8
LC-005-005-----0
 62
     2
  5
597
 10
434.183412
 20
358.381566
 30
0.0
 11
434.33599
 21
358.534143
 31
0.0
  0
LINE
  8
LC-005-005-----0
 62
     2
  5
598
 10
433.617725
 20
358.381563
 30
0.0
 11
434.335988
 21
359.099827
 31
0.0
  0
LINE
  8
LC-005-005-----0
 62
     2
  5
599
 10
433.052037
 20
358.381561
 30
0.0
 11
434.335986
 21
359.66551
 31
0.0
  0
LINE
  8
LC-005-005-----0
 62
     2
  5
59A
 10
432.486349
 20
358.381559
 30
0.0
 11
434.335984
 21
360.231193
 31
0.0
  0
LINE
  8
LC-005-005-----0
 62
     2
  5
59B
 10
431.920662
 20
358.381556
 30
0.0
 11
434.335981
 21
360.796876
 31
0.0
  0
LINE
  8
LC-005-005-----0
 62
     2
  5
59C
 10
431.354974
 20
358.381554
 30
0.0
 11
434.335979
 21
361.362559
 31
0.0
  0
LINE
  8
LC-005-005-----0
 62
     2
  5
59D
 10
430.789286
 20
358.381552
 30
0.0
 11
434.335977
 21
361.928242
 31
0.0
  0
LINE
  8
LC-005-005-----0
 62
     2
  5
59E
 10
430.223599
 20
358.38155
 30
0.0
 11
434.335975
 21
362.493926
 31
0.0
  0
LINE
  8
LC-005-005-----0
 62
     2
  5
59F
 10
429.657911
 20
358.381547
 30
0.0
 11
434.335972
 21
363.059609
 31
0.0
  0
LINE
  8
LC-005-005-----0
 62
     2
  5
5A0
 10
429.092223
 20
358.381545
 30
0.0
 11
433.792242
 21
363.081564
 31
0.0
  0
LINE
  8
LC-005-005-----0
 62
     2
  5
5A1
 10
428.526536
 20
358.381543
 30
0.0
 11
433.226554
 21
363.081562
 31
0.0
  0
LINE
  8
LC-005-005-----0
 62
     2
  5
5A2
 10
427.960848
 20
358.381541
 30
0.0
 11
432.660867
 21
363.081559
 31
0.0
  0
LINE
  8
LC-005-005-----0
 62
     2
  5
5A3
 10
427.39516
 20
358.381538
 30
0.0
 11
432.095179
 21
363.081557
 31
0.0
  0
LINE
  8
LC-005-005-----0
 62
     2
  5
5A4
 10
426.829473
 20
358.381536
 30
0.0
 11
431.529491
 21
363.081555
 31
0.0
  0
LINE
  8
LC-005-005-----0
 62
     2
  5
5A5
 10
426.263785
 20
358.381534
 30
0.0
 11
430.963804
 21
363.081553
 31
0.0
  0
LINE
  8
LC-005-005-----0
 62
     2
  5
5A6
 10
425.698097
 20
358.381532
 30
0.0
 11
430.398116
 21
363.08155
 31
0.0
  0
LINE
  8
LC-005-005-----0
 62
     2
  5
5A7
 10
425.132409
 20
358.381529
 30
0.0
 11
429.832428
 21
363.081548
 31
0.0
  0
LINE
  8
LC-005-005-----0
 62
     2
  5
5A8
 10
424.566722
 20
358.381527
 30
0.0
 11
429.266741
 21
363.081546
 31
0.0
  0
LINE
  8
LC-005-005-----0
 62
     2
  5
5A9
 10
424.33599
 20
358.71648
 30
0.0
 11
428.701053
 21
363.081544
 31
0.0
  0
LINE
  8
LC-005-005-----0
 62
     2
  5
5AA
 10
424.335987
 20
359.282163
 30
0.0
 11
428.135365
 21
363.081541
 31
0.0
  0
LINE
  8
LC-005-005-----0
 62
     2
  5
5AB
 10
424.335985
 20
359.847847
 30
0.0
 11
427.569678
 21
363.081539
 31
0.0
  0
LINE
  8
LC-005-005-----0
 62
     2
  5
5AC
 10
424.335983
 20
360.41353
 30
0.0
 11
427.00399
 21
363.081537
 31
0.0
  0
LINE
  8
LC-005-005-----0
 62
     2
  5
5AD
 10
424.335981
 20
360.979213
 30
0.0
 11
426.438302
 21
363.081535
 31
0.0
  0
LINE
  8
LC-005-005-----0
 62
     2
  5
5AE
 10
424.335978
 20
361.544896
 30
0.0
 11
425.872614
 21
363.081532
 31
0.0
  0
LINE
  8
LC-005-005-----0
 62
     2
  5
5AF
 10
424.335976
 20
362.110579
 30
0.0
 11
425.306927
 21
363.08153
 31
0.0
  0
LINE
  8
LC-005-005-----0
 62
     2
  5
5B0
 10
424.335974
 20
362.676262
 30
0.0
 11
424.741239
 21
363.081528
 31
0.0
  0
ENDBLK
  8
0
  5
5B1
  0
BLOCK
  8
0
  5
5B4
  2
*X28
 70
    65
 10
0.0
 20
0.0
 30
0.0
  3
*X28
  0
LINE
  8
LC-005-005-----0
 62
     2
  5
5B5
 10
413.818656
 20
358.381484
 30
0.0
 11
414.335989
 21
358.898817
 31
0.0
  0
LINE
  8
LC-005-005-----0
 62
     2
  5
5B6
 10
413.252968
 20
358.381482
 30
0.0
 11
414.335987
 21
359.4645
 31
0.0
  0
LINE
  8
LC-005-005-----0
 62
     2
  5
5B7
 10
412.68728
 20
358.38148
 30
0.0
 11
414.335984
 21
360.030184
 31
0.0
  0
LINE
  8
LC-005-005-----0
 62
     2
  5
5B8
 10
412.121593
 20
358.381477
 30
0.0
 11
414.335982
 21
360.595867
 31
0.0
  0
LINE
  8
LC-005-005-----0
 62
     2
  5
5B9
 10
411.555905
 20
358.381475
 30
0.0
 11
414.33598
 21
361.16155
 31
0.0
  0
LINE
  8
LC-005-005-----0
 62
     2
  5
5BA
 10
410.990217
 20
358.381473
 30
0.0
 11
414.335978
 21
361.727233
 31
0.0
  0
LINE
  8
LC-005-005-----0
 62
     2
  5
5BB
 10
410.42453
 20
358.38147
 30
0.0
 11
414.335975
 21
362.292916
 31
0.0
  0
LINE
  8
LC-005-005-----0
 62
     2
  5
5BC
 10
409.858842
 20
358.381468
 30
0.0
 11
414.335973
 21
362.858599
 31
0.0
  0
LINE
  8
LC-005-005-----0
 62
     2
  5
5BD
 10
409.293154
 20
358.381466
 30
0.0
 11
413.993173
 21
363.081485
 31
0.0
  0
LINE
  8
LC-005-005-----0
 62
     2
  5
5BE
 10
408.727466
 20
358.381464
 30
0.0
 11
413.427485
 21
363.081482
 31
0.0
  0
LINE
  8
LC-005-005-----0
 62
     2
  5
5BF
 10
408.161779
 20
358.381461
 30
0.0
 11
412.861798
 21
363.08148
 31
0.0
  0
LINE
  8
LC-005-005-----0
 62
     2
  5
5C0
 10
407.596091
 20
358.381459
 30
0.0
 11
412.29611
 21
363.081478
 31
0.0
  0
LINE
  8
LC-005-005-----0
 62
     2
  5
5C1
 10
407.030403
 20
358.381457
 30
0.0
 11
411.730422
 21
363.081476
 31
0.0
  0
LINE
  8
LC-005-005-----0
 62
     2
  5
5C2
 10
406.464716
 20
358.381455
 30
0.0
 11
411.164735
 21
363.081473
 31
0.0
  0
LINE
  8
LC-005-005-----0
 62
     2
  5
5C3
 10
405.899028
 20
358.381452
 30
0.0
 11
410.599047
 21
363.081471
 31
0.0
  0
LINE
  8
LC-005-005-----0
 62
     2
  5
5C4
 10
405.33334
 20
358.38145
 30
0.0
 11
410.033359
 21
363.081469
 31
0.0
  0
LINE
  8
LC-005-005-----0
 62
     2
  5
5C5
 10
404.767653
 20
358.381448
 30
0.0
 11
409.467671
 21
363.081467
 31
0.0
  0
LINE
  8
LC-005-005-----0
 62
     2
  5
5C6
 10
404.33599
 20
358.515471
 30
0.0
 11
408.901984
 21
363.081464
 31
0.0
  0
LINE
  8
LC-005-005-----0
 62
     2
  5
5C7
 10
404.335988
 20
359.081154
 30
0.0
 11
408.336296
 21
363.081462
 31
0.0
  0
LINE
  8
LC-005-005-----0
 62
     2
  5
5C8
 10
404.335986
 20
359.646837
 30
0.0
 11
407.770608
 21
363.08146
 31
0.0
  0
LINE
  8
LC-005-005-----0
 62
     2
  5
5C9
 10
404.335984
 20
360.21252
 30
0.0
 11
407.204921
 21
363.081458
 31
0.0
  0
LINE
  8
LC-005-005-----0
 62
     2
  5
5CA
 10
404.335981
 20
360.778204
 30
0.0
 11
406.639233
 21
363.081455
 31
0.0
  0
LINE
  8
LC-005-005-----0
 62
     2
  5
5CB
 10
404.335979
 20
361.343887
 30
0.0
 11
406.073545
 21
363.081453
 31
0.0
  0
LINE
  8
LC-005-005-----0
 62
     2
  5
5CC
 10
404.335977
 20
361.90957
 30
0.0
 11
405.507858
 21
363.081451
 31
0.0
  0
LINE
  8
LC-005-005-----0
 62
     2
  5
5CD
 10
404.335975
 20
362.475253
 30
0.0
 11
404.94217
 21
363.081449
 31
0.0
  0
LINE
  8
LC-005-005-----0
 62
     2
  5
5CE
 10
404.335972
 20
363.040936
 30
0.0
 11
404.376482
 21
363.081446
 31
0.0
  0
ENDBLK
  8
0
  5
5CF
  0
BLOCK
  8
0
  5
5D2
  2
*X29
 70
    65
 10
0.0
 20
0.0
 30
0.0
  3
*X29
  0
LINE
  8
LC-005-005-----0
 62
     2
  5
5D3
 10
394.019587
 20
358.381405
 30
0.0
 11
394.33599
 21
358.697808
 31
0.0
  0
LINE
  8
LC-005-005-----0
 62
     2
  5
5D4
 10
393.453899
 20
358.381403
 30
0.0
 11
394.335987
 21
359.263491
 31
0.0
  0
LINE
  8
LC-005-005-----0
 62
     2
  5
5D5
 10
392.888211
 20
358.3814
 30
0.0
 11
394.335985
 21
359.829174
 31
0.0
  0
LINE
  8
LC-005-005-----0
 62
     2
  5
5D6
 10
392.322524
 20
358.381398
 30
0.0
 11
394.335983
 21
360.394857
 31
0.0
  0
LINE
  8
LC-005-005-----0
 62
     2
  5
5D7
 10
391.756836
 20
358.381396
 30
0.0
 11
394.335981
 21
360.960541
 31
0.0
  0
LINE
  8
LC-005-005-----0
 62
     2
  5
5D8
 10
391.191148
 20
358.381393
 30
0.0
 11
394.335978
 21
361.526224
 31
0.0
  0
LINE
  8
LC-005-005-----0
 62
     2
  5
5D9
 10
390.62546
 20
358.381391
 30
0.0
 11
394.335976
 21
362.091907
 31
0.0
  0
LINE
  8
LC-005-005-----0
 62
     2
  5
5DA
 10
390.059773
 20
358.381389
 30
0.0
 11
394.335974
 21
362.65759
 31
0.0
  0
LINE
  8
LC-005-005-----0
 62
     2
  5
5DB
 10
389.494085
 20
358.381387
 30
0.0
 11
394.194104
 21
363.081406
 31
0.0
  0
LINE
  8
LC-005-005-----0
 62
     2
  5
5DC
 10
388.928397
 20
358.381384
 30
0.0
 11
393.628416
 21
363.081403
 31
0.0
  0
LINE
  8
LC-005-005-----0
 62
     2
  5
5DD
 10
388.36271
 20
358.381382
 30
0.0
 11
393.062728
 21
363.081401
 31
0.0
  0
LINE
  8
LC-005-005-----0
 62
     2
  5
5DE
 10
387.797022
 20
358.38138
 30
0.0
 11
392.497041
 21
363.081399
 31
0.0
  0
LINE
  8
LC-005-005-----0
 62
     2
  5
5DF
 10
387.231334
 20
358.381378
 30
0.0
 11
391.931353
 21
363.081396
 31
0.0
  0
LINE
  8
LC-005-005-----0
 62
     2
  5
5E0
 10
386.665647
 20
358.381375
 30
0.0
 11
391.365665
 21
363.081394
 31
0.0
  0
LINE
  8
LC-005-005-----0
 62
     2
  5
5E1
 10
386.099959
 20
358.381373
 30
0.0
 11
390.799978
 21
363.081392
 31
0.0
  0
LINE
  8
LC-005-005-----0
 62
     2
  5
5E2
 10
385.534271
 20
358.381371
 30
0.0
 11
390.23429
 21
363.08139
 31
0.0
  0
LINE
  8
LC-005-005-----0
 62
     2
  5
5E3
 10
384.968584
 20
358.381369
 30
0.0
 11
389.668602
 21
363.081387
 31
0.0
  0
LINE
  8
LC-005-005-----0
 62
     2
  5
5E4
 10
384.402896
 20
358.381366
 30
0.0
 11
389.102915
 21
363.081385
 31
0.0
  0
LINE
  8
LC-005-005-----0
 62
     2
  5
5E5
 10
384.335989
 20
358.880145
 30
0.0
 11
388.537227
 21
363.081383
 31
0.0
  0
LINE
  8
LC-005-005-----0
 62
     2
  5
5E6
 10
384.335987
 20
359.445828
 30
0.0
 11
387.971539
 21
363.081381
 31
0.0
  0
LINE
  8
LC-005-005-----0
 62
     2
  5
5E7
 10
384.335984
 20
360.011511
 30
0.0
 11
387.405852
 21
363.081378
 31
0.0
  0
LINE
  8
LC-005-005-----0
 62
     2
  5
5E8
 10
384.335982
 20
360.577194
 30
0.0
 11
386.840164
 21
363.081376
 31
0.0
  0
LINE
  8
LC-005-005-----0
 62
     2
  5
5E9
 10
384.33598
 20
361.142877
 30
0.0
 11
386.274476
 21
363.081374
 31
0.0
  0
LINE
  8
LC-005-005-----0
 62
     2
  5
5EA
 10
384.335978
 20
361.708561
 30
0.0
 11
385.708789
 21
363.081372
 31
0.0
  0
LINE
  8
LC-005-005-----0
 62
     2
  5
5EB
 10
384.335975
 20
362.274244
 30
0.0
 11
385.143101
 21
363.081369
 31
0.0
  0
LINE
  8
LC-005-005-----0
 62
     2
  5
5EC
 10
384.335973
 20
362.839927
 30
0.0
 11
384.577413
 21
363.081367
 31
0.0
  0
ENDBLK
  8
0
  5
5ED
  0
BLOCK
  8
0
  5
5FE
  2
*X30
 70
    65
 10
0.0
 20
0.0
 30
0.0
  3
*X30
  0
LINE
  8
LC-005-005-----0
 62
     2
  5
5FF
 10
299.456667
 20
336.226219
 30
0.0
 11
303.026458
 21
339.796011
 31
0.0
  0
LINE
  8
LC-005-005-----0
 62
     2
  5
600
 10
296.628228
 20
336.226208
 30
0.0
 11
299.128238
 21
338.726218
 31
0.0
  0
LINE
  8
LC-005-005-----0
 62
     2
  5
601
 10
300.526457
 20
340.124436
 30
0.0
 11
303.026447
 21
342.624426
 31
0.0
  0
LINE
  8
LC-005-005-----0
 62
     2
  5
602
 10
293.79979
 20
336.226197
 30
0.0
 11
296.2998
 21
338.726207
 31
0.0
  0
LINE
  8
LC-005-005-----0
 62
     2
  5
603
 10
300.526445
 20
342.952852
 30
0.0
 11
303.026435
 21
345.452842
 31
0.0
  0
LINE
  8
LC-005-005-----0
 62
     2
  5
604
 10
293.026464
 20
338.281298
 30
0.0
 11
293.471362
 21
338.726196
 31
0.0
  0
LINE
  8
LC-005-005-----0
 62
     2
  5
605
 10
300.526434
 20
345.781268
 30
0.0
 11
303.026424
 21
348.281258
 31
0.0
  0
LINE
  8
LC-005-005-----0
 62
     2
  5
606
 10
300.526423
 20
348.609684
 30
0.0
 11
303.026413
 21
351.109674
 31
0.0
  0
LINE
  8
LC-005-005-----0
 62
     2
  5
607
 10
300.526411
 20
351.4381
 30
0.0
 11
303.026401
 21
353.93809
 31
0.0
  0
LINE
  8
LC-005-005-----0
 62
     2
  5
608
 10
300.5264
 20
354.266515
 30
0.0
 11
302.485761
 21
356.225876
 31
0.0
  0
ENDBLK
  8
0
  5
609
  0
BLOCK
  8
0
  5
618
  2
*X31
 70
    65
 10
0.0
 20
0.0
 30
0.0
  3
*X31
  0
LINE
  8
LC-005-005-----0
 62
     2
  5
619
 10
374.202235
 20
358.363043
 30
0.0
 11
374.487908
 21
358.648716
 31
0.0
  0
LINE
  8
LC-005-005-----0
 62
     2
  5
61A
 10
373.626498
 20
358.352991
 30
0.0
 11
374.478201
 21
359.204694
 31
0.0
  0
LINE
  8
LC-005-005-----0
 62
     2
  5
61B
 10
373.050761
 20
358.34294
 30
0.0
 11
374.468494
 21
359.760673
 31
0.0
  0
LINE
  8
LC-005-005-----0
 62
     2
  5
61C
 10
372.475023
 20
358.332888
 30
0.0
 11
374.458787
 21
360.316651
 31
0.0
  0
LINE
  8
LC-005-005-----0
 62
     2
  5
61D
 10
371.899286
 20
358.322836
 30
0.0
 11
374.44908
 21
360.87263
 31
0.0
  0
LINE
  8
LC-005-005-----0
 62
     2
  5
61E
 10
371.323549
 20
358.312784
 30
0.0
 11
374.439373
 21
361.428608
 31
0.0
  0
LINE
  8
LC-005-005-----0
 62
     2
  5
61F
 10
370.747812
 20
358.302732
 30
0.0
 11
374.429666
 21
361.984587
 31
0.0
  0
LINE
  8
LC-005-005-----0
 62
     2
  5
620
 10
370.172074
 20
358.29268
 30
0.0
 11
374.41996
 21
362.540566
 31
0.0
  0
LINE
  8
LC-005-005-----0
 62
     2
  5
621
 10
369.596337
 20
358.282628
 30
0.0
 11
374.380582
 21
363.066873
 31
0.0
  0
LINE
  8
LC-005-005-----0
 62
     2
  5
622
 10
369.0206
 20
358.272577
 30
0.0
 11
373.804844
 21
363.056821
 31
0.0
  0
LINE
  8
LC-005-005-----0
 62
     2
  5
623
 10
368.444862
 20
358.262525
 30
0.0
 11
373.229107
 21
363.04677
 31
0.0
  0
LINE
  8
LC-005-005-----0
 62
     2
  5
624
 10
367.869125
 20
358.252473
 30
0.0
 11
372.65337
 21
363.036718
 31
0.0
  0
LINE
  8
LC-005-005-----0
 62
     2
  5
625
 10
367.293388
 20
358.242421
 30
0.0
 11
372.077633
 21
363.026666
 31
0.0
  0
LINE
  8
LC-005-005-----0
 62
     2
  5
626
 10
366.717651
 20
358.232369
 30
0.0
 11
371.501895
 21
363.016614
 31
0.0
  0
LINE
  8
LC-005-005-----0
 62
     2
  5
627
 10
366.141913
 20
358.222317
 30
0.0
 11
370.926158
 21
363.006562
 31
0.0
  0
LINE
  8
LC-005-005-----0
 62
     2
  5
628
 10
365.566176
 20
358.212266
 30
0.0
 11
370.350421
 21
362.99651
 31
0.0
  0
LINE
  8
LC-005-005-----0
 62
     2
  5
629
 10
364.990439
 20
358.202214
 30
0.0
 11
369.774684
 21
362.986459
 31
0.0
  0
LINE
  8
LC-005-005-----0
 62
     2
  5
62A
 10
364.484043
 20
358.261503
 30
0.0
 11
369.198946
 21
362.976407
 31
0.0
  0
LINE
  8
LC-005-005-----0
 62
     2
  5
62B
 10
364.474336
 20
358.817482
 30
0.0
 11
368.623209
 21
362.966355
 31
0.0
  0
LINE
  8
LC-005-005-----0
 62
     2
  5
62C
 10
364.464629
 20
359.37346
 30
0.0
 11
368.047472
 21
362.956303
 31
0.0
  0
LINE
  8
LC-005-005-----0
 62
     2
  5
62D
 10
364.454922
 20
359.929439
 30
0.0
 11
367.471735
 21
362.946251
 31
0.0
  0
LINE
  8
LC-005-005-----0
 62
     2
  5
62E
 10
364.445215
 20
360.485417
 30
0.0
 11
366.895997
 21
362.936199
 31
0.0
  0
LINE
  8
LC-005-005-----0
 62
     2
  5
62F
 10
364.435509
 20
361.041396
 30
0.0
 11
366.32026
 21
362.926148
 31
0.0
  0
LINE
  8
LC-005-005-----0
 62
     2
  5
630
 10
364.425802
 20
361.597375
 30
0.0
 11
365.744523
 21
362.916096
 31
0.0
  0
LINE
  8
LC-005-005-----0
 62
     2
  5
631
 10
364.416095
 20
362.153353
 30
0.0
 11
365.168786
 21
362.906044
 31
0.0
  0
LINE
  8
LC-005-005-----0
 62
     2
  5
632
 10
364.406388
 20
362.709332
 30
0.0
 11
364.593048
 21
362.895992
 31
0.0
  0
ENDBLK
  8
0
  5
633
  0
BLOCK
  8
0
  5
638
  2
*X32
 70
    65
 10
0.0
 20
0.0
 30
0.0
  3
*X32
  0
LINE
  8
LC-005-005-----0
 62
     2
  5
639
 10
354.051431
 20
358.011229
 30
0.0
 11
354.465809
 21
358.425607
 31
0.0
  0
LINE
  8
LC-005-005-----0
 62
     2
  5
63A
 10
353.475694
 20
358.001177
 30
0.0
 11
354.456102
 21
358.981585
 31
0.0
  0
LINE
  8
LC-005-005-----0
 62
     2
  5
63B
 10
352.899956
 20
357.991125
 30
0.0
 11
354.446395
 21
359.537564
 31
0.0
  0
LINE
  8
LC-005-005-----0
 62
     2
  5
63C
 10
352.324219
 20
357.981073
 30
0.0
 11
354.436688
 21
360.093542
 31
0.0
  0
LINE
  8
LC-005-005-----0
 62
     2
  5
63D
 10
351.748482
 20
357.971022
 30
0.0
 11
354.426981
 21
360.649521
 31
0.0
  0
LINE
  8
LC-005-005-----0
 62
     2
  5
63E
 10
351.172745
 20
357.96097
 30
0.0
 11
354.417274
 21
361.205499
 31
0.0
  0
LINE
  8
LC-005-005-----0
 62
     2
  5
63F
 10
350.597007
 20
357.950918
 30
0.0
 11
354.407567
 21
361.761478
 31
0.0
  0
LINE
  8
LC-005-005-----0
 62
     2
  5
640
 10
350.02127
 20
357.940866
 30
0.0
 11
354.39786
 21
362.317456
 31
0.0
  0
LINE
  8
LC-005-005-----0
 62
     2
  5
641
 10
349.445533
 20
357.930814
 30
0.0
 11
354.229778
 21
362.715059
 31
0.0
  0
LINE
  8
LC-005-005-----0
 62
     2
  5
642
 10
348.869796
 20
357.920762
 30
0.0
 11
353.65404
 21
362.705007
 31
0.0
  0
LINE
  8
LC-005-005-----0
 62
     2
  5
643
 10
348.294058
 20
357.910711
 30
0.0
 11
353.078303
 21
362.694955
 31
0.0
  0
LINE
  8
LC-005-005-----0
 62
     2
  5
644
 10
347.718321
 20
357.900659
 30
0.0
 11
352.502566
 21
362.684903
 31
0.0
  0
LINE
  8
LC-005-005-----0
 62
     2
  5
645
 10
347.142584
 20
357.890607
 30
0.0
 11
351.926829
 21
362.674852
 31
0.0
  0
LINE
  8
LC-005-005-----0
 62
     2
  5
646
 10
346.566847
 20
357.880555
 30
0.0
 11
351.351091
 21
362.6648
 31
0.0
  0
LINE
  8
LC-005-005-----0
 62
     2
  5
647
 10
345.991109
 20
357.870503
 30
0.0
 11
350.775354
 21
362.654748
 31
0.0
  0
LINE
  8
LC-005-005-----0
 62
     2
  5
648
 10
345.415372
 20
357.860451
 30
0.0
 11
350.199617
 21
362.644696
 31
0.0
  0
LINE
  8
LC-005-005-----0
 62
     2
  5
649
 10
344.839635
 20
357.8504
 30
0.0
 11
349.62388
 21
362.634644
 31
0.0
  0
LINE
  8
LC-005-005-----0
 62
     2
  5
64A
 10
344.461944
 20
358.038394
 30
0.0
 11
349.048142
 21
362.624592
 31
0.0
  0
LINE
  8
LC-005-005-----0
 62
     2
  5
64B
 10
344.452237
 20
358.594373
 30
0.0
 11
348.472405
 21
362.614541
 31
0.0
  0
LINE
  8
LC-005-005-----0
 62
     2
  5
64C
 10
344.44253
 20
359.150351
 30
0.0
 11
347.896668
 21
362.604489
 31
0.0
  0
LINE
  8
LC-005-005-----0
 62
     2
  5
64D
 10
344.432823
 20
359.70633
 30
0.0
 11
347.32093
 21
362.594437
 31
0.0
  0
LINE
  8
LC-005-005-----0
 62
     2
  5
64E
 10
344.423116
 20
360.262308
 30
0.0
 11
346.745193
 21
362.584385
 31
0.0
  0
LINE
  8
LC-005-005-----0
 62
     2
  5
64F
 10
344.41341
 20
360.818287
 30
0.0
 11
346.169456
 21
362.574333
 31
0.0
  0
LINE
  8
LC-005-005-----0
 62
     2
  5
650
 10
344.403703
 20
361.374265
 30
0.0
 11
345.593719
 21
362.564281
 31
0.0
  0
LINE
  8
LC-005-005-----0
 62
     2
  5
651
 10
344.393996
 20
361.930244
 30
0.0
 11
345.017981
 21
362.55423
 31
0.0
  0
LINE
  8
LC-005-005-----0
 62
     2
  5
652
 10
344.384289
 20
362.486223
 30
0.0
 11
344.442244
 21
362.544178
 31
0.0
  0
ENDBLK
  8
0
  5
653
  0
BLOCK
  8
0
  5
658
  2
*X33
 70
    65
 10
0.0
 20
0.0
 30
0.0
  3
*X33
  0
LINE
  8
LC-005-005-----0
 62
     2
  5
659
 10
332.861463
 20
356.054566
 30
0.0
 11
334.335994
 21
357.529097
 31
0.0
  0
LINE
  8
LC-005-005-----0
 62
     2
  5
65A
 10
332.097871
 20
355.856658
 30
0.0
 11
334.335992
 21
358.09478
 31
0.0
  0
LINE
  8
LC-005-005-----0
 62
     2
  5
65B
 10
331.489652
 20
355.814125
 30
0.0
 11
334.33599
 21
358.660463
 31
0.0
  0
LINE
  8
LC-005-005-----0
 62
     2
  5
65C
 10
330.881433
 20
355.771592
 30
0.0
 11
334.335988
 21
359.226146
 31
0.0
  0
LINE
  8
LC-005-005-----0
 62
     2
  5
65D
 10
330.273215
 20
355.729059
 30
0.0
 11
334.335985
 21
359.791829
 31
0.0
  0
LINE
  8
LC-005-005-----0
 62
     2
  5
65E
 10
329.664996
 20
355.686526
 30
0.0
 11
334.335983
 21
360.357513
 31
0.0
  0
LINE
  8
LC-005-005-----0
 62
     2
  5
65F
 10
329.056777
 20
355.643992
 30
0.0
 11
334.335981
 21
360.923196
 31
0.0
  0
LINE
  8
LC-005-005-----0
 62
     2
  5
660
 10
328.448559
 20
355.601459
 30
0.0
 11
334.335979
 21
361.488879
 31
0.0
  0
LINE
  8
LC-005-005-----0
 62
     2
  5
661
 10
327.84034
 20
355.558926
 30
0.0
 11
334.335976
 21
362.054562
 31
0.0
  0
LINE
  8
LC-005-005-----0
 62
     2
  5
662
 10
327.232122
 20
355.516393
 30
0.0
 11
334.078973
 21
362.363245
 31
0.0
  0
LINE
  8
LC-005-005-----0
 62
     2
  5
663
 10
326.623903
 20
355.47386
 30
0.0
 11
333.503236
 21
362.353193
 31
0.0
  0
LINE
  8
LC-005-005-----0
 62
     2
  5
664
 10
326.015684
 20
355.431326
 30
0.0
 11
332.927499
 21
362.343141
 31
0.0
  0
LINE
  8
LC-005-005-----0
 62
     2
  5
665
 10
325.407466
 20
355.388793
 30
0.0
 11
330.473194
 21
360.454522
 31
0.0
  0
LINE
  8
LC-005-005-----0
 62
     2
  5
666
 10
324.799247
 20
355.34626
 30
0.0
 11
329.864976
 21
360.411989
 31
0.0
  0
LINE
  8
LC-005-005-----0
 62
     2
  5
667
 10
324.336003
 20
355.448701
 30
0.0
 11
329.256757
 21
360.369455
 31
0.0
  0
LINE
  8
LC-005-005-----0
 62
     2
  5
668
 10
324.336
 20
356.014384
 30
0.0
 11
328.648538
 21
360.326922
 31
0.0
  0
LINE
  8
LC-005-005-----0
 62
     2
  5
669
 10
324.335998
 20
356.580067
 30
0.0
 11
328.04032
 21
360.284389
 31
0.0
  0
LINE
  8
LC-005-005-----0
 62
     2
  5
66A
 10
324.335996
 20
357.145751
 30
0.0
 11
327.432101
 21
360.241856
 31
0.0
  0
LINE
  8
LC-005-005-----0
 62
     2
  5
66B
 10
324.335994
 20
357.711434
 30
0.0
 11
326.823882
 21
360.199323
 31
0.0
  0
LINE
  8
LC-005-005-----0
 62
     2
  5
66C
 10
324.335991
 20
358.277117
 30
0.0
 11
326.215664
 21
360.156789
 31
0.0
  0
LINE
  8
LC-005-005-----0
 62
     2
  5
66D
 10
324.335989
 20
358.8428
 30
0.0
 11
325.607445
 21
360.114256
 31
0.0
  0
LINE
  8
LC-005-005-----0
 62
     2
  5
66E
 10
324.335987
 20
359.408483
 30
0.0
 11
324.999227
 21
360.071723
 31
0.0
  0
LINE
  8
LC-005-005-----0
 62
     2
  5
66F
 10
324.335985
 20
359.974166
 30
0.0
 11
324.391008
 21
360.02919
 31
0.0
  0
ENDBLK
  8
0
  5
670
  0
BLOCK
  8
0
  5
692
  2
*D34
 70
    65
 10
0.0
 20
0.0
 30
0.0
  3
*D34
  0
LINE
  8
LC-006-003-MTH-0
 62
     2
  5
693
 10
-25.265378
 20
363.080727
 30
0.0
 11
-25.265378
 21
495.564
 31
0.0
  0
LINE
  8
LC-006-003-MTH-0
 62
     2
  5
694
 10
474.335972
 20
363.081726
 30
0.0
 11
474.335972
 21
495.564
 31
0.0
  0
LINE
  8
LC-008-003-MTG-0
 62
     2
  5
695
 10
-25.265378
 20
478.764
 30
0.0
 11
180.958764
 21
478.764
 31
0.0
  0
LINE
  8
LC-008-003-MTG-0
 62
     2
  5
696
 10
282.605697
 20
478.764
 30
0.0
 11
474.335972
 21
478.764
 31
0.0
  0
LINE
  8
LC-007-003-----0
 62
     2
  5
697
 10
2.495078
 20
482.418733
 30
0.0
 11
-25.265378
 21
478.764
 31
0.0
  0
LINE
  8
LC-007-003-----0
 62
     2
  5
698
 10
-25.265378
 20
478.764
 30
0.0
 11
2.495078
 21
475.109267
 31
0.0
  0
LINE
  8
LC-007-003-----0
 62
     2
  5
699
 10
2.495078
 20
475.109267
 30
0.0
 11
2.495078
 21
482.418733
 31
0.0
  0
LINE
  8
LC-007-003-----0
 62
     2
  5
69A
 10
2.55736
 20
481.468503
 30
0.0
 11
-17.985378
 21
478.764
 31
0.0
  0
LINE
  8
LC-007-003-----0
 62
     2
  5
69B
 10
-17.985378
 20
478.764
 30
0.0
 11
2.55736
 21
476.059497
 31
0.0
  0
LINE
  8
LC-007-003-----0
 62
     2
  5
69C
 10
2.619641
 20
480.518272
 30
0.0
 11
-10.705378
 21
478.764
 31
0.0
  0
LINE
  8
LC-007-003-----0
 62
     2
  5
69D
 10
-10.705378
 20
478.764
 30
0.0
 11
2.619641
 21
477.009728
 31
0.0
  0
LINE
  8
LC-007-003-----0
 62
     2
  5
69E
 10
2.681923
 20
479.568041
 30
0.0
 11
-3.425378
 21
478.764
 31
0.0
  0
LINE
  8
LC-007-003-----0
 62
     2
  5
69F
 10
-3.425378
 20
478.764
 30
0.0
 11
2.681923
 21
477.959959
 31
0.0
  0
LINE
  8
LC-007-003-----0
 62
     2
  5
6A0
 10
446.575516
 20
475.109267
 30
0.0
 11
474.335972
 21
478.764
 31
0.0
  0
LINE
  8
LC-007-003-----0
 62
     2
  5
6A1
 10
474.335972
 20
478.764
 30
0.0
 11
446.575516
 21
482.418733
 31
0.0
  0
LINE
  8
LC-007-003-----0
 62
     2
  5
6A2
 10
446.575516
 20
482.418733
 30
0.0
 11
446.575516
 21
475.109267
 31
0.0
  0
LINE
  8
LC-007-003-----0
 62
     2
  5
6A3
 10
446.513235
 20
476.059497
 30
0.0
 11
467.055972
 21
478.764
 31
0.0
  0
LINE
  8
LC-007-003-----0
 62
     2
  5
6A4
 10
467.055972
 20
478.764
 30
0.0
 11
446.513235
 21
481.468503
 31
0.0
  0
LINE
  8
LC-007-003-----0
 62
     2
  5
6A5
 10
446.450953
 20
477.009728
 30
0.0
 11
459.775972
 21
478.764
 31
0.0
  0
LINE
  8
LC-007-003-----0
 62
     2
  5
6A6
 10
459.775972
 20
478.764
 30
0.0
 11
446.450953
 21
480.518272
 31
0.0
  0
LINE
  8
LC-007-003-----0
 62
     2
  5
6A7
 10
446.388672
 20
477.959959
 30
0.0
 11
452.495972
 21
478.764
 31
0.0
  0
LINE
  8
LC-007-003-----0
 62
     2
  5
6A8
 10
452.495972
 20
478.764
 30
0.0
 11
446.388672
 21
479.568041
 31
0.0
  0
TEXT
  8
LC-007-003-----0
 62
     8
  5
6A9
 10
158.23407
 20
481.182369
 30
0.0
 40
28.0
  1
%%c500
 41
0.9
 51
15.0
  7
LCTX15-400-0-0-ARIAL
 72
     1
 11
227.43407
 21
481.182369
 31
0.0
  0
ENDBLK
  8
0
  5
6AA
  0
ENDSEC
  0
SECTION
  2
ENTITIES
  0
VIEWPORT
  8
LC-VIEWPORT
  5
6AC
 67
     1
 68
     1
 10
420.0
 20
297.0
 30
0.0
 40
840.0
 41
594.0
 69
     1
1001
ACAD
1000
MVIEW
1002
{
1070
    16
1010
0.0
1020
0.0
1030
0.0
1010
0.0
1020
0.0
1030
1.0
1040
0.0
1040
594.0
1040
420.0
1040
297.0
1040
50.0
1040
0.0
1040
0.0
1070
     0
1070
   100
1070
     1
1070
     1
1070
     0
1070
     0
1070
     0
1070
     0
1040
0.0
1040
0.0
1040
0.0
1040
1.0
1040
1.0
1040
0.0
1040
0.0
1070
     0
1002
{
1002
}
1002
}
  0
LINE
  8
LC-001-002-----0
 62
     1
  5
26
 10
73.780558
 20
358.38138
 30
0.0
 11
114.436158
 21
357.671734
 31
0.0
  0
LINE
  8
LC-001-002-----0
 62
     1
  5
27
 10
241.212546
 20
325.530696
 30
0.0
 11
241.212546
 21
346.030867
 31
0.0
  0
LINE
  8
LC-001-002-----0
 62
     1
  5
28
 10
73.780558
 20
355.380923
 30
0.0
 11
113.335871
 21
354.690482
 31
0.0
  0
LINE
  8
LC-001-002-----0
 62
     1
  5
29
 10
375.291758
 20
358.38138
 30
0.0
 11
334.636158
 21
357.671734
 31
0.0
  0
LINE
  8
LC-001-002-----0
 62
     1
  5
2A
 10
249.532301
 20
246.530871
 30
0.0
 11
249.532301
 21
215.027984
 31
0.0
  0
LINE
  8
LC-001-002-----0
 62
     1
  5
2B
 10
194.032301
 20
325.530696
 30
0.0
 11
196.532301
 21
325.530696
 31
0.0
  0
LINE
  8
LC-001-002-----0
  6
DASHDOT
 62
     2
  5
2D
 10
224.532301
 20
137.530692
 30
0.0
 11
224.536158
 21
358.38138
 31
0.0
  0
LINE
  8
LC-001-002-----0
 62
     1
  5
2E
 10
252.532301
 20
324.530696
 30
0.0
 11
239.05171
 21
324.530696
 31
0.0
  0
LINE
  8
LC-001-002-----0
 62
     1
  5
2F
 10
259.532301
 20
247.530864
 30
0.0
 11
251.536302
 21
247.53087
 31
0.0
  0
LINE
  8
LC-001-002-----0
 62
     1
  5
30
 10
185.532301
 20
247.53069
 30
0.0
 11
156.032301
 21
247.530696
 31
0.0
  0
ARC
  8
LC-002-002-RND-0
 62
     1
  5
32
 10
117.082934
 20
357.853385
 30
0.0
 40
2.0
 50
225.0
 51
266.000003
  0
LINE
  8
LC-001-002-----0
 62
     1
  5
33
 10
375.291758
 20
355.380923
 30
0.0
 11
335.736445
 21
354.690482
 31
0.0
  0
ARC
  8
LC-002-002-RND-0
 62
     1
  5
34
 10
331.989383
 20
357.853385
 30
0.0
 40
2.0
 50
273.999997
 51
315.0
  0
LINE
  8
LC-001-002-----0
 62
     1
  5
35
 10
311.287926
 20
345.184263
 30
0.0
 11
311.287926
 21
351.684263
 31
0.0
  0
LINE
  8
LC-001-002-----0
 62
     1
  5
36
 10
313.287926
 20
351.684263
 30
0.0
 11
311.289308
 21
351.684263
 31
0.0
  0
LINE
  8
LC-001-002-----0
 62
     1
  5
37
 10
313.287926
 20
345.684263
 30
0.0
 11
313.287926
 21
351.684263
 31
0.0
  0
LINE
  8
LC-001-002-----0
 62
     1
  5
38
 10
315.287926
 20
345.684263
 30
0.0
 11
313.287926
 21
345.684263
 31
0.0
  0
LINE
  8
LC-001-002-----0
 62
     1
  5
39
 10
302.589308
 20
333.380696
 30
0.0
 11
302.389308
 21
333.380696
 31
0.0
  0
LINE
  8
LC-001-002-----0
 62
     1
  5
3A
 10
311.289308
 20
334.680696
 30
0.0
 11
311.289308
 21
351.680696
 31
0.0
  0
LINE
  8
LC-001-002-----0
 62
     1
  5
3B
 10
311.287926
 20
345.465328
 30
0.0
 11
311.287926
 21
345.465328
 31
0.0
  0
LINE
  8
LC-001-002-----0
 62
     1
  5
3C
 10
302.589308
 20
329.880696
 30
0.0
 11
302.589308
 21
331.380696
 31
0.0
  0
LINE
  8
LC-001-002-----0
 62
     1
  5
3D
 10
302.589308
 20
326.430696
 30
0.0
 11
302.589308
 21
326.930696
 31
0.0
  0
LINE
  8
LC-001-002-----0
 62
     1
  5
3E
 10
302.589308
 20
324.930696
 30
0.0
 11
302.589308
 21
327.880696
 31
0.0
  0
LINE
  8
LC-001-002-----0
 62
     1
  5
3F
 10
302.589308
 20
324.930696
 30
0.0
 11
302.031594
 21
324.930696
 31
0.0
  0
LINE
  8
LC-001-002-----0
 62
     1
  5
40
 10
302.589308
 20
327.880696
 30
0.0
 11
302.389308
 21
327.880696
 31
0.0
  0
ARC
  8
LC-002-002-RND-0
 62
     1
  5
41
 10
302.389308
 20
332.580696
 30
0.0
 40
0.8
 50
90.0
 51
180.0
  0
ARC
  8
LC-002-002-RND-0
 62
     1
  5
42
 10
302.389308
 20
329.080696
 30
0.0
 40
0.8
 50
90.0
 51
180.0
  0
LINE
  8
LC-001-002-----0
 62
     1
  5
43
 10
301.589308
 20
328.680696
 30
0.0
 11
301.589308
 21
329.080696
 31
0.0
  0
LINE
  8
LC-001-002-----0
 62
     1
  5
44
 10
301.589308
 20
332.180696
 30
0.0
 11
301.589308
 21
332.580696
 31
0.0
  0
ARC
  8
LC-002-002-RND-0
 62
     1
  5
45
 10
302.389308
 20
328.680696
 30
0.0
 40
0.8
 50
180.0
 51
270.0
  0
ARC
  8
LC-002-002-RND-0
 62
     1
  5
46
 10
302.389308
 20
332.180696
 30
0.0
 40
0.8
 50
180.0
 51
270.0
  0
LINE
  8
LC-001-002-----0
 62
     1
  5
47
 10
302.589308
 20
331.380696
 30
0.0
 11
302.389308
 21
331.380696
 31
0.0
  0
ARC
  8
LC-002-002-RND-0
 62
     1
  5
48
 10
310.789308
 20
334.680696
 30
0.0
 40
0.5
 50
270.0
 51
0.0
  0
LINE
  8
LC-001-002-----0
 62
     1
  5
49
 10
332.128895
 20
355.858257
 30
0.0
 11
316.766393
 21
354.784007
 31
0.0
  0
ARC
  8
LC-002-002-RND-0
 62
     1
  5
4A
 10
315.340344
 20
346.680696
 30
0.0
 40
1.0
 50
270.0
 51
357.0
  0
LINE
  8
LC-001-002-----0
 62
     1
  5
4B
 10
316.766393
 20
354.784007
 30
0.0
 11
316.338973
 21
346.62836
 31
0.0
  0
LINE
  8
LC-001-002-----0
 62
     1
  5
4C
 10
375.291758
 20
358.38138
 30
0.0
 11
375.291758
 21
355.380923
 31
0.0
  0
LINE
  8
LC-001-002-----0
 62
     1
  5
4D
 10
319.55375
 20
350.647983
 30
0.0
 11
319.311401
 21
346.023688
 31
0.0
  0
LINE
  8
LC-001-002-----0
 62
     1
  5
4E
 10
335.736445
 20
354.690482
 30
0.0
 11
334.02982
 21
352.983857
 31
0.0
  0
LINE
  8
LC-001-002-----0
 62
     1
  5
4F
 10
302.589308
 20
329.880696
 30
0.0
 11
302.389308
 21
329.880696
 31
0.0
  0
ARC
  8
LC-003-001-RND-0
 62
     1
  5
51
 10
321.025562
 20
350.570849
 30
0.0
 40
1.5
 50
93.999997
 51
177.0
  0
LINE
  8
LC-001-002-----0
 62
     1
  5
52
 10
314.039308
 20
335.180696
 30
0.0
 11
304.782301
 21
321.960319
 31
0.0
  0
LINE
  8
LC-001-002-----0
 62
     1
  5
53
 10
316.315512
 20
343.180696
 30
0.0
 11
316.039308
 21
343.180696
 31
0.0
  0
LINE
  8
LC-001-002-----0
 62
     1
  5
54
 10
137.78439
 20
334.717844
 30
0.0
 11
137.78439
 21
351.684263
 31
0.0
  0
LINE
  8
LC-004-001-----0
 62
     1
  5
56
 10
334.02982
 20
352.983857
 30
0.0
 11
320.920927
 21
352.067195
 31
0.0
  0
ARC
  8
LC-002-002-RND-0
 62
     1
  5
57
 10
316.315512
 20
346.180696
 30
0.0
 40
3.0
 50
270.0
 51
357.0
  0
LINE
  8
LC-001-002-----0
 62
     1
  5
58
 10
135.783008
 20
351.684263
 30
0.0
 11
137.78439
 21
351.684263
 31
0.0
  0
ARC
  8
LC-002-002-RND-0
 62
     1
  5
59
 10
316.039308
 20
341.180696
 30
0.0
 40
2.0
 50
90.0
 51
180.0
  0
LINE
  8
LC-001-002-----0
 62
     1
  5
5A
 10
314.039308
 20
335.180696
 30
0.0
 11
314.039308
 21
341.180696
 31
0.0
  0
LINE
  8
LC-001-002-----0
 62
     1
  5
5B
 10
302.589308
 20
326.430696
 30
0.0
 11
302.589308
 21
326.430696
 31
0.0
  0
LINE
  8
LC-001-002-----0
 62
     1
  5
5C
 10
310.789308
 20
334.180696
 30
0.0
 11
303.389308
 21
334.180696
 31
0.0
  0
LINE
  8
LC-001-002-----0
 62
     1
  5
5D
 10
311.289308
 20
335.680696
 30
0.0
 11
311.289308
 21
336.980078
 31
0.0
  0
LINE
  8
LC-001-002-----0
 62
     1
  5
5E
 10
313.289308
 20
351.680696
 30
0.0
 11
311.289308
 21
351.680696
 31
0.0
  0
LINE
  8
LC-001-002-----0
 62
     1
  5
5F
 10
302.589308
 20
326.180696
 30
0.0
 11
302.589308
 21
326.680696
 31
0.0
  0
LINE
  8
LC-001-002-----0
 62
     1
  5
60
 10
302.589308
 20
326.380696
 30
0.0
 11
302.589308
 21
326.880696
 31
0.0
  0
LINE
  8
LC-001-002-----0
 62
     1
  5
61
 10
334.636158
 20
357.671734
 30
0.0
 11
333.403596
 21
356.439172
 31
0.0
  0
LINE
  8
LC-001-002-----0
 62
     1
  5
62
 10
302.589308
 20
326.430696
 30
0.0
 11
302.589308
 21
326.430696
 31
0.0
  0
ARC
  8
LC-002-002-RND-0
 62
     1
  5
63
 10
303.389308
 20
333.380696
 30
0.0
 40
0.8
 50
90.0
 51
180.0
  0
LINE
  8
LC-001-002-----0
 62
     1
  5
64
 10
302.589308
 20
333.380696
 30
0.0
 11
302.589308
 21
333.380696
 31
0.0
  0
LINE
  8
LC-001-002-----0
 62
     1
  5
65
 10
147.033008
 20
259.530696
 30
0.0
 11
147.033008
 21
324.930696
 31
0.0
  0
LINE
  8
LC-001-002-----0
 62
     1
  5
66
 10
246.53245
 20
232.530873
 30
0.0
 11
246.53246
 21
247.530698
 31
0.0
  0
LINE
  8
LC-001-002-----0
 62
     1
  5
67
 10
202.532301
 20
232.530696
 30
0.0
 11
202.532301
 21
247.530696
 31
0.0
  0
LINE
  8
LC-001-002-----0
 62
     1
  5
68
 10
246.532425
 20
215.027986
 30
0.0
 11
246.53245
 21
232.530873
 31
0.0
  0
LINE
  8
LC-001-002-----0
 62
     1
  5
69
 10
249.532301
 20
215.027984
 30
0.0
 11
224.532301
 21
215.028
 31
0.0
  0
LINE
  8
LC-001-002-----0
 62
     1
  5
6A
 10
146.483008
 20
333.380696
 30
0.0
 11
146.683008
 21
333.380696
 31
0.0
  0
LINE
  8
LC-001-002-----0
 62
     1
  5
6B
 10
137.78439
 20
345.465328
 30
0.0
 11
137.78439
 21
345.465328
 31
0.0
  0
LINE
  8
LC-001-002-----0
 62
     1
  5
6C
 10
146.483008
 20
329.880696
 30
0.0
 11
146.483008
 21
331.380696
 31
0.0
  0
LINE
  8
LC-001-002-----0
 62
     1
  5
6D
 10
146.483008
 20
326.430696
 30
0.0
 11
146.483008
 21
326.930696
 31
0.0
  0
LINE
  8
LC-001-002-----0
 62
     1
  5
6E
 10
146.483008
 20
324.930696
 30
0.0
 11
146.483008
 21
327.880696
 31
0.0
  0
LINE
  8
LC-001-002-----0
 62
     1
  5
6F
 10
146.483008
 20
324.930696
 30
0.0
 11
147.033008
 21
324.930696
 31
0.0
  0
LINE
  8
LC-001-002-----0
 62
     1
  5
70
 10
146.483008
 20
327.880696
 30
0.0
 11
146.683008
 21
327.880696
 31
0.0
  0
ARC
  8
LC-002-002-RND-0
 62
     1
  5
71
 10
146.683008
 20
332.580696
 30
0.0
 40
0.8
 50
0.0
 51
90.0
  0
ARC
  8
LC-002-002-RND-0
 62
     1
  5
72
 10
146.683008
 20
329.080696
 30
0.0
 40
0.8
 50
0.0
 51
90.0
  0
LINE
  8
LC-001-002-----0
 62
     1
  5
73
 10
147.483008
 20
328.680696
 30
0.0
 11
147.483008
 21
329.080696
 31
0.0
  0
LINE
  8
LC-001-002-----0
 62
     1
  5
74
 10
147.483008
 20
332.180696
 30
0.0
 11
147.483008
 21
332.580696
 31
0.0
  0
ARC
  8
LC-002-002-RND-0
 62
     1
  5
75
 10
146.683008
 20
328.680696
 30
0.0
 40
0.8
 50
270.0
 51
0.0
  0
ARC
  8
LC-002-002-RND-0
 62
     1
  5
76
 10
146.683008
 20
332.180696
 30
0.0
 40
0.8
 50
270.0
 51
0.0
  0
LINE
  8
LC-001-002-----0
 62
     1
  5
77
 10
146.483008
 20
331.380696
 30
0.0
 11
146.683008
 21
331.380696
 31
0.0
  0
ARC
  8
LC-002-002-RND-0
 62
     1
  5
78
 10
138.283008
 20
334.680696
 30
0.0
 40
0.5
 50
180.0
 51
270.0
  0
LINE
  8
LC-001-002-----0
 62
     1
  5
79
 10
116.943421
 20
355.858257
 30
0.0
 11
132.305923
 21
354.784007
 31
0.0
  0
LINE
  8
LC-001-002-----0
 62
     1
  5
7A
 10
133.731972
 20
345.680696
 30
0.0
 11
135.783008
 21
345.680696
 31
0.0
  0
ARC
  8
LC-002-002-RND-0
 62
     1
  5
7B
 10
133.731972
 20
346.680696
 30
0.0
 40
1.0
 50
183.0
 51
270.0
  0
LINE
  8
LC-001-002-----0
 62
     1
  5
7C
 10
302.031594
 20
259.530696
 30
0.0
 11
302.031594
 21
324.930696
 31
0.0
  0
LINE
  8
LC-001-002-----0
 62
     1
  5
7D
 10
135.783008
 20
345.680696
 30
0.0
 11
135.783008
 21
351.684263
 31
0.0
  0
LINE
  8
LC-001-002-----0
 62
     1
  5
7E
 10
132.305923
 20
354.784007
 30
0.0
 11
132.733343
 21
346.62836
 31
0.0
  0
LINE
  8
LC-001-002-----0
 62
     1
  5
7F
 10
73.780558
 20
358.38138
 30
0.0
 11
73.780558
 21
355.380923
 31
0.0
  0
ARC
  8
LC-001-002-----0
 62
     1
  5
80
 10
196.532301
 20
325.030696
 30
0.0
 40
0.5
 50
270.000117
 51
89.999981
  0
LINE
  8
LC-001-002-----0
 62
     1
  5
81
 10
129.518398
 20
350.651192
 30
0.0
 11
129.760915
 21
346.023688
 31
0.0
  0
LINE
  8
LC-001-002-----0
 62
     1
  5
82
 10
113.335871
 20
354.690482
 30
0.0
 11
115.042497
 21
352.983857
 31
0.0
  0
LINE
  8
LC-001-002-----0
 62
     1
  5
83
 10
194.032301
 20
253.530696
 30
0.0
 11
194.032301
 21
325.530696
 31
0.0
  0
LINE
  8
LC-001-002-----0
 62
     1
  5
84
 10
202.532301
 20
215.027808
 30
0.0
 11
202.532301
 21
232.530696
 31
0.0
  0
LINE
  8
LC-001-002-----0
 62
     1
  5
85
 10
146.483008
 20
329.880696
 30
0.0
 11
146.683008
 21
329.880696
 31
0.0
  0
LINE
  8
LC-001-002-----0
 62
     1
  5
86
 10
199.532301
 20
215.027808
 30
0.0
 11
224.532301
 21
215.027808
 31
0.0
  0
ARC
  8
LC-002-002-RND-0
 62
     1
  5
87
 10
156.033008
 20
259.530696
 30
0.0
 40
9.0
 50
180.0
 51
270.0
  0
ARC
  8
LC-002-002-RND-0
 62
     1
  5
88
 10
293.031594
 20
259.530696
 30
0.0
 40
9.0
 50
270.0
 51
0.0
  0
LINE
  8
LC-001-002-----0
 62
     1
  5
89
 10
135.033008
 20
335.180696
 30
0.0
 11
144.282301
 21
321.971336
 31
0.0
  0
LINE
  8
LC-001-002-----0
 62
     1
  5
8A
 10
132.756804
 20
343.180696
 30
0.0
 11
133.033008
 21
343.180696
 31
0.0
  0
LINE
  8
LC-004-001-----0
 62
     1
  5
8B
 10
115.042497
 20
352.983857
 30
0.0
 11
128.125088
 21
352.069034
 31
0.0
  0
ARC
  8
LC-002-002-RND-0
 62
     1
  5
8C
 10
132.756804
 20
346.180696
 30
0.0
 40
3.0
 50
183.0
 51
270.0
  0
ARC
  8
LC-002-002-RND-0
 62
     1
  5
8D
 10
133.033008
 20
341.180696
 30
0.0
 40
2.0
 50
0.0
 51
90.0
  0
LINE
  8
LC-001-002-----0
 62
     1
  5
8E
 10
135.033008
 20
335.180696
 30
0.0
 11
135.033008
 21
341.180696
 31
0.0
  0
LINE
  8
LC-001-002-----0
 62
     1
  5
8F
 10
146.483008
 20
326.430696
 30
0.0
 11
146.483008
 21
326.430696
 31
0.0
  0
LINE
  8
LC-001-002-----0
 62
     1
  5
90
 10
138.283008
 20
334.180696
 30
0.0
 11
145.683008
 21
334.180696
 31
0.0
  0
LINE
  8
LC-001-002-----0
 62
     1
  5
91
 10
146.483008
 20
326.180696
 30
0.0
 11
146.483008
 21
326.680696
 31
0.0
  0
LINE
  8
LC-001-002-----0
 62
     1
  5
92
 10
146.483008
 20
326.380696
 30
0.0
 11
146.483008
 21
326.880696
 31
0.0
  0
LINE
  8
LC-001-002-----0
 62
     1
  5
93
 10
114.436158
 20
357.671734
 30
0.0
 11
115.66872
 21
356.439172
 31
0.0
  0
LINE
  8
LC-001-002-----0
 62
     1
  5
94
 10
146.483008
 20
326.430696
 30
0.0
 11
146.483008
 21
326.430696
 31
0.0
  0
ARC
  8
LC-002-002-RND-0
 62
     1
  5
95
 10
145.683008
 20
333.380696
 30
0.0
 40
0.8
 50
0.0
 51
90.0
  0
LINE
  8
LC-001-002-----0
 62
     1
  5
96
 10
146.483008
 20
333.380696
 30
0.0
 11
146.483008
 21
333.380696
 31
0.0
  0
LINE
  8
LC-001-002-----0
 62
     1
  5
97
 10
293.032293
 20
247.530843
 30
0.0
 11
263.532301
 21
247.530863
 31
0.0
  0
ARC
  8
LC-002-002-RND-0
 62
     1
  5
98
 10
258.032301
 20
253.530696
 30
0.0
 40
3.0
 50
180.0
 51
270.0
  0
LINE
  8
LC-001-002-----0
 62
     1
  5
99
 10
197.011989
 20
252.858215
 30
0.0
 11
196.386513
 21
324.530696
 31
0.0
  0
ARC
  8
LC-002-002-RND-0
 62
     1
  5
9A
 10
191.032301
 20
253.530696
 30
0.0
 40
3.0
 50
270.0
 51
0.0
  0
LINE
  8
LC-001-002-----0
 62
     1
  5
9B
 10
156.033008
 20
250.530696
 30
0.0
 11
191.032301
 21
250.530696
 31
0.0
  0
LINE
  8
LC-001-002-----0
 62
     1
  5
9C
 10
255.032301
 20
253.530696
 30
0.0
 11
255.032301
 21
325.530696
 31
0.0
  0
LINE
  8
LC-001-002-----0
 62
     1
  5
9D
 10
252.5323
 20
324.530696
 30
0.0
 11
252.813991
 21
324.530696
 31
0.0
  0
ARC
  8
LC-001-002-----0
 62
     1
  5
9E
 10
252.532301
 20
325.030696
 30
0.0
 40
0.5
 50
90.000019
 51
269.999883
  0
LINE
  8
LC-001-002-----0
 62
     1
  5
9F
 10
293.031594
 20
250.530696
 30
0.0
 11
258.032301
 21
250.530696
 31
0.0
  0
LINE
  8
LC-001-002-----0
 62
     1
  5
A0
 10
199.532142
 20
250.530696
 30
0.0
 11
249.53246
 21
250.530696
 31
0.0
  0
LINE
  8
LC-001-002-----0
 62
     1
  5
A1
 10
252.05843
 20
253.004289
 30
0.0
 11
252.813991
 21
324.530696
 31
0.0
  0
LINE
  8
LC-001-002-----0
 62
     1
  5
A2
 10
255.032301
 20
325.530696
 30
0.0
 11
252.532301
 21
325.530696
 31
0.0
  0
LINE
  8
LC-001-002-----0
 62
     1
  5
A3
 10
199.532301
 20
246.530696
 30
0.0
 11
199.532301
 21
215.027808
 31
0.0
  0
ARC
  8
LC-002-002-RND-0
 62
     1
  5
A4
 10
250.532301
 20
246.530871
 30
0.0
 40
1.0
 50
89.999963
 51
180.0
  0
ARC
  8
LC-002-002-RND-0
 62
     1
  5
A5
 10
198.532301
 20
246.530696
 30
0.0
 40
1.0
 50
0.0
 51
90.0
  0
LINE
  8
LC-001-002-----0
 62
     1
  5
A6
 10
304.782301
 20
321.960319
 30
0.0
 11
304.782301
 21
259.280843
 31
0.0
  0
LINE
  8
LC-001-002-----0
 62
     1
  5
A7
 10
144.282301
 20
321.971336
 30
0.0
 11
144.282301
 21
259.280696
 31
0.0
  0
ARC
  8
LC-002-002-RND-0
 62
     1
  5
A8
 10
293.032301
 20
259.280843
 30
0.0
 40
11.75
 50
269.999963
 51
0.0
  0
ARC
  8
LC-002-002-RND-0
 62
     1
  5
A9
 10
156.032301
 20
259.280696
 30
0.0
 40
11.75
 50
180.0
 51
270.0
  0
LINE
  8
LC-001-002-----0
 62
     1
  5
AA
 10
254.414004
 20
249.515193
 30
0.0
 11
255.559656
 21
247.530868
 31
0.0
  0
LINE
  8
LC-001-002-----0
 62
     1
  5
AB
 10
252.681953
 20
249.515193
 30
0.0
 11
251.536302
 21
247.53087
 31
0.0
  0
ARC
  8
LC-002-002-RND-0
 62
     1
  5
AC
 10
253.547979
 20
249.015192
 30
0.0
 40
1.0
 50
30.000037
 51
149.999963
  0
LINE
  8
LC-001-002-----0
 62
     1
  5
AD
 10
194.650598
 20
249.515193
 30
0.0
 11
193.504846
 21
247.530696
 31
0.0
  0
LINE
  8
LC-001-002-----0
 62
     1
  5
AE
 10
196.382648
 20
249.515193
 30
0.0
 11
197.5284
 21
247.530696
 31
0.0
  0
ARC
  8
LC-002-002-RND-0
 62
     1
  5
AF
 10
195.516623
 20
249.015192
 30
0.0
 40
1.0
 50
30.000037
 51
149.999963
  0
LINE
  8
LC-001-002-----0
 62
     1
  5
B0
 10
198.532301
 20
247.530696
 30
0.0
 11
197.5284
 21
247.530696
 31
0.0
  0
LINE
  8
LC-001-002-----0
 62
     1
  5
B1
 10
303.389308
 20
334.180696
 30
0.0
 11
266.001365
 21
334.180696
 31
0.0
  0
LINE
  8
LC-001-002-----0
 62
     1
  5
B2
 10
302.031594
 20
324.930696
 30
0.0
 11
266.001359
 21
324.930696
 31
0.0
  0
LINE
  8
LC-001-002-----0
 62
     1
  5
B3
 10
249.53246
 20
250.530696
 30
0.0
 11
249.55857
 21
250.530696
 31
0.0
  0
ARC
  8
LC-002-002-RND-0
 62
     1
  5
B4
 10
249.53246
 20
247.530696
 30
0.0
 40
3.0
 50
90.0
 51
179.999963
  0
ARC
  8
LC-002-002-RND-0
 62
     1
  5
B5
 10
249.55857
 20
253.030696
 30
0.0
 40
2.5
 50
270.0
 51
359.394785
  0
ARC
  8
LC-002-002-RND-0
 62
     1
  5
B6
 10
199.506032
 20
253.030696
 30
0.0
 40
2.5
 50
180.605215
 51
270.0
  0
ARC
  8
LC-002-002-RND-0
 62
     1
  5
B7
 10
199.532142
 20
247.530696
 30
0.0
 40
3.0
 50
0.000037
 51
90.0
  0
LINE
  8
LC-001-002-----0
 62
     1
  5
B8
 10
251.536302
 20
247.53087
 30
0.0
 11
250.532302
 21
247.530871
 31
0.0
  0
LINE
  8
LC-001-002-----0
 62
     1
  5
B9
 10
197.5284
 20
247.530696
 30
0.0
 11
189.532301
 21
247.530694
 31
0.0
  0
LINE
  8
LC-001-002-----0
 62
     1
  5
BA
 10
147.033008
 20
324.930696
 30
0.0
 11
183.001189
 21
324.930696
 31
0.0
  0
ARC
  8
LC-003-001-RND-0
 62
     1
  5
BB
 10
128.020454
 20
350.572688
 30
0.0
 40
1.5
 50
3.0
 51
86.000003
  0
INSERT
  8
LC-005-005-----0
 62
     2
  5
13F
  2
*X0
 10
0.0
 20
0.0
 30
0.0
  0
LINE
  8
LC-001-002-----0
 62
     1
  5
140
 10
185.532301
 20
247.564811
 30
0.0
 11
185.532301
 21
137.530692
 31
0.0
  0
LINE
  8
LC-001-002-----0
 62
     1
  5
141
 10
263.532301
 20
247.530863
 30
0.0
 11
263.532301
 21
137.530692
 31
0.0
  0
LINE
  8
LC-001-002-----0
 62
     1
  5
142
 10
189.532301
 20
247.530694
 30
0.0
 11
189.532301
 21
137.530692
 31
0.0
  0
LINE
  8
LC-001-002-----0
 62
     1
  5
143
 10
259.532301
 20
247.530864
 30
0.0
 11
259.532301
 21
137.530692
 31
0.0
  0
LINE
  8
LC-001-002-----0
 62
     1
  5
144
 10
185.532301
 20
137.530692
 30
0.0
 11
263.532301
 21
137.530692
 31
0.0
  0
INSERT
  8
LC-005-005-----0
 62
     2
  5
198
  2
*X1
 10
0.0
 20
0.0
 30
0.0
  0
LINE
  8
LC-001-002-----0
 62
     1
  5
199
 10
183.001157
 20
336.030696
 30
0.0
 11
183.001327
 21
276.030861
 31
0.0
  0
LINE
  8
LC-001-002-----0
 62
     1
  5
19A
 10
184.001157
 20
336.030696
 30
0.0
 11
184.001327
 21
276.030861
 31
0.0
  0
LINE
  8
LC-001-002-----0
 62
     1
  5
19B
 10
194.032301
 20
276.032539
 30
0.0
 11
183.001161
 21
276.030693
 31
0.0
  0
ARC
  8
LC-001-002-----0
 62
     1
  5
19C
 10
194.001157
 20
336.030696
 30
0.0
 40
10.0
 50
94.313709
 51
179.999848
  0
ARC
  8
LC-002-002-RND-0
 62
     1
  5
19D
 10
195.001157
 20
336.030696
 30
0.0
 40
12.0
 50
90.0
 51
180.0
  0
LINE
  8
LC-001-002-----0
 62
     1
  5
19E
 10
254.001375
 20
348.030867
 30
0.0
 11
238.251156
 21
348.030878
 31
0.0
  0
LINE
  8
LC-001-002-----0
 62
     1
  5
19F
 10
255.001374
 20
346.030867
 30
0.0
 11
225.944533
 21
346.030867
 31
0.0
  0
LINE
  8
LC-001-002-----0
 62
     1
  5
1A0
 10
195.001157
 20
348.030696
 30
0.0
 11
210.751159
 21
348.030696
 31
0.0
  0
ARC
  8
LC-002-002-RND-0
 62
     1
  5
1A1
 10
229.251155
 20
349.030696
 30
0.0
 40
9.0
 50
0.000006
 51
90.000006
  0
ARC
  8
LC-001-002-----0
 62
     1
  5
1A2
 10
255.001368
 20
336.030867
 30
0.0
 40
10.0
 50
0.000096
 51
89.999963
  0
ARC
  8
LC-001-002-----0
 62
     1
  5
1A3
 10
254.001368
 20
336.030867
 30
0.0
 40
12.0
 50
0.000096
 51
89.999963
  0
LINE
  8
LC-001-002-----0
 62
     1
  5
1A4
 10
266.001366
 20
336.030859
 30
0.0
 11
266.001327
 21
276.030859
 31
0.0
  0
LINE
  8
LC-001-002-----0
 62
     1
  5
1A5
 10
265.001366
 20
336.030861
 30
0.0
 11
265.001492
 21
276.031025
 31
0.0
  0
LINE
  8
LC-001-002-----0
 62
     1
  5
1A6
 10
255.032301
 20
276.032681
 30
0.0
 11
266.001327
 21
276.030859
 31
0.0
  0
LINE
  8
LC-001-002-----0
 62
     1
  5
1A7
 10
193.243443
 20
325.530696
 30
0.0
 11
193.248994
 21
346.039717
 31
0.0
  0
LINE
  8
LC-001-002-----0
 62
     1
  5
1A8
 10
225.936818
 20
317.530696
 30
0.0
 11
197.681269
 21
317.530696
 31
0.0
  0
LINE
  8
LC-001-002-----0
 62
     1
  5
1A9
 10
196.743446
 20
321.030696
 30
0.0
 11
197.681269
 21
317.530696
 31
0.0
  0
LINE
  8
LC-001-002-----0
 62
     1
  5
1AA
 10
196.743446
 20
324.116483
 30
0.0
 11
196.743446
 21
321.030696
 31
0.0
  0
ARC
  8
LC-001-002-----0
 62
     1
  5
1AB
 10
196.493443
 20
324.823589
 30
0.0
 40
0.75
 50
289.471622
 51
70.528779
  0
LINE
  8
LC-001-002-----0
 62
     1
  5
1AC
 10
194.118877
 20
325.530696
 30
0.0
 11
196.743443
 21
325.530696
 31
0.0
  0
LINE
  8
LC-001-002-----0
 62
     1
  5
1AD
 10
229.251155
 20
354.030696
 30
0.0
 11
224.501156
 21
354.030696
 31
0.0
  0
LINE
  8
LC-001-002-----0
 62
     1
  5
1AE
 10
234.251156
 20
348.030697
 30
0.0
 11
234.251155
 21
349.030697
 31
0.0
  0
ARC
  8
LC-001-002-----0
 62
     1
  5
1AF
 10
229.251155
 20
349.030696
 30
0.0
 40
5.0
 50
0.000005
 51
90.000006
  0
ARC
  8
LC-002-002-RND-0
 62
     1
  5
1B0
 10
219.751159
 20
349.030696
 30
0.0
 40
9.0
 50
90.0
 51
180.000001
  0
LINE
  8
LC-001-002-----0
 62
     1
  5
1B1
 10
219.751159
 20
354.030696
 30
0.0
 11
224.501157
 21
354.030696
 31
0.0
  0
LINE
  8
LC-001-002-----0
 62
     1
  5
1B2
 10
214.751159
 20
348.030696
 30
0.0
 11
214.751159
 21
349.030696
 31
0.0
  0
LINE
  8
LC-001-002-----0
 62
     1
  5
1B3
 10
229.251154
 20
358.030696
 30
0.0
 11
224.501156
 21
358.030696
 31
0.0
  0
LINE
  8
LC-001-002-----0
 62
     1
  5
1B4
 10
238.251156
 20
348.030697
 30
0.0
 11
238.251155
 21
349.030697
 31
0.0
  0
ARC
  8
LC-001-002-----0
 62
     1
  5
1B5
 10
219.751159
 20
349.030696
 30
0.0
 40
5.0
 50
90.0
 51
180.000001
  0
LINE
  8
LC-001-002-----0
 62
     1
  5
1B6
 10
219.751159
 20
358.030696
 30
0.0
 11
224.501157
 21
358.030696
 31
0.0
  0
LINE
  8
LC-001-002-----0
 62
     1
  5
1B7
 10
210.751159
 20
348.030696
 30
0.0
 11
210.751159
 21
349.030696
 31
0.0
  0
LINE
  8
LC-001-002-----0
 62
     1
  5
1B8
 10
225.936818
 20
317.530696
 30
0.0
 11
225.944533
 21
346.030867
 31
0.0
  0
INSERT
  8
LC-005-005-----0
 62
     2
  5
21C
  2
*X2
 10
0.0
 20
0.0
 30
0.0
  0
LINE
  8
LC-001-002-----0
 62
     1
  5
21D
 10
214.751159
 20
348.030696
 30
0.0
 11
224.501157
 21
348.030696
 31
0.0
  0
LINE
  8
LC-001-002-----0
 62
     1
  5
21E
 10
234.251156
 20
348.030881
 30
0.0
 11
224.501157
 21
348.030888
 31
0.0
  0
LINE
  8
LC-001-002-----0
 62
     1
  5
21F
 10
225.936818
 20
317.530696
 30
0.0
 11
238.993633
 21
317.530696
 31
0.0
  0
LINE
  8
LC-001-002-----0
 62
     1
  5
220
 10
238.993633
 20
317.530696
 30
0.0
 11
239.462544
 21
321.030696
 31
0.0
  0
LINE
  8
LC-001-002-----0
 62
     1
  5
221
 10
239.462544
 20
321.030696
 30
0.0
 11
239.462544
 21
324.116483
 31
0.0
  0
LINE
  8
LC-001-002-----0
 62
     1
  5
222
 10
239.462544
 20
325.530696
 30
0.0
 11
241.212546
 21
325.530696
 31
0.0
  0
ARC
  8
LC-001-002-----0
 62
     1
  5
223
 10
239.761238
 20
324.82359
 30
0.0
 40
0.767605
 50
112.900021
 51
247.099979
  0
LINE
  8
LC-001-002-----0
 62
     1
  5
224
 10
193.243443
 20
325.530696
 30
0.0
 11
196.743443
 21
325.530696
 31
0.0
  0
LINE
  8
LC-001-002-----0
 62
     1
  5
225
 10
254.875812
 20
276.030861
 30
0.0
 11
254.883408
 21
276.030861
 31
0.0
  0
LINE
  8
LC-001-002-----0
 62
     1
  5
226
 10
239.462544
 20
325.530696
 30
0.0
 11
254.875812
 21
325.530696
 31
0.0
  0
LINE
  8
LC-001-002-----0
 62
     1
  5
227
 10
265.000958
 20
276.030861
 30
0.0
 11
265.001492
 21
276.030861
 31
0.0
  0
LINE
  8
LC-001-002-----0
 62
     1
  5
228
 10
189.532301
 20
157.530692
 30
0.0
 11
189.532301
 21
137.530692
 31
0.0
  0
LINE
  8
LC-001-002-----0
 62
     1
  5
229
 10
190.532301
 20
157.530692
 30
0.0
 11
190.532301
 21
137.530692
 31
0.0
  0
LINE
  8
LC-001-002-----0
 62
     1
  5
22A
 10
258.532301
 20
157.530692
 30
0.0
 11
258.532301
 21
137.530692
 31
0.0
  0
LINE
  8
LC-001-002-----0
 62
     1
  5
22B
 10
259.532301
 20
157.530692
 30
0.0
 11
259.532301
 21
137.530692
 31
0.0
  0
LINE
  8
LC-001-002-----0
 62
     1
  5
22C
 10
189.532301
 20
137.530692
 30
0.0
 11
259.532301
 21
137.530692
 31
0.0
  0
LINE
  8
LC-001-002-----0
 62
     1
  5
22D
 10
189.532301
 20
157.530692
 30
0.0
 11
259.532301
 21
157.530692
 31
0.0
  0
INSERT
  8
LC-005-005-----0
 62
     2
  5
240
  2
*X3
 10
0.0
 20
0.0
 30
0.0
  0
DIMENSION
  8
LC-007-003-----0
 62
     2
  5
25F
  2
*D4
 10
224.532301
 20
126.294259
 30
0.0
 11
224.532301
 21
126.294259
 31
0.0
  1
DN70(SML)
 13
185.532301
 23
137.530692
 33
0.0
 14
263.532301
 24
137.530692
 34
0.0
  3
LC-DIM-L-0140-02-02
  0
DIMENSION
  8
LC-007-003-----0
 62
     2
  5
279
  2
*D5
 10
224.532301
 20
64.695543
 30
0.0
 11
224.532301
 21
64.695543
 31
0.0
  1
%%c160
 13
304.782301
 23
259.280696
 33
0.0
 14
144.282301
 24
259.280696
 34
0.0
  3
LC-DIM-L-0140-02-02
  0
INSERT
  8
LC-005-005-----0
 62
     2
  5
2F0
  2
*X6
 10
0.0
 20
0.0
 30
0.0
  0
DIMENSION
  8
LC-007-003-----0
 62
     2
  5
30B
  2
*D7
 10
224.536158
 20
428.127969
 30
0.0
 11
224.536158
 21
428.127969
 31
0.0
  1
%%c300
 13
73.780558
 23
358.38138
 33
0.0
 14
375.291758
 24
358.38138
 34
0.0
  3
LC-DIM-L-0140-02-02
  0
DIMENSION
  8
LC-007-003-----0
 62
     2
  5
326
  2
*D8
 10
224.536584
 20
380.851262
 30
0.0
 11
224.536584
 21
380.851262
 31
0.0
 70
     1
  1
%%c190
 13
129.518398
 23
350.651192
 33
0.0
 14
319.55375
 24
350.647983
 34
0.0
  3
LC-DIM-L-0140-02-02
  0
DIMENSION
  8
LC-007-003-----0
 62
     2
  5
33B
  2
*D9
 10
63.139454
 20
301.455809
 30
0.0
 11
63.139454
 21
301.455809
 31
0.0
  1
110
 13
73.780558
 23
355.380923
 33
0.0
 14
156.032301
 24
247.530696
 34
0.0
 50
90.0
  3
LC-DIM-L-0140-02-02
  0
DIMENSION
  8
LC-007-003-----0
 62
     2
  5
350
  2
*D10
 10
63.139454
 20
192.530694
 30
0.0
 11
63.139454
 21
192.530694
 31
0.0
 13
156.032301
 23
247.530696
 33
0.0
 14
185.532301
 24
137.530692
 34
0.0
 50
90.0
  3
LC-DIM-L-0140-02-02
  0
DIMENSION
  8
LC-007-003-----0
 62
     2
  5
36B
  2
*D11
 10
121.38036
 20
300.780695
 30
0.0
 11
121.38036
 21
300.780695
 31
0.0
  1
50
 13
183.001161
 23
276.030693
 33
0.0
 14
193.243443
 24
325.530696
 34
0.0
 50
90.0
  3
LC-DIM-L-0140-02-02
  0
LINE
  8
LC-001-002-----0
 62
     1
  5
36C
 10
73.780558
 20
358.38138
 30
0.0
 11
114.436158
 21
357.671734
 31
0.0
  0
ARC
  8
LC-002-002-RND-0
 62
     1
  5
36D
 10
117.082934
 20
357.853385
 30
0.0
 40
2.0
 50
225.0
 51
266.000003
  0
LINE
  8
LC-001-002-----0
 62
     1
  5
36E
 10
116.943421
 20
355.858257
 30
0.0
 11
132.305923
 21
354.784007
 31
0.0
  0
LINE
  8
LC-001-002-----0
 62
     1
  5
36F
 10
135.783008
 20
345.680696
 30
0.0
 11
135.783008
 21
351.684263
 31
0.0
  0
LINE
  8
LC-001-002-----0
 62
     1
  5
370
 10
114.436158
 20
357.671734
 30
0.0
 11
115.66872
 21
356.439172
 31
0.0
  0
LINE
  8
LC-001-002-----0
 62
     1
  5
371
 10
132.64019
 20
354.541157
 30
0.0
 11
138.575844
 21
354.12612
 31
0.0
  0
LINE
  8
LC-001-002-----0
 62
     1
  5
372
 10
137.499275
 20
351.680348
 30
0.0
 11
137.499326
 21
338.827929
 31
0.0
  0
LINE
  8
LC-001-002-----0
 62
     1
  5
373
 10
137.499275
 20
351.680348
 30
0.0
 11
135.781332
 21
351.680341
 31
0.0
  0
LINE
  8
LC-001-002-----0
 62
     1
  5
374
 10
132.639938
 20
354.537553
 30
0.0
 11
132.639969
 21
346.91458
 31
0.0
  0
ARC
  8
LC-002-002-RND-0
 62
     1
  5
375
 10
133.719819
 20
346.927417
 30
0.0
 40
1.07985
 50
180.000229
 51
266.000233
  0
LINE
  8
LC-001-002-----0
 62
     1
  5
376
 10
133.644497
 20
345.850198
 30
0.0
 11
135.781356
 21
345.700783
 31
0.0
  0
LINE
  8
LC-001-002-----0
 62
     1
  5
377
 10
135.781356
 20
345.700783
 30
0.0
 11
135.781332
 21
351.680341
 31
0.0
  0
INSERT
  8
LC-005-005-----0
 62
     2
  5
389
  2
*X12
 10
0.0
 20
0.0
 30
0.0
  0
ARC
  8
LC-001-002-----0
 62
     1
  5
38A
 10
138.295189
 20
350.112333
 30
0.0
 40
4.023715
 50
68.753917
 51
86.001394
  0
LINE
  8
LC-001-002-----0
 62
     1
  5
38B
 10
144.693176
 20
348.565436
 30
0.0
 11
139.75328
 21
353.862567
 31
0.0
  0
ARC
  8
LC-001-002-----0
 62
     1
  5
38C
 10
144.475948
 20
348.365058
 30
0.0
 40
0.296443
 50
250.000094
 51
43.000094
  0
LINE
  8
LC-001-002-----0
 62
     1
  5
38D
 10
144.374994
 20
348.084689
 30
0.0
 11
141.081798
 21
349.283224
 31
0.0
  0
ARC
  8
LC-001-002-----0
 62
     1
  5
38E
 10
140.743856
 20
348.354666
 30
0.0
 40
0.988142
 50
70.00139
 51
180.001643
  0
LINE
  8
LC-001-002-----0
 62
     1
  5
38F
 10
139.755715
 20
348.354662
 30
0.0
 11
139.75575
 21
347.038923
 31
0.0
  0
ARC
  8
LC-001-002-----0
 62
     1
  5
390
 10
140.249821
 20
347.038936
 30
0.0
 40
0.494071
 50
180.001526
 51
223.00139
  0
LINE
  8
LC-001-002-----0
 62
     1
  5
391
 10
144.693363
 20
341.549625
 30
0.0
 11
139.888488
 21
346.701972
 31
0.0
  0
ARC
  8
LC-001-002-----0
 62
     1
  5
392
 10
144.475976
 20
341.349247
 30
0.0
 40
0.296443
 50
250.000094
 51
43.000094
  0
LINE
  8
LC-001-002-----0
 62
     1
  5
393
 10
144.375181
 20
341.068879
 30
0.0
 11
141.081985
 21
342.267414
 31
0.0
  0
ARC
  8
LC-001-002-----0
 62
     1
  5
394
 10
140.744043
 20
341.338856
 30
0.0
 40
0.988142
 50
70.00139
 51
180.001643
  0
LINE
  8
LC-001-002-----0
 62
     1
  5
395
 10
139.755915
 20
341.338829
 30
0.0
 11
139.755987
 21
338.82603
 31
0.0
  0
LINE
  8
LC-001-002-----0
 62
     1
  5
396
 10
137.499855
 20
338.827929
 30
0.0
 11
139.755987
 21
338.827938
 31
0.0
  0
LINE
  8
LC-005-005-----0
 62
     2
  5
397
 10
147.357327
 20
331.384845
 30
0.0
 11
147.535352
 21
331.56287
 31
0.0
  0
LINE
  8
LC-001-002-----0
 62
     1
  5
398
 10
-15.265378
 20
363.080727
 30
0.0
 11
-15.265378
 21
358.380727
 31
0.0
  0
LINE
  8
LC-001-002-----0
 62
     1
  5
399
 10
-5.265378
 20
363.080727
 30
0.0
 11
-5.265378
 21
358.380727
 31
0.0
  0
LINE
  8
LC-001-002-----0
 62
     1
  5
39A
 10
4.734622
 20
363.080727
 30
0.0
 11
4.734622
 21
358.380727
 31
0.0
  0
LINE
  8
LC-001-002-----0
 62
     1
  5
39B
 10
14.734622
 20
363.080727
 30
0.0
 11
14.734622
 21
358.380727
 31
0.0
  0
LINE
  8
LC-001-002-----0
 62
     1
  5
39C
 10
24.734622
 20
363.080727
 30
0.0
 11
24.734622
 21
358.380727
 31
0.0
  0
LINE
  8
LC-001-002-----0
 62
     1
  5
39D
 10
34.734622
 20
363.080727
 30
0.0
 11
34.734622
 21
358.380727
 31
0.0
  0
LINE
  8
LC-001-002-----0
 62
     1
  5
39E
 10
44.734622
 20
363.080727
 30
0.0
 11
44.734622
 21
358.380727
 31
0.0
  0
LINE
  8
LC-001-002-----0
 62
     1
  5
39F
 10
54.734622
 20
363.080727
 30
0.0
 11
54.734622
 21
358.380727
 31
0.0
  0
LINE
  8
LC-001-002-----0
 62
     1
  5
3A0
 10
64.734622
 20
363.080727
 30
0.0
 11
64.734622
 21
358.380727
 31
0.0
  0
LINE
  8
LC-001-002-----0
 62
     1
  5
3A1
 10
121.694042
 20
360.23756
 30
0.0
 11
139.421301
 21
358.99795
 31
0.0
  0
LINE
  8
LC-001-002-----0
 62
     1
  5
3A2
 10
121.740655
 20
360.92543
 30
0.0
 11
139.47013
 21
359.685664
 31
0.0
  0
ARC
  8
LC-002-002-RND-0
 62
     1
  5
3A3
 10
138.981835
 20
352.713296
 30
0.0
 40
6.3
 50
0.0
 51
86.0
  0
LINE
  8
LC-001-002-----0
 62
     1
  5
3A4
 10
145.281835
 20
352.713296
 30
0.0
 11
145.281835
 21
339.025253
 31
0.0
  0
ARC
  8
LC-001-002-----0
 62
     1
  5
3A5
 10
148.781835
 20
339.025253
 30
0.0
 40
3.5
 50
180.0
 51
270.0
  0
LINE
  8
LC-001-002-----0
 62
     1
  5
3A6
 10
149.081835
 20
335.225253
 30
0.0
 11
149.081835
 21
332.925253
 31
0.0
  0
ARC
  8
LC-001-002-----0
 62
     1
  5
3A7
 10
148.782358
 20
332.925253
 30
0.0
 40
0.3
 50
270.0
 51
0.0
  0
ARC
  8
LC-001-002-----0
 62
     1
  5
3A8
 10
148.781835
 20
331.125253
 30
0.0
 40
1.5
 50
90.0
 51
180.0
  0
ARC
  8
LC-001-002-----0
 62
     1
  5
3A9
 10
148.781835
 20
331.125253
 30
0.0
 40
1.5
 50
180.0
 51
270.0
  0
LINE
  8
LC-001-002-----0
 62
     1
  5
3AA
 10
148.781835
 20
329.625253
 30
0.0
 11
151.564104
 21
329.625253
 31
0.0
  0
INSERT
  8
LC-005-005-----0
 62
     2
  5
3C7
  2
*X13
 10
0.0
 20
0.0
 30
0.0
  0
INSERT
  8
LC-005-005-----0
 62
     2
  5
3E5
  2
*X14
 10
0.0
 20
0.0
 30
0.0
  0
INSERT
  8
LC-005-005-----0
 62
     2
  5
403
  2
*X15
 10
0.0
 20
0.0
 30
0.0
  0
INSERT
  8
LC-005-005-----0
 62
     2
  5
421
  2
*X16
 10
0.0
 20
0.0
 30
0.0
  0
INSERT
  8
LC-005-005-----0
 62
     2
  5
43F
  2
*X17
 10
0.0
 20
0.0
 30
0.0
  0
INSERT
  8
LC-005-005-----0
 62
     2
  5
45D
  2
*X18
 10
0.0
 20
0.0
 30
0.0
  0
LINE
  8
LC-001-002-----0
 62
     1
  5
45E
 10
146.04423
 20
339.22592
 30
0.0
 11
149.04423
 21
336.22592
 31
0.0
  0
LINE
  8
LC-001-002-----0
 62
     1
  5
45F
 10
148.54423
 20
355.225564
 30
0.0
 11
150.04423
 21
355.225564
 31
0.0
  0
LINE
  8
LC-001-002-----0
 62
     1
  5
460
 10
148.54423
 20
355.225564
 30
0.0
 11
148.54423
 21
356.225564
 31
0.0
  0
ARC
  8
LC-002-002-RND-0
 62
     1
  5
461
 10
150.04423
 20
353.225564
 30
0.0
 40
2.0
 50
0.0
 51
90.0
  0
LINE
  8
LC-001-002-----0
 62
     1
  5
462
 10
168.971489
 20
336.22592
 30
0.0
 11
168.971489
 21
338.72592
 31
0.0
  0
LINE
  8
LC-001-002-----0
 62
     1
  5
463
 10
180.234525
 20
336.22592
 30
0.0
 11
180.234525
 21
338.72592
 31
0.0
  0
LINE
  8
LC-001-002-----0
 62
     1
  5
464
 10
183.341977
 20
338.72592
 30
0.0
 11
180.234525
 21
338.72592
 31
0.0
  0
LINE
  8
LC-001-002-----0
 62
     1
  5
465
 10
168.971489
 20
338.72592
 30
0.0
 11
148.781835
 21
338.72592
 31
0.0
  0
LINE
  8
LC-001-002-----0
 62
     1
  5
466
 10
152.04423
 20
353.225564
 30
0.0
 11
152.04423
 21
338.72592
 31
0.0
  0
LINE
  8
LC-001-002-----0
 62
     1
  5
467
 10
154.29423
 20
336.22592
 30
0.0
 11
183.036972
 21
336.22592
 31
0.0
  0
LINE
  8
LC-001-002-----0
 62
     1
  5
468
 10
146.04423
 20
356.225564
 30
0.0
 11
214.37855
 21
356.225564
 31
0.0
  0
LINE
  8
LC-001-002-----0
 62
     1
  5
469
 10
154.29423
 20
336.22592
 30
0.0
 11
149.04423
 21
336.22592
 31
0.0
  0
LINE
  8
LC-001-002-----0
 62
     1
  5
46A
 10
145.981835
 20
352.702716
 30
0.0
 11
145.981835
 21
339.025253
 31
0.0
  0
LINE
  8
LC-001-002-----0
 62
     1
  5
46B
 10
148.54423
 20
338.72592
 30
0.0
 11
148.54423
 21
356.225564
 31
0.0
  0
INSERT
  8
LC-005-005-----0
 62
     2
  5
47A
  2
*X19
 10
0.0
 20
0.0
 30
0.0
  0
LINE
  8
LC-001-002-----0
 62
     1
  5
47B
 10
157.511918
 20
355.225564
 30
0.0
 11
161.044728
 21
355.225564
 31
0.0
  0
LINE
  8
LC-001-002-----0
 62
     1
  5
47C
 10
157.511918
 20
338.72592
 30
0.0
 11
157.511918
 21
355.225564
 31
0.0
  0
LINE
  8
LC-001-002-----0
 62
     1
  5
47D
 10
186.150724
 20
344.096848
 30
0.0
 11
186.150724
 21
353.225564
 31
0.0
  0
LINE
  8
LC-001-002-----0
 62
     1
  5
47E
 10
190.480851
 20
347.132778
 30
0.0
 11
190.480851
 21
353.225564
 31
0.0
  0
LINE
  8
LC-001-002-----0
 62
     1
  5
47F
 10
184.399731
 20
355.225564
 30
0.0
 11
188.480851
 21
355.225564
 31
0.0
  0
ARC
  8
LC-001-002-----0
 62
     1
  5
480
 10
188.480851
 20
353.225564
 30
0.0
 40
2.0
 50
0.0
 51
90.0
  0
ARC
  8
LC-001-002-----0
 62
     1
  5
481
 10
184.150724
 20
353.225564
 30
0.0
 40
2.0
 50
0.0
 51
82.903005
  0
LINE
  8
LC-001-002-----0
 62
     1
  5
482
 10
184.399731
 20
341.587932
 30
0.0
 11
184.399731
 21
355.225564
 31
0.0
  0
LINE
  8
LC-001-002-----0
 62
     1
  5
483
 10
74.659833
 20
363.080727
 30
0.0
 11
-25.265378
 21
363.080727
 31
0.0
  0
LINE
  8
LC-001-002-----0
 62
     1
  5
484
 10
73.862001
 20
358.380727
 30
0.0
 11
-25.265378
 21
358.380727
 31
0.0
  0
LINE
  8
LC-001-002-----0
 62
     1
  5
485
 10
74.65959
 20
363.066805
 30
0.0
 11
116.416235
 21
362.33794
 31
0.0
  0
LINE
  8
LC-001-002-----0
 62
     1
  5
486
 10
74.659833
 20
363.0668
 30
0.0
 11
74.577807
 21
358.367516
 31
0.0
  0
INSERT
  8
LC-005-005-----0
 62
     2
  5
4A4
  2
*X20
 10
0.0
 20
0.0
 30
0.0
  0
LINE
  8
LC-001-002-----0
 62
     1
  5
4A5
 10
84.667408
 20
362.892118
 30
0.0
 11
84.585382
 21
358.192833
 31
0.0
  0
LINE
  8
LC-001-002-----0
 62
     1
  5
4A6
 10
94.678145
 20
362.717379
 30
0.0
 11
94.596119
 21
358.018095
 31
0.0
  0
INSERT
  8
LC-005-005-----0
 62
     2
  5
4C4
  2
*X21
 10
0.0
 20
0.0
 30
0.0
  0
LINE
  8
LC-001-002-----0
 62
     1
  5
4C5
 10
104.687301
 20
362.542669
 30
0.0
 11
104.605275
 21
357.843385
 31
0.0
  0
LINE
  8
LC-001-002-----0
 62
     1
  5
4C6
 10
114.734622
 20
362.367292
 30
0.0
 11
114.734622
 21
357.372749
 31
0.0
  0
INSERT
  8
LC-005-005-----0
 62
     2
  5
4E8
  2
*X22
 10
0.0
 20
0.0
 30
0.0
  0
LINE
  8
LC-001-002-----0
 62
     1
  5
4E9
 10
124.734622
 20
360.024943
 30
0.0
 11
124.734622
 21
355.313466
 31
0.0
  0
LINE
  8
LC-001-002-----0
 62
     1
  5
4EA
 10
132.30534
 20
354.78407
 30
0.0
 11
132.30534
 21
359.495547
 31
0.0
  0
LINE
  8
LC-001-002-----0
 62
     1
  5
4EB
 10
116.416235
 20
362.33794
 30
0.0
 11
118.277722
 21
360.476453
 31
0.0
  0
LINE
  8
LC-001-002-----0
 62
     1
  5
4EC
 10
118.277722
 20
360.476453
 30
0.0
 11
132.30534
 21
359.495547
 31
0.0
  0
LINE
  8
LC-001-002-----0
 62
     1
  5
4ED
 10
-25.265378
 20
358.380727
 30
0.0
 11
-25.265378
 21
363.080727
 31
0.0
  0
LINE
  8
LC-001-002-----0
 62
     1
  5
4EE
 10
224.535298
 20
362.814611
 30
0.0
 11
116.724982
 21
362.814179
 31
0.0
  0
LINE
  8
LC-001-002-----0
 62
     1
  5
4EF
 10
146.02646
 20
339.225606
 30
0.0
 11
149.026472
 21
336.225618
 31
0.0
  0
LINE
  8
LC-001-002-----0
 62
     1
  5
4F0
 10
156.026472
 20
336.225646
 30
0.0
 11
156.026462
 21
338.725646
 31
0.0
  0
LINE
  8
LC-001-002-----0
 62
     1
  5
4F1
 10
161.453732
 20
336.225667
 30
0.0
 11
161.453722
 21
338.725667
 31
0.0
  0
LINE
  8
LC-001-002-----0
 62
     1
  5
4F2
 10
168.953679
 20
338.725697
 30
0.0
 11
148.526462
 21
338.725616
 31
0.0
  0
LINE
  8
LC-001-002-----0
 62
     1
  5
4F3
 10
146.026392
 20
356.22525
 30
0.0
 11
146.02646
 21
339.225606
 31
0.0
  0
LINE
  8
LC-001-002-----0
 62
     1
  5
4F4
 10
154.276472
 20
336.225639
 30
0.0
 11
183.036692
 21
336.225754
 31
0.0
  0
LINE
  8
LC-001-002-----0
 62
     1
  5
4F5
 10
146.026392
 20
356.22525
 30
0.0
 11
214.378403
 21
356.225523
 31
0.0
  0
LINE
  8
LC-001-002-----0
 62
     1
  5
4F6
 10
154.276472
 20
336.225639
 30
0.0
 11
149.026472
 21
336.225618
 31
0.0
  0
ARC
  8
LC-001-002-----0
 62
     1
  5
4F7
 10
122.164456
 20
367.220099
 30
0.0
 40
6.3
 50
224.378301
 51
266.000229
  0
ARC
  8
LC-001-002-----0
 62
     1
  5
4F8
 10
122.164456
 20
367.220099
 30
0.0
 40
7.0
 50
219.007133
 51
266.000229
  0
ARC
  8
LC-002-002-RND-0
 62
     1
  5
4F9
 10
138.964012
 20
352.702374
 30
0.0
 40
7.0
 50
0.000229
 51
86.000229
  0
ARC
  8
LC-001-002-----0
 62
     1
  5
4FA
 10
148.764067
 20
339.024949
 30
0.0
 40
2.8
 50
180.000229
 51
270.000229
  0
ARC
  8
LC-001-002-----0
 62
     1
  5
4FB
 10
148.764362
 20
335.225317
 30
0.0
 40
1.0
 50
359.999949
 51
89.999949
  0
ARC
  8
LC-001-002-----0
 62
     1
  5
4FC
 10
148.764362
 20
335.225317
 30
0.0
 40
0.3
 50
359.999949
 51
89.999949
  0
LINE
  8
LC-001-002-----0
 62
     1
  5
4FD
 10
149.764082
 20
335.224953
 30
0.0
 11
149.764091
 21
332.924953
 31
0.0
  0
ARC
  8
LC-001-002-----0
 62
     1
  5
4FE
 10
148.764091
 20
332.924949
 30
0.0
 40
1.0
 50
270.000229
 51
0.000229
  0
ARC
  8
LC-001-002-----0
 62
     1
  5
4FF
 10
148.764098
 20
331.124949
 30
0.0
 40
0.8
 50
90.000229
 51
180.000229
  0
ARC
  8
LC-001-002-----0
 62
     1
  5
500
 10
148.764098
 20
331.124949
 30
0.0
 40
0.8
 50
180.000229
 51
270.000229
  0
LINE
  8
LC-001-002-----0
 62
     1
  5
501
 10
148.764101
 20
330.324949
 30
0.0
 11
151.564101
 21
330.324961
 31
0.0
  0
LINE
  8
LC-001-002-----0
 62
     1
  5
502
 10
151.564104
 20
329.624961
 30
0.0
 11
151.564101
 21
330.324961
 31
0.0
  0
ARC
  8
LC-001-002-----0
 62
     1
  5
503
 10
161.026902
 20
353.22531
 30
0.0
 40
2.0
 50
0.000229
 51
90.000229
  0
LINE
  8
LC-001-002-----0
 62
     1
  5
504
 10
157.511918
 20
355.225296
 30
0.0
 11
161.026894
 21
355.22531
 31
0.0
  0
LINE
  8
LC-001-002-----0
 62
     1
  5
505
 10
160.52696
 20
338.725664
 30
0.0
 11
160.526902
 21
353.225308
 31
0.0
  0
LINE
  8
LC-001-002-----0
 62
     1
  5
506
 10
163.02696
 20
338.725674
 30
0.0
 11
163.026902
 21
353.225318
 31
0.0
  0
ARC
  8
LC-001-002-----0
 62
     1
  5
507
 10
158.526902
 20
353.2253
 30
0.0
 40
2.0
 50
0.000229
 51
90.000229
  0
LINE
  8
LC-001-002-----0
 62
     1
  5
508
 10
375.290055
 20
358.381983
 30
0.0
 11
334.634458
 21
357.672174
 31
0.0
  0
ARC
  8
LC-002-002-RND-0
 62
     1
  5
509
 10
331.987682
 20
357.853815
 30
0.0
 40
2.0
 50
274.000226
 51
315.000229
  0
LINE
  8
LC-001-002-----0
 62
     1
  5
50A
 10
332.127203
 20
355.858688
 30
0.0
 11
316.764704
 21
354.784376
 31
0.0
  0
LINE
  8
LC-001-002-----0
 62
     1
  5
50B
 10
313.287656
 20
345.681051
 30
0.0
 11
313.287632
 21
351.684618
 31
0.0
  0
LINE
  8
LC-001-002-----0
 62
     1
  5
50C
 10
334.634458
 20
357.672174
 30
0.0
 11
333.401901
 21
356.439607
 31
0.0
  0
LINE
  8
LC-001-002-----0
 62
     1
  5
50D
 10
316.430438
 20
354.541525
 30
0.0
 11
310.494786
 21
354.126464
 31
0.0
  0
LINE
  8
LC-001-002-----0
 62
     1
  5
50E
 10
311.571365
 20
351.680696
 30
0.0
 11
311.571365
 21
338.828277
 31
0.0
  0
LINE
  8
LC-001-002-----0
 62
     1
  5
50F
 10
311.571365
 20
351.680696
 30
0.0
 11
313.289308
 21
351.680696
 31
0.0
  0
LINE
  8
LC-001-002-----0
 62
     1
  5
510
 10
316.43069
 20
354.537921
 30
0.0
 11
316.43069
 21
346.914948
 31
0.0
  0
ARC
  8
LC-002-002-RND-0
 62
     1
  5
511
 10
315.35084
 20
346.927781
 30
0.0
 40
1.07985
 50
273.999997
 51
0.0
  0
LINE
  8
LC-001-002-----0
 62
     1
  5
512
 10
315.426167
 20
345.850561
 30
0.0
 11
313.289308
 21
345.701138
 31
0.0
  0
LINE
  8
LC-001-002-----0
 62
     1
  5
513
 10
313.289308
 20
345.701138
 30
0.0
 11
313.289308
 21
351.680696
 31
0.0
  0
INSERT
  8
LC-005-005-----0
 62
     2
  5
521
  2
*X23
 10
0.0
 20
0.0
 30
0.0
  0
ARC
  8
LC-001-002-----0
 62
     1
  5
522
 10
310.775457
 20
350.112678
 30
0.0
 40
4.023715
 50
93.998836
 51
111.246312
  0
LINE
  8
LC-001-002-----0
 62
     1
  5
523
 10
304.377476
 20
348.565755
 30
0.0
 11
309.317351
 21
353.862907
 31
0.0
  0
ARC
  8
LC-001-002-----0
 62
     1
  5
524
 10
304.594705
 20
348.365378
 30
0.0
 40
0.296443
 50
137.000136
 51
290.000136
  0
LINE
  8
LC-001-002-----0
 62
     1
  5
525
 10
304.69566
 20
348.08501
 30
0.0
 11
307.988851
 21
349.283558
 31
0.0
  0
ARC
  8
LC-001-002-----0
 62
     1
  5
526
 10
308.326797
 20
348.355001
 30
0.0
 40
0.988142
 50
359.998586
 51
109.998839
  0
LINE
  8
LC-001-002-----0
 62
     1
  5
527
 10
309.314939
 20
348.355001
 30
0.0
 11
309.314909
 21
347.039263
 31
0.0
  0
ARC
  8
LC-001-002-----0
 62
     1
  5
528
 10
308.820838
 20
347.039274
 30
0.0
 40
0.494071
 50
316.998839
 51
359.998703
  0
LINE
  8
LC-001-002-----0
 62
     1
  5
529
 10
304.377317
 20
341.549945
 30
0.0
 11
309.182172
 21
346.702311
 31
0.0
  0
ARC
  8
LC-001-002-----0
 62
     1
  5
52A
 10
304.594705
 20
341.349568
 30
0.0
 40
0.296443
 50
137.000136
 51
290.000136
  0
LINE
  8
LC-001-002-----0
 62
     1
  5
52B
 10
304.695502
 20
341.0692
 30
0.0
 11
307.988692
 21
342.267748
 31
0.0
  0
ARC
  8
LC-001-002-----0
 62
     1
  5
52C
 10
308.326638
 20
341.339191
 30
0.0
 40
0.988142
 50
359.998586
 51
109.998839
  0
LINE
  8
LC-001-002-----0
 62
     1
  5
52D
 10
309.314766
 20
341.339168
 30
0.0
 11
309.314704
 21
338.82637
 31
0.0
  0
LINE
  8
LC-001-002-----0
 62
     1
  5
52E
 10
311.570837
 20
338.828277
 30
0.0
 11
309.314704
 21
338.828277
 31
0.0
  0
LINE
  8
LC-005-005-----0
 62
     2
  5
52F
 10
301.713394
 20
331.385154
 30
0.0
 11
301.535368
 21
331.563178
 31
0.0
  0
LINE
  8
LC-001-002-----0
 62
     1
  5
530
 10
464.335972
 20
363.081686
 30
0.0
 11
464.335991
 21
358.381686
 31
0.0
  0
LINE
  8
LC-001-002-----0
 62
     1
  5
531
 10
454.335972
 20
363.081646
 30
0.0
 11
454.335991
 21
358.381646
 31
0.0
  0
LINE
  8
LC-001-002-----0
 62
     1
  5
532
 10
444.335972
 20
363.081606
 30
0.0
 11
444.335991
 21
358.381606
 31
0.0
  0
LINE
  8
LC-001-002-----0
 62
     1
  5
533
 10
434.335972
 20
363.081566
 30
0.0
 11
434.335991
 21
358.381566
 31
0.0
  0
LINE
  8
LC-001-002-----0
 62
     1
  5
534
 10
424.335972
 20
363.081526
 30
0.0
 11
424.335991
 21
358.381526
 31
0.0
  0
LINE
  8
LC-001-002-----0
 62
     1
  5
535
 10
414.335972
 20
363.081486
 30
0.0
 11
414.335991
 21
358.381486
 31
0.0
  0
LINE
  8
LC-001-002-----0
 62
     1
  5
536
 10
404.335972
 20
363.081446
 30
0.0
 11
404.335991
 21
358.381446
 31
0.0
  0
LINE
  8
LC-001-002-----0
 62
     1
  5
537
 10
394.335972
 20
363.081406
 30
0.0
 11
394.335991
 21
358.381406
 31
0.0
  0
LINE
  8
LC-001-002-----0
 62
     1
  5
538
 10
384.335972
 20
363.081366
 30
0.0
 11
384.335991
 21
358.381366
 31
0.0
  0
LINE
  8
LC-001-002-----0
 62
     1
  5
539
 10
327.376564
 20
360.237972
 30
0.0
 11
309.64931
 21
358.99829
 31
0.0
  0
LINE
  8
LC-001-002-----0
 62
     1
  5
53A
 10
327.329948
 20
360.925841
 30
0.0
 11
309.600477
 21
359.686005
 31
0.0
  0
ARC
  8
LC-002-002-RND-0
 62
     1
  5
53B
 10
310.088801
 20
352.713639
 30
0.0
 40
6.3
 50
94.000229
 51
180.000229
  0
LINE
  8
LC-001-002-----0
 62
     1
  5
53C
 10
303.788801
 20
352.713613
 30
0.0
 11
303.788855
 21
339.02557
 31
0.0
  0
ARC
  8
LC-001-002-----0
 62
     1
  5
53D
 10
300.288855
 20
339.025556
 30
0.0
 40
3.5
 50
270.000229
 51
0.000229
  0
LINE
  8
LC-001-002-----0
 62
     1
  5
53E
 10
299.988871
 20
335.225555
 30
0.0
 11
299.98888
 21
332.925555
 31
0.0
  0
ARC
  8
LC-001-002-----0
 62
     1
  5
53F
 10
300.288357
 20
332.925556
 30
0.0
 40
0.3
 50
180.000229
 51
270.000229
  0
ARC
  8
LC-001-002-----0
 62
     1
  5
540
 10
300.288887
 20
331.125556
 30
0.0
 40
1.5
 50
0.000229
 51
90.000229
  0
ARC
  8
LC-001-002-----0
 62
     1
  5
541
 10
300.288887
 20
331.125556
 30
0.0
 40
1.5
 50
270.000229
 51
0.000229
  0
LINE
  8
LC-001-002-----0
 62
     1
  5
542
 10
300.288893
 20
329.625556
 30
0.0
 11
297.506624
 21
329.625545
 31
0.0
  0
INSERT
  8
LC-005-005-----0
 62
     2
  5
558
  2
*X24
 10
0.0
 20
0.0
 30
0.0
  0
INSERT
  8
LC-005-005-----0
 62
     2
  5
576
  2
*X25
 10
0.0
 20
0.0
 30
0.0
  0
INSERT
  8
LC-005-005-----0
 62
     2
  5
594
  2
*X26
 10
0.0
 20
0.0
 30
0.0
  0
INSERT
  8
LC-005-005-----0
 62
     2
  5
5B2
  2
*X27
 10
0.0
 20
0.0
 30
0.0
  0
INSERT
  8
LC-005-005-----0
 62
     2
  5
5D0
  2
*X28
 10
0.0
 20
0.0
 30
0.0
  0
INSERT
  8
LC-005-005-----0
 62
     2
  5
5EE
  2
*X29
 10
0.0
 20
0.0
 30
0.0
  0
LINE
  8
LC-001-002-----0
 62
     1
  5
5EF
 10
303.02646
 20
339.226234
 30
0.0
 11
300.026472
 21
336.226222
 31
0.0
  0
LINE
  8
LC-001-002-----0
 62
     1
  5
5F0
 10
300.526396
 20
355.225868
 30
0.0
 11
299.026396
 21
355.225862
 31
0.0
  0
LINE
  8
LC-001-002-----0
 62
     1
  5
5F1
 10
300.526396
 20
355.225868
 30
0.0
 11
300.526392
 21
356.225868
 31
0.0
  0
ARC
  8
LC-002-002-RND-0
 62
     1
  5
5F2
 10
299.026404
 20
353.225862
 30
0.0
 40
2.0
 50
90.000229
 51
180.000229
  0
LINE
  8
LC-001-002-----0
 62
     1
  5
5F3
 10
280.099212
 20
336.226142
 30
0.0
 11
280.099202
 21
338.726142
 31
0.0
  0
LINE
  8
LC-001-002-----0
 62
     1
  5
5F4
 10
268.836177
 20
336.226097
 30
0.0
 11
268.836167
 21
338.726097
 31
0.0
  0
LINE
  8
LC-001-002-----0
 62
     1
  5
5F5
 10
265.728714
 20
338.726085
 30
0.0
 11
268.836167
 21
338.726097
 31
0.0
  0
LINE
  8
LC-001-002-----0
 62
     1
  5
5F6
 10
280.099202
 20
338.726142
 30
0.0
 11
300.288857
 21
338.726223
 31
0.0
  0
LINE
  8
LC-001-002-----0
 62
     1
  5
5F7
 10
297.026404
 20
353.225854
 30
0.0
 11
297.026462
 21
338.72621
 31
0.0
  0
LINE
  8
LC-001-002-----0
 62
     1
  5
5F8
 10
294.776472
 20
336.226201
 30
0.0
 11
266.033729
 21
336.226086
 31
0.0
  0
LINE
  8
LC-001-002-----0
 62
     1
  5
5F9
 10
303.026392
 20
356.225878
 30
0.0
 11
234.692071
 21
356.225605
 31
0.0
  0
LINE
  8
LC-001-002-----0
 62
     1
  5
5FA
 10
294.776472
 20
336.226201
 30
0.0
 11
300.026472
 21
336.226222
 31
0.0
  0
LINE
  8
LC-001-002-----0
 62
     1
  5
5FB
 10
303.088801
 20
352.70303
 30
0.0
 11
303.088855
 21
339.025567
 31
0.0
  0
LINE
  8
LC-001-002-----0
 62
     1
  5
5FC
 10
300.526462
 20
338.726224
 30
0.0
 11
300.526392
 21
356.225868
 31
0.0
  0
INSERT
  8
LC-005-005-----0
 62
     2
  5
60A
  2
*X30
 10
0.0
 20
0.0
 30
0.0
  0
LINE
  8
LC-001-002-----0
 62
     1
  5
60B
 10
291.558708
 20
355.225832
 30
0.0
 11
288.025898
 21
355.225818
 31
0.0
  0
LINE
  8
LC-001-002-----0
 62
     1
  5
60C
 10
291.558774
 20
338.726188
 30
0.0
 11
291.558708
 21
355.225832
 31
0.0
  0
LINE
  8
LC-001-002-----0
 62
     1
  5
60D
 10
262.919946
 20
344.097002
 30
0.0
 11
262.91991
 21
353.225718
 31
0.0
  0
LINE
  8
LC-001-002-----0
 62
     1
  5
60E
 10
258.589807
 20
347.132914
 30
0.0
 11
258.589783
 21
353.2257
 31
0.0
  0
LINE
  8
LC-001-002-----0
 62
     1
  5
60F
 10
264.670895
 20
355.225725
 30
0.0
 11
260.589775
 21
355.225708
 31
0.0
  0
ARC
  8
LC-001-002-----0
 62
     1
  5
610
 10
260.589783
 20
353.225708
 30
0.0
 40
2.0
 50
90.000229
 51
180.000229
  0
ARC
  8
LC-001-002-----0
 62
     1
  5
611
 10
264.91991
 20
353.225726
 30
0.0
 40
2.0
 50
97.097224
 51
180.000229
  0
LINE
  8
LC-001-002-----0
 62
     1
  5
612
 10
264.67095
 20
341.588092
 30
0.0
 11
264.670895
 21
355.225725
 31
0.0
  0
LINE
  8
LC-001-002-----0
 62
     1
  5
613
 10
374.410761
 20
363.081326
 30
0.0
 11
474.335972
 21
363.081726
 31
0.0
  0
LINE
  8
LC-001-002-----0
 62
     1
  5
614
 10
375.208612
 20
358.38133
 30
0.0
 11
474.335991
 21
358.381726
 31
0.0
  0
LINE
  8
LC-001-002-----0
 62
     1
  5
615
 10
374.411004
 20
363.067404
 30
0.0
 11
332.654362
 21
362.338372
 31
0.0
  0
LINE
  8
LC-001-002-----0
 62
     1
  5
616
 10
374.410761
 20
363.0674
 30
0.0
 11
374.492807
 21
358.368116
 31
0.0
  0
INSERT
  8
LC-005-005-----0
 62
     2
  5
634
  2
*X31
 10
0.0
 20
0.0
 30
0.0
  0
LINE
  8
LC-001-002-----0
 62
     1
  5
635
 10
364.403187
 20
362.892677
 30
0.0
 11
364.485232
 21
358.193393
 31
0.0
  0
LINE
  8
LC-001-002-----0
 62
     1
  5
636
 10
354.392451
 20
362.717899
 30
0.0
 11
354.474496
 21
358.018615
 31
0.0
  0
INSERT
  8
LC-005-005-----0
 62
     2
  5
654
  2
*X32
 10
0.0
 20
0.0
 30
0.0
  0
LINE
  8
LC-001-002-----0
 62
     1
  5
655
 10
344.383295
 20
362.543149
 30
0.0
 11
344.46534
 21
357.843865
 31
0.0
  0
LINE
  8
LC-001-002-----0
 62
     1
  5
656
 10
334.335975
 20
362.367732
 30
0.0
 11
334.335995
 21
357.373188
 31
0.0
  0
INSERT
  8
LC-005-005-----0
 62
     2
  5
671
  2
*X33
 10
0.0
 20
0.0
 30
0.0
  0
LINE
  8
LC-001-002-----0
 62
     1
  5
672
 10
324.335984
 20
360.025342
 30
0.0
 11
324.336003
 21
355.313865
 31
0.0
  0
LINE
  8
LC-001-002-----0
 62
     1
  5
673
 10
316.765287
 20
354.784439
 30
0.0
 11
316.765268
 21
359.495916
 31
0.0
  0
LINE
  8
LC-001-002-----0
 62
     1
  5
674
 10
332.654362
 20
362.338372
 30
0.0
 11
330.792882
 21
360.476878
 31
0.0
  0
LINE
  8
LC-001-002-----0
 62
     1
  5
675
 10
330.792882
 20
360.476878
 30
0.0
 11
316.765268
 21
359.495916
 31
0.0
  0
LINE
  8
LC-001-002-----0
 62
     1
  5
676
 10
474.335991
 20
358.381726
 30
0.0
 11
474.335972
 21
363.081726
 31
0.0
  0
LINE
  8
LC-001-002-----0
 62
     1
  5
677
 10
224.535298
 20
362.814611
 30
0.0
 11
332.345613
 21
362.814611
 31
0.0
  0
LINE
  8
LC-001-002-----0
 62
     1
  5
678
 10
303.04423
 20
339.22592
 30
0.0
 11
300.04423
 21
336.22592
 31
0.0
  0
LINE
  8
LC-001-002-----0
 62
     1
  5
679
 10
293.04423
 20
336.22592
 30
0.0
 11
293.04423
 21
338.72592
 31
0.0
  0
LINE
  8
LC-001-002-----0
 62
     1
  5
67A
 10
287.61697
 20
336.22592
 30
0.0
 11
287.61697
 21
338.72592
 31
0.0
  0
LINE
  8
LC-001-002-----0
 62
     1
  5
67B
 10
280.117013
 20
338.72592
 30
0.0
 11
300.54423
 21
338.72592
 31
0.0
  0
LINE
  8
LC-001-002-----0
 62
     1
  5
67C
 10
303.04423
 20
356.225564
 30
0.0
 11
303.04423
 21
339.22592
 31
0.0
  0
LINE
  8
LC-001-002-----0
 62
     1
  5
67D
 10
294.79423
 20
336.22592
 30
0.0
 11
266.03401
 21
336.22592
 31
0.0
  0
LINE
  8
LC-001-002-----0
 62
     1
  5
67E
 10
303.04423
 20
356.225564
 30
0.0
 11
234.692219
 21
356.225564
 31
0.0
  0
LINE
  8
LC-001-002-----0
 62
     1
  5
67F
 10
294.79423
 20
336.22592
 30
0.0
 11
300.04423
 21
336.22592
 31
0.0
  0
ARC
  8
LC-001-002-----0
 62
     1
  5
680
 10
326.906122
 20
367.220509
 30
0.0
 40
6.3
 50
274.0
 51
315.621929
  0
ARC
  8
LC-001-002-----0
 62
     1
  5
681
 10
326.906122
 20
367.220509
 30
0.0
 40
7.0
 50
274.0
 51
320.993096
  0
ARC
  8
LC-002-002-RND-0
 62
     1
  5
682
 10
310.106624
 20
352.702716
 30
0.0
 40
7.0
 50
94.0
 51
180.0
  0
ARC
  8
LC-001-002-----0
 62
     1
  5
683
 10
300.306624
 20
339.025253
 30
0.0
 40
2.8
 50
270.0
 51
360.0
  0
ARC
  8
LC-001-002-----0
 62
     1
  5
684
 10
300.306344
 20
335.225621
 30
0.0
 40
1.0
 50
90.00028
 51
180.00028
  0
ARC
  8
LC-001-002-----0
 62
     1
  5
685
 10
300.306344
 20
335.225621
 30
0.0
 40
0.3
 50
90.00028
 51
180.00028
  0
LINE
  8
LC-001-002-----0
 62
     1
  5
686
 10
299.306624
 20
335.225253
 30
0.0
 11
299.306624
 21
332.925253
 31
0.0
  0
ARC
  8
LC-001-002-----0
 62
     1
  5
687
 10
300.306624
 20
332.925253
 30
0.0
 40
1.0
 50
180.0
 51
270.0
  0
ARC
  8
LC-001-002-----0
 62
     1
  5
688
 10
300.306624
 20
331.125253
 30
0.0
 40
0.8
 50
0.0
 51
90.0
  0
ARC
  8
LC-001-002-----0
 62
     1
  5
689
 10
300.306624
 20
331.125253
 30
0.0
 40
0.8
 50
270.0
 51
0.0
  0
LINE
  8
LC-001-002-----0
 62
     1
  5
68A
 10
300.306624
 20
330.325253
 30
0.0
 11
297.506624
 21
330.325253
 31
0.0
  0
LINE
  8
LC-001-002-----0
 62
     1
  5
68B
 10
297.506624
 20
329.625253
 30
0.0
 11
297.506624
 21
330.325253
 31
0.0
  0
ARC
  8
LC-001-002-----0
 62
     1
  5
68C
 10
288.043731
 20
353.225564
 30
0.0
 40
2.0
 50
90.0
 51
180.0
  0
LINE
  8
LC-001-002-----0
 62
     1
  5
68D
 10
291.558708
 20
355.225564
 30
0.0
 11
288.043731
 21
355.225564
 31
0.0
  0
LINE
  8
LC-001-002-----0
 62
     1
  5
68E
 10
288.543731
 20
338.72592
 30
0.0
 11
288.543731
 21
353.225564
 31
0.0
  0
LINE
  8
LC-001-002-----0
 62
     1
  5
68F
 10
286.043731
 20
338.72592
 30
0.0
 11
286.043731
 21
353.225564
 31
0.0
  0
ARC
  8
LC-001-002-----0
 62
     1
  5
690
 10
290.543731
 20
353.225564
 30
0.0
 40
2.0
 50
90.0
 51
180.0
  0
DIMENSION
  8
LC-007-003-----0
 62
     2
  5
6AB
  2
*D34
 10
224.535297
 20
478.764
 30
0.0
 11
224.535297
 21
478.764
 31
0.0
  1
%%c500
 13
-25.265378
 23
363.080727
 33
0.0
 14
474.335972
 24
363.081726
 34
0.0
  3
LC-DIM-L-0140-02-02
  0
ENDSEC
  0
EOF
