  0
SECTION
  2
HEADER
  9
$ACADVER
  1
AC1009
  9
$DWGCODEPAGE
  3
dos850
  9
$INSBASE
 10
0.0
 20
0.0
 30
0.0
  9
$EXTMIN
 10
-210.0
 20
0.0
 30
0.0
  9
$EXTMAX
 10
630.0
 20
594.0
 30
0.0
  9
$LIMMIN
 10
-210.0
 20
0.0
  9
$LIMMAX
 10
630.0
 20
594.0
  9
$ORTHOMODE
 70
     0
  9
$REGENMODE
 70
     1
  9
$FILLMODE
 70
     1
  9
$QTEXTMODE
 70
     0
  9
$MIRRTEXT
 70
     1
  9
$DRAGMODE
 70
     2
  9
$LTSCALE
 40
2.0
  9
$OSMODE
 70
     0
  9
$ATTMODE
 70
     1
  9
$TEXTSIZE
 40
0.2
  9
$TRACEWID
 40
0.05
  9
$TEXTSTYLE
  7
STANDARD
  9
$CLAYER
  8
0
  9
$CELTYPE
  6
BYBLOCK
  9
$CECOLOR
 62
     7
  9
$DIMSCALE
 40
2.0
  9
$DIMASZ
 40
3.5
  9
$DIMEXO
 40
0.0625
  9
$DIMDLI
 40
0.38
  9
$DIMRND
 40
0.0
  9
$DIMDLE
 40
0.0
  9
$DIMEXE
 40
0.18
  9
$DIMTP
 40
0.0
  9
$DIMTM
 40
0.0
  9
$DIMTXT
 40
3.5
  9
$DIMCEN
 40
0.09
  9
$DIMTSZ
 40
0.0
  9
$DIMTOL
 70
     0
  9
$DIMLIM
 70
     0
  9
$DIMTIH
 70
     1
  9
$DIMTOH
 70
     1
  9
$DIMSE1
 70
     0
  9
$DIMSE2
 70
     0
  9
$DIMTAD
 70
     1
  9
$DIMZIN
 70
     0
  9
$DIMBLK
  1

  9
$DIMASO
 70
     1
  9
$DIMSHO
 70
     1
  9
$DIMPOST
  1

  9
$DIMAPOST
  1

  9
$DIMALT
 70
     0
  9
$DIMALTD
 70
     2
  9
$DIMALTF
 40
25.4
  9
$DIMLFAC
 40
1.0
  9
$DIMTOFL
 70
     0
  9
$DIMTVP
 40
0.0
  9
$DIMTIX
 70
     0
  9
$DIMSOXD
 70
     0
  9
$DIMSAH
 70
     0
  9
$DIMBLK1
  1

  9
$DIMBLK2
  1

  9
$DIMSTYLE
  2
STANDARD
  9
$DIMCLRD
 70
     0
  9
$DIMCLRE
 70
     0
  9
$DIMCLRT
 70
     0
  9
$DIMTFAC
 40
1.0
  9
$DIMGAP
 40
0.09
  9
$LUNITS
 70
     2
  9
$LUPREC
 70
     6
  9
$AXISMODE
 70
     0
  9
$AXISUNIT
 10
0.0
 20
0.0
  9
$SKETCHINC
 40
0.1
  9
$FILLETRAD
 40
0.0
  9
$AUNITS
 70
     0
  9
$AUPREC
 70
     0
  9
$MENU
  1
acad
  9
$ELEVATION
 40
0.0
  9
$PELEVATION
 40
0.0
  9
$THICKNESS
 40
0.0
  9
$LIMCHECK
 70
     0
  9
$BLIPMODE
 70
     1
  9
$CHAMFERA
 40
0.0
  9
$CHAMFERB
 40
0.0
  9
$SKPOLY
 70
     0
  9
$TDCREATE
 40
0.000000000
  9
$TDUPDATE
 40
0.000000000
  9
$TDINDWG
 40
0.0000000000
  9
$TDUSRTIMER
 40
0.0000000000
  9
$USRTIMER
 70
     1
  9
$ANGBASE
 50
0.0
  9
$ANGDIR
 70
     0
  9
$PDMODE
 70
     0
  9
$PDSIZE
 40
0.0
  9
$PLINEWID
 40
0.0
  9
$COORDS
 70
     0
  9
$SPLFRAME
 70
     0
  9
$SPLINETYPE
 70
     6
  9
$SPLINESEGS
 70
     8
  9
$ATTDIA
 70
     0
  9
$ATTREQ
 70
     1
  9
$HANDLING
 70
     1
  9
$HANDSEED
  5
40D
  9
$SURFTAB1
 70
     6
  9
$SURFTAB2
 70
     6
  9
$SURFTYPE
 70
     6
  9
$SURFU
 70
     6
  9
$SURFV
 70
     6
  9
$UCSNAME
  2

  9
$UCSORG
 10
0.0
 20
0.0
 30
0.0
  9
$UCSXDIR
 10
1.0
 20
0.0
 30
0.0
  9
$UCSYDIR
 10
0.0
 20
1.0
 30
0.0
  9
$PUCSNAME
  2

  9
$PUCSORG
 10
0.0
 20
0.0
 30
0.0
  9
$PUCSXDIR
 10
1.0
 20
0.0
 30
0.0
  9
$PUCSYDIR
 10
0.0
 20
1.0
 30
0.0
  9
$USERI1
 70
     0
  9
$USERI2
 70
     0
  9
$USERI3
 70
     0
  9
$USERI4
 70
     0
  9
$USERI5
 70
     0
  9
$USERR1
 40
0.0
  9
$USERR2
 40
0.0
  9
$USERR3
 40
0.0
  9
$USERR4
 40
0.0
  9
$USERR5
 40
0.0
  9
$WORLDVIEW
 70
     1
  9
$SHADEDGE
 70
     3
  9
$SHADEDIF
 70
    70
  9
$TILEMODE
 70
     1
  9
$MAXACTVP
 70
    16
  9
$PINSBASE
 10
0.0
 20
0.0
 30
0.0
  9
$PLIMCHECK
 70
     0
  9
$PEXTMIN
 10
-210.0
 20
0.0
 30
0.0
  9
$PEXTMAX
 10
630.0
 20
594.0
 30
0.0
  9
$PLIMMIN
 10
-210.0
 20
0.0
  9
$PLIMMAX
 10
630.0
 20
594.0
  9
$UNITMODE
 70
     0
  9
$VISRETAIN
 70
     0
  9
$PLINEGEN
 70
     1
  9
$PSLTSCALE
 70
     0
  9
$TREEDEPTH
 70
  3020
  0
ENDSEC
  0
SECTION
  2
TABLES
  0
TABLE
  2
VPORT
 70
     1
  0
VPORT
  2
*ACTIVE
 70
     0
 10
0.0
 20
0.0
 11
1.0
 21
1.0
 12
420.0
 22
297.0
 13
0.0
 23
0.0
 14
1.0
 24
1.0
 15
0.0
 25
0.0
 16
0.0
 26
0.0
 36
1.0
 17
-210.0
 27
0.0
 37
0.0
 40
594.0
 41
1.604229
 42
50.0
 43
0.0
 44
0.0
 50
0.0
 51
0.0
 71
     0
 72
   100
 73
     1
 74
     1
 75
     0
 76
     0
 77
     0
 78
     0
  0
ENDTAB
  0
TABLE
  2
LTYPE
 70
     3
  0
LTYPE
  2
CONTINUOUS
 70
    64
  3
Solid line
 72
    65
 73
     0
 40
0.0
  0
LTYPE
  2
DASHED
 70
    64
  3
__ __ __ __ __
 72
    65
 73
     2
 40
6.25
 49
5.0
 49
-1.25
  0
LTYPE
  2
DASHDOT
 70
    64
  3
__ . __ . __ . __ . __
 72
    65
 73
     4
 40
7.5
 49
5.0
 49
-1.25
 49
0.0
 49
-1.25
  0
ENDTAB
  0
TABLE
  2
LAYER
 70
    14
  0
LAYER
  2
0
 70
     0
 62
     7
  6
CONTINUOUS
  0
LAYER
  2
LC-INFO-1-2-MM-A3-0
 70
     1
 62
   255
  6
BYBLOCK
  0
LAYER
  2
LC-3D-HIDDEN
 70
     0
 62
     9
  6
DASHED
  0
LAYER
  2
LC-CUT-HIDDEN
 70
     0
 62
     9
  6
DASHED
  0
LAYER
  2
LC-VIEWPORT
 70
     0
 62
     7
  6
BYBLOCK
  0
LAYER
  2
LC-001-002-----0
 70
     0
 62
     1
  6
BYBLOCK
  0
LAYER
  2
LC-002-002-RND-0
 70
     0
 62
     1
  6
BYBLOCK
  0
LAYER
  2
LC-003-001-RND-0
 70
     0
 62
     1
  6
BYBLOCK
  0
LAYER
  2
LC-004-001-----0
 70
     0
 62
     1
  6
BYBLOCK
  0
LAYER
  2
LC-005-005-----0
 70
     0
 62
     2
  6
BYBLOCK
  0
LAYER
  2
LC-006-103-D00-1
 70
     0
 62
     1
  6
BYBLOCK
  0
LAYER
  2
LC-007-003-MTH-0
 70
     0
 62
     2
  6
BYBLOCK
  0
LAYER
  2
LC-008-003-----0
 70
     0
 62
     2
  6
BYBLOCK
  0
LAYER
  2
LC-009-003-MTG-0
 70
     0
 62
     2
  6
BYBLOCK
  0
ENDTAB
  0
TABLE
  2
STYLE
 70
     4
  0
STYLE
  2
STANDARD
 70
     0
 40
0.0
 41
1.0
 50
0.0
 71
     0
 42
0.0
  3
txt
  4

  0
STYLE
  2
LCTX0-500-0-0-DIN-SCHRIFT
 70
    64
 40
3.5
 41
1.0
 50
0.0
 71
     0
 42
0.0
  3
MONOTXT
  4

  0
STYLE
  2
LCTX15-400-0-0-ARIAL
 70
    64
 40
3.5
 41
1.0
 50
0.0
 71
     0
 42
0.0
  3
Arial
  4

  0
STYLE
  2
LCTX15-400-0-0-DIN-SCHRIFT__P_
 70
    64
 40
0.0
 41
1.0
 50
1.5
 71
     0
 42
3.5
  3
STANDARD
  4

  0
ENDTAB
  0
TABLE
  2
VIEW
 70
     0
  0
ENDTAB
  0
TABLE
  2
UCS
 70
     0
  0
ENDTAB
  0
TABLE
  2
APPID
 70
     1
  0
APPID
  2
ACAD
 70
     0
  0
ENDTAB
  0
TABLE
  2
DIMSTYLE
 70
     2
  0
DIMSTYLE
  2
STANDARD
 70
     0
  3

  4

  5

  6

  7

 40
1.0
 41
0.18
 42
0.0625
 43
0.38
 44
0.18
 45
0.0
 46
0.0
 47
0.0
 48
0.0
 71
     0
 72
     0
 73
     1
 74
     1
 75
     0
 76
     0
 77
     0
 78
     0
140
0.18
141
0.09
142
0.0
143
25.4
144
1.0
145
0.0
146
1.0
147
0.09
170
     0
171
     2
172
     0
173
     0
174
     0
175
     0
176
     0
177
     0
178
     0
  0
DIMSTYLE
  2
LC-DIM-L-0140-02-02
 70
     0
  3

  4

  5

  6

  7

 40
2.0
 41
3.5
 42
0.0
 43
7.5
 44
1.8
 45
0.0
 46
0.0
 47
0.0
 48
0.0
 71
     0
 72
     0
 73
     0
 74
     0
 75
     0
 76
     0
 77
     1
 78
     8
140
14.0
141
0.0
142
0.0
143
25.4
144
1.0
145
0.0
146
0.71
147
1.5
170
     0
171
     2
172
     0
173
     0
174
     0
175
     0
176
     2
177
     2
178
     2
  0
ENDTAB
  0
ENDSEC
  0
SECTION
  2
BLOCKS
  0
BLOCK
  8
0
  5
C1
  2
*X0
 70
    65
 10
0.0
 20
0.0
 30
0.0
  3
*X0
  0
LINE
  8
LC-005-005-----0
 62
     2
  5
C3
 10
199.417557
 20
267.299808
 30
0.0
 11
199.472932
 21
267.355183
 31
0.0
  0
LINE
  8
LC-005-005-----0
 62
     2
  5
C4
 10
197.237161
 20
267.94784
 30
0.0
 11
199.472932
 21
270.18361
 31
0.0
  0
LINE
  8
LC-005-005-----0
 62
     2
  5
C5
 10
196.639444
 20
270.17855
 30
0.0
 11
199.472932
 21
273.012037
 31
0.0
  0
LINE
  8
LC-005-005-----0
 62
     2
  5
C6
 10
196.472932
 20
272.840464
 30
0.0
 11
199.472932
 21
275.840464
 31
0.0
  0
LINE
  8
LC-005-005-----0
 62
     2
  5
C7
 10
196.472932
 20
275.668891
 30
0.0
 11
199.472932
 21
278.668891
 31
0.0
  0
LINE
  8
LC-005-005-----0
 62
     2
  5
C8
 10
196.472932
 20
278.497318
 30
0.0
 11
199.472932
 21
281.497318
 31
0.0
  0
LINE
  8
LC-005-005-----0
 62
     2
  5
C9
 10
196.472932
 20
281.325745
 30
0.0
 11
199.472932
 21
284.325745
 31
0.0
  0
LINE
  8
LC-005-005-----0
 62
     2
  5
CA
 10
196.472932
 20
284.154173
 30
0.0
 11
199.472932
 21
287.154173
 31
0.0
  0
LINE
  8
LC-005-005-----0
 62
     2
  5
CB
 10
196.472932
 20
286.9826
 30
0.0
 11
199.472932
 21
289.9826
 31
0.0
  0
LINE
  8
LC-005-005-----0
 62
     2
  5
CC
 10
196.472932
 20
289.811027
 30
0.0
 11
199.472932
 21
292.811027
 31
0.0
  0
LINE
  8
LC-005-005-----0
 62
     2
  5
CD
 10
196.472932
 20
292.639454
 30
0.0
 11
199.472932
 21
295.639454
 31
0.0
  0
LINE
  8
LC-005-005-----0
 62
     2
  5
CE
 10
196.472932
 20
295.467881
 30
0.0
 11
199.472932
 21
298.467881
 31
0.0
  0
LINE
  8
LC-005-005-----0
 62
     2
  5
CF
 10
196.472932
 20
298.296308
 30
0.0
 11
199.209119
 21
301.032496
 31
0.0
  0
LINE
  8
LC-005-005-----0
 62
     2
  5
D0
 10
195.150892
 20
299.802696
 30
0.0
 11
197.82756
 21
302.479364
 31
0.0
  0
LINE
  8
LC-005-005-----0
 62
     2
  5
D1
 10
193.683332
 20
301.163563
 30
0.0
 11
195.506132
 21
302.986362
 31
0.0
  0
LINE
  8
LC-005-005-----0
 62
     2
  5
D2
 10
189.494038
 20
299.802696
 30
0.0
 11
194.108683
 21
304.417341
 31
0.0
  0
LINE
  8
LC-005-005-----0
 62
     2
  5
D3
 10
186.66561
 20
299.802695
 30
0.0
 11
193.935668
 21
307.072752
 31
0.0
  0
LINE
  8
LC-005-005-----0
 62
     2
  5
D4
 10
183.837183
 20
299.802695
 30
0.0
 11
186.837184
 21
302.802696
 31
0.0
  0
LINE
  8
LC-005-005-----0
 62
     2
  5
D5
 10
190.972932
 20
306.938444
 30
0.0
 11
193.911198
 21
309.87671
 31
0.0
  0
LINE
  8
LC-005-005-----0
 62
     2
  5
D6
 10
181.008755
 20
299.802694
 30
0.0
 11
184.008757
 21
302.802696
 31
0.0
  0
LINE
  8
LC-005-005-----0
 62
     2
  5
D7
 10
190.972932
 20
309.766871
 30
0.0
 11
193.886728
 21
312.680667
 31
0.0
  0
LINE
  8
LC-005-005-----0
 62
     2
  5
D8
 10
178.180327
 20
299.802694
 30
0.0
 11
181.180329
 21
302.802696
 31
0.0
  0
LINE
  8
LC-005-005-----0
 62
     2
  5
D9
 10
190.972932
 20
312.595298
 30
0.0
 11
193.862258
 21
315.484625
 31
0.0
  0
LINE
  8
LC-005-005-----0
 62
     2
  5
DA
 10
175.3519
 20
299.802693
 30
0.0
 11
178.351902
 21
302.802696
 31
0.0
  0
LINE
  8
LC-005-005-----0
 62
     2
  5
DB
 10
190.972932
 20
315.423725
 30
0.0
 11
193.837788
 21
318.288582
 31
0.0
  0
LINE
  8
LC-005-005-----0
 62
     2
  5
DC
 10
172.523472
 20
299.802693
 30
0.0
 11
175.523475
 21
302.802696
 31
0.0
  0
LINE
  8
LC-005-005-----0
 62
     2
  5
DD
 10
190.972932
 20
318.252152
 30
0.0
 11
193.813319
 21
321.092539
 31
0.0
  0
LINE
  8
LC-005-005-----0
 62
     2
  5
DE
 10
169.695044
 20
299.802692
 30
0.0
 11
172.695048
 21
302.802696
 31
0.0
  0
LINE
  8
LC-005-005-----0
 62
     2
  5
DF
 10
190.972932
 20
321.080579
 30
0.0
 11
193.788849
 21
323.896497
 31
0.0
  0
LINE
  8
LC-005-005-----0
 62
     2
  5
E0
 10
166.866617
 20
299.802692
 30
0.0
 11
169.866621
 21
302.802696
 31
0.0
  0
LINE
  8
LC-005-005-----0
 62
     2
  5
E1
 10
190.972932
 20
323.909007
 30
0.0
 11
193.764379
 21
326.700454
 31
0.0
  0
LINE
  8
LC-005-005-----0
 62
     2
  5
E2
 10
164.038189
 20
299.802691
 30
0.0
 11
167.038194
 21
302.802696
 31
0.0
  0
LINE
  8
LC-005-005-----0
 62
     2
  5
E3
 10
190.972932
 20
326.737434
 30
0.0
 11
193.739909
 21
329.504411
 31
0.0
  0
LINE
  8
LC-005-005-----0
 62
     2
  5
E4
 10
161.209762
 20
299.802691
 30
0.0
 11
164.209767
 21
302.802696
 31
0.0
  0
LINE
  8
LC-005-005-----0
 62
     2
  5
E5
 10
190.972932
 20
329.565861
 30
0.0
 11
193.71544
 21
332.308369
 31
0.0
  0
LINE
  8
LC-005-005-----0
 62
     2
  5
E6
 10
158.381404
 20
299.80276
 30
0.0
 11
161.38134
 21
302.802696
 31
0.0
  0
LINE
  8
LC-005-005-----0
 62
     2
  5
E7
 10
190.972932
 20
332.394288
 30
0.0
 11
193.69097
 21
335.112326
 31
0.0
  0
LINE
  8
LC-005-005-----0
 62
     2
  5
E8
 10
156.546472
 20
300.796256
 30
0.0
 11
158.552912
 21
302.802696
 31
0.0
  0
LINE
  8
LC-005-005-----0
 62
     2
  5
E9
 10
190.972932
 20
335.222715
 30
0.0
 11
193.6665
 21
337.916283
 31
0.0
  0
LINE
  8
LC-005-005-----0
 62
     2
  5
EA
 10
152.727058
 20
299.805269
 30
0.0
 11
155.472932
 21
302.551142
 31
0.0
  0
LINE
  8
LC-005-005-----0
 62
     2
  5
EB
 10
155.724485
 20
302.802696
 30
0.0
 11
155.948755
 21
303.026966
 31
0.0
  0
LINE
  8
LC-005-005-----0
 62
     2
  5
EC
 10
190.972932
 20
338.051142
 30
0.0
 11
193.64203
 21
340.720241
 31
0.0
  0
LINE
  8
LC-005-005-----0
 62
     2
  5
ED
 10
150.222502
 20
300.12914
 30
0.0
 11
152.89639
 21
302.803027
 31
0.0
  0
LINE
  8
LC-005-005-----0
 62
     2
  5
EE
 10
190.972932
 20
340.879569
 30
0.0
 11
193.617561
 21
343.524198
 31
0.0
  0
LINE
  8
LC-005-005-----0
 62
     2
  5
EF
 10
148.117678
 20
300.852742
 30
0.0
 11
150.433523
 21
303.168588
 31
0.0
  0
LINE
  8
LC-005-005-----0
 62
     2
  5
F0
 10
190.972932
 20
343.707996
 30
0.0
 11
193.593091
 21
346.328156
 31
0.0
  0
LINE
  8
LC-005-005-----0
 62
     2
  5
F1
 10
146.310586
 20
301.874078
 30
0.0
 11
148.455485
 21
304.018977
 31
0.0
  0
LINE
  8
LC-005-005-----0
 62
     2
  5
F2
 10
190.972932
 20
346.536424
 30
0.0
 11
193.568621
 21
349.132113
 31
0.0
  0
LINE
  8
LC-005-005-----0
 62
     2
  5
F3
 10
144.75888
 20
303.150799
 30
0.0
 11
146.832001
 21
305.22392
 31
0.0
  0
LINE
  8
LC-005-005-----0
 62
     2
  5
F4
 10
190.972932
 20
349.364851
 30
0.0
 11
193.544151
 21
351.93607
 31
0.0
  0
LINE
  8
LC-005-005-----0
 62
     2
  5
F5
 10
143.449709
 20
304.670056
 30
0.0
 11
145.527359
 21
306.747706
 31
0.0
  0
LINE
  8
LC-005-005-----0
 62
     2
  5
F6
 10
190.972932
 20
352.193278
 30
0.0
 11
193.519681
 21
354.740028
 31
0.0
  0
LINE
  8
LC-005-005-----0
 62
     2
  5
F7
 10
142.392808
 20
306.441582
 30
0.0
 11
144.559589
 21
308.608362
 31
0.0
  0
LINE
  8
LC-005-005-----0
 62
     2
  5
F8
 10
190.972932
 20
355.021705
 30
0.0
 11
193.495212
 21
357.543985
 31
0.0
  0
LINE
  8
LC-005-005-----0
 62
     2
  5
F9
 10
141.625645
 20
308.502845
 30
0.0
 11
144.019369
 21
310.89657
 31
0.0
  0
LINE
  8
LC-005-005-----0
 62
     2
  5
FA
 10
190.972932
 20
357.850132
 30
0.0
 11
193.470742
 21
360.347942
 31
0.0
  0
LINE
  8
LC-005-005-----0
 62
     2
  5
FB
 10
141.238692
 20
310.94432
 30
0.0
 11
143.973639
 21
313.679266
 31
0.0
  0
LINE
  8
LC-005-005-----0
 62
     2
  5
FC
 10
190.972932
 20
360.678559
 30
0.0
 11
193.446272
 21
363.1519
 31
0.0
  0
LINE
  8
LC-005-005-----0
 62
     2
  5
FD
 10
141.222932
 20
313.756986
 30
0.0
 11
143.973639
 21
316.507693
 31
0.0
  0
LINE
  8
LC-005-005-----0
 62
     2
  5
FE
 10
190.972932
 20
363.506986
 30
0.0
 11
193.421802
 21
365.955857
 31
0.0
  0
LINE
  8
LC-005-005-----0
 62
     2
  5
FF
 10
141.222932
 20
316.585413
 30
0.0
 11
143.973639
 21
319.33612
 31
0.0
  0
LINE
  8
LC-005-005-----0
 62
     2
  5
100
 10
190.972932
 20
366.335413
 30
0.0
 11
193.397333
 21
368.759814
 31
0.0
  0
LINE
  8
LC-005-005-----0
 62
     2
  5
101
 10
141.222932
 20
319.413841
 30
0.0
 11
143.973639
 21
322.164547
 31
0.0
  0
LINE
  8
LC-005-005-----0
 62
     2
  5
102
 10
190.972932
 20
369.163841
 30
0.0
 11
193.372863
 21
371.563772
 31
0.0
  0
LINE
  8
LC-005-005-----0
 62
     2
  5
103
 10
141.222932
 20
322.242268
 30
0.0
 11
143.973639
 21
324.992975
 31
0.0
  0
LINE
  8
LC-005-005-----0
 62
     2
  5
104
 10
190.972932
 20
371.992268
 30
0.0
 11
193.348393
 21
374.367729
 31
0.0
  0
LINE
  8
LC-005-005-----0
 62
     2
  5
105
 10
141.222932
 20
325.070695
 30
0.0
 11
143.973639
 21
327.821402
 31
0.0
  0
LINE
  8
LC-005-005-----0
 62
     2
  5
106
 10
190.972932
 20
374.820695
 30
0.0
 11
193.817371
 21
377.665134
 31
0.0
  0
LINE
  8
LC-005-005-----0
 62
     2
  5
107
 10
141.222932
 20
327.899122
 30
0.0
 11
143.973639
 21
330.649829
 31
0.0
  0
LINE
  8
LC-005-005-----0
 62
     2
  5
108
 10
190.972932
 20
377.649122
 30
0.0
 11
191.126506
 21
377.802696
 31
0.0
  0
LINE
  8
LC-005-005-----0
 62
     2
  5
109
 10
141.222932
 20
330.727549
 30
0.0
 11
143.973639
 21
333.478256
 31
0.0
  0
LINE
  8
LC-005-005-----0
 62
     2
  5
10A
 10
141.222932
 20
333.555976
 30
0.0
 11
143.973639
 21
336.306683
 31
0.0
  0
LINE
  8
LC-005-005-----0
 62
     2
  5
10B
 10
141.222932
 20
336.384403
 30
0.0
 11
143.973639
 21
339.13511
 31
0.0
  0
LINE
  8
LC-005-005-----0
 62
     2
  5
10C
 10
141.222932
 20
339.21283
 30
0.0
 11
143.973639
 21
341.963537
 31
0.0
  0
LINE
  8
LC-005-005-----0
 62
     2
  5
10D
 10
141.222932
 20
342.041258
 30
0.0
 11
143.973639
 21
344.791964
 31
0.0
  0
LINE
  8
LC-005-005-----0
 62
     2
  5
10E
 10
141.222932
 20
344.869685
 30
0.0
 11
143.973639
 21
347.620392
 31
0.0
  0
LINE
  8
LC-005-005-----0
 62
     2
  5
10F
 10
141.222932
 20
347.698112
 30
0.0
 11
143.973639
 21
350.448819
 31
0.0
  0
LINE
  8
LC-005-005-----0
 62
     2
  5
110
 10
141.222932
 20
350.526539
 30
0.0
 11
143.973639
 21
353.277246
 31
0.0
  0
LINE
  8
LC-005-005-----0
 62
     2
  5
111
 10
141.222932
 20
353.354966
 30
0.0
 11
143.973639
 21
356.105673
 31
0.0
  0
LINE
  8
LC-005-005-----0
 62
     2
  5
112
 10
141.222932
 20
356.183393
 30
0.0
 11
143.973639
 21
358.9341
 31
0.0
  0
LINE
  8
LC-005-005-----0
 62
     2
  5
113
 10
141.222932
 20
359.01182
 30
0.0
 11
143.973639
 21
361.762527
 31
0.0
  0
LINE
  8
LC-005-005-----0
 62
     2
  5
114
 10
141.222932
 20
361.840247
 30
0.0
 11
143.973639
 21
364.590954
 31
0.0
  0
LINE
  8
LC-005-005-----0
 62
     2
  5
115
 10
141.222932
 20
364.668675
 30
0.0
 11
143.973639
 21
367.419381
 31
0.0
  0
LINE
  8
LC-005-005-----0
 62
     2
  5
116
 10
141.222932
 20
367.497102
 30
0.0
 11
143.973639
 21
370.247809
 31
0.0
  0
LINE
  8
LC-005-005-----0
 62
     2
  5
117
 10
141.222932
 20
370.325529
 30
0.0
 11
143.973639
 21
373.076236
 31
0.0
  0
LINE
  8
LC-005-005-----0
 62
     2
  5
118
 10
141.222932
 20
373.153956
 30
0.0
 11
143.973639
 21
375.904663
 31
0.0
  0
LINE
  8
LC-005-005-----0
 62
     2
  5
119
 10
140.506729
 20
375.26618
 30
0.0
 11
143.423639
 21
378.18309
 31
0.0
  0
LINE
  8
LC-005-005-----0
 62
     2
  5
11A
 10
139.341879
 20
376.929758
 30
0.0
 11
144.255492
 21
381.84337
 31
0.0
  0
LINE
  8
LC-005-005-----0
 62
     2
  5
11B
 10
138.17703
 20
378.593335
 30
0.0
 11
144.423639
 21
384.839944
 31
0.0
  0
LINE
  8
LC-005-005-----0
 62
     2
  5
11C
 10
137.01218
 20
380.256913
 30
0.0
 11
143.071112
 21
386.315845
 31
0.0
  0
LINE
  8
LC-005-005-----0
 62
     2
  5
11D
 10
135.847331
 20
381.92049
 30
0.0
 11
140.379536
 21
386.452696
 31
0.0
  0
LINE
  8
LC-005-005-----0
 62
     2
  5
11E
 10
134.682481
 20
383.584068
 30
0.0
 11
137.551109
 21
386.452696
 31
0.0
  0
LINE
  8
LC-005-005-----0
 62
     2
  5
11F
 10
133.517631
 20
385.247646
 30
0.0
 11
134.869607
 21
386.599621
 31
0.0
  0
LINE
  8
LC-005-005-----0
 62
     2
  5
120
 10
132.352782
 20
386.911223
 30
0.0
 11
134.72502
 21
389.283462
 31
0.0
  0
LINE
  8
LC-005-005-----0
 62
     2
  5
121
 10
131.973639
 20
389.360507
 30
0.0
 11
134.72502
 21
392.111889
 31
0.0
  0
LINE
  8
LC-005-005-----0
 62
     2
  5
122
 10
131.973639
 20
392.188934
 30
0.0
 11
134.72502
 21
394.940316
 31
0.0
  0
LINE
  8
LC-005-005-----0
 62
     2
  5
123
 10
131.588668
 20
394.632391
 30
0.0
 11
134.72502
 21
397.768743
 31
0.0
  0
LINE
  8
LC-005-005-----0
 62
     2
  5
124
 10
129.582739
 20
395.454889
 30
0.0
 11
132.080546
 21
397.952696
 31
0.0
  0
LINE
  8
LC-005-005-----0
 62
     2
  5
125
 10
132.723639
 20
398.595788
 30
0.0
 11
134.72502
 21
400.59717
 31
0.0
  0
LINE
  8
LC-005-005-----0
 62
     2
  5
126
 10
127.603633
 20
396.30421
 30
0.0
 11
129.787233
 21
398.48781
 31
0.0
  0
LINE
  8
LC-005-005-----0
 62
     2
  5
127
 10
132.723639
 20
401.424215
 30
0.0
 11
134.72502
 21
403.425597
 31
0.0
  0
LINE
  8
LC-005-005-----0
 62
     2
  5
128
 10
126.705388
 20
398.234392
 30
0.0
 11
129.559308
 21
401.088312
 31
0.0
  0
LINE
  8
LC-005-005-----0
 62
     2
  5
129
 10
126.56394
 20
400.921371
 30
0.0
 11
129.418458
 21
403.775889
 31
0.0
  0
LINE
  8
LC-005-005-----0
 62
     2
  5
12A
 10
126.3116
 20
403.497458
 30
0.0
 11
129.277608
 21
406.463466
 31
0.0
  0
LINE
  8
LC-005-005-----0
 62
     2
  5
12B
 10
124.375045
 20
404.38933
 30
0.0
 11
127.185822
 21
407.200108
 31
0.0
  0
LINE
  8
LC-005-005-----0
 62
     2
  5
12C
 10
121.731474
 20
404.574187
 30
0.0
 11
124.542251
 21
407.384964
 31
0.0
  0
LINE
  8
LC-005-005-----0
 62
     2
  5
12D
 10
119.087904
 20
404.759043
 30
0.0
 11
121.898681
 21
407.56982
 31
0.0
  0
LINE
  8
LC-005-005-----0
 62
     2
  5
12E
 10
116.444333
 20
404.943899
 30
0.0
 11
119.25511
 21
407.754677
 31
0.0
  0
LINE
  8
LC-005-005-----0
 62
     2
  5
12F
 10
113.800762
 20
405.128756
 30
0.0
 11
116.611539
 21
407.939533
 31
0.0
  0
LINE
  8
LC-005-005-----0
 62
     2
  5
130
 10
111.541282
 20
405.697703
 30
0.0
 11
113.967968
 21
408.124389
 31
0.0
  0
LINE
  8
LC-005-005-----0
 62
     2
  5
131
 10
109.982762
 20
406.96761
 30
0.0
 11
112.167837
 21
409.152685
 31
0.0
  0
LINE
  8
LC-005-005-----0
 62
     2
  5
132
 10
107.202858
 20
407.016133
 30
0.0
 11
110.15184
 21
409.965115
 31
0.0
  0
LINE
  8
LC-005-005-----0
 62
     2
  5
133
 10
104.422954
 20
407.064656
 30
0.0
 11
107.371936
 21
410.013639
 31
0.0
  0
LINE
  8
LC-005-005-----0
 62
     2
  5
134
 10
101.64305
 20
407.11318
 30
0.0
 11
104.592033
 21
410.062162
 31
0.0
  0
LINE
  8
LC-005-005-----0
 62
     2
  5
135
 10
98.863147
 20
407.161703
 30
0.0
 11
101.812129
 21
410.110686
 31
0.0
  0
LINE
  8
LC-005-005-----0
 62
     2
  5
136
 10
96.083243
 20
407.210227
 30
0.0
 11
99.032225
 21
410.159209
 31
0.0
  0
LINE
  8
LC-005-005-----0
 62
     2
  5
137
 10
93.303339
 20
407.25875
 30
0.0
 11
96.252321
 21
410.207732
 31
0.0
  0
LINE
  8
LC-005-005-----0
 62
     2
  5
138
 10
90.523435
 20
407.307273
 30
0.0
 11
93.472418
 21
410.256256
 31
0.0
  0
LINE
  8
LC-005-005-----0
 62
     2
  5
139
 10
87.743532
 20
407.355797
 30
0.0
 11
90.692514
 21
410.304779
 31
0.0
  0
LINE
  8
LC-005-005-----0
 62
     2
  5
13A
 10
84.963628
 20
407.40432
 30
0.0
 11
87.91261
 21
410.353303
 31
0.0
  0
LINE
  8
LC-005-005-----0
 62
     2
  5
13B
 10
82.183724
 20
407.452844
 30
0.0
 11
85.132707
 21
410.401826
 31
0.0
  0
LINE
  8
LC-005-005-----0
 62
     2
  5
13C
 10
79.403821
 20
407.501367
 30
0.0
 11
82.352803
 21
410.450349
 31
0.0
  0
LINE
  8
LC-005-005-----0
 62
     2
  5
13D
 10
76.623917
 20
407.54989
 30
0.0
 11
79.572899
 21
410.498873
 31
0.0
  0
LINE
  8
LC-005-005-----0
 62
     2
  5
13E
 10
73.844013
 20
407.598414
 30
0.0
 11
76.792995
 21
410.547396
 31
0.0
  0
LINE
  8
LC-005-005-----0
 62
     2
  5
13F
 10
71.064109
 20
407.646937
 30
0.0
 11
74.013092
 21
410.59592
 31
0.0
  0
LINE
  8
LC-005-005-----0
 62
     2
  5
140
 10
70.721189
 20
410.132444
 30
0.0
 11
71.233188
 21
410.644443
 31
0.0
  0
ENDBLK
  8
0
  5
141
  0
BLOCK
  8
0
  5
149
  2
*X1
 70
    65
 10
0.0
 20
0.0
 30
0.0
  3
*X1
  0
LINE
  8
LC-005-005-----0
 62
     2
  5
14A
 10
274.655506
 20
189.802692
 30
0.0
 11
276.472932
 21
191.620118
 31
0.0
  0
LINE
  8
LC-005-005-----0
 62
     2
  5
14B
 10
272.472932
 20
190.448545
 30
0.0
 11
276.472932
 21
194.448545
 31
0.0
  0
LINE
  8
LC-005-005-----0
 62
     2
  5
14C
 10
272.472932
 20
193.276972
 30
0.0
 11
276.472932
 21
197.276972
 31
0.0
  0
LINE
  8
LC-005-005-----0
 62
     2
  5
14D
 10
272.472932
 20
196.105399
 30
0.0
 11
276.472932
 21
200.105399
 31
0.0
  0
LINE
  8
LC-005-005-----0
 62
     2
  5
14E
 10
272.472932
 20
198.933826
 30
0.0
 11
276.472932
 21
202.933826
 31
0.0
  0
LINE
  8
LC-005-005-----0
 62
     2
  5
14F
 10
272.472932
 20
201.762254
 30
0.0
 11
276.472932
 21
205.762254
 31
0.0
  0
LINE
  8
LC-005-005-----0
 62
     2
  5
150
 10
272.472932
 20
204.590681
 30
0.0
 11
276.472932
 21
208.590681
 31
0.0
  0
LINE
  8
LC-005-005-----0
 62
     2
  5
151
 10
272.472932
 20
207.419108
 30
0.0
 11
276.472932
 21
211.419108
 31
0.0
  0
LINE
  8
LC-005-005-----0
 62
     2
  5
152
 10
272.472932
 20
210.247535
 30
0.0
 11
276.472932
 21
214.247535
 31
0.0
  0
LINE
  8
LC-005-005-----0
 62
     2
  5
153
 10
272.472932
 20
213.075962
 30
0.0
 11
276.472932
 21
217.075962
 31
0.0
  0
LINE
  8
LC-005-005-----0
 62
     2
  5
154
 10
272.472932
 20
215.904389
 30
0.0
 11
276.472932
 21
219.904389
 31
0.0
  0
LINE
  8
LC-005-005-----0
 62
     2
  5
155
 10
272.472932
 20
218.732816
 30
0.0
 11
276.472932
 21
222.732816
 31
0.0
  0
LINE
  8
LC-005-005-----0
 62
     2
  5
156
 10
272.472932
 20
221.561243
 30
0.0
 11
276.472932
 21
225.561243
 31
0.0
  0
LINE
  8
LC-005-005-----0
 62
     2
  5
157
 10
272.472932
 20
224.389671
 30
0.0
 11
276.472932
 21
228.389671
 31
0.0
  0
LINE
  8
LC-005-005-----0
 62
     2
  5
158
 10
272.472932
 20
227.218098
 30
0.0
 11
276.472932
 21
231.218098
 31
0.0
  0
LINE
  8
LC-005-005-----0
 62
     2
  5
159
 10
272.472932
 20
230.046525
 30
0.0
 11
276.472932
 21
234.046525
 31
0.0
  0
LINE
  8
LC-005-005-----0
 62
     2
  5
15A
 10
272.472932
 20
232.874952
 30
0.0
 11
276.472932
 21
236.874952
 31
0.0
  0
LINE
  8
LC-005-005-----0
 62
     2
  5
15B
 10
272.472932
 20
235.703379
 30
0.0
 11
276.472932
 21
239.703379
 31
0.0
  0
LINE
  8
LC-005-005-----0
 62
     2
  5
15C
 10
272.472932
 20
238.531806
 30
0.0
 11
276.472932
 21
242.531806
 31
0.0
  0
LINE
  8
LC-005-005-----0
 62
     2
  5
15D
 10
272.472932
 20
241.360233
 30
0.0
 11
276.472932
 21
245.360233
 31
0.0
  0
LINE
  8
LC-005-005-----0
 62
     2
  5
15E
 10
272.472932
 20
244.18866
 30
0.0
 11
276.472932
 21
248.18866
 31
0.0
  0
LINE
  8
LC-005-005-----0
 62
     2
  5
15F
 10
272.472932
 20
247.017088
 30
0.0
 11
276.472932
 21
251.017088
 31
0.0
  0
LINE
  8
LC-005-005-----0
 62
     2
  5
160
 10
272.472932
 20
249.845515
 30
0.0
 11
276.472932
 21
253.845515
 31
0.0
  0
LINE
  8
LC-005-005-----0
 62
     2
  5
161
 10
272.472932
 20
252.673942
 30
0.0
 11
276.472932
 21
256.673942
 31
0.0
  0
LINE
  8
LC-005-005-----0
 62
     2
  5
162
 10
272.472932
 20
255.502369
 30
0.0
 11
276.472932
 21
259.502369
 31
0.0
  0
LINE
  8
LC-005-005-----0
 62
     2
  5
163
 10
272.472932
 20
258.330796
 30
0.0
 11
276.472932
 21
262.330796
 31
0.0
  0
LINE
  8
LC-005-005-----0
 62
     2
  5
164
 10
272.472932
 20
261.159223
 30
0.0
 11
276.472932
 21
265.159223
 31
0.0
  0
LINE
  8
LC-005-005-----0
 62
     2
  5
165
 10
272.472932
 20
263.98765
 30
0.0
 11
276.472932
 21
267.98765
 31
0.0
  0
LINE
  8
LC-005-005-----0
 62
     2
  5
166
 10
272.472932
 20
266.816077
 30
0.0
 11
276.472932
 21
270.816077
 31
0.0
  0
LINE
  8
LC-005-005-----0
 62
     2
  5
167
 10
272.472932
 20
269.644505
 30
0.0
 11
276.472932
 21
273.644505
 31
0.0
  0
LINE
  8
LC-005-005-----0
 62
     2
  5
168
 10
272.472932
 20
272.472932
 30
0.0
 11
276.472932
 21
276.472932
 31
0.0
  0
LINE
  8
LC-005-005-----0
 62
     2
  5
169
 10
272.472932
 20
275.301359
 30
0.0
 11
276.472932
 21
279.301359
 31
0.0
  0
LINE
  8
LC-005-005-----0
 62
     2
  5
16A
 10
272.472932
 20
278.129786
 30
0.0
 11
276.472932
 21
282.129786
 31
0.0
  0
LINE
  8
LC-005-005-----0
 62
     2
  5
16B
 10
272.472932
 20
280.958213
 30
0.0
 11
276.472932
 21
284.958213
 31
0.0
  0
LINE
  8
LC-005-005-----0
 62
     2
  5
16C
 10
272.472932
 20
283.78664
 30
0.0
 11
276.472932
 21
287.78664
 31
0.0
  0
LINE
  8
LC-005-005-----0
 62
     2
  5
16D
 10
272.472932
 20
286.615067
 30
0.0
 11
276.472932
 21
290.615067
 31
0.0
  0
LINE
  8
LC-005-005-----0
 62
     2
  5
16E
 10
272.472932
 20
289.443494
 30
0.0
 11
276.472932
 21
293.443494
 31
0.0
  0
LINE
  8
LC-005-005-----0
 62
     2
  5
16F
 10
170.003702
 20
189.802692
 30
0.0
 11
170.472932
 21
190.271922
 31
0.0
  0
LINE
  8
LC-005-005-----0
 62
     2
  5
170
 10
272.472932
 20
292.271922
 30
0.0
 11
276.472932
 21
296.271922
 31
0.0
  0
LINE
  8
LC-005-005-----0
 62
     2
  5
171
 10
167.175275
 20
189.802692
 30
0.0
 11
170.472932
 21
193.100349
 31
0.0
  0
LINE
  8
LC-005-005-----0
 62
     2
  5
172
 10
272.472932
 20
295.100349
 30
0.0
 11
276.472932
 21
299.100349
 31
0.0
  0
LINE
  8
LC-005-005-----0
 62
     2
  5
173
 10
166.472932
 20
191.928776
 30
0.0
 11
170.472932
 21
195.928776
 31
0.0
  0
LINE
  8
LC-005-005-----0
 62
     2
  5
174
 10
272.472932
 20
297.928776
 30
0.0
 11
274.380967
 21
299.836811
 31
0.0
  0
LINE
  8
LC-005-005-----0
 62
     2
  5
175
 10
166.472932
 20
194.757203
 30
0.0
 11
170.472932
 21
198.757203
 31
0.0
  0
LINE
  8
LC-005-005-----0
 62
     2
  5
176
 10
166.472932
 20
197.58563
 30
0.0
 11
170.472932
 21
201.58563
 31
0.0
  0
LINE
  8
LC-005-005-----0
 62
     2
  5
177
 10
166.472932
 20
200.414057
 30
0.0
 11
170.472932
 21
204.414057
 31
0.0
  0
LINE
  8
LC-005-005-----0
 62
     2
  5
178
 10
166.472932
 20
203.242484
 30
0.0
 11
170.472932
 21
207.242484
 31
0.0
  0
LINE
  8
LC-005-005-----0
 62
     2
  5
179
 10
166.472932
 20
206.070911
 30
0.0
 11
170.472932
 21
210.070911
 31
0.0
  0
LINE
  8
LC-005-005-----0
 62
     2
  5
17A
 10
166.472932
 20
208.899339
 30
0.0
 11
170.472932
 21
212.899339
 31
0.0
  0
LINE
  8
LC-005-005-----0
 62
     2
  5
17B
 10
166.472932
 20
211.727766
 30
0.0
 11
170.472932
 21
215.727766
 31
0.0
  0
LINE
  8
LC-005-005-----0
 62
     2
  5
17C
 10
166.472932
 20
214.556193
 30
0.0
 11
170.472932
 21
218.556193
 31
0.0
  0
LINE
  8
LC-005-005-----0
 62
     2
  5
17D
 10
166.472932
 20
217.38462
 30
0.0
 11
170.472932
 21
221.38462
 31
0.0
  0
LINE
  8
LC-005-005-----0
 62
     2
  5
17E
 10
166.472932
 20
220.213047
 30
0.0
 11
170.472932
 21
224.213047
 31
0.0
  0
LINE
  8
LC-005-005-----0
 62
     2
  5
17F
 10
166.472932
 20
223.041474
 30
0.0
 11
170.472932
 21
227.041474
 31
0.0
  0
LINE
  8
LC-005-005-----0
 62
     2
  5
180
 10
166.472932
 20
225.869901
 30
0.0
 11
170.472932
 21
229.869901
 31
0.0
  0
LINE
  8
LC-005-005-----0
 62
     2
  5
181
 10
166.472932
 20
228.698328
 30
0.0
 11
170.472932
 21
232.698328
 31
0.0
  0
LINE
  8
LC-005-005-----0
 62
     2
  5
182
 10
166.472932
 20
231.526756
 30
0.0
 11
170.472932
 21
235.526756
 31
0.0
  0
LINE
  8
LC-005-005-----0
 62
     2
  5
183
 10
166.472932
 20
234.355183
 30
0.0
 11
170.472932
 21
238.355183
 31
0.0
  0
LINE
  8
LC-005-005-----0
 62
     2
  5
184
 10
166.472932
 20
237.18361
 30
0.0
 11
170.472932
 21
241.18361
 31
0.0
  0
LINE
  8
LC-005-005-----0
 62
     2
  5
185
 10
166.472932
 20
240.012037
 30
0.0
 11
170.472932
 21
244.012037
 31
0.0
  0
LINE
  8
LC-005-005-----0
 62
     2
  5
186
 10
166.472932
 20
242.840464
 30
0.0
 11
170.472932
 21
246.840464
 31
0.0
  0
LINE
  8
LC-005-005-----0
 62
     2
  5
187
 10
166.472932
 20
245.668891
 30
0.0
 11
170.472932
 21
249.668891
 31
0.0
  0
LINE
  8
LC-005-005-----0
 62
     2
  5
188
 10
166.472932
 20
248.497318
 30
0.0
 11
170.472932
 21
252.497318
 31
0.0
  0
LINE
  8
LC-005-005-----0
 62
     2
  5
189
 10
166.472932
 20
251.325745
 30
0.0
 11
170.472932
 21
255.325745
 31
0.0
  0
LINE
  8
LC-005-005-----0
 62
     2
  5
18A
 10
166.472932
 20
254.154173
 30
0.0
 11
170.472932
 21
258.154173
 31
0.0
  0
LINE
  8
LC-005-005-----0
 62
     2
  5
18B
 10
166.472932
 20
256.9826
 30
0.0
 11
170.472932
 21
260.9826
 31
0.0
  0
LINE
  8
LC-005-005-----0
 62
     2
  5
18C
 10
166.472932
 20
259.811027
 30
0.0
 11
170.472932
 21
263.811027
 31
0.0
  0
LINE
  8
LC-005-005-----0
 62
     2
  5
18D
 10
166.472932
 20
262.639454
 30
0.0
 11
170.472932
 21
266.639454
 31
0.0
  0
LINE
  8
LC-005-005-----0
 62
     2
  5
18E
 10
166.472932
 20
265.467881
 30
0.0
 11
170.472932
 21
269.467881
 31
0.0
  0
LINE
  8
LC-005-005-----0
 62
     2
  5
18F
 10
166.472932
 20
268.296308
 30
0.0
 11
170.472932
 21
272.296308
 31
0.0
  0
LINE
  8
LC-005-005-----0
 62
     2
  5
190
 10
166.472932
 20
271.124735
 30
0.0
 11
170.472932
 21
275.124735
 31
0.0
  0
LINE
  8
LC-005-005-----0
 62
     2
  5
191
 10
166.472932
 20
273.953162
 30
0.0
 11
170.472932
 21
277.953162
 31
0.0
  0
LINE
  8
LC-005-005-----0
 62
     2
  5
192
 10
166.472932
 20
276.78159
 30
0.0
 11
170.472932
 21
280.78159
 31
0.0
  0
LINE
  8
LC-005-005-----0
 62
     2
  5
193
 10
166.472932
 20
279.610017
 30
0.0
 11
170.472932
 21
283.610017
 31
0.0
  0
LINE
  8
LC-005-005-----0
 62
     2
  5
194
 10
166.472932
 20
282.438444
 30
0.0
 11
170.472932
 21
286.438444
 31
0.0
  0
LINE
  8
LC-005-005-----0
 62
     2
  5
195
 10
166.472932
 20
285.266871
 30
0.0
 11
170.472932
 21
289.266871
 31
0.0
  0
LINE
  8
LC-005-005-----0
 62
     2
  5
196
 10
166.472932
 20
288.095298
 30
0.0
 11
170.472932
 21
292.095298
 31
0.0
  0
LINE
  8
LC-005-005-----0
 62
     2
  5
197
 10
166.472932
 20
290.923725
 30
0.0
 11
170.472932
 21
294.923725
 31
0.0
  0
LINE
  8
LC-005-005-----0
 62
     2
  5
198
 10
166.472932
 20
293.752152
 30
0.0
 11
170.472932
 21
297.752152
 31
0.0
  0
LINE
  8
LC-005-005-----0
 62
     2
  5
199
 10
166.472932
 20
296.580579
 30
0.0
 11
169.729163
 21
299.836811
 31
0.0
  0
LINE
  8
LC-005-005-----0
 62
     2
  5
19A
 10
166.472932
 20
299.409007
 30
0.0
 11
166.900736
 21
299.836811
 31
0.0
  0
ENDBLK
  8
0
  5
19B
  0
BLOCK
  8
0
  5
1BE
  2
*X2
 70
    65
 10
0.0
 20
0.0
 30
0.0
  3
*X2
  0
LINE
  8
LC-005-005-----0
 62
     2
  5
1BF
 10
261.94212
 20
329.824371
 30
0.0
 11
262.94196
 21
330.824211
 31
0.0
  0
LINE
  8
LC-005-005-----0
 62
     2
  5
1C0
 10
261.942114
 20
332.652792
 30
0.0
 11
262.941961
 21
333.65264
 31
0.0
  0
LINE
  8
LC-005-005-----0
 62
     2
  5
1C1
 10
261.942108
 20
335.481213
 30
0.0
 11
262.941963
 21
336.481069
 31
0.0
  0
LINE
  8
LC-005-005-----0
 62
     2
  5
1C2
 10
261.942102
 20
338.309634
 30
0.0
 11
262.941965
 21
339.309497
 31
0.0
  0
LINE
  8
LC-005-005-----0
 62
     2
  5
1C3
 10
261.942096
 20
341.138056
 30
0.0
 11
262.941967
 21
342.137926
 31
0.0
  0
LINE
  8
LC-005-005-----0
 62
     2
  5
1C4
 10
261.94209
 20
343.966477
 30
0.0
 11
262.941969
 21
344.966355
 31
0.0
  0
LINE
  8
LC-005-005-----0
 62
     2
  5
1C5
 10
261.942084
 20
346.794898
 30
0.0
 11
262.941971
 21
347.794784
 31
0.0
  0
LINE
  8
LC-005-005-----0
 62
     2
  5
1C6
 10
261.942079
 20
349.623319
 30
0.0
 11
262.941973
 21
350.623213
 31
0.0
  0
LINE
  8
LC-005-005-----0
 62
     2
  5
1C7
 10
261.942073
 20
352.451741
 30
0.0
 11
262.941974
 21
353.451642
 31
0.0
  0
LINE
  8
LC-005-005-----0
 62
     2
  5
1C8
 10
261.942067
 20
355.280162
 30
0.0
 11
262.941976
 21
356.280071
 31
0.0
  0
LINE
  8
LC-005-005-----0
 62
     2
  5
1C9
 10
261.942061
 20
358.108583
 30
0.0
 11
262.941978
 21
359.1085
 31
0.0
  0
LINE
  8
LC-005-005-----0
 62
     2
  5
1CA
 10
261.942055
 20
360.937004
 30
0.0
 11
262.94198
 21
361.936929
 31
0.0
  0
LINE
  8
LC-005-005-----0
 62
     2
  5
1CB
 10
261.942049
 20
363.765426
 30
0.0
 11
262.941982
 21
364.765358
 31
0.0
  0
LINE
  8
LC-005-005-----0
 62
     2
  5
1CC
 10
261.942043
 20
366.593847
 30
0.0
 11
262.941984
 21
367.593787
 31
0.0
  0
LINE
  8
LC-005-005-----0
 62
     2
  5
1CD
 10
261.942038
 20
369.422268
 30
0.0
 11
262.941985
 21
370.422216
 31
0.0
  0
LINE
  8
LC-005-005-----0
 62
     2
  5
1CE
 10
261.942032
 20
372.25069
 30
0.0
 11
262.941987
 21
373.250645
 31
0.0
  0
LINE
  8
LC-005-005-----0
 62
     2
  5
1CF
 10
261.942026
 20
375.079111
 30
0.0
 11
262.941989
 21
376.079074
 31
0.0
  0
LINE
  8
LC-005-005-----0
 62
     2
  5
1D0
 10
261.94202
 20
377.907532
 30
0.0
 11
262.941991
 21
378.907503
 31
0.0
  0
LINE
  8
LC-005-005-----0
 62
     2
  5
1D1
 10
261.942014
 20
380.735953
 30
0.0
 11
262.941993
 21
381.735932
 31
0.0
  0
LINE
  8
LC-005-005-----0
 62
     2
  5
1D2
 10
261.942008
 20
383.564375
 30
0.0
 11
262.941995
 21
384.564361
 31
0.0
  0
LINE
  8
LC-005-005-----0
 62
     2
  5
1D3
 10
261.942002
 20
386.392796
 30
0.0
 11
262.941997
 21
387.39279
 31
0.0
  0
LINE
  8
LC-005-005-----0
 62
     2
  5
1D4
 10
261.903239
 20
389.18246
 30
0.0
 11
262.808516
 21
390.087737
 31
0.0
  0
LINE
  8
LC-005-005-----0
 62
     2
  5
1D5
 10
261.410872
 20
391.51852
 30
0.0
 11
262.239834
 21
392.347482
 31
0.0
  0
LINE
  8
LC-005-005-----0
 62
     2
  5
1D6
 10
260.514985
 20
393.45106
 30
0.0
 11
261.346178
 21
394.282253
 31
0.0
  0
LINE
  8
LC-005-005-----0
 62
     2
  5
1D7
 10
259.30496
 20
395.069462
 30
0.0
 11
260.187838
 21
395.95234
 31
0.0
  0
LINE
  8
LC-005-005-----0
 62
     2
  5
1D8
 10
257.808409
 20
396.401338
 30
0.0
 11
258.788858
 21
397.381787
 31
0.0
  0
LINE
  8
LC-005-005-----0
 62
     2
  5
1D9
 10
256.014623
 20
397.435979
 30
0.0
 11
257.150572
 21
398.571928
 31
0.0
  0
LINE
  8
LC-005-005-----0
 62
     2
  5
1DA
 10
253.866208
 20
398.115992
 30
0.0
 11
255.252263
 21
399.502046
 31
0.0
  0
LINE
  8
LC-005-005-----0
 62
     2
  5
1DB
 10
222.724485
 20
369.802696
 30
0.0
 11
222.877491
 21
369.955701
 31
0.0
  0
LINE
  8
LC-005-005-----0
 62
     2
  5
1DC
 10
251.224657
 20
398.302867
 30
0.0
 11
253.039858
 21
400.118069
 31
0.0
  0
LINE
  8
LC-005-005-----0
 62
     2
  5
1DD
 10
179.941954
 20
329.848591
 30
0.0
 11
180.941951
 21
330.848588
 31
0.0
  0
LINE
  8
LC-005-005-----0
 62
     2
  5
1DE
 10
219.896058
 20
369.802696
 30
0.0
 11
222.878256
 21
372.784894
 31
0.0
  0
LINE
  8
LC-005-005-----0
 62
     2
  5
1DF
 10
248.396229
 20
398.302867
 30
0.0
 11
250.39623
 21
400.302867
 31
0.0
  0
LINE
  8
LC-005-005-----0
 62
     2
  5
1E0
 10
179.941946
 20
332.67701
 30
0.0
 11
180.941943
 21
333.677007
 31
0.0
  0
LINE
  8
LC-005-005-----0
 62
     2
  5
1E1
 10
217.067631
 20
369.802696
 30
0.0
 11
222.879022
 21
375.614087
 31
0.0
  0
LINE
  8
LC-005-005-----0
 62
     2
  5
1E2
 10
245.567802
 20
398.302867
 30
0.0
 11
247.567805
 21
400.302869
 31
0.0
  0
LINE
  8
LC-005-005-----0
 62
     2
  5
1E3
 10
179.941938
 20
335.505429
 30
0.0
 11
180.941935
 21
336.505427
 31
0.0
  0
LINE
  8
LC-005-005-----0
 62
     2
  5
1E4
 10
214.239204
 20
369.802696
 30
0.0
 11
222.879788
 21
378.44328
 31
0.0
  0
LINE
  8
LC-005-005-----0
 62
     2
  5
1E5
 10
242.739375
 20
398.302867
 30
0.0
 11
244.73938
 21
400.302871
 31
0.0
  0
LINE
  8
LC-005-005-----0
 62
     2
  5
1E6
 10
179.94193
 20
338.333848
 30
0.0
 11
180.941927
 21
339.333846
 31
0.0
  0
LINE
  8
LC-005-005-----0
 62
     2
  5
1E7
 10
211.410777
 20
369.802696
 30
0.0
 11
222.880554
 21
381.272473
 31
0.0
  0
LINE
  8
LC-005-005-----0
 62
     2
  5
1E8
 10
239.910948
 20
398.302867
 30
0.0
 11
241.910954
 21
400.302873
 31
0.0
  0
LINE
  8
LC-005-005-----0
 62
     2
  5
1E9
 10
179.941921
 20
341.162268
 30
0.0
 11
180.941919
 21
342.162265
 31
0.0
  0
LINE
  8
LC-005-005-----0
 62
     2
  5
1EA
 10
208.58235
 20
369.802696
 30
0.0
 11
222.88132
 21
384.101666
 31
0.0
  0
LINE
  8
LC-005-005-----0
 62
     2
  5
1EB
 10
237.082521
 20
398.302867
 30
0.0
 11
239.082529
 21
400.302875
 31
0.0
  0
LINE
  8
LC-005-005-----0
 62
     2
  5
1EC
 10
179.941913
 20
343.990687
 30
0.0
 11
180.941911
 21
344.990684
 31
0.0
  0
LINE
  8
LC-005-005-----0
 62
     2
  5
1ED
 10
205.753923
 20
369.802696
 30
0.0
 11
222.882085
 21
386.930859
 31
0.0
  0
LINE
  8
LC-005-005-----0
 62
     2
  5
1EE
 10
234.254094
 20
398.302867
 30
0.0
 11
236.254104
 21
400.302877
 31
0.0
  0
LINE
  8
LC-005-005-----0
 62
     2
  5
1EF
 10
179.941905
 20
346.819106
 30
0.0
 11
180.941903
 21
347.819103
 31
0.0
  0
LINE
  8
LC-005-005-----0
 62
     2
  5
1F0
 10
202.925495
 20
369.802696
 30
0.0
 11
222.882851
 21
389.760052
 31
0.0
  0
LINE
  8
LC-005-005-----0
 62
     2
  5
1F1
 10
231.425667
 20
398.302867
 30
0.0
 11
235.161631
 21
402.038831
 31
0.0
  0
LINE
  8
LC-005-005-----0
 62
     2
  5
1F2
 10
179.941897
 20
349.647525
 30
0.0
 11
180.941895
 21
350.647522
 31
0.0
  0
LINE
  8
LC-005-005-----0
 62
     2
  5
1F3
 10
200.097068
 20
369.802696
 30
0.0
 11
222.883617
 21
392.589244
 31
0.0
  0
LINE
  8
LC-005-005-----0
 62
     2
  5
1F4
 10
228.59724
 20
398.302867
 30
0.0
 11
230.597254
 21
400.302881
 31
0.0
  0
LINE
  8
LC-005-005-----0
 62
     2
  5
1F5
 10
231.191786
 20
400.897414
 30
0.0
 11
234.656001
 21
404.361629
 31
0.0
  0
LINE
  8
LC-005-005-----0
 62
     2
  5
1F6
 10
179.941889
 20
352.475944
 30
0.0
 11
180.941887
 21
353.475941
 31
0.0
  0
LINE
  8
LC-005-005-----0
 62
     2
  5
1F7
 10
197.268641
 20
369.802696
 30
0.0
 11
222.884383
 21
395.418437
 31
0.0
  0
LINE
  8
LC-005-005-----0
 62
     2
  5
1F8
 10
225.768813
 20
398.302867
 30
0.0
 11
227.768829
 21
400.302883
 31
0.0
  0
LINE
  8
LC-005-005-----0
 62
     2
  5
1F9
 10
230.772623
 20
403.306677
 30
0.0
 11
233.712385
 21
406.24644
 31
0.0
  0
LINE
  8
LC-005-005-----0
 62
     2
  5
1FA
 10
179.941881
 20
355.304363
 30
0.0
 11
180.941879
 21
356.30436
 31
0.0
  0
LINE
  8
LC-005-005-----0
 62
     2
  5
1FB
 10
194.583505
 20
369.945987
 30
0.0
 11
222.885149
 21
398.24763
 31
0.0
  0
LINE
  8
LC-005-005-----0
 62
     2
  5
1FC
 10
222.940385
 20
398.302867
 30
0.0
 11
224.940404
 21
400.302885
 31
0.0
  0
LINE
  8
LC-005-005-----0
 62
     2
  5
1FD
 10
229.599296
 20
404.961778
 30
0.0
 11
232.428718
 21
407.7912
 31
0.0
  0
LINE
  8
LC-005-005-----0
 62
     2
  5
1FE
 10
179.941873
 20
358.132782
 30
0.0
 11
180.941871
 21
359.132779
 31
0.0
  0
LINE
  8
LC-005-005-----0
 62
     2
  5
1FF
 10
193.985788
 20
372.176697
 30
0.0
 11
222.111979
 21
400.302887
 31
0.0
  0
LINE
  8
LC-005-005-----0
 62
     2
  5
200
 10
227.834302
 20
406.025211
 30
0.0
 11
230.826607
 21
409.017516
 31
0.0
  0
LINE
  8
LC-005-005-----0
 62
     2
  5
201
 10
179.941865
 20
360.961201
 30
0.0
 11
180.941863
 21
361.961199
 31
0.0
  0
LINE
  8
LC-005-005-----0
 62
     2
  5
202
 10
193.684077
 20
374.703413
 30
0.0
 11
219.28336
 21
400.302696
 31
0.0
  0
LINE
  8
LC-005-005-----0
 62
     2
  5
203
 10
225.28336
 20
406.302696
 30
0.0
 11
228.874294
 21
409.89363
 31
0.0
  0
LINE
  8
LC-005-005-----0
 62
     2
  5
204
 10
179.941857
 20
363.789621
 30
0.0
 11
180.941855
 21
364.789618
 31
0.0
  0
LINE
  8
LC-005-005-----0
 62
     2
  5
205
 10
193.86304
 20
377.710803
 30
0.0
 11
216.454933
 21
400.302696
 31
0.0
  0
LINE
  8
LC-005-005-----0
 62
     2
  5
206
 10
222.454933
 20
406.302696
 30
0.0
 11
226.451194
 21
410.298957
 31
0.0
  0
LINE
  8
LC-005-005-----0
 62
     2
  5
207
 10
179.941849
 20
366.61804
 30
0.0
 11
180.941847
 21
367.618037
 31
0.0
  0
LINE
  8
LC-005-005-----0
 62
     2
  5
208
 10
191.126506
 20
377.802696
 30
0.0
 11
213.626506
 21
400.302696
 31
0.0
  0
LINE
  8
LC-005-005-----0
 62
     2
  5
209
 10
219.626506
 20
406.302696
 30
0.0
 11
223.626506
 21
410.302696
 31
0.0
  0
LINE
  8
LC-005-005-----0
 62
     2
  5
20A
 10
179.941841
 20
369.446459
 30
0.0
 11
180.941839
 21
370.446456
 31
0.0
  0
LINE
  8
LC-005-005-----0
 62
     2
  5
20B
 10
190.184584
 20
379.689202
 30
0.0
 11
211.691789
 21
401.196407
 31
0.0
  0
LINE
  8
LC-005-005-----0
 62
     2
  5
20C
 10
216.798078
 20
406.302696
 30
0.0
 11
220.798078
 21
410.302696
 31
0.0
  0
LINE
  8
LC-005-005-----0
 62
     2
  5
20D
 10
179.941833
 20
372.274878
 30
0.0
 11
180.941831
 21
373.274875
 31
0.0
  0
LINE
  8
LC-005-005-----0
 62
     2
  5
20E
 10
190.18535
 20
382.518394
 30
0.0
 11
217.969651
 21
410.302696
 31
0.0
  0
LINE
  8
LC-005-005-----0
 62
     2
  5
20F
 10
179.941825
 20
375.103297
 30
0.0
 11
180.941823
 21
376.103294
 31
0.0
  0
LINE
  8
LC-005-005-----0
 62
     2
  5
210
 10
190.186116
 20
385.347587
 30
0.0
 11
205.141224
 21
400.302696
 31
0.0
  0
LINE
  8
LC-005-005-----0
 62
     2
  5
211
 10
207.856817
 20
403.018288
 30
0.0
 11
214.976197
 21
410.137668
 31
0.0
  0
LINE
  8
LC-005-005-----0
 62
     2
  5
212
 10
179.941817
 20
377.931716
 30
0.0
 11
180.941814
 21
378.931713
 31
0.0
  0
LINE
  8
LC-005-005-----0
 62
     2
  5
213
 10
190.186882
 20
388.17678
 30
0.0
 11
202.312797
 21
400.302696
 31
0.0
  0
LINE
  8
LC-005-005-----0
 62
     2
  5
214
 10
179.941809
 20
380.760135
 30
0.0
 11
180.941806
 21
381.760132
 31
0.0
  0
LINE
  8
LC-005-005-----0
 62
     2
  5
215
 10
190.187647
 20
391.005973
 30
0.0
 11
199.48437
 21
400.302696
 31
0.0
  0
LINE
  8
LC-005-005-----0
 62
     2
  5
216
 10
179.941801
 20
383.588554
 30
0.0
 11
180.941798
 21
384.588551
 31
0.0
  0
LINE
  8
LC-005-005-----0
 62
     2
  5
217
 10
190.188413
 20
393.835166
 30
0.0
 11
196.655943
 21
400.302696
 31
0.0
  0
LINE
  8
LC-005-005-----0
 62
     2
  5
218
 10
179.941793
 20
386.416973
 30
0.0
 11
180.94179
 21
387.416971
 31
0.0
  0
LINE
  8
LC-005-005-----0
 62
     2
  5
219
 10
190.189179
 20
396.664359
 30
0.0
 11
193.827516
 21
400.302696
 31
0.0
  0
LINE
  8
LC-005-005-----0
 62
     2
  5
21A
 10
179.98212
 20
389.285728
 30
0.0
 11
181.183225
 21
390.486832
 31
0.0
  0
LINE
  8
LC-005-005-----0
 62
     2
  5
21B
 10
188.757651
 20
398.061259
 30
0.0
 11
190.958756
 21
400.262363
 31
0.0
  0
LINE
  8
LC-005-005-----0
 62
     2
  5
21C
 10
180.922873
 20
393.054907
 30
0.0
 11
187.189576
 21
399.321611
 31
0.0
  0
ENDBLK
  8
0
  5
21D
  0
BLOCK
  8
0
  5
270
  2
*X3
 70
    65
 10
0.0
 20
0.0
 30
0.0
  3
*X3
  0
LINE
  8
LC-005-005-----0
 62
     2
  5
271
 10
298.993537
 20
386.674778
 30
0.0
 11
300.441788
 21
388.123029
 31
0.0
  0
LINE
  8
LC-005-005-----0
 62
     2
  5
272
 10
311.993537
 20
399.674778
 30
0.0
 11
312.224832
 21
399.906073
 31
0.0
  0
LINE
  8
LC-005-005-----0
 62
     2
  5
273
 10
296.16511
 20
386.674778
 30
0.0
 11
300.441788
 21
390.951456
 31
0.0
  0
LINE
  8
LC-005-005-----0
 62
     2
  5
274
 10
310.441573
 20
400.951241
 30
0.0
 11
312.696268
 21
403.205936
 31
0.0
  0
LINE
  8
LC-005-005-----0
 62
     2
  5
275
 10
293.336683
 20
386.674778
 30
0.0
 11
300.441788
 21
393.779883
 31
0.0
  0
LINE
  8
LC-005-005-----0
 62
     2
  5
276
 10
310.441573
 20
403.779668
 30
0.0
 11
313.167704
 21
406.505799
 31
0.0
  0
LINE
  8
LC-005-005-----0
 62
     2
  5
277
 10
290.941788
 20
387.10831
 30
0.0
 11
293.508255
 21
389.674778
 31
0.0
  0
LINE
  8
LC-005-005-----0
 62
     2
  5
278
 10
293.691788
 20
389.85831
 30
0.0
 11
300.441788
 21
396.60831
 31
0.0
  0
LINE
  8
LC-005-005-----0
 62
     2
  5
279
 10
307.61154
 20
403.778062
 30
0.0
 11
310.306064
 21
406.472586
 31
0.0
  0
LINE
  8
LC-005-005-----0
 62
     2
  5
27A
 10
293.691788
 20
392.686737
 30
0.0
 11
300.441788
 21
399.436737
 31
0.0
  0
LINE
  8
LC-005-005-----0
 62
     2
  5
27B
 10
304.570459
 20
403.565409
 30
0.0
 11
307.264984
 21
406.259933
 31
0.0
  0
LINE
  8
LC-005-005-----0
 62
     2
  5
27C
 10
293.691788
 20
395.515164
 30
0.0
 11
300.441788
 21
402.265164
 31
0.0
  0
LINE
  8
LC-005-005-----0
 62
     2
  5
27D
 10
301.529379
 20
403.352756
 30
0.0
 11
304.223904
 21
406.04728
 31
0.0
  0
LINE
  8
LC-005-005-----0
 62
     2
  5
27E
 10
293.691788
 20
398.343592
 30
0.0
 11
301.182823
 21
405.834627
 31
0.0
  0
LINE
  8
LC-005-005-----0
 62
     2
  5
27F
 10
293.691788
 20
401.172019
 30
0.0
 11
298.141743
 21
405.621974
 31
0.0
  0
LINE
  8
LC-005-005-----0
 62
     2
  5
280
 10
293.691788
 20
404.000446
 30
0.0
 11
295.100663
 21
405.409321
 31
0.0
  0
ENDBLK
  8
0
  5
281
  0
BLOCK
  8
0
  5
284
  2
*X4
 70
    65
 10
0.0
 20
0.0
 30
0.0
  3
*X4
  0
LINE
  8
LC-005-005-----0
 62
     2
  5
285
 10
151.915326
 20
386.674778
 30
0.0
 11
151.941788
 21
386.701239
 31
0.0
  0
LINE
  8
LC-005-005-----0
 62
     2
  5
286
 10
149.086899
 20
386.674778
 30
0.0
 11
151.941788
 21
389.529666
 31
0.0
  0
LINE
  8
LC-005-005-----0
 62
     2
  5
287
 10
146.258472
 20
386.674778
 30
0.0
 11
149.258472
 21
389.674778
 31
0.0
  0
LINE
  8
LC-005-005-----0
 62
     2
  5
288
 10
143.430113
 20
386.674846
 30
0.0
 11
149.191788
 21
392.436521
 31
0.0
  0
LINE
  8
LC-005-005-----0
 62
     2
  5
289
 10
142.441788
 20
388.514948
 30
0.0
 11
149.191788
 21
395.264948
 31
0.0
  0
LINE
  8
LC-005-005-----0
 62
     2
  5
28A
 10
142.441788
 20
391.343375
 30
0.0
 11
149.191788
 21
398.093375
 31
0.0
  0
LINE
  8
LC-005-005-----0
 62
     2
  5
28B
 10
142.441788
 20
394.171802
 30
0.0
 11
149.191788
 21
400.921802
 31
0.0
  0
LINE
  8
LC-005-005-----0
 62
     2
  5
28C
 10
142.441788
 20
397.000229
 30
0.0
 11
149.191788
 21
403.750229
 31
0.0
  0
LINE
  8
LC-005-005-----0
 62
     2
  5
28D
 10
142.441788
 20
399.828656
 30
0.0
 11
148.006797
 21
405.393665
 31
0.0
  0
LINE
  8
LC-005-005-----0
 62
     2
  5
28E
 10
142.441788
 20
402.657083
 30
0.0
 11
145.363226
 21
405.578522
 31
0.0
  0
LINE
  8
LC-005-005-----0
 62
     2
  5
28F
 10
140.377342
 20
403.421064
 30
0.0
 11
142.719656
 21
405.763378
 31
0.0
  0
LINE
  8
LC-005-005-----0
 62
     2
  5
290
 10
137.733771
 20
403.605921
 30
0.0
 11
140.076085
 21
405.948235
 31
0.0
  0
LINE
  8
LC-005-005-----0
 62
     2
  5
291
 10
130.974201
 20
399.674778
 30
0.0
 11
132.442003
 21
401.142579
 31
0.0
  0
LINE
  8
LC-005-005-----0
 62
     2
  5
292
 10
135.0902
 20
403.790777
 30
0.0
 11
137.432514
 21
406.133091
 31
0.0
  0
LINE
  8
LC-005-005-----0
 62
     2
  5
293
 10
130.37352
 20
401.902524
 30
0.0
 11
132.442003
 21
403.971007
 31
0.0
  0
LINE
  8
LC-005-005-----0
 62
     2
  5
294
 10
132.44663
 20
403.975634
 30
0.0
 11
134.788944
 21
406.317948
 31
0.0
  0
LINE
  8
LC-005-005-----0
 62
     2
  5
295
 10
130.019949
 20
404.37738
 30
0.0
 11
132.145373
 21
406.502804
 31
0.0
  0
ENDBLK
  8
0
  5
296
  0
BLOCK
  8
0
  5
29F
  2
*X5
 70
    65
 10
0.0
 20
0.0
 30
0.0
  3
*X5
  0
LINE
  8
LC-005-005-----0
 62
     2
  5
2A0
 10
271.827079
 20
189.802692
 30
0.0
 11
272.472932
 21
190.448545
 31
0.0
  0
LINE
  8
LC-005-005-----0
 62
     2
  5
2A1
 10
271.472932
 20
192.276972
 30
0.0
 11
272.472932
 21
193.276972
 31
0.0
  0
LINE
  8
LC-005-005-----0
 62
     2
  5
2A2
 10
271.472932
 20
195.105399
 30
0.0
 11
272.472932
 21
196.105399
 31
0.0
  0
LINE
  8
LC-005-005-----0
 62
     2
  5
2A3
 10
271.472932
 20
197.933826
 30
0.0
 11
272.472932
 21
198.933826
 31
0.0
  0
LINE
  8
LC-005-005-----0
 62
     2
  5
2A4
 10
271.472932
 20
200.762254
 30
0.0
 11
272.472932
 21
201.762254
 31
0.0
  0
LINE
  8
LC-005-005-----0
 62
     2
  5
2A5
 10
271.472932
 20
203.590681
 30
0.0
 11
272.472932
 21
204.590681
 31
0.0
  0
LINE
  8
LC-005-005-----0
 62
     2
  5
2A6
 10
271.472932
 20
206.419108
 30
0.0
 11
272.472932
 21
207.419108
 31
0.0
  0
LINE
  8
LC-005-005-----0
 62
     2
  5
2A7
 10
271.472932
 20
209.247535
 30
0.0
 11
272.028089
 21
209.802692
 31
0.0
  0
LINE
  8
LC-005-005-----0
 62
     2
  5
2A8
 10
170.472932
 20
190.271922
 30
0.0
 11
171.472932
 21
191.271922
 31
0.0
  0
LINE
  8
LC-005-005-----0
 62
     2
  5
2A9
 10
170.472932
 20
193.100349
 30
0.0
 11
171.472932
 21
194.100349
 31
0.0
  0
LINE
  8
LC-005-005-----0
 62
     2
  5
2AA
 10
170.472932
 20
195.928776
 30
0.0
 11
171.472932
 21
196.928776
 31
0.0
  0
LINE
  8
LC-005-005-----0
 62
     2
  5
2AB
 10
170.472932
 20
198.757203
 30
0.0
 11
171.472932
 21
199.757203
 31
0.0
  0
LINE
  8
LC-005-005-----0
 62
     2
  5
2AC
 10
170.472932
 20
201.58563
 30
0.0
 11
171.472932
 21
202.58563
 31
0.0
  0
LINE
  8
LC-005-005-----0
 62
     2
  5
2AD
 10
170.472932
 20
204.414057
 30
0.0
 11
171.472932
 21
205.414057
 31
0.0
  0
LINE
  8
LC-005-005-----0
 62
     2
  5
2AE
 10
170.472932
 20
207.242484
 30
0.0
 11
171.472932
 21
208.242484
 31
0.0
  0
ENDBLK
  8
0
  5
2AF
  0
BLOCK
  8
0
  5
2B4
  2
*D6
 70
    65
 10
0.0
 20
0.0
 30
0.0
  3
*D6
  0
LINE
  8
LC-007-003-MTH-0
 62
     2
  5
2B6
 10
166.472932
 20
189.802692
 30
0.0
 11
166.472932
 21
157.836
 31
0.0
  0
LINE
  8
LC-007-003-MTH-0
 62
     2
  5
2B7
 10
276.472932
 20
189.802692
 30
0.0
 11
276.472932
 21
157.836
 31
0.0
  0
LINE
  8
LC-008-003-----0
 62
     2
  5
2B9
 10
138.712476
 20
170.981267
 30
0.0
 11
166.472932
 21
174.636
 31
0.0
  0
LINE
  8
LC-008-003-----0
 62
     2
  5
2BA
 10
166.472932
 20
174.636
 30
0.0
 11
138.712476
 21
178.290733
 31
0.0
  0
LINE
  8
LC-008-003-----0
 62
     2
  5
2BB
 10
138.712476
 20
178.290733
 30
0.0
 11
138.712476
 21
170.981267
 31
0.0
  0
LINE
  8
LC-008-003-----0
 62
     2
  5
2BC
 10
138.650194
 20
171.931497
 30
0.0
 11
159.192932
 21
174.636
 31
0.0
  0
LINE
  8
LC-008-003-----0
 62
     2
  5
2BD
 10
159.192932
 20
174.636
 30
0.0
 11
138.650194
 21
177.340503
 31
0.0
  0
LINE
  8
LC-008-003-----0
 62
     2
  5
2BE
 10
138.587913
 20
172.881728
 30
0.0
 11
151.912932
 21
174.636
 31
0.0
  0
LINE
  8
LC-008-003-----0
 62
     2
  5
2BF
 10
151.912932
 20
174.636
 30
0.0
 11
138.587913
 21
176.390272
 31
0.0
  0
LINE
  8
LC-008-003-----0
 62
     2
  5
2C0
 10
138.525631
 20
173.831959
 30
0.0
 11
144.632932
 21
174.636
 31
0.0
  0
LINE
  8
LC-008-003-----0
 62
     2
  5
2C1
 10
144.632932
 20
174.636
 30
0.0
 11
138.525631
 21
175.440041
 31
0.0
  0
LINE
  8
LC-008-003-----0
 62
     2
  5
2C2
 10
304.233388
 20
178.290733
 30
0.0
 11
276.472932
 21
174.636
 31
0.0
  0
LINE
  8
LC-008-003-----0
 62
     2
  5
2C3
 10
276.472932
 20
174.636
 30
0.0
 11
304.233388
 21
170.981267
 31
0.0
  0
LINE
  8
LC-008-003-----0
 62
     2
  5
2C4
 10
304.233388
 20
170.981267
 30
0.0
 11
304.233388
 21
178.290733
 31
0.0
  0
LINE
  8
LC-008-003-----0
 62
     2
  5
2C5
 10
304.295669
 20
177.340503
 30
0.0
 11
283.752932
 21
174.636
 31
0.0
  0
LINE
  8
LC-008-003-----0
 62
     2
  5
2C6
 10
283.752932
 20
174.636
 30
0.0
 11
304.295669
 21
171.931497
 31
0.0
  0
LINE
  8
LC-008-003-----0
 62
     2
  5
2C7
 10
304.357951
 20
176.390272
 30
0.0
 11
291.032932
 21
174.636
 31
0.0
  0
LINE
  8
LC-008-003-----0
 62
     2
  5
2C8
 10
291.032932
 20
174.636
 30
0.0
 11
304.357951
 21
172.881728
 31
0.0
  0
LINE
  8
LC-008-003-----0
 62
     2
  5
2C9
 10
304.420232
 20
175.440041
 30
0.0
 11
298.312932
 21
174.636
 31
0.0
  0
LINE
  8
LC-008-003-----0
 62
     2
  5
2CA
 10
298.312932
 20
174.636
 30
0.0
 11
304.420232
 21
173.831959
 31
0.0
  0
LINE
  8
LC-009-003-MTG-0
 62
     2
  5
2CC
 10
127.272932
 20
174.636
 30
0.0
 11
474.872932
 21
174.636
 31
0.0
  0
TEXT
  8
LC-008-003-----0
 62
     8
  5
2CD
 10
318.571705
 20
177.054369
 30
0.0
 40
28.0
  1
DN100(SML)
 41
0.8
 51
15.0
  7
LCTX15-400-0-0-ARIAL
  0
ENDBLK
  8
0
  5
2CE
  0
BLOCK
  8
0
  5
2D1
  2
*D7
 70
    65
 10
0.0
 20
0.0
 30
0.0
  3
*D7
  0
LINE
  8
LC-007-003-MTH-0
 62
     2
  5
2D2
 10
141.222932
 20
311.552696
 30
0.0
 11
141.222932
 21
104.376
 31
0.0
  0
LINE
  8
LC-007-003-MTH-0
 62
     2
  5
2D3
 10
301.722932
 20
311.552696
 30
0.0
 11
301.722932
 21
104.376
 31
0.0
  0
LINE
  8
LC-009-003-MTG-0
 62
     2
  5
2D4
 10
141.222932
 20
121.176
 30
0.0
 11
301.722932
 21
121.176
 31
0.0
  0
LINE
  8
LC-008-003-----0
 62
     2
  5
2D5
 10
168.983388
 20
124.830733
 30
0.0
 11
141.222932
 21
121.176
 31
0.0
  0
LINE
  8
LC-008-003-----0
 62
     2
  5
2D6
 10
141.222932
 20
121.176
 30
0.0
 11
168.983388
 21
117.521267
 31
0.0
  0
LINE
  8
LC-008-003-----0
 62
     2
  5
2D7
 10
168.983388
 20
117.521267
 30
0.0
 11
168.983388
 21
124.830733
 31
0.0
  0
LINE
  8
LC-008-003-----0
 62
     2
  5
2D8
 10
169.045669
 20
123.880503
 30
0.0
 11
148.502932
 21
121.176
 31
0.0
  0
LINE
  8
LC-008-003-----0
 62
     2
  5
2D9
 10
148.502932
 20
121.176
 30
0.0
 11
169.045669
 21
118.471497
 31
0.0
  0
LINE
  8
LC-008-003-----0
 62
     2
  5
2DA
 10
169.107951
 20
122.930272
 30
0.0
 11
155.782932
 21
121.176
 31
0.0
  0
LINE
  8
LC-008-003-----0
 62
     2
  5
2DB
 10
155.782932
 20
121.176
 30
0.0
 11
169.107951
 21
119.421728
 31
0.0
  0
LINE
  8
LC-008-003-----0
 62
     2
  5
2DC
 10
169.170232
 20
121.980041
 30
0.0
 11
163.062932
 21
121.176
 31
0.0
  0
LINE
  8
LC-008-003-----0
 62
     2
  5
2DD
 10
163.062932
 20
121.176
 30
0.0
 11
169.170232
 21
120.371959
 31
0.0
  0
LINE
  8
LC-008-003-----0
 62
     2
  5
2DE
 10
273.962476
 20
117.521267
 30
0.0
 11
301.722932
 21
121.176
 31
0.0
  0
LINE
  8
LC-008-003-----0
 62
     2
  5
2DF
 10
301.722932
 20
121.176
 30
0.0
 11
273.962476
 21
124.830733
 31
0.0
  0
LINE
  8
LC-008-003-----0
 62
     2
  5
2E0
 10
273.962476
 20
124.830733
 30
0.0
 11
273.962476
 21
117.521267
 31
0.0
  0
LINE
  8
LC-008-003-----0
 62
     2
  5
2E1
 10
273.900194
 20
118.471497
 30
0.0
 11
294.442932
 21
121.176
 31
0.0
  0
LINE
  8
LC-008-003-----0
 62
     2
  5
2E2
 10
294.442932
 20
121.176
 30
0.0
 11
273.900194
 21
123.880503
 31
0.0
  0
LINE
  8
LC-008-003-----0
 62
     2
  5
2E3
 10
273.837913
 20
119.421728
 30
0.0
 11
287.162932
 21
121.176
 31
0.0
  0
LINE
  8
LC-008-003-----0
 62
     2
  5
2E4
 10
287.162932
 20
121.176
 30
0.0
 11
273.837913
 21
122.930272
 31
0.0
  0
LINE
  8
LC-008-003-----0
 62
     2
  5
2E5
 10
273.775631
 20
120.371959
 30
0.0
 11
279.882932
 21
121.176
 31
0.0
  0
LINE
  8
LC-008-003-----0
 62
     2
  5
2E6
 10
279.882932
 20
121.176
 30
0.0
 11
273.775631
 21
121.980041
 31
0.0
  0
TEXT
  8
LC-008-003-----0
 62
     8
  5
2E7
 10
164.171705
 20
123.594369
 30
0.0
 40
28.0
  1
%%c160
 41
0.8
 51
15.0
  7
LCTX15-400-0-0-ARIAL
 72
     1
 11
224.371705
 21
123.594369
 31
0.0
  0
ENDBLK
  8
0
  5
2E8
  0
BLOCK
  8
0
  5
2EE
  2
*X8
 70
    65
 10
0.0
 20
0.0
 30
0.0
  3
*X8
  0
LINE
  8
LC-005-005-----0
 62
     2
  5
2EF
 10
170.003702
 20
189.802692
 30
0.0
 11
170.472932
 21
190.271922
 31
0.0
  0
LINE
  8
LC-005-005-----0
 62
     2
  5
2F0
 10
167.175275
 20
189.802692
 30
0.0
 11
170.472932
 21
193.100349
 31
0.0
  0
LINE
  8
LC-005-005-----0
 62
     2
  5
2F1
 10
166.472932
 20
191.928776
 30
0.0
 11
170.472932
 21
195.928776
 31
0.0
  0
LINE
  8
LC-005-005-----0
 62
     2
  5
2F2
 10
166.472932
 20
194.757203
 30
0.0
 11
170.472932
 21
198.757203
 31
0.0
  0
LINE
  8
LC-005-005-----0
 62
     2
  5
2F3
 10
166.472932
 20
197.58563
 30
0.0
 11
170.472932
 21
201.58563
 31
0.0
  0
LINE
  8
LC-005-005-----0
 62
     2
  5
2F4
 10
166.472932
 20
200.414057
 30
0.0
 11
170.472932
 21
204.414057
 31
0.0
  0
LINE
  8
LC-005-005-----0
 62
     2
  5
2F5
 10
166.472932
 20
203.242484
 30
0.0
 11
170.472932
 21
207.242484
 31
0.0
  0
LINE
  8
LC-005-005-----0
 62
     2
  5
2F6
 10
166.472932
 20
206.070911
 30
0.0
 11
170.472932
 21
210.070911
 31
0.0
  0
LINE
  8
LC-005-005-----0
 62
     2
  5
2F7
 10
166.472932
 20
208.899339
 30
0.0
 11
170.472932
 21
212.899339
 31
0.0
  0
LINE
  8
LC-005-005-----0
 62
     2
  5
2F8
 10
166.472932
 20
211.727766
 30
0.0
 11
170.472932
 21
215.727766
 31
0.0
  0
LINE
  8
LC-005-005-----0
 62
     2
  5
2F9
 10
166.472932
 20
214.556193
 30
0.0
 11
170.472932
 21
218.556193
 31
0.0
  0
LINE
  8
LC-005-005-----0
 62
     2
  5
2FA
 10
166.472932
 20
217.38462
 30
0.0
 11
170.472932
 21
221.38462
 31
0.0
  0
LINE
  8
LC-005-005-----0
 62
     2
  5
2FB
 10
166.472932
 20
220.213047
 30
0.0
 11
170.472932
 21
224.213047
 31
0.0
  0
LINE
  8
LC-005-005-----0
 62
     2
  5
2FC
 10
166.472932
 20
223.041474
 30
0.0
 11
170.472932
 21
227.041474
 31
0.0
  0
LINE
  8
LC-005-005-----0
 62
     2
  5
2FD
 10
166.472932
 20
225.869901
 30
0.0
 11
170.472932
 21
229.869901
 31
0.0
  0
LINE
  8
LC-005-005-----0
 62
     2
  5
2FE
 10
166.472932
 20
228.698328
 30
0.0
 11
170.472932
 21
232.698328
 31
0.0
  0
LINE
  8
LC-005-005-----0
 62
     2
  5
2FF
 10
166.472932
 20
231.526756
 30
0.0
 11
170.472932
 21
235.526756
 31
0.0
  0
LINE
  8
LC-005-005-----0
 62
     2
  5
300
 10
166.472932
 20
234.355183
 30
0.0
 11
170.472932
 21
238.355183
 31
0.0
  0
LINE
  8
LC-005-005-----0
 62
     2
  5
301
 10
166.472932
 20
237.18361
 30
0.0
 11
170.472932
 21
241.18361
 31
0.0
  0
LINE
  8
LC-005-005-----0
 62
     2
  5
302
 10
166.472932
 20
240.012037
 30
0.0
 11
170.472932
 21
244.012037
 31
0.0
  0
LINE
  8
LC-005-005-----0
 62
     2
  5
303
 10
166.472932
 20
242.840464
 30
0.0
 11
170.472932
 21
246.840464
 31
0.0
  0
LINE
  8
LC-005-005-----0
 62
     2
  5
304
 10
166.472932
 20
245.668891
 30
0.0
 11
170.472932
 21
249.668891
 31
0.0
  0
LINE
  8
LC-005-005-----0
 62
     2
  5
305
 10
166.472932
 20
248.497318
 30
0.0
 11
170.472932
 21
252.497318
 31
0.0
  0
LINE
  8
LC-005-005-----0
 62
     2
  5
306
 10
166.472932
 20
251.325745
 30
0.0
 11
170.472932
 21
255.325745
 31
0.0
  0
LINE
  8
LC-005-005-----0
 62
     2
  5
307
 10
166.472932
 20
254.154173
 30
0.0
 11
170.472932
 21
258.154173
 31
0.0
  0
LINE
  8
LC-005-005-----0
 62
     2
  5
308
 10
166.472932
 20
256.9826
 30
0.0
 11
170.472932
 21
260.9826
 31
0.0
  0
LINE
  8
LC-005-005-----0
 62
     2
  5
309
 10
166.472932
 20
259.811027
 30
0.0
 11
170.472932
 21
263.811027
 31
0.0
  0
LINE
  8
LC-005-005-----0
 62
     2
  5
30A
 10
166.472932
 20
262.639454
 30
0.0
 11
170.472932
 21
266.639454
 31
0.0
  0
LINE
  8
LC-005-005-----0
 62
     2
  5
30B
 10
166.472932
 20
265.467881
 30
0.0
 11
170.472932
 21
269.467881
 31
0.0
  0
LINE
  8
LC-005-005-----0
 62
     2
  5
30C
 10
166.472932
 20
268.296308
 30
0.0
 11
170.472932
 21
272.296308
 31
0.0
  0
LINE
  8
LC-005-005-----0
 62
     2
  5
30D
 10
166.472932
 20
271.124735
 30
0.0
 11
170.472932
 21
275.124735
 31
0.0
  0
LINE
  8
LC-005-005-----0
 62
     2
  5
30E
 10
166.472932
 20
273.953162
 30
0.0
 11
170.472932
 21
277.953162
 31
0.0
  0
LINE
  8
LC-005-005-----0
 62
     2
  5
30F
 10
166.472932
 20
276.78159
 30
0.0
 11
170.472932
 21
280.78159
 31
0.0
  0
LINE
  8
LC-005-005-----0
 62
     2
  5
310
 10
166.472932
 20
279.610017
 30
0.0
 11
170.472932
 21
283.610017
 31
0.0
  0
LINE
  8
LC-005-005-----0
 62
     2
  5
311
 10
166.472932
 20
282.438444
 30
0.0
 11
170.472932
 21
286.438444
 31
0.0
  0
LINE
  8
LC-005-005-----0
 62
     2
  5
312
 10
166.472932
 20
285.266871
 30
0.0
 11
170.472932
 21
289.266871
 31
0.0
  0
LINE
  8
LC-005-005-----0
 62
     2
  5
313
 10
166.472932
 20
288.095298
 30
0.0
 11
170.472932
 21
292.095298
 31
0.0
  0
LINE
  8
LC-005-005-----0
 62
     2
  5
314
 10
166.472932
 20
290.923725
 30
0.0
 11
170.472932
 21
294.923725
 31
0.0
  0
LINE
  8
LC-005-005-----0
 62
     2
  5
315
 10
166.472932
 20
293.752152
 30
0.0
 11
170.472932
 21
297.752152
 31
0.0
  0
LINE
  8
LC-005-005-----0
 62
     2
  5
316
 10
166.472932
 20
296.580579
 30
0.0
 11
169.695045
 21
299.802693
 31
0.0
  0
LINE
  8
LC-005-005-----0
 62
     2
  5
317
 10
166.472932
 20
299.409007
 30
0.0
 11
166.866616
 21
299.80269
 31
0.0
  0
ENDBLK
  8
0
  5
318
  0
BLOCK
  8
0
  5
31B
  2
*X9
 70
    65
 10
0.0
 20
0.0
 30
0.0
  3
*X9
  0
LINE
  8
LC-005-005-----0
 62
     2
  5
31C
 10
295.547979
 20
301.204833
 30
0.0
 11
300.322655
 21
305.979509
 31
0.0
  0
LINE
  8
LC-005-005-----0
 62
     2
  5
31D
 10
291.401691
 20
299.886972
 30
0.0
 11
301.640515
 21
310.125796
 31
0.0
  0
LINE
  8
LC-005-005-----0
 62
     2
  5
31E
 10
288.486644
 20
299.800353
 30
0.0
 11
291.642055
 21
302.955763
 31
0.0
  0
LINE
  8
LC-005-005-----0
 62
     2
  5
31F
 10
298.821026
 20
310.134734
 30
0.0
 11
301.727237
 21
313.040945
 31
0.0
  0
LINE
  8
LC-005-005-----0
 62
     2
  5
320
 10
285.658385
 20
299.800521
 30
0.0
 11
286.312263
 21
300.454398
 31
0.0
  0
LINE
  8
LC-005-005-----0
 62
     2
  5
321
 10
287.476838
 20
301.618973
 30
0.0
 11
288.658213
 21
302.800349
 31
0.0
  0
LINE
  8
LC-005-005-----0
 62
     2
  5
322
 10
298.976532
 20
313.118668
 30
0.0
 11
301.727335
 21
315.869471
 31
0.0
  0
LINE
  8
LC-005-005-----0
 62
     2
  5
323
 10
282.829985
 20
299.800547
 30
0.0
 11
285.829885
 21
302.800448
 31
0.0
  0
LINE
  8
LC-005-005-----0
 62
     2
  5
324
 10
287.347736
 20
304.318299
 30
0.0
 11
287.476936
 21
304.447499
 31
0.0
  0
LINE
  8
LC-005-005-----0
 62
     2
  5
325
 10
298.976631
 20
315.947194
 30
0.0
 11
301.727434
 21
318.697997
 31
0.0
  0
LINE
  8
LC-005-005-----0
 62
     2
  5
326
 10
280.001657
 20
299.800647
 30
0.0
 11
283.001557
 21
302.800547
 31
0.0
  0
LINE
  8
LC-005-005-----0
 62
     2
  5
327
 10
298.97673
 20
318.77572
 30
0.0
 11
301.727533
 21
321.526523
 31
0.0
  0
LINE
  8
LC-005-005-----0
 62
     2
  5
328
 10
244.671581
 20
267.298998
 30
0.0
 11
245.854888
 21
268.482305
 31
0.0
  0
LINE
  8
LC-005-005-----0
 62
     2
  5
329
 10
277.173329
 20
299.800746
 30
0.0
 11
280.173228
 21
302.800645
 31
0.0
  0
LINE
  8
LC-005-005-----0
 62
     2
  5
32A
 10
298.976829
 20
321.604246
 30
0.0
 11
301.727632
 21
324.355049
 31
0.0
  0
LINE
  8
LC-005-005-----0
 62
     2
  5
32B
 10
243.475696
 20
268.93154
 30
0.0
 11
246.475801
 21
271.931645
 31
0.0
  0
LINE
  8
LC-005-005-----0
 62
     2
  5
32C
 10
274.345001
 20
299.800845
 30
0.0
 11
277.3449
 21
302.800744
 31
0.0
  0
LINE
  8
LC-005-005-----0
 62
     2
  5
32D
 10
298.976928
 20
324.432772
 30
0.0
 11
301.727731
 21
327.183575
 31
0.0
  0
LINE
  8
LC-005-005-----0
 62
     2
  5
32E
 10
243.475795
 20
271.760066
 30
0.0
 11
246.475899
 21
274.760171
 31
0.0
  0
LINE
  8
LC-005-005-----0
 62
     2
  5
32F
 10
271.516673
 20
299.800945
 30
0.0
 11
274.516572
 21
302.800843
 31
0.0
  0
LINE
  8
LC-005-005-----0
 62
     2
  5
330
 10
298.977026
 20
327.261298
 30
0.0
 11
301.727829
 21
330.012101
 31
0.0
  0
LINE
  8
LC-005-005-----0
 62
     2
  5
331
 10
243.475893
 20
274.588592
 30
0.0
 11
246.475998
 21
277.588696
 31
0.0
  0
LINE
  8
LC-005-005-----0
 62
     2
  5
332
 10
268.688345
 20
299.801044
 30
0.0
 11
271.688243
 21
302.800942
 31
0.0
  0
LINE
  8
LC-005-005-----0
 62
     2
  5
333
 10
298.977125
 20
330.089824
 30
0.0
 11
301.727928
 21
332.840626
 31
0.0
  0
LINE
  8
LC-005-005-----0
 62
     2
  5
334
 10
243.475992
 20
277.417118
 30
0.0
 11
246.476097
 21
280.417222
 31
0.0
  0
LINE
  8
LC-005-005-----0
 62
     2
  5
335
 10
265.860018
 20
299.801143
 30
0.0
 11
268.859915
 21
302.801041
 31
0.0
  0
LINE
  8
LC-005-005-----0
 62
     2
  5
336
 10
298.977224
 20
332.918349
 30
0.0
 11
301.728027
 21
335.669152
 31
0.0
  0
LINE
  8
LC-005-005-----0
 62
     2
  5
337
 10
243.476091
 20
280.245644
 30
0.0
 11
246.476196
 21
283.245748
 31
0.0
  0
LINE
  8
LC-005-005-----0
 62
     2
  5
338
 10
263.03169
 20
299.801242
 30
0.0
 11
266.031587
 21
302.801139
 31
0.0
  0
LINE
  8
LC-005-005-----0
 62
     2
  5
339
 10
298.977323
 20
335.746875
 30
0.0
 11
301.728126
 21
338.497678
 31
0.0
  0
LINE
  8
LC-005-005-----0
 62
     2
  5
33A
 10
370.854096
 20
407.623649
 30
0.0
 11
372.232331
 21
409.001884
 31
0.0
  0
LINE
  8
LC-005-005-----0
 62
     2
  5
33B
 10
243.47619
 20
283.074169
 30
0.0
 11
246.476295
 21
286.074274
 31
0.0
  0
LINE
  8
LC-005-005-----0
 62
     2
  5
33C
 10
260.203362
 20
299.801342
 30
0.0
 11
263.203258
 21
302.801238
 31
0.0
  0
LINE
  8
LC-005-005-----0
 62
     2
  5
33D
 10
298.977422
 20
338.575401
 30
0.0
 11
301.728225
 21
341.326204
 31
0.0
  0
LINE
  8
LC-005-005-----0
 62
     2
  5
33E
 10
367.975524
 20
407.573504
 30
0.0
 11
371.029174
 21
410.627154
 31
0.0
  0
LINE
  8
LC-005-005-----0
 62
     2
  5
33F
 10
243.476289
 20
285.902695
 30
0.0
 11
246.476393
 21
288.9028
 31
0.0
  0
LINE
  8
LC-005-005-----0
 62
     2
  5
340
 10
257.375034
 20
299.801441
 30
0.0
 11
260.37493
 21
302.801337
 31
0.0
  0
LINE
  8
LC-005-005-----0
 62
     2
  5
341
 10
298.97752
 20
341.403927
 30
0.0
 11
301.728323
 21
344.15473
 31
0.0
  0
LINE
  8
LC-005-005-----0
 62
     2
  5
342
 10
365.096952
 20
407.523359
 30
0.0
 11
368.150602
 21
410.577009
 31
0.0
  0
LINE
  8
LC-005-005-----0
 62
     2
  5
343
 10
243.476387
 20
288.731221
 30
0.0
 11
246.476492
 21
291.731326
 31
0.0
  0
LINE
  8
LC-005-005-----0
 62
     2
  5
344
 10
254.546706
 20
299.80154
 30
0.0
 11
257.546602
 21
302.801436
 31
0.0
  0
LINE
  8
LC-005-005-----0
 62
     2
  5
345
 10
298.977619
 20
344.232453
 30
0.0
 11
301.728422
 21
346.983256
 31
0.0
  0
LINE
  8
LC-005-005-----0
 62
     2
  5
346
 10
362.21838
 20
407.473214
 30
0.0
 11
365.27203
 21
410.526864
 31
0.0
  0
LINE
  8
LC-005-005-----0
 62
     2
  5
347
 10
243.476486
 20
291.559747
 30
0.0
 11
246.476591
 21
294.559852
 31
0.0
  0
LINE
  8
LC-005-005-----0
 62
     2
  5
348
 10
252.216592
 20
300.299853
 30
0.0
 11
254.728567
 21
302.811828
 31
0.0
  0
LINE
  8
LC-005-005-----0
 62
     2
  5
349
 10
298.977718
 20
347.060979
 30
0.0
 11
301.728521
 21
349.811782
 31
0.0
  0
LINE
  8
LC-005-005-----0
 62
     2
  5
34A
 10
359.339807
 20
407.423068
 30
0.0
 11
362.393457
 21
410.476719
 31
0.0
  0
LINE
  8
LC-005-005-----0
 62
     2
  5
34B
 10
243.476585
 20
294.388273
 30
0.0
 11
246.47669
 21
297.388378
 31
0.0
  0
LINE
  8
LC-005-005-----0
 62
     2
  5
34C
 10
251.138138
 20
302.049826
 30
0.0
 11
252.812538
 21
303.724226
 31
0.0
  0
LINE
  8
LC-005-005-----0
 62
     2
  5
34D
 10
298.977817
 20
349.889505
 30
0.0
 11
301.72862
 21
352.640308
 31
0.0
  0
LINE
  8
LC-005-005-----0
 62
     2
  5
34E
 10
356.461235
 20
407.372923
 30
0.0
 11
359.514885
 21
410.426573
 31
0.0
  0
LINE
  8
LC-005-005-----0
 62
     2
  5
34F
 10
243.476684
 20
297.216799
 30
0.0
 11
251.97814
 21
305.718255
 31
0.0
  0
LINE
  8
LC-005-005-----0
 62
     2
  5
350
 10
298.977916
 20
352.718031
 30
0.0
 11
301.728719
 21
355.468834
 31
0.0
  0
LINE
  8
LC-005-005-----0
 62
     2
  5
351
 10
353.582663
 20
407.322778
 30
0.0
 11
356.636313
 21
410.376428
 31
0.0
  0
LINE
  8
LC-005-005-----0
 62
     2
  5
352
 10
243.487744
 20
300.056287
 30
0.0
 11
246.222468
 21
302.791011
 31
0.0
  0
LINE
  8
LC-005-005-----0
 62
     2
  5
353
 10
249.001131
 20
305.569673
 30
0.0
 11
251.977079
 21
308.545622
 31
0.0
  0
LINE
  8
LC-005-005-----0
 62
     2
  5
354
 10
298.978014
 20
355.546557
 30
0.0
 11
301.728817
 21
358.29736
 31
0.0
  0
LINE
  8
LC-005-005-----0
 62
     2
  5
355
 10
350.704091
 20
407.272633
 30
0.0
 11
353.757741
 21
410.326283
 31
0.0
  0
LINE
  8
LC-005-005-----0
 62
     2
  5
356
 10
249.026132
 20
308.423102
 30
0.0
 11
251.977178
 21
311.374148
 31
0.0
  0
LINE
  8
LC-005-005-----0
 62
     2
  5
357
 10
298.978113
 20
358.375083
 30
0.0
 11
301.728916
 21
361.125886
 31
0.0
  0
LINE
  8
LC-005-005-----0
 62
     2
  5
358
 10
347.825518
 20
407.222488
 30
0.0
 11
350.879169
 21
410.276138
 31
0.0
  0
LINE
  8
LC-005-005-----0
 62
     2
  5
359
 10
249.051133
 20
311.27653
 30
0.0
 11
251.977277
 21
314.202674
 31
0.0
  0
LINE
  8
LC-005-005-----0
 62
     2
  5
35A
 10
298.978212
 20
361.203609
 30
0.0
 11
301.729015
 21
363.954412
 31
0.0
  0
LINE
  8
LC-005-005-----0
 62
     2
  5
35B
 10
344.946946
 20
407.172343
 30
0.0
 11
348.000596
 21
410.225993
 31
0.0
  0
LINE
  8
LC-005-005-----0
 62
     2
  5
35C
 10
249.076134
 20
314.129958
 30
0.0
 11
251.977376
 21
317.0312
 31
0.0
  0
LINE
  8
LC-005-005-----0
 62
     2
  5
35D
 10
298.978311
 20
364.032135
 30
0.0
 11
301.729114
 21
366.782938
 31
0.0
  0
LINE
  8
LC-005-005-----0
 62
     2
  5
35E
 10
342.068374
 20
407.122198
 30
0.0
 11
345.122024
 21
410.175848
 31
0.0
  0
LINE
  8
LC-005-005-----0
 62
     2
  5
35F
 10
249.101136
 20
316.983387
 30
0.0
 11
251.977475
 21
319.859726
 31
0.0
  0
LINE
  8
LC-005-005-----0
 62
     2
  5
360
 10
298.97841
 20
366.860661
 30
0.0
 11
301.729213
 21
369.611464
 31
0.0
  0
LINE
  8
LC-005-005-----0
 62
     2
  5
361
 10
339.189802
 20
407.072053
 30
0.0
 11
342.243452
 21
410.125703
 31
0.0
  0
LINE
  8
LC-005-005-----0
 62
     2
  5
362
 10
249.126137
 20
319.836815
 30
0.0
 11
251.977573
 21
322.688252
 31
0.0
  0
LINE
  8
LC-005-005-----0
 62
     2
  5
363
 10
298.978508
 20
369.689186
 30
0.0
 11
301.729311
 21
372.439989
 31
0.0
  0
LINE
  8
LC-005-005-----0
 62
     2
  5
364
 10
336.31123
 20
407.021908
 30
0.0
 11
339.36488
 21
410.075558
 31
0.0
  0
LINE
  8
LC-005-005-----0
 62
     2
  5
365
 10
249.151138
 20
322.690243
 30
0.0
 11
251.977672
 21
325.516778
 31
0.0
  0
LINE
  8
LC-005-005-----0
 62
     2
  5
366
 10
298.978607
 20
372.517712
 30
0.0
 11
304.130883
 21
377.669989
 31
0.0
  0
LINE
  8
LC-005-005-----0
 62
     2
  5
367
 10
333.432657
 20
406.971763
 30
0.0
 11
336.486308
 21
410.025413
 31
0.0
  0
LINE
  8
LC-005-005-----0
 62
     2
  5
368
 10
249.176139
 20
325.543672
 30
0.0
 11
251.977771
 21
328.345303
 31
0.0
  0
LINE
  8
LC-005-005-----0
 62
     2
  5
369
 10
298.978706
 20
375.346238
 30
0.0
 11
310.738712
 21
387.106245
 31
0.0
  0
LINE
  8
LC-005-005-----0
 62
     2
  5
36A
 10
328.727768
 20
405.095301
 30
0.0
 11
333.607735
 21
409.975268
 31
0.0
  0
LINE
  8
LC-005-005-----0
 62
     2
  5
36B
 10
249.20114
 20
328.3971
 30
0.0
 11
251.97787
 21
331.173829
 31
0.0
  0
LINE
  8
LC-005-005-----0
 62
     2
  5
36C
 10
299.528824
 20
378.724783
 30
0.0
 11
307.25374
 21
386.4497
 31
0.0
  0
LINE
  8
LC-005-005-----0
 62
     2
  5
36D
 10
308.227746
 20
387.423705
 30
0.0
 11
310.979224
 21
390.175183
 31
0.0
  0
LINE
  8
LC-005-005-----0
 62
     2
  5
36E
 10
325.686803
 20
404.882763
 30
0.0
 11
328.920102
 21
408.116062
 31
0.0
  0
LINE
  8
LC-005-005-----0
 62
     2
  5
36F
 10
249.226141
 20
331.250528
 30
0.0
 11
251.977969
 21
334.002355
 31
0.0
  0
LINE
  8
LC-005-005-----0
 62
     2
  5
370
 10
298.598724
 20
380.623111
 30
0.0
 11
304.425412
 21
386.449798
 31
0.0
  0
LINE
  8
LC-005-005-----0
 62
     2
  5
371
 10
308.227845
 20
390.252231
 30
0.0
 11
310.979323
 21
393.003709
 31
0.0
  0
LINE
  8
LC-005-005-----0
 62
     2
  5
372
 10
313.430181
 20
395.454567
 30
0.0
 11
316.25064
 21
398.275026
 31
0.0
  0
LINE
  8
LC-005-005-----0
 62
     2
  5
373
 10
322.645838
 20
404.670225
 30
0.0
 11
325.879137
 21
407.903524
 31
0.0
  0
LINE
  8
LC-005-005-----0
 62
     2
  5
374
 10
249.251143
 20
334.103956
 30
0.0
 11
251.978067
 21
336.830881
 31
0.0
  0
LINE
  8
LC-005-005-----0
 62
     2
  5
375
 10
298.913525
 20
383.766339
 30
0.0
 11
301.597083
 21
386.449897
 31
0.0
  0
LINE
  8
LC-005-005-----0
 62
     2
  5
376
 10
308.227944
 20
393.080757
 30
0.0
 11
316.407233
 21
401.260047
 31
0.0
  0
LINE
  8
LC-005-005-----0
 62
     2
  5
377
 10
319.604873
 20
404.457687
 30
0.0
 11
322.838172
 21
407.690986
 31
0.0
  0
LINE
  8
LC-005-005-----0
 62
     2
  5
378
 10
249.276144
 20
336.957385
 30
0.0
 11
251.978166
 21
339.659407
 31
0.0
  0
LINE
  8
LC-005-005-----0
 62
     2
  5
379
 10
308.228042
 20
395.909283
 30
0.0
 11
310.268353
 21
397.949594
 31
0.0
  0
LINE
  8
LC-005-005-----0
 62
     2
  5
37A
 10
313.393386
 20
401.074627
 30
0.0
 11
319.797207
 21
407.478447
 31
0.0
  0
LINE
  8
LC-005-005-----0
 62
     2
  5
37B
 10
249.301145
 20
339.810813
 30
0.0
 11
251.978265
 21
342.487933
 31
0.0
  0
LINE
  8
LC-005-005-----0
 62
     2
  5
37C
 10
308.228141
 20
398.737809
 30
0.0
 11
310.229593
 21
400.739261
 31
0.0
  0
LINE
  8
LC-005-005-----0
 62
     2
  5
37D
 10
313.549926
 20
404.059594
 30
0.0
 11
316.756241
 21
407.265909
 31
0.0
  0
LINE
  8
LC-005-005-----0
 62
     2
  5
37E
 10
249.326146
 20
342.664241
 30
0.0
 11
251.978364
 21
345.316459
 31
0.0
  0
LINE
  8
LC-005-005-----0
 62
     2
  5
37F
 10
308.22824
 20
401.566335
 30
0.0
 11
310.229692
 21
403.567787
 31
0.0
  0
LINE
  8
LC-005-005-----0
 62
     2
  5
380
 10
313.706467
 20
407.044562
 30
0.0
 11
313.715276
 21
407.053371
 31
0.0
  0
LINE
  8
LC-005-005-----0
 62
     2
  5
381
 10
249.351147
 20
345.51767
 30
0.0
 11
251.978463
 21
348.144985
 31
0.0
  0
LINE
  8
LC-005-005-----0
 62
     2
  5
382
 10
249.376149
 20
348.371098
 30
0.0
 11
251.978561
 21
350.973511
 31
0.0
  0
LINE
  8
LC-005-005-----0
 62
     2
  5
383
 10
249.40115
 20
351.224526
 30
0.0
 11
251.97866
 21
353.802037
 31
0.0
  0
LINE
  8
LC-005-005-----0
 62
     2
  5
384
 10
249.426151
 20
354.077954
 30
0.0
 11
251.978759
 21
356.630563
 31
0.0
  0
LINE
  8
LC-005-005-----0
 62
     2
  5
385
 10
249.451152
 20
356.931383
 30
0.0
 11
251.978858
 21
359.459089
 31
0.0
  0
LINE
  8
LC-005-005-----0
 62
     2
  5
386
 10
249.476153
 20
359.784811
 30
0.0
 11
251.978957
 21
362.287615
 31
0.0
  0
LINE
  8
LC-005-005-----0
 62
     2
  5
387
 10
249.501154
 20
362.638239
 30
0.0
 11
251.979055
 21
365.11614
 31
0.0
  0
LINE
  8
LC-005-005-----0
 62
     2
  5
388
 10
249.526156
 20
365.491668
 30
0.0
 11
251.979154
 21
367.944666
 31
0.0
  0
LINE
  8
LC-005-005-----0
 62
     2
  5
389
 10
249.551157
 20
368.345096
 30
0.0
 11
251.979253
 21
370.773192
 31
0.0
  0
LINE
  8
LC-005-005-----0
 62
     2
  5
38A
 10
249.576158
 20
371.198524
 30
0.0
 11
251.979352
 21
373.601718
 31
0.0
  0
LINE
  8
LC-005-005-----0
 62
     2
  5
38B
 10
249.601159
 20
374.051953
 30
0.0
 11
251.979451
 21
376.430244
 31
0.0
  0
ENDBLK
  8
0
  5
38C
  0
BLOCK
  8
0
  5
38F
  2
*D10
 70
    65
 10
0.0
 20
0.0
 30
0.0
  3
*D10
  0
LINE
  8
LC-007-003-MTH-0
 62
     2
  5
390
 10
126.580288
 20
400.60944
 30
0.0
 11
126.580288
 21
445.115705
 31
0.0
  0
LINE
  8
LC-007-003-MTH-0
 62
     2
  5
391
 10
316.373206
 20
400.607836
 30
0.0
 11
316.373206
 21
445.115705
 31
0.0
  0
LINE
  8
LC-009-003-MTG-0
 62
     2
  5
392
 10
126.580288
 20
428.315705
 30
0.0
 11
177.900214
 21
428.315705
 31
0.0
  0
LINE
  8
LC-009-003-MTG-0
 62
     2
  5
393
 10
279.547147
 20
428.315705
 30
0.0
 11
316.373206
 21
428.315705
 31
0.0
  0
LINE
  8
LC-008-003-----0
 62
     2
  5
394
 10
154.340744
 20
431.970438
 30
0.0
 11
126.580288
 21
428.315705
 31
0.0
  0
LINE
  8
LC-008-003-----0
 62
     2
  5
395
 10
126.580288
 20
428.315705
 30
0.0
 11
154.340744
 21
424.660971
 31
0.0
  0
LINE
  8
LC-008-003-----0
 62
     2
  5
396
 10
154.340744
 20
424.660971
 30
0.0
 11
154.340744
 21
431.970438
 31
0.0
  0
LINE
  8
LC-008-003-----0
 62
     2
  5
397
 10
154.403025
 20
431.020207
 30
0.0
 11
133.860288
 21
428.315705
 31
0.0
  0
LINE
  8
LC-008-003-----0
 62
     2
  5
398
 10
133.860288
 20
428.315705
 30
0.0
 11
154.403025
 21
425.611202
 31
0.0
  0
LINE
  8
LC-008-003-----0
 62
     2
  5
399
 10
154.465306
 20
430.069977
 30
0.0
 11
141.140288
 21
428.315705
 31
0.0
  0
LINE
  8
LC-008-003-----0
 62
     2
  5
39A
 10
141.140288
 20
428.315705
 30
0.0
 11
154.465306
 21
426.561433
 31
0.0
  0
LINE
  8
LC-008-003-----0
 62
     2
  5
39B
 10
154.527588
 20
429.119746
 30
0.0
 11
148.420288
 21
428.315705
 31
0.0
  0
LINE
  8
LC-008-003-----0
 62
     2
  5
39C
 10
148.420288
 20
428.315705
 30
0.0
 11
154.527588
 21
427.511663
 31
0.0
  0
LINE
  8
LC-008-003-----0
 62
     2
  5
39D
 10
288.61275
 20
424.660971
 30
0.0
 11
316.373206
 21
428.315705
 31
0.0
  0
LINE
  8
LC-008-003-----0
 62
     2
  5
39E
 10
316.373206
 20
428.315705
 30
0.0
 11
288.61275
 21
431.970438
 31
0.0
  0
LINE
  8
LC-008-003-----0
 62
     2
  5
39F
 10
288.61275
 20
431.970438
 30
0.0
 11
288.61275
 21
424.660971
 31
0.0
  0
LINE
  8
LC-008-003-----0
 62
     2
  5
3A0
 10
288.550469
 20
425.611202
 30
0.0
 11
309.093206
 21
428.315705
 31
0.0
  0
LINE
  8
LC-008-003-----0
 62
     2
  5
3A1
 10
309.093206
 20
428.315705
 30
0.0
 11
288.550469
 21
431.020207
 31
0.0
  0
LINE
  8
LC-008-003-----0
 62
     2
  5
3A2
 10
288.488187
 20
426.561433
 30
0.0
 11
301.813206
 21
428.315705
 31
0.0
  0
LINE
  8
LC-008-003-----0
 62
     2
  5
3A3
 10
301.813206
 20
428.315705
 30
0.0
 11
288.488187
 21
430.069977
 31
0.0
  0
LINE
  8
LC-008-003-----0
 62
     2
  5
3A4
 10
288.425906
 20
427.511663
 30
0.0
 11
294.533206
 21
428.315705
 31
0.0
  0
LINE
  8
LC-008-003-----0
 62
     2
  5
3A5
 10
294.533206
 20
428.315705
 30
0.0
 11
288.425906
 21
429.119746
 31
0.0
  0
TEXT
  8
LC-008-003-----0
 62
     8
  5
3A6
 10
155.17552
 20
430.734074
 30
0.0
 40
28.0
  1
%%c190
 41
0.9
 51
15.0
  7
LCTX15-400-0-0-ARIAL
 72
     1
 11
224.37552
 21
430.734074
 31
0.0
  0
ENDBLK
  8
0
  5
3A7
  0
BLOCK
  8
0
  5
3AA
  2
*D11
 70
    65
 10
0.0
 20
0.0
 30
0.0
  3
*D11
  0
LINE
  8
LC-007-003-MTH-0
 62
     2
  5
3AB
 10
70.721189
 20
410.65338
 30
0.0
 11
70.721189
 21
493.188
 31
0.0
  0
LINE
  8
LC-007-003-MTH-0
 62
     2
  5
3AC
 10
372.232389
 20
410.65338
 30
0.0
 11
372.232389
 21
493.188
 31
0.0
  0
LINE
  8
LC-009-003-MTG-0
 62
     2
  5
3AD
 10
70.721189
 20
476.388
 30
0.0
 11
177.900256
 21
476.388
 31
0.0
  0
LINE
  8
LC-009-003-MTG-0
 62
     2
  5
3AE
 10
279.547189
 20
476.388
 30
0.0
 11
372.232389
 21
476.388
 31
0.0
  0
LINE
  8
LC-008-003-----0
 62
     2
  5
3AF
 10
98.481645
 20
480.042733
 30
0.0
 11
70.721189
 21
476.388
 31
0.0
  0
LINE
  8
LC-008-003-----0
 62
     2
  5
3B0
 10
70.721189
 20
476.388
 30
0.0
 11
98.481645
 21
472.733267
 31
0.0
  0
LINE
  8
LC-008-003-----0
 62
     2
  5
3B1
 10
98.481645
 20
472.733267
 30
0.0
 11
98.481645
 21
480.042733
 31
0.0
  0
LINE
  8
LC-008-003-----0
 62
     2
  5
3B2
 10
98.543926
 20
479.092503
 30
0.0
 11
78.001189
 21
476.388
 31
0.0
  0
LINE
  8
LC-008-003-----0
 62
     2
  5
3B3
 10
78.001189
 20
476.388
 30
0.0
 11
98.543926
 21
473.683497
 31
0.0
  0
LINE
  8
LC-008-003-----0
 62
     2
  5
3B4
 10
98.606208
 20
478.142272
 30
0.0
 11
85.281189
 21
476.388
 31
0.0
  0
LINE
  8
LC-008-003-----0
 62
     2
  5
3B5
 10
85.281189
 20
476.388
 30
0.0
 11
98.606208
 21
474.633728
 31
0.0
  0
LINE
  8
LC-008-003-----0
 62
     2
  5
3B6
 10
98.668489
 20
477.192041
 30
0.0
 11
92.561189
 21
476.388
 31
0.0
  0
LINE
  8
LC-008-003-----0
 62
     2
  5
3B7
 10
92.561189
 20
476.388
 30
0.0
 11
98.668489
 21
475.583959
 31
0.0
  0
LINE
  8
LC-008-003-----0
 62
     2
  5
3B8
 10
344.471933
 20
472.733267
 30
0.0
 11
372.232389
 21
476.388
 31
0.0
  0
LINE
  8
LC-008-003-----0
 62
     2
  5
3B9
 10
372.232389
 20
476.388
 30
0.0
 11
344.471933
 21
480.042733
 31
0.0
  0
LINE
  8
LC-008-003-----0
 62
     2
  5
3BA
 10
344.471933
 20
480.042733
 30
0.0
 11
344.471933
 21
472.733267
 31
0.0
  0
LINE
  8
LC-008-003-----0
 62
     2
  5
3BB
 10
344.409651
 20
473.683497
 30
0.0
 11
364.952389
 21
476.388
 31
0.0
  0
LINE
  8
LC-008-003-----0
 62
     2
  5
3BC
 10
364.952389
 20
476.388
 30
0.0
 11
344.409651
 21
479.092503
 31
0.0
  0
LINE
  8
LC-008-003-----0
 62
     2
  5
3BD
 10
344.34737
 20
474.633728
 30
0.0
 11
357.672389
 21
476.388
 31
0.0
  0
LINE
  8
LC-008-003-----0
 62
     2
  5
3BE
 10
357.672389
 20
476.388
 30
0.0
 11
344.34737
 21
478.142272
 31
0.0
  0
LINE
  8
LC-008-003-----0
 62
     2
  5
3BF
 10
344.285089
 20
475.583959
 30
0.0
 11
350.392389
 21
476.388
 31
0.0
  0
LINE
  8
LC-008-003-----0
 62
     2
  5
3C0
 10
350.392389
 20
476.388
 30
0.0
 11
344.285089
 21
477.192041
 31
0.0
  0
TEXT
  8
LC-008-003-----0
 62
     8
  5
3C1
 10
155.175562
 20
478.806369
 30
0.0
 40
28.0
  1
%%c300
 41
0.9
 51
15.0
  7
LCTX15-400-0-0-ARIAL
 72
     1
 11
224.375562
 21
478.806369
 31
0.0
  0
ENDBLK
  8
0
  5
3C2
  0
BLOCK
  8
0
  5
3C5
  2
*D12
 70
    65
 10
0.0
 20
0.0
 30
0.0
  3
*D12
  0
LINE
  8
LC-007-003-MTH-0
 62
     2
  5
3C6
 10
152.972932
 20
299.802696
 30
0.0
 11
34.073042
 21
299.802696
 31
0.0
  0
LINE
  8
LC-007-003-MTH-0
 62
     2
  5
3C7
 10
70.721189
 20
407.652923
 30
0.0
 11
34.073042
 21
407.652923
 31
0.0
  0
LINE
  8
LC-009-003-MTG-0
 62
     2
  5
3C8
 10
50.873042
 20
299.802696
 30
0.0
 11
50.873042
 21
322.151276
 31
0.0
  0
LINE
  8
LC-009-003-MTG-0
 62
     2
  5
3C9
 10
50.873042
 20
399.798209
 30
0.0
 11
50.873042
 21
407.652923
 31
0.0
  0
LINE
  8
LC-008-003-----0
 62
     2
  5
3CA
 10
47.930795
 20
322.151276
 30
0.0
 11
50.873042
 21
299.802696
 31
0.0
  0
LINE
  8
LC-008-003-----0
 62
     2
  5
3CB
 10
50.873042
 20
299.802696
 30
0.0
 11
53.815288
 21
322.151276
 31
0.0
  0
LINE
  8
LC-008-003-----0
 62
     2
  5
3CC
 10
48.889226
 20
322.151276
 30
0.0
 11
50.873042
 21
307.082696
 31
0.0
  0
LINE
  8
LC-008-003-----0
 62
     2
  5
3CD
 10
50.873042
 20
307.082696
 30
0.0
 11
52.856858
 21
322.151276
 31
0.0
  0
LINE
  8
LC-008-003-----0
 62
     2
  5
3CE
 10
49.847656
 20
322.151276
 30
0.0
 11
50.873042
 21
314.362696
 31
0.0
  0
LINE
  8
LC-008-003-----0
 62
     2
  5
3CF
 10
50.873042
 20
314.362696
 30
0.0
 11
51.898428
 21
322.151276
 31
0.0
  0
LINE
  8
LC-008-003-----0
 62
     2
  5
3D0
 10
50.806086
 20
322.151276
 30
0.0
 11
50.873042
 21
321.642696
 31
0.0
  0
LINE
  8
LC-008-003-----0
 62
     2
  5
3D1
 10
50.873042
 20
321.642696
 30
0.0
 11
50.939998
 21
322.151276
 31
0.0
  0
LINE
  8
LC-008-003-----0
 62
     2
  5
3D2
 10
51.907135
 20
399.798209
 30
0.0
 11
50.873042
 21
407.652923
 31
0.0
  0
LINE
  8
LC-008-003-----0
 62
     2
  5
3D3
 10
50.873042
 20
407.652923
 30
0.0
 11
49.838949
 21
399.798209
 31
0.0
  0
LINE
  8
LC-008-003-----0
 62
     2
  5
3D4
 10
50.948704
 20
399.798209
 30
0.0
 11
50.873042
 21
400.372923
 31
0.0
  0
LINE
  8
LC-008-003-----0
 62
     2
  5
3D5
 10
50.873042
 20
400.372923
 30
0.0
 11
50.797379
 21
399.798209
 31
0.0
  0
TEXT
  8
LC-008-003-----0
 62
     8
  5
3D6
 10
43.045488
 20
322.875969
 30
0.0
 40
28.0
  1
110
 50
90.0
 41
0.9
 51
15.0
  7
LCTX15-400-0-0-ARIAL
 72
     1
 11
43.045488
 21
358.075969
 31
0.0
  0
ENDBLK
  8
0
  5
3D7
  0
BLOCK
  8
0
  5
3DA
  2
*D13
 70
    65
 10
0.0
 20
0.0
 30
0.0
  3
*D13
  0
LINE
  8
LC-007-003-MTH-0
 62
     2
  5
3DB
 10
166.472932
 20
189.802692
 30
0.0
 11
34.073042
 21
189.802692
 31
0.0
  0
LINE
  8
LC-007-003-MTH-0
 62
     2
  5
3DC
 10
152.972932
 20
299.802696
 30
0.0
 11
34.073042
 21
299.802696
 31
0.0
  0
LINE
  8
LC-009-003-MTG-0
 62
     2
  5
3DD
 10
50.873042
 20
189.802692
 30
0.0
 11
50.873042
 21
213.226161
 31
0.0
  0
LINE
  8
LC-009-003-MTG-0
 62
     2
  5
3DE
 10
50.873042
 20
290.873094
 30
0.0
 11
50.873042
 21
299.802696
 31
0.0
  0
LINE
  8
LC-008-003-----0
 62
     2
  5
3DF
 10
47.789284
 20
213.226161
 30
0.0
 11
50.873042
 21
189.802692
 31
0.0
  0
LINE
  8
LC-008-003-----0
 62
     2
  5
3E0
 10
50.873042
 20
189.802692
 30
0.0
 11
53.9568
 21
213.226161
 31
0.0
  0
LINE
  8
LC-008-003-----0
 62
     2
  5
3E1
 10
48.747714
 20
213.226161
 30
0.0
 11
50.873042
 21
197.082692
 31
0.0
  0
LINE
  8
LC-008-003-----0
 62
     2
  5
3E2
 10
50.873042
 20
197.082692
 30
0.0
 11
52.99837
 21
213.226161
 31
0.0
  0
LINE
  8
LC-008-003-----0
 62
     2
  5
3E3
 10
49.706144
 20
213.226161
 30
0.0
 11
50.873042
 21
204.362692
 31
0.0
  0
LINE
  8
LC-008-003-----0
 62
     2
  5
3E4
 10
50.873042
 20
204.362692
 30
0.0
 11
52.03994
 21
213.226161
 31
0.0
  0
LINE
  8
LC-008-003-----0
 62
     2
  5
3E5
 10
50.664574
 20
213.226161
 30
0.0
 11
50.873042
 21
211.642692
 31
0.0
  0
LINE
  8
LC-008-003-----0
 62
     2
  5
3E6
 10
50.873042
 20
211.642692
 30
0.0
 11
51.081509
 21
213.226161
 31
0.0
  0
LINE
  8
LC-008-003-----0
 62
     2
  5
3E7
 10
52.048646
 20
290.873094
 30
0.0
 11
50.873042
 21
299.802696
 31
0.0
  0
LINE
  8
LC-008-003-----0
 62
     2
  5
3E8
 10
50.873042
 20
299.802696
 30
0.0
 11
49.697437
 21
290.873094
 31
0.0
  0
LINE
  8
LC-008-003-----0
 62
     2
  5
3E9
 10
51.090216
 20
290.873094
 30
0.0
 11
50.873042
 21
292.522696
 31
0.0
  0
LINE
  8
LC-008-003-----0
 62
     2
  5
3EA
 10
50.873042
 20
292.522696
 30
0.0
 11
50.655868
 21
290.873094
 31
0.0
  0
TEXT
  8
LC-008-003-----0
 62
     8
  5
3EB
 10
43.045488
 20
213.950854
 30
0.0
 40
28.0
  1
110
 50
90.0
 41
0.9
 51
15.0
  7
LCTX15-400-0-0-ARIAL
 72
     1
 11
43.045488
 21
249.150854
 31
0.0
  0
ENDBLK
  8
0
  5
3EC
  0
BLOCK
  8
0
  5
3EF
  2
*D14
 70
    65
 10
0.0
 20
0.0
 30
0.0
  3
*D14
  0
LINE
  8
LC-007-003-MTH-0
 62
     2
  5
3F0
 10
179.941792
 20
328.302693
 30
0.0
 11
90.096967
 21
328.302693
 31
0.0
  0
LINE
  8
LC-007-003-MTH-0
 62
     2
  5
3F1
 10
190.184074
 20
377.802696
 30
0.0
 11
112.496967
 21
377.802696
 31
0.0
  0
LINE
  8
LC-008-003-----0
 62
     2
  5
3F2
 10
110.5517
 20
300.542237
 30
0.0
 11
106.896967
 21
328.302693
 31
0.0
  0
LINE
  8
LC-008-003-----0
 62
     2
  5
3F3
 10
106.896967
 20
328.302693
 30
0.0
 11
103.242234
 21
300.542237
 31
0.0
  0
LINE
  8
LC-008-003-----0
 62
     2
  5
3F4
 10
103.242234
 20
300.542237
 30
0.0
 11
110.5517
 21
300.542237
 31
0.0
  0
LINE
  8
LC-008-003-----0
 62
     2
  5
3F5
 10
109.60147
 20
300.479956
 30
0.0
 11
106.896967
 21
321.022693
 31
0.0
  0
LINE
  8
LC-008-003-----0
 62
     2
  5
3F6
 10
106.896967
 20
321.022693
 30
0.0
 11
104.192464
 21
300.479956
 31
0.0
  0
LINE
  8
LC-008-003-----0
 62
     2
  5
3F7
 10
108.651239
 20
300.417674
 30
0.0
 11
106.896967
 21
313.742693
 31
0.0
  0
LINE
  8
LC-008-003-----0
 62
     2
  5
3F8
 10
106.896967
 20
313.742693
 30
0.0
 11
105.142695
 21
300.417674
 31
0.0
  0
LINE
  8
LC-008-003-----0
 62
     2
  5
3F9
 10
107.701008
 20
300.355393
 30
0.0
 11
106.896967
 21
306.462693
 31
0.0
  0
LINE
  8
LC-008-003-----0
 62
     2
  5
3FA
 10
106.896967
 20
306.462693
 30
0.0
 11
106.092926
 21
300.355393
 31
0.0
  0
LINE
  8
LC-008-003-----0
 62
     2
  5
3FB
 10
103.242234
 20
405.563152
 30
0.0
 11
105.933218
 21
385.123094
 31
0.0
  0
LINE
  8
LC-008-003-----0
 62
     2
  5
3FC
 10
107.860716
 20
385.123094
 30
0.0
 11
110.5517
 21
405.563152
 31
0.0
  0
LINE
  8
LC-008-003-----0
 62
     2
  5
3FD
 10
110.5517
 20
405.563152
 30
0.0
 11
103.242234
 21
405.563152
 31
0.0
  0
LINE
  8
LC-008-003-----0
 62
     2
  5
3FE
 10
104.192464
 20
405.625433
 30
0.0
 11
106.891648
 21
385.123094
 31
0.0
  0
LINE
  8
LC-008-003-----0
 62
     2
  5
3FF
 10
106.902286
 20
385.123094
 30
0.0
 11
109.60147
 21
405.625433
 31
0.0
  0
LINE
  8
LC-008-003-----0
 62
     2
  5
400
 10
105.142695
 20
405.687715
 30
0.0
 11
106.896967
 21
392.362696
 31
0.0
  0
LINE
  8
LC-008-003-----0
 62
     2
  5
401
 10
106.896967
 20
392.362696
 30
0.0
 11
108.651239
 21
405.687715
 31
0.0
  0
LINE
  8
LC-008-003-----0
 62
     2
  5
402
 10
106.092926
 20
405.749996
 30
0.0
 11
106.896967
 21
399.642696
 31
0.0
  0
LINE
  8
LC-008-003-----0
 62
     2
  5
403
 10
106.896967
 20
399.642696
 30
0.0
 11
107.701008
 21
405.749996
 31
0.0
  0
LINE
  8
LC-009-003-MTG-0
 62
     2
  5
404
 10
106.896967
 20
289.102693
 30
0.0
 11
106.896967
 21
335.476161
 31
0.0
  0
LINE
  8
LC-009-003-MTG-0
 62
     2
  5
405
 10
106.896967
 20
385.123094
 30
0.0
 11
106.896967
 21
417.002696
 31
0.0
  0
TEXT
  8
LC-008-003-----0
 62
     8
  5
406
 10
99.069413
 20
336.200854
 30
0.0
 40
28.0
  1
50
 50
90.0
 41
0.6
 51
15.0
  7
LCTX15-400-0-0-ARIAL
 72
     1
 11
99.069413
 21
357.400854
 31
0.0
  0
ENDBLK
  8
0
  5
407
  0
ENDSEC
  0
SECTION
  2
ENTITIES
  0
VIEWPORT
  8
LC-VIEWPORT
  5
409
 67
     1
 68
     1
 10
420.0
 20
297.0
 30
0.0
 40
840.0
 41
594.0
 69
     1
1001
ACAD
1000
MVIEW
1002
{
1070
    16
1010
0.0
1020
0.0
1030
0.0
1010
0.0
1020
0.0
1030
1.0
1040
0.0
1040
594.0
1040
420.0
1040
297.0
1040
50.0
1040
0.0
1040
0.0
1070
     0
1070
   100
1070
     1
1070
     1
1070
     0
1070
     0
1070
     0
1070
     0
1040
0.0
1040
0.0
1040
0.0
1040
1.0
1040
1.0
1040
0.0
1040
0.0
1070
     0
1002
{
1002
}
1002
}
  0
LINE
  8
LC-001-002-----0
 62
     1
  5
26
 10
218.442372
 20
405.363248
 30
0.0
 11
224.441204
 21
405.363248
 31
0.0
  0
LINE
  8
LC-001-002-----0
 62
     1
  5
27
 10
70.721189
 20
410.65338
 30
0.0
 11
111.376789
 21
409.943734
 31
0.0
  0
LINE
  8
LC-001-002-----0
 62
     1
  5
28
 10
70.721189
 20
407.652923
 30
0.0
 11
110.276502
 21
406.962482
 31
0.0
  0
LINE
  8
LC-001-002-----0
 62
     1
  5
29
 10
372.232389
 20
410.65338
 30
0.0
 11
331.576789
 21
409.943734
 31
0.0
  0
LINE
  8
LC-001-002-----0
 62
     1
  5
2A
 10
246.472932
 20
298.802871
 30
0.0
 11
246.472932
 21
267.299984
 31
0.0
  0
LINE
  8
LC-001-002-----0
 62
     1
  5
2B
 10
190.972932
 20
377.802696
 30
0.0
 11
193.472932
 21
377.802696
 31
0.0
  0
LINE
  8
LC-001-002-----0
 62
     1
  5
2C
 10
249.472932
 20
377.802696
 30
0.0
 11
236.403175
 21
377.802696
 31
0.0
  0
LINE
  8
LC-001-002-----0
 62
     1
  5
2D
 10
249.472932
 20
376.802696
 30
0.0
 11
235.992341
 21
376.802696
 31
0.0
  0
LINE
  8
LC-001-002-----0
 62
     1
  5
2E
 10
70.721189
 20
410.65338
 30
0.0
 11
372.232389
 21
410.65338
 31
0.0
  0
LINE
  8
LC-001-002-----0
  6
DASHDOT
 62
     2
  5
30
 10
221.472932
 20
189.802692
 30
0.0
 11
221.476789
 21
410.65338
 31
0.0
  0
LINE
  8
LC-001-002-----0
 62
     1
  5
31
 10
238.153177
 20
377.802696
 30
0.0
 11
238.153177
 21
398.302867
 31
0.0
  0
LINE
  8
LC-001-002-----0
 62
     1
  5
32
 10
272.472932
 20
299.802864
 30
0.0
 11
248.476933
 21
299.80287
 31
0.0
  0
LINE
  8
LC-001-002-----0
 62
     1
  5
33
 10
166.472932
 20
299.80269
 30
0.0
 11
152.972932
 21
299.802696
 31
0.0
  0
ARC
  8
LC-002-002-RND-0
 62
     1
  5
35
 10
114.023564
 20
410.125385
 30
0.0
 40
2.0
 50
225.0
 51
266.000003
  0
LINE
  8
LC-001-002-----0
 62
     1
  5
36
 10
372.232389
 20
407.652923
 30
0.0
 11
332.677076
 21
406.962482
 31
0.0
  0
ARC
  8
LC-002-002-RND-0
 62
     1
  5
37
 10
328.930013
 20
410.125385
 30
0.0
 40
2.0
 50
273.999997
 51
315.0
  0
LINE
  8
LC-001-002-----0
 62
     1
  5
38
 10
308.228557
 20
397.456263
 30
0.0
 11
308.228557
 21
403.956263
 31
0.0
  0
LINE
  8
LC-001-002-----0
 62
     1
  5
39
 10
310.228557
 20
403.956263
 30
0.0
 11
308.229939
 21
403.956263
 31
0.0
  0
LINE
  8
LC-001-002-----0
 62
     1
  5
3A
 10
310.228557
 20
397.956263
 30
0.0
 11
310.228557
 21
403.956263
 31
0.0
  0
LINE
  8
LC-001-002-----0
 62
     1
  5
3B
 10
312.228557
 20
397.956263
 30
0.0
 11
310.228557
 21
397.956263
 31
0.0
  0
LINE
  8
LC-001-002-----0
 62
     1
  5
3C
 10
299.529939
 20
385.652696
 30
0.0
 11
299.329939
 21
385.652696
 31
0.0
  0
LINE
  8
LC-001-002-----0
 62
     1
  5
3D
 10
308.229939
 20
386.952696
 30
0.0
 11
308.229939
 21
403.952696
 31
0.0
  0
LINE
  8
LC-001-002-----0
 62
     1
  5
3E
 10
308.228557
 20
397.737328
 30
0.0
 11
308.228557
 21
397.737328
 31
0.0
  0
LINE
  8
LC-001-002-----0
 62
     1
  5
3F
 10
299.529939
 20
382.152696
 30
0.0
 11
299.529939
 21
383.652696
 31
0.0
  0
LINE
  8
LC-001-002-----0
 62
     1
  5
40
 10
299.529939
 20
378.702696
 30
0.0
 11
299.529939
 21
379.202696
 31
0.0
  0
LINE
  8
LC-001-002-----0
 62
     1
  5
41
 10
299.529939
 20
377.202696
 30
0.0
 11
299.529939
 21
380.152696
 31
0.0
  0
LINE
  8
LC-001-002-----0
 62
     1
  5
42
 10
299.529939
 20
377.202696
 30
0.0
 11
298.972225
 21
377.202696
 31
0.0
  0
LINE
  8
LC-001-002-----0
 62
     1
  5
43
 10
299.529939
 20
380.152696
 30
0.0
 11
299.329939
 21
380.152696
 31
0.0
  0
ARC
  8
LC-002-002-RND-0
 62
     1
  5
44
 10
299.329939
 20
384.852696
 30
0.0
 40
0.8
 50
90.0
 51
180.0
  0
ARC
  8
LC-002-002-RND-0
 62
     1
  5
45
 10
299.329939
 20
381.352696
 30
0.0
 40
0.8
 50
90.0
 51
180.0
  0
LINE
  8
LC-001-002-----0
 62
     1
  5
46
 10
298.529939
 20
380.952696
 30
0.0
 11
298.529939
 21
381.352696
 31
0.0
  0
LINE
  8
LC-001-002-----0
 62
     1
  5
47
 10
298.529939
 20
384.452696
 30
0.0
 11
298.529939
 21
384.852696
 31
0.0
  0
ARC
  8
LC-002-002-RND-0
 62
     1
  5
48
 10
299.329939
 20
380.952696
 30
0.0
 40
0.8
 50
180.0
 51
270.0
  0
ARC
  8
LC-002-002-RND-0
 62
     1
  5
49
 10
299.329939
 20
384.452696
 30
0.0
 40
0.8
 50
180.0
 51
270.0
  0
LINE
  8
LC-001-002-----0
 62
     1
  5
4A
 10
299.529939
 20
383.652696
 30
0.0
 11
299.329939
 21
383.652696
 31
0.0
  0
ARC
  8
LC-002-002-RND-0
 62
     1
  5
4B
 10
307.729939
 20
386.952696
 30
0.0
 40
0.5
 50
270.0
 51
0.0
  0
LINE
  8
LC-001-002-----0
 62
     1
  5
4C
 10
329.069526
 20
408.130257
 30
0.0
 11
313.707024
 21
407.056007
 31
0.0
  0
ARC
  8
LC-002-002-RND-0
 62
     1
  5
4D
 10
312.280975
 20
398.952696
 30
0.0
 40
1.0
 50
270.0
 51
357.0
  0
LINE
  8
LC-001-002-----0
 62
     1
  5
4E
 10
313.707024
 20
407.056007
 30
0.0
 11
313.279604
 21
398.90036
 31
0.0
  0
LINE
  8
LC-001-002-----0
 62
     1
  5
4F
 10
372.232389
 20
410.65338
 30
0.0
 11
372.232389
 21
407.652923
 31
0.0
  0
LINE
  8
LC-001-002-----0
 62
     1
  5
50
 10
316.494381
 20
402.919983
 30
0.0
 11
316.252032
 21
398.295688
 31
0.0
  0
LINE
  8
LC-001-002-----0
 62
     1
  5
51
 10
332.677076
 20
406.962482
 30
0.0
 11
330.97045
 21
405.255857
 31
0.0
  0
LINE
  8
LC-001-002-----0
 62
     1
  5
52
 10
299.529939
 20
382.152696
 30
0.0
 11
299.329939
 21
382.152696
 31
0.0
  0
ARC
  8
LC-003-001-RND-0
 62
     1
  5
54
 10
317.966193
 20
402.842849
 30
0.0
 40
1.5
 50
93.999997
 51
177.0
  0
LINE
  8
LC-001-002-----0
 62
     1
  5
55
 10
310.979939
 20
387.452696
 30
0.0
 11
301.722932
 21
374.232319
 31
0.0
  0
LINE
  8
LC-001-002-----0
 62
     1
  5
56
 10
313.256143
 20
395.452696
 30
0.0
 11
312.979939
 21
395.452696
 31
0.0
  0
LINE
  8
LC-001-002-----0
 62
     1
  5
57
 10
134.72502
 20
386.989844
 30
0.0
 11
134.72502
 21
403.956263
 31
0.0
  0
LINE
  8
LC-004-001-----0
 62
     1
  5
59
 10
330.97045
 20
405.255857
 30
0.0
 11
317.861558
 21
404.339195
 31
0.0
  0
ARC
  8
LC-002-002-RND-0
 62
     1
  5
5A
 10
313.256143
 20
398.452696
 30
0.0
 40
3.0
 50
270.0
 51
357.0
  0
LINE
  8
LC-001-002-----0
 62
     1
  5
5B
 10
132.723639
 20
403.956263
 30
0.0
 11
134.72502
 21
403.956263
 31
0.0
  0
ARC
  8
LC-002-002-RND-0
 62
     1
  5
5C
 10
312.979939
 20
393.452696
 30
0.0
 40
2.0
 50
90.0
 51
180.0
  0
LINE
  8
LC-001-002-----0
 62
     1
  5
5D
 10
310.979939
 20
387.452696
 30
0.0
 11
310.979939
 21
393.452696
 31
0.0
  0
LINE
  8
LC-001-002-----0
 62
     1
  5
5E
 10
299.529939
 20
378.702696
 30
0.0
 11
299.529939
 21
378.702696
 31
0.0
  0
LINE
  8
LC-001-002-----0
 62
     1
  5
5F
 10
307.729939
 20
386.452696
 30
0.0
 11
300.329939
 21
386.452696
 31
0.0
  0
LINE
  8
LC-001-002-----0
 62
     1
  5
60
 10
308.229939
 20
387.952696
 30
0.0
 11
308.229939
 21
389.252078
 31
0.0
  0
LINE
  8
LC-001-002-----0
 62
     1
  5
61
 10
310.229939
 20
403.952696
 30
0.0
 11
308.229939
 21
403.952696
 31
0.0
  0
LINE
  8
LC-001-002-----0
 62
     1
  5
62
 10
299.529939
 20
378.452696
 30
0.0
 11
299.529939
 21
378.952696
 31
0.0
  0
LINE
  8
LC-001-002-----0
 62
     1
  5
63
 10
299.529939
 20
378.652696
 30
0.0
 11
299.529939
 21
379.152696
 31
0.0
  0
LINE
  8
LC-001-002-----0
 62
     1
  5
64
 10
331.576789
 20
409.943734
 30
0.0
 11
330.344227
 21
408.711172
 31
0.0
  0
LINE
  8
LC-001-002-----0
 62
     1
  5
65
 10
299.529939
 20
378.702696
 30
0.0
 11
299.529939
 21
378.702696
 31
0.0
  0
ARC
  8
LC-002-002-RND-0
 62
     1
  5
66
 10
300.329939
 20
385.652696
 30
0.0
 40
0.8
 50
90.0
 51
180.0
  0
LINE
  8
LC-001-002-----0
 62
     1
  5
67
 10
299.529939
 20
385.652696
 30
0.0
 11
299.529939
 21
385.652696
 31
0.0
  0
LINE
  8
LC-001-002-----0
 62
     1
  5
68
 10
143.973639
 20
311.802696
 30
0.0
 11
143.973639
 21
377.202696
 31
0.0
  0
LINE
  8
LC-001-002-----0
 62
     1
  5
69
 10
243.473081
 20
284.802873
 30
0.0
 11
243.473091
 21
299.802698
 31
0.0
  0
LINE
  8
LC-001-002-----0
 62
     1
  5
6A
 10
199.472932
 20
284.802696
 30
0.0
 11
199.472932
 21
299.802696
 31
0.0
  0
LINE
  8
LC-001-002-----0
 62
     1
  5
6B
 10
243.473056
 20
267.299986
 30
0.0
 11
243.473081
 21
284.802873
 31
0.0
  0
LINE
  8
LC-001-002-----0
 62
     1
  5
6C
 10
246.472932
 20
267.299984
 30
0.0
 11
221.472932
 21
267.3
 31
0.0
  0
LINE
  8
LC-001-002-----0
 62
     1
  5
6D
 10
143.423639
 20
385.652696
 30
0.0
 11
143.623639
 21
385.652696
 31
0.0
  0
LINE
  8
LC-001-002-----0
 62
     1
  5
6E
 10
134.72502
 20
397.737328
 30
0.0
 11
134.72502
 21
397.737328
 31
0.0
  0
LINE
  8
LC-001-002-----0
 62
     1
  5
6F
 10
143.423639
 20
382.152696
 30
0.0
 11
143.423639
 21
383.652696
 31
0.0
  0
LINE
  8
LC-001-002-----0
 62
     1
  5
70
 10
143.423639
 20
378.702696
 30
0.0
 11
143.423639
 21
379.202696
 31
0.0
  0
LINE
  8
LC-001-002-----0
 62
     1
  5
71
 10
143.423639
 20
377.202696
 30
0.0
 11
143.423639
 21
380.152696
 31
0.0
  0
LINE
  8
LC-001-002-----0
 62
     1
  5
72
 10
143.423639
 20
377.202696
 30
0.0
 11
143.973639
 21
377.202696
 31
0.0
  0
LINE
  8
LC-001-002-----0
 62
     1
  5
73
 10
143.423639
 20
380.152696
 30
0.0
 11
143.623639
 21
380.152696
 31
0.0
  0
ARC
  8
LC-002-002-RND-0
 62
     1
  5
74
 10
143.623639
 20
384.852696
 30
0.0
 40
0.8
 50
0.0
 51
90.0
  0
ARC
  8
LC-002-002-RND-0
 62
     1
  5
75
 10
143.623639
 20
381.352696
 30
0.0
 40
0.8
 50
0.0
 51
90.0
  0
LINE
  8
LC-001-002-----0
 62
     1
  5
76
 10
144.423639
 20
380.952696
 30
0.0
 11
144.423639
 21
381.352696
 31
0.0
  0
LINE
  8
LC-001-002-----0
 62
     1
  5
77
 10
144.423639
 20
384.452696
 30
0.0
 11
144.423639
 21
384.852696
 31
0.0
  0
ARC
  8
LC-002-002-RND-0
 62
     1
  5
78
 10
143.623639
 20
380.952696
 30
0.0
 40
0.8
 50
270.0
 51
0.0
  0
ARC
  8
LC-002-002-RND-0
 62
     1
  5
79
 10
143.623639
 20
384.452696
 30
0.0
 40
0.8
 50
270.0
 51
0.0
  0
LINE
  8
LC-001-002-----0
 62
     1
  5
7A
 10
143.423639
 20
383.652696
 30
0.0
 11
143.623639
 21
383.652696
 31
0.0
  0
ARC
  8
LC-002-002-RND-0
 62
     1
  5
7B
 10
135.223639
 20
386.952696
 30
0.0
 40
0.5
 50
180.0
 51
270.0
  0
LINE
  8
LC-001-002-----0
 62
     1
  5
7C
 10
113.884052
 20
408.130257
 30
0.0
 11
129.246554
 21
407.056007
 31
0.0
  0
LINE
  8
LC-001-002-----0
 62
     1
  5
7D
 10
130.672603
 20
397.952696
 30
0.0
 11
132.723639
 21
397.952696
 31
0.0
  0
ARC
  8
LC-002-002-RND-0
 62
     1
  5
7E
 10
130.672603
 20
398.952696
 30
0.0
 40
1.0
 50
183.0
 51
270.0
  0
LINE
  8
LC-001-002-----0
 62
     1
  5
7F
 10
298.972225
 20
311.802696
 30
0.0
 11
298.972225
 21
377.202696
 31
0.0
  0
LINE
  8
LC-001-002-----0
 62
     1
  5
80
 10
132.723639
 20
397.952696
 30
0.0
 11
132.723639
 21
403.956263
 31
0.0
  0
LINE
  8
LC-001-002-----0
 62
     1
  5
81
 10
129.246554
 20
407.056007
 30
0.0
 11
129.673974
 21
398.90036
 31
0.0
  0
LINE
  8
LC-001-002-----0
 62
     1
  5
82
 10
70.721189
 20
410.65338
 30
0.0
 11
70.721189
 21
407.652923
 31
0.0
  0
ARC
  8
LC-001-002-----0
 62
     1
  5
83
 10
193.472932
 20
377.302696
 30
0.0
 40
0.5
 50
270.000117
 51
89.999981
  0
LINE
  8
LC-001-002-----0
 62
     1
  5
84
 10
126.459029
 20
402.923192
 30
0.0
 11
126.701546
 21
398.295688
 31
0.0
  0
LINE
  8
LC-001-002-----0
 62
     1
  5
85
 10
110.276502
 20
406.962482
 30
0.0
 11
111.983127
 21
405.255857
 31
0.0
  0
LINE
  8
LC-001-002-----0
 62
     1
  5
86
 10
190.972932
 20
305.802696
 30
0.0
 11
190.972932
 21
377.802696
 31
0.0
  0
LINE
  8
LC-001-002-----0
 62
     1
  5
87
 10
199.472932
 20
267.299808
 30
0.0
 11
199.472932
 21
284.802696
 31
0.0
  0
LINE
  8
LC-001-002-----0
 62
     1
  5
88
 10
143.423639
 20
382.152696
 30
0.0
 11
143.623639
 21
382.152696
 31
0.0
  0
LINE
  8
LC-001-002-----0
 62
     1
  5
89
 10
196.472932
 20
267.299808
 30
0.0
 11
221.472932
 21
267.299808
 31
0.0
  0
ARC
  8
LC-002-002-RND-0
 62
     1
  5
8A
 10
152.973639
 20
311.802696
 30
0.0
 40
9.0
 50
180.0
 51
270.0
  0
ARC
  8
LC-002-002-RND-0
 62
     1
  5
8B
 10
289.972225
 20
311.802696
 30
0.0
 40
9.0
 50
270.0
 51
0.0
  0
LINE
  8
LC-001-002-----0
 62
     1
  5
8C
 10
131.973639
 20
387.452696
 30
0.0
 11
141.222932
 21
374.243336
 31
0.0
  0
LINE
  8
LC-001-002-----0
 62
     1
  5
8D
 10
129.697435
 20
395.452696
 30
0.0
 11
129.973639
 21
395.452696
 31
0.0
  0
LINE
  8
LC-004-001-----0
 62
     1
  5
8E
 10
111.983127
 20
405.255857
 30
0.0
 11
125.065719
 21
404.341034
 31
0.0
  0
ARC
  8
LC-002-002-RND-0
 62
     1
  5
8F
 10
129.697435
 20
398.452696
 30
0.0
 40
3.0
 50
183.0
 51
270.0
  0
ARC
  8
LC-002-002-RND-0
 62
     1
  5
90
 10
129.973639
 20
393.452696
 30
0.0
 40
2.0
 50
0.0
 51
90.0
  0
LINE
  8
LC-001-002-----0
 62
     1
  5
91
 10
131.973639
 20
387.452696
 30
0.0
 11
131.973639
 21
393.452696
 31
0.0
  0
LINE
  8
LC-001-002-----0
 62
     1
  5
92
 10
143.423639
 20
378.702696
 30
0.0
 11
143.423639
 21
378.702696
 31
0.0
  0
LINE
  8
LC-001-002-----0
 62
     1
  5
93
 10
135.223639
 20
386.452696
 30
0.0
 11
142.623639
 21
386.452696
 31
0.0
  0
LINE
  8
LC-001-002-----0
 62
     1
  5
94
 10
143.423639
 20
378.452696
 30
0.0
 11
143.423639
 21
378.952696
 31
0.0
  0
LINE
  8
LC-001-002-----0
 62
     1
  5
95
 10
143.423639
 20
378.652696
 30
0.0
 11
143.423639
 21
379.152696
 31
0.0
  0
LINE
  8
LC-001-002-----0
 62
     1
  5
96
 10
111.376789
 20
409.943734
 30
0.0
 11
112.609351
 21
408.711172
 31
0.0
  0
LINE
  8
LC-001-002-----0
 62
     1
  5
97
 10
143.423639
 20
378.702696
 30
0.0
 11
143.423639
 21
378.702696
 31
0.0
  0
ARC
  8
LC-002-002-RND-0
 62
     1
  5
98
 10
142.623639
 20
385.652696
 30
0.0
 40
0.8
 50
0.0
 51
90.0
  0
LINE
  8
LC-001-002-----0
 62
     1
  5
99
 10
143.423639
 20
385.652696
 30
0.0
 11
143.423639
 21
385.652696
 31
0.0
  0
LINE
  8
LC-001-002-----0
 62
     1
  5
9A
 10
289.972924
 20
299.802843
 30
0.0
 11
276.472932
 21
299.802863
 31
0.0
  0
ARC
  8
LC-002-002-RND-0
 62
     1
  5
9B
 10
254.972932
 20
305.802696
 30
0.0
 40
3.0
 50
180.0
 51
270.0
  0
LINE
  8
LC-001-002-----0
 62
     1
  5
9C
 10
193.95262
 20
305.130215
 30
0.0
 11
193.327144
 21
376.802696
 31
0.0
  0
ARC
  8
LC-002-002-RND-0
 62
     1
  5
9D
 10
187.972932
 20
305.802696
 30
0.0
 40
3.0
 50
270.0
 51
0.0
  0
LINE
  8
LC-001-002-----0
 62
     1
  5
9E
 10
152.973639
 20
302.802696
 30
0.0
 11
187.972932
 21
302.802696
 31
0.0
  0
LINE
  8
LC-001-002-----0
 62
     1
  5
9F
 10
251.972932
 20
305.802696
 30
0.0
 11
251.972932
 21
377.802696
 31
0.0
  0
LINE
  8
LC-001-002-----0
 62
     1
  5
A0
 10
249.472931
 20
376.802696
 30
0.0
 11
249.754622
 21
376.802696
 31
0.0
  0
ARC
  8
LC-001-002-----0
 62
     1
  5
A1
 10
249.472932
 20
377.302696
 30
0.0
 40
0.5
 50
90.000019
 51
269.999883
  0
LINE
  8
LC-001-002-----0
 62
     1
  5
A2
 10
289.972225
 20
302.802696
 30
0.0
 11
254.972932
 21
302.802696
 31
0.0
  0
LINE
  8
LC-001-002-----0
 62
     1
  5
A3
 10
196.472773
 20
302.802696
 30
0.0
 11
246.473091
 21
302.802696
 31
0.0
  0
LINE
  8
LC-001-002-----0
 62
     1
  5
A4
 10
248.999061
 20
305.276289
 30
0.0
 11
249.754622
 21
376.802696
 31
0.0
  0
LINE
  8
LC-001-002-----0
 62
     1
  5
A5
 10
251.972932
 20
377.802696
 30
0.0
 11
249.472932
 21
377.802696
 31
0.0
  0
LINE
  8
LC-001-002-----0
 62
     1
  5
A6
 10
196.472932
 20
298.802696
 30
0.0
 11
196.472932
 21
267.299808
 31
0.0
  0
ARC
  8
LC-002-002-RND-0
 62
     1
  5
A7
 10
247.472932
 20
298.802871
 30
0.0
 40
1.0
 50
89.999963
 51
180.0
  0
ARC
  8
LC-002-002-RND-0
 62
     1
  5
A8
 10
195.472932
 20
298.802696
 30
0.0
 40
1.0
 50
0.0
 51
90.0
  0
LINE
  8
LC-001-002-----0
 62
     1
  5
A9
 10
301.722932
 20
374.232319
 30
0.0
 11
301.722932
 21
311.552843
 31
0.0
  0
LINE
  8
LC-001-002-----0
 62
     1
  5
AA
 10
141.222932
 20
374.243336
 30
0.0
 11
141.222932
 21
311.552696
 31
0.0
  0
ARC
  8
LC-002-002-RND-0
 62
     1
  5
AB
 10
289.972932
 20
311.552843
 30
0.0
 40
11.75
 50
269.999963
 51
0.0
  0
ARC
  8
LC-002-002-RND-0
 62
     1
  5
AC
 10
152.972932
 20
311.552696
 30
0.0
 40
11.75
 50
180.0
 51
270.0
  0
LINE
  8
LC-001-002-----0
 62
     1
  5
AD
 10
251.354635
 20
301.787193
 30
0.0
 11
252.500287
 21
299.802868
 31
0.0
  0
LINE
  8
LC-001-002-----0
 62
     1
  5
AE
 10
249.622584
 20
301.787193
 30
0.0
 11
248.476933
 21
299.80287
 31
0.0
  0
ARC
  8
LC-002-002-RND-0
 62
     1
  5
AF
 10
250.488609
 20
301.287192
 30
0.0
 40
1.0
 50
30.000037
 51
149.999963
  0
LINE
  8
LC-001-002-----0
 62
     1
  5
B0
 10
191.591229
 20
301.787193
 30
0.0
 11
190.445477
 21
299.802696
 31
0.0
  0
LINE
  8
LC-001-002-----0
 62
     1
  5
B1
 10
193.323279
 20
301.787193
 30
0.0
 11
194.469031
 21
299.802696
 31
0.0
  0
ARC
  8
LC-002-002-RND-0
 62
     1
  5
B2
 10
192.457254
 20
301.287192
 30
0.0
 40
1.0
 50
30.000037
 51
149.999963
  0
LINE
  8
LC-001-002-----0
 62
     1
  5
B3
 10
195.472932
 20
299.802696
 30
0.0
 11
194.469031
 21
299.802696
 31
0.0
  0
LINE
  8
LC-001-002-----0
 62
     1
  5
B4
 10
300.329939
 20
386.452696
 30
0.0
 11
262.941996
 21
386.452696
 31
0.0
  0
LINE
  8
LC-001-002-----0
 62
     1
  5
B5
 10
298.972225
 20
377.202696
 30
0.0
 11
262.94199
 21
377.202696
 31
0.0
  0
LINE
  8
LC-001-002-----0
 62
     1
  5
B6
 10
246.473091
 20
302.802696
 30
0.0
 11
246.499201
 21
302.802696
 31
0.0
  0
ARC
  8
LC-002-002-RND-0
 62
     1
  5
B7
 10
246.473091
 20
299.802696
 30
0.0
 40
3.0
 50
90.0
 51
179.999963
  0
ARC
  8
LC-002-002-RND-0
 62
     1
  5
B8
 10
246.499201
 20
305.302696
 30
0.0
 40
2.5
 50
270.0
 51
359.394785
  0
ARC
  8
LC-002-002-RND-0
 62
     1
  5
B9
 10
196.446663
 20
305.302696
 30
0.0
 40
2.5
 50
180.605215
 51
270.0
  0
ARC
  8
LC-002-002-RND-0
 62
     1
  5
BA
 10
196.472773
 20
299.802696
 30
0.0
 40
3.0
 50
0.000037
 51
90.0
  0
LINE
  8
LC-001-002-----0
 62
     1
  5
BB
 10
248.476933
 20
299.80287
 30
0.0
 11
247.472932
 21
299.802871
 31
0.0
  0
LINE
  8
LC-001-002-----0
 62
     1
  5
BC
 10
194.469031
 20
299.802696
 30
0.0
 11
170.472932
 21
299.802694
 31
0.0
  0
LINE
  8
LC-001-002-----0
 62
     1
  5
BD
 10
143.973639
 20
377.202696
 30
0.0
 11
179.941819
 21
377.202696
 31
0.0
  0
LINE
  8
LC-001-002-----0
 62
     1
  5
BE
 10
142.623639
 20
386.452696
 30
0.0
 11
179.941793
 21
386.452696
 31
0.0
  0
ARC
  8
LC-003-001-RND-0
 62
     1
  5
BF
 10
124.961085
 20
402.844688
 30
0.0
 40
1.5
 50
3.0
 51
86.000003
  0
INSERT
  8
LC-005-005-----0
 62
     2
  5
142
  2
*X0
 10
0.0
 20
0.0
 30
0.0
  0
LINE
  8
LC-001-002-----0
 62
     1
  5
143
 10
166.472932
 20
299.836811
 30
0.0
 11
166.472932
 21
189.802692
 31
0.0
  0
LINE
  8
LC-001-002-----0
 62
     1
  5
144
 10
276.472932
 20
299.802863
 30
0.0
 11
276.472932
 21
189.802692
 31
0.0
  0
LINE
  8
LC-001-002-----0
 62
     1
  5
145
 10
170.472932
 20
299.802694
 30
0.0
 11
170.472932
 21
189.802692
 31
0.0
  0
LINE
  8
LC-001-002-----0
 62
     1
  5
146
 10
272.472932
 20
299.802864
 30
0.0
 11
272.472932
 21
189.802692
 31
0.0
  0
LINE
  8
LC-001-002-----0
 62
     1
  5
147
 10
166.472932
 20
189.802692
 30
0.0
 11
276.472932
 21
189.802692
 31
0.0
  0
INSERT
  8
LC-005-005-----0
 62
     2
  5
19C
  2
*X1
 10
0.0
 20
0.0
 30
0.0
  0
LINE
  8
LC-001-002-----0
 62
     1
  5
19D
 10
179.941788
 20
388.302696
 30
0.0
 11
179.941958
 21
328.302861
 31
0.0
  0
LINE
  8
LC-001-002-----0
 62
     1
  5
19E
 10
180.941788
 20
388.302696
 30
0.0
 11
180.941958
 21
328.302861
 31
0.0
  0
LINE
  8
LC-001-002-----0
 62
     1
  5
19F
 10
191.059508
 20
328.304554
 30
0.0
 11
179.941792
 21
328.302693
 31
0.0
  0
ARC
  8
LC-001-002-----0
 62
     1
  5
1A0
 10
190.941788
 20
388.302696
 30
0.0
 40
10.0
 50
94.313709
 51
179.999848
  0
ARC
  8
LC-002-002-RND-0
 62
     1
  5
1A1
 10
191.941788
 20
388.302696
 30
0.0
 40
12.0
 50
90.0
 51
180.0
  0
LINE
  8
LC-001-002-----0
 62
     1
  5
1A2
 10
250.942006
 20
400.302867
 30
0.0
 11
235.191786
 21
400.302878
 31
0.0
  0
LINE
  8
LC-001-002-----0
 62
     1
  5
1A3
 10
251.942005
 20
398.302867
 30
0.0
 11
222.885164
 21
398.302867
 31
0.0
  0
LINE
  8
LC-001-002-----0
 62
     1
  5
1A4
 10
191.941788
 20
400.302696
 30
0.0
 11
207.691789
 21
400.302696
 31
0.0
  0
ARC
  8
LC-002-002-RND-0
 62
     1
  5
1A5
 10
226.191786
 20
401.302696
 30
0.0
 40
9.0
 50
0.000006
 51
90.000006
  0
ARC
  8
LC-001-002-----0
 62
     1
  5
1A6
 10
251.941998
 20
388.302867
 30
0.0
 40
10.0
 50
0.000096
 51
89.999963
  0
ARC
  8
LC-001-002-----0
 62
     1
  5
1A7
 10
250.941998
 20
388.302867
 30
0.0
 40
12.0
 50
0.000096
 51
89.999963
  0
LINE
  8
LC-001-002-----0
 62
     1
  5
1A8
 10
262.941997
 20
388.302859
 30
0.0
 11
262.941958
 21
328.302859
 31
0.0
  0
LINE
  8
LC-001-002-----0
 62
     1
  5
1A9
 10
261.941997
 20
388.302861
 30
0.0
 11
261.942123
 21
328.303025
 31
0.0
  0
LINE
  8
LC-001-002-----0
 62
     1
  5
1AA
 10
251.816442
 20
328.304707
 30
0.0
 11
262.941958
 21
328.302859
 31
0.0
  0
LINE
  8
LC-001-002-----0
 62
     1
  5
1AB
 10
190.184074
 20
377.802696
 30
0.0
 11
190.189625
 21
398.311717
 31
0.0
  0
LINE
  8
LC-001-002-----0
 62
     1
  5
1AC
 10
222.877449
 20
369.802696
 30
0.0
 11
194.621899
 21
369.802696
 31
0.0
  0
LINE
  8
LC-001-002-----0
 62
     1
  5
1AD
 10
193.684077
 20
373.302696
 30
0.0
 11
194.621899
 21
369.802696
 31
0.0
  0
LINE
  8
LC-001-002-----0
 62
     1
  5
1AE
 10
193.684077
 20
376.388483
 30
0.0
 11
193.684077
 21
373.302696
 31
0.0
  0
ARC
  8
LC-001-002-----0
 62
     1
  5
1AF
 10
193.434074
 20
377.095589
 30
0.0
 40
0.75
 50
289.471622
 51
70.528779
  0
LINE
  8
LC-001-002-----0
 62
     1
  5
1B0
 10
191.059508
 20
377.802696
 30
0.0
 11
193.684074
 21
377.802696
 31
0.0
  0
LINE
  8
LC-001-002-----0
 62
     1
  5
1B1
 10
226.191786
 20
406.302696
 30
0.0
 11
221.441787
 21
406.302696
 31
0.0
  0
LINE
  8
LC-001-002-----0
 62
     1
  5
1B2
 10
231.191786
 20
400.302697
 30
0.0
 11
231.191786
 21
401.302697
 31
0.0
  0
ARC
  8
LC-001-002-----0
 62
     1
  5
1B3
 10
226.191786
 20
401.302696
 30
0.0
 40
5.0
 50
0.000005
 51
90.000006
  0
ARC
  8
LC-002-002-RND-0
 62
     1
  5
1B4
 10
216.691789
 20
401.302696
 30
0.0
 40
9.0
 50
90.0
 51
180.000001
  0
LINE
  8
LC-001-002-----0
 62
     1
  5
1B5
 10
216.691789
 20
406.302696
 30
0.0
 11
221.441788
 21
406.302696
 31
0.0
  0
LINE
  8
LC-001-002-----0
 62
     1
  5
1B6
 10
211.691789
 20
400.302696
 30
0.0
 11
211.691789
 21
401.302696
 31
0.0
  0
LINE
  8
LC-001-002-----0
 62
     1
  5
1B7
 10
226.191785
 20
410.302696
 30
0.0
 11
221.441787
 21
410.302696
 31
0.0
  0
LINE
  8
LC-001-002-----0
 62
     1
  5
1B8
 10
235.191786
 20
400.302697
 30
0.0
 11
235.191786
 21
401.302697
 31
0.0
  0
ARC
  8
LC-001-002-----0
 62
     1
  5
1B9
 10
216.691789
 20
401.302696
 30
0.0
 40
5.0
 50
90.0
 51
180.000001
  0
LINE
  8
LC-001-002-----0
 62
     1
  5
1BA
 10
216.691789
 20
410.302696
 30
0.0
 11
221.441788
 21
410.302696
 31
0.0
  0
LINE
  8
LC-001-002-----0
 62
     1
  5
1BB
 10
207.691789
 20
400.302696
 30
0.0
 11
207.691789
 21
401.302696
 31
0.0
  0
LINE
  8
LC-001-002-----0
 62
     1
  5
1BC
 10
222.877449
 20
369.802696
 30
0.0
 11
222.885164
 21
398.302867
 31
0.0
  0
INSERT
  8
LC-005-005-----0
 62
     2
  5
21E
  2
*X2
 10
0.0
 20
0.0
 30
0.0
  0
LINE
  8
LC-001-002-----0
 62
     1
  5
21F
 10
211.691789
 20
400.302696
 30
0.0
 11
221.441788
 21
400.302696
 31
0.0
  0
LINE
  8
LC-001-002-----0
 62
     1
  5
220
 10
231.191786
 20
400.302881
 30
0.0
 11
221.441788
 21
400.302888
 31
0.0
  0
LINE
  8
LC-001-002-----0
 62
     1
  5
221
 10
222.877449
 20
369.802696
 30
0.0
 11
235.934264
 21
369.802696
 31
0.0
  0
LINE
  8
LC-001-002-----0
 62
     1
  5
222
 10
235.934264
 20
369.802696
 30
0.0
 11
236.403175
 21
373.302696
 31
0.0
  0
LINE
  8
LC-001-002-----0
 62
     1
  5
223
 10
236.403175
 20
373.302696
 30
0.0
 11
236.403175
 21
376.388483
 31
0.0
  0
LINE
  8
LC-001-002-----0
 62
     1
  5
224
 10
236.403175
 20
377.802696
 30
0.0
 11
238.153177
 21
377.802696
 31
0.0
  0
ARC
  8
LC-001-002-----0
 62
     1
  5
225
 10
236.701869
 20
377.09559
 30
0.0
 40
0.767605
 50
112.900021
 51
247.099979
  0
LINE
  8
LC-006-103-D00-1
 62
     1
  5
227
 10
191.059508
 20
377.802696
 30
0.0
 11
191.059508
 21
328.302861
 31
0.0
  0
LINE
  8
LC-001-002-----0
 62
     1
  5
228
 10
190.184074
 20
377.802696
 30
0.0
 11
193.684074
 21
377.802696
 31
0.0
  0
LINE
  8
LC-001-002-----0
 62
     1
  5
229
 10
251.816442
 20
328.302861
 30
0.0
 11
251.824038
 21
328.302861
 31
0.0
  0
LINE
  8
LC-001-002-----0
 62
     1
  5
22A
 10
236.403175
 20
377.802696
 30
0.0
 11
251.816442
 21
377.802696
 31
0.0
  0
LINE
  8
LC-001-002-----0
 62
     1
  5
22B
 10
261.941588
 20
328.302861
 30
0.0
 11
261.942123
 21
328.302861
 31
0.0
  0
LINE
  8
LC-001-002-----0
 62
     1
  5
22C
 10
313.191788
 20
406.674376
 30
0.0
 11
294.441788
 21
405.363248
 31
0.0
  0
LINE
  8
LC-001-002-----0
 62
     1
  5
22D
 10
132.442003
 20
403.975957
 30
0.0
 11
142.441788
 21
403.276704
 31
0.0
  0
LINE
  8
LC-001-002-----0
 62
     1
  5
22E
 10
313.191788
 20
406.674376
 30
0.0
 11
233.41294
 21
406.674376
 31
0.0
  0
LINE
  8
LC-001-002-----0
 62
     1
  5
22F
 10
290.688448
 20
386.674778
 30
0.0
 11
290.688448
 21
389.674778
 31
0.0
  0
LINE
  8
LC-001-002-----0
 62
     1
  5
230
 10
285.029067
 20
386.674778
 30
0.0
 11
285.029067
 21
389.674778
 31
0.0
  0
LINE
  8
LC-001-002-----0
 62
     1
  5
231
 10
278.209642
 20
386.674778
 30
0.0
 11
278.209642
 21
389.674778
 31
0.0
  0
LINE
  8
LC-001-002-----0
 62
     1
  5
232
 10
284.259719
 20
405.363248
 30
0.0
 11
283.509719
 21
404.613248
 31
0.0
  0
LINE
  8
LC-001-002-----0
 62
     1
  5
233
 10
283.509719
 20
404.613248
 30
0.0
 11
283.509719
 21
389.674778
 31
0.0
  0
LINE
  8
LC-001-002-----0
 62
     1
  5
234
 10
129.691788
 20
406.674376
 30
0.0
 11
209.470636
 21
406.674376
 31
0.0
  0
LINE
  8
LC-001-002-----0
 62
     1
  5
235
 10
283.509719
 20
404.613248
 30
0.0
 11
289.054026
 21
404.613248
 31
0.0
  0
LINE
  8
LC-001-002-----0
 62
     1
  5
236
 10
289.054026
 20
404.613248
 30
0.0
 11
289.054026
 21
389.674778
 31
0.0
  0
LINE
  8
LC-001-002-----0
 62
     1
  5
237
 10
294.441788
 20
405.363248
 30
0.0
 11
293.691788
 21
404.613248
 31
0.0
  0
LINE
  8
LC-001-002-----0
 62
     1
  5
238
 10
288.708149
 20
405.363248
 30
0.0
 11
289.054026
 21
404.613248
 31
0.0
  0
LINE
  8
LC-001-002-----0
 62
     1
  5
239
 10
265.751493
 20
386.674778
 30
0.0
 11
265.751493
 21
389.674778
 31
0.0
  0
LINE
  8
LC-001-002-----0
 62
     1
  5
23A
 10
290.941788
 20
386.674778
 30
0.0
 11
290.941788
 21
389.674778
 31
0.0
  0
LINE
  8
LC-001-002-----0
 62
     1
  5
23B
 10
293.691788
 20
389.674778
 30
0.0
 11
293.691788
 21
404.613248
 31
0.0
  0
LINE
  8
LC-001-002-----0
 62
     1
  5
23C
 10
256.441788
 20
405.363248
 30
0.0
 11
255.691788
 21
404.613248
 31
0.0
  0
LINE
  8
LC-001-002-----0
 62
     1
  5
23D
 10
255.691788
 20
404.613248
 30
0.0
 11
255.691788
 21
399.322826
 31
0.0
  0
LINE
  8
LC-001-002-----0
 62
     1
  5
23E
 10
152.195128
 20
386.674778
 30
0.0
 11
152.195128
 21
389.674778
 31
0.0
  0
LINE
  8
LC-001-002-----0
 62
     1
  5
23F
 10
157.854509
 20
386.674778
 30
0.0
 11
157.854509
 21
389.674778
 31
0.0
  0
LINE
  8
LC-001-002-----0
 62
     1
  5
240
 10
262.009753
 20
405.363248
 30
0.0
 11
262.642136
 21
404.613248
 31
0.0
  0
LINE
  8
LC-001-002-----0
 62
     1
  5
241
 10
262.642136
 20
404.613248
 30
0.0
 11
262.642136
 21
390.96872
 31
0.0
  0
LINE
  8
LC-001-002-----0
 62
     1
  5
242
 10
262.642136
 20
404.613248
 30
0.0
 11
255.691788
 21
404.613248
 31
0.0
  0
LINE
  8
LC-001-002-----0
 62
     1
  5
243
 10
164.673933
 20
386.674778
 30
0.0
 11
164.673933
 21
389.674778
 31
0.0
  0
LINE
  8
LC-001-002-----0
 62
     1
  5
244
 10
158.623857
 20
405.363248
 30
0.0
 11
159.373857
 21
404.613248
 31
0.0
  0
LINE
  8
LC-001-002-----0
 62
     1
  5
245
 10
159.373857
 20
404.613248
 30
0.0
 11
159.373857
 21
389.674778
 31
0.0
  0
LINE
  8
LC-001-002-----0
 62
     1
  5
246
 10
159.373857
 20
404.613248
 30
0.0
 11
153.82955
 21
404.613248
 31
0.0
  0
LINE
  8
LC-001-002-----0
 62
     1
  5
247
 10
153.82955
 20
404.613248
 30
0.0
 11
153.82955
 21
389.674778
 31
0.0
  0
LINE
  8
LC-001-002-----0
 62
     1
  5
248
 10
148.441788
 20
405.363248
 30
0.0
 11
149.191788
 21
404.613248
 31
0.0
  0
LINE
  8
LC-001-002-----0
 62
     1
  5
249
 10
154.175427
 20
405.363248
 30
0.0
 11
153.82955
 21
404.613248
 31
0.0
  0
LINE
  8
LC-001-002-----0
 62
     1
  5
24A
 10
177.132083
 20
386.674778
 30
0.0
 11
177.132083
 21
389.674778
 31
0.0
  0
LINE
  8
LC-001-002-----0
 62
     1
  5
24B
 10
151.941788
 20
386.674778
 30
0.0
 11
151.941788
 21
389.674778
 31
0.0
  0
LINE
  8
LC-001-002-----0
 62
     1
  5
24C
 10
149.191788
 20
389.674778
 30
0.0
 11
149.191788
 21
404.613248
 31
0.0
  0
LINE
  8
LC-001-002-----0
 62
     1
  5
24D
 10
186.441788
 20
405.363248
 30
0.0
 11
187.191788
 21
404.613248
 31
0.0
  0
LINE
  8
LC-001-002-----0
 62
     1
  5
24E
 10
187.191788
 20
404.613248
 30
0.0
 11
187.191788
 21
399.322564
 31
0.0
  0
LINE
  8
LC-001-002-----0
 62
     1
  5
24F
 10
180.873823
 20
405.363248
 30
0.0
 11
180.241439
 21
404.613248
 31
0.0
  0
LINE
  8
LC-001-002-----0
 62
     1
  5
250
 10
180.241439
 20
404.613248
 30
0.0
 11
180.241439
 21
390.967624
 31
0.0
  0
LINE
  8
LC-001-002-----0
 62
     1
  5
251
 10
180.241439
 20
404.613248
 30
0.0
 11
187.191788
 21
404.613248
 31
0.0
  0
LINE
  8
LC-001-002-----0
 62
     1
  5
252
 10
218.442372
 20
405.363248
 30
0.0
 11
217.692929
 21
404.613248
 31
0.0
  0
LINE
  8
LC-001-002-----0
 62
     1
  5
253
 10
217.692929
 20
404.613248
 30
0.0
 11
217.692929
 21
400.302696
 31
0.0
  0
LINE
  8
LC-001-002-----0
 62
     1
  5
254
 10
217.692929
 20
404.613248
 30
0.0
 11
221.441788
 21
404.613248
 31
0.0
  0
ARC
  8
LC-002-002-RND-0
 62
     1
  5
255
 10
299.441788
 20
387.674778
 30
0.0
 40
1.0
 50
270.0
 51
0.0
  0
LINE
  8
LC-001-002-----0
 62
     1
  5
256
 10
129.691788
 20
406.674376
 30
0.0
 11
130.691788
 21
399.674778
 31
0.0
  0
LINE
  8
LC-001-002-----0
 62
     1
  5
257
 10
131.864652
 20
399.674778
 30
0.0
 11
130.691788
 21
399.674778
 31
0.0
  0
LINE
  8
LC-001-002-----0
 62
     1
  5
258
 10
132.442003
 20
400.674778
 30
0.0
 11
131.864652
 21
399.674778
 31
0.0
  0
LINE
  8
LC-001-002-----0
 62
     1
  5
259
 10
224.441204
 20
405.363248
 30
0.0
 11
225.190647
 21
404.613248
 31
0.0
  0
LINE
  8
LC-001-002-----0
 62
     1
  5
25A
 10
225.190647
 20
404.613248
 30
0.0
 11
225.190647
 21
400.302885
 31
0.0
  0
LINE
  8
LC-001-002-----0
 62
     1
  5
25B
 10
132.442003
 20
400.674778
 30
0.0
 11
132.442003
 21
403.975957
 31
0.0
  0
LINE
  8
LC-001-002-----0
 62
     1
  5
25C
 10
225.190647
 20
404.613248
 30
0.0
 11
221.441788
 21
404.613248
 31
0.0
  0
ARC
  8
LC-002-002-RND-0
 62
     1
  5
25D
 10
143.441788
 20
387.674778
 30
0.0
 40
1.0
 50
180.0
 51
270.0
  0
LINE
  8
LC-001-002-----0
 62
     1
  5
25E
 10
143.441788
 20
386.674778
 30
0.0
 11
179.941793
 21
386.674778
 31
0.0
  0
LINE
  8
LC-001-002-----0
 62
     1
  5
25F
 10
310.441573
 20
400.674778
 30
0.0
 11
311.018924
 21
399.674778
 31
0.0
  0
LINE
  8
LC-001-002-----0
 62
     1
  5
260
 10
142.441788
 20
387.674778
 30
0.0
 11
142.441788
 21
403.276704
 31
0.0
  0
LINE
  8
LC-001-002-----0
 62
     1
  5
261
 10
310.441573
 20
400.674778
 30
0.0
 11
310.441573
 21
403.975957
 31
0.0
  0
LINE
  8
LC-001-002-----0
 62
     1
  5
262
 10
299.441788
 20
386.674778
 30
0.0
 11
290.941788
 21
386.674778
 31
0.0
  0
LINE
  8
LC-001-002-----0
 62
     1
  5
263
 10
300.441788
 20
387.674778
 30
0.0
 11
300.441788
 21
403.276704
 31
0.0
  0
LINE
  8
LC-001-002-----0
 62
     1
  5
264
 10
311.018924
 20
399.674778
 30
0.0
 11
312.191788
 21
399.674778
 31
0.0
  0
LINE
  8
LC-001-002-----0
 62
     1
  5
265
 10
290.941788
 20
386.674778
 30
0.0
 11
262.941996
 21
386.674778
 31
0.0
  0
LINE
  8
LC-001-002-----0
 62
     1
  5
266
 10
290.941788
 20
389.674778
 30
0.0
 11
293.691788
 21
389.674778
 31
0.0
  0
LINE
  8
LC-001-002-----0
 62
     1
  5
267
 10
278.209642
 20
389.674778
 30
0.0
 11
290.941788
 21
389.674778
 31
0.0
  0
LINE
  8
LC-001-002-----0
 62
     1
  5
268
 10
262.863318
 20
389.674778
 30
0.0
 11
265.751493
 21
389.674778
 31
0.0
  0
LINE
  8
LC-001-002-----0
 62
     1
  5
269
 10
180.020488
 20
389.674778
 30
0.0
 11
177.132083
 21
389.674778
 31
0.0
  0
LINE
  8
LC-001-002-----0
 62
     1
  5
26A
 10
310.441573
 20
403.975957
 30
0.0
 11
300.441788
 21
403.276704
 31
0.0
  0
LINE
  8
LC-001-002-----0
 62
     1
  5
26B
 10
164.673933
 20
389.674778
 30
0.0
 11
149.191788
 21
389.674778
 31
0.0
  0
LINE
  8
LC-001-002-----0
 62
     1
  5
26C
 10
288.708149
 20
405.363248
 30
0.0
 11
284.259719
 21
405.363248
 31
0.0
  0
LINE
  8
LC-001-002-----0
 62
     1
  5
26D
 10
313.191788
 20
406.674376
 30
0.0
 11
312.191788
 21
399.674778
 31
0.0
  0
LINE
  8
LC-001-002-----0
 62
     1
  5
26E
 10
129.691788
 20
406.674376
 30
0.0
 11
148.441788
 21
405.363248
 31
0.0
  0
INSERT
  8
LC-005-005-----0
 62
     2
  5
282
  2
*X3
 10
0.0
 20
0.0
 30
0.0
  0
INSERT
  8
LC-005-005-----0
 62
     2
  5
297
  2
*X4
 10
0.0
 20
0.0
 30
0.0
  0
LINE
  8
LC-001-002-----0
 62
     1
  5
298
 10
170.472932
 20
209.802692
 30
0.0
 11
170.472932
 21
189.802692
 31
0.0
  0
LINE
  8
LC-001-002-----0
 62
     1
  5
299
 10
171.472932
 20
209.802692
 30
0.0
 11
171.472932
 21
189.802692
 31
0.0
  0
LINE
  8
LC-001-002-----0
 62
     1
  5
29A
 10
271.472932
 20
209.802692
 30
0.0
 11
271.472932
 21
189.802692
 31
0.0
  0
LINE
  8
LC-001-002-----0
 62
     1
  5
29B
 10
272.472932
 20
209.802692
 30
0.0
 11
272.472932
 21
189.802692
 31
0.0
  0
LINE
  8
LC-001-002-----0
 62
     1
  5
29C
 10
170.472932
 20
189.802692
 30
0.0
 11
272.472932
 21
189.802692
 31
0.0
  0
LINE
  8
LC-001-002-----0
 62
     1
  5
29D
 10
170.472932
 20
209.802692
 30
0.0
 11
272.472932
 21
209.802692
 31
0.0
  0
INSERT
  8
LC-005-005-----0
 62
     2
  5
2B0
  2
*X5
 10
0.0
 20
0.0
 30
0.0
  0
DIMENSION
  8
LC-008-003-----0
 62
     2
  5
2CF
  2
*D6
 10
221.472932
 20
174.636
 30
0.0
 11
221.472932
 21
174.636
 31
0.0
  1
DN100(SML)
 13
166.472932
 23
189.802692
 33
0.0
 14
276.472932
 24
189.802692
 34
0.0
  3
LC-DIM-L-0140-02-02
  0
DIMENSION
  8
LC-008-003-----0
 62
     2
  5
2E9
  2
*D7
 10
221.472932
 20
121.176
 30
0.0
 11
221.472932
 21
121.176
 31
0.0
  1
%%c160
 13
301.722932
 23
311.552696
 33
0.0
 14
141.222932
 24
311.552696
 34
0.0
  3
LC-DIM-L-0140-02-02
  0
LINE
  8
LC-001-002-----0
 62
     1
  5
2EA
 10
158.623857
 20
405.363248
 30
0.0
 11
154.175427
 21
405.363248
 31
0.0
  0
LINE
  8
LC-001-002-----0
 62
     1
  5
2EB
 10
186.441788
 20
405.363248
 30
0.0
 11
180.873823
 21
405.363248
 31
0.0
  0
LINE
  8
LC-001-002-----0
 62
     1
  5
2EC
 10
262.009753
 20
405.363248
 30
0.0
 11
256.441788
 21
405.363248
 31
0.0
  0
INSERT
  8
LC-005-005-----0
 62
     2
  5
319
  2
*X8
 10
0.0
 20
0.0
 30
0.0
  0
INSERT
  8
LC-005-005-----0
 62
     2
  5
38D
  2
*X9
 10
0.0
 20
0.0
 30
0.0
  0
DIMENSION
  8
LC-008-003-----0
 62
     2
  5
3A8
  2
*D10
 10
221.476747
 20
428.315705
 30
0.0
 11
221.476747
 21
428.315705
 31
0.0
  1
%%c190
 13
126.580288
 23
400.60944
 33
0.0
 14
316.373206
 24
400.607836
 34
0.0
  3
LC-DIM-L-0140-02-02
  0
DIMENSION
  8
LC-008-003-----0
 62
     2
  5
3C3
  2
*D11
 10
221.476789
 20
476.388
 30
0.0
 11
221.476789
 21
476.388
 31
0.0
  1
%%c300
 13
70.721189
 23
410.65338
 33
0.0
 14
372.232389
 24
410.65338
 34
0.0
  3
LC-DIM-L-0140-02-02
  0
DIMENSION
  8
LC-008-003-----0
 62
     2
  5
3D8
  2
*D12
 10
50.873042
 20
353.727809
 30
0.0
 11
50.873042
 21
353.727809
 31
0.0
  1
110
 13
70.721189
 23
407.652923
 33
0.0
 14
152.972932
 24
299.802696
 34
0.0
 50
90.0
  3
LC-DIM-L-0140-02-02
  0
DIMENSION
  8
LC-008-003-----0
 62
     2
  5
3ED
  2
*D13
 10
50.873042
 20
244.802694
 30
0.0
 11
50.873042
 21
244.802694
 31
0.0
 13
152.972932
 23
299.802696
 33
0.0
 14
166.472932
 24
189.802692
 34
0.0
 50
90.0
  3
LC-DIM-L-0140-02-02
  0
DIMENSION
  8
LC-008-003-----0
 62
     2
  5
408
  2
*D14
 10
106.896967
 20
353.052695
 30
0.0
 11
106.896967
 21
353.052695
 31
0.0
  1
50
 13
179.941792
 23
328.302693
 33
0.0
 14
190.184074
 24
377.802696
 34
0.0
 50
90.0
  3
LC-DIM-L-0140-02-02
  0
ENDSEC
  0
EOF
