  0
SECTION
  2
HEADER
  9
$ACADVER
  1
AC1015
  9
$ACADMAINTVER
 70
     6
  9
$DWGCODEPAGE
  3
DOS850
  9
$INSBASE
 10
0.0
 20
0.0
 30
0.0
  9
$EXTMIN
 10
-210.0
 20
0.0
 30
0.0
  9
$EXTMAX
 10
630.0
 20
594.0
 30
0.0
  9
$LIMMIN
 10
-210.0
 20
0.0
  9
$LIMMAX
 10
630.0
 20
594.0
  9
$ORTHOMODE
 70
     0
  9
$REGENMODE
 70
     1
  9
$FILLMODE
 70
     1
  9
$QTEXTMODE
 70
     0
  9
$MIRRTEXT
 70
     1
  9
$LTSCALE
 40
2.0
  9
$ATTMODE
 70
     1
  9
$TEXTSIZE
 40
2.5
  9
$TRACEWID
 40
1.0
  9
$TEXTSTYLE
  7
Standard
  9
$CLAYER
  8
0
  9
$CELTYPE
  6
ByLayer
  9
$CECOLOR
 62
     7
  9
$CELTSCALE
 40
1.0
  9
$DISPSILH
 70
     0
  9
$DIMSCALE
 40
2.0
  9
$DIMASZ
 40
3.5
  9
$DIMEXO
 40
0.625
  9
$DIMDLI
 40
3.75
  9
$DIMRND
 40
0.0
  9
$DIMDLE
 40
0.0
  9
$DIMEXE
 40
1.25
  9
$DIMTP
 40
0.0
  9
$DIMTM
 40
0.0
  9
$DIMTXT
 40
3.5
  9
$DIMCEN
 40
2.5
  9
$DIMTSZ
 40
0.0
  9
$DIMTOL
 70
     0
  9
$DIMLIM
 70
     0
  9
$DIMTIH
 70
     0
  9
$DIMTOH
 70
     0
  9
$DIMSE1
 70
     0
  9
$DIMSE2
 70
     0
  9
$DIMTAD
 70
     1
  9
$DIMZIN
 70
     8
  9
$DIMBLK
  1

  9
$DIMASO
 70
     1
  9
$DIMSHO
 70
     1
  9
$DIMPOST
  1

  9
$DIMAPOST
  1

  9
$DIMALT
 70
     0
  9
$DIMALTD
 70
     3
  9
$DIMALTF
 40
0.03937
  9
$DIMLFAC
 40
1.0
  9
$DIMTOFL
 70
     1
  9
$DIMTVP
 40
0.0
  9
$DIMTIX
 70
     0
  9
$DIMSOXD
 70
     0
  9
$DIMSAH
 70
     0
  9
$DIMBLK1
  1

  9
$DIMBLK2
  1

  9
$DIMSTYLE
  2
ISO-25
  9
$DIMCLRD
 70
     0
  9
$DIMCLRE
 70
     0
  9
$DIMCLRT
 70
     0
  9
$DIMTFAC
 40
1.0
  9
$DIMGAP
 40
0.625
  9
$DIMJUST
 70
     0
  9
$DIMSD1
 70
     0
  9
$DIMSD2
 70
     0
  9
$DIMTOLJ
 70
     0
  9
$DIMTZIN
 70
     8
  9
$DIMALTZ
 70
     0
  9
$DIMALTTZ
 70
     0
  9
$DIMUPT
 70
     0
  9
$DIMDEC
 70
     2
  9
$DIMTDEC
 70
     2
  9
$DIMALTU
 70
     2
  9
$DIMALTTD
 70
     3
  9
$DIMTXSTY
  7
Standard
  9
$DIMAUNIT
 70
     0
  9
$DIMADEC
 70
     0
  9
$DIMALTRND
 40
0.0
  9
$DIMAZIN
 70
     0
  9
$DIMDSEP
 70
    44
  9
$DIMATFIT
 70
     3
  9
$DIMFRAC
 70
     0
  9
$DIMLDRBLK
  1

  9
$DIMLUNIT
 70
     2
  9
$DIMLWD
 70
    -2
  9
$DIMLWE
 70
    -2
  9
$DIMTMOVE
 70
     0
  9
$LUNITS
 70
     2
  9
$LUPREC
 70
     4
  9
$SKETCHINC
 40
1.0
  9
$FILLETRAD
 40
10.0
  9
$AUNITS
 70
     0
  9
$AUPREC
 70
     0
  9
$MENU
  1
.
  9
$ELEVATION
 40
0.0
  9
$PELEVATION
 40
0.0
  9
$THICKNESS
 40
0.0
  9
$LIMCHECK
 70
     0
  9
$CHAMFERA
 40
10.0
  9
$CHAMFERB
 40
10.0
  9
$CHAMFERC
 40
20.0
  9
$CHAMFERD
 40
0.0
  9
$SKPOLY
 70
     0
  9
$TDCREATE
 40
2453663.394226285
  9
$TDUCREATE
 40
2453663.310892951
  9
$TDUPDATE
 40
2453663.394226296
  9
$TDUUPDATE
 40
2453663.310892963
  9
$TDINDWG
 40
0.0000000116
  9
$TDUSRTIMER
 40
0.0000000116
  9
$USRTIMER
 70
     1
  9
$ANGBASE
 50
0.0
  9
$ANGDIR
 70
     0
  9
$PDMODE
 70
     0
  9
$PDSIZE
 40
0.0
  9
$PLINEWID
 40
0.0
  9
$SPLFRAME
 70
     0
  9
$SPLINETYPE
 70
     6
  9
$SPLINESEGS
 70
     8
  9
$HANDSEED
  5
39D
  9
$SURFTAB1
 70
     6
  9
$SURFTAB2
 70
     6
  9
$SURFTYPE
 70
     6
  9
$SURFU
 70
     6
  9
$SURFV
 70
     6
  9
$UCSBASE
  2

  9
$UCSNAME
  2

  9
$UCSORG
 10
0.0
 20
0.0
 30
0.0
  9
$UCSXDIR
 10
1.0
 20
0.0
 30
0.0
  9
$UCSYDIR
 10
0.0
 20
1.0
 30
0.0
  9
$UCSORTHOREF
  2

  9
$UCSORTHOVIEW
 70
     0
  9
$UCSORGTOP
 10
0.0
 20
0.0
 30
0.0
  9
$UCSORGBOTTOM
 10
0.0
 20
0.0
 30
0.0
  9
$UCSORGLEFT
 10
0.0
 20
0.0
 30
0.0
  9
$UCSORGRIGHT
 10
0.0
 20
0.0
 30
0.0
  9
$UCSORGFRONT
 10
0.0
 20
0.0
 30
0.0
  9
$UCSORGBACK
 10
0.0
 20
0.0
 30
0.0
  9
$PUCSBASE
  2

  9
$PUCSNAME
  2

  9
$PUCSORG
 10
0.0
 20
0.0
 30
0.0
  9
$PUCSXDIR
 10
1.0
 20
0.0
 30
0.0
  9
$PUCSYDIR
 10
0.0
 20
1.0
 30
0.0
  9
$PUCSORTHOREF
  2

  9
$PUCSORTHOVIEW
 70
     0
  9
$PUCSORGTOP
 10
0.0
 20
0.0
 30
0.0
  9
$PUCSORGBOTTOM
 10
0.0
 20
0.0
 30
0.0
  9
$PUCSORGLEFT
 10
0.0
 20
0.0
 30
0.0
  9
$PUCSORGRIGHT
 10
0.0
 20
0.0
 30
0.0
  9
$PUCSORGFRONT
 10
0.0
 20
0.0
 30
0.0
  9
$PUCSORGBACK
 10
0.0
 20
0.0
 30
0.0
  9
$USERI1
 70
     0
  9
$USERI2
 70
     0
  9
$USERI3
 70
     0
  9
$USERI4
 70
     0
  9
$USERI5
 70
     0
  9
$USERR1
 40
0.0
  9
$USERR2
 40
0.0
  9
$USERR3
 40
0.0
  9
$USERR4
 40
0.0
  9
$USERR5
 40
0.0
  9
$WORLDVIEW
 70
     1
  9
$SHADEDGE
 70
     3
  9
$SHADEDIF
 70
    70
  9
$TILEMODE
 70
     1
  9
$MAXACTVP
 70
    64
  9
$PINSBASE
 10
0.0
 20
0.0
 30
0.0
  9
$PLIMCHECK
 70
     0
  9
$PEXTMIN
 10
-210.0
 20
0.0
 30
0.0
  9
$PEXTMAX
 10
630.0
 20
594.0
 30
0.0
  9
$PLIMMIN
 10
-210.0
 20
0.0
  9
$PLIMMAX
 10
630.0
 20
594.0
  9
$UNITMODE
 70
     0
  9
$VISRETAIN
 70
     1
  9
$PLINEGEN
 70
     0
  9
$PSLTSCALE
 70
     1
  9
$TREEDEPTH
 70
  3020
  9
$CMLSTYLE
  2
Standard
  9
$CMLJUST
 70
     0
  9
$CMLSCALE
 40
20.0
  9
$PROXYGRAPHICS
 70
     1
  9
$MEASUREMENT
 70
     1
  9
$CELWEIGHT
370
    -1
  9
$ENDCAPS
280
     0
  9
$JOINSTYLE
280
     0
  9
$LWDISPLAY
290
     0
  9
$INSUNITS
 70
     4
  9
$HYPERLINKBASE
  1

  9
$STYLESHEET
  1

  9
$XEDIT
290
     1
  9
$CEPSNTYPE
380
     0
  9
$PSTYLEMODE
290
     1
  9
$FINGERPRINTGUID
  2
{FAEB1C30-E019-11D5-929B-00C0DF256EC4}
  9
$VERSIONGUID
  2
{FAEB1C32-E019-11D5-929B-00C0DF256EC4}
  9
$EXTNAMES
290
     1
  9
$PSVPSCALE
 40
0.0
  9
$OLESTARTUP
290
     0
  0
ENDSEC
  0
SECTION
  2
CLASSES
  0
CLASS
  1
ACDBDICTIONARYWDFLT
  2
AcDbDictionaryWithDefault
  3
ObjectDBX Classes
 90
        0
280
     0
281
     0
  0
CLASS
  1
ACDBPLACEHOLDER
  2
AcDbPlaceHolder
  3
ObjectDBX Classes
 90
        0
280
     0
281
     0
  0
CLASS
  1
LAYOUT
  2
AcDbLayout
  3
ObjectDBX Classes
 90
        0
280
     0
281
     0
  0
ENDSEC
  0
SECTION
  2
TABLES
  0
TABLE
  2
VPORT
  5
8
330
0
100
AcDbSymbolTable
 70
     2
  0
VPORT
  5
29
330
8
100
AcDbSymbolTableRecord
100
AcDbViewportTableRecord
  2
*ACTIVE
 70
     0
 10
0.0
 20
0.0
 11
1.0
 21
1.0
 12
210.0
 22
297.0
 13
0.0
 23
0.0
 14
1.0
 24
1.0
 15
0.0
 25
0.0
 16
0.0
 26
0.0
 36
1.0
 17
0.0
 27
0.0
 37
0.0
 40
594.0
 41
1.414141
 42
50.0
 43
0.0
 44
0.0
 50
0.0
 51
0.0
 71
    16
 72
   100
 73
     1
 74
     0
 75
     0
 76
     0
 77
     0
 78
     0
281
     0
 65
     0
110
0.0
120
0.0
130
0.0
111
1.0
121
0.0
131
0.0
112
0.0
122
1.0
132
0.0
 79
     0
146
0.0
  0
ENDTAB
  0
TABLE
  2
LTYPE
  5
5
330
0
100
AcDbSymbolTable
 70
     3
  0
LTYPE
  5
14
330
5
100
AcDbSymbolTableRecord
100
AcDbLinetypeTableRecord
  2
ByBlock
 70
     0
  3

 72
    65
 73
     0
 40
0.0
  0
LTYPE
  5
15
330
5
100
AcDbSymbolTableRecord
100
AcDbLinetypeTableRecord
  2
ByLayer
 70
     0
  3

 72
    65
 73
     0
 40
0.0
  0
LTYPE
  5
16
330
5
100
AcDbSymbolTableRecord
100
AcDbLinetypeTableRecord
  2
Continuous
 70
     0
  3
Solid line
 72
    65
 73
     0
 40
0.0
  0
LTYPE
  5
2A
330
5
100
AcDbSymbolTableRecord
100
AcDbLinetypeTableRecord
  2
DASHED
 70
     0
  3
__ __ __ __ __
 72
    65
 73
     2
 40
6.25
 49
5.0
 74
     4
 75
     0
340
0
 46
1.0
 50
0.0
 44
0.0
 45
0.0
 49
-1.25
 74
     4
 75
     0
340
0
 46
1.0
 50
0.0
 44
0.0
 45
0.0
  0
LTYPE
  5
33
330
5
100
AcDbSymbolTableRecord
100
AcDbLinetypeTableRecord
  2
CENTER
 70
     0
  3
__ . __ . __ . __ . __
 72
    65
 73
     4
 40
7.5
 49
5.0
 74
     4
 75
     0
340
0
 46
1.0
 50
0.0
 44
0.0
 45
0.0
 49
-1.25
 74
     4
 75
     0
340
0
 46
1.0
 50
0.0
 44
0.0
 45
0.0
 49
0.0
 74
     4
 75
     0
340
0
 46
1.0
 50
0.0
 44
0.0
 45
0.0
 49
-1.25
 74
     4
 75
     0
340
0
 46
1.0
 50
0.0
 44
0.0
 45
0.0
  0
ENDTAB
  0
TABLE
  2
LAYER
  5
2
330
0
100
AcDbSymbolTable
 70
    14
  0
LAYER
  5
10
330
2
100
AcDbSymbolTableRecord
100
AcDbLayerTableRecord
  2
0
 70
     0
 62
     7
  6
Continuous
370
    -3
390
F
  0
LAYER
  5
2B
330
2
100
AcDbSymbolTableRecord
100
AcDbLayerTableRecord
  2
LC-INFO-1-2-mm-A3-0
 70
     1
 62
     7
  6
ByBlock
370
    -3
390
F
  0
LAYER
  5
2C
330
2
100
AcDbSymbolTableRecord
100
AcDbLayerTableRecord
  2
LC-CUT-HIDDEN
 70
     0
 62
     7
  6
DASHED
370
    -3
390
F
  0
LAYER
  5
2D
330
2
100
AcDbSymbolTableRecord
100
AcDbLayerTableRecord
  2
LC-VIEWPORT
 70
     0
 62
     7
  6
ByBlock
370
    -3
390
F
  0
LAYER
  5
2E
330
2
100
AcDbSymbolTableRecord
100
AcDbLayerTableRecord
  2
LC-3D-HIDDEN
 70
     0
 62
     9
  6
DASHED
370
    -3
390
F
  0
LAYER
  5
31
330
2
100
AcDbSymbolTableRecord
100
AcDbLayerTableRecord
  2
LC-001-002-----0
 70
     0
 62
     1
  6
ByBlock
370
    -3
390
F
  0
LAYER
  5
34
330
2
100
AcDbSymbolTableRecord
100
AcDbLayerTableRecord
  2
LC-002-006-MLN-0
 70
     0
 62
     2
  6
CENTER
370
    -3
390
F
  0
LAYER
  5
3E
330
2
100
AcDbSymbolTableRecord
100
AcDbLayerTableRecord
  2
LC-003-002-RND-0
 70
     0
 62
     1
  6
ByBlock
370
    -3
390
F
  0
LAYER
  5
5D
330
2
100
AcDbSymbolTableRecord
100
AcDbLayerTableRecord
  2
LC-004-001-RND-0
 70
     0
 62
     1
  6
ByBlock
370
    -3
390
F
  0
LAYER
  5
62
330
2
100
AcDbSymbolTableRecord
100
AcDbLayerTableRecord
  2
LC-005-001-----0
 70
     0
 62
     1
  6
ByBlock
370
    -3
390
F
  0
LAYER
  5
CE
330
2
100
AcDbSymbolTableRecord
100
AcDbLayerTableRecord
  2
LC-006-005-----0
 70
     0
 62
     2
  6
ByBlock
370
    -3
390
F
  0
LAYER
  5
254
330
2
100
AcDbSymbolTableRecord
100
AcDbLayerTableRecord
  2
LC-007-103-D00-1
 70
     0
 62
     1
  6
ByBlock
370
    -3
390
F
  0
LAYER
  5
2E0
330
2
100
AcDbSymbolTableRecord
100
AcDbLayerTableRecord
  2
LC-008-003-----0
 70
     0
 62
     2
  6
ByBlock
370
    -3
390
F
  0
LAYER
  5
2E2
330
2
100
AcDbSymbolTableRecord
100
AcDbLayerTableRecord
  2
Defpoints
 70
     0
 62
     7
  6
Continuous
290
     0
370
    -3
390
F
  0
ENDTAB
  0
TABLE
  2
STYLE
  5
3
330
0
100
AcDbSymbolTable
 70
     4
  0
STYLE
  5
11
330
3
100
AcDbSymbolTableRecord
100
AcDbTextStyleTableRecord
  2
Standard
 70
     0
 40
0.0
 41
1.0
 50
0.0
 71
     0
 42
2.5
  3
txt
  4

  0
STYLE
  5
2F
330
3
100
AcDbSymbolTableRecord
100
AcDbTextStyleTableRecord
  2
LCTX0-500-0-0-DIN-Schrift
 70
     0
 40
0.0
 41
0.8
 50
0.0
 71
     0
 42
3.5
  3
MONOTXT
  4

  0
STYLE
  5
30
330
3
100
AcDbSymbolTableRecord
100
AcDbTextStyleTableRecord
  2
LCTX15-400-0-0-Arial
 70
     0
 40
0.0
 41
0.8
 50
0.0
 71
     0
 42
3.5
  3

  4

1001
ACAD
1000
Arial
1071
 16777218
  0
STYLE
  5
2DE
330
3
100
AcDbSymbolTableRecord
100
AcDbTextStyleTableRecord
  2
LCTX15-400-0-0pDIN-Schrift
 70
     0
 40
2.5
 41
0.8
 50
15.0
 71
     0
 42
3.5
  3
STANDARD
  4

  0
ENDTAB
  0
TABLE
  2
VIEW
  5
6
330
0
100
AcDbSymbolTable
 70
     0
  0
ENDTAB
  0
TABLE
  2
UCS
  5
7
330
0
100
AcDbSymbolTable
 70
     0
  0
ENDTAB
  0
TABLE
  2
APPID
  5
9
330
0
100
AcDbSymbolTable
 70
     1
  0
APPID
  5
12
330
9
100
AcDbSymbolTableRecord
100
AcDbRegAppTableRecord
  2
ACAD
 70
     0
  0
ENDTAB
  0
TABLE
  2
DIMSTYLE
  5
A
330
0
100
AcDbSymbolTable
 70
     2
100
AcDbDimStyleTable
  0
DIMSTYLE
105
27
330
A
100
AcDbSymbolTableRecord
100
AcDbDimStyleTableRecord
  2
ISO-25
 70
     0
 41
2.5
 42
0.625
 43
3.75
 44
1.25
 73
     0
 74
     0
 77
     1
 78
     8
140
2.5
141
2.5
143
0.03937
147
0.625
171
     3
172
     1
271
     2
272
     2
274
     3
278
    44
283
     0
284
     8
340
11
  0
DIMSTYLE
105
2DF
102
{ACAD_REACTORS
330
2E1
330
2EF
330
35A
330
367
330
374
330
381
330
38E
102
}
330
A
100
AcDbSymbolTableRecord
100
AcDbDimStyleTableRecord
  2
LC-DIM-L-0140-02-02
 70
     0
 40
2.0
 41
14.0
 42
0.0
 43
7.5
 44
1.8
 73
     0
 74
     0
 77
     1
 78
     8
 79
     2
140
14.0
141
0.0
146
0.71
147
1.5
176
     2
177
     2
178
     2
179
     2
271
     2
278
    44
289
     1
340
2DE
  0
ENDTAB
  0
TABLE
  2
BLOCK_RECORD
  5
1
330
0
100
AcDbSymbolTable
 70
    16
  0
BLOCK_RECORD
  5
1F
330
1
100
AcDbSymbolTableRecord
100
AcDbBlockTableRecord
  2
*Model_Space
340
22
  0
BLOCK_RECORD
  5
1B
330
1
100
AcDbSymbolTableRecord
100
AcDbBlockTableRecord
  2
*Paper_Space
340
1E
  0
BLOCK_RECORD
  5
23
330
1
100
AcDbSymbolTableRecord
100
AcDbBlockTableRecord
  2
*Paper_Space0
340
26
  0
BLOCK_RECORD
  5
CB
330
1
100
AcDbSymbolTableRecord
100
AcDbBlockTableRecord
  2
*X11
340
0
102
{BLKREFS
331
14D
102
}
  0
BLOCK_RECORD
  5
14E
330
1
100
AcDbSymbolTableRecord
100
AcDbBlockTableRecord
  2
*X22
340
0
102
{BLKREFS
331
1C3
102
}
  0
BLOCK_RECORD
  5
1E9
330
1
100
AcDbSymbolTableRecord
100
AcDbBlockTableRecord
  2
*X33
340
0
102
{BLKREFS
331
24C
102
}
  0
BLOCK_RECORD
  5
29E
330
1
100
AcDbSymbolTableRecord
100
AcDbBlockTableRecord
  2
*X44
340
0
102
{BLKREFS
331
2B1
102
}
  0
BLOCK_RECORD
  5
2B2
330
1
100
AcDbSymbolTableRecord
100
AcDbBlockTableRecord
  2
*X55
340
0
102
{BLKREFS
331
2C5
102
}
  0
BLOCK_RECORD
  5
2CC
330
1
100
AcDbSymbolTableRecord
100
AcDbBlockTableRecord
  2
*X66
340
0
102
{BLKREFS
331
2DD
102
}
  0
BLOCK_RECORD
  5
2E3
330
1
100
AcDbSymbolTableRecord
100
AcDbBlockTableRecord
  2
*D7
340
0
  0
BLOCK_RECORD
  5
2F0
330
1
100
AcDbSymbolTableRecord
100
AcDbBlockTableRecord
  2
*D8
340
0
  0
BLOCK_RECORD
  5
300
330
1
100
AcDbSymbolTableRecord
100
AcDbBlockTableRecord
  2
*X79
340
0
102
{BLKREFS
331
32C
102
}
  0
BLOCK_RECORD
  5
32D
330
1
100
AcDbSymbolTableRecord
100
AcDbBlockTableRecord
  2
*X810
340
0
102
{BLKREFS
331
359
102
}
  0
BLOCK_RECORD
  5
35B
330
1
100
AcDbSymbolTableRecord
100
AcDbBlockTableRecord
  2
*D11
340
0
  0
BLOCK_RECORD
  5
368
330
1
100
AcDbSymbolTableRecord
100
AcDbBlockTableRecord
  2
*D12
340
0
  0
BLOCK_RECORD
  5
375
330
1
100
AcDbSymbolTableRecord
100
AcDbBlockTableRecord
  2
*D13
340
0
  0
BLOCK_RECORD
  5
382
330
1
100
AcDbSymbolTableRecord
100
AcDbBlockTableRecord
  2
*D14
340
0
  0
BLOCK_RECORD
  5
38F
330
1
100
AcDbSymbolTableRecord
100
AcDbBlockTableRecord
  2
*D15
340
0
  0
ENDTAB
  0
ENDSEC
  0
SECTION
  2
BLOCKS
  0
BLOCK
  5
20
330
1F
100
AcDbEntity
  8
0
100
AcDbBlockBegin
  2
*Model_Space
 70
     0
 71
     0
 10
0.0
 20
0.0
 30
0.0
  3
*Model_Space
  1

  0
ENDBLK
  5
21
330
1F
100
AcDbEntity
  8
0
100
AcDbBlockEnd
  0
BLOCK
  5
1C
330
1B
100
AcDbEntity
 67
     1
  8
0
100
AcDbBlockBegin
  2
*Paper_Space
 70
     0
 71
     0
 10
0.0
 20
0.0
 30
0.0
  3
*Paper_Space
  1

  0
ENDBLK
  5
1D
330
1B
100
AcDbEntity
 67
     1
  8
0
100
AcDbBlockEnd
  0
BLOCK
  5
24
330
23
100
AcDbEntity
  8
0
100
AcDbBlockBegin
  2
*Paper_Space0
 70
     0
 71
     0
 10
0.0
 20
0.0
 30
0.0
  3
*Paper_Space0
  1

  0
ENDBLK
  5
25
330
23
100
AcDbEntity
  8
0
100
AcDbBlockEnd
  0
BLOCK
  5
CC
330
CB
100
AcDbEntity
  8
0
100
AcDbBlockBegin
  2
*X11
 70
     1
 71
     0
 10
0.0
 20
0.0
 30
0.0
  3
*X11
  1

  4
*X1
  0
LINE
  5
CF
330
CB
100
AcDbEntity
  8
LC-006-005-----0
 62
     7
370
    25
100
AcDbLine
 10
200.857964
 20
226.313808
 30
0.0
 11
201.49456
 21
226.950404
 31
0.0
  0
LINE
  5
D0
330
CB
100
AcDbEntity
  8
LC-006-005-----0
 62
     7
370
    25
100
AcDbLine
 10
199.135963
 20
227.420234
 30
0.0
 11
201.49456
 21
229.778831
 31
0.0
  0
LINE
  5
D1
330
CB
100
AcDbEntity
  8
LC-006-005-----0
 62
     7
370
    25
100
AcDbLine
 10
198.538246
 20
229.650944
 30
0.0
 11
201.49456
 21
232.607258
 31
0.0
  0
LINE
  5
D2
330
CB
100
AcDbEntity
  8
LC-006-005-----0
 62
     7
370
    25
100
AcDbLine
 10
198.49456
 20
232.435685
 30
0.0
 11
201.49456
 21
235.435685
 31
0.0
  0
LINE
  5
D3
330
CB
100
AcDbEntity
  8
LC-006-005-----0
 62
     7
370
    25
100
AcDbLine
 10
198.49456
 20
235.264112
 30
0.0
 11
201.49456
 21
238.264112
 31
0.0
  0
LINE
  5
D4
330
CB
100
AcDbEntity
  8
LC-006-005-----0
 62
     7
370
    25
100
AcDbLine
 10
198.49456
 20
238.09254
 30
0.0
 11
201.49456
 21
241.09254
 31
0.0
  0
LINE
  5
D5
330
CB
100
AcDbEntity
  8
LC-006-005-----0
 62
     7
370
    25
100
AcDbLine
 10
198.49456
 20
240.920967
 30
0.0
 11
201.49456
 21
243.920967
 31
0.0
  0
LINE
  5
D6
330
CB
100
AcDbEntity
  8
LC-006-005-----0
 62
     7
370
    25
100
AcDbLine
 10
198.49456
 20
243.749394
 30
0.0
 11
201.49456
 21
246.749394
 31
0.0
  0
LINE
  5
D7
330
CB
100
AcDbEntity
  8
LC-006-005-----0
 62
     7
370
    25
100
AcDbLine
 10
198.49456
 20
246.577821
 30
0.0
 11
201.49456
 21
249.577821
 31
0.0
  0
LINE
  5
D8
330
CB
100
AcDbEntity
  8
LC-006-005-----0
 62
     7
370
    25
100
AcDbLine
 10
198.49456
 20
249.406248
 30
0.0
 11
201.49456
 21
252.406248
 31
0.0
  0
LINE
  5
D9
330
CB
100
AcDbEntity
  8
LC-006-005-----0
 62
     7
370
    25
100
AcDbLine
 10
198.49456
 20
252.234675
 30
0.0
 11
201.49456
 21
255.234675
 31
0.0
  0
LINE
  5
DA
330
CB
100
AcDbEntity
  8
LC-006-005-----0
 62
     7
370
    25
100
AcDbLine
 10
198.49456
 20
255.063102
 30
0.0
 11
201.49456
 21
258.063102
 31
0.0
  0
LINE
  5
DB
330
CB
100
AcDbEntity
  8
LC-006-005-----0
 62
     7
370
    25
100
AcDbLine
 10
198.491948
 20
257.888918
 30
0.0
 11
201.027316
 21
260.424285
 31
0.0
  0
LINE
  5
DC
330
CB
100
AcDbEntity
  8
LC-006-005-----0
 62
     7
370
    25
100
AcDbLine
 10
196.591299
 20
258.816696
 30
0.0
 11
199.43878
 21
261.664177
 31
0.0
  0
LINE
  5
DD
330
CB
100
AcDbEntity
  8
LC-006-005-----0
 62
     7
370
    25
100
AcDbLine
 10
195.492219
 20
260.546043
 30
0.0
 11
197.143037
 21
262.196861
 31
0.0
  0
LINE
  5
DE
330
CB
100
AcDbEntity
  8
LC-006-005-----0
 62
     7
370
    25
100
AcDbLine
 10
190.934444
 20
258.816695
 30
0.0
 11
196.005385
 21
263.887636
 31
0.0
  0
LINE
  5
DF
330
CB
100
AcDbEntity
  8
LC-006-005-----0
 62
     7
370
    25
100
AcDbLine
 10
188.106016
 20
258.816695
 30
0.0
 11
191.526859
 21
262.237537
 31
0.0
  0
LINE
  5
E0
330
CB
100
AcDbEntity
  8
LC-006-005-----0
 62
     7
370
    25
100
AcDbLine
 10
192.573718
 20
263.284396
 30
0.0
 11
195.952267
 21
266.662945
 31
0.0
  0
LINE
  5
E1
330
CB
100
AcDbEntity
  8
LC-006-005-----0
 62
     7
370
    25
100
AcDbLine
 10
185.277588
 20
258.816694
 30
0.0
 11
188.277591
 21
261.816696
 31
0.0
  0
LINE
  5
E2
330
CB
100
AcDbEntity
  8
LC-006-005-----0
 62
     7
370
    25
100
AcDbLine
 10
192.99456
 20
266.533665
 30
0.0
 11
195.927797
 21
269.466903
 31
0.0
  0
LINE
  5
E3
330
CB
100
AcDbEntity
  8
LC-006-005-----0
 62
     7
370
    25
100
AcDbLine
 10
182.44916
 20
258.816693
 30
0.0
 11
185.449163
 21
261.816696
 31
0.0
  0
LINE
  5
E4
330
CB
100
AcDbEntity
  8
LC-006-005-----0
 62
     7
370
    25
100
AcDbLine
 10
192.99456
 20
269.362092
 30
0.0
 11
195.903328
 21
272.27086
 31
0.0
  0
LINE
  5
E5
330
CB
100
AcDbEntity
  8
LC-006-005-----0
 62
     7
370
    25
100
AcDbLine
 10
179.620732
 20
258.816692
 30
0.0
 11
182.620736
 21
261.816696
 31
0.0
  0
LINE
  5
E6
330
CB
100
AcDbEntity
  8
LC-006-005-----0
 62
     7
370
    25
100
AcDbLine
 10
192.99456
 20
272.190519
 30
0.0
 11
195.878858
 21
275.074817
 31
0.0
  0
LINE
  5
E7
330
CB
100
AcDbEntity
  8
LC-006-005-----0
 62
     7
370
    25
100
AcDbLine
 10
176.792304
 20
258.816691
 30
0.0
 11
179.792309
 21
261.816696
 31
0.0
  0
LINE
  5
E8
330
CB
100
AcDbEntity
  8
LC-006-005-----0
 62
     7
370
    25
100
AcDbLine
 10
192.99456
 20
275.018946
 30
0.0
 11
195.854388
 21
277.878775
 31
0.0
  0
LINE
  5
E9
330
CB
100
AcDbEntity
  8
LC-006-005-----0
 62
     7
370
    25
100
AcDbLine
 10
173.963947
 20
258.81676
 30
0.0
 11
176.963882
 21
261.816696
 31
0.0
  0
LINE
  5
EA
330
CB
100
AcDbEntity
  8
LC-006-005-----0
 62
     7
370
    25
100
AcDbLine
 10
192.99456
 20
277.847374
 30
0.0
 11
195.829918
 21
280.682732
 31
0.0
  0
LINE
  5
EB
330
CB
100
AcDbEntity
  8
LC-006-005-----0
 62
     7
370
    25
100
AcDbLine
 10
171.13552
 20
258.816761
 30
0.0
 11
174.135455
 21
261.816696
 31
0.0
  0
LINE
  5
EC
330
CB
100
AcDbEntity
  8
LC-006-005-----0
 62
     7
370
    25
100
AcDbLine
 10
192.99456
 20
280.675801
 30
0.0
 11
195.805449
 21
283.48669
 31
0.0
  0
LINE
  5
ED
330
CB
100
AcDbEntity
  8
LC-006-005-----0
 62
     7
370
    25
100
AcDbLine
 10
168.307093
 20
258.816761
 30
0.0
 11
171.307028
 21
261.816696
 31
0.0
  0
LINE
  5
EE
330
CB
100
AcDbEntity
  8
LC-006-005-----0
 62
     7
370
    25
100
AcDbLine
 10
192.99456
 20
283.504228
 30
0.0
 11
195.780979
 21
286.290647
 31
0.0
  0
LINE
  5
EF
330
CB
100
AcDbEntity
  8
LC-006-005-----0
 62
     7
370
    25
100
AcDbLine
 10
165.478667
 20
258.816762
 30
0.0
 11
168.478601
 21
261.816696
 31
0.0
  0
LINE
  5
F0
330
CB
100
AcDbEntity
  8
LC-006-005-----0
 62
     7
370
    25
100
AcDbLine
 10
192.99456
 20
286.332655
 30
0.0
 11
195.756509
 21
289.094604
 31
0.0
  0
LINE
  5
F1
330
CB
100
AcDbEntity
  8
LC-006-005-----0
 62
     7
370
    25
100
AcDbLine
 10
162.65024
 20
258.816763
 30
0.0
 11
165.650174
 21
261.816696
 31
0.0
  0
LINE
  5
F2
330
CB
100
AcDbEntity
  8
LC-006-005-----0
 62
     7
370
    25
100
AcDbLine
 10
192.99456
 20
289.161082
 30
0.0
 11
195.732039
 21
291.898562
 31
0.0
  0
LINE
  5
F3
330
CB
100
AcDbEntity
  8
LC-006-005-----0
 62
     7
370
    25
100
AcDbLine
 10
159.821814
 20
258.816763
 30
0.0
 11
162.821746
 21
261.816696
 31
0.0
  0
LINE
  5
F4
330
CB
100
AcDbEntity
  8
LC-006-005-----0
 62
     7
370
    25
100
AcDbLine
 10
192.99456
 20
291.989509
 30
0.0
 11
195.70757
 21
294.702519
 31
0.0
  0
LINE
  5
F5
330
CB
100
AcDbEntity
  8
LC-006-005-----0
 62
     7
370
    25
100
AcDbLine
 10
156.993316
 20
258.816693
 30
0.0
 11
157.49456
 21
259.317936
 31
0.0
  0
LINE
  5
F6
330
CB
100
AcDbEntity
  8
LC-006-005-----0
 62
     7
370
    25
100
AcDbLine
 10
158.445274
 20
260.268651
 30
0.0
 11
159.993319
 21
261.816696
 31
0.0
  0
LINE
  5
F7
330
CB
100
AcDbEntity
  8
LC-006-005-----0
 62
     7
370
    25
100
AcDbLine
 10
192.99456
 20
294.817936
 30
0.0
 11
195.6831
 21
297.506476
 31
0.0
  0
LINE
  5
F8
330
CB
100
AcDbEntity
  8
LC-006-005-----0
 62
     7
370
    25
100
AcDbLine
 10
154.192312
 20
258.844115
 30
0.0
 11
157.164892
 21
261.816696
 31
0.0
  0
LINE
  5
F9
330
CB
100
AcDbEntity
  8
LC-006-005-----0
 62
     7
370
    25
100
AcDbLine
 10
157.49456
 20
262.146363
 30
0.0
 11
157.847557
 21
262.499361
 31
0.0
  0
LINE
  5
FA
330
CB
100
AcDbEntity
  8
LC-006-005-----0
 62
     7
370
    25
100
AcDbLine
 10
192.99456
 20
297.646363
 30
0.0
 11
195.65863
 21
300.310434
 31
0.0
  0
LINE
  5
FB
330
CB
100
AcDbEntity
  8
LC-006-005-----0
 62
     7
370
    25
100
AcDbLine
 10
151.783687
 20
259.263918
 30
0.0
 11
154.358985
 21
261.839216
 31
0.0
  0
LINE
  5
FC
330
CB
100
AcDbEntity
  8
LC-006-005-----0
 62
     7
370
    25
100
AcDbLine
 10
192.99456
 20
300.474791
 30
0.0
 11
195.63416
 21
303.114391
 31
0.0
  0
LINE
  5
FD
330
CB
100
AcDbEntity
  8
LC-006-005-----0
 62
     7
370
    25
100
AcDbLine
 10
149.745614
 20
260.054272
 30
0.0
 11
152.015596
 21
262.324254
 31
0.0
  0
LINE
  5
FE
330
CB
100
AcDbEntity
  8
LC-006-005-----0
 62
     7
370
    25
100
AcDbLine
 10
192.99456
 20
303.303218
 30
0.0
 11
195.609691
 21
305.918348
 31
0.0
  0
LINE
  5
FF
330
CB
100
AcDbEntity
  8
LC-006-005-----0
 62
     7
370
    25
100
AcDbLine
 10
147.993273
 20
261.130358
 30
0.0
 11
150.116621
 21
263.253706
 31
0.0
  0
LINE
  5
100
330
CB
100
AcDbEntity
  8
LC-006-005-----0
 62
     7
370
    25
100
AcDbLine
 10
192.99456
 20
306.131645
 30
0.0
 11
195.585221
 21
308.722306
 31
0.0
  0
LINE
  5
101
330
CB
100
AcDbEntity
  8
LC-006-005-----0
 62
     7
370
    25
100
AcDbLine
 10
146.491696
 20
262.457208
 30
0.0
 11
148.559672
 21
264.525184
 31
0.0
  0
LINE
  5
102
330
CB
100
AcDbEntity
  8
LC-006-005-----0
 62
     7
370
    25
100
AcDbLine
 10
192.99456
 20
308.960072
 30
0.0
 11
195.560751
 21
311.526263
 31
0.0
  0
LINE
  5
103
330
CB
100
AcDbEntity
  8
LC-006-005-----0
 62
     7
370
    25
100
AcDbLine
 10
145.232815
 20
264.026754
 30
0.0
 11
147.321036
 21
266.114975
 31
0.0
  0
LINE
  5
104
330
CB
100
AcDbEntity
  8
LC-006-005-----0
 62
     7
370
    25
100
AcDbLine
 10
192.99456
 20
311.788499
 30
0.0
 11
195.536281
 21
314.33022
 31
0.0
  0
LINE
  5
105
330
CB
100
AcDbEntity
  8
LC-006-005-----0
 62
     7
370
    25
100
AcDbLine
 10
144.231232
 20
265.853599
 30
0.0
 11
146.430234
 21
268.052601
 31
0.0
  0
LINE
  5
106
330
CB
100
AcDbEntity
  8
LC-006-005-----0
 62
     7
370
    25
100
AcDbLine
 10
192.99456
 20
314.616926
 30
0.0
 11
195.511811
 21
317.134178
 31
0.0
  0
LINE
  5
107
330
CB
100
AcDbEntity
  8
LC-006-005-----0
 62
     7
370
    25
100
AcDbLine
 10
143.532154
 20
267.982948
 30
0.0
 11
146.002602
 21
270.453396
 31
0.0
  0
LINE
  5
108
330
CB
100
AcDbEntity
  8
LC-006-005-----0
 62
     7
370
    25
100
AcDbLine
 10
192.99456
 20
317.445353
 30
0.0
 11
195.487342
 21
319.938135
 31
0.0
  0
LINE
  5
109
330
CB
100
AcDbEntity
  8
LC-006-005-----0
 62
     7
370
    25
100
AcDbLine
 10
143.244638
 20
270.523859
 30
0.0
 11
145.995267
 21
273.274487
 31
0.0
  0
LINE
  5
10A
330
CB
100
AcDbEntity
  8
LC-006-005-----0
 62
     7
370
    25
100
AcDbLine
 10
192.99456
 20
320.27378
 30
0.0
 11
195.462872
 21
322.742093
 31
0.0
  0
LINE
  5
10B
330
CB
100
AcDbEntity
  8
LC-006-005-----0
 62
     7
370
    25
100
AcDbLine
 10
143.24456
 20
273.352208
 30
0.0
 11
145.995267
 21
276.102914
 31
0.0
  0
LINE
  5
10C
330
CB
100
AcDbEntity
  8
LC-006-005-----0
 62
     7
370
    25
100
AcDbLine
 10
192.99456
 20
323.102208
 30
0.0
 11
195.438402
 21
325.54605
 31
0.0
  0
LINE
  5
10D
330
CB
100
AcDbEntity
  8
LC-006-005-----0
 62
     7
370
    25
100
AcDbLine
 10
143.24456
 20
276.180635
 30
0.0
 11
145.995267
 21
278.931342
 31
0.0
  0
LINE
  5
10E
330
CB
100
AcDbEntity
  8
LC-006-005-----0
 62
     7
370
    25
100
AcDbLine
 10
192.99456
 20
325.930635
 30
0.0
 11
195.413932
 21
328.350007
 31
0.0
  0
LINE
  5
10F
330
CB
100
AcDbEntity
  8
LC-006-005-----0
 62
     7
370
    25
100
AcDbLine
 10
143.24456
 20
279.009062
 30
0.0
 11
145.995267
 21
281.759769
 31
0.0
  0
LINE
  5
110
330
CB
100
AcDbEntity
  8
LC-006-005-----0
 62
     7
370
    25
100
AcDbLine
 10
192.99456
 20
328.759062
 30
0.0
 11
195.389463
 21
331.153965
 31
0.0
  0
LINE
  5
111
330
CB
100
AcDbEntity
  8
LC-006-005-----0
 62
     7
370
    25
100
AcDbLine
 10
143.24456
 20
281.837489
 30
0.0
 11
145.995267
 21
284.588196
 31
0.0
  0
LINE
  5
112
330
CB
100
AcDbEntity
  8
LC-006-005-----0
 62
     7
370
    25
100
AcDbLine
 10
192.99456
 20
331.587489
 30
0.0
 11
195.364993
 21
333.957922
 31
0.0
  0
LINE
  5
113
330
CB
100
AcDbEntity
  8
LC-006-005-----0
 62
     7
370
    25
100
AcDbLine
 10
143.24456
 20
284.665916
 30
0.0
 11
145.995267
 21
287.416623
 31
0.0
  0
LINE
  5
114
330
CB
100
AcDbEntity
  8
LC-006-005-----0
 62
     7
370
    25
100
AcDbLine
 10
192.99456
 20
334.415916
 30
0.0
 11
195.39534
 21
336.816696
 31
0.0
  0
LINE
  5
115
330
CB
100
AcDbEntity
  8
LC-006-005-----0
 62
     7
370
    25
100
AcDbLine
 10
143.24456
 20
287.494343
 30
0.0
 11
145.995267
 21
290.24505
 31
0.0
  0
LINE
  5
116
330
CB
100
AcDbEntity
  8
LC-006-005-----0
 62
     7
370
    25
100
AcDbLine
 10
143.24456
 20
290.32277
 30
0.0
 11
145.995267
 21
293.073477
 31
0.0
  0
LINE
  5
117
330
CB
100
AcDbEntity
  8
LC-006-005-----0
 62
     7
370
    25
100
AcDbLine
 10
143.24456
 20
293.151197
 30
0.0
 11
145.995267
 21
295.901904
 31
0.0
  0
LINE
  5
118
330
CB
100
AcDbEntity
  8
LC-006-005-----0
 62
     7
370
    25
100
AcDbLine
 10
143.24456
 20
295.979625
 30
0.0
 11
145.995267
 21
298.730331
 31
0.0
  0
LINE
  5
119
330
CB
100
AcDbEntity
  8
LC-006-005-----0
 62
     7
370
    25
100
AcDbLine
 10
143.24456
 20
298.808052
 30
0.0
 11
145.995267
 21
301.558759
 31
0.0
  0
LINE
  5
11A
330
CB
100
AcDbEntity
  8
LC-006-005-----0
 62
     7
370
    25
100
AcDbLine
 10
143.24456
 20
301.636479
 30
0.0
 11
145.995267
 21
304.387186
 31
0.0
  0
LINE
  5
11B
330
CB
100
AcDbEntity
  8
LC-006-005-----0
 62
     7
370
    25
100
AcDbLine
 10
143.24456
 20
304.464906
 30
0.0
 11
145.995267
 21
307.215613
 31
0.0
  0
LINE
  5
11C
330
CB
100
AcDbEntity
  8
LC-006-005-----0
 62
     7
370
    25
100
AcDbLine
 10
143.24456
 20
307.293333
 30
0.0
 11
145.995267
 21
310.04404
 31
0.0
  0
LINE
  5
11D
330
CB
100
AcDbEntity
  8
LC-006-005-----0
 62
     7
370
    25
100
AcDbLine
 10
143.24456
 20
310.12176
 30
0.0
 11
145.995267
 21
312.872467
 31
0.0
  0
LINE
  5
11E
330
CB
100
AcDbEntity
  8
LC-006-005-----0
 62
     7
370
    25
100
AcDbLine
 10
143.24456
 20
312.950187
 30
0.0
 11
145.995267
 21
315.700894
 31
0.0
  0
LINE
  5
11F
330
CB
100
AcDbEntity
  8
LC-006-005-----0
 62
     7
370
    25
100
AcDbLine
 10
143.24456
 20
315.778614
 30
0.0
 11
145.995267
 21
318.529321
 31
0.0
  0
LINE
  5
120
330
CB
100
AcDbEntity
  8
LC-006-005-----0
 62
     7
370
    25
100
AcDbLine
 10
143.24456
 20
318.607042
 30
0.0
 11
145.995267
 21
321.357748
 31
0.0
  0
LINE
  5
121
330
CB
100
AcDbEntity
  8
LC-006-005-----0
 62
     7
370
    25
100
AcDbLine
 10
143.24456
 20
321.435469
 30
0.0
 11
145.995267
 21
324.186176
 31
0.0
  0
LINE
  5
122
330
CB
100
AcDbEntity
  8
LC-006-005-----0
 62
     7
370
    25
100
AcDbLine
 10
143.24456
 20
324.263896
 30
0.0
 11
145.995267
 21
327.014603
 31
0.0
  0
LINE
  5
123
330
CB
100
AcDbEntity
  8
LC-006-005-----0
 62
     7
370
    25
100
AcDbLine
 10
143.24456
 20
327.092323
 30
0.0
 11
145.995267
 21
329.84303
 31
0.0
  0
LINE
  5
124
330
CB
100
AcDbEntity
  8
LC-006-005-----0
 62
     7
370
    25
100
AcDbLine
 10
143.24456
 20
329.92075
 30
0.0
 11
145.995267
 21
332.671457
 31
0.0
  0
LINE
  5
125
330
CB
100
AcDbEntity
  8
LC-006-005-----0
 62
     7
370
    25
100
AcDbLine
 10
143.24456
 20
332.749177
 30
0.0
 11
145.995267
 21
335.499884
 31
0.0
  0
LINE
  5
126
330
CB
100
AcDbEntity
  8
LC-006-005-----0
 62
     7
370
    25
100
AcDbLine
 10
142.288989
 20
334.622033
 30
0.0
 11
145.445267
 21
337.778311
 31
0.0
  0
LINE
  5
127
330
CB
100
AcDbEntity
  8
LC-006-005-----0
 62
     7
370
    25
100
AcDbLine
 10
141.124139
 20
336.285611
 30
0.0
 11
145.946389
 21
341.107861
 31
0.0
  0
LINE
  5
128
330
CB
100
AcDbEntity
  8
LC-006-005-----0
 62
     7
370
    25
100
AcDbLine
 10
139.95929
 20
337.949188
 30
0.0
 11
146.314745
 21
344.304644
 31
0.0
  0
LINE
  5
129
330
CB
100
AcDbEntity
  8
LC-006-005-----0
 62
     7
370
    25
100
AcDbLine
 10
138.79444
 20
339.612766
 30
0.0
 11
144.648364
 21
345.46669
 31
0.0
  0
LINE
  5
12A
330
CB
100
AcDbEntity
  8
LC-006-005-----0
 62
     7
370
    25
100
AcDbLine
 10
137.629591
 20
341.276344
 30
0.0
 11
141.819943
 21
345.466696
 31
0.0
  0
LINE
  5
12B
330
CB
100
AcDbEntity
  8
LC-006-005-----0
 62
     7
370
    25
100
AcDbLine
 10
136.464741
 20
342.939921
 30
0.0
 11
138.991516
 21
345.466696
 31
0.0
  0
LINE
  5
12C
330
CB
100
AcDbEntity
  8
LC-006-005-----0
 62
     7
370
    25
100
AcDbLine
 10
135.299891
 20
344.603499
 30
0.0
 11
136.746649
 21
346.050256
 31
0.0
  0
LINE
  5
12D
330
CB
100
AcDbEntity
  8
LC-006-005-----0
 62
     7
370
    25
100
AcDbLine
 10
134.135042
 20
346.267076
 30
0.0
 11
136.746649
 21
348.878683
 31
0.0
  0
LINE
  5
12E
330
CB
100
AcDbEntity
  8
LC-006-005-----0
 62
     7
370
    25
100
AcDbLine
 10
133.995267
 20
348.955728
 30
0.0
 11
136.746649
 21
351.70711
 31
0.0
  0
LINE
  5
12F
330
CB
100
AcDbEntity
  8
LC-006-005-----0
 62
     7
370
    25
100
AcDbLine
 10
133.995267
 20
351.784155
 30
0.0
 11
136.746649
 21
354.535537
 31
0.0
  0
LINE
  5
130
330
CB
100
AcDbEntity
  8
LC-006-005-----0
 62
     7
370
    25
100
AcDbLine
 10
133.334655
 20
353.95197
 30
0.0
 11
136.746649
 21
357.363964
 31
0.0
  0
LINE
  5
131
330
CB
100
AcDbEntity
  8
LC-006-005-----0
 62
     7
370
    25
100
AcDbLine
 10
131.088064
 20
354.533806
 30
0.0
 11
133.520953
 21
356.966696
 31
0.0
  0
LINE
  5
132
330
CB
100
AcDbEntity
  8
LC-006-005-----0
 62
     7
370
    25
100
AcDbLine
 10
134.745267
 20
358.19101
 30
0.0
 11
136.746649
 21
360.192391
 31
0.0
  0
LINE
  5
133
330
CB
100
AcDbEntity
  8
LC-006-005-----0
 62
     7
370
    25
100
AcDbLine
 10
129.350874
 20
355.625044
 30
0.0
 11
131.692842
 21
357.967012
 31
0.0
  0
LINE
  5
134
330
CB
100
AcDbEntity
  8
LC-006-005-----0
 62
     7
370
    25
100
AcDbLine
 10
134.745267
 20
361.019437
 30
0.0
 11
136.696093
 21
362.970263
 31
0.0
  0
LINE
  5
135
330
CB
100
AcDbEntity
  8
LC-006-005-----0
 62
     7
370
    25
100
AcDbLine
 10
128.697474
 20
357.800071
 30
0.0
 11
131.551992
 21
360.65459
 31
0.0
  0
LINE
  5
136
330
CB
100
AcDbEntity
  8
LC-006-005-----0
 62
     7
370
    25
100
AcDbLine
 10
128.556624
 20
360.487649
 30
0.0
 11
131.411142
 21
363.342167
 31
0.0
  0
LINE
  5
137
330
CB
100
AcDbEntity
  8
LC-006-005-----0
 62
     7
370
    25
100
AcDbLine
 10
128.100033
 20
362.859485
 30
0.0
 11
131.270293
 21
366.029744
 31
0.0
  0
LINE
  5
138
330
CB
100
AcDbEntity
  8
LC-006-005-----0
 62
     7
370
    25
100
AcDbLine
 10
125.853439
 20
363.441317
 30
0.0
 11
128.664216
 21
366.252094
 31
0.0
  0
LINE
  5
139
330
CB
100
AcDbEntity
  8
LC-006-005-----0
 62
     7
370
    25
100
AcDbLine
 10
123.209868
 20
363.626173
 30
0.0
 11
126.020645
 21
366.436951
 31
0.0
  0
LINE
  5
13A
330
CB
100
AcDbEntity
  8
LC-006-005-----0
 62
     7
370
    25
100
AcDbLine
 10
120.566297
 20
363.81103
 30
0.0
 11
123.377074
 21
366.621807
 31
0.0
  0
LINE
  5
13B
330
CB
100
AcDbEntity
  8
LC-006-005-----0
 62
     7
370
    25
100
AcDbLine
 10
117.922726
 20
363.995886
 30
0.0
 11
120.733503
 21
366.806663
 31
0.0
  0
LINE
  5
13C
330
CB
100
AcDbEntity
  8
LC-006-005-----0
 62
     7
370
    25
100
AcDbLine
 10
115.279155
 20
364.180742
 30
0.0
 11
118.089933
 21
366.99152
 31
0.0
  0
LINE
  5
13D
330
CB
100
AcDbEntity
  8
LC-006-005-----0
 62
     7
370
    25
100
AcDbLine
 10
113.272299
 20
365.002313
 30
0.0
 11
115.48843
 21
367.218444
 31
0.0
  0
LINE
  5
13E
330
CB
100
AcDbEntity
  8
LC-006-005-----0
 62
     7
370
    25
100
AcDbLine
 10
111.43314
 20
365.991581
 30
0.0
 11
113.898855
 21
368.457296
 31
0.0
  0
LINE
  5
13F
330
CB
100
AcDbEntity
  8
LC-006-005-----0
 62
     7
370
    25
100
AcDbLine
 10
108.653236
 20
366.040104
 30
0.0
 11
111.602218
 21
368.989087
 31
0.0
  0
LINE
  5
140
330
CB
100
AcDbEntity
  8
LC-006-005-----0
 62
     7
370
    25
100
AcDbLine
 10
105.873332
 20
366.088628
 30
0.0
 11
108.822314
 21
369.03761
 31
0.0
  0
LINE
  5
141
330
CB
100
AcDbEntity
  8
LC-006-005-----0
 62
     7
370
    25
100
AcDbLine
 10
103.093428
 20
366.137151
 30
0.0
 11
106.042411
 21
369.086133
 31
0.0
  0
LINE
  5
142
330
CB
100
AcDbEntity
  8
LC-006-005-----0
 62
     7
370
    25
100
AcDbLine
 10
100.313525
 20
366.185674
 30
0.0
 11
103.262507
 21
369.134657
 31
0.0
  0
LINE
  5
143
330
CB
100
AcDbEntity
  8
LC-006-005-----0
 62
     7
370
    25
100
AcDbLine
 10
97.533621
 20
366.234198
 30
0.0
 11
100.482603
 21
369.18318
 31
0.0
  0
LINE
  5
144
330
CB
100
AcDbEntity
  8
LC-006-005-----0
 62
     7
370
    25
100
AcDbLine
 10
94.753717
 20
366.282721
 30
0.0
 11
97.7027
 21
369.231704
 31
0.0
  0
LINE
  5
145
330
CB
100
AcDbEntity
  8
LC-006-005-----0
 62
     7
370
    25
100
AcDbLine
 10
91.973814
 20
366.331245
 30
0.0
 11
94.922796
 21
369.280227
 31
0.0
  0
LINE
  5
146
330
CB
100
AcDbEntity
  8
LC-006-005-----0
 62
     7
370
    25
100
AcDbLine
 10
89.19391
 20
366.379768
 30
0.0
 11
92.142892
 21
369.32875
 31
0.0
  0
LINE
  5
147
330
CB
100
AcDbEntity
  8
LC-006-005-----0
 62
     7
370
    25
100
AcDbLine
 10
86.414006
 20
366.428291
 30
0.0
 11
89.362988
 21
369.377274
 31
0.0
  0
LINE
  5
148
330
CB
100
AcDbEntity
  8
LC-006-005-----0
 62
     7
370
    25
100
AcDbLine
 10
83.634102
 20
366.476815
 30
0.0
 11
86.583085
 21
369.425797
 31
0.0
  0
LINE
  5
149
330
CB
100
AcDbEntity
  8
LC-006-005-----0
 62
     7
370
    25
100
AcDbLine
 10
80.854199
 20
366.525338
 30
0.0
 11
83.803181
 21
369.474321
 31
0.0
  0
LINE
  5
14A
330
CB
100
AcDbEntity
  8
LC-006-005-----0
 62
     7
370
    25
100
AcDbLine
 10
78.074295
 20
366.573862
 30
0.0
 11
81.023277
 21
369.522844
 31
0.0
  0
LINE
  5
14B
330
CB
100
AcDbEntity
  8
LC-006-005-----0
 62
     7
370
    25
100
AcDbLine
 10
75.294391
 20
366.622385
 30
0.0
 11
78.243373
 21
369.571367
 31
0.0
  0
LINE
  5
14C
330
CB
100
AcDbEntity
  8
LC-006-005-----0
 62
     7
370
    25
100
AcDbLine
 10
72.742817
 20
366.899238
 30
0.0
 11
75.46347
 21
369.619891
 31
0.0
  0
ENDBLK
  5
CD
330
CB
100
AcDbEntity
  8
0
100
AcDbBlockEnd
  0
BLOCK
  5
14F
330
14E
100
AcDbEntity
  8
0
100
AcDbBlockBegin
  2
*X22
 70
     1
 71
     0
 10
0.0
 20
0.0
 30
0.0
  3
*X22
  1

  4
*X2
  0
LINE
  5
151
330
14E
100
AcDbEntity
  8
LC-006-005-----0
 62
     7
370
    25
100
AcDbLine
 10
296.473571
 20
259.704019
 30
0.0
 11
302.857384
 21
266.087832
 31
0.0
  0
LINE
  5
152
330
14E
100
AcDbEntity
  8
LC-006-005-----0
 62
     7
370
    25
100
AcDbLine
 10
292.784556
 20
258.84343
 30
0.0
 11
303.717973
 21
269.776847
 31
0.0
  0
LINE
  5
153
330
14E
100
AcDbEntity
  8
LC-006-005-----0
 62
     7
370
    25
100
AcDbLine
 10
289.929542
 20
258.816844
 30
0.0
 11
292.984029
 21
261.871331
 31
0.0
  0
LINE
  5
154
330
14E
100
AcDbEntity
  8
LC-006-005-----0
 62
     7
370
    25
100
AcDbLine
 10
300.939218
 20
269.826519
 30
0.0
 11
303.74456
 21
272.631861
 31
0.0
  0
LINE
  5
155
330
14E
100
AcDbEntity
  8
LC-006-005-----0
 62
     7
370
    25
100
AcDbLine
 10
287.101116
 20
258.816845
 30
0.0
 11
290.100967
 21
261.816696
 31
0.0
  0
LINE
  5
156
330
14E
100
AcDbEntity
  8
LC-006-005-----0
 62
     7
370
    25
100
AcDbLine
 10
300.993853
 20
272.709582
 30
0.0
 11
303.74456
 21
275.460289
 31
0.0
  0
LINE
  5
157
330
14E
100
AcDbEntity
  8
LC-006-005-----0
 62
     7
370
    25
100
AcDbLine
 10
284.27269
 20
258.816846
 30
0.0
 11
287.27254
 21
261.816696
 31
0.0
  0
LINE
  5
158
330
14E
100
AcDbEntity
  8
LC-006-005-----0
 62
     7
370
    25
100
AcDbLine
 10
300.993853
 20
275.538009
 30
0.0
 11
303.74456
 21
278.288716
 31
0.0
  0
LINE
  5
159
330
14E
100
AcDbEntity
  8
LC-006-005-----0
 62
     7
370
    25
100
AcDbLine
 10
281.444264
 20
258.816847
 30
0.0
 11
284.444113
 21
261.816696
 31
0.0
  0
LINE
  5
15A
330
14E
100
AcDbEntity
  8
LC-006-005-----0
 62
     7
370
    25
100
AcDbLine
 10
300.993853
 20
278.366436
 30
0.0
 11
303.74456
 21
281.117143
 31
0.0
  0
LINE
  5
15B
330
14E
100
AcDbEntity
  8
LC-006-005-----0
 62
     7
370
    25
100
AcDbLine
 10
246.112975
 20
226.313985
 30
0.0
 11
248.085192
 21
228.286202
 31
0.0
  0
LINE
  5
15C
330
14E
100
AcDbEntity
  8
LC-006-005-----0
 62
     7
370
    25
100
AcDbLine
 10
278.615838
 20
258.816848
 30
0.0
 11
281.615686
 21
261.816696
 31
0.0
  0
LINE
  5
15D
330
14E
100
AcDbEntity
  8
LC-006-005-----0
 62
     7
370
    25
100
AcDbLine
 10
300.993853
 20
281.194863
 30
0.0
 11
303.74456
 21
283.94557
 31
0.0
  0
LINE
  5
15E
330
14E
100
AcDbEntity
  8
LC-006-005-----0
 62
     7
370
    25
100
AcDbLine
 10
245.494687
 20
228.524124
 30
0.0
 11
248.49456
 21
231.523997
 31
0.0
  0
LINE
  5
15F
330
14E
100
AcDbEntity
  8
LC-006-005-----0
 62
     7
370
    25
100
AcDbLine
 10
275.787412
 20
258.816849
 30
0.0
 11
278.787259
 21
261.816696
 31
0.0
  0
LINE
  5
160
330
14E
100
AcDbEntity
  8
LC-006-005-----0
 62
     7
370
    25
100
AcDbLine
 10
300.993853
 20
284.02329
 30
0.0
 11
303.74456
 21
286.773997
 31
0.0
  0
LINE
  5
161
330
14E
100
AcDbEntity
  8
LC-006-005-----0
 62
     7
370
    25
100
AcDbLine
 10
245.494691
 20
231.352556
 30
0.0
 11
248.49456
 21
234.352424
 31
0.0
  0
LINE
  5
162
330
14E
100
AcDbEntity
  8
LC-006-005-----0
 62
     7
370
    25
100
AcDbLine
 10
272.958986
 20
258.81685
 30
0.0
 11
275.958831
 21
261.816696
 31
0.0
  0
LINE
  5
163
330
14E
100
AcDbEntity
  8
LC-006-005-----0
 62
     7
370
    25
100
AcDbLine
 10
300.993853
 20
286.851717
 30
0.0
 11
303.74456
 21
289.602424
 31
0.0
  0
LINE
  5
164
330
14E
100
AcDbEntity
  8
LC-006-005-----0
 62
     7
370
    25
100
AcDbLine
 10
245.494695
 20
234.180987
 30
0.0
 11
248.49456
 21
237.180851
 31
0.0
  0
LINE
  5
165
330
14E
100
AcDbEntity
  8
LC-006-005-----0
 62
     7
370
    25
100
AcDbLine
 10
270.13056
 20
258.816851
 30
0.0
 11
273.130404
 21
261.816696
 31
0.0
  0
LINE
  5
166
330
14E
100
AcDbEntity
  8
LC-006-005-----0
 62
     7
370
    25
100
AcDbLine
 10
300.993853
 20
289.680144
 30
0.0
 11
303.74456
 21
292.430851
 31
0.0
  0
LINE
  5
167
330
14E
100
AcDbEntity
  8
LC-006-005-----0
 62
     7
370
    25
100
AcDbLine
 10
245.494699
 20
237.009418
 30
0.0
 11
248.49456
 21
240.009278
 31
0.0
  0
LINE
  5
168
330
14E
100
AcDbEntity
  8
LC-006-005-----0
 62
     7
370
    25
100
AcDbLine
 10
267.302134
 20
258.816852
 30
0.0
 11
270.301977
 21
261.816696
 31
0.0
  0
LINE
  5
169
330
14E
100
AcDbEntity
  8
LC-006-005-----0
 62
     7
370
    25
100
AcDbLine
 10
300.993853
 20
292.508572
 30
0.0
 11
303.74456
 21
295.259278
 31
0.0
  0
LINE
  5
16A
330
14E
100
AcDbEntity
  8
LC-006-005-----0
 62
     7
370
    25
100
AcDbLine
 10
245.494703
 20
239.837849
 30
0.0
 11
248.49456
 21
242.837706
 31
0.0
  0
LINE
  5
16B
330
14E
100
AcDbEntity
  8
LC-006-005-----0
 62
     7
370
    25
100
AcDbLine
 10
264.473708
 20
258.816854
 30
0.0
 11
267.47355
 21
261.816696
 31
0.0
  0
LINE
  5
16C
330
14E
100
AcDbEntity
  8
LC-006-005-----0
 62
     7
370
    25
100
AcDbLine
 10
300.993853
 20
295.336999
 30
0.0
 11
303.74456
 21
298.087706
 31
0.0
  0
LINE
  5
16D
330
14E
100
AcDbEntity
  8
LC-006-005-----0
 62
     7
370
    25
100
AcDbLine
 10
372.289486
 20
366.632632
 30
0.0
 11
374.254017
 21
368.597163
 31
0.0
  0
LINE
  5
16E
330
14E
100
AcDbEntity
  8
LC-006-005-----0
 62
     7
370
    25
100
AcDbLine
 10
245.494707
 20
242.66628
 30
0.0
 11
248.49456
 21
245.666133
 31
0.0
  0
LINE
  5
16F
330
14E
100
AcDbEntity
  8
LC-006-005-----0
 62
     7
370
    25
100
AcDbLine
 10
261.645282
 20
258.816855
 30
0.0
 11
264.645123
 21
261.816696
 31
0.0
  0
LINE
  5
170
330
14E
100
AcDbEntity
  8
LC-006-005-----0
 62
     7
370
    25
100
AcDbLine
 10
300.993853
 20
298.165426
 30
0.0
 11
303.74456
 21
300.916133
 31
0.0
  0
LINE
  5
171
330
14E
100
AcDbEntity
  8
LC-006-005-----0
 62
     7
370
    25
100
AcDbLine
 10
369.410812
 20
366.582384
 30
0.0
 11
372.464572
 21
369.636145
 31
0.0
  0
LINE
  5
172
330
14E
100
AcDbEntity
  8
LC-006-005-----0
 62
     7
370
    25
100
AcDbLine
 10
245.49471
 20
245.49471
 30
0.0
 11
248.49456
 21
248.49456
 31
0.0
  0
LINE
  5
173
330
14E
100
AcDbEntity
  8
LC-006-005-----0
 62
     7
370
    25
100
AcDbLine
 10
258.816698
 20
258.816698
 30
0.0
 11
259.458779
 21
259.458779
 31
0.0
  0
LINE
  5
174
330
14E
100
AcDbEntity
  8
LC-006-005-----0
 62
     7
370
    25
100
AcDbLine
 10
259.99456
 20
259.99456
 30
0.0
 11
261.816696
 21
261.816696
 31
0.0
  0
LINE
  5
175
330
14E
100
AcDbEntity
  8
LC-006-005-----0
 62
     7
370
    25
100
AcDbLine
 10
300.993853
 20
300.993853
 30
0.0
 11
303.74456
 21
303.74456
 31
0.0
  0
LINE
  5
176
330
14E
100
AcDbEntity
  8
LC-006-005-----0
 62
     7
370
    25
100
AcDbLine
 10
366.532137
 20
366.532137
 30
0.0
 11
369.585898
 21
369.585898
 31
0.0
  0
LINE
  5
177
330
14E
100
AcDbEntity
  8
LC-006-005-----0
 62
     7
370
    25
100
AcDbLine
 10
245.494712
 20
248.323139
 30
0.0
 11
248.49456
 21
251.322987
 31
0.0
  0
LINE
  5
178
330
14E
100
AcDbEntity
  8
LC-006-005-----0
 62
     7
370
    25
100
AcDbLine
 10
255.988434
 20
258.816861
 30
0.0
 11
258.988269
 21
261.816696
 31
0.0
  0
LINE
  5
179
330
14E
100
AcDbEntity
  8
LC-006-005-----0
 62
     7
370
    25
100
AcDbLine
 10
259.855263
 20
262.68369
 30
0.0
 11
259.99456
 21
262.822987
 31
0.0
  0
LINE
  5
17A
330
14E
100
AcDbEntity
  8
LC-006-005-----0
 62
     7
370
    25
100
AcDbLine
 10
300.993853
 20
303.82228
 30
0.0
 11
303.74456
 21
306.572987
 31
0.0
  0
LINE
  5
17B
330
14E
100
AcDbEntity
  8
LC-006-005-----0
 62
     7
370
    25
100
AcDbLine
 10
363.653462
 20
366.48189
 30
0.0
 11
366.707223
 21
369.53565
 31
0.0
  0
LINE
  5
17C
330
14E
100
AcDbEntity
  8
LC-006-005-----0
 62
     7
370
    25
100
AcDbLine
 10
245.494714
 20
251.151568
 30
0.0
 11
248.49456
 21
254.151414
 31
0.0
  0
LINE
  5
17D
330
14E
100
AcDbEntity
  8
LC-006-005-----0
 62
     7
370
    25
100
AcDbLine
 10
254.023424
 20
259.680278
 30
0.0
 11
256.252951
 21
261.909805
 31
0.0
  0
LINE
  5
17E
330
14E
100
AcDbEntity
  8
LC-006-005-----0
 62
     7
370
    25
100
AcDbLine
 10
300.993853
 20
306.650707
 30
0.0
 11
303.74456
 21
309.401414
 31
0.0
  0
LINE
  5
17F
330
14E
100
AcDbEntity
  8
LC-006-005-----0
 62
     7
370
    25
100
AcDbLine
 10
360.774788
 20
366.431642
 30
0.0
 11
363.828548
 21
369.485403
 31
0.0
  0
LINE
  5
180
330
14E
100
AcDbEntity
  8
LC-006-005-----0
 62
     7
370
    25
100
AcDbLine
 10
245.494715
 20
253.979997
 30
0.0
 11
248.49456
 21
256.979841
 31
0.0
  0
LINE
  5
181
330
14E
100
AcDbEntity
  8
LC-006-005-----0
 62
     7
370
    25
100
AcDbLine
 10
250.331589
 20
258.81687
 30
0.0
 11
250.726651
 21
259.211932
 31
0.0
  0
LINE
  5
182
330
14E
100
AcDbEntity
  8
LC-006-005-----0
 62
     7
370
    25
100
AcDbLine
 10
252.779092
 20
261.264373
 30
0.0
 11
254.56774
 21
263.053022
 31
0.0
  0
LINE
  5
183
330
14E
100
AcDbEntity
  8
LC-006-005-----0
 62
     7
370
    25
100
AcDbLine
 10
300.993853
 20
309.479134
 30
0.0
 11
303.74456
 21
312.229841
 31
0.0
  0
LINE
  5
184
330
14E
100
AcDbEntity
  8
LC-006-005-----0
 62
     7
370
    25
100
AcDbLine
 10
357.896113
 20
366.381395
 30
0.0
 11
360.949874
 21
369.435155
 31
0.0
  0
LINE
  5
185
330
14E
100
AcDbEntity
  8
LC-006-005-----0
 62
     7
370
    25
100
AcDbLine
 10
245.494717
 20
256.808426
 30
0.0
 11
253.99456
 21
265.308268
 31
0.0
  0
LINE
  5
186
330
14E
100
AcDbEntity
  8
LC-006-005-----0
 62
     7
370
    25
100
AcDbLine
 10
300.993853
 20
312.307561
 30
0.0
 11
303.74456
 21
315.058268
 31
0.0
  0
LINE
  5
187
330
14E
100
AcDbEntity
  8
LC-006-005-----0
 62
     7
370
    25
100
AcDbLine
 10
355.017439
 20
366.331147
 30
0.0
 11
358.071199
 21
369.384908
 31
0.0
  0
LINE
  5
188
330
14E
100
AcDbEntity
  8
LC-006-005-----0
 62
     7
370
    25
100
AcDbLine
 10
245.661819
 20
259.803955
 30
0.0
 11
247.50746
 21
261.649595
 31
0.0
  0
LINE
  5
189
330
14E
100
AcDbEntity
  8
LC-006-005-----0
 62
     7
370
    25
100
AcDbLine
 10
251.030005
 20
265.17214
 30
0.0
 11
253.99456
 21
268.136695
 31
0.0
  0
LINE
  5
18A
330
14E
100
AcDbEntity
  8
LC-006-005-----0
 62
     7
370
    25
100
AcDbLine
 10
300.993853
 20
315.135989
 30
0.0
 11
303.74456
 21
317.886695
 31
0.0
  0
LINE
  5
18B
330
14E
100
AcDbEntity
  8
LC-006-005-----0
 62
     7
370
    25
100
AcDbLine
 10
352.138764
 20
366.2809
 30
0.0
 11
355.192525
 21
369.33466
 31
0.0
  0
LINE
  5
18C
330
14E
100
AcDbEntity
  8
LC-006-005-----0
 62
     7
370
    25
100
AcDbLine
 10
251.060201
 20
268.030764
 30
0.0
 11
253.99456
 21
270.965123
 31
0.0
  0
LINE
  5
18D
330
14E
100
AcDbEntity
  8
LC-006-005-----0
 62
     7
370
    25
100
AcDbLine
 10
300.993853
 20
317.964416
 30
0.0
 11
303.74456
 21
320.715123
 31
0.0
  0
LINE
  5
18E
330
14E
100
AcDbEntity
  8
LC-006-005-----0
 62
     7
370
    25
100
AcDbLine
 10
349.26009
 20
366.230652
 30
0.0
 11
352.31385
 21
369.284413
 31
0.0
  0
LINE
  5
18F
330
14E
100
AcDbEntity
  8
LC-006-005-----0
 62
     7
370
    25
100
AcDbLine
 10
251.090398
 20
270.889388
 30
0.0
 11
253.99456
 21
273.79355
 31
0.0
  0
LINE
  5
190
330
14E
100
AcDbEntity
  8
LC-006-005-----0
 62
     7
370
    25
100
AcDbLine
 10
300.993853
 20
320.792843
 30
0.0
 11
303.74456
 21
323.54355
 31
0.0
  0
LINE
  5
191
330
14E
100
AcDbEntity
  8
LC-006-005-----0
 62
     7
370
    25
100
AcDbLine
 10
346.381415
 20
366.180405
 30
0.0
 11
349.435176
 21
369.234165
 31
0.0
  0
LINE
  5
192
330
14E
100
AcDbEntity
  8
LC-006-005-----0
 62
     7
370
    25
100
AcDbLine
 10
251.120595
 20
273.748012
 30
0.0
 11
253.99456
 21
276.621977
 31
0.0
  0
LINE
  5
193
330
14E
100
AcDbEntity
  8
LC-006-005-----0
 62
     7
370
    25
100
AcDbLine
 10
300.993853
 20
323.62127
 30
0.0
 11
303.74456
 21
326.371977
 31
0.0
  0
LINE
  5
194
330
14E
100
AcDbEntity
  8
LC-006-005-----0
 62
     7
370
    25
100
AcDbLine
 10
343.50274
 20
366.130157
 30
0.0
 11
346.556501
 21
369.183918
 31
0.0
  0
LINE
  5
195
330
14E
100
AcDbEntity
  8
LC-006-005-----0
 62
     7
370
    25
100
AcDbLine
 10
251.150792
 20
276.606636
 30
0.0
 11
253.99456
 21
279.450404
 31
0.0
  0
LINE
  5
196
330
14E
100
AcDbEntity
  8
LC-006-005-----0
 62
     7
370
    25
100
AcDbLine
 10
300.993853
 20
326.449697
 30
0.0
 11
303.74456
 21
329.200404
 31
0.0
  0
LINE
  5
197
330
14E
100
AcDbEntity
  8
LC-006-005-----0
 62
     7
370
    25
100
AcDbLine
 10
340.624066
 20
366.07991
 30
0.0
 11
343.677826
 21
369.13367
 31
0.0
  0
LINE
  5
198
330
14E
100
AcDbEntity
  8
LC-006-005-----0
 62
     7
370
    25
100
AcDbLine
 10
251.180988
 20
279.46526
 30
0.0
 11
253.99456
 21
282.278831
 31
0.0
  0
LINE
  5
199
330
14E
100
AcDbEntity
  8
LC-006-005-----0
 62
     7
370
    25
100
AcDbLine
 10
300.993853
 20
329.278124
 30
0.0
 11
303.74456
 21
332.028831
 31
0.0
  0
LINE
  5
19A
330
14E
100
AcDbEntity
  8
LC-006-005-----0
 62
     7
370
    25
100
AcDbLine
 10
337.745391
 20
366.029662
 30
0.0
 11
340.799152
 21
369.083423
 31
0.0
  0
LINE
  5
19B
330
14E
100
AcDbEntity
  8
LC-006-005-----0
 62
     7
370
    25
100
AcDbLine
 10
251.211185
 20
282.323883
 30
0.0
 11
253.99456
 21
285.107258
 31
0.0
  0
LINE
  5
19C
330
14E
100
AcDbEntity
  8
LC-006-005-----0
 62
     7
370
    25
100
AcDbLine
 10
300.993853
 20
332.106551
 30
0.0
 11
307.507135
 21
338.619834
 31
0.0
  0
LINE
  5
19D
330
14E
100
AcDbEntity
  8
LC-006-005-----0
 62
     7
370
    25
100
AcDbLine
 10
334.866717
 20
365.979415
 30
0.0
 11
337.920477
 21
369.033176
 31
0.0
  0
LINE
  5
19E
330
14E
100
AcDbEntity
  8
LC-006-005-----0
 62
     7
370
    25
100
AcDbLine
 10
251.241382
 20
285.182507
 30
0.0
 11
253.99456
 21
287.935685
 31
0.0
  0
LINE
  5
19F
330
14E
100
AcDbEntity
  8
LC-006-005-----0
 62
     7
370
    25
100
AcDbLine
 10
300.993853
 20
334.934978
 30
0.0
 11
313.001567
 21
346.942693
 31
0.0
  0
LINE
  5
1A0
330
14E
100
AcDbEntity
  8
LC-006-005-----0
 62
     7
370
    25
100
AcDbLine
 10
330.12849
 20
364.069616
 30
0.0
 11
335.041803
 21
368.982928
 31
0.0
  0
LINE
  5
1A1
330
14E
100
AcDbEntity
  8
LC-006-005-----0
 62
     7
370
    25
100
AcDbLine
 10
251.271579
 20
288.041131
 30
0.0
 11
253.99456
 21
290.764112
 31
0.0
  0
LINE
  5
1A2
330
14E
100
AcDbEntity
  8
LC-006-005-----0
 62
     7
370
    25
100
AcDbLine
 10
301.551567
 20
338.32112
 30
0.0
 11
308.697143
 21
345.466696
 31
0.0
  0
LINE
  5
1A3
330
14E
100
AcDbEntity
  8
LC-006-005-----0
 62
     7
370
    25
100
AcDbLine
 10
310.251567
 20
347.02112
 30
0.0
 11
313.001567
 21
349.77112
 31
0.0
  0
LINE
  5
1A4
330
14E
100
AcDbEntity
  8
LC-006-005-----0
 62
     7
370
    25
100
AcDbLine
 10
327.08741
 20
363.856963
 30
0.0
 11
330.320839
 21
367.090392
 31
0.0
  0
LINE
  5
1A5
330
14E
100
AcDbEntity
  8
LC-006-005-----0
 62
     7
370
    25
100
AcDbLine
 10
251.301775
 20
290.899755
 30
0.0
 11
253.99456
 21
293.59254
 31
0.0
  0
LINE
  5
1A6
330
14E
100
AcDbEntity
  8
LC-006-005-----0
 62
     7
370
    25
100
AcDbLine
 10
300.551567
 20
340.149547
 30
0.0
 11
305.868716
 21
345.466696
 31
0.0
  0
LINE
  5
1A7
330
14E
100
AcDbEntity
  8
LC-006-005-----0
 62
     7
370
    25
100
AcDbLine
 10
310.251567
 20
349.849547
 30
0.0
 11
313.006306
 21
352.604285
 31
0.0
  0
LINE
  5
1A8
330
14E
100
AcDbEntity
  8
LC-006-005-----0
 62
     7
370
    25
100
AcDbLine
 10
314.863978
 20
354.461957
 30
0.0
 11
318.304739
 21
357.902719
 31
0.0
  0
LINE
  5
1A9
330
14E
100
AcDbEntity
  8
LC-006-005-----0
 62
     7
370
    25
100
AcDbLine
 10
324.04633
 20
363.64431
 30
0.0
 11
327.279759
 21
366.877739
 31
0.0
  0
LINE
  5
1AA
330
14E
100
AcDbEntity
  8
LC-006-005-----0
 62
     7
370
    25
100
AcDbLine
 10
251.331972
 20
293.758379
 30
0.0
 11
253.99456
 21
296.420967
 31
0.0
  0
LINE
  5
1AB
330
14E
100
AcDbEntity
  8
LC-006-005-----0
 62
     7
370
    25
100
AcDbLine
 10
300.652075
 20
343.078482
 30
0.0
 11
303.040289
 21
345.466696
 31
0.0
  0
LINE
  5
1AC
330
14E
100
AcDbEntity
  8
LC-006-005-----0
 62
     7
370
    25
100
AcDbLine
 10
310.251567
 20
352.677974
 30
0.0
 11
314.579345
 21
357.005752
 31
0.0
  0
LINE
  5
1AD
330
14E
100
AcDbEntity
  8
LC-006-005-----0
 62
     7
370
    25
100
AcDbLine
 10
315.263547
 20
357.689954
 30
0.0
 11
318.461169
 21
360.887576
 31
0.0
  0
LINE
  5
1AE
330
14E
100
AcDbEntity
  8
LC-006-005-----0
 62
     7
370
    25
100
AcDbLine
 10
321.00525
 20
363.431657
 30
0.0
 11
324.238679
 21
366.665086
 31
0.0
  0
LINE
  5
1AF
330
14E
100
AcDbEntity
  8
LC-006-005-----0
 62
     7
370
    25
100
AcDbLine
 10
251.362169
 20
296.617003
 30
0.0
 11
253.99456
 21
299.249394
 31
0.0
  0
LINE
  5
1B0
330
14E
100
AcDbEntity
  8
LC-006-005-----0
 62
     7
370
    25
100
AcDbLine
 10
310.251567
 20
355.506401
 30
0.0
 11
312.250185
 21
357.505019
 31
0.0
  0
LINE
  5
1B1
330
14E
100
AcDbEntity
  8
LC-006-005-----0
 62
     7
370
    25
100
AcDbLine
 10
315.447335
 20
360.702169
 30
0.0
 11
321.197599
 21
366.452433
 31
0.0
  0
LINE
  5
1B2
330
14E
100
AcDbEntity
  8
LC-006-005-----0
 62
     7
370
    25
100
AcDbLine
 10
251.392365
 20
299.475627
 30
0.0
 11
253.99456
 21
302.077821
 31
0.0
  0
LINE
  5
1B3
330
14E
100
AcDbEntity
  8
LC-006-005-----0
 62
     7
370
    25
100
AcDbLine
 10
310.251567
 20
358.334828
 30
0.0
 11
312.250185
 21
360.333447
 31
0.0
  0
LINE
  5
1B4
330
14E
100
AcDbEntity
  8
LC-006-005-----0
 62
     7
370
    25
100
AcDbLine
 10
315.603765
 20
363.687026
 30
0.0
 11
318.156519
 21
366.23978
 31
0.0
  0
LINE
  5
1B5
330
14E
100
AcDbEntity
  8
LC-006-005-----0
 62
     7
370
    25
100
AcDbLine
 10
251.422562
 20
302.33425
 30
0.0
 11
253.99456
 21
304.906248
 31
0.0
  0
LINE
  5
1B6
330
14E
100
AcDbEntity
  8
LC-006-005-----0
 62
     7
370
    25
100
AcDbLine
 10
310.251567
 20
361.163256
 30
0.0
 11
312.055008
 21
362.966696
 31
0.0
  0
LINE
  5
1B7
330
14E
100
AcDbEntity
  8
LC-006-005-----0
 62
     7
370
    25
100
AcDbLine
 10
251.452759
 20
305.192874
 30
0.0
 11
253.99456
 21
307.734675
 31
0.0
  0
LINE
  5
1B8
330
14E
100
AcDbEntity
  8
LC-006-005-----0
 62
     7
370
    25
100
AcDbLine
 10
251.482956
 20
308.051498
 30
0.0
 11
253.99456
 21
310.563102
 31
0.0
  0
LINE
  5
1B9
330
14E
100
AcDbEntity
  8
LC-006-005-----0
 62
     7
370
    25
100
AcDbLine
 10
251.513152
 20
310.910122
 30
0.0
 11
253.99456
 21
313.391529
 31
0.0
  0
LINE
  5
1BA
330
14E
100
AcDbEntity
  8
LC-006-005-----0
 62
     7
370
    25
100
AcDbLine
 10
251.543349
 20
313.768746
 30
0.0
 11
253.99456
 21
316.219957
 31
0.0
  0
LINE
  5
1BB
330
14E
100
AcDbEntity
  8
LC-006-005-----0
 62
     7
370
    25
100
AcDbLine
 10
251.573546
 20
316.62737
 30
0.0
 11
253.99456
 21
319.048384
 31
0.0
  0
LINE
  5
1BC
330
14E
100
AcDbEntity
  8
LC-006-005-----0
 62
     7
370
    25
100
AcDbLine
 10
251.603743
 20
319.485994
 30
0.0
 11
253.99456
 21
321.876811
 31
0.0
  0
LINE
  5
1BD
330
14E
100
AcDbEntity
  8
LC-006-005-----0
 62
     7
370
    25
100
AcDbLine
 10
251.633939
 20
322.344617
 30
0.0
 11
253.99456
 21
324.705238
 31
0.0
  0
LINE
  5
1BE
330
14E
100
AcDbEntity
  8
LC-006-005-----0
 62
     7
370
    25
100
AcDbLine
 10
251.664136
 20
325.203241
 30
0.0
 11
253.99456
 21
327.533665
 31
0.0
  0
LINE
  5
1BF
330
14E
100
AcDbEntity
  8
LC-006-005-----0
 62
     7
370
    25
100
AcDbLine
 10
251.694333
 20
328.061865
 30
0.0
 11
253.99456
 21
330.362092
 31
0.0
  0
LINE
  5
1C0
330
14E
100
AcDbEntity
  8
LC-006-005-----0
 62
     7
370
    25
100
AcDbLine
 10
251.724529
 20
330.920489
 30
0.0
 11
253.99456
 21
333.190519
 31
0.0
  0
LINE
  5
1C1
330
14E
100
AcDbEntity
  8
LC-006-005-----0
 62
     7
370
    25
100
AcDbLine
 10
251.754726
 20
333.779113
 30
0.0
 11
253.99456
 21
336.018946
 31
0.0
  0
LINE
  5
1C2
330
14E
100
AcDbEntity
  8
LC-006-005-----0
 62
     7
370
    25
100
AcDbLine
 10
251.126
 20
335.978814
 30
0.0
 11
251.963882
 21
336.816696
 31
0.0
  0
ENDBLK
  5
150
330
14E
100
AcDbEntity
  8
0
100
AcDbBlockEnd
  0
BLOCK
  5
1EA
330
1E9
100
AcDbEntity
  8
0
100
AcDbBlockBegin
  2
*X33
 70
     1
 71
     0
 10
0.0
 20
0.0
 30
0.0
  3
*X33
  1

  4
*X3
  0
LINE
  5
1EC
330
1E9
100
AcDbEntity
  8
LC-006-005-----0
 62
     7
370
    25
100
AcDbLine
 10
264.689488
 20
287.316905
 30
0.0
 11
264.963586
 21
287.591003
 31
0.0
  0
LINE
  5
1ED
330
1E9
100
AcDbEntity
  8
LC-006-005-----0
 62
     7
370
    25
100
AcDbLine
 10
263.963746
 20
289.419591
 30
0.0
 11
264.963588
 21
290.419432
 31
0.0
  0
LINE
  5
1EE
330
1E9
100
AcDbEntity
  8
LC-006-005-----0
 62
     7
370
    25
100
AcDbLine
 10
263.963741
 20
292.248012
 30
0.0
 11
264.96359
 21
293.247861
 31
0.0
  0
LINE
  5
1EF
330
1E9
100
AcDbEntity
  8
LC-006-005-----0
 62
     7
370
    25
100
AcDbLine
 10
263.963735
 20
295.076433
 30
0.0
 11
264.963592
 21
296.07629
 31
0.0
  0
LINE
  5
1F0
330
1E9
100
AcDbEntity
  8
LC-006-005-----0
 62
     7
370
    25
100
AcDbLine
 10
263.963729
 20
297.904854
 30
0.0
 11
264.963594
 21
298.904719
 31
0.0
  0
LINE
  5
1F1
330
1E9
100
AcDbEntity
  8
LC-006-005-----0
 62
     7
370
    25
100
AcDbLine
 10
263.963723
 20
300.733276
 30
0.0
 11
264.963595
 21
301.733148
 31
0.0
  0
LINE
  5
1F2
330
1E9
100
AcDbEntity
  8
LC-006-005-----0
 62
     7
370
    25
100
AcDbLine
 10
263.963717
 20
303.561697
 30
0.0
 11
264.963597
 21
304.561577
 31
0.0
  0
LINE
  5
1F3
330
1E9
100
AcDbEntity
  8
LC-006-005-----0
 62
     7
370
    25
100
AcDbLine
 10
263.963711
 20
306.390118
 30
0.0
 11
264.963599
 21
307.390006
 31
0.0
  0
LINE
  5
1F4
330
1E9
100
AcDbEntity
  8
LC-006-005-----0
 62
     7
370
    25
100
AcDbLine
 10
263.963705
 20
309.218539
 30
0.0
 11
264.963601
 21
310.218435
 31
0.0
  0
LINE
  5
1F5
330
1E9
100
AcDbEntity
  8
LC-006-005-----0
 62
     7
370
    25
100
AcDbLine
 10
263.9637
 20
312.046961
 30
0.0
 11
264.963603
 21
313.046864
 31
0.0
  0
LINE
  5
1F6
330
1E9
100
AcDbEntity
  8
LC-006-005-----0
 62
     7
370
    25
100
AcDbLine
 10
263.963694
 20
314.875382
 30
0.0
 11
264.963605
 21
315.875293
 31
0.0
  0
LINE
  5
1F7
330
1E9
100
AcDbEntity
  8
LC-006-005-----0
 62
     7
370
    25
100
AcDbLine
 10
263.963688
 20
317.703803
 30
0.0
 11
264.963607
 21
318.703722
 31
0.0
  0
LINE
  5
1F8
330
1E9
100
AcDbEntity
  8
LC-006-005-----0
 62
     7
370
    25
100
AcDbLine
 10
263.963682
 20
320.532225
 30
0.0
 11
264.963608
 21
321.532151
 31
0.0
  0
LINE
  5
1F9
330
1E9
100
AcDbEntity
  8
LC-006-005-----0
 62
     7
370
    25
100
AcDbLine
 10
263.963676
 20
323.360646
 30
0.0
 11
264.96361
 21
324.36058
 31
0.0
  0
LINE
  5
1FA
330
1E9
100
AcDbEntity
  8
LC-006-005-----0
 62
     7
370
    25
100
AcDbLine
 10
263.96367
 20
326.189067
 30
0.0
 11
264.963612
 21
327.189009
 31
0.0
  0
LINE
  5
1FB
330
1E9
100
AcDbEntity
  8
LC-006-005-----0
 62
     7
370
    25
100
AcDbLine
 10
263.963664
 20
329.017488
 30
0.0
 11
264.963614
 21
330.017438
 31
0.0
  0
LINE
  5
1FC
330
1E9
100
AcDbEntity
  8
LC-006-005-----0
 62
     7
370
    25
100
AcDbLine
 10
263.963659
 20
331.84591
 30
0.0
 11
264.963616
 21
332.845867
 31
0.0
  0
LINE
  5
1FD
330
1E9
100
AcDbEntity
  8
LC-006-005-----0
 62
     7
370
    25
100
AcDbLine
 10
263.963653
 20
334.674331
 30
0.0
 11
264.963618
 21
335.674296
 31
0.0
  0
LINE
  5
1FE
330
1E9
100
AcDbEntity
  8
LC-006-005-----0
 62
     7
370
    25
100
AcDbLine
 10
263.963647
 20
337.502752
 30
0.0
 11
264.963619
 21
338.502725
 31
0.0
  0
LINE
  5
1FF
330
1E9
100
AcDbEntity
  8
LC-006-005-----0
 62
     7
370
    25
100
AcDbLine
 10
263.963641
 20
340.331173
 30
0.0
 11
264.963621
 21
341.331154
 31
0.0
  0
LINE
  5
200
330
1E9
100
AcDbEntity
  8
LC-006-005-----0
 62
     7
370
    25
100
AcDbLine
 10
263.963635
 20
343.159595
 30
0.0
 11
264.963623
 21
344.159583
 31
0.0
  0
LINE
  5
201
330
1E9
100
AcDbEntity
  8
LC-006-005-----0
 62
     7
370
    25
100
AcDbLine
 10
263.963629
 20
345.988016
 30
0.0
 11
264.963625
 21
346.988012
 31
0.0
  0
LINE
  5
202
330
1E9
100
AcDbEntity
  8
LC-006-005-----0
 62
     7
370
    25
100
AcDbLine
 10
263.865007
 20
348.71782
 30
0.0
 11
264.744876
 21
349.59769
 31
0.0
  0
LINE
  5
203
330
1E9
100
AcDbEntity
  8
LC-006-005-----0
 62
     7
370
    25
100
AcDbLine
 10
263.277057
 20
350.958298
 30
0.0
 11
264.10162
 21
351.782861
 31
0.0
  0
LINE
  5
204
330
1E9
100
AcDbEntity
  8
LC-006-005-----0
 62
     7
370
    25
100
AcDbLine
 10
262.312066
 20
352.821734
 30
0.0
 11
263.150202
 21
353.65987
 31
0.0
  0
LINE
  5
205
330
1E9
100
AcDbEntity
  8
LC-006-005-----0
 62
     7
370
    25
100
AcDbLine
 10
261.042263
 20
354.380358
 30
0.0
 11
261.941286
 21
355.279381
 31
0.0
  0
LINE
  5
206
330
1E9
100
AcDbEntity
  8
LC-006-005-----0
 62
     7
370
    25
100
AcDbLine
 10
259.48673
 20
355.653253
 30
0.0
 11
260.493691
 21
356.660214
 31
0.0
  0
LINE
  5
207
330
1E9
100
AcDbEntity
  8
LC-006-005-----0
 62
     7
370
    25
100
AcDbLine
 10
257.626813
 20
356.621762
 30
0.0
 11
258.80449
 21
357.799439
 31
0.0
  0
LINE
  5
208
330
1E9
100
AcDbEntity
  8
LC-006-005-----0
 62
     7
370
    25
100
AcDbLine
 10
255.391084
 20
357.214461
 30
0.0
 11
256.847566
 21
358.670942
 31
0.0
  0
LINE
  5
209
330
1E9
100
AcDbEntity
  8
LC-006-005-----0
 62
     7
370
    25
100
AcDbLine
 10
182.665007
 20
287.316811
 30
0.0
 11
182.963585
 21
287.615389
 31
0.0
  0
LINE
  5
20A
330
1E9
100
AcDbEntity
  8
LC-006-005-----0
 62
     7
370
    25
100
AcDbLine
 10
224.164892
 20
328.816696
 30
0.0
 11
224.899276
 21
329.55108
 31
0.0
  0
LINE
  5
20B
330
1E9
100
AcDbEntity
  8
LC-006-005-----0
 62
     7
370
    25
100
AcDbLine
 10
252.665063
 20
357.316867
 30
0.0
 11
254.558594
 21
359.210398
 31
0.0
  0
LINE
  5
20C
330
1E9
100
AcDbEntity
  8
LC-006-005-----0
 62
     7
370
    25
100
AcDbLine
 10
181.96358
 20
289.443811
 30
0.0
 11
182.963577
 21
290.443808
 31
0.0
  0
LINE
  5
20D
330
1E9
100
AcDbEntity
  8
LC-006-005-----0
 62
     7
370
    25
100
AcDbLine
 10
221.336465
 20
328.816696
 30
0.0
 11
224.900042
 21
332.380273
 31
0.0
  0
LINE
  5
20E
330
1E9
100
AcDbEntity
  8
LC-006-005-----0
 62
     7
370
    25
100
AcDbLine
 10
249.836636
 20
357.316867
 30
0.0
 11
251.836637
 21
359.316868
 31
0.0
  0
LINE
  5
20F
330
1E9
100
AcDbEntity
  8
LC-006-005-----0
 62
     7
370
    25
100
AcDbLine
 10
181.963572
 20
292.27223
 30
0.0
 11
182.963569
 21
293.272227
 31
0.0
  0
LINE
  5
210
330
1E9
100
AcDbEntity
  8
LC-006-005-----0
 62
     7
370
    25
100
AcDbLine
 10
218.508038
 20
328.816696
 30
0.0
 11
224.900808
 21
335.209465
 31
0.0
  0
LINE
  5
211
330
1E9
100
AcDbEntity
  8
LC-006-005-----0
 62
     7
370
    25
100
AcDbLine
 10
247.008209
 20
357.316867
 30
0.0
 11
249.008212
 21
359.31687
 31
0.0
  0
LINE
  5
212
330
1E9
100
AcDbEntity
  8
LC-006-005-----0
 62
     7
370
    25
100
AcDbLine
 10
181.963564
 20
295.100649
 30
0.0
 11
182.963561
 21
296.100646
 31
0.0
  0
LINE
  5
213
330
1E9
100
AcDbEntity
  8
LC-006-005-----0
 62
     7
370
    25
100
AcDbLine
 10
215.679611
 20
328.816696
 30
0.0
 11
224.901573
 21
338.038658
 31
0.0
  0
LINE
  5
214
330
1E9
100
AcDbEntity
  8
LC-006-005-----0
 62
     7
370
    25
100
AcDbLine
 10
244.179782
 20
357.316867
 30
0.0
 11
246.179787
 21
359.316872
 31
0.0
  0
LINE
  5
215
330
1E9
100
AcDbEntity
  8
LC-006-005-----0
 62
     7
370
    25
100
AcDbLine
 10
181.963556
 20
297.929068
 30
0.0
 11
182.963553
 21
298.929065
 31
0.0
  0
LINE
  5
216
330
1E9
100
AcDbEntity
  8
LC-006-005-----0
 62
     7
370
    25
100
AcDbLine
 10
212.851184
 20
328.816696
 30
0.0
 11
224.902339
 21
340.867851
 31
0.0
  0
LINE
  5
217
330
1E9
100
AcDbEntity
  8
LC-006-005-----0
 62
     7
370
    25
100
AcDbLine
 10
241.351355
 20
357.316867
 30
0.0
 11
243.351362
 21
359.316874
 31
0.0
  0
LINE
  5
218
330
1E9
100
AcDbEntity
  8
LC-006-005-----0
 62
     7
370
    25
100
AcDbLine
 10
181.963548
 20
300.757487
 30
0.0
 11
182.963545
 21
301.757484
 31
0.0
  0
LINE
  5
219
330
1E9
100
AcDbEntity
  8
LC-006-005-----0
 62
     7
370
    25
100
AcDbLine
 10
210.022757
 20
328.816696
 30
0.0
 11
224.903105
 21
343.697044
 31
0.0
  0
LINE
  5
21A
330
1E9
100
AcDbEntity
  8
LC-006-005-----0
 62
     7
370
    25
100
AcDbLine
 10
238.522928
 20
357.316867
 30
0.0
 11
240.522937
 21
359.316876
 31
0.0
  0
LINE
  5
21B
330
1E9
100
AcDbEntity
  8
LC-006-005-----0
 62
     7
370
    25
100
AcDbLine
 10
181.96354
 20
303.585906
 30
0.0
 11
182.963537
 21
304.585903
 31
0.0
  0
LINE
  5
21C
330
1E9
100
AcDbEntity
  8
LC-006-005-----0
 62
     7
370
    25
100
AcDbLine
 10
207.194329
 20
328.816696
 30
0.0
 11
224.903871
 21
346.526237
 31
0.0
  0
LINE
  5
21D
330
1E9
100
AcDbEntity
  8
LC-006-005-----0
 62
     7
370
    25
100
AcDbLine
 10
235.694501
 20
357.316867
 30
0.0
 11
237.694511
 21
359.316878
 31
0.0
  0
LINE
  5
21E
330
1E9
100
AcDbEntity
  8
LC-006-005-----0
 62
     7
370
    25
100
AcDbLine
 10
181.963532
 20
306.414325
 30
0.0
 11
182.963529
 21
307.414323
 31
0.0
  0
LINE
  5
21F
330
1E9
100
AcDbEntity
  8
LC-006-005-----0
 62
     7
370
    25
100
AcDbLine
 10
204.365902
 20
328.816696
 30
0.0
 11
224.904637
 21
349.35543
 31
0.0
  0
LINE
  5
220
330
1E9
100
AcDbEntity
  8
LC-006-005-----0
 62
     7
370
    25
100
AcDbLine
 10
232.866074
 20
357.316867
 30
0.0
 11
237.124917
 21
361.575711
 31
0.0
  0
LINE
  5
221
330
1E9
100
AcDbEntity
  8
LC-006-005-----0
 62
     7
370
    25
100
AcDbLine
 10
181.963524
 20
309.242745
 30
0.0
 11
182.963521
 21
310.242742
 31
0.0
  0
LINE
  5
222
330
1E9
100
AcDbEntity
  8
LC-006-005-----0
 62
     7
370
    25
100
AcDbLine
 10
201.537475
 20
328.816696
 30
0.0
 11
224.905402
 21
352.184623
 31
0.0
  0
LINE
  5
223
330
1E9
100
AcDbEntity
  8
LC-006-005-----0
 62
     7
370
    25
100
AcDbLine
 10
230.037646
 20
357.316867
 30
0.0
 11
232.037661
 21
359.316882
 31
0.0
  0
LINE
  5
224
330
1E9
100
AcDbEntity
  8
LC-006-005-----0
 62
     7
370
    25
100
AcDbLine
 10
233.210422
 20
360.489643
 30
0.0
 11
236.514597
 21
363.793817
 31
0.0
  0
LINE
  5
225
330
1E9
100
AcDbEntity
  8
LC-006-005-----0
 62
     7
370
    25
100
AcDbLine
 10
181.963516
 20
312.071164
 30
0.0
 11
182.963513
 21
313.071161
 31
0.0
  0
LINE
  5
226
330
1E9
100
AcDbEntity
  8
LC-006-005-----0
 62
     7
370
    25
100
AcDbLine
 10
198.709048
 20
328.816696
 30
0.0
 11
224.906168
 21
355.013816
 31
0.0
  0
LINE
  5
227
330
1E9
100
AcDbEntity
  8
LC-006-005-----0
 62
     7
370
    25
100
AcDbLine
 10
227.209219
 20
357.316867
 30
0.0
 11
229.209236
 21
359.316884
 31
0.0
  0
LINE
  5
228
330
1E9
100
AcDbEntity
  8
LC-006-005-----0
 62
     7
370
    25
100
AcDbLine
 10
232.603039
 20
362.710687
 30
0.0
 11
235.496481
 21
365.604129
 31
0.0
  0
LINE
  5
229
330
1E9
100
AcDbEntity
  8
LC-006-005-----0
 62
     7
370
    25
100
AcDbLine
 10
181.963508
 20
314.899583
 30
0.0
 11
182.963505
 21
315.89958
 31
0.0
  0
LINE
  5
22A
330
1E9
100
AcDbEntity
  8
LC-006-005-----0
 62
     7
370
    25
100
AcDbLine
 10
196.482306
 20
329.418381
 30
0.0
 11
226.380811
 21
359.316886
 31
0.0
  0
LINE
  5
22B
330
1E9
100
AcDbEntity
  8
LC-006-005-----0
 62
     7
370
    25
100
AcDbLine
 10
231.307946
 20
364.244021
 30
0.0
 11
234.147342
 21
367.083417
 31
0.0
  0
LINE
  5
22C
330
1E9
100
AcDbEntity
  8
LC-006-005-----0
 62
     7
370
    25
100
AcDbLine
 10
181.9635
 20
317.728002
 30
0.0
 11
182.963497
 21
318.727999
 31
0.0
  0
LINE
  5
22D
330
1E9
100
AcDbEntity
  8
LC-006-005-----0
 62
     7
370
    25
100
AcDbLine
 10
195.884589
 20
331.649091
 30
0.0
 11
223.552386
 21
359.316888
 31
0.0
  0
LINE
  5
22E
330
1E9
100
AcDbEntity
  8
LC-006-005-----0
 62
     7
370
    25
100
AcDbLine
 10
229.407514
 20
365.172016
 30
0.0
 11
232.477791
 21
368.242293
 31
0.0
  0
LINE
  5
22F
330
1E9
100
AcDbEntity
  8
LC-006-005-----0
 62
     7
370
    25
100
AcDbLine
 10
181.963492
 20
320.556421
 30
0.0
 11
182.963489
 21
321.556418
 31
0.0
  0
LINE
  5
230
330
1E9
100
AcDbEntity
  8
LC-006-005-----0
 62
     7
370
    25
100
AcDbLine
 10
195.705705
 20
334.298634
 30
0.0
 11
220.723767
 21
359.316696
 31
0.0
  0
LINE
  5
231
330
1E9
100
AcDbEntity
  8
LC-006-005-----0
 62
     7
370
    25
100
AcDbLine
 10
226.723767
 20
365.316696
 30
0.0
 11
230.443179
 21
369.036108
 31
0.0
  0
LINE
  5
232
330
1E9
100
AcDbEntity
  8
LC-006-005-----0
 62
     7
370
    25
100
AcDbLine
 10
181.963484
 20
323.38484
 30
0.0
 11
182.963481
 21
324.384837
 31
0.0
  0
LINE
  5
233
330
1E9
100
AcDbEntity
  8
LC-006-005-----0
 62
     7
370
    25
100
AcDbLine
 10
195.39534
 20
336.816696
 30
0.0
 11
217.89534
 21
359.316696
 31
0.0
  0
LINE
  5
234
330
1E9
100
AcDbEntity
  8
LC-006-005-----0
 62
     7
370
    25
100
AcDbLine
 10
223.89534
 20
365.316696
 30
0.0
 11
227.89534
 21
369.316696
 31
0.0
  0
LINE
  5
235
330
1E9
100
AcDbEntity
  8
LC-006-005-----0
 62
     7
370
    25
100
AcDbLine
 10
181.963476
 20
326.213259
 30
0.0
 11
182.963473
 21
327.213256
 31
0.0
  0
LINE
  5
236
330
1E9
100
AcDbEntity
  8
LC-006-005-----0
 62
     7
370
    25
100
AcDbLine
 10
192.566912
 20
336.816696
 30
0.0
 11
215.066912
 21
359.316696
 31
0.0
  0
LINE
  5
237
330
1E9
100
AcDbEntity
  8
LC-006-005-----0
 62
     7
370
    25
100
AcDbLine
 10
221.066912
 20
365.316696
 30
0.0
 11
225.066913
 21
369.316696
 31
0.0
  0
LINE
  5
238
330
1E9
100
AcDbEntity
  8
LC-006-005-----0
 62
     7
370
    25
100
AcDbLine
 10
181.963468
 20
329.041678
 30
0.0
 11
182.963465
 21
330.041675
 31
0.0
  0
LINE
  5
239
330
1E9
100
AcDbEntity
  8
LC-006-005-----0
 62
     7
370
    25
100
AcDbLine
 10
192.20637
 20
339.28458
 30
0.0
 11
213.73848
 21
360.81669
 31
0.0
  0
LINE
  5
23A
330
1E9
100
AcDbEntity
  8
LC-006-005-----0
 62
     7
370
    25
100
AcDbLine
 10
218.213423
 20
365.291634
 30
0.0
 11
222.238485
 21
369.316696
 31
0.0
  0
LINE
  5
23B
330
1E9
100
AcDbEntity
  8
LC-006-005-----0
 62
     7
370
    25
100
AcDbLine
 10
181.96346
 20
331.870097
 30
0.0
 11
182.963457
 21
332.870095
 31
0.0
  0
LINE
  5
23C
330
1E9
100
AcDbEntity
  8
LC-006-005-----0
 62
     7
370
    25
100
AcDbLine
 10
192.207135
 20
342.113773
 30
0.0
 11
209.410058
 21
359.316696
 31
0.0
  0
LINE
  5
23D
330
1E9
100
AcDbEntity
  8
LC-006-005-----0
 62
     7
370
    25
100
AcDbLine
 10
209.713418
 20
359.620055
 30
0.0
 11
219.410058
 21
369.316696
 31
0.0
  0
LINE
  5
23E
330
1E9
100
AcDbEntity
  8
LC-006-005-----0
 62
     7
370
    25
100
AcDbLine
 10
181.963452
 20
334.698517
 30
0.0
 11
182.963449
 21
335.698514
 31
0.0
  0
LINE
  5
23F
330
1E9
100
AcDbEntity
  8
LC-006-005-----0
 62
     7
370
    25
100
AcDbLine
 10
192.207901
 20
344.942966
 30
0.0
 11
206.581631
 21
359.316696
 31
0.0
  0
LINE
  5
240
330
1E9
100
AcDbEntity
  8
LC-006-005-----0
 62
     7
370
    25
100
AcDbLine
 10
210.06194
 20
362.797004
 30
0.0
 11
216.233109
 21
368.968174
 31
0.0
  0
LINE
  5
241
330
1E9
100
AcDbEntity
  8
LC-006-005-----0
 62
     7
370
    25
100
AcDbLine
 10
181.963444
 20
337.526936
 30
0.0
 11
182.963441
 21
338.526933
 31
0.0
  0
LINE
  5
242
330
1E9
100
AcDbEntity
  8
LC-006-005-----0
 62
     7
370
    25
100
AcDbLine
 10
192.208667
 20
347.772159
 30
0.0
 11
203.753204
 21
359.316696
 31
0.0
  0
LINE
  5
243
330
1E9
100
AcDbEntity
  8
LC-006-005-----0
 62
     7
370
    25
100
AcDbLine
 10
181.963436
 20
340.355355
 30
0.0
 11
182.963433
 21
341.355352
 31
0.0
  0
LINE
  5
244
330
1E9
100
AcDbEntity
  8
LC-006-005-----0
 62
     7
370
    25
100
AcDbLine
 10
192.209433
 20
350.601352
 30
0.0
 11
200.924777
 21
359.316696
 31
0.0
  0
LINE
  5
245
330
1E9
100
AcDbEntity
  8
LC-006-005-----0
 62
     7
370
    25
100
AcDbLine
 10
181.963428
 20
343.183774
 30
0.0
 11
182.963425
 21
344.183771
 31
0.0
  0
LINE
  5
246
330
1E9
100
AcDbEntity
  8
LC-006-005-----0
 62
     7
370
    25
100
AcDbLine
 10
192.210199
 20
353.430545
 30
0.0
 11
198.09635
 21
359.316696
 31
0.0
  0
LINE
  5
247
330
1E9
100
AcDbEntity
  8
LC-006-005-----0
 62
     7
370
    25
100
AcDbLine
 10
181.96342
 20
346.012193
 30
0.0
 11
182.963417
 21
347.01219
 31
0.0
  0
LINE
  5
248
330
1E9
100
AcDbEntity
  8
LC-006-005-----0
 62
     7
370
    25
100
AcDbLine
 10
192.210964
 20
356.259738
 30
0.0
 11
195.267923
 21
359.316696
 31
0.0
  0
LINE
  5
249
330
1E9
100
AcDbEntity
  8
LC-006-005-----0
 62
     7
370
    25
100
AcDbLine
 10
182.075454
 20
348.952654
 30
0.0
 11
183.416969
 21
350.294169
 31
0.0
  0
LINE
  5
24A
330
1E9
100
AcDbEntity
  8
LC-006-005-----0
 62
     7
370
    25
100
AcDbLine
 10
189.985943
 20
356.863143
 30
0.0
 11
192.327457
 21
359.204658
 31
0.0
  0
LINE
  5
24B
330
1E9
100
AcDbEntity
  8
LC-006-005-----0
 62
     7
370
    25
100
AcDbLine
 10
183.517841
 20
353.223469
 30
0.0
 11
188.056643
 21
357.762271
 31
0.0
  0
ENDBLK
  5
1EB
330
1E9
100
AcDbEntity
  8
0
100
AcDbBlockEnd
  0
BLOCK
  5
29F
330
29E
100
AcDbEntity
  8
0
100
AcDbBlockBegin
  2
*X44
 70
     1
 71
     0
 10
0.0
 20
0.0
 30
0.0
  3
*X44
  1

  4
*X4
  0
LINE
  5
2A1
330
29E
100
AcDbEntity
  8
LC-006-005-----0
 62
     7
370
    25
100
AcDbLine
 10
300.433944
 20
345.688778
 30
0.0
 11
302.463416
 21
347.71825
 31
0.0
  0
LINE
  5
2A2
330
29E
100
AcDbEntity
  8
LC-006-005-----0
 62
     7
370
    25
100
AcDbLine
 10
313.433944
 20
358.688778
 30
0.0
 11
314.343337
 21
359.598171
 31
0.0
  0
LINE
  5
2A3
330
29E
100
AcDbEntity
  8
LC-006-005-----0
 62
     7
370
    25
100
AcDbLine
 10
297.605517
 20
345.688778
 30
0.0
 11
302.463416
 21
350.546677
 31
0.0
  0
LINE
  5
2A4
330
29E
100
AcDbEntity
  8
LC-006-005-----0
 62
     7
370
    25
100
AcDbLine
 10
312.463201
 20
360.546462
 30
0.0
 11
314.814773
 21
362.898034
 31
0.0
  0
LINE
  5
2A5
330
29E
100
AcDbEntity
  8
LC-006-005-----0
 62
     7
370
    25
100
AcDbLine
 10
294.777089
 20
345.688778
 30
0.0
 11
302.463416
 21
353.375104
 31
0.0
  0
LINE
  5
2A6
330
29E
100
AcDbEntity
  8
LC-006-005-----0
 62
     7
370
    25
100
AcDbLine
 10
312.049328
 20
362.961016
 30
0.0
 11
314.743852
 21
365.65554
 31
0.0
  0
LINE
  5
2A7
330
29E
100
AcDbEntity
  8
LC-006-005-----0
 62
     7
370
    25
100
AcDbLine
 10
292.963416
 20
346.703531
 30
0.0
 11
294.948662
 21
348.688778
 31
0.0
  0
LINE
  5
2A8
330
29E
100
AcDbEntity
  8
LC-006-005-----0
 62
     7
370
    25
100
AcDbLine
 10
295.713416
 20
349.453531
 30
0.0
 11
302.463416
 21
356.203531
 31
0.0
  0
LINE
  5
2A9
330
29E
100
AcDbEntity
  8
LC-006-005-----0
 62
     7
370
    25
100
AcDbLine
 10
309.008248
 20
362.748363
 30
0.0
 11
311.702772
 21
365.442887
 31
0.0
  0
LINE
  5
2AA
330
29E
100
AcDbEntity
  8
LC-006-005-----0
 62
     7
370
    25
100
AcDbLine
 10
295.713416
 20
352.281959
 30
0.0
 11
302.463416
 21
359.031959
 31
0.0
  0
LINE
  5
2AB
330
29E
100
AcDbEntity
  8
LC-006-005-----0
 62
     7
370
    25
100
AcDbLine
 10
305.967168
 20
362.53571
 30
0.0
 11
308.661692
 21
365.230234
 31
0.0
  0
LINE
  5
2AC
330
29E
100
AcDbEntity
  8
LC-006-005-----0
 62
     7
370
    25
100
AcDbLine
 10
295.713416
 20
355.110386
 30
0.0
 11
302.463416
 21
361.860386
 31
0.0
  0
LINE
  5
2AD
330
29E
100
AcDbEntity
  8
LC-006-005-----0
 62
     7
370
    25
100
AcDbLine
 10
302.926087
 20
362.323057
 30
0.0
 11
305.620612
 21
365.017581
 31
0.0
  0
LINE
  5
2AE
330
29E
100
AcDbEntity
  8
LC-006-005-----0
 62
     7
370
    25
100
AcDbLine
 10
295.713416
 20
357.938813
 30
0.0
 11
302.579532
 21
364.804928
 31
0.0
  0
LINE
  5
2AF
330
29E
100
AcDbEntity
  8
LC-006-005-----0
 62
     7
370
    25
100
AcDbLine
 10
295.713416
 20
360.76724
 30
0.0
 11
299.538451
 21
364.592275
 31
0.0
  0
LINE
  5
2B0
330
29E
100
AcDbEntity
  8
LC-006-005-----0
 62
     7
370
    25
100
AcDbLine
 10
295.713416
 20
363.595667
 30
0.0
 11
296.497371
 21
364.379622
 31
0.0
  0
ENDBLK
  5
2A0
330
29E
100
AcDbEntity
  8
0
100
AcDbBlockEnd
  0
BLOCK
  5
2B3
330
2B2
100
AcDbEntity
  8
0
100
AcDbBlockBegin
  2
*X55
 70
     1
 71
     0
 10
0.0
 20
0.0
 30
0.0
  3
*X55
  1

  4
*X5
  0
LINE
  5
2B5
330
2B2
100
AcDbEntity
  8
LC-006-005-----0
 62
     7
370
    25
100
AcDbLine
 10
153.355733
 20
345.688778
 30
0.0
 11
153.963416
 21
346.296461
 31
0.0
  0
LINE
  5
2B6
330
2B2
100
AcDbEntity
  8
LC-006-005-----0
 62
     7
370
    25
100
AcDbLine
 10
150.527306
 20
345.688778
 30
0.0
 11
153.527306
 21
348.688778
 31
0.0
  0
LINE
  5
2B7
330
2B2
100
AcDbEntity
  8
LC-006-005-----0
 62
     7
370
    25
100
AcDbLine
 10
147.698879
 20
345.688778
 30
0.0
 11
151.213416
 21
349.203315
 31
0.0
  0
LINE
  5
2B8
330
2B2
100
AcDbEntity
  8
LC-006-005-----0
 62
     7
370
    25
100
AcDbLine
 10
144.989748
 20
345.808074
 30
0.0
 11
151.213416
 21
352.031742
 31
0.0
  0
LINE
  5
2B9
330
2B2
100
AcDbEntity
  8
LC-006-005-----0
 62
     7
370
    25
100
AcDbLine
 10
144.463416
 20
348.110169
 30
0.0
 11
151.213416
 21
354.860169
 31
0.0
  0
LINE
  5
2BA
330
2B2
100
AcDbEntity
  8
LC-006-005-----0
 62
     7
370
    25
100
AcDbLine
 10
144.463416
 20
350.938596
 30
0.0
 11
151.213416
 21
357.688596
 31
0.0
  0
LINE
  5
2BB
330
2B2
100
AcDbEntity
  8
LC-006-005-----0
 62
     7
370
    25
100
AcDbLine
 10
144.463416
 20
353.767023
 30
0.0
 11
151.213416
 21
360.517023
 31
0.0
  0
LINE
  5
2BC
330
2B2
100
AcDbEntity
  8
LC-006-005-----0
 62
     7
370
    25
100
AcDbLine
 10
144.463416
 20
356.59545
 30
0.0
 11
151.213416
 21
363.34545
 31
0.0
  0
LINE
  5
2BD
330
2B2
100
AcDbEntity
  8
LC-006-005-----0
 62
     7
370
    25
100
AcDbLine
 10
144.463416
 20
359.423878
 30
0.0
 11
149.485191
 21
364.445652
 31
0.0
  0
LINE
  5
2BE
330
2B2
100
AcDbEntity
  8
LC-006-005-----0
 62
     7
370
    25
100
AcDbLine
 10
144.463416
 20
362.252305
 30
0.0
 11
146.84162
 21
364.630509
 31
0.0
  0
LINE
  5
2BF
330
2B2
100
AcDbEntity
  8
LC-006-005-----0
 62
     7
370
    25
100
AcDbLine
 10
141.855735
 20
362.473051
 30
0.0
 11
144.198049
 21
364.815365
 31
0.0
  0
LINE
  5
2C0
330
2B2
100
AcDbEntity
  8
LC-006-005-----0
 62
     7
370
    25
100
AcDbLine
 10
139.212164
 20
362.657907
 30
0.0
 11
141.554479
 21
365.000221
 31
0.0
  0
LINE
  5
2C1
330
2B2
100
AcDbEntity
  8
LC-006-005-----0
 62
     7
370
    25
100
AcDbLine
 10
132.676063
 20
358.950233
 30
0.0
 11
134.463631
 21
360.737801
 31
0.0
  0
LINE
  5
2C2
330
2B2
100
AcDbEntity
  8
LC-006-005-----0
 62
     7
370
    25
100
AcDbLine
 10
136.568594
 20
362.842764
 30
0.0
 11
138.910908
 21
365.185078
 31
0.0
  0
LINE
  5
2C3
330
2B2
100
AcDbEntity
  8
LC-006-005-----0
 62
     7
370
    25
100
AcDbLine
 10
132.322492
 20
361.425089
 30
0.0
 11
136.267337
 21
365.369934
 31
0.0
  0
LINE
  5
2C4
330
2B2
100
AcDbEntity
  8
LC-006-005-----0
 62
     7
370
    25
100
AcDbLine
 10
131.968921
 20
363.899945
 30
0.0
 11
133.623767
 21
365.554791
 31
0.0
  0
ENDBLK
  5
2B4
330
2B2
100
AcDbEntity
  8
0
100
AcDbBlockEnd
  0
BLOCK
  5
2CD
330
2CC
100
AcDbEntity
  8
0
100
AcDbBlockBegin
  2
*X66
 70
     1
 71
     0
 10
0.0
 20
0.0
 30
0.0
  3
*X66
  1

  4
*X6
  0
LINE
  5
2CF
330
2CC
100
AcDbEntity
  8
LC-006-005-----0
 62
     7
370
    25
100
AcDbLine
 10
259.99456
 20
149.685902
 30
0.0
 11
260.99456
 21
150.685902
 31
0.0
  0
LINE
  5
2D0
330
2CC
100
AcDbEntity
  8
LC-006-005-----0
 62
     7
370
    25
100
AcDbLine
 10
259.99456
 20
152.514329
 30
0.0
 11
260.99456
 21
153.514329
 31
0.0
  0
LINE
  5
2D1
330
2CC
100
AcDbEntity
  8
LC-006-005-----0
 62
     7
370
    25
100
AcDbLine
 10
259.99456
 20
155.342756
 30
0.0
 11
260.99456
 21
156.342756
 31
0.0
  0
LINE
  5
2D2
330
2CC
100
AcDbEntity
  8
LC-006-005-----0
 62
     7
370
    25
100
AcDbLine
 10
259.99456
 20
158.171183
 30
0.0
 11
260.99456
 21
159.171183
 31
0.0
  0
LINE
  5
2D3
330
2CC
100
AcDbEntity
  8
LC-006-005-----0
 62
     7
370
    25
100
AcDbLine
 10
259.99456
 20
160.99961
 30
0.0
 11
260.99456
 21
161.99961
 31
0.0
  0
LINE
  5
2D4
330
2CC
100
AcDbEntity
  8
LC-006-005-----0
 62
     7
370
    25
100
AcDbLine
 10
259.99456
 20
163.828038
 30
0.0
 11
260.99456
 21
164.828038
 31
0.0
  0
LINE
  5
2D5
330
2CC
100
AcDbEntity
  8
LC-006-005-----0
 62
     7
370
    25
100
AcDbLine
 10
259.99456
 20
166.656465
 30
0.0
 11
260.99456
 21
167.656465
 31
0.0
  0
LINE
  5
2D6
330
2CC
100
AcDbEntity
  8
LC-006-005-----0
 62
     7
370
    25
100
AcDbLine
 10
185.99456
 20
149.225007
 30
0.0
 11
186.99456
 21
150.225007
 31
0.0
  0
LINE
  5
2D7
330
2CC
100
AcDbEntity
  8
LC-006-005-----0
 62
     7
370
    25
100
AcDbLine
 10
185.99456
 20
152.053434
 30
0.0
 11
186.99456
 21
153.053434
 31
0.0
  0
LINE
  5
2D8
330
2CC
100
AcDbEntity
  8
LC-006-005-----0
 62
     7
370
    25
100
AcDbLine
 10
185.99456
 20
154.881861
 30
0.0
 11
186.99456
 21
155.881861
 31
0.0
  0
LINE
  5
2D9
330
2CC
100
AcDbEntity
  8
LC-006-005-----0
 62
     7
370
    25
100
AcDbLine
 10
185.99456
 20
157.710289
 30
0.0
 11
186.99456
 21
158.710289
 31
0.0
  0
LINE
  5
2DA
330
2CC
100
AcDbEntity
  8
LC-006-005-----0
 62
     7
370
    25
100
AcDbLine
 10
185.99456
 20
160.538716
 30
0.0
 11
186.99456
 21
161.538716
 31
0.0
  0
LINE
  5
2DB
330
2CC
100
AcDbEntity
  8
LC-006-005-----0
 62
     7
370
    25
100
AcDbLine
 10
185.99456
 20
163.367143
 30
0.0
 11
186.99456
 21
164.367143
 31
0.0
  0
LINE
  5
2DC
330
2CC
100
AcDbEntity
  8
LC-006-005-----0
 62
     7
370
    25
100
AcDbLine
 10
185.99456
 20
166.19557
 30
0.0
 11
186.99456
 21
167.19557
 31
0.0
  0
ENDBLK
  5
2CE
330
2CC
100
AcDbEntity
  8
0
100
AcDbBlockEnd
  0
BLOCK
  5
2ED
330
2E3
100
AcDbEntity
  8
0
100
AcDbBlockBegin
  2
*D7
 70
     1
 71
     0
 10
0.0
 20
0.0
 30
0.0
  3
*D7
  1

  0
LINE
  5
2E4
330
2E3
100
AcDbEntity
  8
LC-008-003-----0
 62
     2
370
    -2
100
AcDbLine
 10
181.99456
 20
148.816692
 30
0.0
 11
181.99456
 21
132.426
 31
0.0
  0
LINE
  5
2E5
330
2E3
100
AcDbEntity
  8
LC-008-003-----0
 62
     2
370
    -2
100
AcDbLine
 10
264.99456
 20
148.816692
 30
0.0
 11
264.99456
 21
132.426
 31
0.0
  0
LINE
  5
2E6
330
2E3
100
AcDbEntity
  8
LC-008-003-----0
 62
     2
370
    -2
100
AcDbLine
 10
209.99456
 20
136.026
 30
0.0
 11
236.99456
 21
136.026
 31
0.0
  0
SOLID
  5
2E7
330
2E3
100
AcDbEntity
  8
LC-008-003-----0
 62
     2
100
AcDbTrace
 10
209.99456
 20
140.692667
 30
0.0
 11
209.99456
 21
131.359333
 31
0.0
 12
181.99456
 22
136.026
 32
0.0
 13
181.99456
 23
136.026
 33
0.0
  0
SOLID
  5
2E8
330
2E3
100
AcDbEntity
  8
LC-008-003-----0
 62
     2
100
AcDbTrace
 10
236.99456
 20
131.359333
 30
0.0
 11
236.99456
 21
140.692667
 31
0.0
 12
264.99456
 22
136.026
 32
0.0
 13
264.99456
 23
136.026
 33
0.0
  0
MTEXT
  5
2E9
330
2E3
100
AcDbEntity
  8
LC-008-003-----0
 62
     2
100
AcDbMText
 10
223.49456
 20
166.826
 30
0.0
 40
28.0
 41
0.0
 71
     5
 72
     1
  1
\A1;DN80(SML)
  7
LCTX15-400-0-0pDIN-Schrift
 73
     1
 44
1.0
  0
POINT
  5
2EA
330
2E3
100
AcDbEntity
  8
Defpoints
 62
     0
100
AcDbPoint
 10
181.99456
 20
148.816692
 30
0.0
  0
POINT
  5
2EB
330
2E3
100
AcDbEntity
  8
Defpoints
 62
     0
100
AcDbPoint
 10
264.99456
 20
148.816692
 30
0.0
  0
POINT
  5
2EC
330
2E3
100
AcDbEntity
  8
Defpoints
 62
     0
100
AcDbPoint
 10
264.99456
 20
136.026
 30
0.0
  0
ENDBLK
  5
2EE
330
2E3
100
AcDbEntity
  8
0
100
AcDbBlockEnd
  0
BLOCK
  5
2FA
330
2F0
100
AcDbEntity
  8
0
100
AcDbBlockBegin
  2
*D8
 70
     1
 71
     0
 10
0.0
 20
0.0
 30
0.0
  3
*D8
  1

  0
LINE
  5
2F1
330
2F0
100
AcDbEntity
  8
LC-008-003-----0
 62
     2
370
    -2
100
AcDbLine
 10
303.74456
 20
270.566696
 30
0.0
 11
303.74456
 21
77.778
 31
0.0
  0
LINE
  5
2F2
330
2F0
100
AcDbEntity
  8
LC-008-003-----0
 62
     2
370
    -2
100
AcDbLine
 10
143.24456
 20
270.566696
 30
0.0
 11
143.24456
 21
77.778
 31
0.0
  0
LINE
  5
2F3
330
2F0
100
AcDbEntity
  8
LC-008-003-----0
 62
     2
370
    -2
100
AcDbLine
 10
275.74456
 20
81.378
 30
0.0
 11
171.24456
 21
81.378
 31
0.0
  0
SOLID
  5
2F4
330
2F0
100
AcDbEntity
  8
LC-008-003-----0
 62
     2
100
AcDbTrace
 10
275.74456
 20
76.711333
 30
0.0
 11
275.74456
 21
86.044667
 31
0.0
 12
303.74456
 22
81.378
 32
0.0
 13
303.74456
 23
81.378
 33
0.0
  0
SOLID
  5
2F5
330
2F0
100
AcDbEntity
  8
LC-008-003-----0
 62
     2
100
AcDbTrace
 10
171.24456
 20
86.044667
 30
0.0
 11
171.24456
 21
76.711333
 31
0.0
 12
143.24456
 22
81.378
 32
0.0
 13
143.24456
 23
81.378
 33
0.0
  0
MTEXT
  5
2F6
330
2F0
100
AcDbEntity
  8
LC-008-003-----0
 62
     2
100
AcDbMText
 10
223.49456
 20
112.178
 30
0.0
 40
28.0
 41
0.0
 71
     5
 72
     1
  1
\A1;%%c160
  7
LCTX15-400-0-0pDIN-Schrift
 73
     1
 44
1.0
  0
POINT
  5
2F7
330
2F0
100
AcDbEntity
  8
Defpoints
 62
     0
100
AcDbPoint
 10
303.74456
 20
270.566696
 30
0.0
  0
POINT
  5
2F8
330
2F0
100
AcDbEntity
  8
Defpoints
 62
     0
100
AcDbPoint
 10
143.24456
 20
270.566696
 30
0.0
  0
POINT
  5
2F9
330
2F0
100
AcDbEntity
  8
Defpoints
 62
     0
100
AcDbPoint
 10
143.24456
 20
81.378
 30
0.0
  0
ENDBLK
  5
2FB
330
2F0
100
AcDbEntity
  8
0
100
AcDbBlockEnd
  0
BLOCK
  5
301
330
300
100
AcDbEntity
  8
0
100
AcDbBlockBegin
  2
*X79
 70
     1
 71
     0
 10
0.0
 20
0.0
 30
0.0
  3
*X79
  1

  4
*X7
  0
LINE
  5
303
330
300
100
AcDbEntity
  8
LC-006-005-----0
 62
     7
370
    25
100
AcDbLine
 10
185.586245
 20
148.816692
 30
0.0
 11
185.99456
 21
149.225007
 31
0.0
  0
LINE
  5
304
330
300
100
AcDbEntity
  8
LC-006-005-----0
 62
     7
370
    25
100
AcDbLine
 10
182.757818
 20
148.816692
 30
0.0
 11
185.99456
 21
152.053434
 31
0.0
  0
LINE
  5
305
330
300
100
AcDbEntity
  8
LC-006-005-----0
 62
     7
370
    25
100
AcDbLine
 10
181.99456
 20
150.881861
 30
0.0
 11
185.99456
 21
154.881861
 31
0.0
  0
LINE
  5
306
330
300
100
AcDbEntity
  8
LC-006-005-----0
 62
     7
370
    25
100
AcDbLine
 10
181.99456
 20
153.710289
 30
0.0
 11
185.99456
 21
157.710289
 31
0.0
  0
LINE
  5
307
330
300
100
AcDbEntity
  8
LC-006-005-----0
 62
     7
370
    25
100
AcDbLine
 10
181.99456
 20
156.538716
 30
0.0
 11
185.99456
 21
160.538716
 31
0.0
  0
LINE
  5
308
330
300
100
AcDbEntity
  8
LC-006-005-----0
 62
     7
370
    25
100
AcDbLine
 10
181.99456
 20
159.367143
 30
0.0
 11
185.99456
 21
163.367143
 31
0.0
  0
LINE
  5
309
330
300
100
AcDbEntity
  8
LC-006-005-----0
 62
     7
370
    25
100
AcDbLine
 10
181.99456
 20
162.19557
 30
0.0
 11
185.99456
 21
166.19557
 31
0.0
  0
LINE
  5
30A
330
300
100
AcDbEntity
  8
LC-006-005-----0
 62
     7
370
    25
100
AcDbLine
 10
181.99456
 20
165.023997
 30
0.0
 11
185.99456
 21
169.023997
 31
0.0
  0
LINE
  5
30B
330
300
100
AcDbEntity
  8
LC-006-005-----0
 62
     7
370
    25
100
AcDbLine
 10
181.99456
 20
167.852424
 30
0.0
 11
185.99456
 21
171.852424
 31
0.0
  0
LINE
  5
30C
330
300
100
AcDbEntity
  8
LC-006-005-----0
 62
     7
370
    25
100
AcDbLine
 10
181.99456
 20
170.680851
 30
0.0
 11
185.99456
 21
174.680851
 31
0.0
  0
LINE
  5
30D
330
300
100
AcDbEntity
  8
LC-006-005-----0
 62
     7
370
    25
100
AcDbLine
 10
181.99456
 20
173.509278
 30
0.0
 11
185.99456
 21
177.509278
 31
0.0
  0
LINE
  5
30E
330
300
100
AcDbEntity
  8
LC-006-005-----0
 62
     7
370
    25
100
AcDbLine
 10
181.99456
 20
176.337706
 30
0.0
 11
185.99456
 21
180.337706
 31
0.0
  0
LINE
  5
30F
330
300
100
AcDbEntity
  8
LC-006-005-----0
 62
     7
370
    25
100
AcDbLine
 10
181.99456
 20
179.166133
 30
0.0
 11
185.99456
 21
183.166133
 31
0.0
  0
LINE
  5
310
330
300
100
AcDbEntity
  8
LC-006-005-----0
 62
     7
370
    25
100
AcDbLine
 10
181.99456
 20
181.99456
 30
0.0
 11
185.99456
 21
185.99456
 31
0.0
  0
LINE
  5
311
330
300
100
AcDbEntity
  8
LC-006-005-----0
 62
     7
370
    25
100
AcDbLine
 10
181.99456
 20
184.822987
 30
0.0
 11
185.99456
 21
188.822987
 31
0.0
  0
LINE
  5
312
330
300
100
AcDbEntity
  8
LC-006-005-----0
 62
     7
370
    25
100
AcDbLine
 10
181.99456
 20
187.651414
 30
0.0
 11
185.99456
 21
191.651414
 31
0.0
  0
LINE
  5
313
330
300
100
AcDbEntity
  8
LC-006-005-----0
 62
     7
370
    25
100
AcDbLine
 10
181.99456
 20
190.479841
 30
0.0
 11
185.99456
 21
194.479841
 31
0.0
  0
LINE
  5
314
330
300
100
AcDbEntity
  8
LC-006-005-----0
 62
     7
370
    25
100
AcDbLine
 10
181.99456
 20
193.308268
 30
0.0
 11
185.99456
 21
197.308268
 31
0.0
  0
LINE
  5
315
330
300
100
AcDbEntity
  8
LC-006-005-----0
 62
     7
370
    25
100
AcDbLine
 10
181.99456
 20
196.136695
 30
0.0
 11
185.99456
 21
200.136695
 31
0.0
  0
LINE
  5
316
330
300
100
AcDbEntity
  8
LC-006-005-----0
 62
     7
370
    25
100
AcDbLine
 10
181.99456
 20
198.965123
 30
0.0
 11
185.99456
 21
202.965123
 31
0.0
  0
LINE
  5
317
330
300
100
AcDbEntity
  8
LC-006-005-----0
 62
     7
370
    25
100
AcDbLine
 10
181.99456
 20
201.79355
 30
0.0
 11
185.99456
 21
205.79355
 31
0.0
  0
LINE
  5
318
330
300
100
AcDbEntity
  8
LC-006-005-----0
 62
     7
370
    25
100
AcDbLine
 10
181.99456
 20
204.621977
 30
0.0
 11
185.99456
 21
208.621977
 31
0.0
  0
LINE
  5
319
330
300
100
AcDbEntity
  8
LC-006-005-----0
 62
     7
370
    25
100
AcDbLine
 10
181.99456
 20
207.450404
 30
0.0
 11
185.99456
 21
211.450404
 31
0.0
  0
LINE
  5
31A
330
300
100
AcDbEntity
  8
LC-006-005-----0
 62
     7
370
    25
100
AcDbLine
 10
181.99456
 20
210.278831
 30
0.0
 11
185.99456
 21
214.278831
 31
0.0
  0
LINE
  5
31B
330
300
100
AcDbEntity
  8
LC-006-005-----0
 62
     7
370
    25
100
AcDbLine
 10
181.99456
 20
213.107258
 30
0.0
 11
185.99456
 21
217.107258
 31
0.0
  0
LINE
  5
31C
330
300
100
AcDbEntity
  8
LC-006-005-----0
 62
     7
370
    25
100
AcDbLine
 10
181.99456
 20
215.935685
 30
0.0
 11
185.99456
 21
219.935685
 31
0.0
  0
LINE
  5
31D
330
300
100
AcDbEntity
  8
LC-006-005-----0
 62
     7
370
    25
100
AcDbLine
 10
181.99456
 20
218.764112
 30
0.0
 11
185.99456
 21
222.764112
 31
0.0
  0
LINE
  5
31E
330
300
100
AcDbEntity
  8
LC-006-005-----0
 62
     7
370
    25
100
AcDbLine
 10
181.99456
 20
221.59254
 30
0.0
 11
185.99456
 21
225.59254
 31
0.0
  0
LINE
  5
31F
330
300
100
AcDbEntity
  8
LC-006-005-----0
 62
     7
370
    25
100
AcDbLine
 10
181.99456
 20
224.420967
 30
0.0
 11
185.99456
 21
228.420967
 31
0.0
  0
LINE
  5
320
330
300
100
AcDbEntity
  8
LC-006-005-----0
 62
     7
370
    25
100
AcDbLine
 10
181.99456
 20
227.249394
 30
0.0
 11
185.99456
 21
231.249394
 31
0.0
  0
LINE
  5
321
330
300
100
AcDbEntity
  8
LC-006-005-----0
 62
     7
370
    25
100
AcDbLine
 10
181.99456
 20
230.077821
 30
0.0
 11
185.99456
 21
234.077821
 31
0.0
  0
LINE
  5
322
330
300
100
AcDbEntity
  8
LC-006-005-----0
 62
     7
370
    25
100
AcDbLine
 10
181.99456
 20
232.906248
 30
0.0
 11
185.99456
 21
236.906248
 31
0.0
  0
LINE
  5
323
330
300
100
AcDbEntity
  8
LC-006-005-----0
 62
     7
370
    25
100
AcDbLine
 10
181.99456
 20
235.734675
 30
0.0
 11
185.99456
 21
239.734675
 31
0.0
  0
LINE
  5
324
330
300
100
AcDbEntity
  8
LC-006-005-----0
 62
     7
370
    25
100
AcDbLine
 10
181.99456
 20
238.563102
 30
0.0
 11
185.99456
 21
242.563102
 31
0.0
  0
LINE
  5
325
330
300
100
AcDbEntity
  8
LC-006-005-----0
 62
     7
370
    25
100
AcDbLine
 10
181.99456
 20
241.391529
 30
0.0
 11
185.99456
 21
245.391529
 31
0.0
  0
LINE
  5
326
330
300
100
AcDbEntity
  8
LC-006-005-----0
 62
     7
370
    25
100
AcDbLine
 10
181.99456
 20
244.219957
 30
0.0
 11
185.99456
 21
248.219957
 31
0.0
  0
LINE
  5
327
330
300
100
AcDbEntity
  8
LC-006-005-----0
 62
     7
370
    25
100
AcDbLine
 10
181.99456
 20
247.048384
 30
0.0
 11
185.99456
 21
251.048384
 31
0.0
  0
LINE
  5
328
330
300
100
AcDbEntity
  8
LC-006-005-----0
 62
     7
370
    25
100
AcDbLine
 10
181.99456
 20
249.876811
 30
0.0
 11
185.99456
 21
253.876811
 31
0.0
  0
LINE
  5
329
330
300
100
AcDbEntity
  8
LC-006-005-----0
 62
     7
370
    25
100
AcDbLine
 10
181.99456
 20
252.705238
 30
0.0
 11
185.99456
 21
256.705238
 31
0.0
  0
LINE
  5
32A
330
300
100
AcDbEntity
  8
LC-006-005-----0
 62
     7
370
    25
100
AcDbLine
 10
181.99456
 20
255.533665
 30
0.0
 11
185.277585
 21
258.81669
 31
0.0
  0
LINE
  5
32B
330
300
100
AcDbEntity
  8
LC-006-005-----0
 62
     7
370
    25
100
AcDbLine
 10
181.99456
 20
258.362092
 30
0.0
 11
182.449158
 21
258.81669
 31
0.0
  0
ENDBLK
  5
302
330
300
100
AcDbEntity
  8
0
100
AcDbBlockEnd
  0
BLOCK
  5
32E
330
32D
100
AcDbEntity
  8
0
100
AcDbBlockBegin
  2
*X810
 70
     1
 71
     0
 10
0.0
 20
0.0
 30
0.0
  3
*X810
  1

  4
*X8
  0
LINE
  5
330
330
32D
100
AcDbEntity
  8
LC-006-005-----0
 62
     7
370
    25
100
AcDbLine
 10
264.782204
 20
148.816692
 30
0.0
 11
264.99456
 21
149.029048
 31
0.0
  0
LINE
  5
331
330
32D
100
AcDbEntity
  8
LC-006-005-----0
 62
     7
370
    25
100
AcDbLine
 10
261.953777
 20
148.816692
 30
0.0
 11
264.99456
 21
151.857475
 31
0.0
  0
LINE
  5
332
330
32D
100
AcDbEntity
  8
LC-006-005-----0
 62
     7
370
    25
100
AcDbLine
 10
260.99456
 20
150.685902
 30
0.0
 11
264.99456
 21
154.685902
 31
0.0
  0
LINE
  5
333
330
32D
100
AcDbEntity
  8
LC-006-005-----0
 62
     7
370
    25
100
AcDbLine
 10
260.99456
 20
153.514329
 30
0.0
 11
264.99456
 21
157.514329
 31
0.0
  0
LINE
  5
334
330
32D
100
AcDbEntity
  8
LC-006-005-----0
 62
     7
370
    25
100
AcDbLine
 10
260.99456
 20
156.342756
 30
0.0
 11
264.99456
 21
160.342756
 31
0.0
  0
LINE
  5
335
330
32D
100
AcDbEntity
  8
LC-006-005-----0
 62
     7
370
    25
100
AcDbLine
 10
260.99456
 20
159.171183
 30
0.0
 11
264.99456
 21
163.171183
 31
0.0
  0
LINE
  5
336
330
32D
100
AcDbEntity
  8
LC-006-005-----0
 62
     7
370
    25
100
AcDbLine
 10
260.99456
 20
161.99961
 30
0.0
 11
264.99456
 21
165.99961
 31
0.0
  0
LINE
  5
337
330
32D
100
AcDbEntity
  8
LC-006-005-----0
 62
     7
370
    25
100
AcDbLine
 10
260.99456
 20
164.828038
 30
0.0
 11
264.99456
 21
168.828038
 31
0.0
  0
LINE
  5
338
330
32D
100
AcDbEntity
  8
LC-006-005-----0
 62
     7
370
    25
100
AcDbLine
 10
260.99456
 20
167.656465
 30
0.0
 11
264.99456
 21
171.656465
 31
0.0
  0
LINE
  5
339
330
32D
100
AcDbEntity
  8
LC-006-005-----0
 62
     7
370
    25
100
AcDbLine
 10
260.99456
 20
170.484892
 30
0.0
 11
264.99456
 21
174.484892
 31
0.0
  0
LINE
  5
33A
330
32D
100
AcDbEntity
  8
LC-006-005-----0
 62
     7
370
    25
100
AcDbLine
 10
260.99456
 20
173.313319
 30
0.0
 11
264.99456
 21
177.313319
 31
0.0
  0
LINE
  5
33B
330
32D
100
AcDbEntity
  8
LC-006-005-----0
 62
     7
370
    25
100
AcDbLine
 10
260.99456
 20
176.141746
 30
0.0
 11
264.99456
 21
180.141746
 31
0.0
  0
LINE
  5
33C
330
32D
100
AcDbEntity
  8
LC-006-005-----0
 62
     7
370
    25
100
AcDbLine
 10
260.99456
 20
178.970173
 30
0.0
 11
264.99456
 21
182.970173
 31
0.0
  0
LINE
  5
33D
330
32D
100
AcDbEntity
  8
LC-006-005-----0
 62
     7
370
    25
100
AcDbLine
 10
260.99456
 20
181.7986
 30
0.0
 11
264.99456
 21
185.7986
 31
0.0
  0
LINE
  5
33E
330
32D
100
AcDbEntity
  8
LC-006-005-----0
 62
     7
370
    25
100
AcDbLine
 10
260.99456
 20
184.627027
 30
0.0
 11
264.99456
 21
188.627027
 31
0.0
  0
LINE
  5
33F
330
32D
100
AcDbEntity
  8
LC-006-005-----0
 62
     7
370
    25
100
AcDbLine
 10
260.99456
 20
187.455455
 30
0.0
 11
264.99456
 21
191.455455
 31
0.0
  0
LINE
  5
340
330
32D
100
AcDbEntity
  8
LC-006-005-----0
 62
     7
370
    25
100
AcDbLine
 10
260.99456
 20
190.283882
 30
0.0
 11
264.99456
 21
194.283882
 31
0.0
  0
LINE
  5
341
330
32D
100
AcDbEntity
  8
LC-006-005-----0
 62
     7
370
    25
100
AcDbLine
 10
260.99456
 20
193.112309
 30
0.0
 11
264.99456
 21
197.112309
 31
0.0
  0
LINE
  5
342
330
32D
100
AcDbEntity
  8
LC-006-005-----0
 62
     7
370
    25
100
AcDbLine
 10
260.99456
 20
195.940736
 30
0.0
 11
264.99456
 21
199.940736
 31
0.0
  0
LINE
  5
343
330
32D
100
AcDbEntity
  8
LC-006-005-----0
 62
     7
370
    25
100
AcDbLine
 10
260.99456
 20
198.769163
 30
0.0
 11
264.99456
 21
202.769163
 31
0.0
  0
LINE
  5
344
330
32D
100
AcDbEntity
  8
LC-006-005-----0
 62
     7
370
    25
100
AcDbLine
 10
260.99456
 20
201.59759
 30
0.0
 11
264.99456
 21
205.59759
 31
0.0
  0
LINE
  5
345
330
32D
100
AcDbEntity
  8
LC-006-005-----0
 62
     7
370
    25
100
AcDbLine
 10
260.99456
 20
204.426017
 30
0.0
 11
264.99456
 21
208.426017
 31
0.0
  0
LINE
  5
346
330
32D
100
AcDbEntity
  8
LC-006-005-----0
 62
     7
370
    25
100
AcDbLine
 10
260.99456
 20
207.254444
 30
0.0
 11
264.99456
 21
211.254444
 31
0.0
  0
LINE
  5
347
330
32D
100
AcDbEntity
  8
LC-006-005-----0
 62
     7
370
    25
100
AcDbLine
 10
260.99456
 20
210.082872
 30
0.0
 11
264.99456
 21
214.082872
 31
0.0
  0
LINE
  5
348
330
32D
100
AcDbEntity
  8
LC-006-005-----0
 62
     7
370
    25
100
AcDbLine
 10
260.99456
 20
212.911299
 30
0.0
 11
264.99456
 21
216.911299
 31
0.0
  0
LINE
  5
349
330
32D
100
AcDbEntity
  8
LC-006-005-----0
 62
     7
370
    25
100
AcDbLine
 10
260.99456
 20
215.739726
 30
0.0
 11
264.99456
 21
219.739726
 31
0.0
  0
LINE
  5
34A
330
32D
100
AcDbEntity
  8
LC-006-005-----0
 62
     7
370
    25
100
AcDbLine
 10
260.99456
 20
218.568153
 30
0.0
 11
264.99456
 21
222.568153
 31
0.0
  0
LINE
  5
34B
330
32D
100
AcDbEntity
  8
LC-006-005-----0
 62
     7
370
    25
100
AcDbLine
 10
260.99456
 20
221.39658
 30
0.0
 11
264.99456
 21
225.39658
 31
0.0
  0
LINE
  5
34C
330
32D
100
AcDbEntity
  8
LC-006-005-----0
 62
     7
370
    25
100
AcDbLine
 10
260.99456
 20
224.225007
 30
0.0
 11
264.99456
 21
228.225007
 31
0.0
  0
LINE
  5
34D
330
32D
100
AcDbEntity
  8
LC-006-005-----0
 62
     7
370
    25
100
AcDbLine
 10
260.99456
 20
227.053434
 30
0.0
 11
264.99456
 21
231.053434
 31
0.0
  0
LINE
  5
34E
330
32D
100
AcDbEntity
  8
LC-006-005-----0
 62
     7
370
    25
100
AcDbLine
 10
260.99456
 20
229.881861
 30
0.0
 11
264.99456
 21
233.881861
 31
0.0
  0
LINE
  5
34F
330
32D
100
AcDbEntity
  8
LC-006-005-----0
 62
     7
370
    25
100
AcDbLine
 10
260.99456
 20
232.710289
 30
0.0
 11
264.99456
 21
236.710289
 31
0.0
  0
LINE
  5
350
330
32D
100
AcDbEntity
  8
LC-006-005-----0
 62
     7
370
    25
100
AcDbLine
 10
260.99456
 20
235.538716
 30
0.0
 11
264.99456
 21
239.538716
 31
0.0
  0
LINE
  5
351
330
32D
100
AcDbEntity
  8
LC-006-005-----0
 62
     7
370
    25
100
AcDbLine
 10
260.99456
 20
238.367143
 30
0.0
 11
264.99456
 21
242.367143
 31
0.0
  0
LINE
  5
352
330
32D
100
AcDbEntity
  8
LC-006-005-----0
 62
     7
370
    25
100
AcDbLine
 10
260.99456
 20
241.19557
 30
0.0
 11
264.99456
 21
245.19557
 31
0.0
  0
LINE
  5
353
330
32D
100
AcDbEntity
  8
LC-006-005-----0
 62
     7
370
    25
100
AcDbLine
 10
260.99456
 20
244.023997
 30
0.0
 11
264.99456
 21
248.023997
 31
0.0
  0
LINE
  5
354
330
32D
100
AcDbEntity
  8
LC-006-005-----0
 62
     7
370
    25
100
AcDbLine
 10
260.99456
 20
246.852424
 30
0.0
 11
264.99456
 21
250.852424
 31
0.0
  0
LINE
  5
355
330
32D
100
AcDbEntity
  8
LC-006-005-----0
 62
     7
370
    25
100
AcDbLine
 10
260.99456
 20
249.680851
 30
0.0
 11
264.99456
 21
253.680851
 31
0.0
  0
LINE
  5
356
330
32D
100
AcDbEntity
  8
LC-006-005-----0
 62
     7
370
    25
100
AcDbLine
 10
260.99456
 20
252.509278
 30
0.0
 11
264.99456
 21
256.509278
 31
0.0
  0
LINE
  5
357
330
32D
100
AcDbEntity
  8
LC-006-005-----0
 62
     7
370
    25
100
AcDbLine
 10
260.99456
 20
255.337706
 30
0.0
 11
264.473544
 21
258.81669
 31
0.0
  0
LINE
  5
358
330
32D
100
AcDbEntity
  8
LC-006-005-----0
 62
     7
370
    25
100
AcDbLine
 10
260.99456
 20
258.166133
 30
0.0
 11
261.645117
 21
258.81669
 31
0.0
  0
ENDBLK
  5
32F
330
32D
100
AcDbEntity
  8
0
100
AcDbBlockEnd
  0
BLOCK
  5
365
330
35B
100
AcDbEntity
  8
0
100
AcDbBlockBegin
  2
*D11
 70
     1
 71
     0
 10
0.0
 20
0.0
 30
0.0
  3
*D11
  1

  0
LINE
  5
35C
330
35B
100
AcDbEntity
  8
LC-008-003-----0
 62
     2
370
    -2
100
AcDbLine
 10
72.742817
 20
369.66738
 30
0.0
 11
72.742817
 21
442.566
 31
0.0
  0
LINE
  5
35D
330
35B
100
AcDbEntity
  8
LC-008-003-----0
 62
     2
370
    -2
100
AcDbLine
 10
374.254017
 20
369.66738
 30
0.0
 11
374.254017
 21
442.566
 31
0.0
  0
LINE
  5
35E
330
35B
100
AcDbEntity
  8
LC-008-003-----0
 62
     2
370
    -2
100
AcDbLine
 10
100.742817
 20
438.966
 30
0.0
 11
346.254017
 21
438.966
 31
0.0
  0
SOLID
  5
35F
330
35B
100
AcDbEntity
  8
LC-008-003-----0
 62
     2
100
AcDbTrace
 10
100.742817
 20
443.632667
 30
0.0
 11
100.742817
 21
434.299333
 31
0.0
 12
72.742817
 22
438.966
 32
0.0
 13
72.742817
 23
438.966
 33
0.0
  0
SOLID
  5
360
330
35B
100
AcDbEntity
  8
LC-008-003-----0
 62
     2
100
AcDbTrace
 10
346.254017
 20
434.299333
 30
0.0
 11
346.254017
 21
443.632667
 31
0.0
 12
374.254017
 22
438.966
 32
0.0
 13
374.254017
 23
438.966
 33
0.0
  0
MTEXT
  5
361
330
35B
100
AcDbEntity
  8
LC-008-003-----0
 62
     2
100
AcDbMText
 10
223.498417
 20
469.766
 30
0.0
 40
28.0
 41
0.0
 71
     5
 72
     1
  1
\A1;%%c300
  7
LCTX15-400-0-0pDIN-Schrift
 73
     1
 44
1.0
  0
POINT
  5
362
330
35B
100
AcDbEntity
  8
Defpoints
 62
     0
100
AcDbPoint
 10
72.742817
 20
369.66738
 30
0.0
  0
POINT
  5
363
330
35B
100
AcDbEntity
  8
Defpoints
 62
     0
100
AcDbPoint
 10
374.254017
 20
369.66738
 30
0.0
  0
POINT
  5
364
330
35B
100
AcDbEntity
  8
Defpoints
 62
     0
100
AcDbPoint
 10
374.254017
 20
438.966
 30
0.0
  0
ENDBLK
  5
366
330
35B
100
AcDbEntity
  8
0
100
AcDbBlockEnd
  0
BLOCK
  5
372
330
368
100
AcDbEntity
  8
0
100
AcDbBlockBegin
  2
*D12
 70
     1
 71
     0
 10
0.0
 20
0.0
 30
0.0
  3
*D12
  1

  0
LINE
  5
369
330
368
100
AcDbEntity
  8
LC-008-003-----0
 62
     2
370
    -2
100
AcDbLine
 10
128.601916
 20
359.62344
 30
0.0
 11
128.602228
 21
396.234686
 31
0.0
  0
LINE
  5
36A
330
368
100
AcDbEntity
  8
LC-008-003-----0
 62
     2
370
    -2
100
AcDbLine
 10
318.394834
 20
359.621836
 30
0.0
 11
318.395146
 21
396.233069
 31
0.0
  0
LINE
  5
36B
330
368
100
AcDbEntity
  8
LC-008-003-----0
 62
     2
370
    -2
100
AcDbLine
 10
156.602197
 20
392.634447
 30
0.0
 11
290.395116
 21
392.633307
 31
0.0
  0
SOLID
  5
36C
330
368
100
AcDbEntity
  8
LC-008-003-----0
 62
     2
100
AcDbTrace
 10
156.602237
 20
397.301114
 30
0.0
 11
156.602157
 21
387.967781
 31
0.0
 12
128.602197
 22
392.634686
 32
0.0
 13
128.602197
 23
392.634686
 33
0.0
  0
SOLID
  5
36D
330
368
100
AcDbEntity
  8
LC-008-003-----0
 62
     2
100
AcDbTrace
 10
290.395076
 20
387.966641
 30
0.0
 11
290.395155
 21
397.299974
 31
0.0
 12
318.395116
 22
392.633069
 32
0.0
 13
318.395116
 23
392.633069
 33
0.0
  0
MTEXT
  5
36E
330
368
100
AcDbEntity
  8
LC-008-003-----0
 62
     2
100
AcDbMText
 10
223.498916
 20
423.433877
 30
0.0
 40
28.0
 41
0.0
 71
     5
 72
     1
  1
\A1;%%c190
  7
LCTX15-400-0-0pDIN-Schrift
 11
0.9999999999636868
 21
-8.522115488105099E-6
 31
0.0
 73
     1
 44
1.0
  0
POINT
  5
36F
330
368
100
AcDbEntity
  8
Defpoints
 62
     0
100
AcDbPoint
 10
128.601916
 20
359.62344
 30
0.0
  0
POINT
  5
370
330
368
100
AcDbEntity
  8
Defpoints
 62
     0
100
AcDbPoint
 10
318.394834
 20
359.621836
 30
0.0
  0
POINT
  5
371
330
368
100
AcDbEntity
  8
Defpoints
 62
     0
100
AcDbPoint
 10
318.395116
 20
392.633069
 30
0.0
  0
ENDBLK
  5
373
330
368
100
AcDbEntity
  8
0
100
AcDbBlockEnd
  0
BLOCK
  5
37F
330
375
100
AcDbEntity
  8
0
100
AcDbBlockBegin
  2
*D13
 70
     1
 71
     0
 10
0.0
 20
0.0
 30
0.0
  3
*D13
  1

  0
LINE
  5
376
330
375
100
AcDbEntity
  8
LC-008-003-----0
 62
     2
370
    -2
100
AcDbLine
 10
72.742817
 20
366.666923
 30
0.0
 11
51.373633
 21
366.666923
 31
0.0
  0
LINE
  5
377
330
375
100
AcDbEntity
  8
LC-008-003-----0
 62
     2
370
    -2
100
AcDbLine
 10
154.99456
 20
258.816696
 30
0.0
 11
51.373633
 21
258.816696
 31
0.0
  0
LINE
  5
378
330
375
100
AcDbEntity
  8
LC-008-003-----0
 62
     2
370
    -2
100
AcDbLine
 10
54.973633
 20
338.666923
 30
0.0
 11
54.973633
 21
286.816696
 31
0.0
  0
SOLID
  5
379
330
375
100
AcDbEntity
  8
LC-008-003-----0
 62
     2
100
AcDbTrace
 10
59.6403
 20
338.666923
 30
0.0
 11
50.306967
 21
338.666923
 31
0.0
 12
54.973633
 22
366.666923
 32
0.0
 13
54.973633
 23
366.666923
 33
0.0
  0
SOLID
  5
37A
330
375
100
AcDbEntity
  8
LC-008-003-----0
 62
     2
100
AcDbTrace
 10
50.306967
 20
286.816696
 30
0.0
 11
59.6403
 21
286.816696
 31
0.0
 12
54.973633
 22
258.816696
 32
0.0
 13
54.973633
 23
258.816696
 33
0.0
  0
MTEXT
  5
37B
330
375
100
AcDbEntity
  8
LC-008-003-----0
 62
     2
100
AcDbMText
 10
24.173633
 20
312.741809
 30
0.0
 40
28.0
 41
0.0
 71
     5
 72
     1
  1
\A1;110
  7
LCTX15-400-0-0pDIN-Schrift
 11
6.123031769111886E-17
 21
1.0
 31
0.0
 73
     1
 44
1.0
  0
POINT
  5
37C
330
375
100
AcDbEntity
  8
Defpoints
 62
     0
100
AcDbPoint
 10
72.742817
 20
366.666923
 30
0.0
  0
POINT
  5
37D
330
375
100
AcDbEntity
  8
Defpoints
 62
     0
100
AcDbPoint
 10
154.99456
 20
258.816696
 30
0.0
  0
POINT
  5
37E
330
375
100
AcDbEntity
  8
Defpoints
 62
     0
100
AcDbPoint
 10
54.973633
 20
258.816696
 30
0.0
  0
ENDBLK
  5
380
330
375
100
AcDbEntity
  8
0
100
AcDbBlockEnd
  0
BLOCK
  5
38C
330
382
100
AcDbEntity
  8
0
100
AcDbBlockBegin
  2
*D14
 70
     1
 71
     0
 10
0.0
 20
0.0
 30
0.0
  3
*D14
  1

  0
LINE
  5
383
330
382
100
AcDbEntity
  8
LC-008-003-----0
 62
     2
370
    -2
100
AcDbLine
 10
154.99456
 20
258.816696
 30
0.0
 11
51.373633
 21
258.816696
 31
0.0
  0
LINE
  5
384
330
382
100
AcDbEntity
  8
LC-008-003-----0
 62
     2
370
    -2
100
AcDbLine
 10
181.99456
 20
148.816692
 30
0.0
 11
51.373633
 21
148.816692
 31
0.0
  0
LINE
  5
385
330
382
100
AcDbEntity
  8
LC-008-003-----0
 62
     2
370
    -2
100
AcDbLine
 10
54.973633
 20
230.816696
 30
0.0
 11
54.973633
 21
176.816692
 31
0.0
  0
SOLID
  5
386
330
382
100
AcDbEntity
  8
LC-008-003-----0
 62
     2
100
AcDbTrace
 10
59.6403
 20
230.816696
 30
0.0
 11
50.306967
 21
230.816696
 31
0.0
 12
54.973633
 22
258.816696
 32
0.0
 13
54.973633
 23
258.816696
 33
0.0
  0
SOLID
  5
387
330
382
100
AcDbEntity
  8
LC-008-003-----0
 62
     2
100
AcDbTrace
 10
50.306967
 20
176.816692
 30
0.0
 11
59.6403
 21
176.816692
 31
0.0
 12
54.973633
 22
148.816692
 32
0.0
 13
54.973633
 23
148.816692
 33
0.0
  0
MTEXT
  5
388
330
382
100
AcDbEntity
  8
LC-008-003-----0
 62
     2
100
AcDbMText
 10
24.173633
 20
203.816694
 30
0.0
 40
28.0
 41
0.0
 71
     5
 72
     1
  1
\A1;110
  7
LCTX15-400-0-0pDIN-Schrift
 11
6.123031769111886E-17
 21
1.0
 31
0.0
 73
     1
 44
1.0
  0
POINT
  5
389
330
382
100
AcDbEntity
  8
Defpoints
 62
     0
100
AcDbPoint
 10
154.99456
 20
258.816696
 30
0.0
  0
POINT
  5
38A
330
382
100
AcDbEntity
  8
Defpoints
 62
     0
100
AcDbPoint
 10
181.99456
 20
148.816692
 30
0.0
  0
POINT
  5
38B
330
382
100
AcDbEntity
  8
Defpoints
 62
     0
100
AcDbPoint
 10
54.973633
 20
148.816692
 30
0.0
  0
ENDBLK
  5
38D
330
382
100
AcDbEntity
  8
0
100
AcDbBlockEnd
  0
BLOCK
  5
39B
330
38F
100
AcDbEntity
  8
0
100
AcDbBlockBegin
  2
*D15
 70
     1
 71
     0
 10
0.0
 20
0.0
 30
0.0
  3
*D15
  1

  0
LINE
  5
390
330
38F
100
AcDbEntity
  8
LC-008-003-----0
 62
     2
370
    -2
100
AcDbLine
 10
181.96342
 20
287.316693
 30
0.0
 11
112.394293
 21
287.316693
 31
0.0
  0
LINE
  5
391
330
38F
100
AcDbEntity
  8
LC-008-003-----0
 62
     2
370
    -2
100
AcDbLine
 10
192.205702
 20
336.816696
 30
0.0
 11
112.394293
 21
336.816696
 31
0.0
  0
LINE
  5
392
330
38F
100
AcDbEntity
  8
LC-008-003-----0
 62
     2
370
    -2
100
AcDbLine
 10
115.994293
 20
259.316693
 30
0.0
 11
115.994293
 21
231.316693
 31
0.0
  0
LINE
  5
393
330
38F
100
AcDbEntity
  8
LC-008-003-----0
 62
     2
370
    -2
100
AcDbLine
 10
115.994293
 20
364.816696
 30
0.0
 11
115.994293
 21
392.816696
 31
0.0
  0
LINE
  5
394
330
38F
100
AcDbEntity
  8
LC-008-003-----0
 62
     2
370
    -2
100
AcDbLine
 10
115.994293
 20
287.316693
 30
0.0
 11
115.994293
 21
336.816696
 31
0.0
  0
SOLID
  5
395
330
38F
100
AcDbEntity
  8
LC-008-003-----0
 62
     2
100
AcDbTrace
 10
120.66096
 20
259.316693
 30
0.0
 11
111.327627
 21
259.316693
 31
0.0
 12
115.994293
 22
287.316693
 32
0.0
 13
115.994293
 23
287.316693
 33
0.0
  0
SOLID
  5
396
330
38F
100
AcDbEntity
  8
LC-008-003-----0
 62
     2
100
AcDbTrace
 10
111.327627
 20
364.816696
 30
0.0
 11
120.66096
 21
364.816696
 31
0.0
 12
115.994293
 22
336.816696
 32
0.0
 13
115.994293
 23
336.816696
 33
0.0
  0
MTEXT
  5
397
330
38F
100
AcDbEntity
  8
LC-008-003-----0
 62
     2
100
AcDbMText
 10
85.194293
 20
312.066695
 30
0.0
 40
28.0
 41
0.0
 71
     5
 72
     1
  1
\A1;50
  7
LCTX15-400-0-0pDIN-Schrift
 11
6.123031769111886E-17
 21
1.0
 31
0.0
 73
     1
 44
1.0
  0
POINT
  5
398
330
38F
100
AcDbEntity
  8
Defpoints
 62
     0
100
AcDbPoint
 10
181.96342
 20
287.316693
 30
0.0
  0
POINT
  5
399
330
38F
100
AcDbEntity
  8
Defpoints
 62
     0
100
AcDbPoint
 10
192.205702
 20
336.816696
 30
0.0
  0
POINT
  5
39A
330
38F
100
AcDbEntity
  8
Defpoints
 62
     0
100
AcDbPoint
 10
115.994293
 20
336.816696
 30
0.0
  0
ENDBLK
  5
39C
330
38F
100
AcDbEntity
  8
0
100
AcDbBlockEnd
  0
ENDSEC
  0
SECTION
  2
ENTITIES
  0
LINE
  5
32
330
1F
100
AcDbEntity
  8
LC-001-002-----0
 62
     7
370
    50
100
AcDbLine
 10
72.742817
 20
369.66738
 30
0.0
 11
113.398417
 21
368.957734
 31
0.0
  0
LINE
  5
35
330
1F
100
AcDbEntity
  8
LC-002-006-MLN-0
 62
     7
370
    25
100
AcDbLine
 10
223.49456
 20
379.66738
 30
0.0
 11
223.49456
 21
138.816692
 31
0.0
  0
LINE
  5
36
330
1F
100
AcDbEntity
  8
LC-001-002-----0
 62
     7
370
    50
100
AcDbLine
 10
72.742817
 20
366.666923
 30
0.0
 11
112.29813
 21
365.976482
 31
0.0
  0
LINE
  5
37
330
1F
100
AcDbEntity
  8
LC-001-002-----0
 62
     7
370
    50
100
AcDbLine
 10
374.254017
 20
369.66738
 30
0.0
 11
333.598417
 21
368.957734
 31
0.0
  0
LINE
  5
38
330
1F
100
AcDbEntity
  8
LC-001-002-----0
 62
     7
370
    50
100
AcDbLine
 10
248.49456
 20
257.816871
 30
0.0
 11
248.49456
 21
226.313984
 31
0.0
  0
LINE
  5
39
330
1F
100
AcDbEntity
  8
LC-001-002-----0
 62
     7
370
    50
100
AcDbLine
 10
192.99456
 20
336.816696
 30
0.0
 11
195.49456
 21
336.816696
 31
0.0
  0
LINE
  5
3A
330
1F
100
AcDbEntity
  8
LC-001-002-----0
 62
     7
370
    50
100
AcDbLine
 10
251.49456
 20
336.816696
 30
0.0
 11
238.424803
 21
336.816696
 31
0.0
  0
LINE
  5
3B
330
1F
100
AcDbEntity
  8
LC-001-002-----0
 62
     7
370
    50
100
AcDbLine
 10
72.742817
 20
369.66738
 30
0.0
 11
374.254017
 21
369.66738
 31
0.0
  0
LINE
  5
3C
330
1F
100
AcDbEntity
  8
LC-001-002-----0
 62
     7
370
    50
100
AcDbLine
 10
260.99456
 20
258.816864
 30
0.0
 11
250.498561
 21
258.81687
 31
0.0
  0
LINE
  5
3D
330
1F
100
AcDbEntity
  8
LC-001-002-----0
 62
     7
370
    50
100
AcDbLine
 10
181.99456
 20
258.81669
 30
0.0
 11
154.99456
 21
258.816696
 31
0.0
  0
ARC
  5
3F
330
1F
100
AcDbEntity
  8
LC-003-002-RND-0
 62
     7
370
    50
100
AcDbCircle
 10
116.045192
 20
369.139385
 30
0.0
 40
2.000000000000016
100
AcDbArc
 50
225.0
 51
266.000003
  0
LINE
  5
40
330
1F
100
AcDbEntity
  8
LC-001-002-----0
 62
     7
370
    50
100
AcDbLine
 10
374.254017
 20
366.666923
 30
0.0
 11
334.698704
 21
365.976482
 31
0.0
  0
ARC
  5
41
330
1F
100
AcDbEntity
  8
LC-003-002-RND-0
 62
     7
370
    50
100
AcDbCircle
 10
330.951642
 20
369.139385
 30
0.0
 40
1.999999999999945
100
AcDbArc
 50
273.999997
 51
315.0
  0
LINE
  5
42
330
1F
100
AcDbEntity
  8
LC-001-002-----0
 62
     7
370
    50
100
AcDbLine
 10
310.250185
 20
356.470263
 30
0.0
 11
310.250185
 21
362.970263
 31
0.0
  0
LINE
  5
43
330
1F
100
AcDbEntity
  8
LC-001-002-----0
 62
     7
370
    50
100
AcDbLine
 10
312.250185
 20
362.970263
 30
0.0
 11
310.251567
 21
362.970263
 31
0.0
  0
LINE
  5
44
330
1F
100
AcDbEntity
  8
LC-001-002-----0
 62
     7
370
    50
100
AcDbLine
 10
312.250185
 20
356.970263
 30
0.0
 11
312.250185
 21
362.970263
 31
0.0
  0
LINE
  5
45
330
1F
100
AcDbEntity
  8
LC-001-002-----0
 62
     7
370
    50
100
AcDbLine
 10
314.250185
 20
356.970263
 30
0.0
 11
312.250185
 21
356.970263
 31
0.0
  0
LINE
  5
46
330
1F
100
AcDbEntity
  8
LC-001-002-----0
 62
     7
370
    50
100
AcDbLine
 10
301.551567
 20
344.666696
 30
0.0
 11
301.351567
 21
344.666696
 31
0.0
  0
LINE
  5
47
330
1F
100
AcDbEntity
  8
LC-001-002-----0
 62
     7
370
    50
100
AcDbLine
 10
310.251567
 20
345.966696
 30
0.0
 11
310.251567
 21
362.966696
 31
0.0
  0
LINE
  5
48
330
1F
100
AcDbEntity
  8
LC-001-002-----0
 62
     7
370
    50
100
AcDbLine
 10
310.250185
 20
356.751328
 30
0.0
 11
310.250185
 21
356.751328
 31
0.0
  0
LINE
  5
49
330
1F
100
AcDbEntity
  8
LC-001-002-----0
 62
     7
370
    50
100
AcDbLine
 10
301.551567
 20
341.166696
 30
0.0
 11
301.551567
 21
342.666696
 31
0.0
  0
LINE
  5
4A
330
1F
100
AcDbEntity
  8
LC-001-002-----0
 62
     7
370
    50
100
AcDbLine
 10
301.551567
 20
337.716696
 30
0.0
 11
301.551567
 21
338.216696
 31
0.0
  0
LINE
  5
4B
330
1F
100
AcDbEntity
  8
LC-001-002-----0
 62
     7
370
    50
100
AcDbLine
 10
301.551567
 20
336.216696
 30
0.0
 11
301.551567
 21
339.166696
 31
0.0
  0
LINE
  5
4C
330
1F
100
AcDbEntity
  8
LC-001-002-----0
 62
     7
370
    50
100
AcDbLine
 10
301.551567
 20
336.216696
 30
0.0
 11
300.993853
 21
336.216696
 31
0.0
  0
LINE
  5
4D
330
1F
100
AcDbEntity
  8
LC-001-002-----0
 62
     7
370
    50
100
AcDbLine
 10
301.551567
 20
339.166696
 30
0.0
 11
301.351567
 21
339.166696
 31
0.0
  0
ARC
  5
4E
330
1F
100
AcDbEntity
  8
LC-003-002-RND-0
 62
     7
370
    50
100
AcDbCircle
 10
301.351567
 20
343.866696
 30
0.0
 40
0.8000000000001819
100
AcDbArc
 50
90.0
 51
180.0
  0
ARC
  5
4F
330
1F
100
AcDbEntity
  8
LC-003-002-RND-0
 62
     7
370
    50
100
AcDbCircle
 10
301.351567
 20
340.366696
 30
0.0
 40
0.8000000000001819
100
AcDbArc
 50
90.0
 51
180.0
  0
LINE
  5
50
330
1F
100
AcDbEntity
  8
LC-001-002-----0
 62
     7
370
    50
100
AcDbLine
 10
300.551567
 20
339.966696
 30
0.0
 11
300.551567
 21
340.366696
 31
0.0
  0
LINE
  5
51
330
1F
100
AcDbEntity
  8
LC-001-002-----0
 62
     7
370
    50
100
AcDbLine
 10
300.551567
 20
343.466696
 30
0.0
 11
300.551567
 21
343.866696
 31
0.0
  0
ARC
  5
52
330
1F
100
AcDbEntity
  8
LC-003-002-RND-0
 62
     7
370
    50
100
AcDbCircle
 10
301.351567
 20
339.966696
 30
0.0
 40
0.8000000000001819
100
AcDbArc
 50
180.0
 51
270.0
  0
ARC
  5
53
330
1F
100
AcDbEntity
  8
LC-003-002-RND-0
 62
     7
370
    50
100
AcDbCircle
 10
301.351567
 20
343.466696
 30
0.0
 40
0.8000000000001819
100
AcDbArc
 50
180.0
 51
270.0
  0
LINE
  5
54
330
1F
100
AcDbEntity
  8
LC-001-002-----0
 62
     7
370
    50
100
AcDbLine
 10
301.551567
 20
342.666696
 30
0.0
 11
301.351567
 21
342.666696
 31
0.0
  0
ARC
  5
55
330
1F
100
AcDbEntity
  8
LC-003-002-RND-0
 62
     7
370
    50
100
AcDbCircle
 10
309.751567
 20
345.966696
 30
0.0
 40
0.5
100
AcDbArc
 50
270.0
 51
0.0
  0
LINE
  5
56
330
1F
100
AcDbEntity
  8
LC-001-002-----0
 62
     7
370
    50
100
AcDbLine
 10
331.091154
 20
367.144257
 30
0.0
 11
315.728652
 21
366.070007
 31
0.0
  0
ARC
  5
57
330
1F
100
AcDbEntity
  8
LC-003-002-RND-0
 62
     7
370
    50
100
AcDbCircle
 10
314.302603
 20
357.966696
 30
0.0
 40
1.0
100
AcDbArc
 50
270.0
 51
357.0
  0
LINE
  5
58
330
1F
100
AcDbEntity
  8
LC-001-002-----0
 62
     7
370
    50
100
AcDbLine
 10
315.728652
 20
366.070007
 30
0.0
 11
315.301232
 21
357.91436
 31
0.0
  0
LINE
  5
59
330
1F
100
AcDbEntity
  8
LC-001-002-----0
 62
     7
370
    50
100
AcDbLine
 10
374.254017
 20
369.66738
 30
0.0
 11
374.254017
 21
366.666923
 31
0.0
  0
LINE
  5
5A
330
1F
100
AcDbEntity
  8
LC-001-002-----0
 62
     7
370
    50
100
AcDbLine
 10
318.516009
 20
361.933983
 30
0.0
 11
318.27366
 21
357.309688
 31
0.0
  0
LINE
  5
5B
330
1F
100
AcDbEntity
  8
LC-001-002-----0
 62
     7
370
    50
100
AcDbLine
 10
334.698704
 20
365.976482
 30
0.0
 11
332.992079
 21
364.269857
 31
0.0
  0
LINE
  5
5C
330
1F
100
AcDbEntity
  8
LC-001-002-----0
 62
     7
370
    50
100
AcDbLine
 10
301.551567
 20
341.166696
 30
0.0
 11
301.351567
 21
341.166696
 31
0.0
  0
ARC
  5
5E
330
1F
100
AcDbEntity
  8
LC-004-001-RND-0
 62
     7
370
    50
100
AcDbCircle
 10
319.987821
 20
361.856849
 30
0.0
 40
1.499999999999829
100
AcDbArc
 50
93.999997
 51
177.0
  0
LINE
  5
5F
330
1F
100
AcDbEntity
  8
LC-001-002-----0
 62
     7
370
    50
100
AcDbLine
 10
313.001567
 20
346.466696
 30
0.0
 11
303.74456
 21
333.246319
 31
0.0
  0
LINE
  5
60
330
1F
100
AcDbEntity
  8
LC-001-002-----0
 62
     7
370
    50
100
AcDbLine
 10
315.277771
 20
354.466696
 30
0.0
 11
315.001567
 21
354.466696
 31
0.0
  0
LINE
  5
61
330
1F
100
AcDbEntity
  8
LC-001-002-----0
 62
     7
370
    50
100
AcDbLine
 10
136.746649
 20
346.003844
 30
0.0
 11
136.746649
 21
362.970263
 31
0.0
  0
LINE
  5
63
330
1F
100
AcDbEntity
  8
LC-005-001-----0
 62
     7
370
    50
100
AcDbLine
 10
332.992079
 20
364.269857
 30
0.0
 11
319.883186
 21
363.353195
 31
0.0
  0
ARC
  5
64
330
1F
100
AcDbEntity
  8
LC-003-002-RND-0
 62
     7
370
    50
100
AcDbCircle
 10
315.277771
 20
357.466696
 30
0.0
 40
3.0
100
AcDbArc
 50
270.0
 51
357.0
  0
LINE
  5
65
330
1F
100
AcDbEntity
  8
LC-001-002-----0
 62
     7
370
    50
100
AcDbLine
 10
134.745267
 20
362.970263
 30
0.0
 11
136.746649
 21
362.970263
 31
0.0
  0
ARC
  5
66
330
1F
100
AcDbEntity
  8
LC-003-002-RND-0
 62
     7
370
    50
100
AcDbCircle
 10
315.001567
 20
352.466696
 30
0.0
 40
2.0
100
AcDbArc
 50
90.0
 51
180.0
  0
LINE
  5
67
330
1F
100
AcDbEntity
  8
LC-001-002-----0
 62
     7
370
    50
100
AcDbLine
 10
313.001567
 20
346.466696
 30
0.0
 11
313.001567
 21
352.466696
 31
0.0
  0
LINE
  5
68
330
1F
100
AcDbEntity
  8
LC-001-002-----0
 62
     7
370
    50
100
AcDbLine
 10
301.551567
 20
337.716696
 30
0.0
 11
301.551567
 21
337.716696
 31
0.0
  0
LINE
  5
69
330
1F
100
AcDbEntity
  8
LC-001-002-----0
 62
     7
370
    50
100
AcDbLine
 10
309.751567
 20
345.466696
 30
0.0
 11
302.351567
 21
345.466696
 31
0.0
  0
LINE
  5
6A
330
1F
100
AcDbEntity
  8
LC-001-002-----0
 62
     7
370
    50
100
AcDbLine
 10
310.251567
 20
346.966696
 30
0.0
 11
310.251567
 21
348.266078
 31
0.0
  0
LINE
  5
6B
330
1F
100
AcDbEntity
  8
LC-001-002-----0
 62
     7
370
    50
100
AcDbLine
 10
312.251567
 20
362.966696
 30
0.0
 11
310.251567
 21
362.966696
 31
0.0
  0
LINE
  5
6C
330
1F
100
AcDbEntity
  8
LC-001-002-----0
 62
     7
370
    50
100
AcDbLine
 10
301.551567
 20
337.466696
 30
0.0
 11
301.551567
 21
337.966696
 31
0.0
  0
LINE
  5
6D
330
1F
100
AcDbEntity
  8
LC-001-002-----0
 62
     7
370
    50
100
AcDbLine
 10
301.551567
 20
337.666696
 30
0.0
 11
301.551567
 21
338.166696
 31
0.0
  0
LINE
  5
6E
330
1F
100
AcDbEntity
  8
LC-001-002-----0
 62
     7
370
    50
100
AcDbLine
 10
333.598417
 20
368.957734
 30
0.0
 11
332.365855
 21
367.725172
 31
0.0
  0
LINE
  5
6F
330
1F
100
AcDbEntity
  8
LC-001-002-----0
 62
     7
370
    50
100
AcDbLine
 10
301.551567
 20
337.716696
 30
0.0
 11
301.551567
 21
337.716696
 31
0.0
  0
ARC
  5
70
330
1F
100
AcDbEntity
  8
LC-003-002-RND-0
 62
     7
370
    50
100
AcDbCircle
 10
302.351567
 20
344.666696
 30
0.0
 40
0.8000000000001819
100
AcDbArc
 50
90.0
 51
180.0
  0
LINE
  5
71
330
1F
100
AcDbEntity
  8
LC-001-002-----0
 62
     7
370
    50
100
AcDbLine
 10
301.551567
 20
344.666696
 30
0.0
 11
301.551567
 21
344.666696
 31
0.0
  0
LINE
  5
72
330
1F
100
AcDbEntity
  8
LC-001-002-----0
 62
     7
370
    50
100
AcDbLine
 10
145.995267
 20
270.816696
 30
0.0
 11
145.995267
 21
336.216696
 31
0.0
  0
LINE
  5
73
330
1F
100
AcDbEntity
  8
LC-001-002-----0
 62
     7
370
    50
100
AcDbLine
 10
245.494709
 20
243.816873
 30
0.0
 11
245.494719
 21
258.816698
 31
0.0
  0
LINE
  5
74
330
1F
100
AcDbEntity
  8
LC-001-002-----0
 62
     7
370
    50
100
AcDbLine
 10
201.49456
 20
243.816696
 30
0.0
 11
201.49456
 21
258.816696
 31
0.0
  0
LINE
  5
75
330
1F
100
AcDbEntity
  8
LC-001-002-----0
 62
     7
370
    50
100
AcDbLine
 10
245.494684
 20
226.313986
 30
0.0
 11
245.494709
 21
243.816873
 31
0.0
  0
LINE
  5
76
330
1F
100
AcDbEntity
  8
LC-001-002-----0
 62
     7
370
    50
100
AcDbLine
 10
248.49456
 20
226.313984
 30
0.0
 11
223.49456
 21
226.314
 31
0.0
  0
LINE
  5
77
330
1F
100
AcDbEntity
  8
LC-001-002-----0
 62
     7
370
    50
100
AcDbLine
 10
145.445267
 20
344.666696
 30
0.0
 11
145.645267
 21
344.666696
 31
0.0
  0
LINE
  5
78
330
1F
100
AcDbEntity
  8
LC-001-002-----0
 62
     7
370
    50
100
AcDbLine
 10
136.746649
 20
356.751328
 30
0.0
 11
136.746649
 21
356.751328
 31
0.0
  0
LINE
  5
79
330
1F
100
AcDbEntity
  8
LC-001-002-----0
 62
     7
370
    50
100
AcDbLine
 10
145.445267
 20
341.166696
 30
0.0
 11
145.445267
 21
342.666696
 31
0.0
  0
LINE
  5
7A
330
1F
100
AcDbEntity
  8
LC-001-002-----0
 62
     7
370
    50
100
AcDbLine
 10
145.445267
 20
337.716696
 30
0.0
 11
145.445267
 21
338.216696
 31
0.0
  0
LINE
  5
7B
330
1F
100
AcDbEntity
  8
LC-001-002-----0
 62
     7
370
    50
100
AcDbLine
 10
145.445267
 20
336.216696
 30
0.0
 11
145.445267
 21
339.166696
 31
0.0
  0
LINE
  5
7C
330
1F
100
AcDbEntity
  8
LC-001-002-----0
 62
     7
370
    50
100
AcDbLine
 10
145.445267
 20
336.216696
 30
0.0
 11
145.995267
 21
336.216696
 31
0.0
  0
LINE
  5
7D
330
1F
100
AcDbEntity
  8
LC-001-002-----0
 62
     7
370
    50
100
AcDbLine
 10
145.445267
 20
339.166696
 30
0.0
 11
145.645267
 21
339.166696
 31
0.0
  0
ARC
  5
7E
330
1F
100
AcDbEntity
  8
LC-003-002-RND-0
 62
     7
370
    50
100
AcDbCircle
 10
145.645267
 20
343.866696
 30
0.0
 40
0.7999999999992724
100
AcDbArc
 50
0.0
 51
90.0
  0
ARC
  5
7F
330
1F
100
AcDbEntity
  8
LC-003-002-RND-0
 62
     7
370
    50
100
AcDbCircle
 10
145.645267
 20
340.366696
 30
0.0
 40
0.7999999999992724
100
AcDbArc
 50
0.0
 51
90.0
  0
LINE
  5
80
330
1F
100
AcDbEntity
  8
LC-001-002-----0
 62
     7
370
    50
100
AcDbLine
 10
146.445267
 20
339.966696
 30
0.0
 11
146.445267
 21
340.366696
 31
0.0
  0
LINE
  5
81
330
1F
100
AcDbEntity
  8
LC-001-002-----0
 62
     7
370
    50
100
AcDbLine
 10
146.445267
 20
343.466696
 30
0.0
 11
146.445267
 21
343.866696
 31
0.0
  0
ARC
  5
82
330
1F
100
AcDbEntity
  8
LC-003-002-RND-0
 62
     7
370
    50
100
AcDbCircle
 10
145.645267
 20
339.966696
 30
0.0
 40
0.7999999999997272
100
AcDbArc
 50
270.0
 51
0.0
  0
ARC
  5
83
330
1F
100
AcDbEntity
  8
LC-003-002-RND-0
 62
     7
370
    50
100
AcDbCircle
 10
145.645267
 20
343.466696
 30
0.0
 40
0.7999999999997272
100
AcDbArc
 50
270.0
 51
0.0
  0
LINE
  5
84
330
1F
100
AcDbEntity
  8
LC-001-002-----0
 62
     7
370
    50
100
AcDbLine
 10
145.445267
 20
342.666696
 30
0.0
 11
145.645267
 21
342.666696
 31
0.0
  0
ARC
  5
85
330
1F
100
AcDbEntity
  8
LC-003-002-RND-0
 62
     7
370
    50
100
AcDbCircle
 10
137.245267
 20
345.966696
 30
0.0
 40
0.5
100
AcDbArc
 50
180.0
 51
270.0
  0
LINE
  5
86
330
1F
100
AcDbEntity
  8
LC-001-002-----0
 62
     7
370
    50
100
AcDbLine
 10
115.90568
 20
367.144257
 30
0.0
 11
131.268182
 21
366.070007
 31
0.0
  0
LINE
  5
87
330
1F
100
AcDbEntity
  8
LC-001-002-----0
 62
     7
370
    50
100
AcDbLine
 10
132.694231
 20
356.966696
 30
0.0
 11
134.745267
 21
356.966696
 31
0.0
  0
ARC
  5
88
330
1F
100
AcDbEntity
  8
LC-003-002-RND-0
 62
     7
370
    50
100
AcDbCircle
 10
132.694231
 20
357.966696
 30
0.0
 40
1.00000000000074
100
AcDbArc
 50
183.0
 51
270.0
  0
LINE
  5
89
330
1F
100
AcDbEntity
  8
LC-001-002-----0
 62
     7
370
    50
100
AcDbLine
 10
300.993853
 20
270.816696
 30
0.0
 11
300.993853
 21
336.216696
 31
0.0
  0
LINE
  5
8A
330
1F
100
AcDbEntity
  8
LC-001-002-----0
 62
     7
370
    50
100
AcDbLine
 10
134.745267
 20
356.966696
 30
0.0
 11
134.745267
 21
362.970263
 31
0.0
  0
LINE
  5
8B
330
1F
100
AcDbEntity
  8
LC-001-002-----0
 62
     7
370
    50
100
AcDbLine
 10
131.268182
 20
366.070007
 30
0.0
 11
131.695602
 21
357.91436
 31
0.0
  0
LINE
  5
8C
330
1F
100
AcDbEntity
  8
LC-001-002-----0
 62
     7
370
    50
100
AcDbLine
 10
72.742817
 20
369.66738
 30
0.0
 11
72.742817
 21
366.666923
 31
0.0
  0
ARC
  5
8D
330
1F
100
AcDbEntity
  8
LC-001-002-----0
 62
     7
370
    50
100
AcDbCircle
 10
195.49456
 20
336.316696
 30
0.0
 40
0.5000000000001301
100
AcDbArc
 50
270.000117
 51
89.999981
  0
LINE
  5
8E
330
1F
100
AcDbEntity
  8
LC-001-002-----0
 62
     7
370
    50
100
AcDbLine
 10
128.480657
 20
361.937192
 30
0.0
 11
128.723174
 21
357.309688
 31
0.0
  0
LINE
  5
8F
330
1F
100
AcDbEntity
  8
LC-001-002-----0
 62
     7
370
    50
100
AcDbLine
 10
112.29813
 20
365.976482
 30
0.0
 11
114.004755
 21
364.269857
 31
0.0
  0
LINE
  5
90
330
1F
100
AcDbEntity
  8
LC-001-002-----0
 62
     7
370
    50
100
AcDbLine
 10
192.99456
 20
264.816696
 30
0.0
 11
192.99456
 21
336.816696
 31
0.0
  0
LINE
  5
91
330
1F
100
AcDbEntity
  8
LC-001-002-----0
 62
     7
370
    50
100
AcDbLine
 10
201.49456
 20
226.313808
 30
0.0
 11
201.49456
 21
243.816696
 31
0.0
  0
LINE
  5
92
330
1F
100
AcDbEntity
  8
LC-001-002-----0
 62
     7
370
    50
100
AcDbLine
 10
145.445267
 20
341.166696
 30
0.0
 11
145.645267
 21
341.166696
 31
0.0
  0
LINE
  5
93
330
1F
100
AcDbEntity
  8
LC-001-002-----0
 62
     7
370
    50
100
AcDbLine
 10
198.49456
 20
226.313808
 30
0.0
 11
223.49456
 21
226.313808
 31
0.0
  0
ARC
  5
94
330
1F
100
AcDbEntity
  8
LC-003-002-RND-0
 62
     7
370
    50
100
AcDbCircle
 10
154.995267
 20
270.816696
 30
0.0
 40
9.0
100
AcDbArc
 50
180.0
 51
270.0
  0
ARC
  5
95
330
1F
100
AcDbEntity
  8
LC-003-002-RND-0
 62
     7
370
    50
100
AcDbCircle
 10
291.993853
 20
270.816696
 30
0.0
 40
9.0
100
AcDbArc
 50
270.0
 51
0.0
  0
LINE
  5
96
330
1F
100
AcDbEntity
  8
LC-001-002-----0
 62
     7
370
    50
100
AcDbLine
 10
133.995267
 20
346.466696
 30
0.0
 11
143.24456
 21
333.257336
 31
0.0
  0
LINE
  5
97
330
1F
100
AcDbEntity
  8
LC-001-002-----0
 62
     7
370
    50
100
AcDbLine
 10
131.719063
 20
354.466696
 30
0.0
 11
131.995267
 21
354.466696
 31
0.0
  0
LINE
  5
98
330
1F
100
AcDbEntity
  8
LC-005-001-----0
 62
     7
370
    50
100
AcDbLine
 10
114.004755
 20
364.269857
 30
0.0
 11
127.087347
 21
363.355034
 31
0.0
  0
ARC
  5
99
330
1F
100
AcDbEntity
  8
LC-003-002-RND-0
 62
     7
370
    50
100
AcDbCircle
 10
131.719063
 20
357.466696
 30
0.0
 40
2.999999999999495
100
AcDbArc
 50
183.0
 51
270.0
  0
ARC
  5
9A
330
1F
100
AcDbEntity
  8
LC-003-002-RND-0
 62
     7
370
    50
100
AcDbCircle
 10
131.995267
 20
352.466696
 30
0.0
 40
2.0
100
AcDbArc
 50
0.0
 51
90.0
  0
LINE
  5
9B
330
1F
100
AcDbEntity
  8
LC-001-002-----0
 62
     7
370
    50
100
AcDbLine
 10
133.995267
 20
346.466696
 30
0.0
 11
133.995267
 21
352.466696
 31
0.0
  0
LINE
  5
9C
330
1F
100
AcDbEntity
  8
LC-001-002-----0
 62
     7
370
    50
100
AcDbLine
 10
145.445267
 20
337.716696
 30
0.0
 11
145.445267
 21
337.716696
 31
0.0
  0
LINE
  5
9D
330
1F
100
AcDbEntity
  8
LC-001-002-----0
 62
     7
370
    50
100
AcDbLine
 10
137.245267
 20
345.466696
 30
0.0
 11
144.645267
 21
345.466696
 31
0.0
  0
LINE
  5
9E
330
1F
100
AcDbEntity
  8
LC-001-002-----0
 62
     7
370
    50
100
AcDbLine
 10
145.445267
 20
337.466696
 30
0.0
 11
145.445267
 21
337.966696
 31
0.0
  0
LINE
  5
9F
330
1F
100
AcDbEntity
  8
LC-001-002-----0
 62
     7
370
    50
100
AcDbLine
 10
145.445267
 20
337.666696
 30
0.0
 11
145.445267
 21
338.166696
 31
0.0
  0
LINE
  5
A0
330
1F
100
AcDbEntity
  8
LC-001-002-----0
 62
     7
370
    50
100
AcDbLine
 10
113.398417
 20
368.957734
 30
0.0
 11
114.630979
 21
367.725172
 31
0.0
  0
LINE
  5
A1
330
1F
100
AcDbEntity
  8
LC-001-002-----0
 62
     7
370
    50
100
AcDbLine
 10
145.445267
 20
337.716696
 30
0.0
 11
145.445267
 21
337.716696
 31
0.0
  0
ARC
  5
A2
330
1F
100
AcDbEntity
  8
LC-003-002-RND-0
 62
     7
370
    50
100
AcDbCircle
 10
144.645267
 20
344.666696
 30
0.0
 40
0.7999999999992724
100
AcDbArc
 50
0.0
 51
90.0
  0
LINE
  5
A3
330
1F
100
AcDbEntity
  8
LC-001-002-----0
 62
     7
370
    50
100
AcDbLine
 10
145.445267
 20
344.666696
 30
0.0
 11
145.445267
 21
344.666696
 31
0.0
  0
LINE
  5
A4
330
1F
100
AcDbEntity
  8
LC-001-002-----0
 62
     7
370
    50
100
AcDbLine
 10
291.994552
 20
258.816843
 30
0.0
 11
264.99456
 21
258.816863
 31
0.0
  0
ARC
  5
A5
330
1F
100
AcDbEntity
  8
LC-003-002-RND-0
 62
     7
370
    50
100
AcDbCircle
 10
256.99456
 20
264.816696
 30
0.0
 40
3.0
100
AcDbArc
 50
180.0
 51
270.0
  0
LINE
  5
A6
330
1F
100
AcDbEntity
  8
LC-001-002-----0
 62
     7
370
    50
100
AcDbLine
 10
195.974248
 20
264.144215
 30
0.0
 11
195.348772
 21
335.816696
 31
0.0
  0
ARC
  5
A7
330
1F
100
AcDbEntity
  8
LC-003-002-RND-0
 62
     7
370
    50
100
AcDbCircle
 10
189.99456
 20
264.816696
 30
0.0
 40
3.0
100
AcDbArc
 50
270.0
 51
0.0
  0
LINE
  5
A8
330
1F
100
AcDbEntity
  8
LC-001-002-----0
 62
     7
370
    50
100
AcDbLine
 10
154.995267
 20
261.816696
 30
0.0
 11
189.99456
 21
261.816696
 31
0.0
  0
LINE
  5
A9
330
1F
100
AcDbEntity
  8
LC-001-002-----0
 62
     7
370
    50
100
AcDbLine
 10
253.99456
 20
264.816696
 30
0.0
 11
253.99456
 21
336.816696
 31
0.0
  0
LINE
  5
AA
330
1F
100
AcDbEntity
  8
LC-001-002-----0
 62
     7
370
    50
100
AcDbLine
 10
251.494559
 20
335.816696
 30
0.0
 11
251.77625
 21
335.816696
 31
0.0
  0
ARC
  5
AB
330
1F
100
AcDbEntity
  8
LC-001-002-----0
 62
     7
370
    50
100
AcDbCircle
 10
251.49456
 20
336.316696
 30
0.0
 40
0.5000000000000267
100
AcDbArc
 50
90.000019
 51
269.999883
  0
LINE
  5
AC
330
1F
100
AcDbEntity
  8
LC-001-002-----0
 62
     7
370
    50
100
AcDbLine
 10
291.993853
 20
261.816696
 30
0.0
 11
256.99456
 21
261.816696
 31
0.0
  0
LINE
  5
AD
330
1F
100
AcDbEntity
  8
LC-001-002-----0
 62
     7
370
    50
100
AcDbLine
 10
198.494401
 20
261.816696
 30
0.0
 11
248.494719
 21
261.816696
 31
0.0
  0
LINE
  5
AE
330
1F
100
AcDbEntity
  8
LC-001-002-----0
 62
     7
370
    50
100
AcDbLine
 10
251.020689
 20
264.290289
 30
0.0
 11
251.77625
 21
335.816696
 31
0.0
  0
LINE
  5
AF
330
1F
100
AcDbEntity
  8
LC-001-002-----0
 62
     7
370
    50
100
AcDbLine
 10
253.99456
 20
336.816696
 30
0.0
 11
251.49456
 21
336.816696
 31
0.0
  0
LINE
  5
B0
330
1F
100
AcDbEntity
  8
LC-001-002-----0
 62
     7
370
    50
100
AcDbLine
 10
198.49456
 20
257.816696
 30
0.0
 11
198.49456
 21
226.313808
 31
0.0
  0
ARC
  5
B1
330
1F
100
AcDbEntity
  8
LC-003-002-RND-0
 62
     7
370
    50
100
AcDbCircle
 10
249.49456
 20
257.816871
 30
0.0
 40
0.9999999999999862
100
AcDbArc
 50
89.999963
 51
180.0
  0
ARC
  5
B2
330
1F
100
AcDbEntity
  8
LC-003-002-RND-0
 62
     7
370
    50
100
AcDbCircle
 10
197.49456
 20
257.816696
 30
0.0
 40
1.0
100
AcDbArc
 50
0.0
 51
90.0
  0
LINE
  5
B3
330
1F
100
AcDbEntity
  8
LC-001-002-----0
 62
     7
370
    50
100
AcDbLine
 10
303.74456
 20
333.246319
 30
0.0
 11
303.74456
 21
270.566843
 31
0.0
  0
LINE
  5
B4
330
1F
100
AcDbEntity
  8
LC-001-002-----0
 62
     7
370
    50
100
AcDbLine
 10
143.24456
 20
333.257336
 30
0.0
 11
143.24456
 21
270.566696
 31
0.0
  0
ARC
  5
B5
330
1F
100
AcDbEntity
  8
LC-003-002-RND-0
 62
     7
370
    50
100
AcDbCircle
 10
291.99456
 20
270.566843
 30
0.0
 40
11.75000000000001
100
AcDbArc
 50
269.999963
 51
0.0
  0
ARC
  5
B6
330
1F
100
AcDbEntity
  8
LC-003-002-RND-0
 62
     7
370
    50
100
AcDbCircle
 10
154.99456
 20
270.566696
 30
0.0
 40
11.75
100
AcDbArc
 50
180.0
 51
270.0
  0
LINE
  5
B7
330
1F
100
AcDbEntity
  8
LC-001-002-----0
 62
     7
370
    50
100
AcDbLine
 10
253.376263
 20
260.801193
 30
0.0
 11
254.521915
 21
258.816868
 31
0.0
  0
LINE
  5
B8
330
1F
100
AcDbEntity
  8
LC-001-002-----0
 62
     7
370
    50
100
AcDbLine
 10
251.644212
 20
260.801193
 30
0.0
 11
250.498561
 21
258.81687
 31
0.0
  0
ARC
  5
B9
330
1F
100
AcDbEntity
  8
LC-003-002-RND-0
 62
     7
370
    50
100
AcDbCircle
 10
252.510238
 20
260.301192
 30
0.0
 40
1.000000000000029
100
AcDbArc
 50
30.000037
 51
149.999963
  0
LINE
  5
BA
330
1F
100
AcDbEntity
  8
LC-001-002-----0
 62
     7
370
    50
100
AcDbLine
 10
193.612857
 20
260.801193
 30
0.0
 11
192.467105
 21
258.816696
 31
0.0
  0
LINE
  5
BB
330
1F
100
AcDbEntity
  8
LC-001-002-----0
 62
     7
370
    50
100
AcDbLine
 10
195.344907
 20
260.801193
 30
0.0
 11
196.490659
 21
258.816696
 31
0.0
  0
ARC
  5
BC
330
1F
100
AcDbEntity
  8
LC-003-002-RND-0
 62
     7
370
    50
100
AcDbCircle
 10
194.478882
 20
260.301192
 30
0.0
 40
1.000000000000143
100
AcDbArc
 50
30.000037
 51
149.999963
  0
LINE
  5
BD
330
1F
100
AcDbEntity
  8
LC-001-002-----0
 62
     7
370
    50
100
AcDbLine
 10
197.49456
 20
258.816696
 30
0.0
 11
196.490659
 21
258.816696
 31
0.0
  0
LINE
  5
BE
330
1F
100
AcDbEntity
  8
LC-001-002-----0
 62
     7
370
    50
100
AcDbLine
 10
302.351567
 20
345.466696
 30
0.0
 11
264.963624
 21
345.466696
 31
0.0
  0
LINE
  5
BF
330
1F
100
AcDbEntity
  8
LC-001-002-----0
 62
     7
370
    50
100
AcDbLine
 10
300.993853
 20
336.216696
 30
0.0
 11
264.963618
 21
336.216696
 31
0.0
  0
LINE
  5
C0
330
1F
100
AcDbEntity
  8
LC-001-002-----0
 62
     7
370
    50
100
AcDbLine
 10
248.494719
 20
261.816696
 30
0.0
 11
248.520829
 21
261.816696
 31
0.0
  0
ARC
  5
C1
330
1F
100
AcDbEntity
  8
LC-003-002-RND-0
 62
     7
370
    50
100
AcDbCircle
 10
248.494719
 20
258.816696
 30
0.0
 40
3.000000000000227
100
AcDbArc
 50
90.0
 51
179.999963
  0
ARC
  5
C2
330
1F
100
AcDbEntity
  8
LC-003-002-RND-0
 62
     7
370
    50
100
AcDbCircle
 10
248.520829
 20
264.316696
 30
0.0
 40
2.5
100
AcDbArc
 50
270.0
 51
359.394785
  0
ARC
  5
C3
330
1F
100
AcDbEntity
  8
LC-003-002-RND-0
 62
     7
370
    50
100
AcDbCircle
 10
198.468291
 20
264.316696
 30
0.0
 40
2.50000000000014
100
AcDbArc
 50
180.605215
 51
270.0
  0
ARC
  5
C4
330
1F
100
AcDbEntity
  8
LC-003-002-RND-0
 62
     7
370
    50
100
AcDbCircle
 10
198.494401
 20
258.816696
 30
0.0
 40
2.999999999999959
100
AcDbArc
 50
0.000037
 51
90.0
  0
LINE
  5
C5
330
1F
100
AcDbEntity
  8
LC-001-002-----0
 62
     7
370
    50
100
AcDbLine
 10
250.498561
 20
258.81687
 30
0.0
 11
249.49456
 21
258.816871
 31
0.0
  0
LINE
  5
C6
330
1F
100
AcDbEntity
  8
LC-001-002-----0
 62
     7
370
    50
100
AcDbLine
 10
196.490659
 20
258.816696
 30
0.0
 11
185.99456
 21
258.816694
 31
0.0
  0
LINE
  5
C7
330
1F
100
AcDbEntity
  8
LC-001-002-----0
 62
     7
370
    50
100
AcDbLine
 10
195.49456
 20
336.816696
 30
0.0
 11
195.705702
 21
336.816696
 31
0.0
  0
LINE
  5
C8
330
1F
100
AcDbEntity
  8
LC-001-002-----0
 62
     7
370
    50
100
AcDbLine
 10
145.995267
 20
336.216696
 30
0.0
 11
181.963447
 21
336.216696
 31
0.0
  0
LINE
  5
C9
330
1F
100
AcDbEntity
  8
LC-001-002-----0
 62
     7
370
    50
100
AcDbLine
 10
144.645267
 20
345.466696
 30
0.0
 11
181.963421
 21
345.466696
 31
0.0
  0
ARC
  5
CA
330
1F
100
AcDbEntity
  8
LC-004-001-RND-0
 62
     7
370
    50
100
AcDbCircle
 10
126.982713
 20
361.858688
 30
0.0
 40
1.499999999999963
100
AcDbArc
 50
3.0
 51
86.000003
  0
INSERT
  5
14D
330
1F
100
AcDbEntity
  8
LC-006-005-----0
 62
     7
370
    25
100
AcDbBlockReference
  2
*X11
 10
0.0
 20
0.0
 30
0.0
  0
INSERT
  5
1C3
330
1F
100
AcDbEntity
  8
LC-006-005-----0
 62
     7
370
    25
100
AcDbBlockReference
  2
*X22
 10
0.0
 20
0.0
 30
0.0
  0
LINE
  5
1C4
330
1F
100
AcDbEntity
  8
LC-001-002-----0
 62
     7
370
    50
100
AcDbLine
 10
181.99456
 20
258.850811
 30
0.0
 11
181.99456
 21
148.816692
 31
0.0
  0
LINE
  5
1C5
330
1F
100
AcDbEntity
  8
LC-001-002-----0
 62
     7
370
    50
100
AcDbLine
 10
264.99456
 20
258.816863
 30
0.0
 11
264.99456
 21
148.816692
 31
0.0
  0
LINE
  5
1C6
330
1F
100
AcDbEntity
  8
LC-001-002-----0
 62
     7
370
    50
100
AcDbLine
 10
185.99456
 20
258.816694
 30
0.0
 11
185.99456
 21
148.816692
 31
0.0
  0
LINE
  5
1C7
330
1F
100
AcDbEntity
  8
LC-001-002-----0
 62
     7
370
    50
100
AcDbLine
 10
260.99456
 20
258.816864
 30
0.0
 11
260.99456
 21
148.816692
 31
0.0
  0
LINE
  5
1C8
330
1F
100
AcDbEntity
  8
LC-001-002-----0
 62
     7
370
    50
100
AcDbLine
 10
181.99456
 20
148.816692
 30
0.0
 11
264.99456
 21
148.816692
 31
0.0
  0
LINE
  5
1C9
330
1F
100
AcDbEntity
  8
LC-001-002-----0
 62
     7
370
    50
100
AcDbLine
 10
181.963416
 20
347.316696
 30
0.0
 11
181.963586
 21
287.316861
 31
0.0
  0
LINE
  5
1CA
330
1F
100
AcDbEntity
  8
LC-001-002-----0
 62
     7
370
    50
100
AcDbLine
 10
182.963416
 20
347.316696
 30
0.0
 11
182.963586
 21
287.316861
 31
0.0
  0
LINE
  5
1CB
330
1F
100
AcDbEntity
  8
LC-001-002-----0
 62
     7
370
    50
100
AcDbLine
 10
193.081136
 20
287.318554
 30
0.0
 11
181.96342
 21
287.316693
 31
0.0
  0
ARC
  5
1CC
330
1F
100
AcDbEntity
  8
LC-001-002-----0
 62
     7
370
    50
100
AcDbCircle
 10
192.963416
 20
347.316696
 30
0.0
 40
9.999999999999634
100
AcDbArc
 50
94.313709
 51
179.999848
  0
ARC
  5
1CD
330
1F
100
AcDbEntity
  8
LC-003-002-RND-0
 62
     7
370
    50
100
AcDbCircle
 10
193.963416
 20
347.316696
 30
0.0
 40
12.0
100
AcDbArc
 50
90.0
 51
180.0
  0
LINE
  5
1CE
330
1F
100
AcDbEntity
  8
LC-001-002-----0
 62
     7
370
    50
100
AcDbLine
 10
252.963634
 20
359.316867
 30
0.0
 11
237.213414
 21
359.316878
 31
0.0
  0
LINE
  5
1CF
330
1F
100
AcDbEntity
  8
LC-001-002-----0
 62
     7
370
    50
100
AcDbLine
 10
253.963633
 20
357.316867
 30
0.0
 11
224.906792
 21
357.316867
 31
0.0
  0
LINE
  5
1D0
330
1F
100
AcDbEntity
  8
LC-001-002-----0
 62
     7
370
    50
100
AcDbLine
 10
193.963416
 20
359.316696
 30
0.0
 11
209.713418
 21
359.316696
 31
0.0
  0
ARC
  5
1D1
330
1F
100
AcDbEntity
  8
LC-003-002-RND-0
 62
     7
370
    50
100
AcDbCircle
 10
228.213414
 20
360.316696
 30
0.0
 40
9.000000000000043
100
AcDbArc
 50
0.000006
 51
90.000006
  0
ARC
  5
1D2
330
1F
100
AcDbEntity
  8
LC-001-002-----0
 62
     7
370
    50
100
AcDbCircle
 10
253.963627
 20
347.316867
 30
0.0
 40
10.00000000000127
100
AcDbArc
 50
0.000096
 51
89.999963
  0
ARC
  5
1D3
330
1F
100
AcDbEntity
  8
LC-001-002-----0
 62
     7
370
    50
100
AcDbCircle
 10
252.963627
 20
347.316867
 30
0.0
 40
12.00000000000043
100
AcDbArc
 50
0.000096
 51
89.999963
  0
LINE
  5
1D4
330
1F
100
AcDbEntity
  8
LC-001-002-----0
 62
     7
370
    50
100
AcDbLine
 10
264.963625
 20
347.316859
 30
0.0
 11
264.963586
 21
287.316859
 31
0.0
  0
LINE
  5
1D5
330
1F
100
AcDbEntity
  8
LC-001-002-----0
 62
     7
370
    50
100
AcDbLine
 10
263.963625
 20
347.316861
 30
0.0
 11
263.963751
 21
287.317025
 31
0.0
  0
LINE
  5
1D6
330
1F
100
AcDbEntity
  8
LC-001-002-----0
 62
     7
370
    50
100
AcDbLine
 10
253.838071
 20
287.318707
 30
0.0
 11
264.963586
 21
287.316859
 31
0.0
  0
LINE
  5
1D7
330
1F
100
AcDbEntity
  8
LC-001-002-----0
 62
     7
370
    50
100
AcDbLine
 10
192.205702
 20
336.816696
 30
0.0
 11
192.211253
 21
357.325717
 31
0.0
  0
LINE
  5
1D8
330
1F
100
AcDbEntity
  8
LC-001-002-----0
 62
     7
370
    50
100
AcDbLine
 10
224.899077
 20
328.816696
 30
0.0
 11
196.643528
 21
328.816696
 31
0.0
  0
LINE
  5
1D9
330
1F
100
AcDbEntity
  8
LC-001-002-----0
 62
     7
370
    50
100
AcDbLine
 10
195.705705
 20
332.316696
 30
0.0
 11
196.643528
 21
328.816696
 31
0.0
  0
LINE
  5
1DA
330
1F
100
AcDbEntity
  8
LC-001-002-----0
 62
     7
370
    50
100
AcDbLine
 10
195.705705
 20
335.402483
 30
0.0
 11
195.705705
 21
332.316696
 31
0.0
  0
ARC
  5
1DB
330
1F
100
AcDbEntity
  8
LC-001-002-----0
 62
     7
370
    50
100
AcDbCircle
 10
195.455702
 20
336.109589
 30
0.0
 40
0.7500000000001456
100
AcDbArc
 50
289.471622
 51
70.528779
  0
LINE
  5
1DC
330
1F
100
AcDbEntity
  8
LC-001-002-----0
 62
     7
370
    50
100
AcDbLine
 10
193.081136
 20
336.816696
 30
0.0
 11
195.705702
 21
336.816696
 31
0.0
  0
LINE
  5
1DD
330
1F
100
AcDbEntity
  8
LC-001-002-----0
 62
     7
370
    50
100
AcDbLine
 10
228.213414
 20
365.316696
 30
0.0
 11
223.463415
 21
365.316696
 31
0.0
  0
LINE
  5
1DE
330
1F
100
AcDbEntity
  8
LC-001-002-----0
 62
     7
370
    50
100
AcDbLine
 10
233.213414
 20
359.316697
 30
0.0
 11
233.213414
 21
360.316697
 31
0.0
  0
ARC
  5
1DF
330
1F
100
AcDbEntity
  8
LC-001-002-----0
 62
     7
370
    50
100
AcDbCircle
 10
228.213414
 20
360.316696
 30
0.0
 40
5.00000000000002
100
AcDbArc
 50
0.000005
 51
90.000006
  0
ARC
  5
1E0
330
1F
100
AcDbEntity
  8
LC-003-002-RND-0
 62
     7
370
    50
100
AcDbCircle
 10
218.713418
 20
360.316696
 30
0.0
 40
9.0
100
AcDbArc
 50
90.0
 51
180.000001
  0
LINE
  5
1E1
330
1F
100
AcDbEntity
  8
LC-001-002-----0
 62
     7
370
    50
100
AcDbLine
 10
218.713418
 20
365.316696
 30
0.0
 11
223.463416
 21
365.316696
 31
0.0
  0
LINE
  5
1E2
330
1F
100
AcDbEntity
  8
LC-001-002-----0
 62
     7
370
    50
100
AcDbLine
 10
213.713418
 20
359.316696
 30
0.0
 11
213.713418
 21
360.316696
 31
0.0
  0
LINE
  5
1E3
330
1F
100
AcDbEntity
  8
LC-001-002-----0
 62
     7
370
    50
100
AcDbLine
 10
228.213413
 20
369.316696
 30
0.0
 11
223.463415
 21
369.316696
 31
0.0
  0
LINE
  5
1E4
330
1F
100
AcDbEntity
  8
LC-001-002-----0
 62
     7
370
    50
100
AcDbLine
 10
237.213414
 20
359.316697
 30
0.0
 11
237.213414
 21
360.316697
 31
0.0
  0
ARC
  5
1E5
330
1F
100
AcDbEntity
  8
LC-001-002-----0
 62
     7
370
    50
100
AcDbCircle
 10
218.713418
 20
360.316696
 30
0.0
 40
5.0
100
AcDbArc
 50
90.0
 51
180.000001
  0
LINE
  5
1E6
330
1F
100
AcDbEntity
  8
LC-001-002-----0
 62
     7
370
    50
100
AcDbLine
 10
218.713418
 20
369.316696
 30
0.0
 11
223.463416
 21
369.316696
 31
0.0
  0
LINE
  5
1E7
330
1F
100
AcDbEntity
  8
LC-001-002-----0
 62
     7
370
    50
100
AcDbLine
 10
209.713418
 20
359.316696
 30
0.0
 11
209.713418
 21
360.316696
 31
0.0
  0
LINE
  5
1E8
330
1F
100
AcDbEntity
  8
LC-001-002-----0
 62
     7
370
    50
100
AcDbLine
 10
224.899077
 20
328.816696
 30
0.0
 11
224.906792
 21
357.316867
 31
0.0
  0
INSERT
  5
24C
330
1F
100
AcDbEntity
  8
LC-006-005-----0
 62
     7
370
    25
100
AcDbBlockReference
  2
*X33
 10
0.0
 20
0.0
 30
0.0
  0
LINE
  5
24D
330
1F
100
AcDbEntity
  8
LC-001-002-----0
 62
     7
370
    50
100
AcDbLine
 10
213.713418
 20
359.316696
 30
0.0
 11
223.463416
 21
359.316696
 31
0.0
  0
LINE
  5
24E
330
1F
100
AcDbEntity
  8
LC-001-002-----0
 62
     7
370
    50
100
AcDbLine
 10
233.213414
 20
359.316881
 30
0.0
 11
223.463416
 21
359.316888
 31
0.0
  0
LINE
  5
24F
330
1F
100
AcDbEntity
  8
LC-001-002-----0
 62
     7
370
    50
100
AcDbLine
 10
224.899077
 20
328.816696
 30
0.0
 11
237.955892
 21
328.816696
 31
0.0
  0
LINE
  5
250
330
1F
100
AcDbEntity
  8
LC-001-002-----0
 62
     7
370
    50
100
AcDbLine
 10
237.955892
 20
328.816696
 30
0.0
 11
238.424803
 21
332.316696
 31
0.0
  0
LINE
  5
251
330
1F
100
AcDbEntity
  8
LC-001-002-----0
 62
     7
370
    50
100
AcDbLine
 10
238.424803
 20
332.316696
 30
0.0
 11
238.424803
 21
335.402483
 31
0.0
  0
LINE
  5
252
330
1F
100
AcDbEntity
  8
LC-001-002-----0
 62
     7
370
    50
100
AcDbLine
 10
238.424803
 20
336.816696
 30
0.0
 11
240.174805
 21
336.816696
 31
0.0
  0
ARC
  5
253
330
1F
100
AcDbEntity
  8
LC-001-002-----0
 62
     7
370
    50
100
AcDbCircle
 10
238.723497
 20
336.10959
 30
0.0
 40
0.7676047231126102
100
AcDbArc
 50
112.900021
 51
247.099979
  0
LINE
  5
255
330
1F
100
AcDbEntity
  8
LC-007-103-D00-1
 62
     7
370
    50
100
AcDbLine
 10
193.081136
 20
287.318554
 30
0.0
 11
193.081136
 21
287.316861
 31
0.0
  0
LINE
  5
256
330
1F
100
AcDbEntity
  8
LC-001-002-----0
 62
     7
370
    50
100
AcDbLine
 10
192.205702
 20
336.816696
 30
0.0
 11
195.705702
 21
336.816696
 31
0.0
  0
LINE
  5
257
330
1F
100
AcDbEntity
  8
LC-007-103-D00-1
 62
     7
370
    50
100
AcDbLine
 10
253.838071
 20
287.318707
 30
0.0
 11
253.838071
 21
287.316861
 31
0.0
  0
LINE
  5
258
330
1F
100
AcDbEntity
  8
LC-001-002-----0
 62
     7
370
    50
100
AcDbLine
 10
253.838071
 20
287.316861
 30
0.0
 11
253.845667
 21
287.316861
 31
0.0
  0
LINE
  5
259
330
1F
100
AcDbEntity
  8
LC-001-002-----0
 62
     7
370
    50
100
AcDbLine
 10
238.424803
 20
336.816696
 30
0.0
 11
253.838071
 21
336.816696
 31
0.0
  0
LINE
  5
25A
330
1F
100
AcDbEntity
  8
LC-001-002-----0
 62
     7
370
    50
100
AcDbLine
 10
263.963217
 20
287.316861
 30
0.0
 11
263.963751
 21
287.316861
 31
0.0
  0
LINE
  5
25B
330
1F
100
AcDbEntity
  8
LC-001-002-----0
 62
     7
370
    50
100
AcDbLine
 10
315.213416
 20
365.688376
 30
0.0
 11
296.463416
 21
364.377248
 31
0.0
  0
LINE
  5
25C
330
1F
100
AcDbEntity
  8
LC-001-002-----0
 62
     7
370
    50
100
AcDbLine
 10
134.463631
 20
362.989957
 30
0.0
 11
144.463416
 21
362.290704
 31
0.0
  0
LINE
  5
25D
330
1F
100
AcDbEntity
  8
LC-001-002-----0
 62
     7
370
    50
100
AcDbLine
 10
315.213416
 20
365.688376
 30
0.0
 11
235.434568
 21
365.688376
 31
0.0
  0
LINE
  5
25E
330
1F
100
AcDbEntity
  8
LC-001-002-----0
 62
     7
370
    50
100
AcDbLine
 10
292.710076
 20
345.688778
 30
0.0
 11
292.710076
 21
348.688778
 31
0.0
  0
LINE
  5
25F
330
1F
100
AcDbEntity
  8
LC-001-002-----0
 62
     7
370
    50
100
AcDbLine
 10
287.050695
 20
345.688778
 30
0.0
 11
287.050695
 21
348.688778
 31
0.0
  0
LINE
  5
260
330
1F
100
AcDbEntity
  8
LC-001-002-----0
 62
     7
370
    50
100
AcDbLine
 10
280.231271
 20
345.688778
 30
0.0
 11
280.231271
 21
348.688778
 31
0.0
  0
LINE
  5
261
330
1F
100
AcDbEntity
  8
LC-001-002-----0
 62
     7
370
    50
100
AcDbLine
 10
286.281347
 20
364.377248
 30
0.0
 11
285.531347
 21
363.627248
 31
0.0
  0
LINE
  5
262
330
1F
100
AcDbEntity
  8
LC-001-002-----0
 62
     7
370
    50
100
AcDbLine
 10
285.531347
 20
363.627248
 30
0.0
 11
285.531347
 21
348.688778
 31
0.0
  0
LINE
  5
263
330
1F
100
AcDbEntity
  8
LC-001-002-----0
 62
     7
370
    50
100
AcDbLine
 10
131.713416
 20
365.688376
 30
0.0
 11
211.492264
 21
365.688376
 31
0.0
  0
LINE
  5
264
330
1F
100
AcDbEntity
  8
LC-001-002-----0
 62
     7
370
    50
100
AcDbLine
 10
285.531347
 20
363.627248
 30
0.0
 11
291.075654
 21
363.627248
 31
0.0
  0
LINE
  5
265
330
1F
100
AcDbEntity
  8
LC-001-002-----0
 62
     7
370
    50
100
AcDbLine
 10
291.075654
 20
363.627248
 30
0.0
 11
291.075654
 21
348.688778
 31
0.0
  0
LINE
  5
266
330
1F
100
AcDbEntity
  8
LC-001-002-----0
 62
     7
370
    50
100
AcDbLine
 10
296.463416
 20
364.377248
 30
0.0
 11
295.713416
 21
363.627248
 31
0.0
  0
LINE
  5
267
330
1F
100
AcDbEntity
  8
LC-001-002-----0
 62
     7
370
    50
100
AcDbLine
 10
290.729777
 20
364.377248
 30
0.0
 11
291.075654
 21
363.627248
 31
0.0
  0
LINE
  5
268
330
1F
100
AcDbEntity
  8
LC-001-002-----0
 62
     7
370
    50
100
AcDbLine
 10
267.773121
 20
345.688778
 30
0.0
 11
267.773121
 21
348.688778
 31
0.0
  0
LINE
  5
269
330
1F
100
AcDbEntity
  8
LC-001-002-----0
 62
     7
370
    50
100
AcDbLine
 10
292.963416
 20
345.688778
 30
0.0
 11
292.963416
 21
348.688778
 31
0.0
  0
LINE
  5
26A
330
1F
100
AcDbEntity
  8
LC-001-002-----0
 62
     7
370
    50
100
AcDbLine
 10
295.713416
 20
348.688778
 30
0.0
 11
295.713416
 21
363.627248
 31
0.0
  0
LINE
  5
26B
330
1F
100
AcDbEntity
  8
LC-001-002-----0
 62
     7
370
    50
100
AcDbLine
 10
258.463416
 20
364.377248
 30
0.0
 11
257.713416
 21
363.627248
 31
0.0
  0
LINE
  5
26C
330
1F
100
AcDbEntity
  8
LC-001-002-----0
 62
     7
370
    50
100
AcDbLine
 10
257.713416
 20
363.627248
 30
0.0
 11
257.713416
 21
358.336826
 31
0.0
  0
LINE
  5
26D
330
1F
100
AcDbEntity
  8
LC-001-002-----0
 62
     7
370
    50
100
AcDbLine
 10
154.216756
 20
345.688778
 30
0.0
 11
154.216756
 21
348.688778
 31
0.0
  0
LINE
  5
26E
330
1F
100
AcDbEntity
  8
LC-001-002-----0
 62
     7
370
    50
100
AcDbLine
 10
159.876137
 20
345.688778
 30
0.0
 11
159.876137
 21
348.688778
 31
0.0
  0
LINE
  5
26F
330
1F
100
AcDbEntity
  8
LC-001-002-----0
 62
     7
370
    50
100
AcDbLine
 10
264.031381
 20
364.377248
 30
0.0
 11
264.663765
 21
363.627248
 31
0.0
  0
LINE
  5
270
330
1F
100
AcDbEntity
  8
LC-001-002-----0
 62
     7
370
    50
100
AcDbLine
 10
264.663765
 20
363.627248
 30
0.0
 11
264.663765
 21
349.98272
 31
0.0
  0
LINE
  5
271
330
1F
100
AcDbEntity
  8
LC-001-002-----0
 62
     7
370
    50
100
AcDbLine
 10
264.663765
 20
363.627248
 30
0.0
 11
257.713416
 21
363.627248
 31
0.0
  0
LINE
  5
272
330
1F
100
AcDbEntity
  8
LC-001-002-----0
 62
     7
370
    50
100
AcDbLine
 10
166.695561
 20
345.688778
 30
0.0
 11
166.695561
 21
348.688778
 31
0.0
  0
LINE
  5
273
330
1F
100
AcDbEntity
  8
LC-001-002-----0
 62
     7
370
    50
100
AcDbLine
 10
160.645485
 20
364.377248
 30
0.0
 11
161.395485
 21
363.627248
 31
0.0
  0
LINE
  5
274
330
1F
100
AcDbEntity
  8
LC-001-002-----0
 62
     7
370
    50
100
AcDbLine
 10
161.395485
 20
363.627248
 30
0.0
 11
161.395485
 21
348.688778
 31
0.0
  0
LINE
  5
275
330
1F
100
AcDbEntity
  8
LC-001-002-----0
 62
     7
370
    50
100
AcDbLine
 10
161.395485
 20
363.627248
 30
0.0
 11
155.851178
 21
363.627248
 31
0.0
  0
LINE
  5
276
330
1F
100
AcDbEntity
  8
LC-001-002-----0
 62
     7
370
    50
100
AcDbLine
 10
155.851178
 20
363.627248
 30
0.0
 11
155.851178
 21
348.688778
 31
0.0
  0
LINE
  5
277
330
1F
100
AcDbEntity
  8
LC-001-002-----0
 62
     7
370
    50
100
AcDbLine
 10
150.463416
 20
364.377248
 30
0.0
 11
151.213416
 21
363.627248
 31
0.0
  0
LINE
  5
278
330
1F
100
AcDbEntity
  8
LC-001-002-----0
 62
     7
370
    50
100
AcDbLine
 10
156.197055
 20
364.377248
 30
0.0
 11
155.851178
 21
363.627248
 31
0.0
  0
LINE
  5
279
330
1F
100
AcDbEntity
  8
LC-001-002-----0
 62
     7
370
    50
100
AcDbLine
 10
179.153711
 20
345.688778
 30
0.0
 11
179.153711
 21
348.688778
 31
0.0
  0
LINE
  5
27A
330
1F
100
AcDbEntity
  8
LC-001-002-----0
 62
     7
370
    50
100
AcDbLine
 10
153.963416
 20
345.688778
 30
0.0
 11
153.963416
 21
348.688778
 31
0.0
  0
LINE
  5
27B
330
1F
100
AcDbEntity
  8
LC-001-002-----0
 62
     7
370
    50
100
AcDbLine
 10
151.213416
 20
348.688778
 30
0.0
 11
151.213416
 21
363.627248
 31
0.0
  0
LINE
  5
27C
330
1F
100
AcDbEntity
  8
LC-001-002-----0
 62
     7
370
    50
100
AcDbLine
 10
188.463416
 20
364.377248
 30
0.0
 11
189.213416
 21
363.627248
 31
0.0
  0
LINE
  5
27D
330
1F
100
AcDbEntity
  8
LC-001-002-----0
 62
     7
370
    50
100
AcDbLine
 10
189.213416
 20
363.627248
 30
0.0
 11
189.213416
 21
358.336564
 31
0.0
  0
LINE
  5
27E
330
1F
100
AcDbEntity
  8
LC-001-002-----0
 62
     7
370
    50
100
AcDbLine
 10
182.895451
 20
364.377248
 30
0.0
 11
182.263067
 21
363.627248
 31
0.0
  0
LINE
  5
27F
330
1F
100
AcDbEntity
  8
LC-001-002-----0
 62
     7
370
    50
100
AcDbLine
 10
182.263067
 20
363.627248
 30
0.0
 11
182.263067
 21
348.688778
 31
0.0
  0
LINE
  5
280
330
1F
100
AcDbEntity
  8
LC-001-002-----0
 62
     7
370
    50
100
AcDbLine
 10
182.263067
 20
363.627248
 30
0.0
 11
189.213416
 21
363.627248
 31
0.0
  0
LINE
  5
281
330
1F
100
AcDbEntity
  8
LC-001-002-----0
 62
     7
370
    50
100
AcDbLine
 10
220.464
 20
364.377248
 30
0.0
 11
219.714557
 21
363.627248
 31
0.0
  0
LINE
  5
282
330
1F
100
AcDbEntity
  8
LC-001-002-----0
 62
     7
370
    50
100
AcDbLine
 10
219.714557
 20
363.627248
 30
0.0
 11
219.714557
 21
359.316696
 31
0.0
  0
LINE
  5
283
330
1F
100
AcDbEntity
  8
LC-001-002-----0
 62
     7
370
    50
100
AcDbLine
 10
219.714557
 20
363.627248
 30
0.0
 11
223.463416
 21
363.627248
 31
0.0
  0
ARC
  5
284
330
1F
100
AcDbEntity
  8
LC-003-002-RND-0
 62
     7
370
    50
100
AcDbCircle
 10
301.463416
 20
346.688778
 30
0.0
 40
1.0
100
AcDbArc
 50
270.0
 51
0.0
  0
LINE
  5
285
330
1F
100
AcDbEntity
  8
LC-001-002-----0
 62
     7
370
    50
100
AcDbLine
 10
131.713416
 20
365.688376
 30
0.0
 11
132.713416
 21
358.688778
 31
0.0
  0
LINE
  5
286
330
1F
100
AcDbEntity
  8
LC-001-002-----0
 62
     7
370
    50
100
AcDbLine
 10
133.88628
 20
358.688778
 30
0.0
 11
132.713416
 21
358.688778
 31
0.0
  0
LINE
  5
287
330
1F
100
AcDbEntity
  8
LC-001-002-----0
 62
     7
370
    50
100
AcDbLine
 10
134.463631
 20
359.688778
 30
0.0
 11
133.88628
 21
358.688778
 31
0.0
  0
LINE
  5
288
330
1F
100
AcDbEntity
  8
LC-001-002-----0
 62
     7
370
    50
100
AcDbLine
 10
226.462832
 20
364.377248
 30
0.0
 11
227.212275
 21
363.627248
 31
0.0
  0
LINE
  5
289
330
1F
100
AcDbEntity
  8
LC-001-002-----0
 62
     7
370
    50
100
AcDbLine
 10
227.212275
 20
363.627248
 30
0.0
 11
227.212275
 21
359.316885
 31
0.0
  0
LINE
  5
28A
330
1F
100
AcDbEntity
  8
LC-001-002-----0
 62
     7
370
    50
100
AcDbLine
 10
134.463631
 20
359.688778
 30
0.0
 11
134.463631
 21
362.989957
 31
0.0
  0
LINE
  5
28B
330
1F
100
AcDbEntity
  8
LC-001-002-----0
 62
     7
370
    50
100
AcDbLine
 10
227.212275
 20
363.627248
 30
0.0
 11
223.463416
 21
363.627248
 31
0.0
  0
ARC
  5
28C
330
1F
100
AcDbEntity
  8
LC-003-002-RND-0
 62
     7
370
    50
100
AcDbCircle
 10
145.463416
 20
346.688778
 30
0.0
 40
1.0
100
AcDbArc
 50
180.0
 51
270.0
  0
LINE
  5
28D
330
1F
100
AcDbEntity
  8
LC-001-002-----0
 62
     7
370
    50
100
AcDbLine
 10
145.463416
 20
345.688778
 30
0.0
 11
181.963421
 21
345.688778
 31
0.0
  0
LINE
  5
28E
330
1F
100
AcDbEntity
  8
LC-001-002-----0
 62
     7
370
    50
100
AcDbLine
 10
312.463201
 20
359.688778
 30
0.0
 11
313.040552
 21
358.688778
 31
0.0
  0
LINE
  5
28F
330
1F
100
AcDbEntity
  8
LC-001-002-----0
 62
     7
370
    50
100
AcDbLine
 10
144.463416
 20
346.688778
 30
0.0
 11
144.463416
 21
362.290704
 31
0.0
  0
LINE
  5
290
330
1F
100
AcDbEntity
  8
LC-001-002-----0
 62
     7
370
    50
100
AcDbLine
 10
312.463201
 20
359.688778
 30
0.0
 11
312.463201
 21
362.989957
 31
0.0
  0
LINE
  5
291
330
1F
100
AcDbEntity
  8
LC-001-002-----0
 62
     7
370
    50
100
AcDbLine
 10
301.463416
 20
345.688778
 30
0.0
 11
292.963416
 21
345.688778
 31
0.0
  0
LINE
  5
292
330
1F
100
AcDbEntity
  8
LC-001-002-----0
 62
     7
370
    50
100
AcDbLine
 10
302.463416
 20
346.688778
 30
0.0
 11
302.463416
 21
362.290704
 31
0.0
  0
LINE
  5
293
330
1F
100
AcDbEntity
  8
LC-001-002-----0
 62
     7
370
    50
100
AcDbLine
 10
313.040552
 20
358.688778
 30
0.0
 11
314.213416
 21
358.688778
 31
0.0
  0
LINE
  5
294
330
1F
100
AcDbEntity
  8
LC-001-002-----0
 62
     7
370
    50
100
AcDbLine
 10
292.963416
 20
345.688778
 30
0.0
 11
264.963624
 21
345.688778
 31
0.0
  0
LINE
  5
295
330
1F
100
AcDbEntity
  8
LC-001-002-----0
 62
     7
370
    50
100
AcDbLine
 10
292.963416
 20
348.688778
 30
0.0
 11
295.713416
 21
348.688778
 31
0.0
  0
LINE
  5
296
330
1F
100
AcDbEntity
  8
LC-001-002-----0
 62
     7
370
    50
100
AcDbLine
 10
280.231271
 20
348.688778
 30
0.0
 11
292.963416
 21
348.688778
 31
0.0
  0
LINE
  5
297
330
1F
100
AcDbEntity
  8
LC-001-002-----0
 62
     7
370
    50
100
AcDbLine
 10
264.884946
 20
348.688778
 30
0.0
 11
267.773121
 21
348.688778
 31
0.0
  0
LINE
  5
298
330
1F
100
AcDbEntity
  8
LC-001-002-----0
 62
     7
370
    50
100
AcDbLine
 10
182.042116
 20
348.688778
 30
0.0
 11
179.153711
 21
348.688778
 31
0.0
  0
LINE
  5
299
330
1F
100
AcDbEntity
  8
LC-001-002-----0
 62
     7
370
    50
100
AcDbLine
 10
312.463201
 20
362.989957
 30
0.0
 11
302.463416
 21
362.290704
 31
0.0
  0
LINE
  5
29A
330
1F
100
AcDbEntity
  8
LC-001-002-----0
 62
     7
370
    50
100
AcDbLine
 10
166.695561
 20
348.688778
 30
0.0
 11
151.213416
 21
348.688778
 31
0.0
  0
LINE
  5
29B
330
1F
100
AcDbEntity
  8
LC-001-002-----0
 62
     7
370
    50
100
AcDbLine
 10
290.729777
 20
364.377248
 30
0.0
 11
286.281347
 21
364.377248
 31
0.0
  0
LINE
  5
29C
330
1F
100
AcDbEntity
  8
LC-001-002-----0
 62
     7
370
    50
100
AcDbLine
 10
315.213416
 20
365.688376
 30
0.0
 11
314.213416
 21
358.688778
 31
0.0
  0
LINE
  5
29D
330
1F
100
AcDbEntity
  8
LC-001-002-----0
 62
     7
370
    50
100
AcDbLine
 10
131.713416
 20
365.688376
 30
0.0
 11
150.463416
 21
364.377248
 31
0.0
  0
INSERT
  5
2B1
330
1F
100
AcDbEntity
  8
LC-006-005-----0
 62
     7
370
    25
100
AcDbBlockReference
  2
*X44
 10
0.0
 20
0.0
 30
0.0
  0
INSERT
  5
2C5
330
1F
100
AcDbEntity
  8
LC-006-005-----0
 62
     7
370
    25
100
AcDbBlockReference
  2
*X55
 10
0.0
 20
0.0
 30
0.0
  0
LINE
  5
2C6
330
1F
100
AcDbEntity
  8
LC-001-002-----0
 62
     7
370
    50
100
AcDbLine
 10
185.99456
 20
168.816692
 30
0.0
 11
185.99456
 21
148.816692
 31
0.0
  0
LINE
  5
2C7
330
1F
100
AcDbEntity
  8
LC-001-002-----0
 62
     7
370
    50
100
AcDbLine
 10
186.99456
 20
168.816692
 30
0.0
 11
186.99456
 21
148.816692
 31
0.0
  0
LINE
  5
2C8
330
1F
100
AcDbEntity
  8
LC-001-002-----0
 62
     7
370
    50
100
AcDbLine
 10
259.99456
 20
168.816692
 30
0.0
 11
259.99456
 21
148.816692
 31
0.0
  0
LINE
  5
2C9
330
1F
100
AcDbEntity
  8
LC-001-002-----0
 62
     7
370
    50
100
AcDbLine
 10
260.99456
 20
168.816692
 30
0.0
 11
260.99456
 21
148.816692
 31
0.0
  0
LINE
  5
2CA
330
1F
100
AcDbEntity
  8
LC-001-002-----0
 62
     7
370
    50
100
AcDbLine
 10
185.99456
 20
148.816692
 30
0.0
 11
260.99456
 21
148.816692
 31
0.0
  0
LINE
  5
2CB
330
1F
100
AcDbEntity
  8
LC-001-002-----0
 62
     7
370
    50
100
AcDbLine
 10
185.99456
 20
168.816692
 30
0.0
 11
260.99456
 21
168.816692
 31
0.0
  0
INSERT
  5
2DD
330
1F
100
AcDbEntity
  8
LC-006-005-----0
 62
     7
370
    25
100
AcDbBlockReference
  2
*X66
 10
0.0
 20
0.0
 30
0.0
  0
DIMENSION
  5
2E1
330
1F
100
AcDbEntity
  8
LC-008-003-----0
 62
     7
370
    25
100
AcDbDimension
  2
*D7
 10
264.99456
 20
136.026
 30
0.0
 11
223.49456
 21
166.826
 31
0.0
 70
   160
  1
DN80(SML)
 71
     5
 42
83.0
  3
LC-DIM-L-0140-02-02
100
AcDbAlignedDimension
 13
181.99456
 23
148.816692
 33
0.0
 14
264.99456
 24
148.816692
 34
0.0
100
AcDbRotatedDimension
  0
DIMENSION
  5
2EF
330
1F
100
AcDbEntity
  8
LC-008-003-----0
 62
     7
370
    25
100
AcDbDimension
  2
*D8
 10
143.24456
 20
81.378
 30
0.0
 11
223.49456
 21
112.178
 31
0.0
 70
   160
  1
%%c160
 71
     5
 42
160.5
  3
LC-DIM-L-0140-02-02
100
AcDbAlignedDimension
 13
303.74456
 23
270.566696
 33
0.0
 14
143.24456
 24
270.566696
 34
0.0
100
AcDbRotatedDimension
  0
LINE
  5
2FC
330
1F
100
AcDbEntity
  8
LC-001-002-----0
 62
     7
370
    50
100
AcDbLine
 10
160.645485
 20
364.377248
 30
0.0
 11
156.197055
 21
364.377248
 31
0.0
  0
LINE
  5
2FD
330
1F
100
AcDbEntity
  8
LC-001-002-----0
 62
     7
370
    50
100
AcDbLine
 10
188.463416
 20
364.377248
 30
0.0
 11
182.895451
 21
364.377248
 31
0.0
  0
LINE
  5
2FE
330
1F
100
AcDbEntity
  8
LC-001-002-----0
 62
     7
370
    50
100
AcDbLine
 10
226.462832
 20
364.377248
 30
0.0
 11
220.464
 21
364.377248
 31
0.0
  0
LINE
  5
2FF
330
1F
100
AcDbEntity
  8
LC-001-002-----0
 62
     7
370
    50
100
AcDbLine
 10
264.031381
 20
364.377248
 30
0.0
 11
258.463416
 21
364.377248
 31
0.0
  0
INSERT
  5
32C
330
1F
100
AcDbEntity
  8
LC-006-005-----0
 62
     7
370
    25
100
AcDbBlockReference
  2
*X79
 10
0.0
 20
0.0
 30
0.0
  0
INSERT
  5
359
330
1F
100
AcDbEntity
  8
LC-006-005-----0
 62
     7
370
    25
100
AcDbBlockReference
  2
*X810
 10
0.0
 20
0.0
 30
0.0
  0
DIMENSION
  5
35A
330
1F
100
AcDbEntity
  8
LC-008-003-----0
 62
     7
370
    25
100
AcDbDimension
  2
*D11
 10
374.254017
 20
438.966
 30
0.0
 11
223.498417
 21
469.766
 31
0.0
 70
   160
  1
%%c300
 71
     5
 42
301.5112
  3
LC-DIM-L-0140-02-02
100
AcDbAlignedDimension
 13
72.742817
 23
369.66738
 33
0.0
 14
374.254017
 24
369.66738
 34
0.0
100
AcDbRotatedDimension
  0
DIMENSION
  5
367
330
1F
100
AcDbEntity
  8
LC-008-003-----0
 62
     7
370
    25
100
AcDbDimension
  2
*D12
 10
318.395116
 20
392.633069
 30
0.0
 11
223.498916
 21
423.433877
 31
0.0
 70
   160
  1
%%c190
 71
     5
 42
189.792919
 53
359.999512
  3
LC-DIM-L-0140-02-02
100
AcDbAlignedDimension
 13
128.601916
 23
359.62344
 33
0.0
 14
318.394834
 24
359.621836
 34
0.0
 50
359.999512
100
AcDbRotatedDimension
  0
DIMENSION
  5
374
330
1F
100
AcDbEntity
  8
LC-008-003-----0
 62
     7
370
    25
100
AcDbDimension
  2
*D13
 10
54.973633
 20
258.816696
 30
0.0
 11
24.173633
 21
312.741809
 31
0.0
 70
   160
  1
110
 71
     5
 42
107.850227
 53
90.0
  3
LC-DIM-L-0140-02-02
100
AcDbAlignedDimension
 13
72.742817
 23
366.666923
 33
0.0
 14
154.99456
 24
258.816696
 34
0.0
 50
90.0
100
AcDbRotatedDimension
  0
DIMENSION
  5
381
330
1F
100
AcDbEntity
  8
LC-008-003-----0
 62
     7
370
    25
100
AcDbDimension
  2
*D14
 10
54.973633
 20
148.816692
 30
0.0
 11
24.173633
 21
203.816694
 31
0.0
 70
   160
 71
     5
 42
110.000004
 53
90.0
  3
LC-DIM-L-0140-02-02
100
AcDbAlignedDimension
 13
154.99456
 23
258.816696
 33
0.0
 14
181.99456
 24
148.816692
 34
0.0
 50
90.0
100
AcDbRotatedDimension
  0
DIMENSION
  5
38E
330
1F
100
AcDbEntity
  8
LC-008-003-----0
 62
     7
370
    25
100
AcDbDimension
  2
*D15
 10
115.994293
 20
336.816696
 30
0.0
 11
85.194293
 21
312.066695
 31
0.0
 70
   160
  1
50
 71
     5
 42
49.500003
 53
90.0
  3
LC-DIM-L-0140-02-02
100
AcDbAlignedDimension
 13
181.96342
 23
287.316693
 33
0.0
 14
192.205702
 24
336.816696
 34
0.0
 50
90.0
100
AcDbRotatedDimension
  0
ENDSEC
  0
SECTION
  2
OBJECTS
  0
DICTIONARY
  5
C
330
0
100
AcDbDictionary
281
     1
  3
ACAD_GROUP
350
D
  3
ACAD_LAYOUT
350
1A
  3
ACAD_MLINESTYLE
350
17
  3
ACAD_PLOTSETTINGS
350
19
  3
ACAD_PLOTSTYLENAME
350
E
  0
DICTIONARY
  5
D
102
{ACAD_REACTORS
330
C
102
}
330
C
100
AcDbDictionary
281
     1
  0
DICTIONARY
  5
1A
102
{ACAD_REACTORS
330
C
102
}
330
C
100
AcDbDictionary
281
     1
  3
Layout1
350
1E
  3
Layout2
350
26
  3
Model
350
22
  0
DICTIONARY
  5
17
102
{ACAD_REACTORS
330
C
102
}
330
C
100
AcDbDictionary
281
     1
  3
Standard
350
18
  0
DICTIONARY
  5
19
102
{ACAD_REACTORS
330
C
102
}
330
C
100
AcDbDictionary
281
     1
  0
ACDBDICTIONARYWDFLT
  5
E
102
{ACAD_REACTORS
330
C
102
}
330
C
100
AcDbDictionary
281
     1
  3
Normal
350
F
100
AcDbDictionaryWithDefault
340
F
  0
LAYOUT
  5
1E
102
{ACAD_REACTORS
330
1A
102
}
330
1A
100
AcDbPlotSettings
  1

  2

  4

  6

 40
0.0
 41
0.0
 42
0.0
 43
0.0
 44
0.0
 45
0.0
 46
0.0
 47
0.0
 48
0.0
 49
0.0
140
0.0
141
0.0
142
1.0
143
1.0
 70
   688
 72
     0
 73
     0
 74
     5
  7

 75
    16
147
1.0
148
0.0
149
0.0
100
AcDbLayout
  1
Layout1
 70
     1
 71
     1
 10
-210.0
 20
0.0
 11
630.0
 21
594.0
 12
0.0
 22
0.0
 32
0.0
 14
-210.0
 24
0.0
 34
0.0
 15
630.0
 25
594.0
 35
0.0
146
0.0
 13
0.0
 23
0.0
 33
0.0
 16
1.0
 26
0.0
 36
0.0
 17
0.0
 27
1.0
 37
0.0
 76
     0
330
1B
  0
LAYOUT
  5
26
102
{ACAD_REACTORS
330
1A
102
}
330
1A
100
AcDbPlotSettings
  1

  2

  4

  6

 40
0.0
 41
0.0
 42
0.0
 43
0.0
 44
0.0
 45
0.0
 46
0.0
 47
0.0
 48
0.0
 49
0.0
140
0.0
141
0.0
142
1.0
143
1.0
 70
   688
 72
     0
 73
     0
 74
     5
  7

 75
    16
147
1.0
148
0.0
149
0.0
100
AcDbLayout
  1
Layout2
 70
     1
 71
     2
 10
0.0
 20
0.0
 11
0.0
 21
0.0
 12
0.0
 22
0.0
 32
0.0
 14
0.0
 24
0.0
 34
0.0
 15
0.0
 25
0.0
 35
0.0
146
0.0
 13
0.0
 23
0.0
 33
0.0
 16
1.0
 26
0.0
 36
0.0
 17
0.0
 27
1.0
 37
0.0
 76
     0
330
23
  0
LAYOUT
  5
22
102
{ACAD_REACTORS
330
1A
102
}
330
1A
100
AcDbPlotSettings
  1

  2

  4

  6

 40
0.0
 41
0.0
 42
0.0
 43
0.0
 44
0.0
 45
0.0
 46
0.0
 47
0.0
 48
0.0
 49
0.0
140
0.0
141
0.0
142
1.0
143
1.0
 70
  1776
 72
     0
 73
     0
 74
     0
  7

 75
     0
147
1.0
148
0.0
149
0.0
100
AcDbLayout
  1
Model
 70
     1
 71
     0
 10
-210.0
 20
0.0
 11
630.0
 21
594.0
 12
0.0
 22
0.0
 32
0.0
 14
-210.0
 24
0.0
 34
0.0
 15
630.0
 25
594.0
 35
0.0
146
0.0
 13
0.0
 23
0.0
 33
0.0
 16
1.0
 26
0.0
 36
0.0
 17
0.0
 27
1.0
 37
0.0
 76
     0
330
1F
  0
MLINESTYLE
  5
18
102
{ACAD_REACTORS
330
17
102
}
330
17
100
AcDbMlineStyle
  2
Standard
 70
     0
  3

 62
   256
 51
90.0
 52
90.0
 71
     2
 49
0.5
 62
   256
  6
BYLAYER
 49
-0.5
 62
   256
  6
BYLAYER
  0
ACDBPLACEHOLDER
  5
F
102
{ACAD_REACTORS
330
E
102
}
330
E
  0
ENDSEC
  0
EOF
