  0
SECTION
  2
HEADER
  9
$ACADVER
  1
AC1009
  9
$INSBASE
 10
0.0
 20
0.0
 30
0.0
  9
$EXTMIN
 10
0.0
 20
0.0
 30
0.0
  9
$EXTMAX
 10
840.0
 20
594.0
 30
0.0
  9
$LIMMIN
 10
0.0
 20
0.0
  9
$LIMMAX
 10
840.0
 20
594.0
  9
$ORTHOMODE
 70
     0
  9
$REGENMODE
 70
     1
  9
$FILLMODE
 70
     1
  9
$QTEXTMODE
 70
     0
  9
$MIRRTEXT
 70
     1
  9
$DRAGMODE
 70
     2
  9
$LTSCALE
 40
2.0
  9
$OSMODE
 70
     0
  9
$ATTMODE
 70
     1
  9
$TEXTSIZE
 40
0.2
  9
$TRACEWID
 40
0.05
  9
$TEXTSTYLE
  7
STANDARD
  9
$CLAYER
  8
0
  9
$CELTYPE
  6
BYLAYER
  9
$CECOLOR
 62
     7
  9
$DIMSCALE
 40
2.0
  9
$DIMASZ
 40
3.5
  9
$DIMEXO
 40
0.0625
  9
$DIMDLI
 40
0.38
  9
$DIMRND
 40
0.0
  9
$DIMDLE
 40
0.0
  9
$DIMEXE
 40
0.18
  9
$DIMTP
 40
0.0
  9
$DIMTM
 40
0.0
  9
$DIMTXT
 40
3.5
  9
$DIMCEN
 40
0.09
  9
$DIMTSZ
 40
0.0
  9
$DIMTOL
 70
     0
  9
$DIMLIM
 70
     0
  9
$DIMTIH
 70
     1
  9
$DIMTOH
 70
     1
  9
$DIMSE1
 70
     0
  9
$DIMSE2
 70
     0
  9
$DIMTAD
 70
     1
  9
$DIMZIN
 70
     0
  9
$DIMBLK
  1

  9
$DIMASO
 70
     1
  9
$DIMSHO
 70
     1
  9
$DIMPOST
  1

  9
$DIMAPOST
  1

  9
$DIMALT
 70
     0
  9
$DIMALTD
 70
     2
  9
$DIMALTF
 40
25.4
  9
$DIMLFAC
 40
1.0
  9
$DIMTOFL
 70
     0
  9
$DIMTVP
 40
0.0
  9
$DIMTIX
 70
     0
  9
$DIMSOXD
 70
     0
  9
$DIMSAH
 70
     0
  9
$DIMBLK1
  1

  9
$DIMBLK2
  1

  9
$DIMSTYLE
  2
STANDARD
  9
$DIMCLRD
 70
     0
  9
$DIMCLRE
 70
     0
  9
$DIMCLRT
 70
     0
  9
$DIMTFAC
 40
1.0
  9
$DIMGAP
 40
0.09
  9
$LUNITS
 70
     2
  9
$LUPREC
 70
     2
  9
$AXISMODE
 70
     0
  9
$AXISUNIT
 10
0.0
 20
0.0
  9
$SKETCHINC
 40
0.1
  9
$FILLETRAD
 40
0.0
  9
$AUNITS
 70
     0
  9
$AUPREC
 70
     0
  9
$MENU
  1
acad
  9
$ELEVATION
 40
0.0
  9
$PELEVATION
 40
0.0
  9
$THICKNESS
 40
0.0
  9
$LIMCHECK
 70
     0
  9
$BLIPMODE
 70
     1
  9
$CHAMFERA
 40
0.0
  9
$CHAMFERB
 40
0.0
  9
$SKPOLY
 70
     0
  9
$TDCREATE
 40
0.000000000
  9
$TDUPDATE
 40
0.000000000
  9
$TDINDWG
 40
0.0000000000
  9
$TDUSRTIMER
 40
0.0000000000
  9
$USRTIMER
 70
     1
  9
$ANGBASE
 50
0.0
  9
$ANGDIR
 70
     0
  9
$PDMODE
 70
     0
  9
$PDSIZE
 40
0.0
  9
$PLINEWID
 40
0.0
  9
$COORDS
 70
     0
  9
$SPLFRAME
 70
     0
  9
$SPLINETYPE
 70
     6
  9
$SPLINESEGS
 70
     8
  9
$ATTDIA
 70
     0
  9
$ATTREQ
 70
     1
  9
$HANDLING
 70
     1
  9
$HANDSEED
  5
4D2
  9
$SURFTAB1
 70
     6
  9
$SURFTAB2
 70
     6
  9
$SURFTYPE
 70
     6
  9
$SURFU
 70
     6
  9
$SURFV
 70
     6
  9
$UCSNAME
  2

  9
$UCSORG
 10
0.0
 20
0.0
 30
0.0
  9
$UCSXDIR
 10
1.0
 20
0.0
 30
0.0
  9
$UCSYDIR
 10
0.0
 20
1.0
 30
0.0
  9
$PUCSNAME
  2

  9
$PUCSORG
 10
0.0
 20
0.0
 30
0.0
  9
$PUCSXDIR
 10
1.0
 20
0.0
 30
0.0
  9
$PUCSYDIR
 10
0.0
 20
1.0
 30
0.0
  9
$USERI1
 70
     0
  9
$USERI2
 70
     0
  9
$USERI3
 70
     0
  9
$USERI4
 70
     0
  9
$USERI5
 70
     0
  9
$USERR1
 40
0.0
  9
$USERR2
 40
0.0
  9
$USERR3
 40
0.0
  9
$USERR4
 40
0.0
  9
$USERR5
 40
0.0
  9
$WORLDVIEW
 70
     1
  9
$SHADEDGE
 70
     3
  9
$SHADEDIF
 70
    70
  9
$TILEMODE
 70
     1
  9
$MAXACTVP
 70
    16
  9
$PINSBASE
 10
0.0
 20
0.0
 30
0.0
  9
$PLIMCHECK
 70
     0
  9
$PEXTMIN
 10
1.000000E+20
 20
1.000000E+20
 30
1.000000E+20
  9
$PEXTMAX
 10
-1.000000E+20
 20
-1.000000E+20
 30
-1.000000E+20
  9
$PLIMMIN
 10
0.0
 20
0.0
  9
$PLIMMAX
 10
840.0
 20
594.0
  9
$UNITMODE
 70
     0
  9
$VISRETAIN
 70
     0
  9
$PLINEGEN
 70
     1
  9
$PSLTSCALE
 70
     0
  9
$TREEDEPTH
 70
  3020
  9
$DWGCODEPAGE
  3
dos850
  0
ENDSEC
  0
SECTION
  2
TABLES
  0
TABLE
  2
VPORT
 70
     1
  0
VPORT
  2
*ACTIVE
 70
     0
 10
0.0
 20
0.0
 11
1.0
 21
1.0
 12
420.0
 22
297.0
 13
0.0
 23
0.0
 14
1.0
 24
1.0
 15
0.0
 25
0.0
 16
0.0
 26
0.0
 36
1.0
 17
0.0
 27
0.0
 37
0.0
 40
594.0
 41
1.604229
 42
50.0
 43
0.0
 44
0.0
 50
0.0
 51
0.0
 71
     0
 72
   100
 73
     1
 74
     1
 75
     0
 76
     0
 77
     0
 78
     0
  0
ENDTAB
  0
TABLE
  2
LTYPE
 70
     2
  0
LTYPE
  2
CONTINUOUS
 70
    64
  3
Solid line
 72
    65
 73
     0
 40
0.0
  0
LTYPE
  2
DASHDOT
 70
    64
  3
__ . __ . __ . __ . __
 72
    65
 73
     4
 40
7.5
 49
5.0
 49
-1.25
 49
0.0
 49
-1.25
  0
ENDTAB
  0
TABLE
  2
LAYER
 70
    13
  0
LAYER
  2
0
 70
     0
 62
     7
  6
CONTINUOUS
  0
LAYER
  2
LC-INFO-1-2-MM-A3-0
 70
     1
 62
    -1
  6
CONTINUOUS
  0
LAYER
  2
LC-006-005-----0
 70
     0
 62
     2
  6
CONTINUOUS
  0
LAYER
  2
LC-009-003-MTH-0
 70
     0
 62
     2
  6
CONTINUOUS
  0
LAYER
  2
LC-010-003-MTG-0
 70
     0
 62
     2
  6
CONTINUOUS
  0
LAYER
  2
LC-008-003-----0
 70
     0
 62
     2
  6
CONTINUOUS
  0
LAYER
  2
LC-003-000-----0
 70
     0
 62
     7
  6
CONTINUOUS
  0
LAYER
  2
LC-007-000-----0
 70
     0
 62
     7
  6
CONTINUOUS
  0
LAYER
  2
LC-001-002-----0
 70
     0
 62
     1
  6
CONTINUOUS
  0
LAYER
  2
LC-002-002-RND-0
 70
     0
 62
     1
  6
CONTINUOUS
  0
LAYER
  2
LC-004-001-RND-0
 70
     0
 62
     1
  6
CONTINUOUS
  0
LAYER
  2
LC-005-001-----0
 70
     0
 62
     1
  6
CONTINUOUS
  0
LAYER
  2
LC-000
 70
     0
 62
     7
  6
CONTINUOUS
  0
ENDTAB
  0
TABLE
  2
STYLE
 70
     4
  0
STYLE
  2
STANDARD
 70
     0
 40
0.0
 41
1.0
 50
0.0
 71
     0
 42
0.0
  3
txt
  4

  0
STYLE
  2
LC-STANDARD
 70
    64
 40
0.0
 41
1.0
 50
0.0
 71
     0
 42
3.5
  3
MONOTXT
  4

  0
STYLE
  2
LC-TXTSTYLE-150-400-0-0-A2
 70
    64
 40
0.0
 41
1.0
 50
15.0
 71
     0
 42
3.5
  3
MONOTXT
  4

  0
STYLE
  2
LC-TXTSTYLE-150-400-0-0-D3
 70
    64
 40
0.0
 41
1.0
 50
15.0
 71
     0
 42
3.5
  3
LC-STANDARD
  4

  0
ENDTAB
  0
TABLE
  2
VIEW
 70
     0
  0
ENDTAB
  0
TABLE
  2
UCS
 70
     0
  0
ENDTAB
  0
TABLE
  2
APPID
 70
     1
  0
APPID
  2
ACAD
 70
     0
  0
ENDTAB
  0
TABLE
  2
DIMSTYLE
 70
     3
  0
DIMSTYLE
  2
STANDARD
 70
     0
  3

  4

  5

  6

  7

 40
1.0
 41
0.18
 42
0.0625
 43
0.38
 44
0.18
 45
0.0
 46
0.0
 47
0.0
 48
0.0
 71
     0
 72
     0
 73
     1
 74
     1
 75
     0
 76
     0
 77
     0
 78
     0
140
0.18
141
0.09
142
0.0
143
25.4
144
1.0
145
0.0
146
1.0
147
0.09
170
     0
171
     2
172
     0
173
     0
174
     0
175
     0
176
     0
177
     0
178
     0
  0
DIMSTYLE
  2
LC-STANDARD
 70
     0
  3

  4

  5

  6

  7

 40
1.0
 41
3.5
 42
0.0
 43
7.5
 44
1.8
 45
0.0
 46
0.0
 47
0.0
 48
0.0
 71
     0
 72
     0
 73
     0
 74
     0
 75
     0
 76
     0
 77
     1
 78
     8
140
3.5
141
0.0
142
0.0
143
25.4
144
1.0
145
0.0
146
0.71
147
1.5
170
     0
171
     2
172
     1
173
     0
174
     0
175
     0
176
     0
177
     0
178
     3
  0
DIMSTYLE
  2
LC-DIM-L-0140-02-02
 70
     0
  3

  4

  5

  6

  7

 40
2.0
 41
3.5
 42
0.0
 43
7.5
 44
1.8
 45
0.0
 46
0.0
 47
0.0
 48
0.0
 71
     0
 72
     0
 73
     0
 74
     0
 75
     0
 76
     0
 77
     1
 78
     8
140
14.0
141
0.0
142
0.0
143
25.4
144
1.0
145
0.0
146
0.71
147
1.5
170
     0
171
     2
172
     0
173
     0
174
     0
175
     0
176
     2
177
     2
178
     8
  0
ENDTAB
  0
ENDSEC
  0
SECTION
  2
BLOCKS
  0
BLOCK
  8
0
  5
23
  2
BLK1
 70
    64
 10
0.0
 20
0.0
 30
0.0
  3
BLK1
  0
ENDBLK
  8
0
  5
24
  0
BLOCK
  8
0
  5
26
  2
*X1
 70
    65
 10
240.007583
 20
153.041542
 30
0.0
  3
*X1
  0
LINE
  8
LC-006-005-----0
  6
CONTINUOUS
  5
28
 10
368.702788
 20
173.541316
 30
0.0
 11
368.759325
 21
173.597854
 31
0.0
  0
LINE
  8
LC-006-005-----0
  6
CONTINUOUS
  5
29
 10
366.523309
 20
174.190265
 30
0.0
 11
368.759325
 21
176.426281
 31
0.0
  0
LINE
  8
LC-006-005-----0
  6
CONTINUOUS
  5
2A
 10
365.925592
 20
176.420975
 30
0.0
 11
368.759325
 21
179.254708
 31
0.0
  0
LINE
  8
LC-006-005-----0
  6
CONTINUOUS
  5
2B
 10
365.759325
 20
179.083135
 30
0.0
 11
368.759325
 21
182.083135
 31
0.0
  0
LINE
  8
LC-006-005-----0
  6
CONTINUOUS
  5
2C
 10
337.054743
 20
153.20698
 30
0.0
 11
338.759325
 21
154.911562
 31
0.0
  0
LINE
  8
LC-006-005-----0
  6
CONTINUOUS
  5
2D
 10
365.759325
 20
181.911562
 30
0.0
 11
368.759325
 21
184.911562
 31
0.0
  0
LINE
  8
LC-006-005-----0
  6
CONTINUOUS
  5
2E
 10
336.457026
 20
155.43769
 30
0.0
 11
338.759325
 21
157.739989
 31
0.0
  0
LINE
  8
LC-006-005-----0
  6
CONTINUOUS
  5
2F
 10
365.759325
 20
184.739989
 30
0.0
 11
368.759325
 21
187.739989
 31
0.0
  0
LINE
  8
LC-006-005-----0
  6
CONTINUOUS
  5
30
 10
335.859309
 20
157.6684
 30
0.0
 11
338.759325
 21
160.568417
 31
0.0
  0
LINE
  8
LC-006-005-----0
  6
CONTINUOUS
  5
31
 10
365.759325
 20
187.568417
 30
0.0
 11
368.759325
 21
190.568417
 31
0.0
  0
LINE
  8
LC-006-005-----0
  6
CONTINUOUS
  5
32
 10
335.759325
 20
160.396844
 30
0.0
 11
338.759325
 21
163.396844
 31
0.0
  0
LINE
  8
LC-006-005-----0
  6
CONTINUOUS
  5
33
 10
365.759325
 20
190.396844
 30
0.0
 11
368.759325
 21
193.396844
 31
0.0
  0
LINE
  8
LC-006-005-----0
  6
CONTINUOUS
  5
34
 10
335.759325
 20
163.225271
 30
0.0
 11
338.759325
 21
166.225271
 31
0.0
  0
LINE
  8
LC-006-005-----0
  6
CONTINUOUS
  5
35
 10
365.759325
 20
193.225271
 30
0.0
 11
368.759325
 21
196.225271
 31
0.0
  0
LINE
  8
LC-006-005-----0
  6
CONTINUOUS
  5
36
 10
335.759325
 20
166.053698
 30
0.0
 11
338.759325
 21
169.053698
 31
0.0
  0
LINE
  8
LC-006-005-----0
  6
CONTINUOUS
  5
37
 10
365.759325
 20
196.053698
 30
0.0
 11
368.759325
 21
199.053698
 31
0.0
  0
LINE
  8
LC-006-005-----0
  6
CONTINUOUS
  5
38
 10
335.759325
 20
168.882125
 30
0.0
 11
338.759325
 21
171.882125
 31
0.0
  0
LINE
  8
LC-006-005-----0
  6
CONTINUOUS
  5
39
 10
365.759325
 20
198.882125
 30
0.0
 11
368.759325
 21
201.882125
 31
0.0
  0
LINE
  8
LC-006-005-----0
  6
CONTINUOUS
  5
3A
 10
335.759325
 20
171.710552
 30
0.0
 11
338.759325
 21
174.710552
 31
0.0
  0
LINE
  8
LC-006-005-----0
  6
CONTINUOUS
  5
3B
 10
365.759325
 20
201.710552
 30
0.0
 11
368.759325
 21
204.710552
 31
0.0
  0
LINE
  8
LC-006-005-----0
  6
CONTINUOUS
  5
3C
 10
335.759325
 20
174.538979
 30
0.0
 11
338.759325
 21
177.538979
 31
0.0
  0
LINE
  8
LC-006-005-----0
  6
CONTINUOUS
  5
3D
 10
365.759325
 20
204.538979
 30
0.0
 11
368.759325
 21
207.538979
 31
0.0
  0
LINE
  8
LC-006-005-----0
  6
CONTINUOUS
  5
3E
 10
335.759325
 20
177.367406
 30
0.0
 11
338.759325
 21
180.367406
 31
0.0
  0
LINE
  8
LC-006-005-----0
  6
CONTINUOUS
  5
3F
 10
365.759325
 20
207.367406
 30
0.0
 11
368.759325
 21
210.367406
 31
0.0
  0
LINE
  8
LC-006-005-----0
  6
CONTINUOUS
  5
40
 10
335.759325
 20
180.195834
 30
0.0
 11
338.759325
 21
183.195834
 31
0.0
  0
LINE
  8
LC-006-005-----0
  6
CONTINUOUS
  5
41
 10
365.759325
 20
210.195834
 30
0.0
 11
368.759325
 21
213.195834
 31
0.0
  0
LINE
  8
LC-006-005-----0
  6
CONTINUOUS
  5
42
 10
335.759325
 20
183.024261
 30
0.0
 11
338.759325
 21
186.024261
 31
0.0
  0
LINE
  8
LC-006-005-----0
  6
CONTINUOUS
  5
43
 10
365.759325
 20
213.024261
 30
0.0
 11
368.759325
 21
216.024261
 31
0.0
  0
LINE
  8
LC-006-005-----0
  6
CONTINUOUS
  5
44
 10
335.759325
 20
185.852688
 30
0.0
 11
338.759325
 21
188.852688
 31
0.0
  0
LINE
  8
LC-006-005-----0
  6
CONTINUOUS
  5
45
 10
365.759325
 20
215.852688
 30
0.0
 11
368.759325
 21
218.852688
 31
0.0
  0
LINE
  8
LC-006-005-----0
  6
CONTINUOUS
  5
46
 10
335.759325
 20
188.681115
 30
0.0
 11
338.759325
 21
191.681115
 31
0.0
  0
LINE
  8
LC-006-005-----0
  6
CONTINUOUS
  5
47
 10
365.759325
 20
218.681115
 30
0.0
 11
368.759325
 21
221.681115
 31
0.0
  0
LINE
  8
LC-006-005-----0
  6
CONTINUOUS
  5
48
 10
335.759325
 20
191.509542
 30
0.0
 11
338.759325
 21
194.509542
 31
0.0
  0
LINE
  8
LC-006-005-----0
  6
CONTINUOUS
  5
49
 10
365.759325
 20
221.509542
 30
0.0
 11
368.759325
 21
224.509542
 31
0.0
  0
LINE
  8
LC-006-005-----0
  6
CONTINUOUS
  5
4A
 10
335.759325
 20
194.337969
 30
0.0
 11
338.759325
 21
197.337969
 31
0.0
  0
LINE
  8
LC-006-005-----0
  6
CONTINUOUS
  5
4B
 10
365.759325
 20
224.337969
 30
0.0
 11
368.673691
 21
227.252335
 31
0.0
  0
LINE
  8
LC-006-005-----0
  6
CONTINUOUS
  5
4C
 10
335.759325
 20
197.166396
 30
0.0
 11
338.759325
 21
200.166396
 31
0.0
  0
LINE
  8
LC-006-005-----0
  6
CONTINUOUS
  5
4D
 10
365.081071
 20
226.488142
 30
0.0
 11
367.544888
 21
228.951959
 31
0.0
  0
LINE
  8
LC-006-005-----0
  6
CONTINUOUS
  5
4E
 10
335.759325
 20
199.994823
 30
0.0
 11
338.759325
 21
202.994823
 31
0.0
  0
LINE
  8
LC-006-005-----0
  6
CONTINUOUS
  5
4F
 10
363.224831
 20
227.460329
 30
0.0
 11
365.337336
 21
229.572834
 31
0.0
  0
LINE
  8
LC-006-005-----0
  6
CONTINUOUS
  5
50
 10
335.759325
 20
202.823251
 30
0.0
 11
338.759325
 21
205.823251
 31
0.0
  0
LINE
  8
LC-006-005-----0
  6
CONTINUOUS
  5
51
 10
359.477391
 20
226.541316
 30
0.0
 11
360.079498
 21
227.143424
 31
0.0
  0
LINE
  8
LC-006-005-----0
  6
CONTINUOUS
  5
52
 10
361.942015
 20
229.00594
 30
0.0
 11
363.628307
 21
230.692232
 31
0.0
  0
LINE
  8
LC-006-005-----0
  6
CONTINUOUS
  5
53
 10
335.759325
 20
205.651678
 30
0.0
 11
338.759325
 21
208.651678
 31
0.0
  0
LINE
  8
LC-006-005-----0
  6
CONTINUOUS
  5
54
 10
356.648964
 20
226.541316
 30
0.0
 11
363.228091
 21
233.120443
 31
0.0
  0
LINE
  8
LC-006-005-----0
  6
CONTINUOUS
  5
55
 10
335.759325
 20
208.480105
 30
0.0
 11
338.759325
 21
211.480105
 31
0.0
  0
LINE
  8
LC-006-005-----0
  6
CONTINUOUS
  5
56
 10
353.820537
 20
226.541316
 30
0.0
 11
356.820537
 21
229.541316
 31
0.0
  0
LINE
  8
LC-006-005-----0
  6
CONTINUOUS
  5
57
 10
360.259325
 20
232.980105
 30
0.0
 11
363.203621
 21
235.9244
 31
0.0
  0
LINE
  8
LC-006-005-----0
  6
CONTINUOUS
  5
58
 10
335.759325
 20
211.308532
 30
0.0
 11
338.759325
 21
214.308532
 31
0.0
  0
LINE
  8
LC-006-005-----0
  6
CONTINUOUS
  5
59
 10
350.992109
 20
226.541316
 30
0.0
 11
353.992109
 21
229.541316
 31
0.0
  0
LINE
  8
LC-006-005-----0
  6
CONTINUOUS
  5
5A
 10
360.259325
 20
235.808532
 30
0.0
 11
363.179151
 21
238.728358
 31
0.0
  0
LINE
  8
LC-006-005-----0
  6
CONTINUOUS
  5
5B
 10
335.759325
 20
214.136959
 30
0.0
 11
338.759325
 21
217.136959
 31
0.0
  0
LINE
  8
LC-006-005-----0
  6
CONTINUOUS
  5
5C
 10
348.163682
 20
226.541316
 30
0.0
 11
351.163682
 21
229.541316
 31
0.0
  0
LINE
  8
LC-006-005-----0
  6
CONTINUOUS
  5
5D
 10
360.259325
 20
238.636959
 30
0.0
 11
363.154682
 21
241.532315
 31
0.0
  0
LINE
  8
LC-006-005-----0
  6
CONTINUOUS
  5
5E
 10
335.759325
 20
216.965386
 30
0.0
 11
338.759325
 21
219.965386
 31
0.0
  0
LINE
  8
LC-006-005-----0
  6
CONTINUOUS
  5
5F
 10
345.335255
 20
226.541316
 30
0.0
 11
348.335255
 21
229.541316
 31
0.0
  0
LINE
  8
LC-006-005-----0
  6
CONTINUOUS
  5
60
 10
360.259325
 20
241.465386
 30
0.0
 11
363.130212
 21
244.336273
 31
0.0
  0
LINE
  8
LC-006-005-----0
  6
CONTINUOUS
  5
61
 10
335.759325
 20
219.793813
 30
0.0
 11
338.759325
 21
222.793813
 31
0.0
  0
LINE
  8
LC-006-005-----0
  6
CONTINUOUS
  5
62
 10
342.506828
 20
226.541316
 30
0.0
 11
345.506828
 21
229.541316
 31
0.0
  0
LINE
  8
LC-006-005-----0
  6
CONTINUOUS
  5
63
 10
360.259325
 20
244.293813
 30
0.0
 11
363.105742
 21
247.14023
 31
0.0
  0
LINE
  8
LC-006-005-----0
  6
CONTINUOUS
  5
64
 10
335.759325
 20
222.62224
 30
0.0
 11
338.759325
 21
225.62224
 31
0.0
  0
LINE
  8
LC-006-005-----0
  6
CONTINUOUS
  5
65
 10
339.678401
 20
226.541316
 30
0.0
 11
342.678401
 21
229.541316
 31
0.0
  0
LINE
  8
LC-006-005-----0
  6
CONTINUOUS
  5
66
 10
360.259325
 20
247.12224
 30
0.0
 11
363.081272
 21
249.944187
 31
0.0
  0
LINE
  8
LC-006-005-----0
  6
CONTINUOUS
  5
67
 10
335.759325
 20
225.450668
 30
0.0
 11
339.849974
 21
229.541316
 31
0.0
  0
LINE
  8
LC-006-005-----0
  6
CONTINUOUS
  5
68
 10
360.259325
 20
249.950668
 30
0.0
 11
363.056802
 21
252.748145
 31
0.0
  0
LINE
  8
LC-006-005-----0
  6
CONTINUOUS
  5
69
 10
334.021547
 20
226.541316
 30
0.0
 11
337.021547
 21
229.541316
 31
0.0
  0
LINE
  8
LC-006-005-----0
  6
CONTINUOUS
  5
6A
 10
360.259325
 20
252.779095
 30
0.0
 11
363.032333
 21
255.552102
 31
0.0
  0
LINE
  8
LC-006-005-----0
  6
CONTINUOUS
  5
6B
 10
331.19312
 20
226.541316
 30
0.0
 11
334.19312
 21
229.541316
 31
0.0
  0
LINE
  8
LC-006-005-----0
  6
CONTINUOUS
  5
6C
 10
360.259325
 20
255.607522
 30
0.0
 11
363.007863
 21
258.356059
 31
0.0
  0
LINE
  8
LC-006-005-----0
  6
CONTINUOUS
  5
6D
 10
328.364692
 20
226.541316
 30
0.0
 11
331.364692
 21
229.541316
 31
0.0
  0
LINE
  8
LC-006-005-----0
  6
CONTINUOUS
  5
6E
 10
360.259325
 20
258.435949
 30
0.0
 11
362.983393
 21
261.160017
 31
0.0
  0
LINE
  8
LC-006-005-----0
  6
CONTINUOUS
  5
6F
 10
325.536265
 20
226.541316
 30
0.0
 11
328.536265
 21
229.541316
 31
0.0
  0
LINE
  8
LC-006-005-----0
  6
CONTINUOUS
  5
70
 10
360.259325
 20
261.264376
 30
0.0
 11
362.958923
 21
263.963974
 31
0.0
  0
LINE
  8
LC-006-005-----0
  6
CONTINUOUS
  5
71
 10
322.707838
 20
226.541316
 30
0.0
 11
325.707838
 21
229.541316
 31
0.0
  0
LINE
  8
LC-006-005-----0
  6
CONTINUOUS
  5
72
 10
360.259325
 20
264.092803
 30
0.0
 11
362.934454
 21
266.767931
 31
0.0
  0
LINE
  8
LC-006-005-----0
  6
CONTINUOUS
  5
73
 10
320.082763
 20
226.744668
 30
0.0
 11
322.879411
 21
229.541316
 31
0.0
  0
LINE
  8
LC-006-005-----0
  6
CONTINUOUS
  5
74
 10
360.259325
 20
266.92123
 30
0.0
 11
362.909984
 21
269.571889
 31
0.0
  0
LINE
  8
LC-006-005-----0
  6
CONTINUOUS
  5
75
 10
317.892555
 20
227.382887
 30
0.0
 11
320.27306
 21
229.763392
 31
0.0
  0
LINE
  8
LC-006-005-----0
  6
CONTINUOUS
  5
76
 10
360.259325
 20
269.749657
 30
0.0
 11
362.885514
 21
272.375846
 31
0.0
  0
LINE
  8
LC-006-005-----0
  6
CONTINUOUS
  5
77
 10
316.017532
 20
228.336291
 30
0.0
 11
318.193601
 21
230.51236
 31
0.0
  0
LINE
  8
LC-006-005-----0
  6
CONTINUOUS
  5
78
 10
360.259325
 20
272.578085
 30
0.0
 11
362.861044
 21
275.179804
 31
0.0
  0
LINE
  8
LC-006-005-----0
  6
CONTINUOUS
  5
79
 10
314.405009
 20
229.552196
 30
0.0
 11
316.488433
 21
231.635619
 31
0.0
  0
LINE
  8
LC-006-005-----0
  6
CONTINUOUS
  5
7A
 10
360.259325
 20
275.406512
 30
0.0
 11
362.836575
 21
277.983761
 31
0.0
  0
LINE
  8
LC-006-005-----0
  6
CONTINUOUS
  5
7B
 10
313.036039
 20
231.011653
 30
0.0
 11
315.105545
 21
233.081159
 31
0.0
  0
LINE
  8
LC-006-005-----0
  6
CONTINUOUS
  5
7C
 10
360.259325
 20
278.234939
 30
0.0
 11
362.812105
 21
280.787718
 31
0.0
  0
LINE
  8
LC-006-005-----0
  6
CONTINUOUS
  5
7D
 10
311.914775
 20
232.718815
 30
0.0
 11
314.050027
 21
234.854067
 31
0.0
  0
LINE
  8
LC-006-005-----0
  6
CONTINUOUS
  5
7E
 10
360.259325
 20
281.063366
 30
0.0
 11
362.787635
 21
283.591676
 31
0.0
  0
LINE
  8
LC-006-005-----0
  6
CONTINUOUS
  5
7F
 10
311.07062
 20
234.703088
 30
0.0
 11
313.389248
 21
237.021716
 31
0.0
  0
LINE
  8
LC-006-005-----0
  6
CONTINUOUS
  5
80
 10
360.259325
 20
283.891793
 30
0.0
 11
362.763165
 21
286.395633
 31
0.0
  0
LINE
  8
LC-006-005-----0
  6
CONTINUOUS
  5
81
 10
310.576432
 20
237.037326
 30
0.0
 11
313.260032
 21
239.720927
 31
0.0
  0
LINE
  8
LC-006-005-----0
  6
CONTINUOUS
  5
82
 10
360.259325
 20
286.72022
 30
0.0
 11
362.738696
 21
289.19959
 31
0.0
  0
LINE
  8
LC-006-005-----0
  6
CONTINUOUS
  5
83
 10
310.509325
 20
239.798647
 30
0.0
 11
313.260032
 21
242.549354
 31
0.0
  0
LINE
  8
LC-006-005-----0
  6
CONTINUOUS
  5
84
 10
360.259325
 20
289.548647
 30
0.0
 11
362.714226
 21
292.003548
 31
0.0
  0
LINE
  8
LC-006-005-----0
  6
CONTINUOUS
  5
85
 10
310.509325
 20
242.627074
 30
0.0
 11
313.260032
 21
245.377781
 31
0.0
  0
LINE
  8
LC-006-005-----0
  6
CONTINUOUS
  5
86
 10
360.259325
 20
292.377074
 30
0.0
 11
362.689756
 21
294.807505
 31
0.0
  0
LINE
  8
LC-006-005-----0
  6
CONTINUOUS
  5
87
 10
310.509325
 20
245.455502
 30
0.0
 11
313.260032
 21
248.206208
 31
0.0
  0
LINE
  8
LC-006-005-----0
  6
CONTINUOUS
  5
88
 10
360.259325
 20
295.205502
 30
0.0
 11
362.665286
 21
297.611462
 31
0.0
  0
LINE
  8
LC-006-005-----0
  6
CONTINUOUS
  5
89
 10
310.509325
 20
248.283929
 30
0.0
 11
313.260032
 21
251.034636
 31
0.0
  0
LINE
  8
LC-006-005-----0
  6
CONTINUOUS
  5
8A
 10
360.259325
 20
298.033929
 30
0.0
 11
362.640816
 21
300.41542
 31
0.0
  0
LINE
  8
LC-006-005-----0
  6
CONTINUOUS
  5
8B
 10
310.509325
 20
251.112356
 30
0.0
 11
313.260032
 21
253.863063
 31
0.0
  0
LINE
  8
LC-006-005-----0
  6
CONTINUOUS
  5
8C
 10
360.259325
 20
300.862356
 30
0.0
 11
362.616347
 21
303.219377
 31
0.0
  0
LINE
  8
LC-006-005-----0
  6
CONTINUOUS
  5
8D
 10
363.000047
 20
303.603077
 30
0.0
 11
363.197564
 21
303.800595
 31
0.0
  0
LINE
  8
LC-006-005-----0
  6
CONTINUOUS
  5
8E
 10
310.509325
 20
253.940783
 30
0.0
 11
313.260032
 21
256.69149
 31
0.0
  0
LINE
  8
LC-006-005-----0
  6
CONTINUOUS
  5
8F
 10
360.259325
 20
303.690783
 30
0.0
 11
361.109858
 21
304.541316
 31
0.0
  0
LINE
  8
LC-006-005-----0
  6
CONTINUOUS
  5
90
 10
310.509325
 20
256.76921
 30
0.0
 11
313.260032
 21
259.519917
 31
0.0
  0
LINE
  8
LC-006-005-----0
  6
CONTINUOUS
  5
91
 10
310.509325
 20
259.597637
 30
0.0
 11
313.260032
 21
262.348344
 31
0.0
  0
LINE
  8
LC-006-005-----0
  6
CONTINUOUS
  5
92
 10
310.509325
 20
262.426064
 30
0.0
 11
313.260032
 21
265.176771
 31
0.0
  0
LINE
  8
LC-006-005-----0
  6
CONTINUOUS
  5
93
 10
310.509325
 20
265.254491
 30
0.0
 11
313.260032
 21
268.005198
 31
0.0
  0
LINE
  8
LC-006-005-----0
  6
CONTINUOUS
  5
94
 10
310.509325
 20
268.082919
 30
0.0
 11
313.260032
 21
270.833625
 31
0.0
  0
LINE
  8
LC-006-005-----0
  6
CONTINUOUS
  5
95
 10
310.509325
 20
270.911346
 30
0.0
 11
313.260032
 21
273.662053
 31
0.0
  0
LINE
  8
LC-006-005-----0
  6
CONTINUOUS
  5
96
 10
310.509325
 20
273.739773
 30
0.0
 11
313.260032
 21
276.49048
 31
0.0
  0
LINE
  8
LC-006-005-----0
  6
CONTINUOUS
  5
97
 10
310.509325
 20
276.5682
 30
0.0
 11
313.260032
 21
279.318907
 31
0.0
  0
LINE
  8
LC-006-005-----0
  6
CONTINUOUS
  5
98
 10
310.509325
 20
279.396627
 30
0.0
 11
313.260032
 21
282.147334
 31
0.0
  0
LINE
  8
LC-006-005-----0
  6
CONTINUOUS
  5
99
 10
310.509325
 20
282.225054
 30
0.0
 11
313.260032
 21
284.975761
 31
0.0
  0
LINE
  8
LC-006-005-----0
  6
CONTINUOUS
  5
9A
 10
310.509325
 20
285.053481
 30
0.0
 11
313.260032
 21
287.804188
 31
0.0
  0
LINE
  8
LC-006-005-----0
  6
CONTINUOUS
  5
9B
 10
310.509325
 20
287.881908
 30
0.0
 11
313.260032
 21
290.632615
 31
0.0
  0
LINE
  8
LC-006-005-----0
  6
CONTINUOUS
  5
9C
 10
310.509325
 20
290.710336
 30
0.0
 11
313.260032
 21
293.461042
 31
0.0
  0
LINE
  8
LC-006-005-----0
  6
CONTINUOUS
  5
9D
 10
310.509325
 20
293.538763
 30
0.0
 11
313.260032
 21
296.28947
 31
0.0
  0
LINE
  8
LC-006-005-----0
  6
CONTINUOUS
  5
9E
 10
310.509325
 20
296.36719
 30
0.0
 11
313.260032
 21
299.117897
 31
0.0
  0
LINE
  8
LC-006-005-----0
  6
CONTINUOUS
  5
9F
 10
310.509325
 20
299.195617
 30
0.0
 11
313.260032
 21
301.946324
 31
0.0
  0
LINE
  8
LC-006-005-----0
  6
CONTINUOUS
  5
A0
 10
310.080156
 20
301.594874
 30
0.0
 11
312.710032
 21
304.224751
 31
0.0
  0
LINE
  8
LC-006-005-----0
  6
CONTINUOUS
  5
A1
 10
308.915306
 20
303.258452
 30
0.0
 11
313.710032
 21
308.053178
 31
0.0
  0
LINE
  8
LC-006-005-----0
  6
CONTINUOUS
  5
A2
 10
307.750457
 20
304.922029
 30
0.0
 11
312.710032
 21
309.881605
 31
0.0
  0
LINE
  8
LC-006-005-----0
  6
CONTINUOUS
  5
A3
 10
313.354726
 20
310.526299
 30
0.0
 11
313.575049
 21
310.746622
 31
0.0
  0
LINE
  8
LC-006-005-----0
  6
CONTINUOUS
  5
A4
 10
306.585607
 20
306.585607
 30
0.0
 11
312.662623
 21
312.662623
 31
0.0
  0
LINE
  8
LC-006-005-----0
  6
CONTINUOUS
  5
A5
 10
305.420757
 20
308.249185
 30
0.0
 11
310.362889
 21
313.191316
 31
0.0
  0
LINE
  8
LC-006-005-----0
  6
CONTINUOUS
  5
A6
 10
304.255908
 20
309.912762
 30
0.0
 11
307.534462
 21
313.191316
 31
0.0
  0
LINE
  8
LC-006-005-----0
  6
CONTINUOUS
  5
A7
 10
303.091058
 20
311.57634
 30
0.0
 11
304.706035
 21
313.191316
 31
0.0
  0
LINE
  8
LC-006-005-----0
  6
CONTINUOUS
  5
A8
 10
301.926209
 20
313.239917
 30
0.0
 11
304.011414
 21
315.325123
 31
0.0
  0
LINE
  8
LC-006-005-----0
  6
CONTINUOUS
  5
A9
 10
301.260032
 20
315.402168
 30
0.0
 11
304.011414
 21
318.15355
 31
0.0
  0
LINE
  8
LC-006-005-----0
  6
CONTINUOUS
  5
AA
 10
301.260032
 20
318.230595
 30
0.0
 11
304.011414
 21
320.981977
 31
0.0
  0
LINE
  8
LC-006-005-----0
  6
CONTINUOUS
  5
AB
 10
301.122126
 20
320.921116
 30
0.0
 11
304.011414
 21
323.810404
 31
0.0
  0
LINE
  8
LC-006-005-----0
  6
CONTINUOUS
  5
AC
 10
299.543682
 20
322.171099
 30
0.0
 11
304.011414
 21
326.638831
 31
0.0
  0
LINE
  8
LC-006-005-----0
  6
CONTINUOUS
  5
AD
 10
297.271886
 20
322.72773
 30
0.0
 11
299.403772
 21
324.859616
 31
0.0
  0
LINE
  8
LC-006-005-----0
  6
CONTINUOUS
  5
AE
 10
302.010032
 20
327.465876
 30
0.0
 11
304.011414
 21
329.467258
 31
0.0
  0
LINE
  8
LC-006-005-----0
  6
CONTINUOUS
  5
AF
 10
296.095641
 20
324.379913
 30
0.0
 11
298.880409
 21
327.16468
 31
0.0
  0
LINE
  8
LC-006-005-----0
  6
CONTINUOUS
  5
B0
 10
302.010032
 20
330.294304
 30
0.0
 11
302.410612
 21
330.694883
 31
0.0
  0
LINE
  8
LC-006-005-----0
  6
CONTINUOUS
  5
B1
 10
295.885041
 20
326.997739
 30
0.0
 11
298.739559
 21
329.852257
 31
0.0
  0
LINE
  8
LC-006-005-----0
  6
CONTINUOUS
  5
B2
 10
295.744018
 20
329.685143
 30
0.0
 11
298.598709
 21
332.539834
 31
0.0
  0
LINE
  8
LC-006-005-----0
  6
CONTINUOUS
  5
B3
 10
294.312847
 20
331.0824
 30
0.0
 11
297.123624
 21
333.893177
 31
0.0
  0
LINE
  8
LC-006-005-----0
  6
CONTINUOUS
  5
B4
 10
291.669276
 20
331.267256
 30
0.0
 11
294.480053
 21
334.078033
 31
0.0
  0
LINE
  8
LC-006-005-----0
  6
CONTINUOUS
  5
B5
 10
289.025705
 20
331.452112
 30
0.0
 11
291.836483
 21
334.26289
 31
0.0
  0
LINE
  8
LC-006-005-----0
  6
CONTINUOUS
  5
B6
 10
286.382135
 20
331.636969
 30
0.0
 11
289.192912
 21
334.447746
 31
0.0
  0
LINE
  8
LC-006-005-----0
  6
CONTINUOUS
  5
B7
 10
283.738564
 20
331.821825
 30
0.0
 11
286.549341
 21
334.632602
 31
0.0
  0
LINE
  8
LC-006-005-----0
  6
CONTINUOUS
  5
B8
 10
281.176155
 20
332.087843
 30
0.0
 11
283.90577
 21
334.817458
 31
0.0
  0
LINE
  8
LC-006-005-----0
  6
CONTINUOUS
  5
B9
 10
279.761941
 20
333.502057
 30
0.0
 11
281.802711
 21
335.542826
 31
0.0
  0
LINE
  8
LC-006-005-----0
  6
CONTINUOUS
  5
BA
 10
277.174254
 20
333.742796
 30
0.0
 11
280.123236
 21
336.691779
 31
0.0
  0
LINE
  8
LC-006-005-----0
  6
CONTINUOUS
  5
BB
 10
274.39435
 20
333.79132
 30
0.0
 11
277.343332
 21
336.740302
 31
0.0
  0
LINE
  8
LC-006-005-----0
  6
CONTINUOUS
  5
BC
 10
271.614446
 20
333.839843
 30
0.0
 11
274.563429
 21
336.788825
 31
0.0
  0
LINE
  8
LC-006-005-----0
  6
CONTINUOUS
  5
BD
 10
268.834543
 20
333.888367
 30
0.0
 11
271.783525
 21
336.837349
 31
0.0
  0
LINE
  8
LC-006-005-----0
  6
CONTINUOUS
  5
BE
 10
266.054639
 20
333.93689
 30
0.0
 11
269.003621
 21
336.885872
 31
0.0
  0
LINE
  8
LC-006-005-----0
  6
CONTINUOUS
  5
BF
 10
263.274735
 20
333.985413
 30
0.0
 11
266.223718
 21
336.934396
 31
0.0
  0
LINE
  8
LC-006-005-----0
  6
CONTINUOUS
  5
C0
 10
260.494832
 20
334.033937
 30
0.0
 11
263.443814
 21
336.982919
 31
0.0
  0
LINE
  8
LC-006-005-----0
  6
CONTINUOUS
  5
C1
 10
257.714928
 20
334.08246
 30
0.0
 11
260.66391
 21
337.031442
 31
0.0
  0
LINE
  8
LC-006-005-----0
  6
CONTINUOUS
  5
C2
 10
254.935024
 20
334.130984
 30
0.0
 11
257.884006
 21
337.079966
 31
0.0
  0
LINE
  8
LC-006-005-----0
  6
CONTINUOUS
  5
C3
 10
252.15512
 20
334.179507
 30
0.0
 11
255.104103
 21
337.128489
 31
0.0
  0
LINE
  8
LC-006-005-----0
  6
CONTINUOUS
  5
C4
 10
249.375217
 20
334.22803
 30
0.0
 11
252.324199
 21
337.177013
 31
0.0
  0
LINE
  8
LC-006-005-----0
  6
CONTINUOUS
  5
C5
 10
246.595313
 20
334.276554
 30
0.0
 11
249.544295
 21
337.225536
 31
0.0
  0
LINE
  8
LC-006-005-----0
  6
CONTINUOUS
  5
C6
 10
243.815409
 20
334.325077
 30
0.0
 11
246.764391
 21
337.274059
 31
0.0
  0
LINE
  8
LC-006-005-----0
  6
CONTINUOUS
  5
C7
 10
241.035505
 20
334.373601
 30
0.0
 11
243.984488
 21
337.322583
 31
0.0
  0
LINE
  8
LC-006-005-----0
  6
CONTINUOUS
  5
C8
 10
240.007583
 20
336.174105
 30
0.0
 11
241.204584
 21
337.371106
 31
0.0
  0
ENDBLK
  8
0
  5
C9
  0
BLOCK
  8
0
  5
CB
  2
*X2
 70
    65
 10
412.75945
 20
153.041473
 30
0.0
  3
*X2
  0
LINE
  8
LC-006-005-----0
  6
CONTINUOUS
  5
CC
 10
444.369467
 20
153.041473
 30
0.0
 11
444.437922
 21
153.109928
 31
0.0
  0
LINE
  8
LC-006-005-----0
  6
CONTINUOUS
  5
CD
 10
442.759325
 20
154.259759
 30
0.0
 11
445.473198
 21
156.973632
 31
0.0
  0
LINE
  8
LC-006-005-----0
  6
CONTINUOUS
  5
CE
 10
442.759325
 20
157.088186
 30
0.0
 11
445.759325
 21
160.088186
 31
0.0
  0
LINE
  8
LC-006-005-----0
  6
CONTINUOUS
  5
CF
 10
442.759325
 20
159.916613
 30
0.0
 11
445.759325
 21
162.916613
 31
0.0
  0
LINE
  8
LC-006-005-----0
  6
CONTINUOUS
  5
D0
 10
442.759325
 20
162.74504
 30
0.0
 11
445.759325
 21
165.74504
 31
0.0
  0
LINE
  8
LC-006-005-----0
  6
CONTINUOUS
  5
D1
 10
442.759325
 20
165.573467
 30
0.0
 11
445.759325
 21
168.573467
 31
0.0
  0
LINE
  8
LC-006-005-----0
  6
CONTINUOUS
  5
D2
 10
442.759325
 20
168.401894
 30
0.0
 11
445.759325
 21
171.401894
 31
0.0
  0
LINE
  8
LC-006-005-----0
  6
CONTINUOUS
  5
D3
 10
442.759325
 20
171.230321
 30
0.0
 11
445.759325
 21
174.230321
 31
0.0
  0
LINE
  8
LC-006-005-----0
  6
CONTINUOUS
  5
D4
 10
442.759325
 20
174.058749
 30
0.0
 11
445.759325
 21
177.058749
 31
0.0
  0
LINE
  8
LC-006-005-----0
  6
CONTINUOUS
  5
D5
 10
442.759325
 20
176.887176
 30
0.0
 11
445.759325
 21
179.887176
 31
0.0
  0
LINE
  8
LC-006-005-----0
  6
CONTINUOUS
  5
D6
 10
442.759325
 20
179.715603
 30
0.0
 11
445.759325
 21
182.715603
 31
0.0
  0
LINE
  8
LC-006-005-----0
  6
CONTINUOUS
  5
D7
 10
442.759325
 20
182.54403
 30
0.0
 11
445.759325
 21
185.54403
 31
0.0
  0
LINE
  8
LC-006-005-----0
  6
CONTINUOUS
  5
D8
 10
442.759325
 20
185.372457
 30
0.0
 11
445.759325
 21
188.372457
 31
0.0
  0
LINE
  8
LC-006-005-----0
  6
CONTINUOUS
  5
D9
 10
442.759325
 20
188.200884
 30
0.0
 11
445.759325
 21
191.200884
 31
0.0
  0
LINE
  8
LC-006-005-----0
  6
CONTINUOUS
  5
DA
 10
442.759325
 20
191.029311
 30
0.0
 11
445.759325
 21
194.029311
 31
0.0
  0
LINE
  8
LC-006-005-----0
  6
CONTINUOUS
  5
DB
 10
442.759325
 20
193.857738
 30
0.0
 11
445.759325
 21
196.857738
 31
0.0
  0
LINE
  8
LC-006-005-----0
  6
CONTINUOUS
  5
DC
 10
442.759325
 20
196.686166
 30
0.0
 11
445.759325
 21
199.686166
 31
0.0
  0
LINE
  8
LC-006-005-----0
  6
CONTINUOUS
  5
DD
 10
442.759325
 20
199.514593
 30
0.0
 11
445.759325
 21
202.514593
 31
0.0
  0
LINE
  8
LC-006-005-----0
  6
CONTINUOUS
  5
DE
 10
413.957798
 20
173.541493
 30
0.0
 11
415.137642
 21
174.721336
 31
0.0
  0
LINE
  8
LC-006-005-----0
  6
CONTINUOUS
  5
DF
 10
442.759325
 20
202.34302
 30
0.0
 11
445.759325
 21
205.34302
 31
0.0
  0
LINE
  8
LC-006-005-----0
  6
CONTINUOUS
  5
E0
 10
412.759451
 20
175.171572
 30
0.0
 11
415.759325
 21
178.171447
 31
0.0
  0
LINE
  8
LC-006-005-----0
  6
CONTINUOUS
  5
E1
 10
442.759325
 20
205.171447
 30
0.0
 11
445.759325
 21
208.171447
 31
0.0
  0
LINE
  8
LC-006-005-----0
  6
CONTINUOUS
  5
E2
 10
412.759453
 20
178.000001
 30
0.0
 11
415.759325
 21
180.999874
 31
0.0
  0
LINE
  8
LC-006-005-----0
  6
CONTINUOUS
  5
E3
 10
442.759325
 20
207.999874
 30
0.0
 11
445.759325
 21
210.999874
 31
0.0
  0
LINE
  8
LC-006-005-----0
  6
CONTINUOUS
  5
E4
 10
461.520547
 20
226.761096
 30
0.0
 11
470.789693
 21
236.030242
 31
0.0
  0
LINE
  8
LC-006-005-----0
  6
CONTINUOUS
  5
E5
 10
412.759454
 20
180.82843
 30
0.0
 11
415.759325
 21
183.828301
 31
0.0
  0
LINE
  8
LC-006-005-----0
  6
CONTINUOUS
  5
E6
 10
442.759325
 20
210.828301
 30
0.0
 11
445.759325
 21
213.828301
 31
0.0
  0
LINE
  8
LC-006-005-----0
  6
CONTINUOUS
  5
E7
 10
458.472488
 20
226.541464
 30
0.0
 11
461.854979
 21
229.923955
 31
0.0
  0
LINE
  8
LC-006-005-----0
  6
CONTINUOUS
  5
E8
 10
467.87598
 20
235.944955
 30
0.0
 11
471.009325
 21
239.078301
 31
0.0
  0
LINE
  8
LC-006-005-----0
  6
CONTINUOUS
  5
E9
 10
412.759456
 20
183.656859
 30
0.0
 11
415.759325
 21
186.656728
 31
0.0
  0
LINE
  8
LC-006-005-----0
  6
CONTINUOUS
  5
EA
 10
442.759325
 20
213.656728
 30
0.0
 11
445.759325
 21
216.656728
 31
0.0
  0
LINE
  8
LC-006-005-----0
  6
CONTINUOUS
  5
EB
 10
455.644063
 20
226.541466
 30
0.0
 11
458.643913
 21
229.541316
 31
0.0
  0
LINE
  8
LC-006-005-----0
  6
CONTINUOUS
  5
EC
 10
468.258619
 20
239.156021
 30
0.0
 11
471.009325
 21
241.906728
 31
0.0
  0
LINE
  8
LC-006-005-----0
  6
CONTINUOUS
  5
ED
 10
412.759458
 20
186.485288
 30
0.0
 11
415.759325
 21
189.485155
 31
0.0
  0
LINE
  8
LC-006-005-----0
  6
CONTINUOUS
  5
EE
 10
442.759325
 20
216.485155
 30
0.0
 11
445.759325
 21
219.485155
 31
0.0
  0
LINE
  8
LC-006-005-----0
  6
CONTINUOUS
  5
EF
 10
452.815637
 20
226.541467
 30
0.0
 11
455.815486
 21
229.541316
 31
0.0
  0
LINE
  8
LC-006-005-----0
  6
CONTINUOUS
  5
F0
 10
468.258619
 20
241.984449
 30
0.0
 11
471.009325
 21
244.735155
 31
0.0
  0
LINE
  8
LC-006-005-----0
  6
CONTINUOUS
  5
F1
 10
412.75946
 20
189.313717
 30
0.0
 11
415.759325
 21
192.313583
 31
0.0
  0
LINE
  8
LC-006-005-----0
  6
CONTINUOUS
  5
F2
 10
442.759325
 20
219.313583
 30
0.0
 11
445.759325
 21
222.313583
 31
0.0
  0
LINE
  8
LC-006-005-----0
  6
CONTINUOUS
  5
F3
 10
449.987212
 20
226.541469
 30
0.0
 11
452.987059
 21
229.541316
 31
0.0
  0
LINE
  8
LC-006-005-----0
  6
CONTINUOUS
  5
F4
 10
468.258619
 20
244.812876
 30
0.0
 11
471.009325
 21
247.563583
 31
0.0
  0
LINE
  8
LC-006-005-----0
  6
CONTINUOUS
  5
F5
 10
412.759462
 20
192.142146
 30
0.0
 11
415.759325
 21
195.14201
 31
0.0
  0
LINE
  8
LC-006-005-----0
  6
CONTINUOUS
  5
F6
 10
442.759325
 20
222.14201
 30
0.0
 11
445.759325
 21
225.14201
 31
0.0
  0
LINE
  8
LC-006-005-----0
  6
CONTINUOUS
  5
F7
 10
447.158787
 20
226.541471
 30
0.0
 11
450.158632
 21
229.541316
 31
0.0
  0
LINE
  8
LC-006-005-----0
  6
CONTINUOUS
  5
F8
 10
468.258619
 20
247.641303
 30
0.0
 11
471.009325
 21
250.39201
 31
0.0
  0
LINE
  8
LC-006-005-----0
  6
CONTINUOUS
  5
F9
 10
412.759464
 20
194.970575
 30
0.0
 11
415.759325
 21
197.970437
 31
0.0
  0
LINE
  8
LC-006-005-----0
  6
CONTINUOUS
  5
FA
 10
442.759325
 20
224.970437
 30
0.0
 11
447.330205
 21
229.541316
 31
0.0
  0
LINE
  8
LC-006-005-----0
  6
CONTINUOUS
  5
FB
 10
468.258619
 20
250.46973
 30
0.0
 11
471.009325
 21
253.220437
 31
0.0
  0
LINE
  8
LC-006-005-----0
  6
CONTINUOUS
  5
FC
 10
412.759465
 20
197.799004
 30
0.0
 11
415.759325
 21
200.798864
 31
0.0
  0
LINE
  8
LC-006-005-----0
  6
CONTINUOUS
  5
FD
 10
441.501936
 20
226.541475
 30
0.0
 11
444.501777
 21
229.541316
 31
0.0
  0
LINE
  8
LC-006-005-----0
  6
CONTINUOUS
  5
FE
 10
468.258619
 20
253.298157
 30
0.0
 11
471.009325
 21
256.048864
 31
0.0
  0
LINE
  8
LC-006-005-----0
  6
CONTINUOUS
  5
FF
 10
412.759467
 20
200.627433
 30
0.0
 11
415.759325
 21
203.627291
 31
0.0
  0
LINE
  8
LC-006-005-----0
  6
CONTINUOUS
  5
100
 10
438.673511
 20
226.541477
 30
0.0
 11
441.67335
 21
229.541316
 31
0.0
  0
LINE
  8
LC-006-005-----0
  6
CONTINUOUS
  5
101
 10
468.258619
 20
256.126584
 30
0.0
 11
471.009325
 21
258.877291
 31
0.0
  0
LINE
  8
LC-006-005-----0
  6
CONTINUOUS
  5
102
 10
412.759469
 20
203.455862
 30
0.0
 11
415.759325
 21
206.455718
 31
0.0
  0
LINE
  8
LC-006-005-----0
  6
CONTINUOUS
  5
103
 10
435.845086
 20
226.541479
 30
0.0
 11
438.844923
 21
229.541316
 31
0.0
  0
LINE
  8
LC-006-005-----0
  6
CONTINUOUS
  5
104
 10
468.258619
 20
258.955011
 30
0.0
 11
471.009325
 21
261.705718
 31
0.0
  0
LINE
  8
LC-006-005-----0
  6
CONTINUOUS
  5
105
 10
412.759471
 20
206.284291
 30
0.0
 11
415.759325
 21
209.284145
 31
0.0
  0
LINE
  8
LC-006-005-----0
  6
CONTINUOUS
  5
106
 10
433.01666
 20
226.54148
 30
0.0
 11
436.016496
 21
229.541316
 31
0.0
  0
LINE
  8
LC-006-005-----0
  6
CONTINUOUS
  5
107
 10
468.258619
 20
261.783438
 30
0.0
 11
471.009325
 21
264.534145
 31
0.0
  0
LINE
  8
LC-006-005-----0
  6
CONTINUOUS
  5
108
 10
540.855139
 20
334.379959
 30
0.0
 11
541.518783
 21
335.043603
 31
0.0
  0
LINE
  8
LC-006-005-----0
  6
CONTINUOUS
  5
109
 10
412.759473
 20
209.11272
 30
0.0
 11
415.759325
 21
212.112572
 31
0.0
  0
LINE
  8
LC-006-005-----0
  6
CONTINUOUS
  5
10A
 10
430.188235
 20
226.541482
 30
0.0
 11
433.188069
 21
229.541316
 31
0.0
  0
LINE
  8
LC-006-005-----0
  6
CONTINUOUS
  5
10B
 10
468.258619
 20
264.611866
 30
0.0
 11
471.009325
 21
267.362572
 31
0.0
  0
LINE
  8
LC-006-005-----0
  6
CONTINUOUS
  5
10C
 10
537.976465
 20
334.329712
 30
0.0
 11
541.030225
 21
337.383472
 31
0.0
  0
LINE
  8
LC-006-005-----0
  6
CONTINUOUS
  5
10D
 10
412.759475
 20
211.941149
 30
0.0
 11
415.759325
 21
214.941
 31
0.0
  0
LINE
  8
LC-006-005-----0
  6
CONTINUOUS
  5
10E
 10
427.35981
 20
226.541484
 30
0.0
 11
430.359642
 21
229.541316
 31
0.0
  0
LINE
  8
LC-006-005-----0
  6
CONTINUOUS
  5
10F
 10
468.258619
 20
267.440293
 30
0.0
 11
471.009325
 21
270.191
 31
0.0
  0
LINE
  8
LC-006-005-----0
  6
CONTINUOUS
  5
110
 10
535.09779
 20
334.279464
 30
0.0
 11
538.151551
 21
337.333225
 31
0.0
  0
LINE
  8
LC-006-005-----0
  6
CONTINUOUS
  5
111
 10
412.759477
 20
214.769578
 30
0.0
 11
415.759325
 21
217.769427
 31
0.0
  0
LINE
  8
LC-006-005-----0
  6
CONTINUOUS
  5
112
 10
424.531385
 20
226.541486
 30
0.0
 11
427.531215
 21
229.541316
 31
0.0
  0
LINE
  8
LC-006-005-----0
  6
CONTINUOUS
  5
113
 10
468.258619
 20
270.26872
 30
0.0
 11
471.009325
 21
273.019427
 31
0.0
  0
LINE
  8
LC-006-005-----0
  6
CONTINUOUS
  5
114
 10
532.219115
 20
334.229217
 30
0.0
 11
535.272876
 21
337.282977
 31
0.0
  0
LINE
  8
LC-006-005-----0
  6
CONTINUOUS
  5
115
 10
412.759478
 20
217.598007
 30
0.0
 11
415.759325
 21
220.597854
 31
0.0
  0
LINE
  8
LC-006-005-----0
  6
CONTINUOUS
  5
116
 10
421.756037
 20
226.594565
 30
0.0
 11
424.702788
 21
229.541316
 31
0.0
  0
LINE
  8
LC-006-005-----0
  6
CONTINUOUS
  5
117
 10
468.258619
 20
273.097147
 30
0.0
 11
471.009325
 21
275.847854
 31
0.0
  0
LINE
  8
LC-006-005-----0
  6
CONTINUOUS
  5
118
 10
529.340441
 20
334.178969
 30
0.0
 11
532.394201
 21
337.23273
 31
0.0
  0
LINE
  8
LC-006-005-----0
  6
CONTINUOUS
  5
119
 10
412.75948
 20
220.426436
 30
0.0
 11
415.759325
 21
223.426281
 31
0.0
  0
LINE
  8
LC-006-005-----0
  6
CONTINUOUS
  5
11A
 10
420.720759
 20
228.387715
 30
0.0
 11
422.467931
 21
230.134886
 31
0.0
  0
LINE
  8
LC-006-005-----0
  6
CONTINUOUS
  5
11B
 10
468.258619
 20
275.925574
 30
0.0
 11
471.009325
 21
278.676281
 31
0.0
  0
LINE
  8
LC-006-005-----0
  6
CONTINUOUS
  5
11C
 10
526.461766
 20
334.128722
 30
0.0
 11
529.515527
 21
337.182482
 31
0.0
  0
LINE
  8
LC-006-005-----0
  6
CONTINUOUS
  5
11D
 10
412.759482
 20
223.254865
 30
0.0
 11
421.342871
 21
231.838254
 31
0.0
  0
LINE
  8
LC-006-005-----0
  6
CONTINUOUS
  5
11E
 10
468.258619
 20
278.754001
 30
0.0
 11
471.009325
 21
281.504708
 31
0.0
  0
LINE
  8
LC-006-005-----0
  6
CONTINUOUS
  5
11F
 10
523.583092
 20
334.078474
 30
0.0
 11
526.636852
 21
337.132235
 31
0.0
  0
LINE
  8
LC-006-005-----0
  6
CONTINUOUS
  5
120
 10
412.759484
 20
226.083294
 30
0.0
 11
416.263637
 21
229.587446
 31
0.0
  0
LINE
  8
LC-006-005-----0
  6
CONTINUOUS
  5
121
 10
418.239464
 20
231.563274
 30
0.0
 11
421.259325
 21
234.583135
 31
0.0
  0
LINE
  8
LC-006-005-----0
  6
CONTINUOUS
  5
122
 10
468.258619
 20
281.582428
 30
0.0
 11
471.009325
 21
284.333135
 31
0.0
  0
LINE
  8
LC-006-005-----0
  6
CONTINUOUS
  5
123
 10
520.704417
 20
334.028227
 30
0.0
 11
523.758178
 21
337.081987
 31
0.0
  0
LINE
  8
LC-006-005-----0
  6
CONTINUOUS
  5
124
 10
418.311321
 20
234.463558
 30
0.0
 11
421.259325
 21
237.411562
 31
0.0
  0
LINE
  8
LC-006-005-----0
  6
CONTINUOUS
  5
125
 10
468.258619
 20
284.410855
 30
0.0
 11
471.009325
 21
287.161562
 31
0.0
  0
LINE
  8
LC-006-005-----0
  6
CONTINUOUS
  5
126
 10
517.825743
 20
333.977979
 30
0.0
 11
520.879503
 21
337.03174
 31
0.0
  0
LINE
  8
LC-006-005-----0
  6
CONTINUOUS
  5
127
 10
418.341518
 20
237.322182
 30
0.0
 11
421.259325
 21
240.239989
 31
0.0
  0
LINE
  8
LC-006-005-----0
  6
CONTINUOUS
  5
128
 10
468.258619
 20
287.239283
 30
0.0
 11
471.009325
 21
289.989989
 31
0.0
  0
LINE
  8
LC-006-005-----0
  6
CONTINUOUS
  5
129
 10
514.947068
 20
333.927732
 30
0.0
 11
518.000829
 21
336.981493
 31
0.0
  0
LINE
  8
LC-006-005-----0
  6
CONTINUOUS
  5
12A
 10
418.371714
 20
240.180806
 30
0.0
 11
421.259325
 21
243.068417
 31
0.0
  0
LINE
  8
LC-006-005-----0
  6
CONTINUOUS
  5
12B
 10
468.258619
 20
290.06771
 30
0.0
 11
471.009325
 21
292.818417
 31
0.0
  0
LINE
  8
LC-006-005-----0
  6
CONTINUOUS
  5
12C
 10
512.068393
 20
333.877485
 30
0.0
 11
515.122154
 21
336.931245
 31
0.0
  0
LINE
  8
LC-006-005-----0
  6
CONTINUOUS
  5
12D
 10
418.401911
 20
243.039429
 30
0.0
 11
421.259325
 21
245.896844
 31
0.0
  0
LINE
  8
LC-006-005-----0
  6
CONTINUOUS
  5
12E
 10
468.258619
 20
292.896137
 30
0.0
 11
471.009325
 21
295.646844
 31
0.0
  0
LINE
  8
LC-006-005-----0
  6
CONTINUOUS
  5
12F
 10
509.189719
 20
333.827237
 30
0.0
 11
512.243479
 21
336.880998
 31
0.0
  0
LINE
  8
LC-006-005-----0
  6
CONTINUOUS
  5
130
 10
418.432108
 20
245.898053
 30
0.0
 11
421.259325
 21
248.725271
 31
0.0
  0
LINE
  8
LC-006-005-----0
  6
CONTINUOUS
  5
131
 10
468.258619
 20
295.724564
 30
0.0
 11
471.009325
 21
298.475271
 31
0.0
  0
LINE
  8
LC-006-005-----0
  6
CONTINUOUS
  5
132
 10
506.311044
 20
333.77699
 30
0.0
 11
509.364805
 21
336.83075
 31
0.0
  0
LINE
  8
LC-006-005-----0
  6
CONTINUOUS
  5
133
 10
418.462305
 20
248.756677
 30
0.0
 11
421.259325
 21
251.553698
 31
0.0
  0
LINE
  8
LC-006-005-----0
  6
CONTINUOUS
  5
134
 10
468.258619
 20
298.552991
 30
0.0
 11
471.78653
 21
302.080903
 31
0.0
  0
LINE
  8
LC-006-005-----0
  6
CONTINUOUS
  5
135
 10
503.43237
 20
333.726742
 30
0.0
 11
506.48613
 21
336.780503
 31
0.0
  0
LINE
  8
LC-006-005-----0
  6
CONTINUOUS
  5
136
 10
418.492501
 20
251.615301
 30
0.0
 11
421.259325
 21
254.382125
 31
0.0
  0
LINE
  8
LC-006-005-----0
  6
CONTINUOUS
  5
137
 10
468.258619
 20
301.381418
 30
0.0
 11
478.392721
 21
311.51552
 31
0.0
  0
LINE
  8
LC-006-005-----0
  6
CONTINUOUS
  5
138
 10
498.767535
 20
331.890335
 30
0.0
 11
503.607456
 21
336.730255
 31
0.0
  0
LINE
  8
LC-006-005-----0
  6
CONTINUOUS
  5
139
 10
418.522698
 20
254.473925
 30
0.0
 11
421.259325
 21
257.210552
 31
0.0
  0
LINE
  8
LC-006-005-----0
  6
CONTINUOUS
  5
13A
 10
468.816333
 20
304.76756
 30
0.0
 11
480.266333
 21
316.21756
 31
0.0
  0
LINE
  8
LC-006-005-----0
  6
CONTINUOUS
  5
13B
 10
495.726455
 20
331.677682
 30
0.0
 11
499.137516
 21
335.088742
 31
0.0
  0
LINE
  8
LC-006-005-----0
  6
CONTINUOUS
  5
13C
 10
418.552895
 20
257.332549
 30
0.0
 11
421.259325
 21
260.038979
 31
0.0
  0
LINE
  8
LC-006-005-----0
  6
CONTINUOUS
  5
13D
 10
468.217925
 20
306.997579
 30
0.0
 11
474.411662
 21
313.191316
 31
0.0
  0
LINE
  8
LC-006-005-----0
  6
CONTINUOUS
  5
13E
 10
477.516333
 20
316.295987
 30
0.0
 11
480.266333
 21
319.045987
 31
0.0
  0
LINE
  8
LC-006-005-----0
  6
CONTINUOUS
  5
13F
 10
483.606773
 20
322.386427
 30
0.0
 11
485.347425
 21
324.127079
 31
0.0
  0
LINE
  8
LC-006-005-----0
  6
CONTINUOUS
  5
140
 10
492.685375
 20
331.465029
 30
0.0
 11
495.918804
 21
334.698458
 31
0.0
  0
LINE
  8
LC-006-005-----0
  6
CONTINUOUS
  5
141
 10
418.583092
 20
260.191173
 30
0.0
 11
421.259325
 21
262.867406
 31
0.0
  0
LINE
  8
LC-006-005-----0
  6
CONTINUOUS
  5
142
 10
468.783235
 20
310.391316
 30
0.0
 11
471.583235
 21
313.191316
 31
0.0
  0
LINE
  8
LC-006-005-----0
  6
CONTINUOUS
  5
143
 10
477.516333
 20
319.124414
 30
0.0
 11
485.655243
 21
327.263324
 31
0.0
  0
LINE
  8
LC-006-005-----0
  6
CONTINUOUS
  5
144
 10
489.644295
 20
331.252376
 30
0.0
 11
492.877724
 21
334.485805
 31
0.0
  0
LINE
  8
LC-006-005-----0
  6
CONTINUOUS
  5
145
 10
418.613288
 20
263.049796
 30
0.0
 11
421.259325
 21
265.695834
 31
0.0
  0
LINE
  8
LC-006-005-----0
  6
CONTINUOUS
  5
146
 10
477.516333
 20
321.952841
 30
0.0
 11
480.258375
 21
324.694883
 31
0.0
  0
LINE
  8
LC-006-005-----0
  6
CONTINUOUS
  5
147
 10
482.641409
 20
327.077918
 30
0.0
 11
486.078448
 21
330.514956
 31
0.0
  0
LINE
  8
LC-006-005-----0
  6
CONTINUOUS
  5
148
 10
486.319099
 20
330.755607
 30
0.0
 11
489.836644
 21
334.273152
 31
0.0
  0
LINE
  8
LC-006-005-----0
  6
CONTINUOUS
  5
149
 10
418.643485
 20
265.90842
 30
0.0
 11
421.259325
 21
268.524261
 31
0.0
  0
LINE
  8
LC-006-005-----0
  6
CONTINUOUS
  5
14A
 10
477.516333
 20
324.781268
 30
0.0
 11
479.514951
 21
326.779886
 31
0.0
  0
LINE
  8
LC-006-005-----0
  6
CONTINUOUS
  5
14B
 10
482.797839
 20
330.062774
 30
0.0
 11
486.795564
 21
334.060499
 31
0.0
  0
LINE
  8
LC-006-005-----0
  6
CONTINUOUS
  5
14C
 10
418.673682
 20
268.767044
 30
0.0
 11
421.259325
 21
271.352688
 31
0.0
  0
LINE
  8
LC-006-005-----0
  6
CONTINUOUS
  5
14D
 10
477.516333
 20
327.609695
 30
0.0
 11
479.514951
 21
329.608313
 31
0.0
  0
LINE
  8
LC-006-005-----0
  6
CONTINUOUS
  5
14E
 10
482.954269
 20
333.047631
 30
0.0
 11
483.754484
 21
333.847846
 31
0.0
  0
LINE
  8
LC-006-005-----0
  6
CONTINUOUS
  5
14F
 10
418.703878
 20
271.625668
 30
0.0
 11
421.259325
 21
274.181115
 31
0.0
  0
LINE
  8
LC-006-005-----0
  6
CONTINUOUS
  5
150
 10
477.516333
 20
330.438122
 30
0.0
 11
477.769526
 21
330.691316
 31
0.0
  0
LINE
  8
LC-006-005-----0
  6
CONTINUOUS
  5
151
 10
418.734075
 20
274.484292
 30
0.0
 11
421.259325
 21
277.009542
 31
0.0
  0
LINE
  8
LC-006-005-----0
  6
CONTINUOUS
  5
152
 10
418.764272
 20
277.342916
 30
0.0
 11
421.259325
 21
279.837969
 31
0.0
  0
LINE
  8
LC-006-005-----0
  6
CONTINUOUS
  5
153
 10
418.794469
 20
280.20154
 30
0.0
 11
421.259325
 21
282.666396
 31
0.0
  0
LINE
  8
LC-006-005-----0
  6
CONTINUOUS
  5
154
 10
418.824665
 20
283.060163
 30
0.0
 11
421.259325
 21
285.494823
 31
0.0
  0
LINE
  8
LC-006-005-----0
  6
CONTINUOUS
  5
155
 10
418.854862
 20
285.918787
 30
0.0
 11
421.259325
 21
288.323251
 31
0.0
  0
LINE
  8
LC-006-005-----0
  6
CONTINUOUS
  5
156
 10
418.885059
 20
288.777411
 30
0.0
 11
421.259325
 21
291.151678
 31
0.0
  0
LINE
  8
LC-006-005-----0
  6
CONTINUOUS
  5
157
 10
418.915256
 20
291.636035
 30
0.0
 11
421.259325
 21
293.980105
 31
0.0
  0
LINE
  8
LC-006-005-----0
  6
CONTINUOUS
  5
158
 10
418.945452
 20
294.494659
 30
0.0
 11
421.259325
 21
296.808532
 31
0.0
  0
LINE
  8
LC-006-005-----0
  6
CONTINUOUS
  5
159
 10
418.975649
 20
297.353283
 30
0.0
 11
421.259325
 21
299.636959
 31
0.0
  0
LINE
  8
LC-006-005-----0
  6
CONTINUOUS
  5
15A
 10
419.005846
 20
300.211906
 30
0.0
 11
421.259325
 21
302.465386
 31
0.0
  0
LINE
  8
LC-006-005-----0
  6
CONTINUOUS
  5
15B
 10
419.036042
 20
303.07053
 30
0.0
 11
420.506828
 21
304.541316
 31
0.0
  0
ENDBLK
  8
0
  5
15C
  0
BLOCK
  8
0
  5
15E
  2
BLK2
 70
    64
 10
0.0
 20
0.0
 30
0.0
  3
BLK2
  0
ENDBLK
  8
0
  5
15F
  0
BLOCK
  8
0
  5
161
  2
BLK3
 70
    64
 10
0.0
 20
0.0
 30
0.0
  3
BLK3
  0
ENDBLK
  8
0
  5
162
  0
BLOCK
  8
0
  5
164
  2
*X5
 70
    65
 10
460.259325
 20
313.41122
 30
0.0
  3
*X5
  0
LINE
  8
LC-006-005-----0
  6
CONTINUOUS
  5
165
 10
469.005482
 20
313.44199
 30
0.0
 11
469.728556
 21
314.165064
 31
0.0
  0
LINE
  8
LC-006-005-----0
  6
CONTINUOUS
  5
166
 10
466.146285
 20
313.41122
 30
0.0
 11
469.759325
 21
317.024261
 31
0.0
  0
LINE
  8
LC-006-005-----0
  6
CONTINUOUS
  5
167
 10
479.900826
 20
327.165762
 30
0.0
 11
481.903192
 21
329.168127
 31
0.0
  0
LINE
  8
LC-006-005-----0
  6
CONTINUOUS
  5
168
 10
463.317858
 20
313.41122
 30
0.0
 11
469.759325
 21
319.852688
 31
0.0
  0
LINE
  8
LC-006-005-----0
  6
CONTINUOUS
  5
169
 10
479.759111
 20
329.852473
 30
0.0
 11
482.374628
 21
332.46799
 31
0.0
  0
LINE
  8
LC-006-005-----0
  6
CONTINUOUS
  5
16A
 10
460.489431
 20
313.41122
 30
0.0
 11
469.759325
 21
322.681115
 31
0.0
  0
LINE
  8
LC-006-005-----0
  6
CONTINUOUS
  5
16B
 10
477.64261
 20
330.564399
 30
0.0
 11
480.337134
 21
333.258923
 31
0.0
  0
LINE
  8
LC-006-005-----0
  6
CONTINUOUS
  5
16C
 10
460.259325
 20
316.009542
 30
0.0
 11
460.661003
 21
316.41122
 31
0.0
  0
LINE
  8
LC-006-005-----0
  6
CONTINUOUS
  5
16D
 10
463.009325
 20
318.759542
 30
0.0
 11
469.759325
 21
325.509542
 31
0.0
  0
LINE
  8
LC-006-005-----0
  6
CONTINUOUS
  5
16E
 10
474.60153
 20
330.351746
 30
0.0
 11
477.296054
 21
333.04627
 31
0.0
  0
LINE
  8
LC-006-005-----0
  6
CONTINUOUS
  5
16F
 10
463.009325
 20
321.587969
 30
0.0
 11
469.759325
 21
328.337969
 31
0.0
  0
LINE
  8
LC-006-005-----0
  6
CONTINUOUS
  5
170
 10
471.560449
 20
330.139093
 30
0.0
 11
474.254974
 21
332.833617
 31
0.0
  0
LINE
  8
LC-006-005-----0
  6
CONTINUOUS
  5
171
 10
463.009325
 20
324.416396
 30
0.0
 11
471.213893
 21
332.620964
 31
0.0
  0
LINE
  8
LC-006-005-----0
  6
CONTINUOUS
  5
172
 10
463.009325
 20
327.244823
 30
0.0
 11
468.172813
 21
332.408311
 31
0.0
  0
LINE
  8
LC-006-005-----0
  6
CONTINUOUS
  5
173
 10
463.009325
 20
330.073251
 30
0.0
 11
465.131733
 21
332.195658
 31
0.0
  0
ENDBLK
  8
0
  5
174
  0
BLOCK
  8
0
  5
176
  2
*X6
 70
    65
 10
299.009325
 20
313.41122
 30
0.0
  3
*X6
  0
LINE
  8
LC-006-005-----0
  6
CONTINUOUS
  5
177
 10
319.068074
 20
313.41122
 30
0.0
 11
321.259325
 21
315.602471
 31
0.0
  0
LINE
  8
LC-006-005-----0
  6
CONTINUOUS
  5
178
 10
316.239647
 20
313.41122
 30
0.0
 11
319.239647
 21
316.41122
 31
0.0
  0
LINE
  8
LC-006-005-----0
  6
CONTINUOUS
  5
179
 10
313.41122
 20
313.41122
 30
0.0
 11
318.509325
 21
318.509325
 31
0.0
  0
LINE
  8
LC-006-005-----0
  6
CONTINUOUS
  5
17A
 10
311.759325
 20
314.587753
 30
0.0
 11
318.509325
 21
321.337753
 31
0.0
  0
LINE
  8
LC-006-005-----0
  6
CONTINUOUS
  5
17B
 10
311.759325
 20
317.41618
 30
0.0
 11
318.509325
 21
324.16618
 31
0.0
  0
LINE
  8
LC-006-005-----0
  6
CONTINUOUS
  5
17C
 10
311.759325
 20
320.244607
 30
0.0
 11
318.509325
 21
326.994607
 31
0.0
  0
LINE
  8
LC-006-005-----0
  6
CONTINUOUS
  5
17D
 10
311.759325
 20
323.073034
 30
0.0
 11
318.509325
 21
329.823034
 31
0.0
  0
LINE
  8
LC-006-005-----0
  6
CONTINUOUS
  5
17E
 10
311.759325
 20
325.901461
 30
0.0
 11
317.85844
 21
332.000576
 31
0.0
  0
LINE
  8
LC-006-005-----0
  6
CONTINUOUS
  5
17F
 10
311.759325
 20
328.729888
 30
0.0
 11
315.301028
 21
332.271591
 31
0.0
  0
LINE
  8
LC-006-005-----0
  6
CONTINUOUS
  5
180
 10
310.315143
 20
330.114133
 30
0.0
 11
312.657458
 21
332.456448
 31
0.0
  0
LINE
  8
LC-006-005-----0
  6
CONTINUOUS
  5
181
 10
307.671573
 20
330.29899
 30
0.0
 11
310.013887
 21
332.641304
 31
0.0
  0
LINE
  8
LC-006-005-----0
  6
CONTINUOUS
  5
182
 10
300.955376
 20
326.41122
 30
0.0
 11
301.492023
 21
326.947867
 31
0.0
  0
LINE
  8
LC-006-005-----0
  6
CONTINUOUS
  5
183
 10
305.028002
 20
330.483846
 30
0.0
 11
307.370316
 21
332.82616
 31
0.0
  0
LINE
  8
LC-006-005-----0
  6
CONTINUOUS
  5
184
 10
299.774017
 20
328.058288
 30
0.0
 11
301.75954
 21
330.043811
 31
0.0
  0
LINE
  8
LC-006-005-----0
  6
CONTINUOUS
  5
185
 10
302.384431
 20
330.668703
 30
0.0
 11
304.726746
 21
333.011017
 31
0.0
  0
LINE
  8
LC-006-005-----0
  6
CONTINUOUS
  5
186
 10
299.420445
 20
330.533144
 30
0.0
 11
302.083175
 21
333.195873
 31
0.0
  0
LINE
  8
LC-006-005-----0
  6
CONTINUOUS
  5
187
 10
299.066874
 20
333.008
 30
0.0
 11
299.439604
 21
333.38073
 31
0.0
  0
ENDBLK
  8
0
  5
188
  0
BLOCK
  8
0
  5
18A
  2
*D7
 70
    65
 10
0.0
 20
0.0
 30
0.0
  3
*D7
  0
LINE
  8
LC-009-003-MTH-0
  6
CONTINUOUS
  5
18C
 10
240.007583
 20
337.392
 30
0.0
 11
240.007583
 21
526.4
 31
0.0
  0
LINE
  8
LC-009-003-MTH-0
  6
CONTINUOUS
  5
18D
 10
541.518783
 20
337.392
 30
0.0
 11
541.518783
 21
526.4
 31
0.0
  0
LINE
  8
LC-010-003-MTG-0
  6
CONTINUOUS
  5
18F
 10
240.007583
 20
509.6
 30
0.0
 11
541.518783
 21
509.6
 31
0.0
  0
LINE
  8
LC-008-003-----0
  6
CONTINUOUS
  5
191
 10
267.768039
 20
513.254733
 30
0.0
 11
240.007583
 21
509.6
 31
0.0
  0
LINE
  8
LC-008-003-----0
  6
CONTINUOUS
  5
192
 10
240.007583
 20
509.6
 30
0.0
 11
267.768039
 21
505.945267
 31
0.0
  0
LINE
  8
LC-008-003-----0
  6
CONTINUOUS
  5
193
 10
267.768039
 20
505.945267
 30
0.0
 11
267.768039
 21
513.254733
 31
0.0
  0
LINE
  8
LC-008-003-----0
  6
CONTINUOUS
  5
194
 10
267.83032
 20
512.304503
 30
0.0
 11
247.287583
 21
509.6
 31
0.0
  0
LINE
  8
LC-008-003-----0
  6
CONTINUOUS
  5
195
 10
247.287583
 20
509.6
 30
0.0
 11
267.83032
 21
506.895497
 31
0.0
  0
LINE
  8
LC-008-003-----0
  6
CONTINUOUS
  5
196
 10
267.892601
 20
511.354272
 30
0.0
 11
254.567583
 21
509.6
 31
0.0
  0
LINE
  8
LC-008-003-----0
  6
CONTINUOUS
  5
197
 10
254.567583
 20
509.6
 30
0.0
 11
267.892601
 21
507.845728
 31
0.0
  0
LINE
  8
LC-008-003-----0
  6
CONTINUOUS
  5
198
 10
267.954883
 20
510.404041
 30
0.0
 11
261.847583
 21
509.6
 31
0.0
  0
LINE
  8
LC-008-003-----0
  6
CONTINUOUS
  5
199
 10
261.847583
 20
509.6
 30
0.0
 11
267.954883
 21
508.795959
 31
0.0
  0
LINE
  8
LC-008-003-----0
  6
CONTINUOUS
  5
19A
 10
513.758327
 20
505.945267
 30
0.0
 11
541.518783
 21
509.6
 31
0.0
  0
LINE
  8
LC-008-003-----0
  6
CONTINUOUS
  5
19B
 10
541.518783
 20
509.6
 30
0.0
 11
513.758327
 21
513.254733
 31
0.0
  0
LINE
  8
LC-008-003-----0
  6
CONTINUOUS
  5
19C
 10
513.758327
 20
513.254733
 30
0.0
 11
513.758327
 21
505.945267
 31
0.0
  0
LINE
  8
LC-008-003-----0
  6
CONTINUOUS
  5
19D
 10
513.696045
 20
506.895497
 30
0.0
 11
534.238783
 21
509.6
 31
0.0
  0
LINE
  8
LC-008-003-----0
  6
CONTINUOUS
  5
19E
 10
534.238783
 20
509.6
 30
0.0
 11
513.696045
 21
512.304503
 31
0.0
  0
LINE
  8
LC-008-003-----0
  6
CONTINUOUS
  5
19F
 10
513.633764
 20
507.845728
 30
0.0
 11
526.958783
 21
509.6
 31
0.0
  0
LINE
  8
LC-008-003-----0
  6
CONTINUOUS
  5
1A0
 10
526.958783
 20
509.6
 30
0.0
 11
513.633764
 21
511.354272
 31
0.0
  0
LINE
  8
LC-008-003-----0
  6
CONTINUOUS
  5
1A1
 10
513.571482
 20
508.795959
 30
0.0
 11
519.678783
 21
509.6
 31
0.0
  0
LINE
  8
LC-008-003-----0
  6
CONTINUOUS
  5
1A2
 10
519.678783
 20
509.6
 30
0.0
 11
513.571482
 21
510.404041
 31
0.0
  0
TEXT
  8
LC-008-003-----0
  6
CONTINUOUS
 62
     8
  5
1A4
 10
357.013705
 20
517.427554
 30
0.0
 40
28.0
  1
Ø300
 41
0.9
 51
15.0
  7
LC-TXTSTYLE-150-400-0-0-D0
 72
     1
 11
395.111343
 21
517.427554
 31
0.0
  0
ENDBLK
  8
0
  5
1A5
  0
BLOCK
  8
0
  5
1A7
  2
*D8
 70
    65
 10
0.0
 20
0.0
 30
0.0
  3
*D8
  0
LINE
  8
LC-009-003-MTH-0
  6
CONTINUOUS
  5
1A8
 10
295.866681
 20
327.34806
 30
0.0
 11
295.868032
 21
487.197499
 31
0.0
  0
LINE
  8
LC-009-003-MTH-0
  6
CONTINUOUS
  5
1A9
 10
485.6596
 20
327.346456
 30
0.0
 11
485.660951
 21
487.195895
 31
0.0
  0
LINE
  8
LC-010-003-MTG-0
  6
CONTINUOUS
  5
1AA
 10
295.86789
 20
470.397499
 30
0.0
 11
485.660809
 21
470.395895
 31
0.0
  0
LINE
  8
LC-008-003-----0
  6
CONTINUOUS
  5
1AB
 10
323.628377
 20
474.051998
 30
0.0
 11
295.86789
 21
470.397499
 31
0.0
  0
LINE
  8
LC-008-003-----0
  6
CONTINUOUS
  5
1AC
 10
295.86789
 20
470.397499
 30
0.0
 11
323.628316
 21
466.742531
 31
0.0
  0
LINE
  8
LC-008-003-----0
  6
CONTINUOUS
  5
1AD
 10
323.628316
 20
466.742531
 30
0.0
 11
323.628377
 21
474.051998
 31
0.0
  0
LINE
  8
LC-008-003-----0
  6
CONTINUOUS
  5
1AE
 10
323.690651
 20
473.101767
 30
0.0
 11
303.14789
 21
470.397438
 31
0.0
  0
LINE
  8
LC-008-003-----0
  6
CONTINUOUS
  5
1AF
 10
303.14789
 20
470.397438
 30
0.0
 11
323.690605
 21
467.692761
 31
0.0
  0
LINE
  8
LC-008-003-----0
  6
CONTINUOUS
  5
1B0
 10
323.752924
 20
472.151535
 30
0.0
 11
310.42789
 21
470.397376
 31
0.0
  0
LINE
  8
LC-008-003-----0
  6
CONTINUOUS
  5
1B1
 10
310.42789
 20
470.397376
 30
0.0
 11
323.752895
 21
468.642991
 31
0.0
  0
LINE
  8
LC-008-003-----0
  6
CONTINUOUS
  5
1B2
 10
323.815198
 20
471.201304
 30
0.0
 11
317.70789
 21
470.397314
 31
0.0
  0
LINE
  8
LC-008-003-----0
  6
CONTINUOUS
  5
1B3
 10
317.70789
 20
470.397314
 30
0.0
 11
323.815184
 21
469.593221
 31
0.0
  0
LINE
  8
LC-008-003-----0
  6
CONTINUOUS
  5
1B4
 10
457.900322
 20
466.741396
 30
0.0
 11
485.660809
 21
470.395895
 31
0.0
  0
LINE
  8
LC-008-003-----0
  6
CONTINUOUS
  5
1B5
 10
485.660809
 20
470.395895
 30
0.0
 11
457.900384
 21
474.050863
 31
0.0
  0
LINE
  8
LC-008-003-----0
  6
CONTINUOUS
  5
1B6
 10
457.900384
 20
474.050863
 30
0.0
 11
457.900322
 21
466.741396
 31
0.0
  0
LINE
  8
LC-008-003-----0
  6
CONTINUOUS
  5
1B7
 10
457.838049
 20
467.691627
 30
0.0
 11
478.380809
 21
470.395956
 31
0.0
  0
LINE
  8
LC-008-003-----0
  6
CONTINUOUS
  5
1B8
 10
478.380809
 20
470.395956
 30
0.0
 11
457.838094
 21
473.100633
 31
0.0
  0
LINE
  8
LC-008-003-----0
  6
CONTINUOUS
  5
1B9
 10
457.775775
 20
468.641858
 30
0.0
 11
471.100809
 21
470.396018
 31
0.0
  0
LINE
  8
LC-008-003-----0
  6
CONTINUOUS
  5
1BA
 10
471.100809
 20
470.396018
 30
0.0
 11
457.775805
 21
472.150402
 31
0.0
  0
LINE
  8
LC-008-003-----0
  6
CONTINUOUS
  5
1BB
 10
457.713502
 20
469.59209
 30
0.0
 11
463.820809
 21
470.396079
 31
0.0
  0
LINE
  8
LC-008-003-----0
  6
CONTINUOUS
  5
1BC
 10
463.820809
 20
470.396079
 30
0.0
 11
457.713516
 21
471.200172
 31
0.0
  0
TEXT
  8
LC-008-003-----0
  6
CONTINUOUS
 62
     8
  5
1BD
 10
357.014801
 20
478.224251
 30
0.0
 40
28.0
  1
Ø190
 50
360.0
 51
15.0
  7
LC-TXTSTYLE-150-400-0-0-D0
 72
     1
 11
395.112439
 21
478.224251
 31
0.0
  0
ENDBLK
  8
0
  5
1BE
  0
BLOCK
  8
0
  5
1C0
  2
*D9
 70
    65
 10
0.0
 20
0.0
 30
0.0
  3
*D9
  0
LINE
  8
LC-009-003-MTH-0
  6
CONTINUOUS
  5
1C1
 10
310.509325
 20
238.291316
 30
0.0
 11
310.509488
 21
61.600285
 31
0.0
  0
LINE
  8
LC-009-003-MTH-0
  6
CONTINUOUS
  5
1C2
 10
471.009325
 20
238.291463
 30
0.0
 11
471.009488
 21
61.600432
 31
0.0
  0
LINE
  8
LC-010-003-MTG-0
  6
CONTINUOUS
  5
1C3
 10
310.509472
 20
78.400285
 30
0.0
 11
471.009472
 21
78.400432
 31
0.0
  0
LINE
  8
LC-008-003-----0
  6
CONTINUOUS
  5
1C4
 10
338.269925
 20
82.055044
 30
0.0
 11
310.509472
 21
78.400285
 31
0.0
  0
LINE
  8
LC-008-003-----0
  6
CONTINUOUS
  5
1C5
 10
310.509472
 20
78.400285
 30
0.0
 11
338.269932
 21
74.745577
 31
0.0
  0
LINE
  8
LC-008-003-----0
  6
CONTINUOUS
  5
1C6
 10
338.269932
 20
74.745577
 30
0.0
 11
338.269925
 21
82.055044
 31
0.0
  0
LINE
  8
LC-008-003-----0
  6
CONTINUOUS
  5
1C7
 10
338.332207
 20
81.104813
 30
0.0
 11
317.789472
 21
78.400292
 31
0.0
  0
LINE
  8
LC-008-003-----0
  6
CONTINUOUS
  5
1C8
 10
317.789472
 20
78.400292
 30
0.0
 11
338.332212
 21
75.695808
 31
0.0
  0
LINE
  8
LC-008-003-----0
  6
CONTINUOUS
  5
1C9
 10
338.394489
 20
80.154583
 30
0.0
 11
325.069472
 21
78.400298
 31
0.0
  0
LINE
  8
LC-008-003-----0
  6
CONTINUOUS
  5
1CA
 10
325.069472
 20
78.400298
 30
0.0
 11
338.394493
 21
76.646038
 31
0.0
  0
LINE
  8
LC-008-003-----0
  6
CONTINUOUS
  5
1CB
 10
338.456772
 20
79.204352
 30
0.0
 11
332.349472
 21
78.400305
 31
0.0
  0
LINE
  8
LC-008-003-----0
  6
CONTINUOUS
  5
1CC
 10
332.349472
 20
78.400305
 30
0.0
 11
338.456773
 21
77.596269
 31
0.0
  0
LINE
  8
LC-008-003-----0
  6
CONTINUOUS
  5
1CD
 10
443.249019
 20
74.745673
 30
0.0
 11
471.009472
 21
78.400432
 31
0.0
  0
LINE
  8
LC-008-003-----0
  6
CONTINUOUS
  5
1CE
 10
471.009472
 20
78.400432
 30
0.0
 11
443.249013
 21
82.05514
 31
0.0
  0
LINE
  8
LC-008-003-----0
  6
CONTINUOUS
  5
1CF
 10
443.249013
 20
82.05514
 30
0.0
 11
443.249019
 21
74.745673
 31
0.0
  0
LINE
  8
LC-008-003-----0
  6
CONTINUOUS
  5
1D0
 10
443.186737
 20
75.695904
 30
0.0
 11
463.729472
 21
78.400426
 31
0.0
  0
LINE
  8
LC-008-003-----0
  6
CONTINUOUS
  5
1D1
 10
463.729472
 20
78.400426
 30
0.0
 11
443.186732
 21
81.104909
 31
0.0
  0
LINE
  8
LC-008-003-----0
  6
CONTINUOUS
  5
1D2
 10
443.124455
 20
76.646135
 30
0.0
 11
456.449472
 21
78.400419
 31
0.0
  0
LINE
  8
LC-008-003-----0
  6
CONTINUOUS
  5
1D3
 10
456.449472
 20
78.400419
 30
0.0
 11
443.124452
 21
80.154679
 31
0.0
  0
LINE
  8
LC-008-003-----0
  6
CONTINUOUS
  5
1D4
 10
443.062173
 20
77.596365
 30
0.0
 11
449.169472
 21
78.400412
 31
0.0
  0
LINE
  8
LC-008-003-----0
  6
CONTINUOUS
  5
1D5
 10
449.169472
 20
78.400412
 30
0.0
 11
443.062171
 21
79.204448
 31
0.0
  0
TEXT
  8
LC-008-003-----0
  6
CONTINUOUS
 62
     8
  5
1D6
 10
357.010002
 20
86.227912
 30
0.0
 40
28.0
  1
Ø160
 51
15.0
  7
LC-TXTSTYLE-150-400-0-0-D0
 72
     1
 11
395.10764
 21
86.227912
 31
0.0
  0
ENDBLK
  8
0
  5
1D7
  0
BLOCK
  8
0
  5
1D9
  2
*D10
 70
    65
 10
0.0
 20
0.0
 30
0.0
  3
*D10
  0
LINE
  8
LC-009-003-MTH-0
  6
CONTINUOUS
  5
1DA
 10
335.759325
 20
158.041544
 30
0.0
 11
335.759325
 21
100.8
 31
0.0
  0
LINE
  8
LC-009-003-MTH-0
  6
CONTINUOUS
  5
1DB
 10
445.759325
 20
158.041472
 30
0.0
 11
445.759325
 21
100.8
 31
0.0
  0
LINE
  8
LC-010-003-MTG-0
  6
CONTINUOUS
  5
1DC
 10
335.759325
 20
117.6
 30
0.0
 11
445.759325
 21
117.6
 31
0.0
  0
LINE
  8
LC-008-003-----0
  6
CONTINUOUS
  5
1DD
 10
363.519782
 20
121.254733
 30
0.0
 11
335.759325
 21
117.6
 31
0.0
  0
LINE
  8
LC-008-003-----0
  6
CONTINUOUS
  5
1DE
 10
335.759325
 20
117.6
 30
0.0
 11
363.519782
 21
113.945267
 31
0.0
  0
LINE
  8
LC-008-003-----0
  6
CONTINUOUS
  5
1DF
 10
363.519782
 20
113.945267
 30
0.0
 11
363.519782
 21
121.254733
 31
0.0
  0
LINE
  8
LC-008-003-----0
  6
CONTINUOUS
  5
1E0
 10
363.582063
 20
120.304503
 30
0.0
 11
343.039325
 21
117.6
 31
0.0
  0
LINE
  8
LC-008-003-----0
  6
CONTINUOUS
  5
1E1
 10
343.039325
 20
117.6
 30
0.0
 11
363.582063
 21
114.895497
 31
0.0
  0
LINE
  8
LC-008-003-----0
  6
CONTINUOUS
  5
1E2
 10
363.644344
 20
119.354272
 30
0.0
 11
350.319325
 21
117.6
 31
0.0
  0
LINE
  8
LC-008-003-----0
  6
CONTINUOUS
  5
1E3
 10
350.319325
 20
117.6
 30
0.0
 11
363.644344
 21
115.845728
 31
0.0
  0
LINE
  8
LC-008-003-----0
  6
CONTINUOUS
  5
1E4
 10
363.706626
 20
118.404041
 30
0.0
 11
357.599325
 21
117.6
 31
0.0
  0
LINE
  8
LC-008-003-----0
  6
CONTINUOUS
  5
1E5
 10
357.599325
 20
117.6
 30
0.0
 11
363.706626
 21
116.795959
 31
0.0
  0
LINE
  8
LC-008-003-----0
  6
CONTINUOUS
  5
1E6
 10
417.998869
 20
113.945267
 30
0.0
 11
445.759325
 21
117.6
 31
0.0
  0
LINE
  8
LC-008-003-----0
  6
CONTINUOUS
  5
1E7
 10
445.759325
 20
117.6
 30
0.0
 11
417.998869
 21
121.254733
 31
0.0
  0
LINE
  8
LC-008-003-----0
  6
CONTINUOUS
  5
1E8
 10
417.998869
 20
121.254733
 30
0.0
 11
417.998869
 21
113.945267
 31
0.0
  0
LINE
  8
LC-008-003-----0
  6
CONTINUOUS
  5
1E9
 10
417.936588
 20
114.895497
 30
0.0
 11
438.479325
 21
117.6
 31
0.0
  0
LINE
  8
LC-008-003-----0
  6
CONTINUOUS
  5
1EA
 10
438.479325
 20
117.6
 30
0.0
 11
417.936588
 21
120.304503
 31
0.0
  0
LINE
  8
LC-008-003-----0
  6
CONTINUOUS
  5
1EB
 10
417.874306
 20
115.845728
 30
0.0
 11
431.199325
 21
117.6
 31
0.0
  0
LINE
  8
LC-008-003-----0
  6
CONTINUOUS
  5
1EC
 10
431.199325
 20
117.6
 30
0.0
 11
417.874306
 21
119.354272
 31
0.0
  0
LINE
  8
LC-008-003-----0
  6
CONTINUOUS
  5
1ED
 10
417.812025
 20
116.795959
 30
0.0
 11
423.919325
 21
117.6
 31
0.0
  0
LINE
  8
LC-008-003-----0
  6
CONTINUOUS
  5
1EE
 10
423.919325
 20
117.6
 30
0.0
 11
417.812025
 21
118.404041
 31
0.0
  0
TEXT
  8
LC-008-003-----0
  6
CONTINUOUS
 62
     8
  5
1EF
 10
348.543706
 20
119.827554
 30
0.0
 40
28.0
  1
DN100
 51
15.0
  7
LC-TXTSTYLE-150-400-0-0-D0
 72
     1
 11
395.107485
 21
119.827554
 31
0.0
  0
ENDBLK
  8
0
  5
1F0
  0
BLOCK
  8
0
  5
1F2
  2
*D11
 70
    65
 10
0.0
 20
0.0
 30
0.0
  3
*D11
  0
LINE
  8
LC-009-003-MTH-0
  6
CONTINUOUS
  5
1F3
 10
322.259325
 20
226.541316
 30
0.0
 11
183.2
 21
226.541316
 31
0.0
  0
LINE
  8
LC-009-003-MTH-0
  6
CONTINUOUS
  5
1F4
 10
240.007583
 20
334.391543
 30
0.0
 11
183.2
 21
334.391543
 31
0.0
  0
LINE
  8
LC-010-003-MTG-0
  6
CONTINUOUS
  5
1F5
 10
200.0
 20
226.541316
 30
0.0
 11
200.0
 21
334.391543
 31
0.0
  0
LINE
  8
LC-008-003-----0
  6
CONTINUOUS
  5
1F6
 10
196.345267
 20
254.301772
 30
0.0
 11
200.0
 21
226.541316
 31
0.0
  0
LINE
  8
LC-008-003-----0
  6
CONTINUOUS
  5
1F7
 10
200.0
 20
226.541316
 30
0.0
 11
203.654733
 21
254.301772
 31
0.0
  0
LINE
  8
LC-008-003-----0
  6
CONTINUOUS
  5
1F8
 10
203.654733
 20
254.301772
 30
0.0
 11
196.345267
 21
254.301772
 31
0.0
  0
LINE
  8
LC-008-003-----0
  6
CONTINUOUS
  5
1F9
 10
197.295497
 20
254.364053
 30
0.0
 11
200.0
 21
233.821316
 31
0.0
  0
LINE
  8
LC-008-003-----0
  6
CONTINUOUS
  5
1FA
 10
200.0
 20
233.821316
 30
0.0
 11
202.704503
 21
254.364053
 31
0.0
  0
LINE
  8
LC-008-003-----0
  6
CONTINUOUS
  5
1FB
 10
198.245728
 20
254.426335
 30
0.0
 11
200.0
 21
241.101316
 31
0.0
  0
LINE
  8
LC-008-003-----0
  6
CONTINUOUS
  5
1FC
 10
200.0
 20
241.101316
 30
0.0
 11
201.754272
 21
254.426335
 31
0.0
  0
LINE
  8
LC-008-003-----0
  6
CONTINUOUS
  5
1FD
 10
199.195959
 20
254.488616
 30
0.0
 11
200.0
 21
248.381316
 31
0.0
  0
LINE
  8
LC-008-003-----0
  6
CONTINUOUS
  5
1FE
 10
200.0
 20
248.381316
 30
0.0
 11
200.804041
 21
254.488616
 31
0.0
  0
LINE
  8
LC-008-003-----0
  6
CONTINUOUS
  5
1FF
 10
203.654733
 20
306.631087
 30
0.0
 11
200.0
 21
334.391543
 31
0.0
  0
LINE
  8
LC-008-003-----0
  6
CONTINUOUS
  5
200
 10
200.0
 20
334.391543
 30
0.0
 11
196.345267
 21
306.631087
 31
0.0
  0
LINE
  8
LC-008-003-----0
  6
CONTINUOUS
  5
201
 10
196.345267
 20
306.631087
 30
0.0
 11
203.654733
 21
306.631087
 31
0.0
  0
LINE
  8
LC-008-003-----0
  6
CONTINUOUS
  5
202
 10
202.704503
 20
306.568805
 30
0.0
 11
200.0
 21
327.111543
 31
0.0
  0
LINE
  8
LC-008-003-----0
  6
CONTINUOUS
  5
203
 10
200.0
 20
327.111543
 30
0.0
 11
197.295497
 21
306.568805
 31
0.0
  0
LINE
  8
LC-008-003-----0
  6
CONTINUOUS
  5
204
 10
201.754272
 20
306.506524
 30
0.0
 11
200.0
 21
319.831543
 31
0.0
  0
LINE
  8
LC-008-003-----0
  6
CONTINUOUS
  5
205
 10
200.0
 20
319.831543
 30
0.0
 11
198.245728
 21
306.506524
 31
0.0
  0
LINE
  8
LC-008-003-----0
  6
CONTINUOUS
  5
206
 10
200.804041
 20
306.444243
 30
0.0
 11
200.0
 21
312.551543
 31
0.0
  0
LINE
  8
LC-008-003-----0
  6
CONTINUOUS
  5
207
 10
200.0
 20
312.551543
 30
0.0
 11
199.195959
 21
306.444243
 31
0.0
  0
TEXT
  8
LC-008-003-----0
  6
CONTINUOUS
 62
     8
  5
208
 10
192.172446
 20
255.05081
 30
0.0
 40
28.0
  1
110
 50
90.0
 51
15.0
  7
LC-TXTSTYLE-150-400-0-0-D0
 72
     1
 11
192.172446
 21
284.814589
 31
0.0
  0
ENDBLK
  8
0
  5
209
  0
BLOCK
  8
0
  5
20B
  2
*D12
 70
    65
 10
0.0
 20
0.0
 30
0.0
  3
*D12
  0
LINE
  8
LC-009-003-MTH-0
  6
CONTINUOUS
  5
20C
 10
349.262996
 20
255.041251
 30
0.0
 11
263.2
 21
255.041251
 31
0.0
  0
LINE
  8
LC-009-003-MTH-0
  6
CONTINUOUS
  5
20D
 10
359.505278
 20
304.541253
 30
0.0
 11
263.2
 21
304.541253
 31
0.0
  0
LINE
  8
LC-008-003-----0
  6
CONTINUOUS
  5
20E
 10
283.654733
 20
227.280795
 30
0.0
 11
280.0
 21
255.041251
 31
0.0
  0
LINE
  8
LC-008-003-----0
  6
CONTINUOUS
  5
20F
 10
280.0
 20
255.041251
 30
0.0
 11
276.345267
 21
227.280795
 31
0.0
  0
LINE
  8
LC-008-003-----0
  6
CONTINUOUS
  5
210
 10
276.345267
 20
227.280795
 30
0.0
 11
283.654733
 21
227.280795
 31
0.0
  0
LINE
  8
LC-008-003-----0
  6
CONTINUOUS
  5
211
 10
282.704503
 20
227.218513
 30
0.0
 11
280.0
 21
247.761251
 31
0.0
  0
LINE
  8
LC-008-003-----0
  6
CONTINUOUS
  5
212
 10
280.0
 20
247.761251
 30
0.0
 11
277.295497
 21
227.218513
 31
0.0
  0
LINE
  8
LC-008-003-----0
  6
CONTINUOUS
  5
213
 10
281.754272
 20
227.156232
 30
0.0
 11
280.0
 21
240.481251
 31
0.0
  0
LINE
  8
LC-008-003-----0
  6
CONTINUOUS
  5
214
 10
280.0
 20
240.481251
 30
0.0
 11
278.245728
 21
227.156232
 31
0.0
  0
LINE
  8
LC-008-003-----0
  6
CONTINUOUS
  5
215
 10
280.804041
 20
227.09395
 30
0.0
 11
280.0
 21
233.201251
 31
0.0
  0
LINE
  8
LC-008-003-----0
  6
CONTINUOUS
  5
216
 10
280.0
 20
233.201251
 30
0.0
 11
279.195959
 21
227.09395
 31
0.0
  0
LINE
  8
LC-008-003-----0
  6
CONTINUOUS
  5
217
 10
276.345267
 20
332.30171
 30
0.0
 11
280.0
 21
304.541253
 31
0.0
  0
LINE
  8
LC-008-003-----0
  6
CONTINUOUS
  5
218
 10
280.0
 20
304.541253
 30
0.0
 11
283.654733
 21
332.30171
 31
0.0
  0
LINE
  8
LC-008-003-----0
  6
CONTINUOUS
  5
219
 10
283.654733
 20
332.30171
 30
0.0
 11
276.345267
 21
332.30171
 31
0.0
  0
LINE
  8
LC-008-003-----0
  6
CONTINUOUS
  5
21A
 10
277.295497
 20
332.363991
 30
0.0
 11
280.0
 21
311.821253
 31
0.0
  0
LINE
  8
LC-008-003-----0
  6
CONTINUOUS
  5
21B
 10
280.0
 20
311.821253
 30
0.0
 11
282.704503
 21
332.363991
 31
0.0
  0
LINE
  8
LC-008-003-----0
  6
CONTINUOUS
  5
21C
 10
278.245728
 20
332.426272
 30
0.0
 11
280.0
 21
319.101253
 31
0.0
  0
LINE
  8
LC-008-003-----0
  6
CONTINUOUS
  5
21D
 10
280.0
 20
319.101253
 30
0.0
 11
281.754272
 21
332.426272
 31
0.0
  0
LINE
  8
LC-008-003-----0
  6
CONTINUOUS
  5
21E
 10
279.195959
 20
332.488554
 30
0.0
 11
280.0
 21
326.381253
 31
0.0
  0
LINE
  8
LC-008-003-----0
  6
CONTINUOUS
  5
21F
 10
280.0
 20
326.381253
 30
0.0
 11
280.804041
 21
332.488554
 31
0.0
  0
LINE
  8
LC-010-003-MTG-0
  6
CONTINUOUS
  5
220
 10
280.0
 20
215.841251
 30
0.0
 11
280.0
 21
343.741253
 31
0.0
  0
TEXT
  8
LC-008-003-----0
  6
CONTINUOUS
 62
     8
  5
221
 10
272.172446
 20
267.736262
 30
0.0
 40
28.0
  1
50
 50
90.0
 51
15.0
  7
LC-TXTSTYLE-150-400-0-0-D0
 72
     1
 11
272.172446
 21
284.139412
 31
0.0
  0
ENDBLK
  8
0
  5
222
  0
BLOCK
  8
0
  5
224
  2
*X13
 70
    65
 10
349.258398
 20
255.041251
 30
0.0
  3
*X13
  0
LINE
  8
LC-006-005-----0
  6
CONTINUOUS
  5
225
 10
431.258731
 20
255.89625
 30
0.0
 11
432.258569
 21
256.896088
 31
0.0
  0
LINE
  8
LC-006-005-----0
  6
CONTINUOUS
  5
226
 10
431.258725
 20
258.724671
 30
0.0
 11
432.258571
 21
259.724517
 31
0.0
  0
LINE
  8
LC-006-005-----0
  6
CONTINUOUS
  5
227
 10
431.25872
 20
261.553092
 30
0.0
 11
432.258573
 21
262.552946
 31
0.0
  0
LINE
  8
LC-006-005-----0
  6
CONTINUOUS
  5
228
 10
431.258714
 20
264.381513
 30
0.0
 11
432.258575
 21
265.381375
 31
0.0
  0
LINE
  8
LC-006-005-----0
  6
CONTINUOUS
  5
229
 10
431.258708
 20
267.209935
 30
0.0
 11
432.258577
 21
268.209804
 31
0.0
  0
LINE
  8
LC-006-005-----0
  6
CONTINUOUS
  5
22A
 10
431.258702
 20
270.038356
 30
0.0
 11
432.258579
 21
271.038233
 31
0.0
  0
LINE
  8
LC-006-005-----0
  6
CONTINUOUS
  5
22B
 10
431.258696
 20
272.866777
 30
0.0
 11
432.258581
 21
273.866662
 31
0.0
  0
LINE
  8
LC-006-005-----0
  6
CONTINUOUS
  5
22C
 10
431.25869
 20
275.695198
 30
0.0
 11
432.258582
 21
276.695091
 31
0.0
  0
LINE
  8
LC-006-005-----0
  6
CONTINUOUS
  5
22D
 10
431.258684
 20
278.52362
 30
0.0
 11
432.258584
 21
279.52352
 31
0.0
  0
LINE
  8
LC-006-005-----0
  6
CONTINUOUS
  5
22E
 10
431.258679
 20
281.352041
 30
0.0
 11
432.258586
 21
282.351949
 31
0.0
  0
LINE
  8
LC-006-005-----0
  6
CONTINUOUS
  5
22F
 10
431.258673
 20
284.180462
 30
0.0
 11
432.258588
 21
285.180377
 31
0.0
  0
LINE
  8
LC-006-005-----0
  6
CONTINUOUS
  5
230
 10
431.258667
 20
287.008883
 30
0.0
 11
432.25859
 21
288.008806
 31
0.0
  0
LINE
  8
LC-006-005-----0
  6
CONTINUOUS
  5
231
 10
431.258661
 20
289.837305
 30
0.0
 11
432.258592
 21
290.837235
 31
0.0
  0
LINE
  8
LC-006-005-----0
  6
CONTINUOUS
  5
232
 10
431.258655
 20
292.665726
 30
0.0
 11
432.258594
 21
293.665664
 31
0.0
  0
LINE
  8
LC-006-005-----0
  6
CONTINUOUS
  5
233
 10
431.258649
 20
295.494147
 30
0.0
 11
432.258595
 21
296.494093
 31
0.0
  0
LINE
  8
LC-006-005-----0
  6
CONTINUOUS
  5
234
 10
431.258643
 20
298.322569
 30
0.0
 11
432.258597
 21
299.322522
 31
0.0
  0
LINE
  8
LC-006-005-----0
  6
CONTINUOUS
  5
235
 10
431.258638
 20
301.15099
 30
0.0
 11
432.258599
 21
302.150951
 31
0.0
  0
LINE
  8
LC-006-005-----0
  6
CONTINUOUS
  5
236
 10
431.258632
 20
303.979411
 30
0.0
 11
432.258601
 21
304.97938
 31
0.0
  0
LINE
  8
LC-006-005-----0
  6
CONTINUOUS
  5
237
 10
431.258626
 20
306.807832
 30
0.0
 11
432.258603
 21
307.807809
 31
0.0
  0
LINE
  8
LC-006-005-----0
  6
CONTINUOUS
  5
238
 10
431.25862
 20
309.636254
 30
0.0
 11
432.258605
 21
310.636238
 31
0.0
  0
LINE
  8
LC-006-005-----0
  6
CONTINUOUS
  5
239
 10
431.258614
 20
312.464675
 30
0.0
 11
432.258606
 21
313.464667
 31
0.0
  0
LINE
  8
LC-006-005-----0
  6
CONTINUOUS
  5
23A
 10
431.255519
 20
315.290007
 30
0.0
 11
432.19923
 21
316.233718
 31
0.0
  0
LINE
  8
LC-006-005-----0
  6
CONTINUOUS
  5
23B
 10
430.885304
 20
317.748219
 30
0.0
 11
431.723144
 21
318.586059
 31
0.0
  0
LINE
  8
LC-006-005-----0
  6
CONTINUOUS
  5
23C
 10
430.073021
 20
319.764363
 30
0.0
 11
430.89874
 21
320.590082
 31
0.0
  0
LINE
  8
LC-006-005-----0
  6
CONTINUOUS
  5
23D
 10
428.932943
 20
321.452712
 30
0.0
 11
429.79963
 21
322.319399
 31
0.0
  0
LINE
  8
LC-006-005-----0
  6
CONTINUOUS
  5
23E
 10
427.503535
 20
322.851732
 30
0.0
 11
428.45649
 21
323.804686
 31
0.0
  0
LINE
  8
LC-006-005-----0
  6
CONTINUOUS
  5
23F
 10
425.782837
 20
323.95946
 30
0.0
 11
426.87558
 21
325.052203
 31
0.0
  0
LINE
  8
LC-006-005-----0
  6
CONTINUOUS
  5
240
 10
423.726951
 20
324.732002
 30
0.0
 11
425.041853
 21
326.046904
 31
0.0
  0
LINE
  8
LC-006-005-----0
  6
CONTINUOUS
  5
241
 10
421.207947
 20
325.041425
 30
0.0
 11
422.911117
 21
326.744595
 31
0.0
  0
LINE
  8
LC-006-005-----0
  6
CONTINUOUS
  5
242
 10
349.258566
 20
255.920471
 30
0.0
 11
350.258563
 21
256.920468
 31
0.0
  0
LINE
  8
LC-006-005-----0
  6
CONTINUOUS
  5
243
 10
389.879349
 20
296.541253
 30
0.0
 11
392.194686
 21
298.856591
 31
0.0
  0
LINE
  8
LC-006-005-----0
  6
CONTINUOUS
  5
244
 10
418.37952
 20
325.041425
 30
0.0
 11
420.378917
 21
327.040822
 31
0.0
  0
LINE
  8
LC-006-005-----0
  6
CONTINUOUS
  5
245
 10
349.258558
 20
258.74889
 30
0.0
 11
350.258555
 21
259.748887
 31
0.0
  0
LINE
  8
LC-006-005-----0
  6
CONTINUOUS
  5
246
 10
387.050921
 20
296.541253
 30
0.0
 11
392.195452
 21
301.685784
 31
0.0
  0
LINE
  8
LC-006-005-----0
  6
CONTINUOUS
  5
247
 10
415.551093
 20
325.041425
 30
0.0
 11
417.551095
 21
327.041427
 31
0.0
  0
LINE
  8
LC-006-005-----0
  6
CONTINUOUS
  5
248
 10
349.25855
 20
261.577309
 30
0.0
 11
350.258547
 21
262.577306
 31
0.0
  0
LINE
  8
LC-006-005-----0
  6
CONTINUOUS
  5
249
 10
384.222494
 20
296.541253
 30
0.0
 11
392.196218
 21
304.514977
 31
0.0
  0
LINE
  8
LC-006-005-----0
  6
CONTINUOUS
  5
24A
 10
412.722666
 20
325.041425
 30
0.0
 11
414.722669
 21
327.041429
 31
0.0
  0
LINE
  8
LC-006-005-----0
  6
CONTINUOUS
  5
24B
 10
349.258542
 20
264.405728
 30
0.0
 11
350.258539
 21
265.405725
 31
0.0
  0
LINE
  8
LC-006-005-----0
  6
CONTINUOUS
  5
24C
 10
381.394067
 20
296.541253
 30
0.0
 11
392.196984
 21
307.34417
 31
0.0
  0
LINE
  8
LC-006-005-----0
  6
CONTINUOUS
  5
24D
 10
409.894238
 20
325.041425
 30
0.0
 11
411.894244
 21
327.041431
 31
0.0
  0
LINE
  8
LC-006-005-----0
  6
CONTINUOUS
  5
24E
 10
349.258534
 20
267.234147
 30
0.0
 11
350.258531
 21
268.234144
 31
0.0
  0
LINE
  8
LC-006-005-----0
  6
CONTINUOUS
  5
24F
 10
378.56564
 20
296.541253
 30
0.0
 11
392.197749
 21
310.173363
 31
0.0
  0
LINE
  8
LC-006-005-----0
  6
CONTINUOUS
  5
250
 10
407.065811
 20
325.041425
 30
0.0
 11
409.065819
 21
327.041433
 31
0.0
  0
LINE
  8
LC-006-005-----0
  6
CONTINUOUS
  5
251
 10
349.258526
 20
270.062566
 30
0.0
 11
350.258523
 21
271.062563
 31
0.0
  0
LINE
  8
LC-006-005-----0
  6
CONTINUOUS
  5
252
 10
375.737213
 20
296.541253
 30
0.0
 11
392.198515
 21
313.002556
 31
0.0
  0
LINE
  8
LC-006-005-----0
  6
CONTINUOUS
  5
253
 10
404.237384
 20
325.041425
 30
0.0
 11
406.237394
 21
327.041435
 31
0.0
  0
LINE
  8
LC-006-005-----0
  6
CONTINUOUS
  5
254
 10
349.258518
 20
272.890985
 30
0.0
 11
350.258515
 21
273.890982
 31
0.0
  0
LINE
  8
LC-006-005-----0
  6
CONTINUOUS
  5
255
 10
372.908786
 20
296.541253
 30
0.0
 11
392.199281
 21
315.831749
 31
0.0
  0
LINE
  8
LC-006-005-----0
  6
CONTINUOUS
  5
256
 10
401.408957
 20
325.041425
 30
0.0
 11
404.507851
 21
328.140319
 31
0.0
  0
LINE
  8
LC-006-005-----0
  6
CONTINUOUS
  5
257
 10
349.25851
 20
275.719404
 30
0.0
 11
350.258507
 21
276.719402
 31
0.0
  0
LINE
  8
LC-006-005-----0
  6
CONTINUOUS
  5
258
 10
370.080359
 20
296.541253
 30
0.0
 11
392.200047
 21
318.660942
 31
0.0
  0
LINE
  8
LC-006-005-----0
  6
CONTINUOUS
  5
259
 10
398.58053
 20
325.041425
 30
0.0
 11
404.137482
 21
330.598377
 31
0.0
  0
LINE
  8
LC-006-005-----0
  6
CONTINUOUS
  5
25A
 10
349.258502
 20
278.547824
 30
0.0
 11
350.258499
 21
279.547821
 31
0.0
  0
LINE
  8
LC-006-005-----0
  6
CONTINUOUS
  5
25B
 10
367.251932
 20
296.541253
 30
0.0
 11
392.200813
 21
321.490134
 31
0.0
  0
LINE
  8
LC-006-005-----0
  6
CONTINUOUS
  5
25C
 10
395.752103
 20
325.041425
 30
0.0
 11
397.752119
 21
327.041441
 31
0.0
  0
LINE
  8
LC-006-005-----0
  6
CONTINUOUS
  5
25D
 10
400.271799
 20
329.561121
 30
0.0
 11
403.284014
 21
332.573336
 31
0.0
  0
LINE
  8
LC-006-005-----0
  6
CONTINUOUS
  5
25E
 10
349.258494
 20
281.376243
 30
0.0
 11
350.258491
 21
282.37624
 31
0.0
  0
LINE
  8
LC-006-005-----0
  6
CONTINUOUS
  5
25F
 10
364.423504
 20
296.541253
 30
0.0
 11
392.201578
 21
324.319327
 31
0.0
  0
LINE
  8
LC-006-005-----0
  6
CONTINUOUS
  5
260
 10
392.923676
 20
325.041425
 30
0.0
 11
394.923693
 21
327.041443
 31
0.0
  0
LINE
  8
LC-006-005-----0
  6
CONTINUOUS
  5
261
 10
399.245387
 20
331.363136
 30
0.0
 11
402.076526
 21
334.194275
 31
0.0
  0
LINE
  8
LC-006-005-----0
  6
CONTINUOUS
  5
262
 10
349.258486
 20
284.204662
 30
0.0
 11
350.258483
 21
285.204659
 31
0.0
  0
LINE
  8
LC-006-005-----0
  6
CONTINUOUS
  5
263
 10
363.443284
 20
298.38946
 30
0.0
 11
392.095268
 21
327.041444
 31
0.0
  0
LINE
  8
LC-006-005-----0
  6
CONTINUOUS
  5
264
 10
397.624985
 20
332.571161
 30
0.0
 11
400.550255
 21
335.496431
 31
0.0
  0
LINE
  8
LC-006-005-----0
  6
CONTINUOUS
  5
265
 10
349.258478
 20
287.033081
 30
0.0
 11
350.258475
 21
288.033078
 31
0.0
  0
LINE
  8
LC-006-005-----0
  6
CONTINUOUS
  5
266
 10
363.000688
 20
300.775291
 30
0.0
 11
389.26665
 21
327.041253
 31
0.0
  0
LINE
  8
LC-006-005-----0
  6
CONTINUOUS
  5
267
 10
395.266651
 20
333.041254
 30
0.0
 11
398.68675
 21
336.461353
 31
0.0
  0
LINE
  8
LC-006-005-----0
  6
CONTINUOUS
  5
268
 10
349.25847
 20
289.8615
 30
0.0
 11
350.258467
 21
290.861497
 31
0.0
  0
LINE
  8
LC-006-005-----0
  6
CONTINUOUS
  5
269
 10
363.463707
 20
304.066737
 30
0.0
 11
386.438223
 21
327.041253
 31
0.0
  0
LINE
  8
LC-006-005-----0
  6
CONTINUOUS
  5
26A
 10
392.438223
 20
333.041254
 30
0.0
 11
396.394497
 21
336.997527
 31
0.0
  0
LINE
  8
LC-006-005-----0
  6
CONTINUOUS
  5
26B
 10
349.258462
 20
292.689919
 30
0.0
 11
350.258459
 21
293.689916
 31
0.0
  0
LINE
  8
LC-006-005-----0
  6
CONTINUOUS
  5
26C
 10
361.109796
 20
304.541253
 30
0.0
 11
383.609796
 21
327.041253
 31
0.0
  0
LINE
  8
LC-006-005-----0
  6
CONTINUOUS
  5
26D
 10
389.609796
 20
333.041253
 30
0.0
 11
393.609796
 21
337.041254
 31
0.0
  0
LINE
  8
LC-006-005-----0
  6
CONTINUOUS
  5
26E
 10
349.258454
 20
295.518338
 30
0.0
 11
350.258451
 21
296.518335
 31
0.0
  0
LINE
  8
LC-006-005-----0
  6
CONTINUOUS
  5
26F
 10
359.501014
 20
305.760899
 30
0.0
 11
381.0084
 21
327.268284
 31
0.0
  0
LINE
  8
LC-006-005-----0
  6
CONTINUOUS
  5
270
 10
386.781369
 20
333.041253
 30
0.0
 11
390.781369
 21
337.041253
 31
0.0
  0
LINE
  8
LC-006-005-----0
  6
CONTINUOUS
  5
271
 10
349.258446
 20
298.346757
 30
0.0
 11
350.258443
 21
299.346755
 31
0.0
  0
LINE
  8
LC-006-005-----0
  6
CONTINUOUS
  5
272
 10
359.50178
 20
308.590092
 30
0.0
 11
382.245878
 21
331.33419
 31
0.0
  0
LINE
  8
LC-006-005-----0
  6
CONTINUOUS
  5
273
 10
382.715463
 20
331.803775
 30
0.0
 11
387.952942
 21
337.041253
 31
0.0
  0
LINE
  8
LC-006-005-----0
  6
CONTINUOUS
  5
274
 10
349.258438
 20
301.175176
 30
0.0
 11
350.258435
 21
302.175174
 31
0.0
  0
LINE
  8
LC-006-005-----0
  6
CONTINUOUS
  5
275
 10
359.502546
 20
311.419285
 30
0.0
 11
375.124515
 21
327.041253
 31
0.0
  0
LINE
  8
LC-006-005-----0
  6
CONTINUOUS
  5
276
 10
377.056818
 20
328.973557
 30
0.0
 11
385.076096
 21
336.992835
 31
0.0
  0
LINE
  8
LC-006-005-----0
  6
CONTINUOUS
  5
277
 10
349.25843
 20
304.003596
 30
0.0
 11
350.258427
 21
305.003593
 31
0.0
  0
LINE
  8
LC-006-005-----0
  6
CONTINUOUS
  5
278
 10
359.503311
 20
314.248477
 30
0.0
 11
372.296087
 21
327.041253
 31
0.0
  0
LINE
  8
LC-006-005-----0
  6
CONTINUOUS
  5
279
 10
379.337159
 20
334.082325
 30
0.0
 11
379.967328
 21
334.712494
 31
0.0
  0
LINE
  8
LC-006-005-----0
  6
CONTINUOUS
  5
27A
 10
349.258422
 20
306.832015
 30
0.0
 11
350.258419
 21
307.832012
 31
0.0
  0
LINE
  8
LC-006-005-----0
  6
CONTINUOUS
  5
27B
 10
359.504077
 20
317.07767
 30
0.0
 11
369.46766
 21
327.041253
 31
0.0
  0
LINE
  8
LC-006-005-----0
  6
CONTINUOUS
  5
27C
 10
349.258414
 20
309.660434
 30
0.0
 11
350.258411
 21
310.660431
 31
0.0
  0
LINE
  8
LC-006-005-----0
  6
CONTINUOUS
  5
27D
 10
359.504843
 20
319.906863
 30
0.0
 11
366.639233
 21
327.041253
 31
0.0
  0
LINE
  8
LC-006-005-----0
  6
CONTINUOUS
  5
27E
 10
349.258406
 20
312.488853
 30
0.0
 11
350.258403
 21
313.48885
 31
0.0
  0
LINE
  8
LC-006-005-----0
  6
CONTINUOUS
  5
27F
 10
359.505609
 20
322.736056
 30
0.0
 11
363.810806
 21
327.041253
 31
0.0
  0
LINE
  8
LC-006-005-----0
  6
CONTINUOUS
  5
280
 10
349.261648
 20
315.320523
 30
0.0
 11
350.352737
 21
316.411612
 31
0.0
  0
LINE
  8
LC-006-005-----0
  6
CONTINUOUS
  5
281
 10
358.88804
 20
324.946914
 30
0.0
 11
360.979129
 21
327.038003
 31
0.0
  0
LINE
  8
LC-006-005-----0
  6
CONTINUOUS
  5
282
 10
349.837852
 20
318.725154
 30
0.0
 11
352.690281
 21
321.577582
 31
0.0
  0
LINE
  8
LC-006-005-----0
  6
CONTINUOUS
  5
283
 10
353.722069
 20
322.609371
 30
0.0
 11
357.574498
 21
326.4618
 31
0.0
  0
ENDBLK
  8
0
  5
284
  0
BLOCK
  8
0
  5
286
  2
*D14
 70
    65
 10
0.0
 20
0.0
 30
0.0
  3
*D14
  0
LINE
  8
LC-009-003-MTH-0
  6
CONTINUOUS
  5
287
 10
316.759325
 20
406.41122
 30
0.0
 11
316.759325
 21
448.0
 31
0.0
  0
LINE
  8
LC-009-003-MTH-0
  6
CONTINUOUS
  5
288
 10
464.759325
 20
406.41122
 30
0.0
 11
464.759325
 21
448.0
 31
0.0
  0
LINE
  8
LC-010-003-MTG-0
  6
CONTINUOUS
  5
289
 10
316.759325
 20
431.2
 30
0.0
 11
464.759325
 21
431.2
 31
0.0
  0
LINE
  8
LC-008-003-----0
  6
CONTINUOUS
  5
28A
 10
344.519782
 20
434.854733
 30
0.0
 11
316.759325
 21
431.2
 31
0.0
  0
LINE
  8
LC-008-003-----0
  6
CONTINUOUS
  5
28B
 10
316.759325
 20
431.2
 30
0.0
 11
344.519782
 21
427.545267
 31
0.0
  0
LINE
  8
LC-008-003-----0
  6
CONTINUOUS
  5
28C
 10
344.519782
 20
427.545267
 30
0.0
 11
344.519782
 21
434.854733
 31
0.0
  0
LINE
  8
LC-008-003-----0
  6
CONTINUOUS
  5
28D
 10
344.582063
 20
433.904503
 30
0.0
 11
324.039325
 21
431.2
 31
0.0
  0
LINE
  8
LC-008-003-----0
  6
CONTINUOUS
  5
28E
 10
324.039325
 20
431.2
 30
0.0
 11
344.582063
 21
428.495497
 31
0.0
  0
LINE
  8
LC-008-003-----0
  6
CONTINUOUS
  5
28F
 10
344.644344
 20
432.954272
 30
0.0
 11
331.319325
 21
431.2
 31
0.0
  0
LINE
  8
LC-008-003-----0
  6
CONTINUOUS
  5
290
 10
331.319325
 20
431.2
 30
0.0
 11
344.644344
 21
429.445728
 31
0.0
  0
LINE
  8
LC-008-003-----0
  6
CONTINUOUS
  5
291
 10
344.706626
 20
432.004041
 30
0.0
 11
338.599325
 21
431.2
 31
0.0
  0
LINE
  8
LC-008-003-----0
  6
CONTINUOUS
  5
292
 10
338.599325
 20
431.2
 30
0.0
 11
344.706626
 21
430.395959
 31
0.0
  0
LINE
  8
LC-008-003-----0
  6
CONTINUOUS
  5
293
 10
436.998869
 20
427.545267
 30
0.0
 11
464.759325
 21
431.2
 31
0.0
  0
LINE
  8
LC-008-003-----0
  6
CONTINUOUS
  5
294
 10
464.759325
 20
431.2
 30
0.0
 11
436.998869
 21
434.854733
 31
0.0
  0
LINE
  8
LC-008-003-----0
  6
CONTINUOUS
  5
295
 10
436.998869
 20
434.854733
 30
0.0
 11
436.998869
 21
427.545267
 31
0.0
  0
LINE
  8
LC-008-003-----0
  6
CONTINUOUS
  5
296
 10
436.936588
 20
428.495497
 30
0.0
 11
457.479325
 21
431.2
 31
0.0
  0
LINE
  8
LC-008-003-----0
  6
CONTINUOUS
  5
297
 10
457.479325
 20
431.2
 30
0.0
 11
436.936588
 21
433.904503
 31
0.0
  0
LINE
  8
LC-008-003-----0
  6
CONTINUOUS
  5
298
 10
436.874306
 20
429.445728
 30
0.0
 11
450.199325
 21
431.2
 31
0.0
  0
LINE
  8
LC-008-003-----0
  6
CONTINUOUS
  5
299
 10
450.199325
 20
431.2
 30
0.0
 11
436.874306
 21
432.954272
 31
0.0
  0
LINE
  8
LC-008-003-----0
  6
CONTINUOUS
  5
29A
 10
436.812025
 20
430.395959
 30
0.0
 11
442.919325
 21
431.2
 31
0.0
  0
LINE
  8
LC-008-003-----0
  6
CONTINUOUS
  5
29B
 10
442.919325
 20
431.2
 30
0.0
 11
436.812025
 21
432.004041
 31
0.0
  0
TEXT
  8
LC-008-003-----0
  6
CONTINUOUS
 62
     8
  5
29C
 10
365.343706
 20
439.027554
 30
0.0
 40
28.0
  1
150
 51
15.0
  7
LC-TXTSTYLE-150-400-0-0-D0
 72
     1
 11
395.107485
 21
439.027554
 31
0.0
  0
ENDBLK
  8
0
  5
29D
  0
BLOCK
  8
0
  5
29F
  2
*X15
 70
    65
 10
316.759325
 20
316.41122
 30
0.0
  3
*X15
  0
LINE
  8
LC-006-005-----0
  6
CONTINUOUS
  5
2A0
 10
319.239647
 20
316.41122
 30
0.0
 11
320.959325
 21
318.130898
 31
0.0
  0
LINE
  8
LC-006-005-----0
  6
CONTINUOUS
  5
2A1
 10
318.291425
 20
318.291425
 30
0.0
 11
320.959325
 21
320.959325
 31
0.0
  0
LINE
  8
LC-006-005-----0
  6
CONTINUOUS
  5
2A2
 10
318.259325
 20
321.087753
 30
0.0
 11
320.959325
 21
323.787753
 31
0.0
  0
LINE
  8
LC-006-005-----0
  6
CONTINUOUS
  5
2A3
 10
318.259325
 20
323.91618
 30
0.0
 11
320.959325
 21
326.61618
 31
0.0
  0
LINE
  8
LC-006-005-----0
  6
CONTINUOUS
  5
2A4
 10
318.259325
 20
326.744607
 30
0.0
 11
320.959325
 21
329.444607
 31
0.0
  0
LINE
  8
LC-006-005-----0
  6
CONTINUOUS
  5
2A5
 10
318.259325
 20
329.573034
 30
0.0
 11
320.959325
 21
332.273034
 31
0.0
  0
LINE
  8
LC-006-005-----0
  6
CONTINUOUS
  5
2A6
 10
318.259325
 20
332.401461
 30
0.0
 11
320.959325
 21
335.101461
 31
0.0
  0
LINE
  8
LC-006-005-----0
  6
CONTINUOUS
  5
2A7
 10
318.259325
 20
335.229888
 30
0.0
 11
320.959325
 21
337.929888
 31
0.0
  0
LINE
  8
LC-006-005-----0
  6
CONTINUOUS
  5
2A8
 10
318.259325
 20
338.058315
 30
0.0
 11
320.959325
 21
340.758315
 31
0.0
  0
LINE
  8
LC-006-005-----0
  6
CONTINUOUS
  5
2A9
 10
318.259325
 20
340.886742
 30
0.0
 11
320.959325
 21
343.586742
 31
0.0
  0
LINE
  8
LC-006-005-----0
  6
CONTINUOUS
  5
2AA
 10
318.259325
 20
343.71517
 30
0.0
 11
320.959325
 21
346.41517
 31
0.0
  0
LINE
  8
LC-006-005-----0
  6
CONTINUOUS
  5
2AB
 10
318.259325
 20
346.543597
 30
0.0
 11
320.959325
 21
349.243597
 31
0.0
  0
LINE
  8
LC-006-005-----0
  6
CONTINUOUS
  5
2AC
 10
318.259325
 20
349.372024
 30
0.0
 11
320.959325
 21
352.072024
 31
0.0
  0
LINE
  8
LC-006-005-----0
  6
CONTINUOUS
  5
2AD
 10
318.259325
 20
352.200451
 30
0.0
 11
320.959325
 21
354.900451
 31
0.0
  0
LINE
  8
LC-006-005-----0
  6
CONTINUOUS
  5
2AE
 10
318.259325
 20
355.028878
 30
0.0
 11
320.959325
 21
357.728878
 31
0.0
  0
LINE
  8
LC-006-005-----0
  6
CONTINUOUS
  5
2AF
 10
318.259325
 20
357.857305
 30
0.0
 11
320.959325
 21
360.557305
 31
0.0
  0
LINE
  8
LC-006-005-----0
  6
CONTINUOUS
  5
2B0
 10
318.259325
 20
360.685732
 30
0.0
 11
320.959325
 21
363.385732
 31
0.0
  0
LINE
  8
LC-006-005-----0
  6
CONTINUOUS
  5
2B1
 10
318.259325
 20
363.514159
 30
0.0
 11
320.959325
 21
366.214159
 31
0.0
  0
LINE
  8
LC-006-005-----0
  6
CONTINUOUS
  5
2B2
 10
318.259325
 20
366.342587
 30
0.0
 11
320.959325
 21
369.042587
 31
0.0
  0
LINE
  8
LC-006-005-----0
  6
CONTINUOUS
  5
2B3
 10
318.259325
 20
369.171014
 30
0.0
 11
320.959325
 21
371.871014
 31
0.0
  0
LINE
  8
LC-006-005-----0
  6
CONTINUOUS
  5
2B4
 10
318.259325
 20
371.999441
 30
0.0
 11
320.959325
 21
374.699441
 31
0.0
  0
LINE
  8
LC-006-005-----0
  6
CONTINUOUS
  5
2B5
 10
318.259325
 20
374.827868
 30
0.0
 11
320.959325
 21
377.527868
 31
0.0
  0
LINE
  8
LC-006-005-----0
  6
CONTINUOUS
  5
2B6
 10
318.259325
 20
377.656295
 30
0.0
 11
320.959325
 21
380.356295
 31
0.0
  0
LINE
  8
LC-006-005-----0
  6
CONTINUOUS
  5
2B7
 10
318.259325
 20
380.484722
 30
0.0
 11
320.959325
 21
383.184722
 31
0.0
  0
LINE
  8
LC-006-005-----0
  6
CONTINUOUS
  5
2B8
 10
318.259325
 20
383.313149
 30
0.0
 11
320.959325
 21
386.013149
 31
0.0
  0
LINE
  8
LC-006-005-----0
  6
CONTINUOUS
  5
2B9
 10
318.259325
 20
386.141576
 30
0.0
 11
320.959325
 21
388.841576
 31
0.0
  0
LINE
  8
LC-006-005-----0
  6
CONTINUOUS
  5
2BA
 10
318.259325
 20
388.970004
 30
0.0
 11
320.959325
 21
391.670004
 31
0.0
  0
LINE
  8
LC-006-005-----0
  6
CONTINUOUS
  5
2BB
 10
318.259325
 20
391.798431
 30
0.0
 11
320.759325
 21
394.298431
 31
0.0
  0
LINE
  8
LC-006-005-----0
  6
CONTINUOUS
  5
2BC
 10
316.759325
 20
393.126858
 30
0.0
 11
320.759325
 21
397.126858
 31
0.0
  0
LINE
  8
LC-006-005-----0
  6
CONTINUOUS
  5
2BD
 10
316.759325
 20
395.955285
 30
0.0
 11
320.759325
 21
399.955285
 31
0.0
  0
LINE
  8
LC-006-005-----0
  6
CONTINUOUS
  5
2BE
 10
316.759325
 20
398.783712
 30
0.0
 11
320.759325
 21
402.783712
 31
0.0
  0
LINE
  8
LC-006-005-----0
  6
CONTINUOUS
  5
2BF
 10
316.759325
 20
401.612139
 30
0.0
 11
320.759325
 21
405.612139
 31
0.0
  0
LINE
  8
LC-006-005-----0
  6
CONTINUOUS
  5
2C0
 10
316.759325
 20
404.440566
 30
0.0
 11
318.729979
 21
406.41122
 31
0.0
  0
ENDBLK
  8
0
  5
2C1
  0
BLOCK
  8
0
  5
2C3
  2
*X16
 70
    65
 10
460.559325
 20
316.41122
 30
0.0
  3
*X16
  0
LINE
  8
LC-006-005-----0
  6
CONTINUOUS
  5
2C4
 10
460.661003
 20
316.41122
 30
0.0
 11
463.259325
 21
319.009542
 31
0.0
  0
LINE
  8
LC-006-005-----0
  6
CONTINUOUS
  5
2C5
 10
460.559325
 20
319.137969
 30
0.0
 11
463.259325
 21
321.837969
 31
0.0
  0
LINE
  8
LC-006-005-----0
  6
CONTINUOUS
  5
2C6
 10
460.559325
 20
321.966396
 30
0.0
 11
463.259325
 21
324.666396
 31
0.0
  0
LINE
  8
LC-006-005-----0
  6
CONTINUOUS
  5
2C7
 10
460.559325
 20
324.794823
 30
0.0
 11
463.259325
 21
327.494823
 31
0.0
  0
LINE
  8
LC-006-005-----0
  6
CONTINUOUS
  5
2C8
 10
460.559325
 20
327.623251
 30
0.0
 11
463.259325
 21
330.323251
 31
0.0
  0
LINE
  8
LC-006-005-----0
  6
CONTINUOUS
  5
2C9
 10
460.559325
 20
330.451678
 30
0.0
 11
463.259325
 21
333.151678
 31
0.0
  0
LINE
  8
LC-006-005-----0
  6
CONTINUOUS
  5
2CA
 10
460.559325
 20
333.280105
 30
0.0
 11
463.259325
 21
335.980105
 31
0.0
  0
LINE
  8
LC-006-005-----0
  6
CONTINUOUS
  5
2CB
 10
460.559325
 20
336.108532
 30
0.0
 11
463.259325
 21
338.808532
 31
0.0
  0
LINE
  8
LC-006-005-----0
  6
CONTINUOUS
  5
2CC
 10
460.559325
 20
338.936959
 30
0.0
 11
463.259325
 21
341.636959
 31
0.0
  0
LINE
  8
LC-006-005-----0
  6
CONTINUOUS
  5
2CD
 10
460.559325
 20
341.765386
 30
0.0
 11
463.259325
 21
344.465386
 31
0.0
  0
LINE
  8
LC-006-005-----0
  6
CONTINUOUS
  5
2CE
 10
460.559325
 20
344.593813
 30
0.0
 11
463.259325
 21
347.293813
 31
0.0
  0
LINE
  8
LC-006-005-----0
  6
CONTINUOUS
  5
2CF
 10
460.559325
 20
347.42224
 30
0.0
 11
463.259325
 21
350.12224
 31
0.0
  0
LINE
  8
LC-006-005-----0
  6
CONTINUOUS
  5
2D0
 10
460.559325
 20
350.250668
 30
0.0
 11
463.259325
 21
352.950668
 31
0.0
  0
LINE
  8
LC-006-005-----0
  6
CONTINUOUS
  5
2D1
 10
460.559325
 20
353.079095
 30
0.0
 11
463.259325
 21
355.779095
 31
0.0
  0
LINE
  8
LC-006-005-----0
  6
CONTINUOUS
  5
2D2
 10
460.559325
 20
355.907522
 30
0.0
 11
463.259325
 21
358.607522
 31
0.0
  0
LINE
  8
LC-006-005-----0
  6
CONTINUOUS
  5
2D3
 10
460.559325
 20
358.735949
 30
0.0
 11
463.259325
 21
361.435949
 31
0.0
  0
LINE
  8
LC-006-005-----0
  6
CONTINUOUS
  5
2D4
 10
460.559325
 20
361.564376
 30
0.0
 11
463.259325
 21
364.264376
 31
0.0
  0
LINE
  8
LC-006-005-----0
  6
CONTINUOUS
  5
2D5
 10
460.559325
 20
364.392803
 30
0.0
 11
463.259325
 21
367.092803
 31
0.0
  0
LINE
  8
LC-006-005-----0
  6
CONTINUOUS
  5
2D6
 10
460.559325
 20
367.22123
 30
0.0
 11
463.259325
 21
369.92123
 31
0.0
  0
LINE
  8
LC-006-005-----0
  6
CONTINUOUS
  5
2D7
 10
460.559325
 20
370.049657
 30
0.0
 11
463.259325
 21
372.749657
 31
0.0
  0
LINE
  8
LC-006-005-----0
  6
CONTINUOUS
  5
2D8
 10
460.559325
 20
372.878085
 30
0.0
 11
463.259325
 21
375.578085
 31
0.0
  0
LINE
  8
LC-006-005-----0
  6
CONTINUOUS
  5
2D9
 10
460.559325
 20
375.706512
 30
0.0
 11
463.259325
 21
378.406512
 31
0.0
  0
LINE
  8
LC-006-005-----0
  6
CONTINUOUS
  5
2DA
 10
460.559325
 20
378.534939
 30
0.0
 11
463.259325
 21
381.234939
 31
0.0
  0
LINE
  8
LC-006-005-----0
  6
CONTINUOUS
  5
2DB
 10
460.559325
 20
381.363366
 30
0.0
 11
463.259325
 21
384.063366
 31
0.0
  0
LINE
  8
LC-006-005-----0
  6
CONTINUOUS
  5
2DC
 10
460.559325
 20
384.191793
 30
0.0
 11
463.259325
 21
386.891793
 31
0.0
  0
LINE
  8
LC-006-005-----0
  6
CONTINUOUS
  5
2DD
 10
460.559325
 20
387.02022
 30
0.0
 11
463.259325
 21
389.72022
 31
0.0
  0
LINE
  8
LC-006-005-----0
  6
CONTINUOUS
  5
2DE
 10
460.559325
 20
389.848647
 30
0.0
 11
464.759325
 21
394.048647
 31
0.0
  0
LINE
  8
LC-006-005-----0
  6
CONTINUOUS
  5
2DF
 10
460.559325
 20
392.677074
 30
0.0
 11
464.759325
 21
396.877074
 31
0.0
  0
LINE
  8
LC-006-005-----0
  6
CONTINUOUS
  5
2E0
 10
460.759325
 20
395.705502
 30
0.0
 11
464.759325
 21
399.705502
 31
0.0
  0
LINE
  8
LC-006-005-----0
  6
CONTINUOUS
  5
2E1
 10
460.759325
 20
398.533929
 30
0.0
 11
464.759325
 21
402.533929
 31
0.0
  0
LINE
  8
LC-006-005-----0
  6
CONTINUOUS
  5
2E2
 10
460.759325
 20
401.362356
 30
0.0
 11
464.759325
 21
405.362356
 31
0.0
  0
LINE
  8
LC-006-005-----0
  6
CONTINUOUS
  5
2E3
 10
460.759325
 20
404.190783
 30
0.0
 11
462.979763
 21
406.41122
 31
0.0
  0
ENDBLK
  8
0
  5
2E4
  0
BLOCK
  8
0
  5
2E6
  2
BLK4
 70
    64
 10
0.0
 20
0.0
 30
0.0
  3
BLK4
  0
ENDBLK
  8
0
  5
2E7
  0
BLOCK
  8
0
  5
2E9
  2
BLK5
 70
    64
 10
0.0
 20
0.0
 30
0.0
  3
BLK5
  0
ENDBLK
  8
0
  5
2EA
  0
BLOCK
  8
0
  5
2EC
  2
BLK6
 70
    64
 10
0.0
 20
0.0
 30
0.0
  3
BLK6
  0
ENDBLK
  8
0
  5
2ED
  0
BLOCK
  8
0
  5
2EF
  2
BLK7
 70
    64
 10
0.0
 20
0.0
 30
0.0
  3
BLK7
  0
ENDBLK
  8
0
  5
2F0
  0
BLOCK
  8
0
  5
2F2
  2
BLK8
 70
    64
 10
0.0
 20
0.0
 30
0.0
  3
BLK8
  0
ENDBLK
  8
0
  5
2F3
  0
BLOCK
  8
0
  5
2F5
  2
*X22
 70
    65
 10
450.259325
 20
396.51122
 30
0.0
  3
*X22
  0
LINE
  8
LC-006-005-----0
  6
CONTINUOUS
  5
2F6
 10
458.759325
 20
396.533929
 30
0.0
 11
459.759325
 21
397.533929
 31
0.0
  0
LINE
  8
LC-006-005-----0
  6
CONTINUOUS
  5
2F7
 10
458.759325
 20
399.362356
 30
0.0
 11
459.759325
 21
400.362356
 31
0.0
  0
LINE
  8
LC-006-005-----0
  6
CONTINUOUS
  5
2F8
 10
458.759325
 20
402.190783
 30
0.0
 11
459.754247
 21
403.185704
 31
0.0
  0
LINE
  8
LC-006-005-----0
  6
CONTINUOUS
  5
2F9
 10
458.169538
 20
404.429423
 30
0.0
 11
458.876647
 21
405.136532
 31
0.0
  0
LINE
  8
LC-006-005-----0
  6
CONTINUOUS
  5
2FA
 10
455.922908
 20
405.01122
 30
0.0
 11
456.918673
 21
406.006985
 31
0.0
  0
LINE
  8
LC-006-005-----0
  6
CONTINUOUS
  5
2FB
 10
450.259325
 20
402.176064
 30
0.0
 11
451.266759
 21
403.183498
 31
0.0
  0
LINE
  8
LC-006-005-----0
  6
CONTINUOUS
  5
2FC
 10
453.087047
 20
405.003786
 30
0.0
 11
454.094481
 21
406.01122
 31
0.0
  0
ENDBLK
  8
0
  5
2FD
  0
BLOCK
  8
0
  5
2FF
  2
*X23
 70
    65
 10
418.259325
 20
400.01122
 30
0.0
  3
*X23
  0
LINE
  8
LC-006-005-----0
  6
CONTINUOUS
  5
300
 10
442.259325
 20
402.661346
 30
0.0
 11
443.20048
 21
403.6025
 31
0.0
  0
LINE
  8
LC-006-005-----0
  6
CONTINUOUS
  5
301
 10
441.413874
 20
404.644321
 30
0.0
 11
442.127831
 21
405.358279
 31
0.0
  0
LINE
  8
LC-006-005-----0
  6
CONTINUOUS
  5
302
 10
434.952346
 20
401.01122
 30
0.0
 11
435.259325
 21
401.3182
 31
0.0
  0
LINE
  8
LC-006-005-----0
  6
CONTINUOUS
  5
303
 10
438.952346
 20
405.01122
 30
0.0
 11
439.045249
 21
405.104124
 31
0.0
  0
LINE
  8
LC-006-005-----0
  6
CONTINUOUS
  5
304
 10
439.071739
 20
405.130614
 30
0.0
 11
439.952346
 21
406.01122
 31
0.0
  0
LINE
  8
LC-006-005-----0
  6
CONTINUOUS
  5
305
 10
434.262529
 20
403.149831
 30
0.0
 11
437.120715
 21
406.008016
 31
0.0
  0
LINE
  8
LC-006-005-----0
  6
CONTINUOUS
  5
306
 10
426.467064
 20
401.01122
 30
0.0
 11
427.259325
 21
401.803481
 31
0.0
  0
LINE
  8
LC-006-005-----0
  6
CONTINUOUS
  5
307
 10
426.183637
 20
403.55622
 30
0.0
 11
426.955066
 21
404.327649
 31
0.0
  0
LINE
  8
LC-006-005-----0
  6
CONTINUOUS
  5
308
 10
424.74927
 20
404.95028
 30
0.0
 11
425.528512
 21
405.729522
 31
0.0
  0
LINE
  8
LC-006-005-----0
  6
CONTINUOUS
  5
309
 10
418.259325
 20
401.288763
 30
0.0
 11
419.259325
 21
402.288763
 31
0.0
  0
LINE
  8
LC-006-005-----0
  6
CONTINUOUS
  5
30A
 10
421.981783
 20
405.01122
 30
0.0
 11
422.981783
 21
406.01122
 31
0.0
  0
LINE
  8
LC-006-005-----0
  6
CONTINUOUS
  5
30B
 10
418.67225
 20
404.530114
 30
0.0
 11
419.740431
 21
405.598296
 31
0.0
  0
ENDBLK
  8
0
  5
30C
  0
BLOCK
  8
0
  5
30E
  2
*X24
 70
    65
 10
370.259325
 20
400.01122
 30
0.0
  3
*X24
  0
LINE
  8
LC-006-005-----0
  6
CONTINUOUS
  5
30F
 10
410.259325
 20
401.774044
 30
0.0
 11
411.259325
 21
402.774044
 31
0.0
  0
LINE
  8
LC-006-005-----0
  6
CONTINUOUS
  5
310
 10
409.863068
 20
404.206214
 30
0.0
 11
410.575152
 21
404.918298
 31
0.0
  0
LINE
  8
LC-006-005-----0
  6
CONTINUOUS
  5
311
 10
407.839647
 20
405.01122
 30
0.0
 11
408.791981
 21
405.963554
 31
0.0
  0
LINE
  8
LC-006-005-----0
  6
CONTINUOUS
  5
312
 10
405.01122
 20
405.01122
 30
0.0
 11
406.01122
 21
406.01122
 31
0.0
  0
LINE
  8
LC-006-005-----0
  6
CONTINUOUS
  5
313
 10
402.182793
 20
405.01122
 30
0.0
 11
403.182793
 21
406.01122
 31
0.0
  0
LINE
  8
LC-006-005-----0
  6
CONTINUOUS
  5
314
 10
399.354366
 20
405.01122
 30
0.0
 11
400.354366
 21
406.01122
 31
0.0
  0
LINE
  8
LC-006-005-----0
  6
CONTINUOUS
  5
315
 10
396.525939
 20
405.01122
 30
0.0
 11
397.525939
 21
406.01122
 31
0.0
  0
LINE
  8
LC-006-005-----0
  6
CONTINUOUS
  5
316
 10
393.697512
 20
405.01122
 30
0.0
 11
394.697512
 21
406.01122
 31
0.0
  0
LINE
  8
LC-006-005-----0
  6
CONTINUOUS
  5
317
 10
390.869084
 20
405.01122
 30
0.0
 11
391.869084
 21
406.01122
 31
0.0
  0
LINE
  8
LC-006-005-----0
  6
CONTINUOUS
  5
318
 10
388.040657
 20
405.01122
 30
0.0
 11
389.040657
 21
406.01122
 31
0.0
  0
LINE
  8
LC-006-005-----0
  6
CONTINUOUS
  5
319
 10
385.21223
 20
405.01122
 30
0.0
 11
386.21223
 21
406.01122
 31
0.0
  0
LINE
  8
LC-006-005-----0
  6
CONTINUOUS
  5
31A
 10
382.383803
 20
405.01122
 30
0.0
 11
383.383803
 21
406.01122
 31
0.0
  0
LINE
  8
LC-006-005-----0
  6
CONTINUOUS
  5
31B
 10
379.555376
 20
405.01122
 30
0.0
 11
380.555376
 21
406.01122
 31
0.0
  0
LINE
  8
LC-006-005-----0
  6
CONTINUOUS
  5
31C
 10
376.726949
 20
405.01122
 30
0.0
 11
377.726949
 21
406.01122
 31
0.0
  0
LINE
  8
LC-006-005-----0
  6
CONTINUOUS
  5
31D
 10
370.259325
 20
401.372024
 30
0.0
 11
371.259325
 21
402.372024
 31
0.0
  0
LINE
  8
LC-006-005-----0
  6
CONTINUOUS
  5
31E
 10
373.898522
 20
405.01122
 30
0.0
 11
374.898522
 21
406.01122
 31
0.0
  0
LINE
  8
LC-006-005-----0
  6
CONTINUOUS
  5
31F
 10
370.829171
 20
404.770297
 30
0.0
 11
371.500249
 21
405.441374
 31
0.0
  0
ENDBLK
  8
0
  5
320
  0
BLOCK
  8
0
  5
322
  2
*X25
 70
    65
 10
338.259325
 20
400.01122
 30
0.0
  3
*X25
  0
LINE
  8
LC-006-005-----0
  6
CONTINUOUS
  5
323
 10
362.259325
 20
401.857305
 30
0.0
 11
363.259325
 21
402.857305
 31
0.0
  0
LINE
  8
LC-006-005-----0
  6
CONTINUOUS
  5
324
 10
361.826888
 20
404.253294
 30
0.0
 11
362.537138
 21
404.963545
 31
0.0
  0
LINE
  8
LC-006-005-----0
  6
CONTINUOUS
  5
325
 10
359.756386
 20
405.01122
 30
0.0
 11
360.720697
 21
405.975531
 31
0.0
  0
LINE
  8
LC-006-005-----0
  6
CONTINUOUS
  5
326
 10
354.259325
 20
402.342587
 30
0.0
 11
355.292903
 21
403.376165
 31
0.0
  0
LINE
  8
LC-006-005-----0
  6
CONTINUOUS
  5
327
 10
356.894381
 20
404.977642
 30
0.0
 11
357.927959
 21
406.01122
 31
0.0
  0
LINE
  8
LC-006-005-----0
  6
CONTINUOUS
  5
328
 10
346.259325
 20
402.827868
 30
0.0
 11
347.169859
 21
403.738402
 31
0.0
  0
LINE
  8
LC-006-005-----0
  6
CONTINUOUS
  5
329
 10
345.31373
 20
404.7107
 30
0.0
 11
346.033445
 21
405.430414
 31
0.0
  0
LINE
  8
LC-006-005-----0
  6
CONTINUOUS
  5
32A
 10
338.785823
 20
401.01122
 30
0.0
 11
339.259325
 21
401.484722
 31
0.0
  0
LINE
  8
LC-006-005-----0
  6
CONTINUOUS
  5
32B
 10
342.785823
 20
405.01122
 30
0.0
 11
343.785823
 21
406.01122
 31
0.0
  0
LINE
  8
LC-006-005-----0
  6
CONTINUOUS
  5
32C
 10
338.276326
 20
403.33015
 30
0.0
 11
340.940395
 21
405.994219
 31
0.0
  0
ENDBLK
  8
0
  5
32D
  0
BLOCK
  8
0
  5
32F
  2
*X26
 70
    65
 10
321.759325
 20
396.51122
 30
0.0
  3
*X26
  0
LINE
  8
LC-006-005-----0
  6
CONTINUOUS
  5
330
 10
330.300542
 20
401.01122
 30
0.0
 11
331.259325
 21
401.970004
 31
0.0
  0
LINE
  8
LC-006-005-----0
  6
CONTINUOUS
  5
331
 10
330.143329
 20
403.682435
 30
0.0
 11
330.898522
 21
404.437628
 31
0.0
  0
LINE
  8
LC-006-005-----0
  6
CONTINUOUS
  5
332
 10
321.759325
 20
398.126858
 30
0.0
 11
322.759325
 21
399.126858
 31
0.0
  0
LINE
  8
LC-006-005-----0
  6
CONTINUOUS
  5
333
 10
328.612294
 20
404.979827
 30
0.0
 11
329.412993
 21
405.780525
 31
0.0
  0
LINE
  8
LC-006-005-----0
  6
CONTINUOUS
  5
334
 10
321.759325
 20
400.955285
 30
0.0
 11
322.759325
 21
401.955285
 31
0.0
  0
LINE
  8
LC-006-005-----0
  6
CONTINUOUS
  5
335
 10
325.815261
 20
405.01122
 30
0.0
 11
326.815261
 21
406.01122
 31
0.0
  0
LINE
  8
LC-006-005-----0
  6
CONTINUOUS
  5
336
 10
321.902473
 20
403.92686
 30
0.0
 11
323.843685
 21
405.868072
 31
0.0
  0
ENDBLK
  8
0
  5
337
  0
BLOCK
  8
0
  5
339
  2
*D27
 70
    65
 10
0.0
 20
0.0
 30
0.0
  3
*D27
  0
LINE
  8
LC-009-003-MTH-0
  6
CONTINUOUS
  5
33A
 10
541.518783
 20
337.392
 30
0.0
 11
503.2
 21
337.392
 31
0.0
  0
LINE
  8
LC-009-003-MTH-0
  6
CONTINUOUS
  5
33B
 10
464.759325
 20
406.41122
 30
0.0
 11
536.8
 21
406.41122
 31
0.0
  0
LINE
  8
LC-010-003-MTG-0
  6
CONTINUOUS
  5
33C
 10
520.0
 20
337.392
 30
0.0
 11
520.0
 21
406.41122
 31
0.0
  0
LINE
  8
LC-008-003-----0
  6
CONTINUOUS
  5
33D
 10
516.345267
 20
365.152456
 30
0.0
 11
520.0
 21
337.392
 31
0.0
  0
LINE
  8
LC-008-003-----0
  6
CONTINUOUS
  5
33E
 10
520.0
 20
337.392
 30
0.0
 11
523.654733
 21
365.152456
 31
0.0
  0
LINE
  8
LC-008-003-----0
  6
CONTINUOUS
  5
33F
 10
523.654733
 20
365.152456
 30
0.0
 11
516.345267
 21
365.152456
 31
0.0
  0
LINE
  8
LC-008-003-----0
  6
CONTINUOUS
  5
340
 10
517.295497
 20
365.214738
 30
0.0
 11
520.0
 21
344.672
 31
0.0
  0
LINE
  8
LC-008-003-----0
  6
CONTINUOUS
  5
341
 10
520.0
 20
344.672
 30
0.0
 11
522.704503
 21
365.214738
 31
0.0
  0
LINE
  8
LC-008-003-----0
  6
CONTINUOUS
  5
342
 10
518.245728
 20
365.277019
 30
0.0
 11
520.0
 21
351.952
 31
0.0
  0
LINE
  8
LC-008-003-----0
  6
CONTINUOUS
  5
343
 10
520.0
 20
351.952
 30
0.0
 11
521.754272
 21
365.277019
 31
0.0
  0
LINE
  8
LC-008-003-----0
  6
CONTINUOUS
  5
344
 10
519.195959
 20
365.3393
 30
0.0
 11
520.0
 21
359.232
 31
0.0
  0
LINE
  8
LC-008-003-----0
  6
CONTINUOUS
  5
345
 10
520.0
 20
359.232
 30
0.0
 11
520.804041
 21
365.3393
 31
0.0
  0
LINE
  8
LC-008-003-----0
  6
CONTINUOUS
  5
346
 10
523.654733
 20
378.650764
 30
0.0
 11
520.0
 21
406.41122
 31
0.0
  0
LINE
  8
LC-008-003-----0
  6
CONTINUOUS
  5
347
 10
520.0
 20
406.41122
 30
0.0
 11
516.345267
 21
378.650764
 31
0.0
  0
LINE
  8
LC-008-003-----0
  6
CONTINUOUS
  5
348
 10
516.345267
 20
378.650764
 30
0.0
 11
523.654733
 21
378.650764
 31
0.0
  0
LINE
  8
LC-008-003-----0
  6
CONTINUOUS
  5
349
 10
522.704503
 20
378.588482
 30
0.0
 11
520.0
 21
399.13122
 31
0.0
  0
LINE
  8
LC-008-003-----0
  6
CONTINUOUS
  5
34A
 10
520.0
 20
399.13122
 30
0.0
 11
517.295497
 21
378.588482
 31
0.0
  0
LINE
  8
LC-008-003-----0
  6
CONTINUOUS
  5
34B
 10
521.754272
 20
378.526201
 30
0.0
 11
520.0
 21
391.85122
 31
0.0
  0
LINE
  8
LC-008-003-----0
  6
CONTINUOUS
  5
34C
 10
520.0
 20
391.85122
 30
0.0
 11
518.245728
 21
378.526201
 31
0.0
  0
LINE
  8
LC-008-003-----0
  6
CONTINUOUS
  5
34D
 10
520.804041
 20
378.46392
 30
0.0
 11
520.0
 21
384.57122
 31
0.0
  0
LINE
  8
LC-008-003-----0
  6
CONTINUOUS
  5
34E
 10
520.0
 20
384.57122
 30
0.0
 11
519.195959
 21
378.46392
 31
0.0
  0
TEXT
  8
LC-008-003-----0
  6
CONTINUOUS
 62
     8
  5
34F
 10
517.772446
 20
343.300164
 30
0.0
 40
28.0
  1
9-67
 50
90.0
 51
15.0
  7
LC-TXTSTYLE-150-400-0-0-D0
 72
     1
 11
517.772446
 21
376.24977
 31
0.0
  0
ENDBLK
  8
0
  5
350
  0
ENDSEC
  0
SECTION
  2
ENTITIES
  0
VIEWPORT
  8
LC-000
  5
4C6
 67
     1
 68
     1
 10
420.0
 20
297.0
 30
0.0
 40
840.0
 41
594.0
 69
     1
1001
ACAD
1000
MVIEW
1002
{
1070
    16
1010
0.0
1020
0.0
1030
0.0
1010
0.0
1020
0.0
1030
1.0
1040
0.0
1040
594.0
1040
420.0
1040
297.0
1040
50.0
1040
0.0
1040
0.0
1070
     0
1070
   100
1070
     1
1070
     1
1070
     0
1070
     0
1070
     0
1070
     0
1040
0.0
1040
0.0
1040
0.0
1040
1.0
1040
1.0
1040
0.0
1040
0.0
1070
     0
1002
{
1002
}
1002
}
  0
VIEWPORT
  8
0
  5
4C7
 67
     1
 68
     1
 10
0.0
 20
0.0
 30
0.0
 40
0.0
 41
0.0
 69
     1
1001
ACAD
1000
MVIEW
1002
{
1070
    16
1010
0.0
1020
0.0
1030
0.0
1010
0.0
1020
0.0
1030
1.0
1040
0.0
1040
594.0
1040
0.0
1040
0.0
1040
50.0
1040
0.0
1040
0.0
1070
     0
1070
   100
1070
     0
1070
     1
1070
     0
1070
     0
1070
     0
1070
     0
1040
0.0
1040
0.0
1040
0.0
1040
0.5
1040
0.5
1040
0.5
1040
0.5
1070
     0
1002
{
1002
}
1002
}
  0
INSERT
  8
0
  5
352
  2
BLK1
 10
0.0
 20
0.0
 30
0.0
  0
INSERT
  8
0
  5
353
  2
*X1
 10
240.007583
 20
153.041542
 30
0.0
  0
INSERT
  8
0
  5
354
  2
*X2
 10
412.75945
 20
153.041473
 30
0.0
  0
INSERT
  8
0
  5
356
  2
BLK2
 10
0.0
 20
0.0
 30
0.0
  0
INSERT
  8
0
  5
357
  2
BLK3
 10
0.0
 20
0.0
 30
0.0
  0
INSERT
  8
0
  5
358
  2
*X5
 10
460.259325
 20
313.41122
 30
0.0
  0
INSERT
  8
0
  5
359
  2
*X6
 10
299.009325
 20
313.41122
 30
0.0
  0
DIMENSION
  8
0
  5
35A
  2
*D7
 10
390.763183
 20
509.6
 30
0.0
 11
390.763183
 21
509.6
 31
0.0
  1
%%c300
 13
240.007583
 23
337.392
 33
0.0
 14
541.518783
 24
337.392
 34
0.0
  3
LC-DIM-L-0140-02-02
  0
DIMENSION
  8
0
  5
35B
  2
*D8
 10
390.76435
 20
470.396697
 30
0.0
 11
390.76435
 21
470.396697
 31
0.0
 70
     1
  1
%%c190
 13
295.866681
 23
327.34806
 33
0.0
 14
485.6596
 24
327.346456
 34
0.0
  3
LC-DIM-L-0140-02-02
  0
DIMENSION
  8
0
  5
35C
  2
*D9
 10
390.759472
 20
78.400359
 30
0.0
 11
390.759472
 21
78.400359
 31
0.0
 70
     1
  1
%%c160
 13
310.509325
 23
238.291316
 33
0.0
 14
471.009325
 24
238.291463
 34
0.0
  3
LC-DIM-L-0140-02-02
  0
DIMENSION
  8
0
  5
35D
  2
*D10
 10
390.759325
 20
117.6
 30
0.0
 11
390.759325
 21
117.6
 31
0.0
  1
DN100
 13
335.759325
 23
158.041544
 33
0.0
 14
445.759325
 24
158.041472
 34
0.0
  3
LC-DIM-L-0140-02-02
  0
DIMENSION
  8
0
  5
35E
  2
*D11
 10
200.0
 20
280.466429
 30
0.0
 11
200.0
 21
280.466429
 31
0.0
  1
110
 13
240.007583
 23
334.391543
 33
0.0
 14
322.259325
 24
226.541316
 34
0.0
 50
90.0
  3
LC-DIM-L-0140-02-02
  0
DIMENSION
  8
0
  5
35F
  2
*D12
 10
280.0
 20
279.791252
 30
0.0
 11
280.0
 21
279.791252
 31
0.0
  1
50
 13
349.262996
 23
255.041251
 33
0.0
 14
359.505278
 24
304.541253
 34
0.0
 50
90.0
  3
LC-DIM-L-0140-02-02
  0
INSERT
  8
0
  5
360
  2
*X13
 10
349.258398
 20
255.041251
 30
0.0
  0
DIMENSION
  8
0
  5
361
  2
*D14
 10
390.759325
 20
431.2
 30
0.0
 11
390.759325
 21
431.2
 31
0.0
  1
150
 13
316.759325
 23
406.41122
 33
0.0
 14
464.759325
 24
406.41122
 34
0.0
  3
LC-DIM-L-0140-02-02
  0
INSERT
  8
0
  5
362
  2
*X15
 10
316.759325
 20
316.41122
 30
0.0
  0
INSERT
  8
0
  5
363
  2
*X16
 10
460.559325
 20
316.41122
 30
0.0
  0
INSERT
  8
0
  5
364
  2
BLK4
 10
0.0
 20
0.0
 30
0.0
  0
INSERT
  8
0
  5
365
  2
BLK5
 10
0.0
 20
0.0
 30
0.0
  0
INSERT
  8
0
  5
366
  2
BLK6
 10
0.0
 20
0.0
 30
0.0
  0
INSERT
  8
0
  5
367
  2
BLK7
 10
0.0
 20
0.0
 30
0.0
  0
INSERT
  8
0
  5
368
  2
BLK8
 10
0.0
 20
0.0
 30
0.0
  0
INSERT
  8
0
  5
369
  2
*X22
 10
450.259325
 20
396.51122
 30
0.0
  0
INSERT
  8
0
  5
36A
  2
*X23
 10
418.259325
 20
400.01122
 30
0.0
  0
INSERT
  8
0
  5
36B
  2
*X24
 10
370.259325
 20
400.01122
 30
0.0
  0
INSERT
  8
0
  5
36C
  2
*X25
 10
338.259325
 20
400.01122
 30
0.0
  0
INSERT
  8
0
  5
36D
  2
*X26
 10
321.759325
 20
396.51122
 30
0.0
  0
DIMENSION
  8
0
  5
36E
  2
*D27
 10
520.0
 20
371.90161
 30
0.0
 11
520.0
 21
371.90161
 31
0.0
  1
9-67
 13
541.518783
 23
337.392
 33
0.0
 14
464.759325
 24
406.41122
 34
0.0
 50
90.0
  3
LC-DIM-L-0140-02-02
  0
LINE
  8
LC-001-002-----0
  6
CONTINUOUS
  5
370
 10
386.012994
 20
337.041253
 30
0.0
 11
390.762992
 21
337.041253
 31
0.0
  0
LINE
  8
LC-001-002-----0
  6
CONTINUOUS
  5
371
 10
377.012994
 20
328.041253
 30
0.0
 11
377.012994
 21
327.041253
 31
0.0
  0
LINE
  8
LC-001-002-----0
  6
CONTINUOUS
  5
372
 10
381.012994
 20
328.041253
 30
0.0
 11
381.012994
 21
327.041253
 31
0.0
  0
LINE
  8
LC-001-002-----0
  6
CONTINUOUS
  5
373
 10
400.51299
 20
328.041254
 30
0.0
 11
400.51299
 21
327.041439
 31
0.0
  0
LINE
  8
LC-001-002-----0
  6
CONTINUOUS
  5
374
 10
404.51299
 20
328.041255
 30
0.0
 11
404.51299
 21
327.041436
 31
0.0
  0
LINE
  8
LC-001-002-----0
  6
CONTINUOUS
  5
375
 10
349.262992
 20
315.041253
 30
0.0
 11
349.262996
 21
255.041251
 31
0.0
  0
LINE
  8
LC-001-002-----0
  6
CONTINUOUS
  5
376
 10
350.262992
 20
315.041253
 30
0.0
 11
350.263162
 21
255.041418
 31
0.0
  0
LINE
  8
LC-001-002-----0
  6
CONTINUOUS
  5
377
 10
350.263162
 20
255.041418
 30
0.0
 11
349.262996
 21
255.041251
 31
0.0
  0
ARC
  8
LC-001-002-----0
  6
CONTINUOUS
  5
378
 10
360.262992
 20
315.041253
 30
0.0
 40
10.0
 50
94.313709
 51
179.999848
  0
ARC
  8
LC-002-002-RND-0
  6
CONTINUOUS
  5
37A
 10
361.262992
 20
315.041253
 30
0.0
 40
12.0
 50
90.0
 51
180.0
  0
LINE
  8
LC-001-002-----0
  6
CONTINUOUS
  5
37B
 10
420.26321
 20
327.041425
 30
0.0
 11
404.51299
 21
327.041436
 31
0.0
  0
LINE
  8
LC-001-002-----0
  6
CONTINUOUS
  5
37C
 10
421.263209
 20
325.041425
 30
0.0
 11
392.201774
 21
325.041425
 31
0.0
  0
LINE
  8
LC-001-002-----0
  6
CONTINUOUS
  5
37D
 10
361.262992
 20
327.041253
 30
0.0
 11
377.012994
 21
327.041253
 31
0.0
  0
ARC
  8
LC-002-002-RND-0
  6
CONTINUOUS
  5
37E
 10
395.51299
 20
328.041254
 30
0.0
 40
9.0
 50
0.000006
 51
90.000006
  0
ARC
  8
LC-001-002-----0
  6
CONTINUOUS
  5
37F
 10
421.263203
 20
315.041425
 30
0.0
 40
10.0
 50
0.000096
 51
89.999963
  0
ARC
  8
LC-001-002-----0
  6
CONTINUOUS
  5
380
 10
420.263203
 20
315.041425
 30
0.0
 40
12.0
 50
0.000096
 51
89.999963
  0
LINE
  8
LC-001-002-----0
  6
CONTINUOUS
  5
381
 10
432.263201
 20
315.041417
 30
0.0
 11
432.263162
 21
255.041417
 31
0.0
  0
LINE
  8
LC-001-002-----0
  6
CONTINUOUS
  5
382
 10
431.263201
 20
315.041418
 30
0.0
 11
431.263327
 21
255.041583
 31
0.0
  0
LINE
  8
LC-001-002-----0
  6
CONTINUOUS
  5
383
 10
431.263327
 20
255.041583
 30
0.0
 11
432.263162
 21
255.041417
 31
0.0
  0
LINE
  8
LC-001-002-----0
  6
CONTINUOUS
  5
384
 10
359.505278
 20
304.541253
 30
0.0
 11
359.510829
 21
325.050275
 31
0.0
  0
LINE
  8
LC-001-002-----0
  6
CONTINUOUS
  5
385
 10
390.762995
 20
296.541253
 30
0.0
 11
363.943104
 21
296.541253
 31
0.0
  0
LINE
  8
LC-001-002-----0
  6
CONTINUOUS
  5
386
 10
363.005281
 20
300.041253
 30
0.0
 11
363.943104
 21
296.541253
 31
0.0
  0
LINE
  8
LC-001-002-----0
  6
CONTINUOUS
  5
387
 10
363.005281
 20
303.127041
 30
0.0
 11
363.005281
 21
300.041253
 31
0.0
  0
ARC
  8
LC-001-002-----0
  6
CONTINUOUS
  5
388
 10
362.755278
 20
303.834147
 30
0.0
 40
0.75
 50
289.471622
 51
70.528779
  0
LINE
  8
LC-001-002-----0
  6
CONTINUOUS
  5
389
 10
359.505278
 20
304.541253
 30
0.0
 11
363.005278
 21
304.541253
 31
0.0
  0
LINE
  8
LC-001-002-----0
  6
CONTINUOUS
  5
38A
 10
395.51299
 20
333.041254
 30
0.0
 11
390.762991
 21
333.041253
 31
0.0
  0
LINE
  8
LC-001-002-----0
  6
CONTINUOUS
  5
38B
 10
400.512991
 20
327.041254
 30
0.0
 11
400.512991
 21
327.041439
 31
0.0
  0
ARC
  8
LC-001-002-----0
  6
CONTINUOUS
  5
38C
 10
395.51299
 20
328.041254
 30
0.0
 40
5.0
 50
0.000005
 51
90.000006
  0
ARC
  8
LC-002-002-RND-0
  6
CONTINUOUS
  5
38D
 10
386.012994
 20
328.041253
 30
0.0
 40
9.0
 50
90.0
 51
180.000001
  0
LINE
  8
LC-001-002-----0
  6
CONTINUOUS
  5
38E
 10
386.012994
 20
333.041253
 30
0.0
 11
390.762992
 21
333.041253
 31
0.0
  0
LINE
  8
LC-001-002-----0
  6
CONTINUOUS
  5
38F
 10
395.512989
 20
337.041254
 30
0.0
 11
390.762991
 21
337.041253
 31
0.0
  0
LINE
  8
LC-001-002-----0
  6
CONTINUOUS
  5
390
 10
404.512991
 20
327.041255
 30
0.0
 11
404.512991
 21
327.041436
 31
0.0
  0
ARC
  8
LC-001-002-----0
  6
CONTINUOUS
  5
391
 10
386.012994
 20
328.041253
 30
0.0
 40
5.0
 50
90.0
 51
180.000001
  0
LINE
  8
LC-001-002-----0
  6
CONTINUOUS
  5
392
 10
350.263162
 20
255.041418
 30
0.0
 11
359.762996
 21
255.041418
 31
0.0
  0
LINE
  8
LC-001-002-----0
  6
CONTINUOUS
  5
393
 10
421.763171
 20
255.041418
 30
0.0
 11
431.263327
 21
255.041418
 31
0.0
  0
LINE
  8
LC-001-002-----0
  6
CONTINUOUS
  5
394
 10
240.007583
 20
337.392
 30
0.0
 11
280.663183
 21
336.682354
 31
0.0
  0
LINE
  8
LC-001-002-----0
  6
CONTINUOUS
  5
395
 10
240.007583
 20
334.391543
 30
0.0
 11
279.562896
 21
333.701102
 31
0.0
  0
LINE
  8
LC-001-002-----0
  6
CONTINUOUS
  5
396
 10
541.518783
 20
337.392
 30
0.0
 11
500.863183
 21
336.682354
 31
0.0
  0
LINE
  8
LC-001-002-----0
  6
CONTINUOUS
  5
397
 10
415.759325
 20
225.541491
 30
0.0
 11
415.759325
 21
177.041492
 31
0.0
  0
LINE
  8
LC-001-002-----0
  6
CONTINUOUS
  5
398
 10
415.759325
 20
177.041492
 30
0.0
 11
414.821503
 21
173.541492
 31
0.0
  0
LINE
  8
LC-001-002-----0
  6
CONTINUOUS
  5
399
 10
360.259325
 20
304.541316
 30
0.0
 11
362.759326
 21
304.541316
 31
0.0
  0
LINE
  8
LC-001-002-----0
  6
CONTINUOUS
  5
39A
 10
418.759325
 20
304.541316
 30
0.0
 11
405.720714
 21
304.541316
 31
0.0
  0
LINE
  8
LC-001-002-----0
  6
CONTINUOUS
  5
39B
 10
240.007583
 20
337.392
 30
0.0
 11
318.259325
 21
337.392
 31
0.0
  0
LINE
  8
LC-001-002-----0
  6
CONTINUOUS
  5
39C
 10
337.099072
 20
153.041543
 30
0.0
 11
338.759325
 21
153.041542
 31
0.0
  0
LINE
  8
LC-001-002-----0
  6
CONTINUOUS
  5
39D
 10
445.759325
 20
226.541472
 30
0.0
 11
445.759325
 21
158.041472
 31
0.0
  0
LINE
  8
LC-001-002-----0
  6
CONTINUOUS
  5
39E
 10
442.759325
 20
226.541474
 30
0.0
 11
442.759325
 21
153.041472
 31
0.0
  0
LINE
  8
LC-001-002-----0
  6
CONTINUOUS
  5
39F
 10
335.759325
 20
226.541472
 30
0.0
 11
335.759325
 21
158.041544
 31
0.0
  0
LINE
  8
LC-001-002-----0
  6
CONTINUOUS
  5
3A0
 10
338.759325
 20
226.541474
 30
0.0
 11
338.759325
 21
153.041472
 31
0.0
  0
LINE
  8
LC-001-002-----0
  6
CONTINUOUS
  5
3A1
 10
442.759325
 20
226.541474
 30
0.0
 11
417.763327
 21
226.54149
 31
0.0
  0
LINE
  8
LC-001-002-----0
  6
CONTINUOUS
  5
3A2
 10
335.759325
 20
226.541316
 30
0.0
 11
322.259325
 21
226.541316
 31
0.0
  0
ARC
  8
LC-002-002-RND-0
  6
CONTINUOUS
  5
3A3
 10
283.309958
 20
336.864005
 30
0.0
 40
2.0
 50
225.0
 51
266.000003
  0
LINE
  8
LC-001-002-----0
  6
CONTINUOUS
  5
3A4
 10
541.518783
 20
334.391543
 30
0.0
 11
501.963469
 21
333.701102
 31
0.0
  0
ARC
  8
LC-002-002-RND-0
  6
CONTINUOUS
  5
3A5
 10
498.216407
 20
336.864005
 30
0.0
 40
2.0
 50
273.999997
 51
315.0
  0
LINE
  8
LC-001-002-----0
  6
CONTINUOUS
  5
3A6
 10
477.514951
 20
324.194883
 30
0.0
 11
477.514951
 21
330.694883
 31
0.0
  0
LINE
  8
LC-001-002-----0
  6
CONTINUOUS
  5
3A7
 10
479.514951
 20
330.694883
 30
0.0
 11
477.516333
 21
330.694883
 31
0.0
  0
LINE
  8
LC-001-002-----0
  6
CONTINUOUS
  5
3A8
 10
479.514951
 20
324.694883
 30
0.0
 11
479.514951
 21
330.694883
 31
0.0
  0
LINE
  8
LC-001-002-----0
  6
CONTINUOUS
  5
3A9
 10
481.514951
 20
324.694883
 30
0.0
 11
479.514951
 21
324.694883
 31
0.0
  0
LINE
  8
LC-001-002-----0
  6
CONTINUOUS
  5
3AA
 10
468.816333
 20
312.391316
 30
0.0
 11
468.616333
 21
312.391316
 31
0.0
  0
LINE
  8
LC-001-002-----0
  6
CONTINUOUS
  5
3AB
 10
477.516333
 20
313.691316
 30
0.0
 11
477.516333
 21
330.691316
 31
0.0
  0
LINE
  8
LC-001-002-----0
  6
CONTINUOUS
  5
3AC
 10
477.514951
 20
324.475948
 30
0.0
 11
477.514951
 21
324.475948
 31
0.0
  0
LINE
  8
LC-001-002-----0
  6
CONTINUOUS
  5
3AD
 10
468.816333
 20
308.891316
 30
0.0
 11
468.816333
 21
310.391316
 31
0.0
  0
LINE
  8
LC-001-002-----0
  6
CONTINUOUS
  5
3AE
 10
468.816333
 20
305.441316
 30
0.0
 11
468.816333
 21
305.941316
 31
0.0
  0
LINE
  8
LC-001-002-----0
  6
CONTINUOUS
  5
3AF
 10
468.816333
 20
303.941316
 30
0.0
 11
468.816333
 21
306.891316
 31
0.0
  0
LINE
  8
LC-001-002-----0
  6
CONTINUOUS
  5
3B0
 10
468.816333
 20
303.941316
 30
0.0
 11
468.258619
 21
303.941316
 31
0.0
  0
LINE
  8
LC-001-002-----0
  6
CONTINUOUS
  5
3B1
 10
468.816333
 20
306.891316
 30
0.0
 11
468.616333
 21
306.891316
 31
0.0
  0
ARC
  8
LC-002-002-RND-0
  6
CONTINUOUS
  5
3B2
 10
468.616333
 20
311.591316
 30
0.0
 40
0.8
 50
90.0
 51
180.0
  0
ARC
  8
LC-002-002-RND-0
  6
CONTINUOUS
  5
3B3
 10
468.616333
 20
308.091316
 30
0.0
 40
0.8
 50
90.0
 51
180.0
  0
LINE
  8
LC-001-002-----0
  6
CONTINUOUS
  5
3B4
 10
467.816333
 20
307.691316
 30
0.0
 11
467.816333
 21
308.091316
 31
0.0
  0
LINE
  8
LC-001-002-----0
  6
CONTINUOUS
  5
3B5
 10
467.816333
 20
311.191316
 30
0.0
 11
467.816333
 21
311.591316
 31
0.0
  0
ARC
  8
LC-002-002-RND-0
  6
CONTINUOUS
  5
3B6
 10
468.616333
 20
307.691316
 30
0.0
 40
0.8
 50
180.0
 51
270.0
  0
ARC
  8
LC-002-002-RND-0
  6
CONTINUOUS
  5
3B7
 10
468.616333
 20
311.191316
 30
0.0
 40
0.8
 50
180.0
 51
270.0
  0
LINE
  8
LC-001-002-----0
  6
CONTINUOUS
  5
3B8
 10
468.816333
 20
310.391316
 30
0.0
 11
468.616333
 21
310.391316
 31
0.0
  0
ARC
  8
LC-002-002-RND-0
  6
CONTINUOUS
  5
3B9
 10
477.016333
 20
313.691316
 30
0.0
 40
0.5
 50
270.0
 51
0.0
  0
LINE
  8
LC-001-002-----0
  6
CONTINUOUS
  5
3BA
 10
498.35592
 20
334.868877
 30
0.0
 11
482.993417
 21
333.794627
 31
0.0
  0
ARC
  8
LC-002-002-RND-0
  6
CONTINUOUS
  5
3BB
 10
481.567368
 20
325.691316
 30
0.0
 40
1.0
 50
270.0
 51
357.0
  0
LINE
  8
LC-001-002-----0
  6
CONTINUOUS
  5
3BC
 10
482.993417
 20
333.794627
 30
0.0
 11
482.565998
 21
325.63898
 31
0.0
  0
LINE
  8
LC-001-002-----0
  6
CONTINUOUS
  5
3BD
 10
541.518783
 20
337.392
 30
0.0
 11
541.518783
 21
334.391543
 31
0.0
  0
LINE
  8
LC-001-002-----0
  6
CONTINUOUS
  5
3BE
 10
485.780774
 20
329.658603
 30
0.0
 11
485.538425
 21
325.034308
 31
0.0
  0
LINE
  8
LC-001-002-----0
  6
CONTINUOUS
  5
3BF
 10
501.963469
 20
333.701102
 30
0.0
 11
500.256844
 21
331.994477
 31
0.0
  0
LINE
  8
LC-001-002-----0
  6
CONTINUOUS
  5
3C0
 10
468.816333
 20
308.891316
 30
0.0
 11
468.616333
 21
308.891316
 31
0.0
  0
ARC
  8
LC-004-001-RND-0
  6
CONTINUOUS
  5
3C2
 10
487.252587
 20
329.581469
 30
0.0
 40
1.5
 50
93.999997
 51
177.0
  0
LINE
  8
LC-001-002-----0
  6
CONTINUOUS
  5
3C3
 10
480.266333
 20
314.191316
 30
0.0
 11
471.009325
 21
300.970939
 31
0.0
  0
LINE
  8
LC-001-002-----0
  6
CONTINUOUS
  5
3C4
 10
482.542537
 20
322.191316
 30
0.0
 11
482.266333
 21
322.191316
 31
0.0
  0
LINE
  8
LC-001-002-----0
  6
CONTINUOUS
  5
3C5
 10
304.011414
 20
313.728464
 30
0.0
 11
304.011414
 21
330.694883
 31
0.0
  0
LINE
  8
LC-005-001-----0
  6
CONTINUOUS
  5
3C7
 10
500.256844
 20
331.994477
 30
0.0
 11
487.147952
 21
331.077815
 31
0.0
  0
ARC
  8
LC-002-002-RND-0
  6
CONTINUOUS
  5
3C8
 10
482.542537
 20
325.191316
 30
0.0
 40
3.0
 50
270.0
 51
357.0
  0
LINE
  8
LC-001-002-----0
  6
CONTINUOUS
  5
3C9
 10
302.010032
 20
330.694883
 30
0.0
 11
304.011414
 21
330.694883
 31
0.0
  0
ARC
  8
LC-002-002-RND-0
  6
CONTINUOUS
  5
3CA
 10
482.266333
 20
320.191316
 30
0.0
 40
2.0
 50
90.0
 51
180.0
  0
LINE
  8
LC-001-002-----0
  6
CONTINUOUS
  5
3CB
 10
480.266333
 20
314.191316
 30
0.0
 11
480.266333
 21
320.191316
 31
0.0
  0
LINE
  8
LC-001-002-----0
  6
CONTINUOUS
  5
3CC
 10
468.816333
 20
305.441316
 30
0.0
 11
468.816333
 21
305.441316
 31
0.0
  0
LINE
  8
LC-001-002-----0
  6
CONTINUOUS
  5
3CD
 10
477.016333
 20
313.191316
 30
0.0
 11
469.616333
 21
313.191316
 31
0.0
  0
LINE
  8
LC-001-002-----0
  6
CONTINUOUS
  5
3CE
 10
477.516333
 20
314.691316
 30
0.0
 11
477.516333
 21
315.990698
 31
0.0
  0
LINE
  8
LC-001-002-----0
  6
CONTINUOUS
  5
3CF
 10
479.516333
 20
330.691316
 30
0.0
 11
477.516333
 21
330.691316
 31
0.0
  0
LINE
  8
LC-001-002-----0
  6
CONTINUOUS
  5
3D0
 10
468.816333
 20
305.191316
 30
0.0
 11
468.816333
 21
305.691316
 31
0.0
  0
LINE
  8
LC-001-002-----0
  6
CONTINUOUS
  5
3D1
 10
468.816333
 20
305.391316
 30
0.0
 11
468.816333
 21
305.891316
 31
0.0
  0
LINE
  8
LC-001-002-----0
  6
CONTINUOUS
  5
3D2
 10
500.863183
 20
336.682354
 30
0.0
 11
499.630621
 21
335.449792
 31
0.0
  0
LINE
  8
LC-001-002-----0
  6
CONTINUOUS
  5
3D3
 10
468.816333
 20
305.441316
 30
0.0
 11
468.816333
 21
305.441316
 31
0.0
  0
ARC
  8
LC-002-002-RND-0
  6
CONTINUOUS
  5
3D4
 10
469.616333
 20
312.391316
 30
0.0
 40
0.8
 50
90.0
 51
180.0
  0
LINE
  8
LC-001-002-----0
  6
CONTINUOUS
  5
3D5
 10
468.816333
 20
312.391316
 30
0.0
 11
468.816333
 21
312.391316
 31
0.0
  0
LINE
  8
LC-001-002-----0
  6
CONTINUOUS
  5
3D6
 10
313.260032
 20
238.541316
 30
0.0
 11
313.260032
 21
303.941316
 31
0.0
  0
LINE
  8
LC-001-002-----0
  6
CONTINUOUS
  5
3D7
 10
412.759474
 20
211.541494
 30
0.0
 11
412.759484
 21
226.541318
 31
0.0
  0
LINE
  8
LC-001-002-----0
  6
CONTINUOUS
  5
3D8
 10
368.759325
 20
211.541316
 30
0.0
 11
368.759325
 21
226.541316
 31
0.0
  0
LINE
  8
LC-001-002-----0
  6
CONTINUOUS
  5
3D9
 10
412.75945
 20
173.541494
 30
0.0
 11
412.759474
 21
211.541494
 31
0.0
  0
LINE
  8
LC-001-002-----0
  6
CONTINUOUS
  5
3DA
 10
414.821503
 20
173.541492
 30
0.0
 11
390.759325
 21
173.541508
 31
0.0
  0
LINE
  8
LC-001-002-----0
  6
CONTINUOUS
  5
3DB
 10
312.710032
 20
312.391316
 30
0.0
 11
312.910032
 21
312.391316
 31
0.0
  0
LINE
  8
LC-001-002-----0
  6
CONTINUOUS
  5
3DC
 10
304.011414
 20
324.475948
 30
0.0
 11
304.011414
 21
324.475948
 31
0.0
  0
LINE
  8
LC-001-002-----0
  6
CONTINUOUS
  5
3DD
 10
312.710032
 20
308.891316
 30
0.0
 11
312.710032
 21
310.391316
 31
0.0
  0
LINE
  8
LC-001-002-----0
  6
CONTINUOUS
  5
3DE
 10
312.710032
 20
305.441316
 30
0.0
 11
312.710032
 21
305.941316
 31
0.0
  0
LINE
  8
LC-001-002-----0
  6
CONTINUOUS
  5
3DF
 10
312.710032
 20
303.941316
 30
0.0
 11
312.710032
 21
306.891316
 31
0.0
  0
LINE
  8
LC-001-002-----0
  6
CONTINUOUS
  5
3E0
 10
312.710032
 20
303.941316
 30
0.0
 11
313.260032
 21
303.941316
 31
0.0
  0
LINE
  8
LC-001-002-----0
  6
CONTINUOUS
  5
3E1
 10
312.710032
 20
306.891316
 30
0.0
 11
312.910032
 21
306.891316
 31
0.0
  0
ARC
  8
LC-002-002-RND-0
  6
CONTINUOUS
  5
3E2
 10
312.910032
 20
311.591316
 30
0.0
 40
0.8
 50
0.0
 51
90.0
  0
ARC
  8
LC-002-002-RND-0
  6
CONTINUOUS
  5
3E3
 10
312.910032
 20
308.091316
 30
0.0
 40
0.8
 50
0.0
 51
90.0
  0
LINE
  8
LC-001-002-----0
  6
CONTINUOUS
  5
3E4
 10
313.710032
 20
307.691316
 30
0.0
 11
313.710032
 21
308.091316
 31
0.0
  0
LINE
  8
LC-001-002-----0
  6
CONTINUOUS
  5
3E5
 10
313.710032
 20
311.191316
 30
0.0
 11
313.710032
 21
311.591316
 31
0.0
  0
ARC
  8
LC-002-002-RND-0
  6
CONTINUOUS
  5
3E6
 10
312.910032
 20
307.691316
 30
0.0
 40
0.8
 50
270.0
 51
0.0
  0
ARC
  8
LC-002-002-RND-0
  6
CONTINUOUS
  5
3E7
 10
312.910032
 20
311.191316
 30
0.0
 40
0.8
 50
270.0
 51
0.0
  0
LINE
  8
LC-001-002-----0
  6
CONTINUOUS
  5
3E8
 10
312.710032
 20
310.391316
 30
0.0
 11
312.910032
 21
310.391316
 31
0.0
  0
ARC
  8
LC-002-002-RND-0
  6
CONTINUOUS
  5
3E9
 10
304.510032
 20
313.691316
 30
0.0
 40
0.5
 50
180.0
 51
270.0
  0
LINE
  8
LC-001-002-----0
  6
CONTINUOUS
  5
3EA
 10
283.170445
 20
334.868877
 30
0.0
 11
298.532948
 21
333.794627
 31
0.0
  0
LINE
  8
LC-001-002-----0
  6
CONTINUOUS
  5
3EB
 10
299.958997
 20
324.691316
 30
0.0
 11
302.010032
 21
324.691316
 31
0.0
  0
ARC
  8
LC-002-002-RND-0
  6
CONTINUOUS
  5
3EC
 10
299.958997
 20
325.691316
 30
0.0
 40
1.0
 50
183.0
 51
270.0
  0
LINE
  8
LC-001-002-----0
  6
CONTINUOUS
  5
3ED
 10
468.258619
 20
238.541316
 30
0.0
 11
468.258619
 21
303.941316
 31
0.0
  0
LINE
  8
LC-001-002-----0
  6
CONTINUOUS
  5
3EE
 10
302.010032
 20
324.691316
 30
0.0
 11
302.010032
 21
330.694883
 31
0.0
  0
LINE
  8
LC-001-002-----0
  6
CONTINUOUS
  5
3EF
 10
298.532948
 20
333.794627
 30
0.0
 11
298.960367
 21
325.63898
 31
0.0
  0
LINE
  8
LC-001-002-----0
  6
CONTINUOUS
  5
3F0
 10
240.007583
 20
337.392
 30
0.0
 11
240.007583
 21
334.391543
 31
0.0
  0
ARC
  8
LC-001-002-----0
  6
CONTINUOUS
  5
3F1
 10
362.759325
 20
304.041316
 30
0.0
 40
0.5
 50
270.000117
 51
89.999981
  0
LINE
  8
LC-001-002-----0
  6
CONTINUOUS
  5
3F2
 10
295.745423
 20
329.661812
 30
0.0
 11
295.98794
 21
325.034308
 31
0.0
  0
LINE
  8
LC-001-002-----0
  6
CONTINUOUS
  5
3F3
 10
279.562896
 20
333.701102
 30
0.0
 11
281.269521
 21
331.994477
 31
0.0
  0
LINE
  8
LC-001-002-----0
  6
CONTINUOUS
  5
3F4
 10
360.259325
 20
232.541316
 30
0.0
 11
360.259325
 21
304.541316
 31
0.0
  0
LINE
  8
LC-001-002-----0
  6
CONTINUOUS
  5
3F5
 10
368.759325
 20
173.541316
 30
0.0
 11
368.759325
 21
211.541316
 31
0.0
  0
LINE
  8
LC-001-002-----0
  6
CONTINUOUS
  5
3F6
 10
312.710032
 20
308.891316
 30
0.0
 11
312.910032
 21
308.891316
 31
0.0
  0
LINE
  8
LC-001-002-----0
  6
CONTINUOUS
  5
3F7
 10
366.601052
 20
173.541316
 30
0.0
 11
390.759325
 21
173.541316
 31
0.0
  0
ARC
  8
LC-002-002-RND-0
  6
CONTINUOUS
  5
3F8
 10
322.260032
 20
238.541316
 30
0.0
 40
9.0
 50
180.0
 51
270.0
  0
ARC
  8
LC-002-002-RND-0
  6
CONTINUOUS
  5
3F9
 10
459.258619
 20
238.541316
 30
0.0
 40
9.0
 50
270.0
 51
0.0
  0
LINE
  8
LC-001-002-----0
  6
CONTINUOUS
  5
3FA
 10
301.260032
 20
314.191316
 30
0.0
 11
310.509325
 21
300.981956
 31
0.0
  0
LINE
  8
LC-001-002-----0
  6
CONTINUOUS
  5
3FB
 10
298.983828
 20
322.191316
 30
0.0
 11
299.260032
 21
322.191316
 31
0.0
  0
LINE
  8
LC-005-001-----0
  6
CONTINUOUS
  5
3FC
 10
281.269521
 20
331.994477
 30
0.0
 11
294.352113
 21
331.079654
 31
0.0
  0
ARC
  8
LC-002-002-RND-0
  6
CONTINUOUS
  5
3FD
 10
298.983828
 20
325.191316
 30
0.0
 40
3.0
 50
183.0
 51
270.0
  0
ARC
  8
LC-002-002-RND-0
  6
CONTINUOUS
  5
3FE
 10
299.260032
 20
320.191316
 30
0.0
 40
2.0
 50
0.0
 51
90.0
  0
LINE
  8
LC-001-002-----0
  6
CONTINUOUS
  5
3FF
 10
301.260032
 20
314.191316
 30
0.0
 11
301.260032
 21
320.191316
 31
0.0
  0
LINE
  8
LC-001-002-----0
  6
CONTINUOUS
  5
400
 10
312.710032
 20
305.441316
 30
0.0
 11
312.710032
 21
305.441316
 31
0.0
  0
LINE
  8
LC-001-002-----0
  6
CONTINUOUS
  5
401
 10
304.510032
 20
313.191316
 30
0.0
 11
311.910032
 21
313.191316
 31
0.0
  0
LINE
  8
LC-001-002-----0
  6
CONTINUOUS
  5
402
 10
312.710032
 20
305.191316
 30
0.0
 11
312.710032
 21
305.691316
 31
0.0
  0
LINE
  8
LC-001-002-----0
  6
CONTINUOUS
  5
403
 10
312.710032
 20
305.391316
 30
0.0
 11
312.710032
 21
305.891316
 31
0.0
  0
LINE
  8
LC-001-002-----0
  6
CONTINUOUS
  5
404
 10
280.663183
 20
336.682354
 30
0.0
 11
281.895745
 21
335.449792
 31
0.0
  0
LINE
  8
LC-001-002-----0
  6
CONTINUOUS
  5
405
 10
312.710032
 20
305.441316
 30
0.0
 11
312.710032
 21
305.441316
 31
0.0
  0
ARC
  8
LC-002-002-RND-0
  6
CONTINUOUS
  5
406
 10
311.910032
 20
312.391316
 30
0.0
 40
0.8
 50
0.0
 51
90.0
  0
LINE
  8
LC-001-002-----0
  6
CONTINUOUS
  5
407
 10
312.710032
 20
312.391316
 30
0.0
 11
312.710032
 21
312.391316
 31
0.0
  0
LINE
  8
LC-001-002-----0
  6
CONTINUOUS
  5
408
 10
459.259318
 20
226.541463
 30
0.0
 11
445.759325
 21
226.541472
 31
0.0
  0
ARC
  8
LC-002-002-RND-0
  6
CONTINUOUS
  5
409
 10
424.259325
 20
232.541316
 30
0.0
 40
3.0
 50
180.0
 51
270.0
  0
LINE
  8
LC-001-002-----0
  6
CONTINUOUS
  5
40A
 10
363.239013
 20
231.868835
 30
0.0
 11
362.613537
 21
303.541316
 31
0.0
  0
ARC
  8
LC-002-002-RND-0
  6
CONTINUOUS
  5
40B
 10
357.259325
 20
232.541316
 30
0.0
 40
3.0
 50
270.0
 51
0.0
  0
LINE
  8
LC-001-002-----0
  6
CONTINUOUS
  5
40C
 10
322.260032
 20
229.541316
 30
0.0
 11
357.259325
 21
229.541316
 31
0.0
  0
LINE
  8
LC-001-002-----0
  6
CONTINUOUS
  5
40D
 10
421.259325
 20
232.541316
 30
0.0
 11
421.259325
 21
304.541316
 31
0.0
  0
LINE
  8
LC-001-002-----0
  6
CONTINUOUS
  5
40E
 10
418.759324
 20
303.541316
 30
0.0
 11
419.041016
 21
303.541316
 31
0.0
  0
ARC
  8
LC-001-002-----0
  6
CONTINUOUS
  5
40F
 10
418.759325
 20
304.041316
 30
0.0
 40
0.5
 50
90.000019
 51
269.999883
  0
LINE
  8
LC-001-002-----0
  6
CONTINUOUS
  5
410
 10
459.258619
 20
229.541316
 30
0.0
 11
424.259325
 21
229.541316
 31
0.0
  0
LINE
  8
LC-001-002-----0
  6
CONTINUOUS
  5
411
 10
365.759167
 20
229.541316
 30
0.0
 11
415.759484
 21
229.541316
 31
0.0
  0
LINE
  8
LC-001-002-----0
  6
CONTINUOUS
  5
412
 10
418.285455
 20
232.014909
 30
0.0
 11
419.041016
 21
303.541316
 31
0.0
  0
LINE
  8
LC-001-002-----0
  6
CONTINUOUS
  5
413
 10
421.259325
 20
304.541316
 30
0.0
 11
418.759325
 21
304.541316
 31
0.0
  0
LINE
  8
LC-001-002-----0
  6
CONTINUOUS
  5
414
 10
365.759325
 20
225.541316
 30
0.0
 11
365.759325
 21
177.041492
 31
0.0
  0
LINE
  8
LC-001-002-----0
  6
CONTINUOUS
  5
415
 10
365.759325
 20
177.041492
 30
0.0
 11
366.697147
 21
173.541492
 31
0.0
  0
ARC
  8
LC-002-002-RND-0
  6
CONTINUOUS
  5
416
 10
416.759325
 20
225.541491
 30
0.0
 40
1.0
 50
89.999963
 51
180.0
  0
ARC
  8
LC-002-002-RND-0
  6
CONTINUOUS
  5
417
 10
364.759325
 20
225.541316
 30
0.0
 40
1.0
 50
0.0
 51
90.0
  0
LINE
  8
LC-001-002-----0
  6
CONTINUOUS
  5
418
 10
445.759325
 20
158.041472
 30
0.0
 11
444.41958
 21
153.041473
 31
0.0
  0
LINE
  8
LC-001-002-----0
  6
CONTINUOUS
  5
419
 10
335.759325
 20
158.041544
 30
0.0
 11
337.099072
 21
153.041543
 31
0.0
  0
LINE
  8
LC-001-002-----0
  6
CONTINUOUS
  5
41A
 10
471.009325
 20
300.970939
 30
0.0
 11
471.009325
 21
238.291463
 31
0.0
  0
LINE
  8
LC-001-002-----0
  6
CONTINUOUS
  5
41B
 10
310.509325
 20
300.981956
 30
0.0
 11
310.509325
 21
238.291316
 31
0.0
  0
ARC
  8
LC-002-002-RND-0
  6
CONTINUOUS
  5
41C
 10
459.259325
 20
238.291463
 30
0.0
 40
11.75
 50
269.999963
 51
0.0
  0
ARC
  8
LC-002-002-RND-0
  6
CONTINUOUS
  5
41D
 10
322.259325
 20
238.291316
 30
0.0
 40
11.75
 50
180.0
 51
270.0
  0
LINE
  8
LC-001-002-----0
  6
CONTINUOUS
  5
41E
 10
420.641028
 20
228.525813
 30
0.0
 11
421.786681
 21
226.541488
 31
0.0
  0
LINE
  8
LC-001-002-----0
  6
CONTINUOUS
  5
41F
 10
418.908978
 20
228.525813
 30
0.0
 11
417.763327
 21
226.54149
 31
0.0
  0
ARC
  8
LC-002-002-RND-0
  6
CONTINUOUS
  5
420
 10
419.775003
 20
228.025813
 30
0.0
 40
1.0
 50
30.000037
 51
149.999963
  0
LINE
  8
LC-001-002-----0
  6
CONTINUOUS
  5
421
 10
360.877623
 20
228.525813
 30
0.0
 11
359.731871
 21
226.541316
 31
0.0
  0
LINE
  8
LC-001-002-----0
  6
CONTINUOUS
  5
422
 10
362.609673
 20
228.525813
 30
0.0
 11
363.755425
 21
226.541316
 31
0.0
  0
ARC
  8
LC-002-002-RND-0
  6
CONTINUOUS
  5
423
 10
361.743648
 20
228.025813
 30
0.0
 40
1.0
 50
30.000037
 51
149.999963
  0
LINE
  8
LC-001-002-----0
  6
CONTINUOUS
  5
424
 10
364.759325
 20
226.541316
 30
0.0
 11
363.755425
 21
226.541316
 31
0.0
  0
LINE
  8
LC-001-002-----0
  6
CONTINUOUS
  5
425
 10
469.616333
 20
313.191316
 30
0.0
 11
432.2632
 21
313.191316
 31
0.0
  0
LINE
  8
LC-001-002-----0
  6
CONTINUOUS
  5
426
 10
468.258619
 20
303.941316
 30
0.0
 11
432.263194
 21
303.941316
 31
0.0
  0
LINE
  8
LC-001-002-----0
  6
CONTINUOUS
  5
427
 10
415.759484
 20
229.541316
 30
0.0
 11
415.785594
 21
229.541316
 31
0.0
  0
ARC
  8
LC-002-002-RND-0
  6
CONTINUOUS
  5
428
 10
415.759484
 20
226.541316
 30
0.0
 40
3.0
 50
90.0
 51
179.999963
  0
ARC
  8
LC-002-002-RND-0
  6
CONTINUOUS
  5
429
 10
415.785594
 20
232.041316
 30
0.0
 40
2.5
 50
270.0
 51
359.394785
  0
ARC
  8
LC-002-002-RND-0
  6
CONTINUOUS
  5
42A
 10
365.733056
 20
232.041316
 30
0.0
 40
2.5
 50
180.605215
 51
270.0
  0
ARC
  8
LC-002-002-RND-0
  6
CONTINUOUS
  5
42B
 10
365.759167
 20
226.541316
 30
0.0
 40
3.0
 50
0.000037
 51
90.0
  0
LINE
  8
LC-001-002-----0
  6
CONTINUOUS
  5
42C
 10
417.763327
 20
226.54149
 30
0.0
 11
416.759326
 21
226.541491
 31
0.0
  0
LINE
  8
LC-001-002-----0
  6
CONTINUOUS
  5
42D
 10
363.755425
 20
226.541316
 30
0.0
 11
338.759325
 21
226.541316
 31
0.0
  0
LINE
  8
LC-001-002-----0
  6
CONTINUOUS
  5
42E
 10
442.759325
 20
153.041474
 30
0.0
 11
444.41958
 21
153.041473
 31
0.0
  0
LINE
  8
LC-001-002-----0
  6
CONTINUOUS
  5
42F
 10
338.759325
 20
153.041542
 30
0.0
 11
442.759325
 21
153.041474
 31
0.0
  0
LINE
  8
LC-001-002-----0
  6
CONTINUOUS
  5
430
 10
313.260032
 20
303.941316
 30
0.0
 11
349.262993
 21
303.941316
 31
0.0
  0
LINE
  8
LC-001-002-----0
  6
CONTINUOUS
  5
431
 10
311.910032
 20
313.191316
 30
0.0
 11
349.262992
 21
313.191316
 31
0.0
  0
ARC
  8
LC-004-001-RND-0
  6
CONTINUOUS
  5
432
 10
294.247478
 20
329.583308
 30
0.0
 40
1.5
 50
3.0
 51
86.000003
  0
LINE
  8
LC-001-002-----0
  6
DASHDOT
 62
     2
  5
434
 10
390.759325
 20
153.041508
 30
0.0
 11
390.759325
 21
316.41122
 31
0.0
  0
LINE
  8
LC-001-002-----0
  6
CONTINUOUS
  5
435
 10
482.509325
 20
333.410818
 30
0.0
 11
463.759325
 21
332.09969
 31
0.0
  0
LINE
  8
LC-001-002-----0
  6
CONTINUOUS
  5
436
 10
301.75954
 20
330.712399
 30
0.0
 11
311.759325
 21
330.013146
 31
0.0
  0
LINE
  8
LC-001-002-----0
  6
CONTINUOUS
  5
437
 10
460.005986
 20
313.41122
 30
0.0
 11
460.005986
 21
316.41122
 31
0.0
  0
LINE
  8
LC-001-002-----0
  6
CONTINUOUS
  5
438
 10
463.759325
 20
332.09969
 30
0.0
 11
463.009325
 21
331.34969
 31
0.0
  0
LINE
  8
LC-001-002-----0
  6
CONTINUOUS
  5
439
 10
460.259325
 20
313.41122
 30
0.0
 11
460.259325
 21
316.41122
 31
0.0
  0
LINE
  8
LC-001-002-----0
  6
CONTINUOUS
  5
43A
 10
463.009325
 20
316.41122
 30
0.0
 11
463.009325
 21
331.34969
 31
0.0
  0
LINE
  8
LC-001-002-----0
  6
CONTINUOUS
  5
43B
 10
321.512665
 20
313.41122
 30
0.0
 11
321.512665
 21
316.41122
 31
0.0
  0
LINE
  8
LC-001-002-----0
  6
CONTINUOUS
  5
43C
 10
317.759325
 20
332.09969
 30
0.0
 11
318.509325
 21
331.34969
 31
0.0
  0
LINE
  8
LC-001-002-----0
  6
CONTINUOUS
  5
43D
 10
321.259325
 20
313.41122
 30
0.0
 11
321.259325
 21
316.41122
 31
0.0
  0
LINE
  8
LC-001-002-----0
  6
CONTINUOUS
  5
43E
 10
318.509325
 20
316.41122
 30
0.0
 11
318.509325
 21
331.34969
 31
0.0
  0
ARC
  8
LC-002-002-RND-0
  6
CONTINUOUS
  5
43F
 10
468.759325
 20
314.41122
 30
0.0
 40
1.0
 50
270.0
 51
0.0
  0
LINE
  8
LC-001-002-----0
  6
CONTINUOUS
  5
440
 10
299.009325
 20
333.410818
 30
0.0
 11
300.009325
 21
326.41122
 31
0.0
  0
LINE
  8
LC-001-002-----0
  6
CONTINUOUS
  5
441
 10
301.18219
 20
326.41122
 30
0.0
 11
300.009325
 21
326.41122
 31
0.0
  0
LINE
  8
LC-001-002-----0
  6
CONTINUOUS
  5
442
 10
301.75954
 20
327.41122
 30
0.0
 11
301.18219
 21
326.41122
 31
0.0
  0
LINE
  8
LC-001-002-----0
  6
CONTINUOUS
  5
443
 10
301.75954
 20
327.41122
 30
0.0
 11
301.75954
 21
330.712399
 31
0.0
  0
ARC
  8
LC-002-002-RND-0
  6
CONTINUOUS
  5
444
 10
312.759325
 20
314.41122
 30
0.0
 40
1.0
 50
180.0
 51
270.0
  0
LINE
  8
LC-001-002-----0
  6
CONTINUOUS
  5
445
 10
312.759325
 20
313.41122
 30
0.0
 11
349.262992
 21
313.41122
 31
0.0
  0
LINE
  8
LC-001-002-----0
  6
CONTINUOUS
  5
446
 10
479.759111
 20
327.41122
 30
0.0
 11
480.336461
 21
326.41122
 31
0.0
  0
LINE
  8
LC-001-002-----0
  6
CONTINUOUS
  5
447
 10
311.759325
 20
314.41122
 30
0.0
 11
311.759325
 21
330.013146
 31
0.0
  0
LINE
  8
LC-001-002-----0
  6
CONTINUOUS
  5
448
 10
479.759111
 20
327.41122
 30
0.0
 11
479.759111
 21
330.712399
 31
0.0
  0
LINE
  8
LC-001-002-----0
  6
CONTINUOUS
  5
449
 10
468.759325
 20
313.41122
 30
0.0
 11
460.259325
 21
313.41122
 31
0.0
  0
LINE
  8
LC-001-002-----0
  6
CONTINUOUS
  5
44A
 10
469.759325
 20
314.41122
 30
0.0
 11
469.759325
 21
330.013146
 31
0.0
  0
LINE
  8
LC-001-002-----0
  6
CONTINUOUS
  5
44B
 10
480.336461
 20
326.41122
 30
0.0
 11
481.509325
 21
326.41122
 31
0.0
  0
LINE
  8
LC-001-002-----0
  6
CONTINUOUS
  5
44C
 10
460.259325
 20
313.41122
 30
0.0
 11
432.2632
 21
313.41122
 31
0.0
  0
LINE
  8
LC-001-002-----0
  6
CONTINUOUS
  5
44D
 10
460.259325
 20
316.41122
 30
0.0
 11
463.009325
 21
316.41122
 31
0.0
  0
LINE
  8
LC-001-002-----0
  6
CONTINUOUS
  5
44E
 10
460.005986
 20
316.41122
 30
0.0
 11
460.259325
 21
316.41122
 31
0.0
  0
LINE
  8
LC-001-002-----0
  6
CONTINUOUS
  5
44F
 10
479.759111
 20
330.712399
 30
0.0
 11
469.759325
 21
330.013146
 31
0.0
  0
LINE
  8
LC-001-002-----0
  6
CONTINUOUS
  5
450
 10
321.512665
 20
316.41122
 30
0.0
 11
318.509325
 21
316.41122
 31
0.0
  0
LINE
  8
LC-001-002-----0
  6
CONTINUOUS
  5
451
 10
482.509325
 20
333.410818
 30
0.0
 11
481.509325
 21
326.41122
 31
0.0
  0
LINE
  8
LC-001-002-----0
  6
CONTINUOUS
  5
452
 10
299.009325
 20
333.410818
 30
0.0
 11
317.759325
 21
332.09969
 31
0.0
  0
LINE
  8
LC-001-002-----0
  6
CONTINUOUS
  5
453
 10
407.470715
 20
304.541253
 30
0.0
 11
407.470715
 21
325.041425
 31
0.0
  0
ARC
  8
LC-001-002-----0
  6
CONTINUOUS
  5
454
 10
406.019407
 20
303.834147
 30
0.0
 40
0.767605
 50
112.900021
 51
247.099979
  0
LINE
  8
LC-001-002-----0
  6
CONTINUOUS
  5
455
 10
405.720714
 20
304.541253
 30
0.0
 11
407.470715
 21
304.541253
 31
0.0
  0
LINE
  8
LC-001-002-----0
  6
CONTINUOUS
  5
456
 10
405.720714
 20
300.041253
 30
0.0
 11
405.720714
 21
303.127041
 31
0.0
  0
LINE
  8
LC-001-002-----0
  6
CONTINUOUS
  5
457
 10
405.251802
 20
296.541253
 30
0.0
 11
405.720714
 21
300.041253
 31
0.0
  0
LINE
  8
LC-001-002-----0
  6
CONTINUOUS
  5
458
 10
390.762996
 20
296.541253
 30
0.0
 11
405.251802
 21
296.541253
 31
0.0
  0
LINE
  8
LC-001-002-----0
  6
CONTINUOUS
  5
459
 10
405.720714
 20
303.127041
 30
0.0
 11
419.041016
 21
303.127041
 31
0.0
  0
LINE
  8
LC-001-002-----0
  6
CONTINUOUS
  5
45A
 10
381.012994
 20
327.041253
 30
0.0
 11
390.762992
 21
327.041253
 31
0.0
  0
LINE
  8
LC-001-002-----0
  6
CONTINUOUS
  5
45B
 10
400.512991
 20
327.041439
 30
0.0
 11
390.762992
 21
327.041445
 31
0.0
  0
LINE
  8
LC-001-002-----0
  6
CONTINUOUS
  5
45C
 10
392.194059
 20
296.541253
 30
0.0
 11
392.201774
 21
325.041425
 31
0.0
  0
LINE
  8
LC-001-002-----0
  6
CONTINUOUS
  5
45D
 10
320.759325
 20
393.01122
 30
0.0
 11
320.759325
 21
406.41122
 31
0.0
  0
LINE
  8
LC-001-002-----0
  6
CONTINUOUS
  5
45E
 10
460.759325
 20
393.01122
 30
0.0
 11
460.759325
 21
406.41122
 31
0.0
  0
LINE
  8
LC-001-002-----0
  6
CONTINUOUS
  5
45F
 10
318.259325
 20
392.41122
 30
0.0
 11
318.259325
 21
318.41122
 31
0.0
  0
LINE
  8
LC-001-002-----0
  6
CONTINUOUS
  5
460
 10
316.759325
 20
392.41122
 30
0.0
 11
316.759325
 21
406.41122
 31
0.0
  0
LINE
  8
LC-001-002-----0
  6
CONTINUOUS
  5
461
 10
316.759325
 20
392.41122
 30
0.0
 11
318.259325
 21
392.41122
 31
0.0
  0
LINE
  8
LC-001-002-----0
  6
CONTINUOUS
  5
462
 10
318.259325
 20
318.41122
 30
0.0
 11
318.795224
 21
316.41122
 31
0.0
  0
LINE
  8
LC-001-002-----0
  6
CONTINUOUS
  5
463
 10
316.759325
 20
406.41122
 30
0.0
 11
320.759325
 21
406.41122
 31
0.0
  0
LINE
  8
LC-001-002-----0
  6
CONTINUOUS
  5
464
 10
318.795224
 20
316.41122
 30
0.0
 11
320.259325
 21
316.41122
 31
0.0
  0
LINE
  8
LC-001-002-----0
  6
CONTINUOUS
 62
     2
  5
465
 10
352.356525
 20
440.154
 30
0.0
 11
367.356525
 21
440.154
 31
0.0
  0
LINE
  8
LC-001-002-----0
  6
CONTINUOUS
  5
466
 10
320.259325
 20
316.41122
 30
0.0
 11
349.341449
 21
316.41122
 31
0.0
  0
LINE
  8
LC-001-002-----0
  6
CONTINUOUS
 62
     2
  5
467
 10
352.356525
 20
455.154
 30
0.0
 11
352.356525
 21
440.154
 31
0.0
  0
LINE
  8
LC-001-002-----0
  6
CONTINUOUS
  5
468
 10
463.259325
 20
392.41122
 30
0.0
 11
463.259325
 21
318.41122
 31
0.0
  0
LINE
  8
LC-001-002-----0
  6
CONTINUOUS
  5
469
 10
464.759325
 20
392.41122
 30
0.0
 11
464.759325
 21
406.41122
 31
0.0
  0
LINE
  8
LC-001-002-----0
  6
CONTINUOUS
  5
46A
 10
464.759325
 20
392.41122
 30
0.0
 11
463.259325
 21
392.41122
 31
0.0
  0
LINE
  8
LC-001-002-----0
  6
CONTINUOUS
  5
46B
 10
463.259325
 20
318.41122
 30
0.0
 11
462.723427
 21
316.41122
 31
0.0
  0
LINE
  8
LC-001-002-----0
  6
CONTINUOUS
  5
46C
 10
464.759325
 20
406.41122
 30
0.0
 11
460.759325
 21
406.41122
 31
0.0
  0
LINE
  8
LC-001-002-----0
  6
CONTINUOUS
  5
46D
 10
462.723427
 20
316.41122
 30
0.0
 11
461.259325
 21
316.41122
 31
0.0
  0
LINE
  8
LC-001-002-----0
  6
CONTINUOUS
  5
46E
 10
460.559325
 20
393.01122
 30
0.0
 11
460.559325
 21
316.41122
 31
0.0
  0
LINE
  8
LC-001-002-----0
  6
CONTINUOUS
  5
46F
 10
320.759325
 20
396.01122
 30
0.0
 11
371.13052
 21
396.01122
 31
0.0
  0
LINE
  8
LC-001-002-----0
  6
CONTINUOUS
 62
     2
  5
470
 10
352.356525
 20
455.154
 30
0.0
 11
367.356525
 21
455.154
 31
0.0
  0
LINE
  8
LC-001-002-----0
  6
CONTINUOUS
 62
     2
  5
471
 10
367.356525
 20
455.154
 30
0.0
 11
367.356525
 21
440.154
 31
0.0
  0
LINE
  8
LC-001-002-----0
  6
DASHDOT
 62
     2
  5
472
 10
390.759325
 20
316.41122
 30
0.0
 11
390.759325
 21
406.01122
 31
0.0
  0
LINE
  8
LC-001-002-----0
  6
CONTINUOUS
  5
473
 10
320.759325
 20
393.01122
 30
0.0
 11
460.759325
 21
393.01122
 31
0.0
  0
LINE
  8
LC-001-002-----0
  6
CONTINUOUS
  5
474
 10
320.959325
 20
393.01122
 30
0.0
 11
320.959325
 21
316.41122
 31
0.0
  0
LINE
  8
LC-001-002-----0
  6
CONTINUOUS
  5
475
 10
371.13052
 20
393.01122
 30
0.0
 11
371.13052
 21
396.01122
 31
0.0
  0
LINE
  8
LC-001-002-----0
  6
CONTINUOUS
  5
476
 10
460.759325
 20
396.01122
 30
0.0
 11
410.388131
 21
396.01122
 31
0.0
  0
LINE
  8
LC-001-002-----0
  6
CONTINUOUS
  5
477
 10
410.388131
 20
393.01122
 30
0.0
 11
410.388131
 21
396.01122
 31
0.0
  0
LINE
  8
LC-001-002-----0
  6
CONTINUOUS
  5
478
 10
460.759325
 20
396.01122
 30
0.0
 11
410.388131
 21
396.01122
 31
0.0
  0
LINE
  8
LC-001-002-----0
  6
CONTINUOUS
  5
479
 10
321.759325
 20
396.51122
 30
0.0
 11
322.759325
 21
396.51122
 31
0.0
  0
LINE
  8
LC-001-002-----0
  6
CONTINUOUS
  5
47A
 10
459.759325
 20
396.51122
 30
0.0
 11
458.759325
 21
396.51122
 31
0.0
  0
LINE
  8
LC-001-002-----0
  6
CONTINUOUS
  5
47B
 10
324.759325
 20
406.01122
 30
0.0
 11
390.759325
 21
406.01122
 31
0.0
  0
LINE
  8
LC-001-002-----0
  6
CONTINUOUS
  5
47C
 10
408.259325
 20
405.01122
 30
0.0
 11
390.759325
 21
405.01122
 31
0.0
  0
LINE
  8
LC-001-002-----0
  6
CONTINUOUS
  5
47D
 10
456.759325
 20
406.01122
 30
0.0
 11
390.759325
 21
406.01122
 31
0.0
  0
LINE
  8
LC-001-002-----0
  6
CONTINUOUS
  5
47E
 10
410.259325
 20
403.01122
 30
0.0
 11
410.259325
 21
401.01122
 31
0.0
  0
ARC
  8
LC-001-002-----0
  6
CONTINUOUS
  5
47F
 10
408.259325
 20
403.01122
 30
0.0
 40
2.0
 50
0.0
 51
90.0
  0
ARC
  8
LC-001-002-----0
  6
CONTINUOUS
  5
480
 10
408.259325
 20
403.01122
 30
0.0
 40
3.0
 50
0.0
 51
90.0
  0
LINE
  8
LC-001-002-----0
  6
CONTINUOUS
  5
481
 10
411.259325
 20
403.01122
 30
0.0
 11
411.259325
 21
401.01122
 31
0.0
  0
LINE
  8
LC-001-002-----0
  6
CONTINUOUS
  5
482
 10
410.259325
 20
401.01122
 30
0.0
 11
419.259325
 21
401.01122
 31
0.0
  0
LINE
  8
LC-001-002-----0
  6
CONTINUOUS
  5
483
 10
418.259325
 20
401.01122
 30
0.0
 11
418.259325
 21
403.01122
 31
0.0
  0
LINE
  8
LC-001-002-----0
  6
CONTINUOUS
  5
484
 10
419.259325
 20
401.01122
 30
0.0
 11
419.259325
 21
403.01122
 31
0.0
  0
ARC
  8
LC-001-002-----0
  6
CONTINUOUS
  5
485
 10
421.259325
 20
403.01122
 30
0.0
 40
2.0
 50
90.0
 51
180.0
  0
ARC
  8
LC-001-002-----0
  6
CONTINUOUS
  5
486
 10
421.259325
 20
403.01122
 30
0.0
 40
3.0
 50
90.0
 51
180.0
  0
LINE
  8
LC-001-002-----0
  6
CONTINUOUS
  5
487
 10
424.259325
 20
405.01122
 30
0.0
 11
421.259325
 21
405.01122
 31
0.0
  0
ARC
  8
LC-001-002-----0
  6
CONTINUOUS
  5
488
 10
424.259325
 20
403.01122
 30
0.0
 40
2.0
 50
0.0
 51
90.0
  0
LINE
  8
LC-001-002-----0
  6
CONTINUOUS
  5
489
 10
426.259325
 20
403.01122
 30
0.0
 11
426.259325
 21
401.01122
 31
0.0
  0
ARC
  8
LC-001-002-----0
  6
CONTINUOUS
  5
48A
 10
424.259325
 20
403.01122
 30
0.0
 40
3.0
 50
0.0
 51
90.0
  0
LINE
  8
LC-001-002-----0
  6
CONTINUOUS
  5
48B
 10
427.259325
 20
403.01122
 30
0.0
 11
427.259325
 21
401.01122
 31
0.0
  0
LINE
  8
LC-001-002-----0
  6
CONTINUOUS
  5
48C
 10
426.259325
 20
401.01122
 30
0.0
 11
435.259325
 21
401.01122
 31
0.0
  0
LINE
  8
LC-001-002-----0
  6
CONTINUOUS
  5
48D
 10
434.259325
 20
401.01122
 30
0.0
 11
434.259325
 21
403.01122
 31
0.0
  0
LINE
  8
LC-001-002-----0
  6
CONTINUOUS
  5
48E
 10
435.259325
 20
401.01122
 30
0.0
 11
435.259325
 21
403.01122
 31
0.0
  0
ARC
  8
LC-001-002-----0
  6
CONTINUOUS
  5
48F
 10
437.259325
 20
403.01122
 30
0.0
 40
3.0
 50
90.0
 51
180.0
  0
ARC
  8
LC-001-002-----0
  6
CONTINUOUS
  5
490
 10
437.259325
 20
403.01122
 30
0.0
 40
2.0
 50
90.0
 51
180.0
  0
LINE
  8
LC-001-002-----0
  6
CONTINUOUS
  5
491
 10
437.259325
 20
405.01122
 30
0.0
 11
440.259325
 21
405.01122
 31
0.0
  0
ARC
  8
LC-001-002-----0
  6
CONTINUOUS
  5
492
 10
440.259325
 20
403.01122
 30
0.0
 40
3.0
 50
0.0
 51
90.0
  0
ARC
  8
LC-001-002-----0
  6
CONTINUOUS
  5
493
 10
440.259325
 20
403.01122
 30
0.0
 40
2.0
 50
0.0
 51
90.0
  0
LINE
  8
LC-001-002-----0
  6
CONTINUOUS
  5
494
 10
442.259325
 20
403.01122
 30
0.0
 11
442.259325
 21
401.01122
 31
0.0
  0
LINE
  8
LC-001-002-----0
  6
CONTINUOUS
  5
495
 10
443.259325
 20
403.01122
 30
0.0
 11
443.259325
 21
401.01122
 31
0.0
  0
LINE
  8
LC-001-002-----0
  6
CONTINUOUS
  5
496
 10
442.259325
 20
401.01122
 30
0.0
 11
451.259325
 21
401.01122
 31
0.0
  0
LINE
  8
LC-001-002-----0
  6
CONTINUOUS
  5
497
 10
450.259325
 20
401.01122
 30
0.0
 11
450.259325
 21
403.01122
 31
0.0
  0
LINE
  8
LC-001-002-----0
  6
CONTINUOUS
  5
498
 10
451.259325
 20
401.01122
 30
0.0
 11
451.259325
 21
403.01122
 31
0.0
  0
ARC
  8
LC-001-002-----0
  6
CONTINUOUS
  5
499
 10
453.259325
 20
403.01122
 30
0.0
 40
2.0
 50
90.0
 51
180.0
  0
ARC
  8
LC-001-002-----0
  6
CONTINUOUS
  5
49A
 10
453.259325
 20
403.01122
 30
0.0
 40
3.0
 50
90.0
 51
180.0
  0
LINE
  8
LC-001-002-----0
  6
CONTINUOUS
  5
49B
 10
453.259325
 20
405.01122
 30
0.0
 11
456.759325
 21
405.01122
 31
0.0
  0
ARC
  8
LC-001-002-----0
  6
CONTINUOUS
  5
49C
 10
456.759325
 20
403.01122
 30
0.0
 40
2.0
 50
0.0
 51
90.0
  0
ARC
  8
LC-001-002-----0
  6
CONTINUOUS
  5
49D
 10
456.759325
 20
403.01122
 30
0.0
 40
3.0
 50
0.0
 51
90.0
  0
LINE
  8
LC-001-002-----0
  6
CONTINUOUS
  5
49E
 10
458.759325
 20
403.01122
 30
0.0
 11
458.759325
 21
396.51122
 31
0.0
  0
LINE
  8
LC-001-002-----0
  6
CONTINUOUS
  5
49F
 10
459.759325
 20
403.01122
 30
0.0
 11
459.759325
 21
396.51122
 31
0.0
  0
LINE
  8
LC-001-002-----0
  6
CONTINUOUS
  5
4A0
 10
321.759325
 20
403.01122
 30
0.0
 11
321.759325
 21
396.51122
 31
0.0
  0
LINE
  8
LC-001-002-----0
  6
CONTINUOUS
  5
4A1
 10
371.259325
 20
401.01122
 30
0.0
 11
362.259325
 21
401.01122
 31
0.0
  0
LINE
  8
LC-001-002-----0
  6
CONTINUOUS
  5
4A2
 10
371.259325
 20
403.01122
 30
0.0
 11
371.259325
 21
401.01122
 31
0.0
  0
ARC
  8
LC-001-002-----0
  6
CONTINUOUS
  5
4A3
 10
373.259325
 20
403.01122
 30
0.0
 40
2.0
 50
90.0
 51
180.0
  0
LINE
  8
LC-001-002-----0
  6
CONTINUOUS
  5
4A4
 10
362.259325
 20
401.01122
 30
0.0
 11
362.259325
 21
403.01122
 31
0.0
  0
LINE
  8
LC-001-002-----0
  6
CONTINUOUS
  5
4A5
 10
344.259325
 20
405.01122
 30
0.0
 11
341.259325
 21
405.01122
 31
0.0
  0
LINE
  8
LC-001-002-----0
  6
CONTINUOUS
  5
4A6
 10
355.259325
 20
401.01122
 30
0.0
 11
346.259325
 21
401.01122
 31
0.0
  0
ARC
  8
LC-001-002-----0
  6
CONTINUOUS
  5
4A7
 10
360.259325
 20
403.01122
 30
0.0
 40
3.0
 50
0.0
 51
90.0
  0
LINE
  8
LC-001-002-----0
  6
CONTINUOUS
  5
4A8
 10
355.259325
 20
403.01122
 30
0.0
 11
355.259325
 21
401.01122
 31
0.0
  0
LINE
  8
LC-001-002-----0
  6
CONTINUOUS
  5
4A9
 10
330.259325
 20
401.01122
 30
0.0
 11
330.259325
 21
403.01122
 31
0.0
  0
LINE
  8
LC-001-002-----0
  6
CONTINUOUS
  5
4AA
 10
331.259325
 20
401.01122
 30
0.0
 11
331.259325
 21
403.01122
 31
0.0
  0
LINE
  8
LC-001-002-----0
  6
CONTINUOUS
  5
4AB
 10
339.259325
 20
401.01122
 30
0.0
 11
330.259325
 21
401.01122
 31
0.0
  0
ARC
  8
LC-001-002-----0
  6
CONTINUOUS
  5
4AC
 10
344.259325
 20
403.01122
 30
0.0
 40
3.0
 50
0.0
 51
90.0
  0
LINE
  8
LC-001-002-----0
  6
CONTINUOUS
  5
4AD
 10
339.259325
 20
403.01122
 30
0.0
 11
339.259325
 21
401.01122
 31
0.0
  0
ARC
  8
LC-001-002-----0
  6
CONTINUOUS
  5
4AE
 10
357.259325
 20
403.01122
 30
0.0
 40
2.0
 50
90.0
 51
180.0
  0
ARC
  8
LC-001-002-----0
  6
CONTINUOUS
  5
4AF
 10
341.259325
 20
403.01122
 30
0.0
 40
2.0
 50
90.0
 51
180.0
  0
ARC
  8
LC-001-002-----0
  6
CONTINUOUS
  5
4B0
 10
328.259325
 20
403.01122
 30
0.0
 40
2.0
 50
0.0
 51
90.0
  0
ARC
  8
LC-001-002-----0
  6
CONTINUOUS
  5
4B1
 10
324.759325
 20
403.01122
 30
0.0
 40
2.0
 50
90.0
 51
180.0
  0
LINE
  8
LC-001-002-----0
  6
CONTINUOUS
  5
4B2
 10
322.759325
 20
403.01122
 30
0.0
 11
322.759325
 21
396.51122
 31
0.0
  0
ARC
  8
LC-001-002-----0
  6
CONTINUOUS
  5
4B3
 10
328.259325
 20
403.01122
 30
0.0
 40
3.0
 50
0.0
 51
90.0
  0
ARC
  8
LC-001-002-----0
  6
CONTINUOUS
  5
4B4
 10
324.759325
 20
403.01122
 30
0.0
 40
3.0
 50
90.0
 51
180.0
  0
LINE
  8
LC-001-002-----0
  6
CONTINUOUS
  5
4B5
 10
328.259325
 20
405.01122
 30
0.0
 11
324.759325
 21
405.01122
 31
0.0
  0
ARC
  8
LC-001-002-----0
  6
CONTINUOUS
  5
4B6
 10
344.259325
 20
403.01122
 30
0.0
 40
2.0
 50
0.0
 51
90.0
  0
LINE
  8
LC-001-002-----0
  6
CONTINUOUS
  5
4B7
 10
346.259325
 20
401.01122
 30
0.0
 11
346.259325
 21
403.01122
 31
0.0
  0
ARC
  8
LC-001-002-----0
  6
CONTINUOUS
  5
4B8
 10
360.259325
 20
403.01122
 30
0.0
 40
2.0
 50
0.0
 51
90.0
  0
LINE
  8
LC-001-002-----0
  6
CONTINUOUS
  5
4B9
 10
357.259325
 20
405.01122
 30
0.0
 11
360.259325
 21
405.01122
 31
0.0
  0
LINE
  8
LC-001-002-----0
  6
CONTINUOUS
  5
4BA
 10
373.259325
 20
405.01122
 30
0.0
 11
390.759325
 21
405.01122
 31
0.0
  0
ARC
  8
LC-001-002-----0
  6
CONTINUOUS
  5
4BB
 10
341.259325
 20
403.01122
 30
0.0
 40
3.0
 50
90.0
 51
180.0
  0
ARC
  8
LC-001-002-----0
  6
CONTINUOUS
  5
4BC
 10
357.259325
 20
403.01122
 30
0.0
 40
3.0
 50
90.0
 51
180.0
  0
ARC
  8
LC-001-002-----0
  6
CONTINUOUS
  5
4BD
 10
373.259325
 20
403.01122
 30
0.0
 40
3.0
 50
90.0
 51
180.0
  0
LINE
  8
LC-001-002-----0
  6
CONTINUOUS
  5
4BE
 10
338.259325
 20
403.01122
 30
0.0
 11
338.259325
 21
401.01122
 31
0.0
  0
LINE
  8
LC-001-002-----0
  6
CONTINUOUS
  5
4BF
 10
347.259325
 20
401.01122
 30
0.0
 11
347.259325
 21
403.01122
 31
0.0
  0
LINE
  8
LC-001-002-----0
  6
CONTINUOUS
  5
4C0
 10
354.259325
 20
403.01122
 30
0.0
 11
354.259325
 21
401.01122
 31
0.0
  0
LINE
  8
LC-001-002-----0
  6
CONTINUOUS
  5
4C1
 10
363.259325
 20
401.01122
 30
0.0
 11
363.259325
 21
403.01122
 31
0.0
  0
LINE
  8
LC-001-002-----0
  6
CONTINUOUS
  5
4C2
 10
370.259325
 20
403.01122
 30
0.0
 11
370.259325
 21
401.01122
 31
0.0
  0
LINE
  8
LC-001-002-----0
  6
CONTINUOUS
  5
4C3
 10
463.259325
 20
337.392
 30
0.0
 11
541.518783
 21
337.392
 31
0.0
  0
LINE
  8
LC-001-002-----0
  6
CONTINUOUS
  5
4C4
 10
432.184765
 20
316.41122
 30
0.0
 11
461.259325
 21
316.41122
 31
0.0
  0
ENDSEC
  0
EOF
