  0
SECTION
  2
HEADER
  9
$ACADVER
  1
AC1009
  9
$INSBASE
 10
0.0
 20
0.0
 30
0.0
  9
$EXTMIN
 10
0.0
 20
0.0
 30
0.0
  9
$EXTMAX
 10
840.0
 20
594.0
 30
0.0
  9
$LIMMIN
 10
0.0
 20
0.0
  9
$LIMMAX
 10
840.0
 20
594.0
  9
$ORTHOMODE
 70
     0
  9
$REGENMODE
 70
     1
  9
$FILLMODE
 70
     1
  9
$QTEXTMODE
 70
     0
  9
$MIRRTEXT
 70
     1
  9
$DRAGMODE
 70
     2
  9
$LTSCALE
 40
2.0
  9
$OSMODE
 70
     0
  9
$ATTMODE
 70
     1
  9
$TEXTSIZE
 40
0.2
  9
$TRACEWID
 40
0.05
  9
$TEXTSTYLE
  7
STANDARD
  9
$CLAYER
  8
0
  9
$CELTYPE
  6
BYLAYER
  9
$CECOLOR
 62
     7
  9
$DIMSCALE
 40
2.0
  9
$DIMASZ
 40
3.5
  9
$DIMEXO
 40
0.0625
  9
$DIMDLI
 40
0.38
  9
$DIMRND
 40
0.0
  9
$DIMDLE
 40
0.0
  9
$DIMEXE
 40
0.18
  9
$DIMTP
 40
0.0
  9
$DIMTM
 40
0.0
  9
$DIMTXT
 40
3.5
  9
$DIMCEN
 40
0.09
  9
$DIMTSZ
 40
0.0
  9
$DIMTOL
 70
     0
  9
$DIMLIM
 70
     0
  9
$DIMTIH
 70
     1
  9
$DIMTOH
 70
     1
  9
$DIMSE1
 70
     0
  9
$DIMSE2
 70
     0
  9
$DIMTAD
 70
     1
  9
$DIMZIN
 70
     0
  9
$DIMBLK
  1

  9
$DIMASO
 70
     1
  9
$DIMSHO
 70
     1
  9
$DIMPOST
  1

  9
$DIMAPOST
  1

  9
$DIMALT
 70
     0
  9
$DIMALTD
 70
     2
  9
$DIMALTF
 40
25.4
  9
$DIMLFAC
 40
1.0
  9
$DIMTOFL
 70
     0
  9
$DIMTVP
 40
0.0
  9
$DIMTIX
 70
     0
  9
$DIMSOXD
 70
     0
  9
$DIMSAH
 70
     0
  9
$DIMBLK1
  1

  9
$DIMBLK2
  1

  9
$DIMSTYLE
  2
STANDARD
  9
$DIMCLRD
 70
     0
  9
$DIMCLRE
 70
     0
  9
$DIMCLRT
 70
     0
  9
$DIMTFAC
 40
1.0
  9
$DIMGAP
 40
0.09
  9
$LUNITS
 70
     2
  9
$LUPREC
 70
     2
  9
$AXISMODE
 70
     0
  9
$AXISUNIT
 10
0.0
 20
0.0
  9
$SKETCHINC
 40
0.1
  9
$FILLETRAD
 40
0.0
  9
$AUNITS
 70
     0
  9
$AUPREC
 70
     0
  9
$MENU
  1
acad
  9
$ELEVATION
 40
0.0
  9
$PELEVATION
 40
0.0
  9
$THICKNESS
 40
0.0
  9
$LIMCHECK
 70
     0
  9
$BLIPMODE
 70
     1
  9
$CHAMFERA
 40
0.0
  9
$CHAMFERB
 40
0.0
  9
$SKPOLY
 70
     0
  9
$TDCREATE
 40
0.000000000
  9
$TDUPDATE
 40
0.000000000
  9
$TDINDWG
 40
0.0000000000
  9
$TDUSRTIMER
 40
0.0000000000
  9
$USRTIMER
 70
     1
  9
$ANGBASE
 50
0.0
  9
$ANGDIR
 70
     0
  9
$PDMODE
 70
     0
  9
$PDSIZE
 40
0.0
  9
$PLINEWID
 40
0.0
  9
$COORDS
 70
     0
  9
$SPLFRAME
 70
     0
  9
$SPLINETYPE
 70
     6
  9
$SPLINESEGS
 70
     8
  9
$ATTDIA
 70
     0
  9
$ATTREQ
 70
     1
  9
$HANDLING
 70
     1
  9
$HANDSEED
  5
3B8
  9
$SURFTAB1
 70
     6
  9
$SURFTAB2
 70
     6
  9
$SURFTYPE
 70
     6
  9
$SURFU
 70
     6
  9
$SURFV
 70
     6
  9
$UCSNAME
  2

  9
$UCSORG
 10
0.0
 20
0.0
 30
0.0
  9
$UCSXDIR
 10
1.0
 20
0.0
 30
0.0
  9
$UCSYDIR
 10
0.0
 20
1.0
 30
0.0
  9
$PUCSNAME
  2

  9
$PUCSORG
 10
0.0
 20
0.0
 30
0.0
  9
$PUCSXDIR
 10
1.0
 20
0.0
 30
0.0
  9
$PUCSYDIR
 10
0.0
 20
1.0
 30
0.0
  9
$USERI1
 70
     0
  9
$USERI2
 70
     0
  9
$USERI3
 70
     0
  9
$USERI4
 70
     0
  9
$USERI5
 70
     0
  9
$USERR1
 40
0.0
  9
$USERR2
 40
0.0
  9
$USERR3
 40
0.0
  9
$USERR4
 40
0.0
  9
$USERR5
 40
0.0
  9
$WORLDVIEW
 70
     1
  9
$SHADEDGE
 70
     3
  9
$SHADEDIF
 70
    70
  9
$TILEMODE
 70
     1
  9
$MAXACTVP
 70
    16
  9
$PINSBASE
 10
0.0
 20
0.0
 30
0.0
  9
$PLIMCHECK
 70
     0
  9
$PEXTMIN
 10
1.000000E+20
 20
1.000000E+20
 30
1.000000E+20
  9
$PEXTMAX
 10
-1.000000E+20
 20
-1.000000E+20
 30
-1.000000E+20
  9
$PLIMMIN
 10
0.0
 20
0.0
  9
$PLIMMAX
 10
840.0
 20
594.0
  9
$UNITMODE
 70
     0
  9
$VISRETAIN
 70
     0
  9
$PLINEGEN
 70
     1
  9
$PSLTSCALE
 70
     0
  9
$TREEDEPTH
 70
  3020
  9
$DWGCODEPAGE
  3
dos850
  0
ENDSEC
  0
SECTION
  2
TABLES
  0
TABLE
  2
VPORT
 70
     1
  0
VPORT
  2
*ACTIVE
 70
     0
 10
0.0
 20
0.0
 11
1.0
 21
1.0
 12
420.0
 22
297.0
 13
0.0
 23
0.0
 14
1.0
 24
1.0
 15
0.0
 25
0.0
 16
0.0
 26
0.0
 36
1.0
 17
0.0
 27
0.0
 37
0.0
 40
594.0
 41
1.604229
 42
50.0
 43
0.0
 44
0.0
 50
0.0
 51
0.0
 71
     0
 72
   100
 73
     1
 74
     1
 75
     0
 76
     0
 77
     0
 78
     0
  0
ENDTAB
  0
TABLE
  2
LTYPE
 70
     2
  0
LTYPE
  2
CONTINUOUS
 70
    64
  3
Solid line
 72
    65
 73
     0
 40
0.0
  0
LTYPE
  2
DASHDOT
 70
    64
  3
__ . __ . __ . __ . __
 72
    65
 73
     4
 40
7.5
 49
5.0
 49
-1.25
 49
0.0
 49
-1.25
  0
ENDTAB
  0
TABLE
  2
LAYER
 70
    14
  0
LAYER
  2
0
 70
     0
 62
     7
  6
CONTINUOUS
  0
LAYER
  2
LC-INFO-1-2-MM-A3-0
 70
     1
 62
    -1
  6
CONTINUOUS
  0
LAYER
  2
LC-006-005-----0
 70
     0
 62
     2
  6
CONTINUOUS
  0
LAYER
  2
LC-010-003-MTH-0
 70
     0
 62
     2
  6
CONTINUOUS
  0
LAYER
  2
LC-011-003-MTG-0
 70
     0
 62
     2
  6
CONTINUOUS
  0
LAYER
  2
LC-009-003-----0
 70
     0
 62
     2
  6
CONTINUOUS
  0
LAYER
  2
LC-007-000-----0
 70
     0
 62
     7
  6
CONTINUOUS
  0
LAYER
  2
LC-008-000-----0
 70
     0
 62
     7
  6
CONTINUOUS
  0
LAYER
  2
LC-001-103-D00-1
 70
     0
 62
     1
  6
CONTINUOUS
  0
LAYER
  2
LC-002-002-----0
 70
     0
 62
     1
  6
CONTINUOUS
  0
LAYER
  2
LC-003-002-RND-0
 70
     0
 62
     1
  6
CONTINUOUS
  0
LAYER
  2
LC-004-001-RND-0
 70
     0
 62
     1
  6
CONTINUOUS
  0
LAYER
  2
LC-005-001-----0
 70
     0
 62
     1
  6
CONTINUOUS
  0
LAYER
  2
LC-000
 70
     0
 62
     7
  6
CONTINUOUS
  0
ENDTAB
  0
TABLE
  2
STYLE
 70
     4
  0
STYLE
  2
STANDARD
 70
     0
 40
0.0
 41
1.0
 50
0.0
 71
     0
 42
0.0
  3
txt
  4

  0
STYLE
  2
LC-STANDARD
 70
    64
 40
0.0
 41
1.0
 50
0.0
 71
     0
 42
3.5
  3
MONOTXT
  4

  0
STYLE
  2
LC-TXTSTYLE-150-400-0-0-A2
 70
    64
 40
0.0
 41
1.0
 50
15.0
 71
     0
 42
3.5
  3
MONOTXT
  4

  0
STYLE
  2
LC-TXTSTYLE-150-400-0-0-D3
 70
    64
 40
0.0
 41
1.0
 50
15.0
 71
     0
 42
3.5
  3
LC-STANDARD
  4

  0
ENDTAB
  0
TABLE
  2
VIEW
 70
     0
  0
ENDTAB
  0
TABLE
  2
UCS
 70
     0
  0
ENDTAB
  0
TABLE
  2
APPID
 70
     1
  0
APPID
  2
ACAD
 70
     0
  0
ENDTAB
  0
TABLE
  2
DIMSTYLE
 70
     3
  0
DIMSTYLE
  2
STANDARD
 70
     0
  3

  4

  5

  6

  7

 40
1.0
 41
0.18
 42
0.0625
 43
0.38
 44
0.18
 45
0.0
 46
0.0
 47
0.0
 48
0.0
 71
     0
 72
     0
 73
     1
 74
     1
 75
     0
 76
     0
 77
     0
 78
     0
140
0.18
141
0.09
142
0.0
143
25.4
144
1.0
145
0.0
146
1.0
147
0.09
170
     0
171
     2
172
     0
173
     0
174
     0
175
     0
176
     0
177
     0
178
     0
  0
DIMSTYLE
  2
LC-STANDARD
 70
     0
  3

  4

  5

  6

  7

 40
1.0
 41
3.5
 42
0.0
 43
7.5
 44
1.8
 45
0.0
 46
0.0
 47
0.0
 48
0.0
 71
     0
 72
     0
 73
     0
 74
     0
 75
     0
 76
     0
 77
     1
 78
     8
140
3.5
141
0.0
142
0.0
143
25.4
144
1.0
145
0.0
146
0.71
147
1.5
170
     0
171
     2
172
     1
173
     0
174
     0
175
     0
176
     0
177
     0
178
     3
  0
DIMSTYLE
  2
LC-DIM-L-0140-02-02
 70
     0
  3

  4

  5

  6

  7

 40
2.0
 41
3.5
 42
0.0
 43
7.5
 44
1.8
 45
0.0
 46
0.0
 47
0.0
 48
0.0
 71
     0
 72
     0
 73
     0
 74
     0
 75
     0
 76
     0
 77
     1
 78
     8
140
14.0
141
0.0
142
0.0
143
25.4
144
1.0
145
0.0
146
0.71
147
1.5
170
     0
171
     2
172
     0
173
     0
174
     0
175
     0
176
     2
177
     2
178
     8
  0
ENDTAB
  0
ENDSEC
  0
SECTION
  2
BLOCKS
  0
BLOCK
  8
0
  5
23
  2
*X0
 70
    65
 10
230.226383
 20
247.726578
 30
0.0
  3
*X0
  0
LINE
  8
LC-006-005-----0
  6
CONTINUOUS
  5
25
 10
244.898232
 20
247.726659
 30
0.0
 11
247.478819
 21
250.307246
 31
0.0
  0
LINE
  8
LC-006-005-----0
  6
CONTINUOUS
  5
26
 10
244.637671
 20
250.294525
 30
0.0
 11
247.721597
 21
253.378451
 31
0.0
  0
LINE
  8
LC-006-005-----0
  6
CONTINUOUS
  5
27
 10
244.637793
 20
253.123074
 30
0.0
 11
247.721719
 21
256.207
 31
0.0
  0
LINE
  8
LC-006-005-----0
  6
CONTINUOUS
  5
28
 10
244.637915
 20
255.951624
 30
0.0
 11
247.721841
 21
259.03555
 31
0.0
  0
LINE
  8
LC-006-005-----0
  6
CONTINUOUS
  5
29
 10
244.638038
 20
258.780173
 30
0.0
 11
247.721964
 21
261.864099
 31
0.0
  0
LINE
  8
LC-006-005-----0
  6
CONTINUOUS
  5
2A
 10
244.63816
 20
261.608723
 30
0.0
 11
247.722086
 21
264.692649
 31
0.0
  0
LINE
  8
LC-006-005-----0
  6
CONTINUOUS
  5
2B
 10
233.843581
 20
253.642571
 30
0.0
 11
234.450186
 21
254.249176
 31
0.0
  0
LINE
  8
LC-006-005-----0
  6
CONTINUOUS
  5
2C
 10
244.638282
 20
264.437272
 30
0.0
 11
247.722208
 21
267.521198
 31
0.0
  0
LINE
  8
LC-006-005-----0
  6
CONTINUOUS
  5
2D
 10
232.13038
 20
254.757797
 30
0.0
 11
235.221889
 21
257.849306
 31
0.0
  0
LINE
  8
LC-006-005-----0
  6
CONTINUOUS
  5
2E
 10
244.638405
 20
267.265822
 30
0.0
 11
247.722331
 21
270.349748
 31
0.0
  0
LINE
  8
LC-006-005-----0
  6
CONTINUOUS
  5
2F
 10
232.130508
 20
257.586352
 30
0.0
 11
235.222012
 21
260.677856
 31
0.0
  0
LINE
  8
LC-006-005-----0
  6
CONTINUOUS
  5
30
 10
244.638527
 20
270.094371
 30
0.0
 11
247.722453
 21
273.178297
 31
0.0
  0
LINE
  8
LC-006-005-----0
  6
CONTINUOUS
  5
31
 10
281.833245
 20
307.289089
 30
0.0
 11
289.593707
 21
315.049551
 31
0.0
  0
LINE
  8
LC-006-005-----0
  6
CONTINUOUS
  5
32
 10
232.130635
 20
260.414907
 30
0.0
 11
235.222135
 21
263.506406
 31
0.0
  0
LINE
  8
LC-006-005-----0
  6
CONTINUOUS
  5
33
 10
244.63865
 20
272.922921
 30
0.0
 11
247.722576
 21
276.006847
 31
0.0
  0
LINE
  8
LC-006-005-----0
  6
CONTINUOUS
  5
34
 10
278.443315
 20
306.727587
 30
0.0
 11
282.291892
 21
310.576164
 31
0.0
  0
LINE
  8
LC-006-005-----0
  6
CONTINUOUS
  5
35
 10
286.555625
 20
314.839896
 30
0.0
 11
290.15521
 21
318.439481
 31
0.0
  0
LINE
  8
LC-006-005-----0
  6
CONTINUOUS
  5
36
 10
232.130763
 20
263.243461
 30
0.0
 11
235.222258
 21
266.334957
 31
0.0
  0
LINE
  8
LC-006-005-----0
  6
CONTINUOUS
  5
37
 10
244.638772
 20
275.75147
 30
0.0
 11
247.722698
 21
278.835396
 31
0.0
  0
LINE
  8
LC-006-005-----0
  6
CONTINUOUS
  5
38
 10
275.612633
 20
306.725331
 30
0.0
 11
278.601754
 21
309.714452
 31
0.0
  0
LINE
  8
LC-006-005-----0
  6
CONTINUOUS
  5
39
 10
287.417336
 20
318.530034
 30
0.0
 11
290.157689
 21
321.270388
 31
0.0
  0
LINE
  8
LC-006-005-----0
  6
CONTINUOUS
  5
3A
 10
232.130891
 20
266.072016
 30
0.0
 11
235.222381
 21
269.163507
 31
0.0
  0
LINE
  8
LC-006-005-----0
  6
CONTINUOUS
  5
3B
 10
244.638894
 20
278.58002
 30
0.0
 11
247.72282
 21
281.663946
 31
0.0
  0
LINE
  8
LC-006-005-----0
  6
CONTINUOUS
  5
3C
 10
272.784328
 20
306.725454
 30
0.0
 11
275.772233
 21
309.713358
 31
0.0
  0
LINE
  8
LC-006-005-----0
  6
CONTINUOUS
  5
3D
 10
287.418662
 20
321.359788
 30
0.0
 11
290.157812
 21
324.098937
 31
0.0
  0
LINE
  8
LC-006-005-----0
  6
CONTINUOUS
  5
3E
 10
232.131018
 20
268.900571
 30
0.0
 11
235.222504
 21
271.992057
 31
0.0
  0
LINE
  8
LC-006-005-----0
  6
CONTINUOUS
  5
3F
 10
244.639017
 20
281.408569
 30
0.0
 11
247.722943
 21
284.492495
 31
0.0
  0
LINE
  8
LC-006-005-----0
  6
CONTINUOUS
  5
40
 10
269.956023
 20
306.725576
 30
0.0
 11
272.943928
 21
309.71348
 31
0.0
  0
LINE
  8
LC-006-005-----0
  6
CONTINUOUS
  5
41
 10
287.418785
 20
324.188337
 30
0.0
 11
290.157934
 21
326.927487
 31
0.0
  0
LINE
  8
LC-006-005-----0
  6
CONTINUOUS
  5
42
 10
232.131146
 20
271.729126
 30
0.0
 11
235.222628
 21
274.820607
 31
0.0
  0
LINE
  8
LC-006-005-----0
  6
CONTINUOUS
  5
43
 10
244.639139
 20
284.237119
 30
0.0
 11
247.723065
 21
287.321045
 31
0.0
  0
LINE
  8
LC-006-005-----0
  6
CONTINUOUS
  5
44
 10
267.127719
 20
306.725698
 30
0.0
 11
270.115623
 21
309.713603
 31
0.0
  0
LINE
  8
LC-006-005-----0
  6
CONTINUOUS
  5
45
 10
287.418907
 20
327.016887
 30
0.0
 11
290.158056
 21
329.756036
 31
0.0
  0
LINE
  8
LC-006-005-----0
  6
CONTINUOUS
  5
46
 10
232.131274
 20
274.557681
 30
0.0
 11
235.222751
 21
277.649158
 31
0.0
  0
LINE
  8
LC-006-005-----0
  6
CONTINUOUS
  5
47
 10
244.639262
 20
287.065668
 30
0.0
 11
247.723188
 21
290.149594
 31
0.0
  0
LINE
  8
LC-006-005-----0
  6
CONTINUOUS
  5
48
 10
264.299414
 20
306.725821
 30
0.0
 11
267.287318
 21
309.713725
 31
0.0
  0
LINE
  8
LC-006-005-----0
  6
CONTINUOUS
  5
49
 10
287.419029
 20
329.845436
 30
0.0
 11
290.158179
 21
332.584586
 31
0.0
  0
LINE
  8
LC-006-005-----0
  6
CONTINUOUS
  5
4A
 10
232.131401
 20
277.386235
 30
0.0
 11
235.222874
 21
280.477708
 31
0.0
  0
LINE
  8
LC-006-005-----0
  6
CONTINUOUS
  5
4B
 10
244.639384
 20
289.894218
 30
0.0
 11
247.72331
 21
292.978144
 31
0.0
  0
LINE
  8
LC-006-005-----0
  6
CONTINUOUS
  5
4C
 10
261.471109
 20
306.725943
 30
0.0
 11
264.459013
 21
309.713847
 31
0.0
  0
LINE
  8
LC-006-005-----0
  6
CONTINUOUS
  5
4D
 10
287.419152
 20
332.673986
 30
0.0
 11
290.158301
 21
335.413135
 31
0.0
  0
LINE
  8
LC-006-005-----0
  6
CONTINUOUS
  5
4E
 10
232.131529
 20
280.21479
 30
0.0
 11
235.222997
 21
283.306258
 31
0.0
  0
LINE
  8
LC-006-005-----0
  6
CONTINUOUS
  5
4F
 10
244.639506
 20
292.722767
 30
0.0
 11
247.723432
 21
295.806693
 31
0.0
  0
LINE
  8
LC-006-005-----0
  6
CONTINUOUS
  5
50
 10
258.642804
 20
306.726065
 30
0.0
 11
261.630709
 21
309.71397
 31
0.0
  0
LINE
  8
LC-006-005-----0
  6
CONTINUOUS
  5
51
 10
287.419274
 20
335.502535
 30
0.0
 11
290.158423
 21
338.241685
 31
0.0
  0
LINE
  8
LC-006-005-----0
  6
CONTINUOUS
  5
52
 10
232.131657
 20
283.043345
 30
0.0
 11
235.22312
 21
286.134808
 31
0.0
  0
LINE
  8
LC-006-005-----0
  6
CONTINUOUS
  5
53
 10
244.639629
 20
295.551317
 30
0.0
 11
247.723555
 21
298.635243
 31
0.0
  0
LINE
  8
LC-006-005-----0
  6
CONTINUOUS
  5
54
 10
255.8145
 20
306.726188
 30
0.0
 11
258.802404
 21
309.714092
 31
0.0
  0
LINE
  8
LC-006-005-----0
  6
CONTINUOUS
  5
55
 10
287.419397
 20
338.331085
 30
0.0
 11
290.158546
 21
341.070234
 31
0.0
  0
LINE
  8
LC-006-005-----0
  6
CONTINUOUS
  5
56
 10
232.131784
 20
285.8719
 30
0.0
 11
235.223243
 21
288.963358
 31
0.0
  0
LINE
  8
LC-006-005-----0
  6
CONTINUOUS
  5
57
 10
244.639751
 20
298.379866
 30
0.0
 11
247.723677
 21
301.463792
 31
0.0
  0
LINE
  8
LC-006-005-----0
  6
CONTINUOUS
  5
58
 10
252.986195
 20
306.72631
 30
0.0
 11
255.974099
 21
309.714214
 31
0.0
  0
LINE
  8
LC-006-005-----0
  6
CONTINUOUS
  5
59
 10
287.419519
 20
341.159634
 30
0.0
 11
290.158668
 21
343.898784
 31
0.0
  0
LINE
  8
LC-006-005-----0
  6
CONTINUOUS
  5
5A
 10
232.131912
 20
288.700454
 30
0.0
 11
235.223366
 21
291.791909
 31
0.0
  0
LINE
  8
LC-006-005-----0
  6
CONTINUOUS
  5
5B
 10
244.639873
 20
301.208416
 30
0.0
 11
247.723799
 21
304.292342
 31
0.0
  0
LINE
  8
LC-006-005-----0
  6
CONTINUOUS
  5
5C
 10
250.15789
 20
306.726432
 30
0.0
 11
253.145794
 21
309.714337
 31
0.0
  0
LINE
  8
LC-006-005-----0
  6
CONTINUOUS
  5
5D
 10
287.419641
 20
343.988184
 30
0.0
 11
290.158791
 21
346.727333
 31
0.0
  0
LINE
  8
LC-006-005-----0
  6
CONTINUOUS
  5
5E
 10
359.904959
 20
416.473502
 30
0.0
 11
360.383058
 21
416.951601
 31
0.0
  0
LINE
  8
LC-006-005-----0
  6
CONTINUOUS
  5
5F
 10
232.13204
 20
291.529009
 30
0.0
 11
235.223489
 21
294.620459
 31
0.0
  0
LINE
  8
LC-006-005-----0
  6
CONTINUOUS
  5
60
 10
244.639996
 20
304.036965
 30
0.0
 11
250.31749
 21
309.714459
 31
0.0
  0
LINE
  8
LC-006-005-----0
  6
CONTINUOUS
  5
61
 10
287.419764
 20
346.816733
 30
0.0
 11
290.158913
 21
349.555883
 31
0.0
  0
LINE
  8
LC-006-005-----0
  6
CONTINUOUS
  5
62
 10
356.864021
 20
416.260991
 30
0.0
 11
359.570199
 21
418.967168
 31
0.0
  0
LINE
  8
LC-006-005-----0
  6
CONTINUOUS
  5
63
 10
232.132167
 20
294.357564
 30
0.0
 11
235.223612
 21
297.449009
 31
0.0
  0
LINE
  8
LC-006-005-----0
  6
CONTINUOUS
  5
64
 10
244.554146
 20
306.779542
 30
0.0
 11
247.489185
 21
309.714582
 31
0.0
  0
LINE
  8
LC-006-005-----0
  6
CONTINUOUS
  5
65
 10
287.419886
 20
349.645283
 30
0.0
 11
290.159035
 21
352.384432
 31
0.0
  0
LINE
  8
LC-006-005-----0
  6
CONTINUOUS
  5
66
 10
353.823084
 20
416.04848
 30
0.0
 11
357.043455
 21
419.268852
 31
0.0
  0
LINE
  8
LC-006-005-----0
  6
CONTINUOUS
  5
67
 10
232.132295
 20
297.186119
 30
0.0
 11
235.223735
 21
300.277559
 31
0.0
  0
LINE
  8
LC-006-005-----0
  6
CONTINUOUS
  5
68
 10
241.725841
 20
306.779665
 30
0.0
 11
244.66088
 21
309.714704
 31
0.0
  0
LINE
  8
LC-006-005-----0
  6
CONTINUOUS
  5
69
 10
287.420008
 20
352.473832
 30
0.0
 11
290.159158
 21
355.212982
 31
0.0
  0
LINE
  8
LC-006-005-----0
  6
CONTINUOUS
  5
6A
 10
350.782146
 20
415.83597
 30
0.0
 11
354.002517
 21
419.056341
 31
0.0
  0
LINE
  8
LC-006-005-----0
  6
CONTINUOUS
  5
6B
 10
232.132422
 20
300.014673
 30
0.0
 11
235.223858
 21
303.106109
 31
0.0
  0
LINE
  8
LC-006-005-----0
  6
CONTINUOUS
  5
6C
 10
240.53749
 20
308.419741
 30
0.0
 11
242.18556
 21
310.067811
 31
0.0
  0
LINE
  8
LC-006-005-----0
  6
CONTINUOUS
  5
6D
 10
287.420131
 20
355.302382
 30
0.0
 11
290.15928
 21
358.041531
 31
0.0
  0
LINE
  8
LC-006-005-----0
  6
CONTINUOUS
  5
6E
 10
347.741208
 20
415.623459
 30
0.0
 11
350.961579
 21
418.84383
 31
0.0
  0
LINE
  8
LC-006-005-----0
  6
CONTINUOUS
  5
6F
 10
232.13255
 20
302.843228
 30
0.0
 11
235.223981
 21
305.93466
 31
0.0
  0
LINE
  8
LC-006-005-----0
  6
CONTINUOUS
  5
70
 10
236.917166
 20
307.627844
 30
0.0
 11
240.838279
 21
311.548957
 31
0.0
  0
LINE
  8
LC-006-005-----0
  6
CONTINUOUS
  5
71
 10
287.420253
 20
358.130931
 30
0.0
 11
290.159402
 21
360.87008
 31
0.0
  0
LINE
  8
LC-006-005-----0
  6
CONTINUOUS
  5
72
 10
344.70027
 20
415.410948
 30
0.0
 11
347.920642
 21
418.63132
 31
0.0
  0
LINE
  8
LC-006-005-----0
  6
CONTINUOUS
  5
73
 10
232.132678
 20
305.671783
 30
0.0
 11
240.606576
 21
314.145681
 31
0.0
  0
LINE
  8
LC-006-005-----0
  6
CONTINUOUS
  5
74
 10
287.420375
 20
360.959481
 30
0.0
 11
290.159525
 21
363.69863
 31
0.0
  0
LINE
  8
LC-006-005-----0
  6
CONTINUOUS
  5
75
 10
341.659332
 20
415.198438
 30
0.0
 11
344.879704
 21
418.418809
 31
0.0
  0
LINE
  8
LC-006-005-----0
  6
CONTINUOUS
  5
76
 10
230.226421
 20
306.593953
 30
0.0
 11
232.725517
 21
309.09305
 31
0.0
  0
LINE
  8
LC-006-005-----0
  6
CONTINUOUS
  5
77
 10
237.657085
 20
314.024617
 30
0.0
 11
240.6067
 21
316.974232
 31
0.0
  0
LINE
  8
LC-006-005-----0
  6
CONTINUOUS
  5
78
 10
287.420498
 20
363.78803
 30
0.0
 11
290.159647
 21
366.527179
 31
0.0
  0
LINE
  8
LC-006-005-----0
  6
CONTINUOUS
  5
79
 10
338.618395
 20
414.985927
 30
0.0
 11
341.838766
 21
418.206298
 31
0.0
  0
LINE
  8
LC-006-005-----0
  6
CONTINUOUS
  5
7A
 10
237.684063
 20
316.880022
 30
0.0
 11
240.606824
 21
319.802784
 31
0.0
  0
LINE
  8
LC-006-005-----0
  6
CONTINUOUS
  5
7B
 10
287.42062
 20
366.61658
 30
0.0
 11
290.159769
 21
369.355729
 31
0.0
  0
LINE
  8
LC-006-005-----0
  6
CONTINUOUS
  5
7C
 10
335.577457
 20
414.773416
 30
0.0
 11
338.797828
 21
417.993788
 31
0.0
  0
LINE
  8
LC-006-005-----0
  6
CONTINUOUS
  5
7D
 10
237.711041
 20
319.735427
 30
0.0
 11
240.606949
 21
322.631335
 31
0.0
  0
LINE
  8
LC-006-005-----0
  6
CONTINUOUS
  5
7E
 10
287.420742
 20
369.445129
 30
0.0
 11
290.159892
 21
372.184278
 31
0.0
  0
LINE
  8
LC-006-005-----0
  6
CONTINUOUS
  5
7F
 10
332.536519
 20
414.560906
 30
0.0
 11
335.75689
 21
417.781277
 31
0.0
  0
LINE
  8
LC-006-005-----0
  6
CONTINUOUS
  5
80
 10
237.738019
 20
322.590832
 30
0.0
 11
240.607073
 21
325.459887
 31
0.0
  0
LINE
  8
LC-006-005-----0
  6
CONTINUOUS
  5
81
 10
287.420865
 20
372.273679
 30
0.0
 11
290.160014
 21
375.012828
 31
0.0
  0
LINE
  8
LC-006-005-----0
  6
CONTINUOUS
  5
82
 10
329.495581
 20
414.348395
 30
0.0
 11
332.715952
 21
417.568766
 31
0.0
  0
LINE
  8
LC-006-005-----0
  6
CONTINUOUS
  5
83
 10
237.764997
 20
325.446237
 30
0.0
 11
240.607197
 21
328.288438
 31
0.0
  0
LINE
  8
LC-006-005-----0
  6
CONTINUOUS
  5
84
 10
287.420987
 20
375.102228
 30
0.0
 11
290.160136
 21
377.841377
 31
0.0
  0
LINE
  8
LC-006-005-----0
  6
CONTINUOUS
  5
85
 10
326.04927
 20
413.73051
 30
0.0
 11
329.675014
 21
417.356255
 31
0.0
  0
LINE
  8
LC-006-005-----0
  6
CONTINUOUS
  5
86
 10
237.791975
 20
328.301642
 30
0.0
 11
240.607321
 21
331.116989
 31
0.0
  0
LINE
  8
LC-006-005-----0
  6
CONTINUOUS
  5
87
 10
287.42111
 20
377.930778
 30
0.0
 11
290.160259
 21
380.669927
 31
0.0
  0
LINE
  8
LC-006-005-----0
  6
CONTINUOUS
  5
88
 10
321.337623
 20
411.847291
 30
0.0
 11
326.634077
 21
417.143745
 31
0.0
  0
LINE
  8
LC-006-005-----0
  6
CONTINUOUS
  5
89
 10
237.818952
 20
331.157048
 30
0.0
 11
240.607446
 21
333.945541
 31
0.0
  0
LINE
  8
LC-006-005-----0
  6
CONTINUOUS
  5
8A
 10
287.421232
 20
380.759327
 30
0.0
 11
295.419284
 21
388.757379
 31
0.0
  0
LINE
  8
LC-006-005-----0
  6
CONTINUOUS
  5
8B
 10
318.278066
 20
411.616161
 30
0.0
 11
322.247588
 21
415.585683
 31
0.0
  0
LINE
  8
LC-006-005-----0
  6
CONTINUOUS
  5
8C
 10
237.84593
 20
334.012453
 30
0.0
 11
240.60757
 21
336.774092
 31
0.0
  0
LINE
  8
LC-006-005-----0
  6
CONTINUOUS
  5
8D
 10
287.421354
 20
383.587877
 30
0.0
 11
299.374006
 21
395.540528
 31
0.0
  0
LINE
  8
LC-006-005-----0
  6
CONTINUOUS
  5
8E
 10
315.223897
 20
411.390419
 30
0.0
 11
318.46452
 21
414.631043
 31
0.0
  0
LINE
  8
LC-006-005-----0
  6
CONTINUOUS
  5
8F
 10
237.872908
 20
336.867858
 30
0.0
 11
240.607694
 21
339.602644
 31
0.0
  0
LINE
  8
LC-006-005-----0
  6
CONTINUOUS
  5
90
 10
287.969306
 20
386.964256
 30
0.0
 11
294.413971
 21
393.40892
 31
0.0
  0
LINE
  8
LC-006-005-----0
  6
CONTINUOUS
  5
91
 10
296.634979
 20
395.629928
 30
0.0
 11
299.374128
 21
398.369077
 31
0.0
  0
LINE
  8
LC-006-005-----0
  6
CONTINUOUS
  5
92
 10
312.169728
 20
411.164677
 30
0.0
 11
315.412559
 21
414.407509
 31
0.0
  0
LINE
  8
LC-006-005-----0
  6
CONTINUOUS
  5
93
 10
237.899886
 20
339.723263
 30
0.0
 11
240.607818
 21
342.431195
 31
0.0
  0
LINE
  8
LC-006-005-----0
  6
CONTINUOUS
  5
94
 10
287.969429
 20
389.792805
 30
0.0
 11
291.585666
 21
393.409043
 31
0.0
  0
LINE
  8
LC-006-005-----0
  6
CONTINUOUS
  5
95
 10
296.635101
 20
398.458478
 30
0.0
 11
299.854196
 21
401.677573
 31
0.0
  0
LINE
  8
LC-006-005-----0
  6
CONTINUOUS
  5
96
 10
300.069363
 20
401.892739
 30
0.0
 11
304.694384
 21
406.51776
 31
0.0
  0
LINE
  8
LC-006-005-----0
  6
CONTINUOUS
  5
97
 10
309.115559
 20
410.938935
 30
0.0
 11
312.360598
 21
414.183974
 31
0.0
  0
LINE
  8
LC-006-005-----0
  6
CONTINUOUS
  5
98
 10
237.926864
 20
342.578668
 30
0.0
 11
240.607943
 21
345.259746
 31
0.0
  0
LINE
  8
LC-006-005-----0
  6
CONTINUOUS
  5
99
 10
286.973497
 20
391.625301
 30
0.0
 11
287.960587
 21
392.61239
 31
0.0
  0
LINE
  8
LC-006-005-----0
  6
CONTINUOUS
  5
9A
 10
287.969602
 20
392.621406
 30
0.0
 11
288.75731
 21
393.409113
 31
0.0
  0
LINE
  8
LC-006-005-----0
  6
CONTINUOUS
  5
9B
 10
296.635224
 20
401.287027
 30
0.0
 11
300.210995
 21
404.862798
 31
0.0
  0
LINE
  8
LC-006-005-----0
  6
CONTINUOUS
  5
9C
 10
301.69318
 20
406.344983
 30
0.0
 11
304.865932
 21
409.517736
 31
0.0
  0
LINE
  8
LC-006-005-----0
  6
CONTINUOUS
  5
9D
 10
306.050425
 20
410.702229
 30
0.0
 11
309.308637
 21
413.96044
 31
0.0
  0
LINE
  8
LC-006-005-----0
  6
CONTINUOUS
  5
9E
 10
237.953842
 20
345.434073
 30
0.0
 11
240.608067
 21
348.088298
 31
0.0
  0
LINE
  8
LC-006-005-----0
  6
CONTINUOUS
  5
9F
 10
296.635346
 20
404.115577
 30
0.0
 11
298.626079
 21
406.106309
 31
0.0
  0
LINE
  8
LC-006-005-----0
  6
CONTINUOUS
  5
A0
 10
301.849746
 20
409.329977
 30
0.0
 11
306.256676
 21
413.736906
 31
0.0
  0
LINE
  8
LC-006-005-----0
  6
CONTINUOUS
  5
A1
 10
237.98082
 20
348.289478
 30
0.0
 11
240.608191
 21
350.916849
 31
0.0
  0
LINE
  8
LC-006-005-----0
  6
CONTINUOUS
  5
A2
 10
296.635468
 20
406.944126
 30
0.0
 11
298.626201
 21
408.934859
 31
0.0
  0
LINE
  8
LC-006-005-----0
  6
CONTINUOUS
  5
A3
 10
302.006312
 20
412.31497
 30
0.0
 11
303.204714
 21
413.513372
 31
0.0
  0
LINE
  8
LC-006-005-----0
  6
CONTINUOUS
  5
A4
 10
238.007798
 20
351.144883
 30
0.0
 11
240.608316
 21
353.745401
 31
0.0
  0
LINE
  8
LC-006-005-----0
  6
CONTINUOUS
  5
A5
 10
296.635591
 20
409.772676
 30
0.0
 11
297.701889
 21
410.838974
 31
0.0
  0
LINE
  8
LC-006-005-----0
  6
CONTINUOUS
  5
A6
 10
238.034775
 20
354.000288
 30
0.0
 11
240.60844
 21
356.573952
 31
0.0
  0
LINE
  8
LC-006-005-----0
  6
CONTINUOUS
  5
A7
 10
238.061753
 20
356.855693
 30
0.0
 11
240.608564
 21
359.402503
 31
0.0
  0
LINE
  8
LC-006-005-----0
  6
CONTINUOUS
  5
A8
 10
238.088731
 20
359.711098
 30
0.0
 11
240.608688
 21
362.231055
 31
0.0
  0
LINE
  8
LC-006-005-----0
  6
CONTINUOUS
  5
A9
 10
238.115709
 20
362.566503
 30
0.0
 11
240.608813
 21
365.059606
 31
0.0
  0
LINE
  8
LC-006-005-----0
  6
CONTINUOUS
  5
AA
 10
238.142687
 20
365.421908
 30
0.0
 11
240.608937
 21
367.888158
 31
0.0
  0
LINE
  8
LC-006-005-----0
  6
CONTINUOUS
  5
AB
 10
238.169665
 20
368.277313
 30
0.0
 11
240.609061
 21
370.716709
 31
0.0
  0
LINE
  8
LC-006-005-----0
  6
CONTINUOUS
  5
AC
 10
238.196643
 20
371.132718
 30
0.0
 11
240.609185
 21
373.54526
 31
0.0
  0
LINE
  8
LC-006-005-----0
  6
CONTINUOUS
  5
AD
 10
238.223621
 20
373.988123
 30
0.0
 11
240.60931
 21
376.373812
 31
0.0
  0
LINE
  8
LC-006-005-----0
  6
CONTINUOUS
  5
AE
 10
237.750267
 20
376.343196
 30
0.0
 11
239.122014
 21
377.714944
 31
0.0
  0
ENDBLK
  8
0
  5
AF
  0
BLOCK
  8
0
  5
B1
  2
*X1
 70
    65
 10
60.074636
 20
247.728159
 30
0.0
  3
*X1
  0
LINE
  8
LC-006-005-----0
  6
CONTINUOUS
  5
B2
 10
186.078133
 20
253.960384
 30
0.0
 11
188.320295
 21
256.202546
 31
0.0
  0
LINE
  8
LC-006-005-----0
  6
CONTINUOUS
  5
B3
 10
185.480409
 20
256.191087
 30
0.0
 11
188.32029
 21
259.030968
 31
0.0
  0
LINE
  8
LC-006-005-----0
  6
CONTINUOUS
  5
B4
 10
174.189054
 20
247.728159
 30
0.0
 11
175.812814
 21
249.35192
 31
0.0
  0
LINE
  8
LC-006-005-----0
  6
CONTINUOUS
  5
B5
 10
185.228922
 20
258.768028
 30
0.0
 11
188.320284
 21
261.85939
 31
0.0
  0
LINE
  8
LC-006-005-----0
  6
CONTINUOUS
  5
B6
 10
173.176588
 20
249.54412
 30
0.0
 11
175.812814
 21
252.180347
 31
0.0
  0
LINE
  8
LC-006-005-----0
  6
CONTINUOUS
  5
B7
 10
185.228922
 20
261.596454
 30
0.0
 11
188.320279
 21
264.687812
 31
0.0
  0
LINE
  8
LC-006-005-----0
  6
CONTINUOUS
  5
B8
 10
172.729022
 20
251.924981
 30
0.0
 11
175.812814
 21
255.008774
 31
0.0
  0
LINE
  8
LC-006-005-----0
  6
CONTINUOUS
  5
B9
 10
185.228921
 20
264.42488
 30
0.0
 11
188.320274
 21
267.516233
 31
0.0
  0
LINE
  8
LC-006-005-----0
  6
CONTINUOUS
  5
BA
 10
172.729022
 20
254.753408
 30
0.0
 11
175.812814
 21
257.837201
 31
0.0
  0
LINE
  8
LC-006-005-----0
  6
CONTINUOUS
  5
BB
 10
185.22892
 20
267.253307
 30
0.0
 11
188.320269
 21
270.344655
 31
0.0
  0
LINE
  8
LC-006-005-----0
  6
CONTINUOUS
  5
BC
 10
172.729022
 20
257.581835
 30
0.0
 11
175.812814
 21
260.665628
 31
0.0
  0
LINE
  8
LC-006-005-----0
  6
CONTINUOUS
  5
BD
 10
185.228919
 20
270.081733
 30
0.0
 11
188.320263
 21
273.173077
 31
0.0
  0
LINE
  8
LC-006-005-----0
  6
CONTINUOUS
  5
BE
 10
172.729022
 20
260.410263
 30
0.0
 11
175.812814
 21
263.494055
 31
0.0
  0
LINE
  8
LC-006-005-----0
  6
CONTINUOUS
  5
BF
 10
185.228919
 20
272.91016
 30
0.0
 11
188.320258
 21
276.001499
 31
0.0
  0
LINE
  8
LC-006-005-----0
  6
CONTINUOUS
  5
C0
 10
172.729022
 20
263.23869
 30
0.0
 11
175.812814
 21
266.322482
 31
0.0
  0
LINE
  8
LC-006-005-----0
  6
CONTINUOUS
  5
C1
 10
185.228918
 20
275.738586
 30
0.0
 11
188.320253
 21
278.829921
 31
0.0
  0
LINE
  8
LC-006-005-----0
  6
CONTINUOUS
  5
C2
 10
172.729022
 20
266.067117
 30
0.0
 11
175.812814
 21
269.150909
 31
0.0
  0
LINE
  8
LC-006-005-----0
  6
CONTINUOUS
  5
C3
 10
185.228917
 20
278.567012
 30
0.0
 11
188.320247
 21
281.658343
 31
0.0
  0
LINE
  8
LC-006-005-----0
  6
CONTINUOUS
  5
C4
 10
172.729022
 20
268.895544
 30
0.0
 11
175.812814
 21
271.979336
 31
0.0
  0
LINE
  8
LC-006-005-----0
  6
CONTINUOUS
  5
C5
 10
185.228917
 20
281.395439
 30
0.0
 11
188.320242
 21
284.486764
 31
0.0
  0
LINE
  8
LC-006-005-----0
  6
CONTINUOUS
  5
C6
 10
172.729022
 20
271.723971
 30
0.0
 11
175.812814
 21
274.807763
 31
0.0
  0
LINE
  8
LC-006-005-----0
  6
CONTINUOUS
  5
C7
 10
185.228916
 20
284.223865
 30
0.0
 11
188.320237
 21
287.315186
 31
0.0
  0
LINE
  8
LC-006-005-----0
  6
CONTINUOUS
  5
C8
 10
172.729022
 20
274.552398
 30
0.0
 11
175.812814
 21
277.636191
 31
0.0
  0
LINE
  8
LC-006-005-----0
  6
CONTINUOUS
  5
C9
 10
185.228915
 20
287.052292
 30
0.0
 11
188.320232
 21
290.143608
 31
0.0
  0
LINE
  8
LC-006-005-----0
  6
CONTINUOUS
  5
CA
 10
172.729021
 20
277.380825
 30
0.0
 11
175.812814
 21
280.464618
 31
0.0
  0
LINE
  8
LC-006-005-----0
  6
CONTINUOUS
  5
CB
 10
185.228914
 20
289.880718
 30
0.0
 11
188.320226
 21
292.97203
 31
0.0
  0
LINE
  8
LC-006-005-----0
  6
CONTINUOUS
  5
CC
 10
172.729021
 20
280.209252
 30
0.0
 11
175.812814
 21
283.293045
 31
0.0
  0
LINE
  8
LC-006-005-----0
  6
CONTINUOUS
  5
CD
 10
185.228914
 20
292.709144
 30
0.0
 11
188.320221
 21
295.800452
 31
0.0
  0
LINE
  8
LC-006-005-----0
  6
CONTINUOUS
  5
CE
 10
172.729021
 20
283.037679
 30
0.0
 11
175.812814
 21
286.121472
 31
0.0
  0
LINE
  8
LC-006-005-----0
  6
CONTINUOUS
  5
CF
 10
185.228913
 20
295.537571
 30
0.0
 11
188.320216
 21
298.628874
 31
0.0
  0
LINE
  8
LC-006-005-----0
  6
CONTINUOUS
  5
D0
 10
172.729021
 20
285.866106
 30
0.0
 11
175.812814
 21
288.949899
 31
0.0
  0
LINE
  8
LC-006-005-----0
  6
CONTINUOUS
  5
D1
 10
185.228912
 20
298.365997
 30
0.0
 11
188.32021
 21
301.457295
 31
0.0
  0
LINE
  8
LC-006-005-----0
  6
CONTINUOUS
  5
D2
 10
172.729021
 20
288.694533
 30
0.0
 11
175.812814
 21
291.778326
 31
0.0
  0
LINE
  8
LC-006-005-----0
  6
CONTINUOUS
  5
D3
 10
185.228911
 20
301.194424
 30
0.0
 11
188.320205
 21
304.285717
 31
0.0
  0
LINE
  8
LC-006-005-----0
  6
CONTINUOUS
  5
D4
 10
189.750668
 20
305.71618
 30
0.0
 11
190.2265
 21
306.192012
 31
0.0
  0
LINE
  8
LC-006-005-----0
  6
CONTINUOUS
  5
D5
 10
172.729021
 20
291.522961
 30
0.0
 11
175.812814
 21
294.606753
 31
0.0
  0
LINE
  8
LC-006-005-----0
  6
CONTINUOUS
  5
D6
 10
185.228911
 20
304.02285
 30
0.0
 11
189.756435
 21
308.550374
 31
0.0
  0
LINE
  8
LC-006-005-----0
  6
CONTINUOUS
  5
D7
 10
172.729021
 20
294.351388
 30
0.0
 11
175.812814
 21
297.43518
 31
0.0
  0
LINE
  8
LC-006-005-----0
  6
CONTINUOUS
  5
D8
 10
185.22891
 20
306.851276
 30
0.0
 11
187.525725
 21
309.148091
 31
0.0
  0
LINE
  8
LC-006-005-----0
  6
CONTINUOUS
  5
D9
 10
172.729021
 20
297.179815
 30
0.0
 11
175.812814
 21
300.263607
 31
0.0
  0
LINE
  8
LC-006-005-----0
  6
CONTINUOUS
  5
DA
 10
183.253773
 20
307.704567
 30
0.0
 11
185.295015
 21
309.745808
 31
0.0
  0
LINE
  8
LC-006-005-----0
  6
CONTINUOUS
  5
DB
 10
172.729021
 20
300.008242
 30
0.0
 11
175.812814
 21
303.092034
 31
0.0
  0
LINE
  8
LC-006-005-----0
  6
CONTINUOUS
  5
DC
 10
181.442186
 20
308.721407
 30
0.0
 11
183.507414
 21
310.786635
 31
0.0
  0
LINE
  8
LC-006-005-----0
  6
CONTINUOUS
  5
DD
 10
172.729021
 20
302.836669
 30
0.0
 11
175.812814
 21
305.920461
 31
0.0
  0
LINE
  8
LC-006-005-----0
  6
CONTINUOUS
  5
DE
 10
176.67338
 20
306.781027
 30
0.0
 11
182.80661
 21
312.914258
 31
0.0
  0
LINE
  8
LC-006-005-----0
  6
CONTINUOUS
  5
DF
 10
172.729021
 20
305.665096
 30
0.0
 11
176.780119
 21
309.716193
 31
0.0
  0
LINE
  8
LC-006-005-----0
  6
CONTINUOUS
  5
E0
 10
179.846672
 20
312.782747
 30
0.0
 11
182.780258
 21
315.716332
 31
0.0
  0
LINE
  8
LC-006-005-----0
  6
CONTINUOUS
  5
E1
 10
170.963658
 20
306.72816
 30
0.0
 11
173.951691
 21
309.716193
 31
0.0
  0
LINE
  8
LC-006-005-----0
  6
CONTINUOUS
  5
E2
 10
179.84667
 20
315.611172
 30
0.0
 11
182.753905
 21
318.518407
 31
0.0
  0
LINE
  8
LC-006-005-----0
  6
CONTINUOUS
  5
E3
 10
168.135231
 20
306.72816
 30
0.0
 11
171.123264
 21
309.716193
 31
0.0
  0
LINE
  8
LC-006-005-----0
  6
CONTINUOUS
  5
E4
 10
179.846668
 20
318.439597
 30
0.0
 11
182.727552
 21
321.320481
 31
0.0
  0
LINE
  8
LC-006-005-----0
  6
CONTINUOUS
  5
E5
 10
165.306804
 20
306.72816
 30
0.0
 11
168.294837
 21
309.716193
 31
0.0
  0
LINE
  8
LC-006-005-----0
  6
CONTINUOUS
  5
E6
 10
179.846666
 20
321.268023
 30
0.0
 11
182.701199
 21
324.122555
 31
0.0
  0
LINE
  8
LC-006-005-----0
  6
CONTINUOUS
  5
E7
 10
162.478376
 20
306.72816
 30
0.0
 11
165.46641
 21
309.716193
 31
0.0
  0
LINE
  8
LC-006-005-----0
  6
CONTINUOUS
  5
E8
 10
179.846664
 20
324.096448
 30
0.0
 11
182.674846
 21
326.92463
 31
0.0
  0
LINE
  8
LC-006-005-----0
  6
CONTINUOUS
  5
E9
 10
159.649949
 20
306.72816
 30
0.0
 11
162.637983
 21
309.716193
 31
0.0
  0
LINE
  8
LC-006-005-----0
  6
CONTINUOUS
  5
EA
 10
179.846663
 20
326.924873
 30
0.0
 11
182.648494
 21
329.726704
 31
0.0
  0
LINE
  8
LC-006-005-----0
  6
CONTINUOUS
  5
EB
 10
156.821522
 20
306.72816
 30
0.0
 11
159.809556
 21
309.716193
 31
0.0
  0
LINE
  8
LC-006-005-----0
  6
CONTINUOUS
  5
EC
 10
179.846661
 20
329.753298
 30
0.0
 11
182.622141
 21
332.528778
 31
0.0
  0
LINE
  8
LC-006-005-----0
  6
CONTINUOUS
  5
ED
 10
153.993095
 20
306.72816
 30
0.0
 11
156.981129
 21
309.716193
 31
0.0
  0
LINE
  8
LC-006-005-----0
  6
CONTINUOUS
  5
EE
 10
179.846659
 20
332.581723
 30
0.0
 11
182.595788
 21
335.330853
 31
0.0
  0
LINE
  8
LC-006-005-----0
  6
CONTINUOUS
  5
EF
 10
151.164668
 20
306.72816
 30
0.0
 11
154.152702
 21
309.716193
 31
0.0
  0
LINE
  8
LC-006-005-----0
  6
CONTINUOUS
  5
F0
 10
179.846657
 20
335.410149
 30
0.0
 11
182.569435
 21
338.132927
 31
0.0
  0
LINE
  8
LC-006-005-----0
  6
CONTINUOUS
  5
F1
 10
148.336241
 20
306.72816
 30
0.0
 11
151.324274
 21
309.716193
 31
0.0
  0
LINE
  8
LC-006-005-----0
  6
CONTINUOUS
  5
F2
 10
179.846655
 20
338.238574
 30
0.0
 11
182.543082
 21
340.935001
 31
0.0
  0
LINE
  8
LC-006-005-----0
  6
CONTINUOUS
  5
F3
 10
145.507814
 20
306.72816
 30
0.0
 11
148.495847
 21
309.716193
 31
0.0
  0
LINE
  8
LC-006-005-----0
  6
CONTINUOUS
  5
F4
 10
179.846653
 20
341.066999
 30
0.0
 11
182.51673
 21
343.737076
 31
0.0
  0
LINE
  8
LC-006-005-----0
  6
CONTINUOUS
  5
F5
 10
142.679387
 20
306.72816
 30
0.0
 11
145.66742
 21
309.716193
 31
0.0
  0
LINE
  8
LC-006-005-----0
  6
CONTINUOUS
  5
F6
 10
179.846651
 20
343.895424
 30
0.0
 11
182.490377
 21
346.53915
 31
0.0
  0
LINE
  8
LC-006-005-----0
  6
CONTINUOUS
  5
F7
 10
140.054048
 20
306.931248
 30
0.0
 11
142.838993
 21
309.716193
 31
0.0
  0
LINE
  8
LC-006-005-----0
  6
CONTINUOUS
  5
F8
 10
179.846649
 20
346.723849
 30
0.0
 11
182.464024
 21
349.341224
 31
0.0
  0
LINE
  8
LC-006-005-----0
  6
CONTINUOUS
  5
F9
 10
137.857963
 20
307.563591
 30
0.0
 11
140.194143
 21
309.89977
 31
0.0
  0
LINE
  8
LC-006-005-----0
  6
CONTINUOUS
  5
FA
 10
179.846647
 20
349.552275
 30
0.0
 11
182.437671
 21
352.143299
 31
0.0
  0
LINE
  8
LC-006-005-----0
  6
CONTINUOUS
  5
FB
 10
135.973514
 20
308.507569
 30
0.0
 11
138.082823
 21
310.616878
 31
0.0
  0
LINE
  8
LC-006-005-----0
  6
CONTINUOUS
  5
FC
 10
179.846645
 20
352.3807
 30
0.0
 11
182.411318
 21
354.945373
 31
0.0
  0
LINE
  8
LC-006-005-----0
  6
CONTINUOUS
  5
FD
 10
134.348416
 20
309.710897
 30
0.0
 11
136.354221
 21
311.716703
 31
0.0
  0
LINE
  8
LC-006-005-----0
  6
CONTINUOUS
  5
FE
 10
179.846643
 20
355.209125
 30
0.0
 11
182.384966
 21
357.747447
 31
0.0
  0
LINE
  8
LC-006-005-----0
  6
CONTINUOUS
  5
FF
 10
132.963125
 20
311.154033
 30
0.0
 11
134.950717
 21
313.141626
 31
0.0
  0
LINE
  8
LC-006-005-----0
  6
CONTINUOUS
  5
100
 10
179.846641
 20
358.03755
 30
0.0
 11
182.358613
 21
360.549522
 31
0.0
  0
LINE
  8
LC-006-005-----0
  6
CONTINUOUS
  5
101
 10
131.820199
 20
312.839535
 30
0.0
 11
133.874064
 21
314.8934
 31
0.0
  0
LINE
  8
LC-006-005-----0
  6
CONTINUOUS
  5
102
 10
179.84664
 20
360.865976
 30
0.0
 11
182.33226
 21
363.351596
 31
0.0
  0
LINE
  8
LC-006-005-----0
  6
CONTINUOUS
  5
103
 10
130.945566
 20
314.793329
 30
0.0
 11
133.18719
 21
317.034953
 31
0.0
  0
LINE
  8
LC-006-005-----0
  6
CONTINUOUS
  5
104
 10
179.846638
 20
363.694401
 30
0.0
 11
182.305907
 21
366.15367
 31
0.0
  0
LINE
  8
LC-006-005-----0
  6
CONTINUOUS
  5
105
 10
130.403522
 20
317.079713
 30
0.0
 11
133.034897
 21
319.711087
 31
0.0
  0
LINE
  8
LC-006-005-----0
  6
CONTINUOUS
  5
106
 10
179.846636
 20
366.522826
 30
0.0
 11
182.279555
 21
368.955745
 31
0.0
  0
LINE
  8
LC-006-005-----0
  6
CONTINUOUS
  5
107
 10
130.295866
 20
319.800483
 30
0.0
 11
133.034897
 21
322.539514
 31
0.0
  0
LINE
  8
LC-006-005-----0
  6
CONTINUOUS
  5
108
 10
179.846634
 20
369.351251
 30
0.0
 11
182.253202
 21
371.757819
 31
0.0
  0
LINE
  8
LC-006-005-----0
  6
CONTINUOUS
  5
109
 10
130.295866
 20
322.62891
 30
0.0
 11
133.034897
 21
325.367941
 31
0.0
  0
LINE
  8
LC-006-005-----0
  6
CONTINUOUS
  5
10A
 10
179.846632
 20
372.179676
 30
0.0
 11
182.226849
 21
374.559893
 31
0.0
  0
LINE
  8
LC-006-005-----0
  6
CONTINUOUS
  5
10B
 10
130.295866
 20
325.457337
 30
0.0
 11
133.034897
 21
328.196368
 31
0.0
  0
LINE
  8
LC-006-005-----0
  6
CONTINUOUS
  5
10C
 10
179.84663
 20
375.008102
 30
0.0
 11
182.360699
 21
377.522171
 31
0.0
  0
LINE
  8
LC-006-005-----0
  6
CONTINUOUS
  5
10D
 10
130.295866
 20
328.285765
 30
0.0
 11
133.034897
 21
331.024795
 31
0.0
  0
LINE
  8
LC-006-005-----0
  6
CONTINUOUS
  5
10E
 10
130.295866
 20
331.114192
 30
0.0
 11
133.034897
 21
333.853222
 31
0.0
  0
LINE
  8
LC-006-005-----0
  6
CONTINUOUS
  5
10F
 10
130.295866
 20
333.942619
 30
0.0
 11
133.034897
 21
336.68165
 31
0.0
  0
LINE
  8
LC-006-005-----0
  6
CONTINUOUS
  5
110
 10
130.295866
 20
336.771046
 30
0.0
 11
133.034897
 21
339.510077
 31
0.0
  0
LINE
  8
LC-006-005-----0
  6
CONTINUOUS
  5
111
 10
130.295866
 20
339.599473
 30
0.0
 11
133.034897
 21
342.338504
 31
0.0
  0
LINE
  8
LC-006-005-----0
  6
CONTINUOUS
  5
112
 10
130.295866
 20
342.4279
 30
0.0
 11
133.034897
 21
345.166931
 31
0.0
  0
LINE
  8
LC-006-005-----0
  6
CONTINUOUS
  5
113
 10
130.295866
 20
345.256327
 30
0.0
 11
133.034897
 21
347.995358
 31
0.0
  0
LINE
  8
LC-006-005-----0
  6
CONTINUOUS
  5
114
 10
130.295866
 20
348.084754
 30
0.0
 11
133.034897
 21
350.823785
 31
0.0
  0
LINE
  8
LC-006-005-----0
  6
CONTINUOUS
  5
115
 10
130.295866
 20
350.913182
 30
0.0
 11
133.034897
 21
353.652212
 31
0.0
  0
LINE
  8
LC-006-005-----0
  6
CONTINUOUS
  5
116
 10
130.295866
 20
353.741609
 30
0.0
 11
133.034897
 21
356.480639
 31
0.0
  0
LINE
  8
LC-006-005-----0
  6
CONTINUOUS
  5
117
 10
130.295866
 20
356.570036
 30
0.0
 11
133.034897
 21
359.309067
 31
0.0
  0
LINE
  8
LC-006-005-----0
  6
CONTINUOUS
  5
118
 10
130.295866
 20
359.398463
 30
0.0
 11
133.034897
 21
362.137494
 31
0.0
  0
LINE
  8
LC-006-005-----0
  6
CONTINUOUS
  5
119
 10
130.295866
 20
362.22689
 30
0.0
 11
133.034897
 21
364.965921
 31
0.0
  0
LINE
  8
LC-006-005-----0
  6
CONTINUOUS
  5
11A
 10
130.295866
 20
365.055317
 30
0.0
 11
133.034897
 21
367.794348
 31
0.0
  0
LINE
  8
LC-006-005-----0
  6
CONTINUOUS
  5
11B
 10
130.295866
 20
367.883744
 30
0.0
 11
133.034897
 21
370.622775
 31
0.0
  0
LINE
  8
LC-006-005-----0
  6
CONTINUOUS
  5
11C
 10
130.295866
 20
370.712171
 30
0.0
 11
133.034897
 21
373.451202
 31
0.0
  0
LINE
  8
LC-006-005-----0
  6
CONTINUOUS
  5
11D
 10
130.295866
 20
373.540599
 30
0.0
 11
133.034897
 21
376.279629
 31
0.0
  0
LINE
  8
LC-006-005-----0
  6
CONTINUOUS
  5
11E
 10
130.295866
 20
376.369026
 30
0.0
 11
133.034897
 21
379.108056
 31
0.0
  0
LINE
  8
LC-006-005-----0
  6
CONTINUOUS
  5
11F
 10
130.295866
 20
379.197453
 30
0.0
 11
133.034897
 21
381.936484
 31
0.0
  0
LINE
  8
LC-006-005-----0
  6
CONTINUOUS
  5
120
 10
129.9767
 20
381.706714
 30
0.0
 11
132.48709
 21
384.217105
 31
0.0
  0
LINE
  8
LC-006-005-----0
  6
CONTINUOUS
  5
121
 10
128.81185
 20
383.370292
 30
0.0
 11
132.48709
 21
387.045532
 31
0.0
  0
LINE
  8
LC-006-005-----0
  6
CONTINUOUS
  5
122
 10
132.57925
 20
387.137691
 30
0.0
 11
133.483102
 21
388.041543
 31
0.0
  0
LINE
  8
LC-006-005-----0
  6
CONTINUOUS
  5
123
 10
127.647001
 20
385.033869
 30
0.0
 11
132.48709
 21
389.873959
 31
0.0
  0
LINE
  8
LC-006-005-----0
  6
CONTINUOUS
  5
124
 10
126.482151
 20
386.697447
 30
0.0
 11
132.482822
 21
392.698118
 31
0.0
  0
LINE
  8
LC-006-005-----0
  6
CONTINUOUS
  5
125
 10
125.317302
 20
388.361024
 30
0.0
 11
130.368839
 21
393.412562
 31
0.0
  0
LINE
  8
LC-006-005-----0
  6
CONTINUOUS
  5
126
 10
124.152452
 20
390.024602
 30
0.0
 11
127.540412
 21
393.412562
 31
0.0
  0
LINE
  8
LC-006-005-----0
  6
CONTINUOUS
  5
127
 10
122.987603
 20
391.688179
 30
0.0
 11
124.711985
 21
393.412562
 31
0.0
  0
LINE
  8
LC-006-005-----0
  6
CONTINUOUS
  5
128
 10
121.822753
 20
393.351757
 30
0.0
 11
123.821793
 21
395.350797
 31
0.0
  0
LINE
  8
LC-006-005-----0
  6
CONTINUOUS
  5
129
 10
121.082762
 20
395.440193
 30
0.0
 11
123.821793
 21
398.179224
 31
0.0
  0
LINE
  8
LC-006-005-----0
  6
CONTINUOUS
  5
12A
 10
121.082762
 20
398.26862
 30
0.0
 11
123.821793
 21
401.007651
 31
0.0
  0
LINE
  8
LC-006-005-----0
  6
CONTINUOUS
  5
12B
 10
120.985427
 20
400.999712
 30
0.0
 11
123.821793
 21
403.836078
 31
0.0
  0
LINE
  8
LC-006-005-----0
  6
CONTINUOUS
  5
12C
 10
119.492927
 20
402.33564
 30
0.0
 11
123.821793
 21
406.664505
 31
0.0
  0
LINE
  8
LC-006-005-----0
  6
CONTINUOUS
  5
12D
 10
117.187839
 20
402.858979
 30
0.0
 11
119.31464
 21
404.985779
 31
0.0
  0
LINE
  8
LC-006-005-----0
  6
CONTINUOUS
  5
12E
 10
121.831146
 20
407.502286
 30
0.0
 11
123.821793
 21
409.492933
 31
0.0
  0
LINE
  8
LC-006-005-----0
  6
CONTINUOUS
  5
12F
 10
115.96607
 20
404.465636
 30
0.0
 11
118.718506
 21
407.218073
 31
0.0
  0
LINE
  8
LC-006-005-----0
  6
CONTINUOUS
  5
130
 10
121.831146
 20
410.330713
 30
0.0
 11
122.343191
 21
410.842758
 31
0.0
  0
LINE
  8
LC-006-005-----0
  6
CONTINUOUS
  5
131
 10
115.734524
 20
407.062518
 30
0.0
 11
118.577656
 21
409.90565
 31
0.0
  0
LINE
  8
LC-006-005-----0
  6
CONTINUOUS
  5
132
 10
115.545102
 20
409.701523
 30
0.0
 11
118.436807
 21
412.593228
 31
0.0
  0
LINE
  8
LC-006-005-----0
  6
CONTINUOUS
  5
133
 10
113.778184
 20
410.763032
 30
0.0
 11
116.581729
 21
413.566577
 31
0.0
  0
LINE
  8
LC-006-005-----0
  6
CONTINUOUS
  5
134
 10
111.144532
 20
410.957807
 30
0.0
 11
113.946433
 21
413.759708
 31
0.0
  0
LINE
  8
LC-006-005-----0
  6
CONTINUOUS
  5
135
 10
108.51088
 20
411.152582
 30
0.0
 11
111.311136
 21
413.952839
 31
0.0
  0
LINE
  8
LC-006-005-----0
  6
CONTINUOUS
  5
136
 10
105.877228
 20
411.347358
 30
0.0
 11
108.67584
 21
414.14597
 31
0.0
  0
LINE
  8
LC-006-005-----0
  6
CONTINUOUS
  5
137
 10
103.243576
 20
411.542133
 30
0.0
 11
106.040544
 21
414.339101
 31
0.0
  0
LINE
  8
LC-006-005-----0
  6
CONTINUOUS
  5
138
 10
100.609924
 20
411.736908
 30
0.0
 11
103.405248
 21
414.532232
 31
0.0
  0
LINE
  8
LC-006-005-----0
  6
CONTINUOUS
  5
139
 10
98.246002
 20
412.201413
 30
0.0
 11
100.769952
 21
414.725363
 31
0.0
  0
LINE
  8
LC-006-005-----0
  6
CONTINUOUS
  5
13A
 10
96.225329
 20
413.009167
 30
0.0
 11
98.636299
 21
415.420137
 31
0.0
  0
LINE
  8
LC-006-005-----0
  6
CONTINUOUS
  5
13B
 10
94.204655
 20
413.816921
 30
0.0
 11
96.615625
 21
416.227891
 31
0.0
  0
LINE
  8
LC-006-005-----0
  6
CONTINUOUS
  5
13C
 10
91.850717
 20
414.291409
 30
0.0
 11
94.594952
 21
417.035644
 31
0.0
  0
LINE
  8
LC-006-005-----0
  6
CONTINUOUS
  5
13D
 10
89.207146
 20
414.476265
 30
0.0
 11
92.006712
 21
417.275831
 31
0.0
  0
LINE
  8
LC-006-005-----0
  6
CONTINUOUS
  5
13E
 10
86.563575
 20
414.661122
 30
0.0
 11
89.363141
 21
417.460687
 31
0.0
  0
LINE
  8
LC-006-005-----0
  6
CONTINUOUS
  5
13F
 10
83.920004
 20
414.845978
 30
0.0
 11
86.71957
 21
417.645544
 31
0.0
  0
LINE
  8
LC-006-005-----0
  6
CONTINUOUS
  5
140
 10
81.276434
 20
415.030834
 30
0.0
 11
84.075999
 21
417.8304
 31
0.0
  0
LINE
  8
LC-006-005-----0
  6
CONTINUOUS
  5
141
 10
78.632863
 20
415.215691
 30
0.0
 11
81.432428
 21
418.015256
 31
0.0
  0
LINE
  8
LC-006-005-----0
  6
CONTINUOUS
  5
142
 10
75.989292
 20
415.400547
 30
0.0
 11
78.788858
 21
418.200113
 31
0.0
  0
LINE
  8
LC-006-005-----0
  6
CONTINUOUS
  5
143
 10
73.345721
 20
415.585403
 30
0.0
 11
76.145287
 21
418.384969
 31
0.0
  0
LINE
  8
LC-006-005-----0
  6
CONTINUOUS
  5
144
 10
70.70215
 20
415.770259
 30
0.0
 11
73.501716
 21
418.569825
 31
0.0
  0
LINE
  8
LC-006-005-----0
  6
CONTINUOUS
  5
145
 10
68.058579
 20
415.955116
 30
0.0
 11
70.858145
 21
418.754682
 31
0.0
  0
LINE
  8
LC-006-005-----0
  6
CONTINUOUS
  5
146
 10
65.415008
 20
416.139972
 30
0.0
 11
68.214574
 21
418.939538
 31
0.0
  0
LINE
  8
LC-006-005-----0
  6
CONTINUOUS
  5
147
 10
62.771438
 20
416.324828
 30
0.0
 11
65.571004
 21
419.124394
 31
0.0
  0
LINE
  8
LC-006-005-----0
  6
CONTINUOUS
  5
148
 10
60.127867
 20
416.509685
 30
0.0
 11
62.927433
 21
419.30925
 31
0.0
  0
ENDBLK
  8
0
  5
149
  0
BLOCK
  8
0
  5
14B
  2
BLK1
 70
    64
 10
0.0
 20
0.0
 30
0.0
  3
BLK1
  0
ENDBLK
  8
0
  5
14C
  0
BLOCK
  8
0
  5
14E
  2
*X3
 70
    65
 10
168.727997
 20
328.216189
 30
0.0
  3
*X3
  0
LINE
  8
LC-006-005-----0
  6
CONTINUOUS
  5
14F
 10
250.728328
 20
329.924288
 30
0.0
 11
251.728169
 21
330.924128
 31
0.0
  0
LINE
  8
LC-006-005-----0
  6
CONTINUOUS
  5
150
 10
250.728323
 20
332.752709
 30
0.0
 11
251.728171
 21
333.752557
 31
0.0
  0
LINE
  8
LC-006-005-----0
  6
CONTINUOUS
  5
151
 10
250.728317
 20
335.58113
 30
0.0
 11
251.728173
 21
336.580986
 31
0.0
  0
LINE
  8
LC-006-005-----0
  6
CONTINUOUS
  5
152
 10
250.728311
 20
338.409552
 30
0.0
 11
251.728175
 21
339.409415
 31
0.0
  0
LINE
  8
LC-006-005-----0
  6
CONTINUOUS
  5
153
 10
250.728305
 20
341.237973
 30
0.0
 11
251.728176
 21
342.237844
 31
0.0
  0
LINE
  8
LC-006-005-----0
  6
CONTINUOUS
  5
154
 10
250.728299
 20
344.066394
 30
0.0
 11
251.728178
 21
345.066273
 31
0.0
  0
LINE
  8
LC-006-005-----0
  6
CONTINUOUS
  5
155
 10
250.728293
 20
346.894816
 30
0.0
 11
251.72818
 21
347.894702
 31
0.0
  0
LINE
  8
LC-006-005-----0
  6
CONTINUOUS
  5
156
 10
250.728287
 20
349.723237
 30
0.0
 11
251.728182
 21
350.723131
 31
0.0
  0
LINE
  8
LC-006-005-----0
  6
CONTINUOUS
  5
157
 10
250.728282
 20
352.551658
 30
0.0
 11
251.728184
 21
353.55156
 31
0.0
  0
LINE
  8
LC-006-005-----0
  6
CONTINUOUS
  5
158
 10
250.728276
 20
355.380079
 30
0.0
 11
251.728186
 21
356.379989
 31
0.0
  0
LINE
  8
LC-006-005-----0
  6
CONTINUOUS
  5
159
 10
250.72827
 20
358.208501
 30
0.0
 11
251.728187
 21
359.208418
 31
0.0
  0
LINE
  8
LC-006-005-----0
  6
CONTINUOUS
  5
15A
 10
250.728264
 20
361.036922
 30
0.0
 11
251.728189
 21
362.036847
 31
0.0
  0
LINE
  8
LC-006-005-----0
  6
CONTINUOUS
  5
15B
 10
250.728258
 20
363.865343
 30
0.0
 11
251.728191
 21
364.865276
 31
0.0
  0
LINE
  8
LC-006-005-----0
  6
CONTINUOUS
  5
15C
 10
250.728252
 20
366.693764
 30
0.0
 11
251.728193
 21
367.693705
 31
0.0
  0
LINE
  8
LC-006-005-----0
  6
CONTINUOUS
  5
15D
 10
250.728246
 20
369.522186
 30
0.0
 11
251.728195
 21
370.522134
 31
0.0
  0
LINE
  8
LC-006-005-----0
  6
CONTINUOUS
  5
15E
 10
250.728241
 20
372.350607
 30
0.0
 11
251.728197
 21
373.350563
 31
0.0
  0
LINE
  8
LC-006-005-----0
  6
CONTINUOUS
  5
15F
 10
250.728235
 20
375.179028
 30
0.0
 11
251.728199
 21
376.178992
 31
0.0
  0
LINE
  8
LC-006-005-----0
  6
CONTINUOUS
  5
160
 10
250.728229
 20
378.007449
 30
0.0
 11
251.7282
 21
379.007421
 31
0.0
  0
LINE
  8
LC-006-005-----0
  6
CONTINUOUS
  5
161
 10
250.728223
 20
380.835871
 30
0.0
 11
251.728202
 21
381.83585
 31
0.0
  0
LINE
  8
LC-006-005-----0
  6
CONTINUOUS
  5
162
 10
250.728217
 20
383.664292
 30
0.0
 11
251.728204
 21
384.664279
 31
0.0
  0
LINE
  8
LC-006-005-----0
  6
CONTINUOUS
  5
163
 10
250.728211
 20
386.492713
 30
0.0
 11
251.728206
 21
387.492708
 31
0.0
  0
LINE
  8
LC-006-005-----0
  6
CONTINUOUS
  5
164
 10
250.672978
 20
389.265907
 30
0.0
 11
251.569378
 21
390.162307
 31
0.0
  0
LINE
  8
LC-006-005-----0
  6
CONTINUOUS
  5
165
 10
250.148977
 20
391.570333
 30
0.0
 11
250.97621
 21
392.397566
 31
0.0
  0
LINE
  8
LC-006-005-----0
  6
CONTINUOUS
  5
166
 10
249.230579
 20
393.480362
 30
0.0
 11
250.063783
 21
394.313566
 31
0.0
  0
LINE
  8
LC-006-005-----0
  6
CONTINUOUS
  5
167
 10
248.001277
 20
395.079487
 30
0.0
 11
248.889126
 21
395.967336
 31
0.0
  0
LINE
  8
LC-006-005-----0
  6
CONTINUOUS
  5
168
 10
246.485869
 20
396.392507
 30
0.0
 11
247.474555
 21
397.381193
 31
0.0
  0
LINE
  8
LC-006-005-----0
  6
CONTINUOUS
  5
169
 10
244.671144
 20
397.406208
 30
0.0
 11
245.82004
 21
398.555105
 31
0.0
  0
LINE
  8
LC-006-005-----0
  6
CONTINUOUS
  5
16A
 10
242.495471
 20
398.058963
 30
0.0
 11
243.903185
 21
399.466677
 31
0.0
  0
LINE
  8
LC-006-005-----0
  6
CONTINUOUS
  5
16B
 10
211.324273
 20
369.716192
 30
0.0
 11
211.66375
 21
370.055669
 31
0.0
  0
LINE
  8
LC-006-005-----0
  6
CONTINUOUS
  5
16C
 10
239.824444
 20
398.216363
 30
0.0
 11
241.666817
 21
400.058736
 31
0.0
  0
LINE
  8
LC-006-005-----0
  6
CONTINUOUS
  5
16D
 10
168.728162
 20
329.948508
 30
0.0
 11
169.728159
 21
330.948506
 31
0.0
  0
LINE
  8
LC-006-005-----0
  6
CONTINUOUS
  5
16E
 10
208.495846
 20
369.716192
 30
0.0
 11
211.664516
 21
372.884862
 31
0.0
  0
LINE
  8
LC-006-005-----0
  6
CONTINUOUS
  5
16F
 10
236.996017
 20
398.216363
 30
0.0
 11
238.996017
 21
400.216364
 31
0.0
  0
LINE
  8
LC-006-005-----0
  6
CONTINUOUS
  5
170
 10
168.728154
 20
332.776928
 30
0.0
 11
169.728151
 21
333.776925
 31
0.0
  0
LINE
  8
LC-006-005-----0
  6
CONTINUOUS
  5
171
 10
205.667419
 20
369.716192
 30
0.0
 11
211.665282
 21
375.714055
 31
0.0
  0
LINE
  8
LC-006-005-----0
  6
CONTINUOUS
  5
172
 10
234.16759
 20
398.216363
 30
0.0
 11
236.167592
 21
400.216366
 31
0.0
  0
LINE
  8
LC-006-005-----0
  6
CONTINUOUS
  5
173
 10
168.728146
 20
335.605347
 30
0.0
 11
169.728143
 21
336.605344
 31
0.0
  0
LINE
  8
LC-006-005-----0
  6
CONTINUOUS
  5
174
 10
202.838991
 20
369.716192
 30
0.0
 11
211.666048
 21
378.543248
 31
0.0
  0
LINE
  8
LC-006-005-----0
  6
CONTINUOUS
  5
175
 10
231.339163
 20
398.216363
 30
0.0
 11
233.339167
 21
400.216368
 31
0.0
  0
LINE
  8
LC-006-005-----0
  6
CONTINUOUS
  5
176
 10
168.728138
 20
338.433766
 30
0.0
 11
169.728135
 21
339.433763
 31
0.0
  0
LINE
  8
LC-006-005-----0
  6
CONTINUOUS
  5
177
 10
200.010564
 20
369.716192
 30
0.0
 11
211.666813
 21
381.372441
 31
0.0
  0
LINE
  8
LC-006-005-----0
  6
CONTINUOUS
  5
178
 10
228.510736
 20
398.216363
 30
0.0
 11
230.510742
 21
400.21637
 31
0.0
  0
LINE
  8
LC-006-005-----0
  6
CONTINUOUS
  5
179
 10
168.72813
 20
341.262185
 30
0.0
 11
169.728127
 21
342.262182
 31
0.0
  0
LINE
  8
LC-006-005-----0
  6
CONTINUOUS
  5
17A
 10
197.182137
 20
369.716192
 30
0.0
 11
211.667579
 21
384.201634
 31
0.0
  0
LINE
  8
LC-006-005-----0
  6
CONTINUOUS
  5
17B
 10
225.682308
 20
398.216363
 30
0.0
 11
227.682317
 21
400.216372
 31
0.0
  0
LINE
  8
LC-006-005-----0
  6
CONTINUOUS
  5
17C
 10
168.728122
 20
344.090604
 30
0.0
 11
169.728119
 21
345.090601
 31
0.0
  0
LINE
  8
LC-006-005-----0
  6
CONTINUOUS
  5
17D
 10
194.35371
 20
369.716192
 30
0.0
 11
211.668345
 21
387.030827
 31
0.0
  0
LINE
  8
LC-006-005-----0
  6
CONTINUOUS
  5
17E
 10
222.853881
 20
398.216363
 30
0.0
 11
224.853892
 21
400.216374
 31
0.0
  0
LINE
  8
LC-006-005-----0
  6
CONTINUOUS
  5
17F
 10
168.728114
 20
346.919023
 30
0.0
 11
169.728111
 21
347.91902
 31
0.0
  0
LINE
  8
LC-006-005-----0
  6
CONTINUOUS
  5
180
 10
191.525283
 20
369.716192
 30
0.0
 11
211.669111
 21
389.86002
 31
0.0
  0
LINE
  8
LC-006-005-----0
  6
CONTINUOUS
  5
181
 10
220.025454
 20
398.216363
 30
0.0
 11
223.932186
 21
402.123095
 31
0.0
  0
LINE
  8
LC-006-005-----0
  6
CONTINUOUS
  5
182
 10
168.728106
 20
349.747442
 30
0.0
 11
169.728103
 21
350.747439
 31
0.0
  0
LINE
  8
LC-006-005-----0
  6
CONTINUOUS
  5
183
 10
188.696856
 20
369.716192
 30
0.0
 11
211.669877
 21
392.689213
 31
0.0
  0
LINE
  8
LC-006-005-----0
  6
CONTINUOUS
  5
184
 10
217.197027
 20
398.216363
 30
0.0
 11
219.197042
 21
400.216378
 31
0.0
  0
LINE
  8
LC-006-005-----0
  6
CONTINUOUS
  5
185
 10
219.977996
 20
400.997332
 30
0.0
 11
223.39181
 21
404.411146
 31
0.0
  0
LINE
  8
LC-006-005-----0
  6
CONTINUOUS
  5
186
 10
168.728098
 20
352.575861
 30
0.0
 11
169.728095
 21
353.575858
 31
0.0
  0
LINE
  8
LC-006-005-----0
  6
CONTINUOUS
  5
187
 10
185.868429
 20
369.716192
 30
0.0
 11
211.670642
 21
395.518406
 31
0.0
  0
LINE
  8
LC-006-005-----0
  6
CONTINUOUS
  5
188
 10
214.3686
 20
398.216363
 30
0.0
 11
216.368616
 21
400.216379
 31
0.0
  0
LINE
  8
LC-006-005-----0
  6
CONTINUOUS
  5
189
 10
219.500592
 20
403.348355
 30
0.0
 11
222.423929
 21
406.271692
 31
0.0
  0
LINE
  8
LC-006-005-----0
  6
CONTINUOUS
  5
18A
 10
168.72809
 20
355.40428
 30
0.0
 11
169.728087
 21
356.404278
 31
0.0
  0
LINE
  8
LC-006-005-----0
  6
CONTINUOUS
  5
18B
 10
183.330318
 20
370.006509
 30
0.0
 11
213.540191
 21
400.216381
 31
0.0
  0
LINE
  8
LC-006-005-----0
  6
CONTINUOUS
  5
18C
 10
218.287744
 20
404.963934
 30
0.0
 11
221.119191
 21
407.795381
 31
0.0
  0
LINE
  8
LC-006-005-----0
  6
CONTINUOUS
  5
18D
 10
168.728082
 20
358.2327
 30
0.0
 11
169.728079
 21
359.232697
 31
0.0
  0
LINE
  8
LC-006-005-----0
  6
CONTINUOUS
  5
18E
 10
182.732602
 20
372.237219
 30
0.0
 11
210.711766
 21
400.216383
 31
0.0
  0
LINE
  8
LC-006-005-----0
  6
CONTINUOUS
  5
18F
 10
216.480487
 20
405.985104
 30
0.0
 11
219.495608
 21
409.000226
 31
0.0
  0
LINE
  8
LC-006-005-----0
  6
CONTINUOUS
  5
190
 10
168.728074
 20
361.061119
 30
0.0
 11
169.728071
 21
362.061116
 31
0.0
  0
LINE
  8
LC-006-005-----0
  6
CONTINUOUS
  5
191
 10
182.470287
 20
374.803331
 30
0.0
 11
207.883147
 21
400.216192
 31
0.0
  0
LINE
  8
LC-006-005-----0
  6
CONTINUOUS
  5
192
 10
213.883148
 20
406.216192
 30
0.0
 11
217.51745
 21
409.850494
 31
0.0
  0
LINE
  8
LC-006-005-----0
  6
CONTINUOUS
  5
193
 10
168.728066
 20
363.889538
 30
0.0
 11
169.728063
 21
364.889535
 31
0.0
  0
LINE
  8
LC-006-005-----0
  6
CONTINUOUS
  5
194
 10
182.530465
 20
377.691937
 30
0.0
 11
205.05472
 21
400.216192
 31
0.0
  0
LINE
  8
LC-006-005-----0
  6
CONTINUOUS
  5
195
 10
211.05472
 20
406.216192
 30
0.0
 11
215.054396
 21
410.215868
 31
0.0
  0
LINE
  8
LC-006-005-----0
  6
CONTINUOUS
  5
196
 10
168.728058
 20
366.717957
 30
0.0
 11
169.728055
 21
367.717954
 31
0.0
  0
LINE
  8
LC-006-005-----0
  6
CONTINUOUS
  5
197
 10
179.726293
 20
377.716192
 30
0.0
 11
202.226293
 21
400.216192
 31
0.0
  0
LINE
  8
LC-006-005-----0
  6
CONTINUOUS
  5
198
 10
208.226293
 20
406.216192
 30
0.0
 11
212.226293
 21
410.216192
 31
0.0
  0
LINE
  8
LC-006-005-----0
  6
CONTINUOUS
  5
199
 10
168.72805
 20
369.546376
 30
0.0
 11
169.728047
 21
370.546373
 31
0.0
  0
LINE
  8
LC-006-005-----0
  6
CONTINUOUS
  5
19A
 10
178.970844
 20
379.78917
 30
0.0
 11
200.478651
 21
401.296977
 31
0.0
  0
LINE
  8
LC-006-005-----0
  6
CONTINUOUS
  5
19B
 10
205.397213
 20
406.215539
 30
0.0
 11
209.397866
 21
410.216192
 31
0.0
  0
LINE
  8
LC-006-005-----0
  6
CONTINUOUS
  5
19C
 10
168.728042
 20
372.374795
 30
0.0
 11
169.728039
 21
373.374792
 31
0.0
  0
LINE
  8
LC-006-005-----0
  6
CONTINUOUS
  5
19D
 10
178.97161
 20
382.618363
 30
0.0
 11
206.569439
 21
410.216192
 31
0.0
  0
LINE
  8
LC-006-005-----0
  6
CONTINUOUS
  5
19E
 10
168.728034
 20
375.203214
 30
0.0
 11
169.728031
 21
376.203211
 31
0.0
  0
LINE
  8
LC-006-005-----0
  6
CONTINUOUS
  5
19F
 10
178.972376
 20
385.447556
 30
0.0
 11
193.741012
 21
400.216192
 31
0.0
  0
LINE
  8
LC-006-005-----0
  6
CONTINUOUS
  5
1A0
 10
196.692009
 20
403.16719
 30
0.0
 11
203.527001
 21
410.002181
 31
0.0
  0
LINE
  8
LC-006-005-----0
  6
CONTINUOUS
  5
1A1
 10
168.728026
 20
378.031633
 30
0.0
 11
169.728023
 21
379.03163
 31
0.0
  0
LINE
  8
LC-006-005-----0
  6
CONTINUOUS
  5
1A2
 10
178.973141
 20
388.276749
 30
0.0
 11
190.912585
 21
400.216192
 31
0.0
  0
LINE
  8
LC-006-005-----0
  6
CONTINUOUS
  5
1A3
 10
168.728018
 20
380.860052
 30
0.0
 11
169.728015
 21
381.86005
 31
0.0
  0
LINE
  8
LC-006-005-----0
  6
CONTINUOUS
  5
1A4
 10
178.973907
 20
391.105942
 30
0.0
 11
188.084157
 21
400.216192
 31
0.0
  0
LINE
  8
LC-006-005-----0
  6
CONTINUOUS
  5
1A5
 10
168.72801
 20
383.688472
 30
0.0
 11
169.728007
 21
384.688469
 31
0.0
  0
LINE
  8
LC-006-005-----0
  6
CONTINUOUS
  5
1A6
 10
178.974673
 20
393.935134
 30
0.0
 11
185.25573
 21
400.216192
 31
0.0
  0
LINE
  8
LC-006-005-----0
  6
CONTINUOUS
  5
1A7
 10
168.728002
 20
386.516891
 30
0.0
 11
169.727999
 21
387.516888
 31
0.0
  0
LINE
  8
LC-006-005-----0
  6
CONTINUOUS
  5
1A8
 10
178.975439
 20
396.764327
 30
0.0
 11
182.427303
 21
400.216192
 31
0.0
  0
LINE
  8
LC-006-005-----0
  6
CONTINUOUS
  5
1A9
 10
168.786956
 20
389.404272
 30
0.0
 11
170.027353
 21
390.644669
 31
0.0
  0
LINE
  8
LC-006-005-----0
  6
CONTINUOUS
  5
1AA
 10
177.29952
 20
397.916836
 30
0.0
 11
179.539917
 21
400.157233
 31
0.0
  0
LINE
  8
LC-006-005-----0
  6
CONTINUOUS
  5
1AB
 10
169.861462
 20
393.307205
 30
0.0
 11
175.636984
 21
399.082727
 31
0.0
  0
ENDBLK
  8
0
  5
1AC
  0
BLOCK
  8
0
  5
1AE
  2
BLK2
 70
    64
 10
0.0
 20
0.0
 30
0.0
  3
BLK2
  0
ENDBLK
  8
0
  5
1AF
  0
BLOCK
  8
0
  5
1B1
  2
BLK3
 70
    64
 10
0.0
 20
0.0
 30
0.0
  3
BLK3
  0
ENDBLK
  8
0
  5
1B2
  0
BLOCK
  8
0
  5
1B4
  2
*X6
 70
    65
 10
279.728771
 20
393.742209
 30
0.0
  3
*X6
  0
LINE
  8
LC-006-005-----0
  6
CONTINUOUS
  5
1B5
 10
286.261978
 20
393.742209
 30
0.0
 11
289.228771
 21
396.709002
 31
0.0
  0
LINE
  8
LC-006-005-----0
  6
CONTINUOUS
  5
1B6
 10
299.606815
 20
407.087046
 30
0.0
 11
301.264922
 21
408.745153
 31
0.0
  0
LINE
  8
LC-006-005-----0
  6
CONTINUOUS
  5
1B7
 10
283.433551
 20
393.742209
 30
0.0
 11
289.228771
 21
399.537429
 31
0.0
  0
LINE
  8
LC-006-005-----0
  6
CONTINUOUS
  5
1B8
 10
299.228556
 20
409.537214
 30
0.0
 11
301.736358
 21
412.045016
 31
0.0
  0
LINE
  8
LC-006-005-----0
  6
CONTINUOUS
  5
1B9
 10
280.605124
 20
393.742209
 30
0.0
 11
289.228771
 21
402.365856
 31
0.0
  0
LINE
  8
LC-006-005-----0
  6
CONTINUOUS
  5
1BA
 10
297.806891
 20
410.943976
 30
0.0
 11
300.501415
 21
413.6385
 31
0.0
  0
LINE
  8
LC-006-005-----0
  6
CONTINUOUS
  5
1BB
 10
279.728771
 20
395.694283
 30
0.0
 11
280.776697
 21
396.742209
 31
0.0
  0
LINE
  8
LC-006-005-----0
  6
CONTINUOUS
  5
1BC
 10
282.478771
 20
398.444283
 30
0.0
 11
289.228771
 21
405.194283
 31
0.0
  0
LINE
  8
LC-006-005-----0
  6
CONTINUOUS
  5
1BD
 10
294.765811
 20
410.731323
 30
0.0
 11
297.460335
 21
413.425847
 31
0.0
  0
LINE
  8
LC-006-005-----0
  6
CONTINUOUS
  5
1BE
 10
282.478771
 20
401.27271
 30
0.0
 11
289.228771
 21
408.02271
 31
0.0
  0
LINE
  8
LC-006-005-----0
  6
CONTINUOUS
  5
1BF
 10
291.724731
 20
410.51867
 30
0.0
 11
294.419255
 21
413.213194
 31
0.0
  0
LINE
  8
LC-006-005-----0
  6
CONTINUOUS
  5
1C0
 10
282.478771
 20
404.101137
 30
0.0
 11
291.378175
 21
413.000541
 31
0.0
  0
LINE
  8
LC-006-005-----0
  6
CONTINUOUS
  5
1C1
 10
282.478771
 20
406.929564
 30
0.0
 11
288.337094
 21
412.787888
 31
0.0
  0
LINE
  8
LC-006-005-----0
  6
CONTINUOUS
  5
1C2
 10
282.478771
 20
409.757992
 30
0.0
 11
285.296014
 21
412.575235
 31
0.0
  0
ENDBLK
  8
0
  5
1C3
  0
BLOCK
  8
0
  5
1C5
  2
*X7
 70
    65
 10
118.478771
 20
393.742209
 30
0.0
  3
*X7
  0
LINE
  8
LC-006-005-----0
  6
CONTINUOUS
  5
1C6
 10
139.183768
 20
393.742209
 30
0.0
 11
140.728771
 21
395.287212
 31
0.0
  0
LINE
  8
LC-006-005-----0
  6
CONTINUOUS
  5
1C7
 10
136.355341
 20
393.742209
 30
0.0
 11
139.355341
 21
396.742209
 31
0.0
  0
LINE
  8
LC-006-005-----0
  6
CONTINUOUS
  5
1C8
 10
133.526914
 20
393.742209
 30
0.0
 11
137.978771
 21
398.194066
 31
0.0
  0
LINE
  8
LC-006-005-----0
  6
CONTINUOUS
  5
1C9
 10
131.308114
 20
394.351837
 30
0.0
 11
137.978771
 21
401.022493
 31
0.0
  0
LINE
  8
LC-006-005-----0
  6
CONTINUOUS
  5
1CA
 10
131.228771
 20
397.100921
 30
0.0
 11
137.978771
 21
403.850921
 31
0.0
  0
LINE
  8
LC-006-005-----0
  6
CONTINUOUS
  5
1CB
 10
131.228771
 20
399.929348
 30
0.0
 11
137.978771
 21
406.679348
 31
0.0
  0
LINE
  8
LC-006-005-----0
  6
CONTINUOUS
  5
1CC
 10
131.228771
 20
402.757775
 30
0.0
 11
137.978771
 21
409.507775
 31
0.0
  0
LINE
  8
LC-006-005-----0
  6
CONTINUOUS
  5
1CD
 10
131.228771
 20
405.586202
 30
0.0
 11
137.651009
 21
412.008441
 31
0.0
  0
LINE
  8
LC-006-005-----0
  6
CONTINUOUS
  5
1CE
 10
131.228771
 20
408.414629
 30
0.0
 11
135.374485
 21
412.560343
 31
0.0
  0
LINE
  8
LC-006-005-----0
  6
CONTINUOUS
  5
1CF
 10
130.3886
 20
410.402886
 30
0.0
 11
132.730915
 21
412.7452
 31
0.0
  0
LINE
  8
LC-006-005-----0
  6
CONTINUOUS
  5
1D0
 10
127.74503
 20
410.587742
 30
0.0
 11
130.087344
 21
412.930056
 31
0.0
  0
LINE
  8
LC-006-005-----0
  6
CONTINUOUS
  5
1D1
 10
125.101459
 20
410.772599
 30
0.0
 11
127.443773
 21
413.114913
 31
0.0
  0
LINE
  8
LC-006-005-----0
  6
CONTINUOUS
  5
1D2
 10
119.324247
 20
407.823814
 30
0.0
 11
121.228986
 21
409.728552
 31
0.0
  0
LINE
  8
LC-006-005-----0
  6
CONTINUOUS
  5
1D3
 10
122.457888
 20
410.957455
 30
0.0
 11
124.800203
 21
413.299769
 31
0.0
  0
LINE
  8
LC-006-005-----0
  6
CONTINUOUS
  5
1D4
 10
118.970676
 20
410.29867
 30
0.0
 11
122.156632
 21
413.484626
 31
0.0
  0
LINE
  8
LC-006-005-----0
  6
CONTINUOUS
  5
1D5
 10
118.617105
 20
412.773526
 30
0.0
 11
119.513061
 21
413.669482
 31
0.0
  0
ENDBLK
  8
0
  5
1D6
  0
BLOCK
  8
0
  5
1D8
  2
*D8
 70
    65
 10
0.0
 20
0.0
 30
0.0
  3
*D8
  0
LINE
  8
LC-010-003-MTH-0
  6
CONTINUOUS
  5
1DA
 10
60.074636
 20
416.513407
 30
0.0
 11
60.074636
 21
487.2
 31
0.0
  0
LINE
  8
LC-010-003-MTH-0
  6
CONTINUOUS
  5
1DB
 10
360.375484
 20
416.513407
 30
0.0
 11
360.375484
 21
487.2
 31
0.0
  0
LINE
  8
LC-011-003-MTG-0
  6
CONTINUOUS
  5
1DD
 10
60.074636
 20
470.4
 30
0.0
 11
360.375484
 21
470.4
 31
0.0
  0
LINE
  8
LC-009-003-----0
  6
CONTINUOUS
  5
1DF
 10
87.835092
 20
474.054733
 30
0.0
 11
60.074636
 21
470.4
 31
0.0
  0
LINE
  8
LC-009-003-----0
  6
CONTINUOUS
  5
1E0
 10
60.074636
 20
470.4
 30
0.0
 11
87.835092
 21
466.745267
 31
0.0
  0
LINE
  8
LC-009-003-----0
  6
CONTINUOUS
  5
1E1
 10
87.835092
 20
466.745267
 30
0.0
 11
87.835092
 21
474.054733
 31
0.0
  0
LINE
  8
LC-009-003-----0
  6
CONTINUOUS
  5
1E2
 10
87.897374
 20
473.104503
 30
0.0
 11
67.354636
 21
470.4
 31
0.0
  0
LINE
  8
LC-009-003-----0
  6
CONTINUOUS
  5
1E3
 10
67.354636
 20
470.4
 30
0.0
 11
87.897374
 21
467.695497
 31
0.0
  0
LINE
  8
LC-009-003-----0
  6
CONTINUOUS
  5
1E4
 10
87.959655
 20
472.154272
 30
0.0
 11
74.634636
 21
470.4
 31
0.0
  0
LINE
  8
LC-009-003-----0
  6
CONTINUOUS
  5
1E5
 10
74.634636
 20
470.4
 30
0.0
 11
87.959655
 21
468.645728
 31
0.0
  0
LINE
  8
LC-009-003-----0
  6
CONTINUOUS
  5
1E6
 10
88.021936
 20
471.204041
 30
0.0
 11
81.914636
 21
470.4
 31
0.0
  0
LINE
  8
LC-009-003-----0
  6
CONTINUOUS
  5
1E7
 10
81.914636
 20
470.4
 30
0.0
 11
88.021936
 21
469.595959
 31
0.0
  0
LINE
  8
LC-009-003-----0
  6
CONTINUOUS
  5
1E8
 10
332.615028
 20
466.745267
 30
0.0
 11
360.375484
 21
470.4
 31
0.0
  0
LINE
  8
LC-009-003-----0
  6
CONTINUOUS
  5
1E9
 10
360.375484
 20
470.4
 30
0.0
 11
332.615028
 21
474.054733
 31
0.0
  0
LINE
  8
LC-009-003-----0
  6
CONTINUOUS
  5
1EA
 10
332.615028
 20
474.054733
 30
0.0
 11
332.615028
 21
466.745267
 31
0.0
  0
LINE
  8
LC-009-003-----0
  6
CONTINUOUS
  5
1EB
 10
332.552747
 20
467.695497
 30
0.0
 11
353.095484
 21
470.4
 31
0.0
  0
LINE
  8
LC-009-003-----0
  6
CONTINUOUS
  5
1EC
 10
353.095484
 20
470.4
 30
0.0
 11
332.552747
 21
473.104503
 31
0.0
  0
LINE
  8
LC-009-003-----0
  6
CONTINUOUS
  5
1ED
 10
332.490465
 20
468.645728
 30
0.0
 11
345.815484
 21
470.4
 31
0.0
  0
LINE
  8
LC-009-003-----0
  6
CONTINUOUS
  5
1EE
 10
345.815484
 20
470.4
 30
0.0
 11
332.490465
 21
472.154272
 31
0.0
  0
LINE
  8
LC-009-003-----0
  6
CONTINUOUS
  5
1EF
 10
332.428184
 20
469.595959
 30
0.0
 11
338.535484
 21
470.4
 31
0.0
  0
LINE
  8
LC-009-003-----0
  6
CONTINUOUS
  5
1F0
 10
338.535484
 20
470.4
 30
0.0
 11
332.428184
 21
471.204041
 31
0.0
  0
TEXT
  8
LC-009-003-----0
  6
CONTINUOUS
 62
     8
  5
1F2
 10
176.475582
 20
478.227554
 30
0.0
 40
28.0
  1
Ø300
 41
0.9
 51
15.0
  7
LC-TXTSTYLE-150-400-0-0-D0
 72
     1
 11
214.57322
 21
478.227554
 31
0.0
  0
ENDBLK
  8
0
  5
1F3
  0
BLOCK
  8
0
  5
1F5
  2
*D9
 70
    65
 10
0.0
 20
0.0
 30
0.0
  3
*D9
  0
LINE
  8
LC-010-003-MTH-0
  6
CONTINUOUS
  5
1F6
 10
172.729022
 20
251.214374
 30
0.0
 11
172.729022
 21
179.2
 31
0.0
  0
LINE
  8
LC-010-003-MTH-0
  6
CONTINUOUS
  5
1F7
 10
247.728784
 20
251.214374
 30
0.0
 11
247.728784
 21
179.2
 31
0.0
  0
LINE
  8
LC-009-003-----0
  6
CONTINUOUS
  5
1F8
 10
144.968566
 20
192.345267
 30
0.0
 11
172.729022
 21
196.0
 31
0.0
  0
LINE
  8
LC-009-003-----0
  6
CONTINUOUS
  5
1F9
 10
172.729022
 20
196.0
 30
0.0
 11
144.968566
 21
199.654733
 31
0.0
  0
LINE
  8
LC-009-003-----0
  6
CONTINUOUS
  5
1FA
 10
144.968566
 20
199.654733
 30
0.0
 11
144.968566
 21
192.345267
 31
0.0
  0
LINE
  8
LC-009-003-----0
  6
CONTINUOUS
  5
1FB
 10
144.906284
 20
193.295497
 30
0.0
 11
165.449022
 21
196.0
 31
0.0
  0
LINE
  8
LC-009-003-----0
  6
CONTINUOUS
  5
1FC
 10
165.449022
 20
196.0
 30
0.0
 11
144.906284
 21
198.704503
 31
0.0
  0
LINE
  8
LC-009-003-----0
  6
CONTINUOUS
  5
1FD
 10
144.844003
 20
194.245728
 30
0.0
 11
158.169022
 21
196.0
 31
0.0
  0
LINE
  8
LC-009-003-----0
  6
CONTINUOUS
  5
1FE
 10
158.169022
 20
196.0
 30
0.0
 11
144.844003
 21
197.754272
 31
0.0
  0
LINE
  8
LC-009-003-----0
  6
CONTINUOUS
  5
1FF
 10
144.781721
 20
195.195959
 30
0.0
 11
150.889022
 21
196.0
 31
0.0
  0
LINE
  8
LC-009-003-----0
  6
CONTINUOUS
  5
200
 10
150.889022
 20
196.0
 30
0.0
 11
144.781721
 21
196.804041
 31
0.0
  0
LINE
  8
LC-009-003-----0
  6
CONTINUOUS
  5
201
 10
275.48924
 20
199.654733
 30
0.0
 11
247.728784
 21
196.0
 31
0.0
  0
LINE
  8
LC-009-003-----0
  6
CONTINUOUS
  5
202
 10
247.728784
 20
196.0
 30
0.0
 11
275.48924
 21
192.345267
 31
0.0
  0
LINE
  8
LC-009-003-----0
  6
CONTINUOUS
  5
203
 10
275.48924
 20
192.345267
 30
0.0
 11
275.48924
 21
199.654733
 31
0.0
  0
LINE
  8
LC-009-003-----0
  6
CONTINUOUS
  5
204
 10
275.551522
 20
198.704503
 30
0.0
 11
255.008784
 21
196.0
 31
0.0
  0
LINE
  8
LC-009-003-----0
  6
CONTINUOUS
  5
205
 10
255.008784
 20
196.0
 30
0.0
 11
275.551522
 21
193.295497
 31
0.0
  0
LINE
  8
LC-009-003-----0
  6
CONTINUOUS
  5
206
 10
275.613803
 20
197.754272
 30
0.0
 11
262.288784
 21
196.0
 31
0.0
  0
LINE
  8
LC-009-003-----0
  6
CONTINUOUS
  5
207
 10
262.288784
 20
196.0
 30
0.0
 11
275.613803
 21
194.245728
 31
0.0
  0
LINE
  8
LC-009-003-----0
  6
CONTINUOUS
  5
208
 10
275.676084
 20
196.804041
 30
0.0
 11
269.568784
 21
196.0
 31
0.0
  0
LINE
  8
LC-009-003-----0
  6
CONTINUOUS
  5
209
 10
269.568784
 20
196.0
 30
0.0
 11
275.676084
 21
195.195959
 31
0.0
  0
LINE
  8
LC-011-003-MTG-0
  6
CONTINUOUS
  5
20A
 10
133.529022
 20
196.0
 30
0.0
 11
376.698884
 21
196.0
 31
0.0
  0
TEXT
  8
LC-009-003-----0
  6
CONTINUOUS
 62
     8
  5
20B
 10
290.156944
 20
203.827554
 30
0.0
 40
28.0
  1
DN70
 51
15.0
  7
LC-TXTSTYLE-150-400-0-0-D0
  0
ENDBLK
  8
0
  5
20C
  0
BLOCK
  8
0
  5
20E
  2
*D10
 70
    65
 10
0.0
 20
0.0
 30
0.0
  3
*D10
  0
LINE
  8
LC-010-003-MTH-0
  6
CONTINUOUS
  5
20F
 10
185.228923
 20
257.129634
 30
0.0
 11
185.228923
 21
218.4
 31
0.0
  0
LINE
  8
LC-010-003-MTH-0
  6
CONTINUOUS
  5
210
 10
235.228924
 20
257.129634
 30
0.0
 11
235.228924
 21
218.4
 31
0.0
  0
LINE
  8
LC-009-003-----0
  6
CONTINUOUS
  5
211
 10
157.468467
 20
231.545267
 30
0.0
 11
185.228923
 21
235.2
 31
0.0
  0
LINE
  8
LC-009-003-----0
  6
CONTINUOUS
  5
212
 10
185.228923
 20
235.2
 30
0.0
 11
157.468467
 21
238.854733
 31
0.0
  0
LINE
  8
LC-009-003-----0
  6
CONTINUOUS
  5
213
 10
157.468467
 20
238.854733
 30
0.0
 11
157.468467
 21
231.545267
 31
0.0
  0
LINE
  8
LC-009-003-----0
  6
CONTINUOUS
  5
214
 10
157.406185
 20
232.495497
 30
0.0
 11
177.948923
 21
235.2
 31
0.0
  0
LINE
  8
LC-009-003-----0
  6
CONTINUOUS
  5
215
 10
177.948923
 20
235.2
 30
0.0
 11
157.406185
 21
237.904503
 31
0.0
  0
LINE
  8
LC-009-003-----0
  6
CONTINUOUS
  5
216
 10
157.343904
 20
233.445728
 30
0.0
 11
170.668923
 21
235.2
 31
0.0
  0
LINE
  8
LC-009-003-----0
  6
CONTINUOUS
  5
217
 10
170.668923
 20
235.2
 30
0.0
 11
157.343904
 21
236.954272
 31
0.0
  0
LINE
  8
LC-009-003-----0
  6
CONTINUOUS
  5
218
 10
157.281622
 20
234.395959
 30
0.0
 11
163.388923
 21
235.2
 31
0.0
  0
LINE
  8
LC-009-003-----0
  6
CONTINUOUS
  5
219
 10
163.388923
 20
235.2
 30
0.0
 11
157.281622
 21
236.004041
 31
0.0
  0
LINE
  8
LC-009-003-----0
  6
CONTINUOUS
  5
21A
 10
262.98938
 20
238.854733
 30
0.0
 11
235.228924
 21
235.2
 31
0.0
  0
LINE
  8
LC-009-003-----0
  6
CONTINUOUS
  5
21B
 10
235.228924
 20
235.2
 30
0.0
 11
262.98938
 21
231.545267
 31
0.0
  0
LINE
  8
LC-009-003-----0
  6
CONTINUOUS
  5
21C
 10
262.98938
 20
231.545267
 30
0.0
 11
262.98938
 21
238.854733
 31
0.0
  0
LINE
  8
LC-009-003-----0
  6
CONTINUOUS
  5
21D
 10
263.051662
 20
237.904503
 30
0.0
 11
242.508924
 21
235.2
 31
0.0
  0
LINE
  8
LC-009-003-----0
  6
CONTINUOUS
  5
21E
 10
242.508924
 20
235.2
 30
0.0
 11
263.051662
 21
232.495497
 31
0.0
  0
LINE
  8
LC-009-003-----0
  6
CONTINUOUS
  5
21F
 10
263.113943
 20
236.954272
 30
0.0
 11
249.788924
 21
235.2
 31
0.0
  0
LINE
  8
LC-009-003-----0
  6
CONTINUOUS
  5
220
 10
249.788924
 20
235.2
 30
0.0
 11
263.113943
 21
233.445728
 31
0.0
  0
LINE
  8
LC-009-003-----0
  6
CONTINUOUS
  5
221
 10
263.176224
 20
236.004041
 30
0.0
 11
257.068924
 21
235.2
 31
0.0
  0
LINE
  8
LC-009-003-----0
  6
CONTINUOUS
  5
222
 10
257.068924
 20
235.2
 30
0.0
 11
263.176224
 21
234.395959
 31
0.0
  0
LINE
  8
LC-011-003-MTG-0
  6
CONTINUOUS
  5
223
 10
146.028923
 20
235.2
 30
0.0
 11
379.52114
 21
235.2
 31
0.0
  0
TEXT
  8
LC-009-003-----0
  6
CONTINUOUS
 62
     8
  5
224
 10
292.9792
 20
243.027554
 30
0.0
 40
28.0
  1
DN50
 51
15.0
  7
LC-TXTSTYLE-150-400-0-0-D0
  0
ENDBLK
  8
0
  5
225
  0
BLOCK
  8
0
  5
227
  2
*D11
 70
    65
 10
0.0
 20
0.0
 30
0.0
  3
*D11
  0
LINE
  8
LC-010-003-MTH-0
  6
CONTINUOUS
  5
228
 10
142.248
 20
306.72816
 30
0.0
 11
22.4
 21
306.72816
 31
0.0
  0
LINE
  8
LC-010-003-MTH-0
  6
CONTINUOUS
  5
229
 10
60.074636
 20
416.513407
 30
0.0
 11
22.4
 21
416.513407
 31
0.0
  0
LINE
  8
LC-011-003-MTG-0
  6
CONTINUOUS
  5
22A
 10
39.2
 20
306.72816
 30
0.0
 11
39.2
 21
416.513407
 31
0.0
  0
LINE
  8
LC-009-003-----0
  6
CONTINUOUS
  5
22B
 10
35.545267
 20
334.488616
 30
0.0
 11
39.2
 21
306.72816
 31
0.0
  0
LINE
  8
LC-009-003-----0
  6
CONTINUOUS
  5
22C
 10
39.2
 20
306.72816
 30
0.0
 11
42.854733
 21
334.488616
 31
0.0
  0
LINE
  8
LC-009-003-----0
  6
CONTINUOUS
  5
22D
 10
42.854733
 20
334.488616
 30
0.0
 11
35.545267
 21
334.488616
 31
0.0
  0
LINE
  8
LC-009-003-----0
  6
CONTINUOUS
  5
22E
 10
36.495497
 20
334.550897
 30
0.0
 11
39.2
 21
314.00816
 31
0.0
  0
LINE
  8
LC-009-003-----0
  6
CONTINUOUS
  5
22F
 10
39.2
 20
314.00816
 30
0.0
 11
41.904503
 21
334.550897
 31
0.0
  0
LINE
  8
LC-009-003-----0
  6
CONTINUOUS
  5
230
 10
37.445728
 20
334.613179
 30
0.0
 11
39.2
 21
321.28816
 31
0.0
  0
LINE
  8
LC-009-003-----0
  6
CONTINUOUS
  5
231
 10
39.2
 20
321.28816
 30
0.0
 11
40.954272
 21
334.613179
 31
0.0
  0
LINE
  8
LC-009-003-----0
  6
CONTINUOUS
  5
232
 10
38.395959
 20
334.67546
 30
0.0
 11
39.2
 21
328.56816
 31
0.0
  0
LINE
  8
LC-009-003-----0
  6
CONTINUOUS
  5
233
 10
39.2
 20
328.56816
 30
0.0
 11
40.004041
 21
334.67546
 31
0.0
  0
LINE
  8
LC-009-003-----0
  6
CONTINUOUS
  5
234
 10
42.854733
 20
388.752951
 30
0.0
 11
39.2
 21
416.513407
 31
0.0
  0
LINE
  8
LC-009-003-----0
  6
CONTINUOUS
  5
235
 10
39.2
 20
416.513407
 30
0.0
 11
35.545267
 21
388.752951
 31
0.0
  0
LINE
  8
LC-009-003-----0
  6
CONTINUOUS
  5
236
 10
35.545267
 20
388.752951
 30
0.0
 11
42.854733
 21
388.752951
 31
0.0
  0
LINE
  8
LC-009-003-----0
  6
CONTINUOUS
  5
237
 10
41.904503
 20
388.690669
 30
0.0
 11
39.2
 21
409.233407
 31
0.0
  0
LINE
  8
LC-009-003-----0
  6
CONTINUOUS
  5
238
 10
39.2
 20
409.233407
 30
0.0
 11
36.495497
 21
388.690669
 31
0.0
  0
LINE
  8
LC-009-003-----0
  6
CONTINUOUS
  5
239
 10
40.954272
 20
388.628388
 30
0.0
 11
39.2
 21
401.953407
 31
0.0
  0
LINE
  8
LC-009-003-----0
  6
CONTINUOUS
  5
23A
 10
39.2
 20
401.953407
 30
0.0
 11
37.445728
 21
388.628388
 31
0.0
  0
LINE
  8
LC-009-003-----0
  6
CONTINUOUS
  5
23B
 10
40.004041
 20
388.566106
 30
0.0
 11
39.2
 21
394.673407
 31
0.0
  0
LINE
  8
LC-009-003-----0
  6
CONTINUOUS
  5
23C
 10
39.2
 20
394.673407
 30
0.0
 11
38.395959
 21
388.566106
 31
0.0
  0
TEXT
  8
LC-009-003-----0
  6
CONTINUOUS
 62
     8
  5
23D
 10
31.372446
 20
336.205164
 30
0.0
 40
28.0
  1
110
 50
90.0
 51
15.0
  7
LC-TXTSTYLE-150-400-0-0-D0
 72
     1
 11
31.372446
 21
365.968943
 31
0.0
  0
ENDBLK
  8
0
  5
23E
  0
BLOCK
  8
0
  5
240
  2
*D12
 70
    65
 10
0.0
 20
0.0
 30
0.0
  3
*D12
  0
LINE
  8
LC-010-003-MTH-0
  6
CONTINUOUS
  5
241
 10
168.728001
 20
328.216189
 30
0.0
 11
61.6
 21
328.216189
 31
0.0
  0
LINE
  8
LC-010-003-MTH-0
  6
CONTINUOUS
  5
242
 10
178.970283
 20
377.716192
 30
0.0
 11
61.6
 21
377.716192
 31
0.0
  0
LINE
  8
LC-009-003-----0
  6
CONTINUOUS
  5
243
 10
82.054733
 20
300.455733
 30
0.0
 11
78.4
 21
328.216189
 31
0.0
  0
LINE
  8
LC-009-003-----0
  6
CONTINUOUS
  5
244
 10
78.4
 20
328.216189
 30
0.0
 11
74.745267
 21
300.455733
 31
0.0
  0
LINE
  8
LC-009-003-----0
  6
CONTINUOUS
  5
245
 10
74.745267
 20
300.455733
 30
0.0
 11
82.054733
 21
300.455733
 31
0.0
  0
LINE
  8
LC-009-003-----0
  6
CONTINUOUS
  5
246
 10
81.104503
 20
300.393452
 30
0.0
 11
78.4
 21
320.936189
 31
0.0
  0
LINE
  8
LC-009-003-----0
  6
CONTINUOUS
  5
247
 10
78.4
 20
320.936189
 30
0.0
 11
75.695497
 21
300.393452
 31
0.0
  0
LINE
  8
LC-009-003-----0
  6
CONTINUOUS
  5
248
 10
80.154272
 20
300.33117
 30
0.0
 11
78.4
 21
313.656189
 31
0.0
  0
LINE
  8
LC-009-003-----0
  6
CONTINUOUS
  5
249
 10
78.4
 20
313.656189
 30
0.0
 11
76.645728
 21
300.33117
 31
0.0
  0
LINE
  8
LC-009-003-----0
  6
CONTINUOUS
  5
24A
 10
79.204041
 20
300.268889
 30
0.0
 11
78.4
 21
306.376189
 31
0.0
  0
LINE
  8
LC-009-003-----0
  6
CONTINUOUS
  5
24B
 10
78.4
 20
306.376189
 30
0.0
 11
77.595959
 21
300.268889
 31
0.0
  0
LINE
  8
LC-009-003-----0
  6
CONTINUOUS
  5
24C
 10
74.745267
 20
405.476648
 30
0.0
 11
78.4
 21
377.716192
 31
0.0
  0
LINE
  8
LC-009-003-----0
  6
CONTINUOUS
  5
24D
 10
78.4
 20
377.716192
 30
0.0
 11
82.054733
 21
405.476648
 31
0.0
  0
LINE
  8
LC-009-003-----0
  6
CONTINUOUS
  5
24E
 10
82.054733
 20
405.476648
 30
0.0
 11
74.745267
 21
405.476648
 31
0.0
  0
LINE
  8
LC-009-003-----0
  6
CONTINUOUS
  5
24F
 10
75.695497
 20
405.538929
 30
0.0
 11
78.4
 21
384.996192
 31
0.0
  0
LINE
  8
LC-009-003-----0
  6
CONTINUOUS
  5
250
 10
78.4
 20
384.996192
 30
0.0
 11
81.104503
 21
405.538929
 31
0.0
  0
LINE
  8
LC-009-003-----0
  6
CONTINUOUS
  5
251
 10
76.645728
 20
405.601211
 30
0.0
 11
78.4
 21
392.276192
 31
0.0
  0
LINE
  8
LC-009-003-----0
  6
CONTINUOUS
  5
252
 10
78.4
 20
392.276192
 30
0.0
 11
80.154272
 21
405.601211
 31
0.0
  0
LINE
  8
LC-009-003-----0
  6
CONTINUOUS
  5
253
 10
77.595959
 20
405.663492
 30
0.0
 11
78.4
 21
399.556192
 31
0.0
  0
LINE
  8
LC-009-003-----0
  6
CONTINUOUS
  5
254
 10
78.4
 20
399.556192
 30
0.0
 11
79.204041
 21
405.663492
 31
0.0
  0
LINE
  8
LC-011-003-MTG-0
  6
CONTINUOUS
  5
255
 10
78.4
 20
289.016189
 30
0.0
 11
78.4
 21
416.916192
 31
0.0
  0
TEXT
  8
LC-009-003-----0
  6
CONTINUOUS
 62
     8
  5
256
 10
70.572446
 20
340.911201
 30
0.0
 40
28.0
  1
50
 50
90.0
 51
15.0
  7
LC-TXTSTYLE-150-400-0-0-D0
 72
     1
 11
70.572446
 21
357.31435
 31
0.0
  0
ENDBLK
  8
0
  5
257
  0
BLOCK
  8
0
  5
259
  2
*D13
 70
    65
 10
0.0
 20
0.0
 30
0.0
  3
*D13
  0
LINE
  8
LC-010-003-MTH-0
  6
CONTINUOUS
  5
25A
 10
115.724022
 20
407.262919
 30
0.0
 11
115.724022
 21
448.0
 31
0.0
  0
LINE
  8
LC-010-003-MTH-0
  6
CONTINUOUS
  5
25B
 10
304.726099
 20
407.262919
 30
0.0
 11
304.726099
 21
448.0
 31
0.0
  0
LINE
  8
LC-011-003-MTG-0
  6
CONTINUOUS
  5
25C
 10
115.724022
 20
431.2
 30
0.0
 11
304.726099
 21
431.2
 31
0.0
  0
LINE
  8
LC-009-003-----0
  6
CONTINUOUS
  5
25D
 10
143.484478
 20
434.854733
 30
0.0
 11
115.724022
 21
431.2
 31
0.0
  0
LINE
  8
LC-009-003-----0
  6
CONTINUOUS
  5
25E
 10
115.724022
 20
431.2
 30
0.0
 11
143.484478
 21
427.545267
 31
0.0
  0
LINE
  8
LC-009-003-----0
  6
CONTINUOUS
  5
25F
 10
143.484478
 20
427.545267
 30
0.0
 11
143.484478
 21
434.854733
 31
0.0
  0
LINE
  8
LC-009-003-----0
  6
CONTINUOUS
  5
260
 10
143.546759
 20
433.904503
 30
0.0
 11
123.004022
 21
431.2
 31
0.0
  0
LINE
  8
LC-009-003-----0
  6
CONTINUOUS
  5
261
 10
123.004022
 20
431.2
 30
0.0
 11
143.546759
 21
428.495497
 31
0.0
  0
LINE
  8
LC-009-003-----0
  6
CONTINUOUS
  5
262
 10
143.609041
 20
432.954272
 30
0.0
 11
130.284022
 21
431.2
 31
0.0
  0
LINE
  8
LC-009-003-----0
  6
CONTINUOUS
  5
263
 10
130.284022
 20
431.2
 30
0.0
 11
143.609041
 21
429.445728
 31
0.0
  0
LINE
  8
LC-009-003-----0
  6
CONTINUOUS
  5
264
 10
143.671322
 20
432.004041
 30
0.0
 11
137.564022
 21
431.2
 31
0.0
  0
LINE
  8
LC-009-003-----0
  6
CONTINUOUS
  5
265
 10
137.564022
 20
431.2
 30
0.0
 11
143.671322
 21
430.395959
 31
0.0
  0
LINE
  8
LC-009-003-----0
  6
CONTINUOUS
  5
266
 10
276.965643
 20
427.545267
 30
0.0
 11
304.726099
 21
431.2
 31
0.0
  0
LINE
  8
LC-009-003-----0
  6
CONTINUOUS
  5
267
 10
304.726099
 20
431.2
 30
0.0
 11
276.965643
 21
434.854733
 31
0.0
  0
LINE
  8
LC-009-003-----0
  6
CONTINUOUS
  5
268
 10
276.965643
 20
434.854733
 30
0.0
 11
276.965643
 21
427.545267
 31
0.0
  0
LINE
  8
LC-009-003-----0
  6
CONTINUOUS
  5
269
 10
276.903361
 20
428.495497
 30
0.0
 11
297.446099
 21
431.2
 31
0.0
  0
LINE
  8
LC-009-003-----0
  6
CONTINUOUS
  5
26A
 10
297.446099
 20
431.2
 30
0.0
 11
276.903361
 21
433.904503
 31
0.0
  0
LINE
  8
LC-009-003-----0
  6
CONTINUOUS
  5
26B
 10
276.84108
 20
429.445728
 30
0.0
 11
290.166099
 21
431.2
 31
0.0
  0
LINE
  8
LC-009-003-----0
  6
CONTINUOUS
  5
26C
 10
290.166099
 20
431.2
 30
0.0
 11
276.84108
 21
432.954272
 31
0.0
  0
LINE
  8
LC-009-003-----0
  6
CONTINUOUS
  5
26D
 10
276.778799
 20
430.395959
 30
0.0
 11
282.886099
 21
431.2
 31
0.0
  0
LINE
  8
LC-009-003-----0
  6
CONTINUOUS
  5
26E
 10
282.886099
 20
431.2
 30
0.0
 11
276.778799
 21
432.004041
 31
0.0
  0
TEXT
  8
LC-009-003-----0
  6
CONTINUOUS
 62
     8
  5
26F
 10
176.475583
 20
439.027554
 30
0.0
 40
28.0
  1
Ø190
 51
15.0
  7
LC-TXTSTYLE-150-400-0-0-D0
 72
     1
 11
214.57322
 21
439.027554
 31
0.0
  0
ENDBLK
  8
0
  5
270
  0
BLOCK
  8
0
  5
272
  2
*D14
 70
    65
 10
0.0
 20
0.0
 30
0.0
  3
*D14
  0
LINE
  8
LC-010-003-MTH-0
  6
CONTINUOUS
  5
273
 10
130.295866
 20
318.680294
 30
0.0
 11
130.295866
 21
140.0
 31
0.0
  0
LINE
  8
LC-010-003-MTH-0
  6
CONTINUOUS
  5
274
 10
290.161939
 20
209.682
 30
0.0
 11
290.161939
 21
140.0
 31
0.0
  0
LINE
  8
LC-011-003-MTG-0
  6
CONTINUOUS
  5
275
 10
130.295866
 20
156.8
 30
0.0
 11
290.161939
 21
156.8
 31
0.0
  0
LINE
  8
LC-009-003-----0
  6
CONTINUOUS
  5
276
 10
158.056322
 20
160.454733
 30
0.0
 11
130.295866
 21
156.8
 31
0.0
  0
LINE
  8
LC-009-003-----0
  6
CONTINUOUS
  5
277
 10
130.295866
 20
156.8
 30
0.0
 11
158.056322
 21
153.145267
 31
0.0
  0
LINE
  8
LC-009-003-----0
  6
CONTINUOUS
  5
278
 10
158.056322
 20
153.145267
 30
0.0
 11
158.056322
 21
160.454733
 31
0.0
  0
LINE
  8
LC-009-003-----0
  6
CONTINUOUS
  5
279
 10
158.118603
 20
159.504503
 30
0.0
 11
137.575866
 21
156.8
 31
0.0
  0
LINE
  8
LC-009-003-----0
  6
CONTINUOUS
  5
27A
 10
137.575866
 20
156.8
 30
0.0
 11
158.118603
 21
154.095497
 31
0.0
  0
LINE
  8
LC-009-003-----0
  6
CONTINUOUS
  5
27B
 10
158.180885
 20
158.554272
 30
0.0
 11
144.855866
 21
156.8
 31
0.0
  0
LINE
  8
LC-009-003-----0
  6
CONTINUOUS
  5
27C
 10
144.855866
 20
156.8
 30
0.0
 11
158.180885
 21
155.045728
 31
0.0
  0
LINE
  8
LC-009-003-----0
  6
CONTINUOUS
  5
27D
 10
158.243166
 20
157.604041
 30
0.0
 11
152.135866
 21
156.8
 31
0.0
  0
LINE
  8
LC-009-003-----0
  6
CONTINUOUS
  5
27E
 10
152.135866
 20
156.8
 30
0.0
 11
158.243166
 21
155.995959
 31
0.0
  0
LINE
  8
LC-009-003-----0
  6
CONTINUOUS
  5
27F
 10
262.401483
 20
153.145267
 30
0.0
 11
290.161939
 21
156.8
 31
0.0
  0
LINE
  8
LC-009-003-----0
  6
CONTINUOUS
  5
280
 10
290.161939
 20
156.8
 30
0.0
 11
262.401483
 21
160.454733
 31
0.0
  0
LINE
  8
LC-009-003-----0
  6
CONTINUOUS
  5
281
 10
262.401483
 20
160.454733
 30
0.0
 11
262.401483
 21
153.145267
 31
0.0
  0
LINE
  8
LC-009-003-----0
  6
CONTINUOUS
  5
282
 10
262.339201
 20
154.095497
 30
0.0
 11
282.881939
 21
156.8
 31
0.0
  0
LINE
  8
LC-009-003-----0
  6
CONTINUOUS
  5
283
 10
282.881939
 20
156.8
 30
0.0
 11
262.339201
 21
159.504503
 31
0.0
  0
LINE
  8
LC-009-003-----0
  6
CONTINUOUS
  5
284
 10
262.27692
 20
155.045728
 30
0.0
 11
275.601939
 21
156.8
 31
0.0
  0
LINE
  8
LC-009-003-----0
  6
CONTINUOUS
  5
285
 10
275.601939
 20
156.8
 30
0.0
 11
262.27692
 21
158.554272
 31
0.0
  0
LINE
  8
LC-009-003-----0
  6
CONTINUOUS
  5
286
 10
262.214639
 20
155.995959
 30
0.0
 11
268.321939
 21
156.8
 31
0.0
  0
LINE
  8
LC-009-003-----0
  6
CONTINUOUS
  5
287
 10
268.321939
 20
156.8
 30
0.0
 11
262.214639
 21
157.604041
 31
0.0
  0
TEXT
  8
LC-009-003-----0
  6
CONTINUOUS
 62
     8
  5
288
 10
176.479424
 20
164.627554
 30
0.0
 40
28.0
  1
Ø160
 51
15.0
  7
LC-TXTSTYLE-150-400-0-0-D0
 72
     1
 11
214.577062
 21
164.627554
 31
0.0
  0
ENDBLK
  8
0
  5
289
  0
ENDSEC
  0
SECTION
  2
ENTITIES
  0
VIEWPORT
  8
LC-000
  5
3B1
 67
     1
 68
     1
 10
420.0
 20
297.0
 30
0.0
 40
840.0
 41
594.0
 69
     1
1001
ACAD
1000
MVIEW
1002
{
1070
    16
1010
0.0
1020
0.0
1030
0.0
1010
0.0
1020
0.0
1030
1.0
1040
0.0
1040
594.0
1040
420.0
1040
297.0
1040
50.0
1040
0.0
1040
0.0
1070
     0
1070
   100
1070
     1
1070
     1
1070
     0
1070
     0
1070
     0
1070
     0
1040
0.0
1040
0.0
1040
0.0
1040
1.0
1040
1.0
1040
0.0
1040
0.0
1070
     0
1002
{
1002
}
1002
}
  0
VIEWPORT
  8
0
  5
3B2
 67
     1
 68
     1
 10
0.0
 20
0.0
 30
0.0
 40
0.0
 41
0.0
 69
     1
1001
ACAD
1000
MVIEW
1002
{
1070
    16
1010
0.0
1020
0.0
1030
0.0
1010
0.0
1020
0.0
1030
1.0
1040
0.0
1040
594.0
1040
0.0
1040
0.0
1040
50.0
1040
0.0
1040
0.0
1070
     0
1070
   100
1070
     0
1070
     1
1070
     0
1070
     0
1070
     0
1070
     0
1040
0.0
1040
0.0
1040
0.0
1040
0.5
1040
0.5
1040
0.5
1040
0.5
1070
     0
1002
{
1002
}
1002
}
  0
INSERT
  8
0
  5
28A
  2
*X0
 10
230.226383
 20
247.726578
 30
0.0
  0
INSERT
  8
0
  5
28B
  2
*X1
 10
60.074636
 20
247.728159
 30
0.0
  0
INSERT
  8
0
  5
28D
  2
BLK1
 10
0.0
 20
0.0
 30
0.0
  0
INSERT
  8
0
  5
28E
  2
*X3
 10
168.727997
 20
328.216189
 30
0.0
  0
INSERT
  8
0
  5
28F
  2
BLK2
 10
0.0
 20
0.0
 30
0.0
  0
INSERT
  8
0
  5
291
  2
BLK3
 10
0.0
 20
0.0
 30
0.0
  0
INSERT
  8
0
  5
292
  2
*X6
 10
279.728771
 20
393.742209
 30
0.0
  0
INSERT
  8
0
  5
293
  2
*X7
 10
118.478771
 20
393.742209
 30
0.0
  0
DIMENSION
  8
0
  5
294
  2
*D8
 10
210.22506
 20
470.4
 30
0.0
 11
210.22506
 21
470.4
 31
0.0
  1
%%c300
 13
60.074636
 23
416.513407
 33
0.0
 14
360.375484
 24
416.513407
 34
0.0
  3
LC-DIM-L-0140-02-02
  0
DIMENSION
  8
0
  5
295
  2
*D9
 10
210.228903
 20
196.0
 30
0.0
 11
210.228903
 21
196.0
 31
0.0
  1
DN70
 13
172.729022
 23
251.214374
 33
0.0
 14
247.728784
 24
251.214374
 34
0.0
  3
LC-DIM-L-0140-02-02
  0
DIMENSION
  8
0
  5
296
  2
*D10
 10
329.03609
 20
235.2
 30
0.0
 11
329.03609
 21
235.2
 31
0.0
  1
DN50
 13
185.228923
 23
257.129634
 33
0.0
 14
235.228924
 24
257.129634
 34
0.0
  3
LC-DIM-L-0140-02-02
  0
DIMENSION
  8
0
  5
297
  2
*D11
 10
39.2
 20
361.620783
 30
0.0
 11
39.2
 21
361.620783
 31
0.0
  1
110
 13
60.074636
 23
416.513407
 33
0.0
 14
142.248
 24
306.72816
 34
0.0
 50
90.0
  3
LC-DIM-L-0140-02-02
  0
DIMENSION
  8
0
  5
298
  2
*D12
 10
78.4
 20
352.96619
 30
0.0
 11
78.4
 21
352.96619
 31
0.0
  1
50
 13
168.728001
 23
328.216189
 33
0.0
 14
178.970283
 24
377.716192
 34
0.0
 50
90.0
  3
LC-DIM-L-0140-02-02
  0
DIMENSION
  8
0
  5
299
  2
*D13
 10
210.22506
 20
431.2
 30
0.0
 11
210.22506
 21
431.2
 31
0.0
  1
%%c190
 13
115.724022
 23
407.262919
 33
0.0
 14
304.726099
 24
407.262919
 34
0.0
  3
LC-DIM-L-0140-02-02
  0
DIMENSION
  8
0
  5
29A
  2
*D14
 10
210.228902
 20
156.8
 30
0.0
 11
210.228902
 21
156.8
 31
0.0
  1
%%c160
 13
130.295866
 23
318.680294
 33
0.0
 14
290.161939
 24
209.682
 34
0.0
  3
LC-DIM-L-0140-02-02
  0
LINE
  8
LC-001-103-D00-1
  6
CONTINUOUS
  5
29C
 10
235.228924
 20
257.129634
 30
0.0
 11
234.29483
 21
253.643593
 31
0.0
  0
ARC
  8
LC-002-002-----0
  6
CONTINUOUS
  5
29E
 10
278.209804
 20
318.680441
 30
0.0
 40
11.952134
 50
269.999963
 51
0.0
  0
LINE
  8
LC-002-002-----0
  6
CONTINUOUS
  5
29F
 10
244.637465
 20
306.728346
 30
0.0
 11
244.637465
 21
306.781049
 31
0.0
  0
ARC
  8
LC-003-002-RND-0
  6
CONTINUOUS
  5
2A1
 10
62.074636
 20
417.364
 30
0.0
 40
2.0
 50
86.000003
 51
180.0
  0
LINE
  8
LC-002-002-----0
  6
CONTINUOUS
  5
2A2
 10
247.728783
 20
306.728336
 30
0.0
 11
247.728784
 21
251.214374
 31
0.0
  0
LINE
  8
LC-002-002-----0
  6
CONTINUOUS
  5
2A3
 10
175.812814
 20
309.716193
 30
0.0
 11
176.858626
 21
309.716193
 31
0.0
  0
LINE
  8
LC-002-002-----0
  6
CONTINUOUS
  5
2A4
 10
247.728784
 20
251.214374
 30
0.0
 11
246.794703
 21
247.728336
 31
0.0
  0
LINE
  8
LC-002-002-----0
  6
CONTINUOUS
  5
2A5
 10
172.729021
 20
306.72816
 30
0.0
 11
172.729022
 21
251.214374
 31
0.0
  0
LINE
  8
LC-002-002-----0
  6
CONTINUOUS
  5
2A6
 10
172.729022
 20
251.214374
 30
0.0
 11
173.66315
 21
247.728335
 31
0.0
  0
LINE
  8
LC-002-002-----0
  6
CONTINUOUS
  5
2A7
 10
244.637467
 20
309.716193
 30
0.0
 11
244.637467
 21
309.716193
 31
0.0
  0
LINE
  8
LC-002-002-----0
  6
CONTINUOUS
  5
2A8
 10
123.823169
 20
404.372239
 30
0.0
 11
123.823169
 21
410.846311
 31
0.0
  0
LINE
  8
LC-002-002-----0
  6
CONTINUOUS
  5
2A9
 10
121.831146
 20
410.846311
 30
0.0
 11
123.823169
 21
410.846311
 31
0.0
  0
LINE
  8
LC-002-002-----0
  6
CONTINUOUS
  5
2AA
 10
296.626952
 20
404.372239
 30
0.0
 11
296.626952
 21
410.846311
 31
0.0
  0
LINE
  8
LC-002-002-----0
  6
CONTINUOUS
  5
2AB
 10
298.618974
 20
410.846311
 30
0.0
 11
296.626952
 21
410.846311
 31
0.0
  0
LINE
  8
LC-002-002-----0
  6
CONTINUOUS
  5
2AC
 10
298.618974
 20
404.870244
 30
0.0
 11
298.618974
 21
410.846311
 31
0.0
  0
LINE
  8
LC-002-002-----0
  6
CONTINUOUS
  5
2AD
 10
121.831146
 20
404.870244
 30
0.0
 11
121.831146
 21
410.846311
 31
0.0
  0
LINE
  8
LC-002-002-----0
  6
CONTINUOUS
  5
2AE
 10
119.839124
 20
404.870244
 30
0.0
 11
121.831146
 21
404.870244
 31
0.0
  0
LINE
  8
LC-002-002-----0
  6
CONTINUOUS
  5
2AF
 10
133.034897
 20
318.680294
 30
0.0
 11
133.034897
 21
384.199458
 31
0.0
  0
ARC
  8
LC-002-002-----0
  6
CONTINUOUS
  5
2B0
 10
142.248
 20
318.680294
 30
0.0
 40
11.952134
 50
180.0
 51
270.0
  0
LINE
  8
LC-002-002-----0
  6
CONTINUOUS
  5
2B1
 10
131.690281
 20
393.412562
 30
0.0
 11
169.911448
 21
393.412562
 31
0.0
  0
LINE
  8
LC-002-002-----0
  6
CONTINUOUS
  5
2B2
 10
244.637431
 20
247.728336
 30
0.0
 11
244.637456
 21
306.728336
 31
0.0
  0
LINE
  8
LC-002-002-----0
  6
CONTINUOUS
  5
2B3
 10
246.794703
 20
247.728336
 30
0.0
 11
210.225187
 21
247.728351
 31
0.0
  0
LINE
  8
LC-002-002-----0
  6
CONTINUOUS
  5
2B4
 10
132.48709
 20
392.615753
 30
0.0
 11
132.686293
 21
392.615753
 31
0.0
  0
LINE
  8
LC-002-002-----0
  6
CONTINUOUS
  5
2B5
 10
123.821793
 20
393.910568
 30
0.0
 11
123.821793
 21
410.842758
 31
0.0
  0
LINE
  8
LC-002-002-----0
  6
CONTINUOUS
  5
2B6
 10
300.610996
 20
404.870244
 30
0.0
 11
298.618974
 21
404.870244
 31
0.0
  0
LINE
  8
LC-002-002-----0
  6
CONTINUOUS
  5
2B7
 10
132.48709
 20
389.129714
 30
0.0
 11
132.48709
 21
390.623731
 31
0.0
  0
LINE
  8
LC-002-002-----0
  6
CONTINUOUS
  5
2B8
 10
132.48709
 20
385.693475
 30
0.0
 11
132.48709
 21
386.191481
 31
0.0
  0
LINE
  8
LC-002-002-----0
  6
CONTINUOUS
  5
2B9
 10
132.48709
 20
384.199458
 30
0.0
 11
132.48709
 21
387.137691
 31
0.0
  0
LINE
  8
LC-002-002-----0
  6
CONTINUOUS
  5
2BA
 10
132.48709
 20
384.199458
 30
0.0
 11
168.728009
 21
384.199458
 31
0.0
  0
LINE
  8
LC-002-002-----0
  6
CONTINUOUS
  5
2BB
 10
132.48709
 20
387.137691
 30
0.0
 11
132.686293
 21
387.137691
 31
0.0
  0
LINE
  8
LC-002-002-----0
  6
CONTINUOUS
  5
2BC
 10
133.483102
 20
387.9345
 30
0.0
 11
133.483102
 21
388.332905
 31
0.0
  0
LINE
  8
LC-002-002-----0
  6
CONTINUOUS
  5
2BD
 10
133.483102
 20
391.42054
 30
0.0
 11
133.483102
 21
391.818944
 31
0.0
  0
LINE
  8
LC-002-002-----0
  6
CONTINUOUS
  5
2BE
 10
132.48709
 20
390.623731
 30
0.0
 11
132.686293
 21
390.623731
 31
0.0
  0
ARC
  8
LC-002-002-----0
  6
CONTINUOUS
  5
2BF
 10
132.686293
 20
391.818944
 30
0.0
 40
0.796809
 50
0.0
 51
90.0
  0
ARC
  8
LC-002-002-----0
  6
CONTINUOUS
  5
2C0
 10
132.686293
 20
388.332905
 30
0.0
 40
0.796809
 50
0.0
 51
90.0
  0
LINE
  8
LC-002-002-----0
  6
CONTINUOUS
  5
2C1
 10
100.285534
 20
414.760864
 30
0.0
 11
118.392751
 21
413.433854
 31
0.0
  0
LINE
  8
LC-002-002-----0
  6
CONTINUOUS
  5
2C2
 10
119.786916
 20
404.866691
 30
0.0
 11
121.829771
 21
404.866691
 31
0.0
  0
ARC
  8
LC-002-002-----0
  6
CONTINUOUS
  5
2C3
 10
132.686293
 20
387.9345
 30
0.0
 40
0.796809
 50
270.0
 51
0.0
  0
ARC
  8
LC-002-002-----0
  6
CONTINUOUS
  5
2C4
 10
132.686293
 20
391.42054
 30
0.0
 40
0.796809
 50
270.0
 51
0.0
  0
LINE
  8
LC-002-002-----0
  6
CONTINUOUS
  5
2C5
 10
287.415224
 20
318.680294
 30
0.0
 11
287.415224
 21
384.199458
 31
0.0
  0
ARC
  8
LC-002-002-----0
  6
CONTINUOUS
  5
2C6
 10
124.319799
 20
393.910568
 30
0.0
 40
0.498006
 50
180.0
 51
270.0
  0
LINE
  8
LC-002-002-----0
  6
CONTINUOUS
  5
2C7
 10
121.829771
 20
404.866691
 30
0.0
 11
121.829771
 21
410.842758
 31
0.0
  0
LINE
  8
LC-002-002-----0
  6
CONTINUOUS
  5
2C8
 10
62.214149
 20
419.359128
 30
0.0
 11
94.41546
 21
417.107395
 31
0.0
  0
ARC
  8
LC-002-002-----0
  6
CONTINUOUS
  5
2C9
 10
119.786916
 20
405.862702
 30
0.0
 40
0.996011
 50
183.0
 51
270.0
  0
LINE
  8
LC-002-002-----0
  6
CONTINUOUS
  5
2CA
 10
60.074636
 20
416.513407
 30
0.0
 11
93.265091
 21
414.192507
 31
0.0
  0
LINE
  8
LC-002-002-----0
  6
CONTINUOUS
  5
2CB
 10
118.392751
 20
413.433854
 30
0.0
 11
118.79227
 21
405.810575
 31
0.0
  0
LINE
  8
LC-002-002-----0
  6
CONTINUOUS
  5
2CC
 10
60.074636
 20
417.364
 30
0.0
 11
60.074636
 21
416.513407
 31
0.0
  0
LINE
  8
LC-002-002-----0
  6
CONTINUOUS
  5
2CD
 10
287.96303
 20
392.615753
 30
0.0
 11
287.763828
 21
392.615753
 31
0.0
  0
LINE
  8
LC-002-002-----0
  6
CONTINUOUS
  5
2CE
 10
115.616345
 20
409.317523
 30
0.0
 11
115.831699
 21
405.208315
 31
0.0
  0
LINE
  8
LC-002-002-----0
  6
CONTINUOUS
  5
2CF
 10
93.265091
 20
414.192507
 30
0.0
 11
99.135165
 21
411.845975
 31
0.0
  0
ARC
  8
LC-003-002-RND-0
  6
CONTINUOUS
  5
2D0
 10
358.375484
 20
417.364
 30
0.0
 40
2.0
 50
0.0
 51
93.999996
  0
LINE
  8
LC-002-002-----0
  6
CONTINUOUS
  5
2D1
 10
358.375484
 20
419.364
 30
0.0
 11
62.074636
 21
419.364
 31
0.0
  0
LINE
  8
LC-002-002-----0
  6
CONTINUOUS
  5
2D2
 10
175.812814
 20
247.728159
 30
0.0
 11
175.812814
 21
306.781027
 31
0.0
  0
LINE
  8
LC-002-002-----0
  6
CONTINUOUS
  5
2D3
 10
132.48709
 20
389.129714
 30
0.0
 11
132.686293
 21
389.129714
 31
0.0
  0
LINE
  8
LC-002-002-----0
  6
CONTINUOUS
  5
2D4
 10
173.663197
 20
247.728159
 30
0.0
 11
210.225061
 21
247.728159
 31
0.0
  0
LINE
  8
LC-002-002-----0
  6
CONTINUOUS
  5
2D5
 10
130.295866
 20
318.680294
 30
0.0
 11
130.295866
 21
381.250898
 31
0.0
  0
LINE
  8
LC-002-002-----0
  6
CONTINUOUS
  5
2D6
 10
296.628327
 20
393.910568
 30
0.0
 11
296.628327
 21
410.842758
 31
0.0
  0
LINE
  8
LC-002-002-----0
  6
CONTINUOUS
  5
2D7
 10
287.96303
 20
389.129714
 30
0.0
 11
287.96303
 21
390.623731
 31
0.0
  0
LINE
  8
LC-002-002-----0
  6
CONTINUOUS
  5
2D8
 10
287.96303
 20
385.693475
 30
0.0
 11
287.96303
 21
386.191481
 31
0.0
  0
LINE
  8
LC-002-002-----0
  6
CONTINUOUS
  5
2D9
 10
287.96303
 20
384.199458
 30
0.0
 11
287.96303
 21
387.137691
 31
0.0
  0
ARC
  8
LC-002-002-----0
  6
CONTINUOUS
  5
2DA
 10
141.998997
 20
318.680294
 30
0.0
 40
8.964101
 50
180.0
 51
270.0
  0
ARC
  8
LC-004-001-RND-0
  6
CONTINUOUS
  5
2DC
 10
114.124375
 20
409.239333
 30
0.0
 40
1.494017
 50
3.0
 51
86.000003
  0
LINE
  8
LC-002-002-----0
  6
CONTINUOUS
  5
2DD
 10
287.96303
 20
384.199458
 30
0.0
 11
251.728204
 21
384.199458
 31
0.0
  0
LINE
  8
LC-002-002-----0
  6
CONTINUOUS
  5
2DE
 10
287.96303
 20
387.137691
 30
0.0
 11
287.763828
 21
387.137691
 31
0.0
  0
LINE
  8
LC-002-002-----0
  6
CONTINUOUS
  5
2DF
 10
286.967019
 20
387.9345
 30
0.0
 11
286.967019
 21
388.332905
 31
0.0
  0
LINE
  8
LC-002-002-----0
  6
CONTINUOUS
  5
2E0
 10
286.967019
 20
391.42054
 30
0.0
 11
286.967019
 21
391.818944
 31
0.0
  0
LINE
  8
LC-002-002-----0
  6
CONTINUOUS
  5
2E1
 10
287.96303
 20
390.623731
 30
0.0
 11
287.763828
 21
390.623731
 31
0.0
  0
LINE
  8
LC-002-002-----0
  6
CONTINUOUS
  5
2E2
 10
319.585389
 20
414.7179
 30
0.0
 11
302.05737
 21
413.433854
 31
0.0
  0
ARC
  8
LC-002-002-----0
  6
CONTINUOUS
  5
2E3
 10
287.763828
 20
391.818944
 30
0.0
 40
0.796809
 50
90.0
 51
180.0
  0
ARC
  8
LC-002-002-----0
  6
CONTINUOUS
  5
2E4
 10
287.763828
 20
388.332905
 30
0.0
 40
0.796809
 50
90.0
 51
180.0
  0
LINE
  8
LC-002-002-----0
  6
CONTINUOUS
  5
2E5
 10
300.663205
 20
404.866691
 30
0.0
 11
298.62035
 21
404.866691
 31
0.0
  0
LINE
  8
LC-002-002-----0
  6
CONTINUOUS
  5
2E6
 10
298.62035
 20
404.866691
 30
0.0
 11
298.62035
 21
410.842758
 31
0.0
  0
ARC
  8
LC-002-002-----0
  6
CONTINUOUS
  5
2E7
 10
287.763828
 20
387.9345
 30
0.0
 40
0.796809
 50
180.0
 51
270.0
  0
ARC
  8
LC-002-002-----0
  6
CONTINUOUS
  5
2E8
 10
287.763828
 20
391.42054
 30
0.0
 40
0.796809
 50
180.0
 51
270.0
  0
LINE
  8
LC-002-002-----0
  6
CONTINUOUS
  5
2E9
 10
358.235971
 20
419.359128
 30
0.0
 11
326.758251
 21
417.157993
 31
0.0
  0
ARC
  8
LC-002-002-----0
  6
CONTINUOUS
  5
2EA
 10
296.130322
 20
393.910568
 30
0.0
 40
0.498006
 50
270.0
 51
0.0
  0
LINE
  8
LC-002-002-----0
  6
CONTINUOUS
  5
2EB
 10
360.375484
 20
416.513407
 30
0.0
 11
327.908621
 21
414.243105
 31
0.0
  0
LINE
  8
LC-002-002-----0
  6
CONTINUOUS
  5
2EC
 10
302.05737
 20
413.433854
 30
0.0
 11
301.65785
 21
405.810575
 31
0.0
  0
ARC
  8
LC-002-002-----0
  6
CONTINUOUS
  5
2ED
 10
300.663205
 20
405.862702
 30
0.0
 40
0.996011
 50
270.0
 51
357.0
  0
LINE
  8
LC-002-002-----0
  6
CONTINUOUS
  5
2EE
 10
360.375484
 20
417.364
 30
0.0
 11
360.375484
 21
416.513407
 31
0.0
  0
LINE
  8
LC-002-002-----0
  6
CONTINUOUS
  5
2EF
 10
304.833776
 20
409.317523
 30
0.0
 11
304.618422
 21
405.208315
 31
0.0
  0
LINE
  8
LC-002-002-----0
  6
CONTINUOUS
  5
2F0
 10
327.908621
 20
414.243105
 30
0.0
 11
322.054902
 21
411.897209
 31
0.0
  0
LINE
  8
LC-002-002-----0
  6
CONTINUOUS
  5
2F1
 10
287.96303
 20
389.129714
 30
0.0
 11
287.763828
 21
389.129714
 31
0.0
  0
LINE
  8
LC-002-002-----0
  6
CONTINUOUS
  5
2F2
 10
299.367358
 20
394.408573
 30
0.0
 11
290.161939
 21
381.261871
 31
0.0
  0
LINE
  8
LC-002-002-----0
  6
CONTINUOUS
  5
2F3
 10
301.634483
 20
402.376663
 30
0.0
 11
301.359381
 21
402.376663
 31
0.0
  0
LINE
  8
LC-002-002-----0
  6
CONTINUOUS
  5
2F4
 10
121.082762
 20
394.408573
 30
0.0
 11
130.295866
 21
381.250898
 31
0.0
  0
LINE
  8
LC-005-001-----0
  6
CONTINUOUS
  5
2F6
 10
322.054902
 20
411.897209
 30
0.0
 11
306.221529
 21
410.72971
 31
0.0
  0
ARC
  8
LC-002-002-----0
  6
CONTINUOUS
  5
2F7
 10
278.451123
 20
318.680294
 30
0.0
 40
8.964101
 50
270.0
 51
0.0
  0
ARC
  8
LC-004-001-RND-0
  6
CONTINUOUS
  5
2F8
 10
306.325746
 20
409.239333
 30
0.0
 40
1.494017
 50
93.999997
 51
177.0
  0
LINE
  8
LC-002-002-----0
  6
CONTINUOUS
  5
2F9
 10
118.815637
 20
402.376663
 30
0.0
 11
119.09074
 21
402.376663
 31
0.0
  0
LINE
  8
LC-005-001-----0
  6
CONTINUOUS
  5
2FA
 10
99.135165
 20
411.845975
 30
0.0
 11
114.228593
 21
410.72971
 31
0.0
  0
LINE
  8
LC-002-002-----0
  6
CONTINUOUS
  5
2FB
 10
121.082762
 20
394.408573
 30
0.0
 11
121.082762
 21
400.38464
 31
0.0
  0
LINE
  8
LC-002-002-----0
  6
CONTINUOUS
  5
2FC
 10
124.319799
 20
393.412562
 30
0.0
 11
131.690281
 21
393.412562
 31
0.0
  0
LINE
  8
LC-002-002-----0
  6
CONTINUOUS
  5
2FD
 10
123.821793
 20
394.906579
 30
0.0
 11
123.821793
 21
396.200778
 31
0.0
  0
LINE
  8
LC-002-002-----0
  6
CONTINUOUS
  5
2FE
 10
299.367358
 20
394.408573
 30
0.0
 11
299.367358
 21
400.38464
 31
0.0
  0
ARC
  8
LC-002-002-----0
  6
CONTINUOUS
  5
2FF
 10
118.815637
 20
405.364696
 30
0.0
 40
2.988034
 50
183.0
 51
270.0
  0
ARC
  8
LC-002-002-----0
  6
CONTINUOUS
  5
300
 10
119.09074
 20
400.38464
 30
0.0
 40
1.992022
 50
0.0
 51
90.0
  0
LINE
  8
LC-002-002-----0
  6
CONTINUOUS
  5
301
 10
121.829771
 20
410.842758
 30
0.0
 11
123.821793
 21
410.842758
 31
0.0
  0
LINE
  8
LC-002-002-----0
  6
CONTINUOUS
  5
302
 10
132.48709
 20
385.444472
 30
0.0
 11
132.48709
 21
385.942478
 31
0.0
  0
LINE
  8
LC-002-002-----0
  6
CONTINUOUS
  5
303
 10
123.821793
 20
394.906579
 30
0.0
 11
123.821793
 21
396.200778
 31
0.0
  0
ARC
  8
LC-002-002-----0
  6
CONTINUOUS
  5
304
 10
301.634483
 20
405.364696
 30
0.0
 40
2.988034
 50
270.0
 51
357.0
  0
LINE
  8
LC-002-002-----0
  6
CONTINUOUS
  5
305
 10
296.130322
 20
393.412562
 30
0.0
 11
288.759839
 21
393.412562
 31
0.0
  0
ARC
  8
LC-002-002-----0
  6
CONTINUOUS
  5
306
 10
301.359381
 20
400.38464
 30
0.0
 40
1.992022
 50
90.0
 51
180.0
  0
LINE
  8
LC-002-002-----0
  6
CONTINUOUS
  5
307
 10
132.48709
 20
385.643675
 30
0.0
 11
132.48709
 21
386.14168
 31
0.0
  0
LINE
  8
LC-002-002-----0
  6
CONTINUOUS
  5
308
 10
296.628327
 20
394.906579
 30
0.0
 11
296.628327
 21
396.200778
 31
0.0
  0
LINE
  8
LC-002-002-----0
  6
CONTINUOUS
  5
309
 10
298.62035
 20
410.842758
 30
0.0
 11
296.628327
 21
410.842758
 31
0.0
  0
LINE
  8
LC-002-002-----0
  6
CONTINUOUS
  5
30A
 10
287.96303
 20
385.444472
 30
0.0
 11
287.96303
 21
385.942478
 31
0.0
  0
LINE
  8
LC-002-002-----0
  6
CONTINUOUS
  5
30B
 10
94.41546
 20
417.107395
 30
0.0
 11
100.285534
 21
414.760864
 31
0.0
  0
LINE
  8
LC-002-002-----0
  6
CONTINUOUS
  5
30C
 10
296.628327
 20
394.906579
 30
0.0
 11
296.628327
 21
396.200778
 31
0.0
  0
LINE
  8
LC-002-002-----0
  6
CONTINUOUS
  5
30D
 10
287.96303
 20
385.643675
 30
0.0
 11
287.96303
 21
386.14168
 31
0.0
  0
LINE
  8
LC-002-002-----0
  6
CONTINUOUS
  5
30E
 10
326.758251
 20
417.157993
 30
0.0
 11
319.585389
 21
414.7179
 31
0.0
  0
LINE
  8
LC-002-002-----0
  6
CONTINUOUS
  5
30F
 10
278.209797
 20
306.728307
 30
0.0
 11
247.728783
 21
306.728336
 31
0.0
  0
LINE
  8
LC-002-002-----0
  6
CONTINUOUS
  5
310
 10
172.729021
 20
306.72816
 30
0.0
 11
142.248
 21
306.72816
 31
0.0
  0
ARC
  8
LC-002-002-----0
  6
CONTINUOUS
  5
311
 10
131.690281
 20
392.615753
 30
0.0
 40
0.796809
 50
0.0
 51
90.0
  0
LINE
  8
LC-002-002-----0
  6
CONTINUOUS
  5
312
 10
141.998997
 20
309.716193
 30
0.0
 11
175.812814
 21
309.716193
 31
0.0
  0
LINE
  8
LC-002-002-----0
  6
CONTINUOUS
  5
313
 10
132.48709
 20
389.129714
 30
0.0
 11
132.686293
 21
389.129714
 31
0.0
  0
ARC
  8
LC-002-002-----0
  6
CONTINUOUS
  5
314
 10
288.759839
 20
392.615753
 30
0.0
 40
0.796809
 50
90.0
 51
180.0
  0
LINE
  8
LC-002-002-----0
  6
CONTINUOUS
  5
315
 10
278.451123
 20
309.716193
 30
0.0
 11
243.591623
 21
309.716193
 31
0.0
  0
LINE
  8
LC-002-002-----0
  6
CONTINUOUS
  5
316
 10
250.544839
 20
393.412562
 30
0.0
 11
288.759839
 21
393.412562
 31
0.0
  0
LINE
  8
LC-001-103-D00-1
  6
CONTINUOUS
  5
317
 10
234.29483
 20
253.643593
 30
0.0
 11
232.137549
 21
253.643593
 31
0.0
  0
LINE
  8
LC-001-103-D00-1
  6
CONTINUOUS
  5
318
 10
232.137549
 20
253.643593
 30
0.0
 11
232.137631
 21
305.716193
 31
0.0
  0
LINE
  8
LC-002-002-----0
  6
CONTINUOUS
  5
319
 10
232.137549
 20
253.643593
 30
0.0
 11
188.3203
 21
253.643593
 31
0.0
  0
LINE
  8
LC-002-002-----0
  6
CONTINUOUS
  5
31A
 10
232.137631
 20
305.716193
 30
0.0
 11
188.312754
 21
305.716179
 31
0.0
  0
LINE
  8
LC-002-002-----0
  6
CONTINUOUS
  5
31B
 10
230.2265
 20
308.423142
 30
0.0
 11
235.432215
 21
309.81801
 31
0.0
  0
LINE
  8
LC-001-103-D00-1
  6
CONTINUOUS
  5
31C
 10
185.228923
 20
257.129634
 30
0.0
 11
186.163018
 21
253.643593
 31
0.0
  0
LINE
  8
LC-001-103-D00-1
  6
CONTINUOUS
  5
31D
 10
186.163018
 20
253.643593
 30
0.0
 11
188.3203
 21
253.643593
 31
0.0
  0
LINE
  8
LC-001-103-D00-1
  6
CONTINUOUS
  5
31E
 10
188.3203
 20
253.643593
 30
0.0
 11
188.320202
 21
305.716179
 31
0.0
  0
LINE
  8
LC-002-002-----0
  6
CONTINUOUS
  5
31F
 10
290.161939
 20
318.680441
 30
0.0
 11
290.161939
 21
381.261871
 31
0.0
  0
LINE
  8
LC-002-002-----0
  6
CONTINUOUS
  5
320
 10
185.025615
 20
309.817994
 30
0.0
 11
190.2265
 21
308.424421
 31
0.0
  0
LINE
  8
LC-002-002-----0
  6
CONTINUOUS
  5
321
 10
190.2265
 20
308.424421
 30
0.0
 11
230.2265
 21
308.424421
 31
0.0
  0
LINE
  8
LC-002-002-----0
  6
CONTINUOUS
  5
322
 10
226.939386
 20
377.716193
 30
0.0
 11
238.387251
 21
377.716193
 31
0.0
  0
ARC
  8
LC-001-103-D00-1
  6
CONTINUOUS
  5
323
 10
243.591623
 20
312.704239
 30
0.0
 40
2.988044
 50
180.0
 51
270.000071
  0
ARC
  8
LC-001-103-D00-1
  6
CONTINUOUS
  5
324
 10
176.858626
 20
312.704239
 30
0.0
 40
2.988046
 50
270.0
 51
0.0
  0
LINE
  8
LC-001-103-D00-1
  6
CONTINUOUS
 62
     4
  5
325
 10
232.1376
 20
306.728357
 30
0.0
 11
232.137616
 21
306.728357
 31
0.0
  0
ARC
  8
LC-001-103-D00-1
  6
CONTINUOUS
  5
326
 10
234.658852
 20
312.704239
 30
0.0
 40
2.988045
 50
285.0
 51
359.394775
  0
LINE
  8
LC-002-002-----0
  6
CONTINUOUS
  5
327
 10
230.231272
 20
308.424421
 30
0.0
 11
230.231272
 21
305.716192
 31
0.0
  0
LINE
  8
LC-002-002-----0
  6
CONTINUOUS
  5
328
 10
190.2265
 20
308.424421
 30
0.0
 11
190.2265
 21
305.71618
 31
0.0
  0
LINE
  8
LC-002-002-----0
  6
CONTINUOUS
  5
329
 10
235.228924
 20
307.175347
 30
0.0
 11
238.584307
 21
308.07442
 31
0.0
  0
LINE
  8
LC-002-002-----0
  6
CONTINUOUS
  5
32A
 10
181.873524
 20
308.074404
 30
0.0
 11
185.22891
 21
307.175331
 31
0.0
  0
LINE
  8
LC-002-002-----0
  6
CONTINUOUS
  5
32B
 10
175.812814
 20
306.72816
 30
0.0
 11
175.812814
 21
306.72816
 31
0.0
  0
LINE
  8
LC-002-002-----0
  6
CONTINUOUS
  5
32C
 10
244.637456
 20
306.728336
 30
0.0
 11
244.637465
 21
306.728346
 31
0.0
  0
LINE
  8
LC-002-002-----0
  6
CONTINUOUS
  5
32D
 10
225.189384
 20
375.216193
 30
0.0
 11
238.358789
 21
375.216193
 31
0.0
  0
ARC
  8
LC-002-002-----0
  6
CONTINUOUS
  5
32E
 10
239.685637
 20
376.451249
 30
0.0
 40
1.812703
 50
135.74746
 51
222.947976
  0
LINE
  8
LC-002-002-----0
  6
CONTINUOUS
  5
32F
 10
238.387251
 20
377.716193
 30
0.0
 11
240.603563
 21
377.716193
 31
0.0
  0
ARC
  8
LC-002-002-----0
  6
CONTINUOUS
  5
330
 10
180.896341
 20
376.453849
 30
0.0
 40
1.812638
 50
316.937765
 51
44.139908
  0
LINE
  8
LC-001-103-D00-1
  6
CONTINUOUS
  5
331
 10
235.228924
 20
307.175347
 30
0.0
 11
235.228924
 21
257.129634
 31
0.0
  0
LINE
  8
LC-001-103-D00-1
  6
CONTINUOUS
  5
332
 10
241.635674
 20
306.781049
 30
0.0
 11
244.637456
 21
306.781049
 31
0.0
  0
ARC
  8
LC-001-103-D00-1
  6
CONTINUOUS
  5
333
 10
239.678866
 20
308.834337
 30
0.0
 40
0.489202
 50
33.69001
 51
146.309906
  0
LINE
  8
LC-001-103-D00-1
  6
CONTINUOUS
  5
334
 10
238.584307
 20
308.07442
 30
0.0
 11
239.271826
 21
309.105699
 31
0.0
  0
LINE
  8
LC-001-103-D00-1
  6
CONTINUOUS
  5
335
 10
241.635674
 20
306.781049
 30
0.0
 11
240.085908
 21
309.105699
 31
0.0
  0
ARC
  8
LC-001-103-D00-1
  6
CONTINUOUS
  5
336
 10
185.798978
 20
312.704224
 30
0.0
 40
2.988045
 50
180.605255
 51
255.0
  0
LINE
  8
LC-001-103-D00-1
  6
CONTINUOUS
  5
337
 10
178.82216
 20
306.781027
 30
0.0
 11
175.812814
 21
306.781027
 31
0.0
  0
ARC
  8
LC-001-103-D00-1
  6
CONTINUOUS
  5
338
 10
180.778966
 20
308.834315
 30
0.0
 40
0.489202
 50
33.69014
 51
146.310028
  0
LINE
  8
LC-001-103-D00-1
  6
CONTINUOUS
  5
339
 10
181.873524
 20
308.074404
 30
0.0
 11
181.186006
 21
309.105676
 31
0.0
  0
LINE
  8
LC-001-103-D00-1
  6
CONTINUOUS
  5
33A
 10
178.82216
 20
306.781027
 30
0.0
 11
180.371924
 21
309.105676
 31
0.0
  0
LINE
  8
LC-001-103-D00-1
  6
CONTINUOUS
  5
33B
 10
185.22891
 20
307.175331
 30
0.0
 11
185.228923
 21
257.129634
 31
0.0
  0
LINE
  8
LC-001-103-D00-1
  6
CONTINUOUS
  5
33C
 10
238.358789
 20
375.216193
 30
0.0
 11
237.646734
 21
312.672708
 31
0.0
  0
LINE
  8
LC-001-103-D00-1
  6
CONTINUOUS
  5
33D
 10
240.603563
 20
377.716193
 30
0.0
 11
240.603563
 21
312.704239
 31
0.0
  0
LINE
  8
LC-001-103-D00-1
  6
CONTINUOUS
  5
33E
 10
179.846628
 20
377.716193
 30
0.0
 11
179.846628
 21
312.704239
 31
0.0
  0
LINE
  8
LC-001-103-D00-1
  6
CONTINUOUS
  5
33F
 10
182.220677
 20
375.216193
 30
0.0
 11
182.80883
 21
312.678202
 31
0.0
  0
LINE
  8
LC-002-002-----0
  6
CONTINUOUS
  5
340
 10
244.228902
 20
309.716193
 30
0.0
 11
244.637467
 21
309.716193
 31
0.0
  0
LINE
  8
LC-002-002-----0
  6
CONTINUOUS
  5
341
 10
168.727997
 20
388.216192
 30
0.0
 11
168.728167
 21
328.216357
 31
0.0
  0
LINE
  8
LC-002-002-----0
  6
CONTINUOUS
  5
342
 10
169.727997
 20
388.216192
 30
0.0
 11
169.728167
 21
328.216357
 31
0.0
  0
LINE
  8
LC-002-002-----0
  6
CONTINUOUS
  5
343
 10
169.728167
 20
328.216357
 30
0.0
 11
168.728001
 21
328.216189
 31
0.0
  0
LINE
  8
LC-002-002-----0
  6
CONTINUOUS
  5
344
 10
169.728167
 20
328.216357
 30
0.0
 11
179.846628
 21
328.216357
 31
0.0
  0
ARC
  8
LC-002-002-----0
  6
CONTINUOUS
  5
345
 10
179.727997
 20
388.216192
 30
0.0
 40
10.0
 50
94.313709
 51
179.999848
  0
ARC
  8
LC-003-002-RND-0
  6
CONTINUOUS
  5
346
 10
180.727997
 20
388.216192
 30
0.0
 40
12.0
 50
90.0
 51
180.0
  0
LINE
  8
LC-002-002-----0
  6
CONTINUOUS
  5
347
 10
239.728216
 20
400.216363
 30
0.0
 11
223.977996
 21
400.216374
 31
0.0
  0
LINE
  8
LC-002-002-----0
  6
CONTINUOUS
  5
348
 10
240.728214
 20
398.216363
 30
0.0
 11
211.671373
 21
398.216363
 31
0.0
  0
LINE
  8
LC-002-002-----0
  6
CONTINUOUS
  5
349
 10
180.727997
 20
400.216192
 30
0.0
 11
196.477999
 21
400.216192
 31
0.0
  0
ARC
  8
LC-003-002-RND-0
  6
CONTINUOUS
  5
34A
 10
214.977996
 20
401.216192
 30
0.0
 40
9.0
 50
0.000006
 51
90.000006
  0
ARC
  8
LC-002-002-----0
  6
CONTINUOUS
  5
34B
 10
240.728208
 20
388.216363
 30
0.0
 40
10.0
 50
0.000096
 51
89.999963
  0
ARC
  8
LC-002-002-----0
  6
CONTINUOUS
  5
34C
 10
239.728208
 20
388.216363
 30
0.0
 40
12.0
 50
0.000096
 51
89.999963
  0
LINE
  8
LC-002-002-----0
  6
CONTINUOUS
  5
34D
 10
251.728206
 20
388.216355
 30
0.0
 11
251.728167
 21
328.216355
 31
0.0
  0
LINE
  8
LC-002-002-----0
  6
CONTINUOUS
  5
34E
 10
250.728206
 20
388.216357
 30
0.0
 11
250.728332
 21
328.216521
 31
0.0
  0
LINE
  8
LC-002-002-----0
  6
CONTINUOUS
  5
34F
 10
250.728332
 20
328.216521
 30
0.0
 11
251.728167
 21
328.216355
 31
0.0
  0
LINE
  8
LC-002-002-----0
  6
CONTINUOUS
  5
350
 10
178.970283
 20
377.716192
 30
0.0
 11
178.975834
 21
398.225213
 31
0.0
  0
LINE
  8
LC-002-002-----0
  6
CONTINUOUS
  5
351
 10
211.663658
 20
369.716192
 30
0.0
 11
183.408109
 21
369.716192
 31
0.0
  0
LINE
  8
LC-002-002-----0
  6
CONTINUOUS
  5
352
 10
182.470287
 20
373.216192
 30
0.0
 11
183.408109
 21
369.716192
 31
0.0
  0
LINE
  8
LC-002-002-----0
  6
CONTINUOUS
  5
353
 10
182.470287
 20
376.301979
 30
0.0
 11
182.470287
 21
373.216192
 31
0.0
  0
ARC
  8
LC-002-002-----0
  6
CONTINUOUS
  5
354
 10
182.220283
 20
377.009085
 30
0.0
 40
0.75
 50
289.471622
 51
70.528779
  0
LINE
  8
LC-002-002-----0
  6
CONTINUOUS
  5
355
 10
178.970283
 20
377.716192
 30
0.0
 11
182.470283
 21
377.716192
 31
0.0
  0
LINE
  8
LC-002-002-----0
  6
CONTINUOUS
  5
356
 10
214.977995
 20
406.216192
 30
0.0
 11
210.227997
 21
406.216192
 31
0.0
  0
LINE
  8
LC-002-002-----0
  6
CONTINUOUS
  5
357
 10
219.977996
 20
400.216193
 30
0.0
 11
219.977996
 21
401.216193
 31
0.0
  0
ARC
  8
LC-002-002-----0
  6
CONTINUOUS
  5
358
 10
214.977996
 20
401.216192
 30
0.0
 40
5.0
 50
0.000005
 51
90.000006
  0
ARC
  8
LC-003-002-RND-0
  6
CONTINUOUS
  5
359
 10
205.477999
 20
401.216192
 30
0.0
 40
9.0
 50
90.0
 51
180.000001
  0
LINE
  8
LC-002-002-----0
  6
CONTINUOUS
  5
35A
 10
205.477999
 20
406.216192
 30
0.0
 11
210.227997
 21
406.216192
 31
0.0
  0
LINE
  8
LC-002-002-----0
  6
CONTINUOUS
  5
35B
 10
200.477999
 20
400.216192
 30
0.0
 11
200.477999
 21
401.216192
 31
0.0
  0
LINE
  8
LC-002-002-----0
  6
CONTINUOUS
  5
35C
 10
214.977995
 20
410.216192
 30
0.0
 11
210.227996
 21
410.216192
 31
0.0
  0
LINE
  8
LC-002-002-----0
  6
CONTINUOUS
  5
35D
 10
223.977996
 20
400.216193
 30
0.0
 11
223.977996
 21
401.216193
 31
0.0
  0
ARC
  8
LC-002-002-----0
  6
CONTINUOUS
  5
35E
 10
205.477999
 20
401.216192
 30
0.0
 40
5.0
 50
90.0
 51
180.000001
  0
LINE
  8
LC-002-002-----0
  6
CONTINUOUS
  5
35F
 10
205.477999
 20
410.216192
 30
0.0
 11
210.227997
 21
410.216192
 31
0.0
  0
LINE
  8
LC-002-002-----0
  6
CONTINUOUS
  5
360
 10
196.477999
 20
400.216192
 30
0.0
 11
196.477999
 21
401.216192
 31
0.0
  0
LINE
  8
LC-002-002-----0
  6
CONTINUOUS
  5
361
 10
211.663658
 20
369.716192
 30
0.0
 11
211.671373
 21
398.216363
 31
0.0
  0
LINE
  8
LC-002-002-----0
  6
CONTINUOUS
  5
362
 10
200.477999
 20
400.216192
 30
0.0
 11
210.227997
 21
400.216192
 31
0.0
  0
LINE
  8
LC-002-002-----0
  6
CONTINUOUS
  5
363
 10
219.977996
 20
400.216377
 30
0.0
 11
210.227997
 21
400.216384
 31
0.0
  0
LINE
  8
LC-002-002-----0
  6
CONTINUOUS
  5
364
 10
211.663658
 20
369.716192
 30
0.0
 11
224.720473
 21
369.716192
 31
0.0
  0
LINE
  8
LC-002-002-----0
  6
CONTINUOUS
  5
365
 10
224.720473
 20
369.716192
 30
0.0
 11
225.189384
 21
373.216192
 31
0.0
  0
LINE
  8
LC-002-002-----0
  6
CONTINUOUS
  5
366
 10
225.189384
 20
373.216192
 30
0.0
 11
225.189384
 21
376.301979
 31
0.0
  0
LINE
  8
LC-002-002-----0
  6
CONTINUOUS
  5
367
 10
225.189384
 20
377.716192
 30
0.0
 11
226.939386
 21
377.716192
 31
0.0
  0
LINE
  8
LC-002-002-----0
  6
CONTINUOUS
  5
368
 10
226.939386
 20
377.716192
 30
0.0
 11
226.939386
 21
398.216363
 31
0.0
  0
ARC
  8
LC-002-002-----0
  6
CONTINUOUS
  5
369
 10
225.488078
 20
377.009086
 30
0.0
 40
0.767605
 50
112.900021
 51
247.099979
  0
LINE
  8
LC-002-002-----0
  6
CONTINUOUS
  5
36A
 10
240.603563
 20
328.216357
 30
0.0
 11
250.728332
 21
328.216357
 31
0.0
  0
LINE
  8
LC-002-002-----0
  6
CONTINUOUS
  5
36B
 10
301.978771
 20
413.741807
 30
0.0
 11
283.228771
 21
412.430679
 31
0.0
  0
LINE
  8
LC-002-002-----0
  6
CONTINUOUS
  5
36C
 10
121.228986
 20
411.043388
 30
0.0
 11
131.228771
 21
410.344135
 31
0.0
  0
LINE
  8
LC-002-002-----0
  6
CONTINUOUS
  5
36D
 10
301.978771
 20
413.741807
 30
0.0
 11
210.228771
 21
413.741807
 31
0.0
  0
LINE
  8
LC-002-002-----0
  6
CONTINUOUS
  5
36E
 10
279.475431
 20
393.742209
 30
0.0
 11
279.475431
 21
396.742209
 31
0.0
  0
LINE
  8
LC-002-002-----0
  6
CONTINUOUS
  5
36F
 10
273.81605
 20
393.742209
 30
0.0
 11
273.81605
 21
396.742209
 31
0.0
  0
LINE
  8
LC-002-002-----0
  6
CONTINUOUS
  5
370
 10
266.996625
 20
393.742209
 30
0.0
 11
266.996625
 21
396.742209
 31
0.0
  0
LINE
  8
LC-002-002-----0
  6
CONTINUOUS
  5
371
 10
251.271031
 20
393.742209
 30
0.0
 11
251.271031
 21
396.742209
 31
0.0
  0
LINE
  8
LC-002-002-----0
  6
CONTINUOUS
  5
372
 10
273.046702
 20
412.430679
 30
0.0
 11
272.296702
 21
411.680679
 31
0.0
  0
LINE
  8
LC-002-002-----0
  6
CONTINUOUS
  5
373
 10
272.296702
 20
411.680679
 30
0.0
 11
272.296702
 21
396.742209
 31
0.0
  0
LINE
  8
LC-002-002-----0
  6
CONTINUOUS
  5
374
 10
118.478771
 20
413.741807
 30
0.0
 11
210.228771
 21
413.741807
 31
0.0
  0
LINE
  8
LC-002-002-----0
  6
CONTINUOUS
  5
375
 10
272.296702
 20
411.680679
 30
0.0
 11
277.841009
 21
411.680679
 31
0.0
  0
LINE
  8
LC-002-002-----0
  6
CONTINUOUS
  5
376
 10
277.841009
 20
411.680679
 30
0.0
 11
277.841009
 21
396.742209
 31
0.0
  0
LINE
  8
LC-002-002-----0
  6
CONTINUOUS
  5
377
 10
283.228771
 20
412.430679
 30
0.0
 11
282.478771
 21
411.680679
 31
0.0
  0
LINE
  8
LC-002-002-----0
  6
CONTINUOUS
  5
378
 10
277.495132
 20
412.430679
 30
0.0
 11
277.841009
 21
411.680679
 31
0.0
  0
LINE
  8
LC-002-002-----0
  6
CONTINUOUS
  5
379
 10
254.538476
 20
393.742209
 30
0.0
 11
254.538476
 21
396.742209
 31
0.0
  0
LINE
  8
LC-002-002-----0
  6
CONTINUOUS
  5
37A
 10
279.728771
 20
393.742209
 30
0.0
 11
279.728771
 21
396.742209
 31
0.0
  0
LINE
  8
LC-002-002-----0
  6
CONTINUOUS
  5
37B
 10
282.478771
 20
396.742209
 30
0.0
 11
282.478771
 21
411.680679
 31
0.0
  0
LINE
  8
LC-002-002-----0
  6
CONTINUOUS
  5
37C
 10
245.228771
 20
412.430679
 30
0.0
 11
244.478771
 21
411.680679
 31
0.0
  0
LINE
  8
LC-002-002-----0
  6
CONTINUOUS
  5
37D
 10
244.478771
 20
411.680679
 30
0.0
 11
244.478771
 21
399.235989
 31
0.0
  0
LINE
  8
LC-002-002-----0
  6
CONTINUOUS
  5
37E
 10
140.982111
 20
393.742209
 30
0.0
 11
140.982111
 21
396.742209
 31
0.0
  0
LINE
  8
LC-002-002-----0
  6
CONTINUOUS
  5
37F
 10
146.641492
 20
393.742209
 30
0.0
 11
146.641492
 21
396.742209
 31
0.0
  0
LINE
  8
LC-002-002-----0
  6
CONTINUOUS
  5
380
 10
250.796736
 20
412.430679
 30
0.0
 11
251.429119
 21
411.680679
 31
0.0
  0
LINE
  8
LC-002-002-----0
  6
CONTINUOUS
  5
381
 10
251.429119
 20
411.680679
 30
0.0
 11
251.429119
 21
396.742209
 31
0.0
  0
LINE
  8
LC-002-002-----0
  6
CONTINUOUS
  5
382
 10
251.429119
 20
411.680679
 30
0.0
 11
244.478771
 21
411.680679
 31
0.0
  0
LINE
  8
LC-002-002-----0
  6
CONTINUOUS
  5
383
 10
153.460916
 20
393.742209
 30
0.0
 11
153.460916
 21
396.742209
 31
0.0
  0
LINE
  8
LC-002-002-----0
  6
CONTINUOUS
  5
384
 10
169.186511
 20
393.742209
 30
0.0
 11
169.186511
 21
396.742209
 31
0.0
  0
LINE
  8
LC-002-002-----0
  6
CONTINUOUS
  5
385
 10
147.41084
 20
412.430679
 30
0.0
 11
148.16084
 21
411.680679
 31
0.0
  0
LINE
  8
LC-002-002-----0
  6
CONTINUOUS
  5
386
 10
148.16084
 20
411.680679
 30
0.0
 11
148.16084
 21
396.742209
 31
0.0
  0
LINE
  8
LC-002-002-----0
  6
CONTINUOUS
  5
387
 10
148.16084
 20
411.680679
 30
0.0
 11
142.616533
 21
411.680679
 31
0.0
  0
LINE
  8
LC-002-002-----0
  6
CONTINUOUS
  5
388
 10
142.616533
 20
411.680679
 30
0.0
 11
142.616533
 21
396.742209
 31
0.0
  0
LINE
  8
LC-002-002-----0
  6
CONTINUOUS
  5
389
 10
137.228771
 20
412.430679
 30
0.0
 11
137.978771
 21
411.680679
 31
0.0
  0
LINE
  8
LC-002-002-----0
  6
CONTINUOUS
  5
38A
 10
142.96241
 20
412.430679
 30
0.0
 11
142.616533
 21
411.680679
 31
0.0
  0
LINE
  8
LC-002-002-----0
  6
CONTINUOUS
  5
38B
 10
165.919066
 20
393.742209
 30
0.0
 11
165.919066
 21
396.742209
 31
0.0
  0
LINE
  8
LC-002-002-----0
  6
CONTINUOUS
  5
38C
 10
140.728771
 20
393.742209
 30
0.0
 11
140.728771
 21
396.742209
 31
0.0
  0
LINE
  8
LC-002-002-----0
  6
CONTINUOUS
  5
38D
 10
137.978771
 20
396.742209
 30
0.0
 11
137.978771
 21
411.680679
 31
0.0
  0
LINE
  8
LC-002-002-----0
  6
CONTINUOUS
  5
38E
 10
175.228771
 20
412.430679
 30
0.0
 11
175.978771
 21
411.680679
 31
0.0
  0
LINE
  8
LC-002-002-----0
  6
CONTINUOUS
  5
38F
 10
175.978771
 20
411.680679
 30
0.0
 11
175.978771
 21
399.236394
 31
0.0
  0
LINE
  8
LC-002-002-----0
  6
CONTINUOUS
  5
390
 10
169.660806
 20
412.430679
 30
0.0
 11
169.028422
 21
411.680679
 31
0.0
  0
LINE
  8
LC-002-002-----0
  6
CONTINUOUS
  5
391
 10
169.028422
 20
411.680679
 30
0.0
 11
169.028422
 21
396.742209
 31
0.0
  0
LINE
  8
LC-002-002-----0
  6
CONTINUOUS
  5
392
 10
169.028422
 20
411.680679
 30
0.0
 11
175.978771
 21
411.680679
 31
0.0
  0
ARC
  8
LC-003-002-RND-0
  6
CONTINUOUS
  5
393
 10
288.228771
 20
394.742209
 30
0.0
 40
1.0
 50
270.0
 51
0.0
  0
LINE
  8
LC-002-002-----0
  6
CONTINUOUS
  5
394
 10
118.478771
 20
413.741807
 30
0.0
 11
119.478771
 21
406.742209
 31
0.0
  0
LINE
  8
LC-002-002-----0
  6
CONTINUOUS
  5
395
 10
120.651635
 20
406.742209
 30
0.0
 11
119.478771
 21
406.742209
 31
0.0
  0
LINE
  8
LC-002-002-----0
  6
CONTINUOUS
  5
396
 10
121.228986
 20
407.742209
 30
0.0
 11
120.651635
 21
406.742209
 31
0.0
  0
LINE
  8
LC-002-002-----0
  6
CONTINUOUS
  5
397
 10
121.228986
 20
407.742209
 30
0.0
 11
121.228986
 21
411.043388
 31
0.0
  0
ARC
  8
LC-003-002-RND-0
  6
CONTINUOUS
  5
398
 10
132.228771
 20
394.742209
 30
0.0
 40
1.0
 50
180.0
 51
270.0
  0
LINE
  8
LC-002-002-----0
  6
CONTINUOUS
  5
399
 10
132.228771
 20
393.742209
 30
0.0
 11
170.07609
 21
393.742209
 31
0.0
  0
LINE
  8
LC-002-002-----0
  6
CONTINUOUS
  5
39A
 10
299.228556
 20
407.742209
 30
0.0
 11
299.805906
 21
406.742209
 31
0.0
  0
LINE
  8
LC-002-002-----0
  6
CONTINUOUS
  5
39B
 10
131.228771
 20
394.742209
 30
0.0
 11
131.228771
 21
410.344135
 31
0.0
  0
LINE
  8
LC-002-002-----0
  6
CONTINUOUS
  5
39C
 10
299.228556
 20
407.742209
 30
0.0
 11
299.228556
 21
411.043388
 31
0.0
  0
LINE
  8
LC-002-002-----0
  6
CONTINUOUS
  5
39D
 10
288.228771
 20
393.742209
 30
0.0
 11
279.728771
 21
393.742209
 31
0.0
  0
LINE
  8
LC-002-002-----0
  6
CONTINUOUS
  5
39E
 10
289.228771
 20
394.742209
 30
0.0
 11
289.228771
 21
410.344135
 31
0.0
  0
LINE
  8
LC-002-002-----0
  6
CONTINUOUS
  5
39F
 10
299.402906
 20
406.742209
 30
0.0
 11
300.978771
 21
406.742209
 31
0.0
  0
LINE
  8
LC-002-002-----0
  6
CONTINUOUS
  5
3A0
 10
279.728771
 20
393.742209
 30
0.0
 11
250.380204
 21
393.742209
 31
0.0
  0
LINE
  8
LC-002-002-----0
  6
CONTINUOUS
  5
3A1
 10
279.728771
 20
396.742209
 30
0.0
 11
282.478771
 21
396.742209
 31
0.0
  0
LINE
  8
LC-002-002-----0
  6
CONTINUOUS
  5
3A2
 10
266.996625
 20
396.742209
 30
0.0
 11
279.728771
 21
396.742209
 31
0.0
  0
LINE
  8
LC-002-002-----0
  6
CONTINUOUS
  5
3A3
 10
248.17273
 20
396.742209
 30
0.0
 11
254.538476
 21
396.742209
 31
0.0
  0
LINE
  8
LC-002-002-----0
  6
CONTINUOUS
  5
3A4
 10
172.283648
 20
396.742209
 30
0.0
 11
165.919066
 21
396.742209
 31
0.0
  0
LINE
  8
LC-002-002-----0
  6
CONTINUOUS
  5
3A5
 10
299.228556
 20
411.043388
 30
0.0
 11
289.228771
 21
410.344135
 31
0.0
  0
LINE
  8
LC-002-002-----0
  6
CONTINUOUS
  5
3A6
 10
153.460916
 20
396.742209
 30
0.0
 11
137.978771
 21
396.742209
 31
0.0
  0
LINE
  8
LC-002-002-----0
  6
CONTINUOUS
  5
3A7
 10
301.978771
 20
413.741807
 30
0.0
 11
300.978771
 21
406.742209
 31
0.0
  0
LINE
  8
LC-002-002-----0
  6
CONTINUOUS
  5
3A8
 10
118.478771
 20
413.741807
 30
0.0
 11
137.228771
 21
412.430679
 31
0.0
  0
LINE
  8
LC-002-002-----0
  6
CONTINUOUS
  5
3A9
 10
142.96241
 20
412.430679
 30
0.0
 11
147.41084
 21
412.430679
 31
0.0
  0
LINE
  8
LC-002-002-----0
  6
CONTINUOUS
  5
3AA
 10
169.660806
 20
412.430679
 30
0.0
 11
175.228771
 21
412.430679
 31
0.0
  0
LINE
  8
LC-002-002-----0
  6
CONTINUOUS
  5
3AB
 10
245.228771
 20
412.430679
 30
0.0
 11
250.796736
 21
412.430679
 31
0.0
  0
LINE
  8
LC-002-002-----0
  6
CONTINUOUS
  5
3AC
 10
273.046702
 20
412.430679
 30
0.0
 11
277.495132
 21
412.430679
 31
0.0
  0
LINE
  8
LC-002-002-----0
  6
DASHDOT
 62
     2
  5
3AE
 10
210.228771
 20
247.728351
 30
0.0
 11
210.228771
 21
419.364
 31
0.0
  0
LINE
  8
LC-002-002-----0
  6
CONTINUOUS
 62
     2
  5
3AF
 10
290.161939
 20
318.680441
 30
0.0
 11
290.161939
 21
276.21
 31
0.0
  0
ENDSEC
  0
EOF
