  0
SECTION
  2
HEADER
  9
$ACADVER
  1
AC1015
  9
$ACADMAINTVER
 70
     6
  9
$DWGCODEPAGE
  3
DOS850
  9
$INSBASE
 10
0.0
 20
0.0
 30
0.0
  9
$EXTMIN
 10
0.0
 20
0.0
 30
0.0
  9
$EXTMAX
 10
840.0
 20
594.0
 30
0.0
  9
$LIMMIN
 10
0.0
 20
0.0
  9
$LIMMAX
 10
840.0
 20
594.0
  9
$ORTHOMODE
 70
     0
  9
$REGENMODE
 70
     1
  9
$FILLMODE
 70
     1
  9
$QTEXTMODE
 70
     0
  9
$MIRRTEXT
 70
     1
  9
$LTSCALE
 40
2.0
  9
$ATTMODE
 70
     1
  9
$TEXTSIZE
 40
0.2
  9
$TRACEWID
 40
0.05
  9
$TEXTSTYLE
  7
Standard
  9
$CLAYER
  8
0
  9
$CELTYPE
  6
ByBlock
  9
$CECOLOR
 62
     7
  9
$CELTSCALE
 40
1.0
  9
$DISPSILH
 70
     0
  9
$DIMSCALE
 40
2.0
  9
$DIMASZ
 40
3.5
  9
$DIMEXO
 40
0.0625
  9
$DIMDLI
 40
0.38
  9
$DIMRND
 40
0.0
  9
$DIMDLE
 40
0.0
  9
$DIMEXE
 40
0.18
  9
$DIMTP
 40
0.0
  9
$DIMTM
 40
0.0
  9
$DIMTXT
 40
3.5
  9
$DIMCEN
 40
0.09
  9
$DIMTSZ
 40
0.0
  9
$DIMTOL
 70
     0
  9
$DIMLIM
 70
     0
  9
$DIMTIH
 70
     1
  9
$DIMTOH
 70
     1
  9
$DIMSE1
 70
     0
  9
$DIMSE2
 70
     0
  9
$DIMTAD
 70
     1
  9
$DIMZIN
 70
     0
  9
$DIMBLK
  1

  9
$DIMASO
 70
     1
  9
$DIMSHO
 70
     1
  9
$DIMPOST
  1

  9
$DIMAPOST
  1

  9
$DIMALT
 70
     0
  9
$DIMALTD
 70
     2
  9
$DIMALTF
 40
25.4
  9
$DIMLFAC
 40
1.0
  9
$DIMTOFL
 70
     0
  9
$DIMTVP
 40
0.0
  9
$DIMTIX
 70
     0
  9
$DIMSOXD
 70
     0
  9
$DIMSAH
 70
     0
  9
$DIMBLK1
  1

  9
$DIMBLK2
  1

  9
$DIMSTYLE
  2
Standard
  9
$DIMCLRD
 70
     0
  9
$DIMCLRE
 70
     0
  9
$DIMCLRT
 70
     0
  9
$DIMTFAC
 40
1.0
  9
$DIMGAP
 40
0.09
  9
$DIMJUST
 70
     0
  9
$DIMSD1
 70
     0
  9
$DIMSD2
 70
     0
  9
$DIMTOLJ
 70
     1
  9
$DIMTZIN
 70
     0
  9
$DIMALTZ
 70
     0
  9
$DIMALTTZ
 70
     0
  9
$DIMUPT
 70
     0
  9
$DIMDEC
 70
     4
  9
$DIMTDEC
 70
     4
  9
$DIMALTU
 70
     2
  9
$DIMALTTD
 70
     2
  9
$DIMTXSTY
  7
Standard
  9
$DIMAUNIT
 70
     0
  9
$DIMADEC
 70
     0
  9
$DIMALTRND
 40
0.0
  9
$DIMAZIN
 70
     0
  9
$DIMDSEP
 70
     0
  9
$DIMATFIT
 70
     3
  9
$DIMFRAC
 70
     0
  9
$DIMLDRBLK
  1

  9
$DIMLUNIT
 70
     2
  9
$DIMLWD
 70
     0
  9
$DIMLWE
 70
     0
  9
$DIMTMOVE
 70
     0
  9
$LUNITS
 70
     2
  9
$LUPREC
 70
     6
  9
$SKETCHINC
 40
0.1
  9
$FILLETRAD
 40
0.0
  9
$AUNITS
 70
     0
  9
$AUPREC
 70
     0
  9
$MENU
  1
acad
  9
$ELEVATION
 40
0.0
  9
$PELEVATION
 40
0.0
  9
$THICKNESS
 40
0.0
  9
$LIMCHECK
 70
     0
  9
$CHAMFERA
 40
0.0
  9
$CHAMFERB
 40
0.0
  9
$CHAMFERC
 40
0.0
  9
$CHAMFERD
 40
0.0
  9
$SKPOLY
 70
     0
  9
$TDCREATE
 40
0.000000000
  9
$TDUCREATE
 40
0.000000000
  9
$TDUPDATE
 40
0.000000000
  9
$TDUUPDATE
 40
0.000000000
  9
$TDINDWG
 40
0.0000000000
  9
$TDUSRTIMER
 40
0.0000000000
  9
$USRTIMER
 70
     1
  9
$ANGBASE
 50
0.0
  9
$ANGDIR
 70
     0
  9
$PDMODE
 70
     0
  9
$PDSIZE
 40
0.0
  9
$PLINEWID
 40
0.0
  9
$SPLFRAME
 70
     0
  9
$SPLINETYPE
 70
     6
  9
$SPLINESEGS
 70
     8
  9
$HANDSEED
  5
198
  9
$SURFTAB1
 70
     6
  9
$SURFTAB2
 70
     6
  9
$SURFTYPE
 70
     6
  9
$SURFU
 70
     6
  9
$SURFV
 70
     6
  9
$UCSBASE
  2

  9
$UCSNAME
  2

  9
$UCSORG
 10
0.0
 20
0.0
 30
0.0
  9
$UCSXDIR
 10
1.0
 20
0.0
 30
0.0
  9
$UCSYDIR
 10
0.0
 20
1.0
 30
0.0
  9
$UCSORTHOREF
  2

  9
$UCSORTHOVIEW
 70
     0
  9
$UCSORGTOP
 10
0.0
 20
0.0
 30
0.0
  9
$UCSORGBOTTOM
 10
0.0
 20
0.0
 30
0.0
  9
$UCSORGLEFT
 10
0.0
 20
0.0
 30
0.0
  9
$UCSORGRIGHT
 10
0.0
 20
0.0
 30
0.0
  9
$UCSORGFRONT
 10
0.0
 20
0.0
 30
0.0
  9
$UCSORGBACK
 10
0.0
 20
0.0
 30
0.0
  9
$PUCSBASE
  2

  9
$PUCSNAME
  2

  9
$PUCSORG
 10
0.0
 20
0.0
 30
0.0
  9
$PUCSXDIR
 10
1.0
 20
0.0
 30
0.0
  9
$PUCSYDIR
 10
0.0
 20
1.0
 30
0.0
  9
$PUCSORTHOREF
  2

  9
$PUCSORTHOVIEW
 70
     0
  9
$PUCSORGTOP
 10
0.0
 20
0.0
 30
0.0
  9
$PUCSORGBOTTOM
 10
0.0
 20
0.0
 30
0.0
  9
$PUCSORGLEFT
 10
0.0
 20
0.0
 30
0.0
  9
$PUCSORGRIGHT
 10
0.0
 20
0.0
 30
0.0
  9
$PUCSORGFRONT
 10
0.0
 20
0.0
 30
0.0
  9
$PUCSORGBACK
 10
0.0
 20
0.0
 30
0.0
  9
$USERI1
 70
     0
  9
$USERI2
 70
     0
  9
$USERI3
 70
     0
  9
$USERI4
 70
     0
  9
$USERI5
 70
     0
  9
$USERR1
 40
0.0
  9
$USERR2
 40
0.0
  9
$USERR3
 40
0.0
  9
$USERR4
 40
0.0
  9
$USERR5
 40
0.0
  9
$WORLDVIEW
 70
     1
  9
$SHADEDGE
 70
     3
  9
$SHADEDIF
 70
    70
  9
$TILEMODE
 70
     1
  9
$MAXACTVP
 70
    16
  9
$PINSBASE
 10
0.0
 20
0.0
 30
0.0
  9
$PLIMCHECK
 70
     0
  9
$PEXTMIN
 10
0.0
 20
0.0
 30
0.0
  9
$PEXTMAX
 10
840.0
 20
594.0
 30
0.0
  9
$PLIMMIN
 10
0.0
 20
0.0
  9
$PLIMMAX
 10
840.0
 20
594.0
  9
$UNITMODE
 70
     0
  9
$VISRETAIN
 70
     0
  9
$PLINEGEN
 70
     1
  9
$PSLTSCALE
 70
     0
  9
$TREEDEPTH
 70
  3020
  9
$CMLSTYLE
  2
Standard
  9
$CMLJUST
 70
     0
  9
$CMLSCALE
 40
1.0
  9
$PROXYGRAPHICS
 70
     0
  9
$MEASUREMENT
 70
     0
  9
$CELWEIGHT
370
     0
  9
$ENDCAPS
280
     0
  9
$JOINSTYLE
280
     0
  9
$LWDISPLAY
290
     0
  9
$INSUNITS
 70
     0
  9
$HYPERLINKBASE
  1

  9
$STYLESHEET
  1

  9
$XEDIT
290
     1
  9
$CEPSNTYPE
380
     0
  9
$PSTYLEMODE
290
     1
  9
$FINGERPRINTGUID
  2

  9
$VERSIONGUID
  2

  9
$EXTNAMES
290
     1
  9
$PSVPSCALE
 40
0.0
  0
ENDSEC
  0
SECTION
  2
CLASSES
  0
CLASS
  1
LWPOLYLINE
  2
AcDbPolyline
  3
AutoCAD 2000
 90
        0
280
     0
281
     1
  0
CLASS
  1
IMAGE
  2
AcDbRasterImage
  3
ISM
 90
      127
280
     0
281
     1
  0
CLASS
  1
OLE2FRAME
  2
AcDbOle2Frame
  3
AutoCAD 2000
 90
        0
280
     0
281
     1
  0
CLASS
  1
HATCH
  2
AcDbHatch
  3
AutoCAD 2000
 90
        0
280
     0
281
     1
  0
CLASS
  1
DICTIONARYVAR
  2
AcDbDictionaryVar
  3
AutoCAD 2000
 90
        0
280
     0
281
     0
  0
CLASS
  1
RASTERVARIABLES
  2
AcDbRasterVariables
  3
ISM
 90
        0
280
     0
281
     0
  0
CLASS
  1
IMAGEDEF
  2
AcDbRasterImageDef
  3
ISM
 90
        0
280
     0
281
     0
  0
CLASS
  1
IMAGEDEF_REACTOR
  2
AcDbRasterImageDefReactor
  3
ISM
 90
        1
280
     0
281
     0
  0
CLASS
  1
IDBUFFER
  2
AcDbIdBuffer
  3
AutoCAD 2000
 90
        0
280
     0
281
     0
  0
CLASS
  1
SPATIAL_FILTER
  2
AcDbSpatialFilter
  3
AutoCAD 2000
 90
        0
280
     0
281
     0
  0
CLASS
  1
XRECORD
  2
AcDbXrecord
  3
AutoCAD 2000
 90
        0
280
     0
281
     0
  0
CLASS
  1
SORTENTSTABLE
  2
AcDbSortentsTable
  3
AutoCAD 2000
 90
        0
280
     0
281
     0
  0
CLASS
  1
LAYER_INDEX
  2
AcDbLayerIndex
  3
AutoCAD 2000
 90
        0
280
     0
281
     0
  0
CLASS
  1
SPATIAL_INDEX
  2
AcDbSpatialIndex
  3
AutoCAD 2000
 90
        0
280
     0
281
     0
  0
CLASS
  1
OBJECT_PTR
  2
CAseDLPNTableRecord
  3
"ASE-LPNTableRecord"
 90
        1
280
     0
281
     0
  0
CLASS
  1
LAYOUT
  2
AcDbLayout
  3
AutoCAD 2000
 90
        0
280
     0
281
     0
  0
CLASS
  1
PLOTSETTINGS
  2
AcDbPlotSettings
  3
AutoCAD 2000
 90
        0
280
     0
281
     0
  0
CLASS
  1
ACDBDICTIONARYWDFLT
  2
AcDbDictionaryWithDefault
  3
AutoCAD 2000
 90
        0
280
     0
281
     0
  0
CLASS
  1
ACDBPLACEHOLDER
  2
AcDbPlaceHolder
  3
AutoCAD 2000
 90
        0
280
     0
281
     0
  0
ENDSEC
  0
SECTION
  2
TABLES
  0
TABLE
  2
VPORT
  5
7
100
AcDbSymbolTable
 70
     1
  0
VPORT
  5
15
100
AcDbSymbolTableRecord
100
AcDbViewportTableRecord
  2
*ACTIVE
 70
     0
 10
0.0
 20
0.0
 11
1.0
 21
1.0
 12
420.0
 22
297.0
 13
0.0
 23
0.0
 14
1.0
 24
1.0
 15
0.0
 25
0.0
 16
0.0
 26
0.0
 36
1.0
 17
0.0
 27
0.0
 37
0.0
 40
594.0
 41
1.604229
 42
50.0
 43
0.0
 44
0.0
 50
0.0
 51
0.0
 71
     0
 72
   100
 73
     1
 74
     1
 75
     0
 76
     0
 77
     0
 78
     0
281
     0
 65
     0
110
0.0
120
0.0
130
0.0
111
1.0
121
0.0
131
0.0
112
0.0
122
1.0
132
0.0
345
0
346
0
 79
     0
146
0.0
  0
ENDTAB
  0
TABLE
  2
LTYPE
  5
4
100
AcDbSymbolTable
 70
     5
  0
LTYPE
  5
11
100
AcDbSymbolTableRecord
100
AcDbLinetypeTableRecord
  2
ByBlock
 70
    64
  3

 72
    65
 73
     0
 40
0.0
  0
LTYPE
  5
12
100
AcDbSymbolTableRecord
100
AcDbLinetypeTableRecord
  2
ByLayer
 70
    64
  3

 72
    65
 73
     0
 40
0.0
  0
LTYPE
  5
13
100
AcDbSymbolTableRecord
100
AcDbLinetypeTableRecord
  2
Continuous
 70
    64
  3
Solid line
 72
    65
 73
     0
 40
0.0
  0
LTYPE
  5
23
100
AcDbSymbolTableRecord
100
AcDbLinetypeTableRecord
  2
DASHED
 70
    64
  3
__ __ __ __ __
 72
    65
 73
     2
 40
6.25
 49
5.0
 74
     0
 49
-1.25
 74
     0
  0
LTYPE
  5
2C
100
AcDbSymbolTableRecord
100
AcDbLinetypeTableRecord
  2
CENTER
 70
    64
  3
__ . __ . __ . __ . __
 72
    65
 73
     4
 40
7.5
 49
5.0
 74
     0
 49
-1.25
 74
     0
 49
0.0
 74
     0
 49
-1.25
 74
     0
  0
ENDTAB
  0
TABLE
  2
LAYER
  5
2
100
AcDbSymbolTable
 70
    12
  0
LAYER
  5
14
100
AcDbSymbolTableRecord
100
AcDbLayerTableRecord
  2
0
 70
     0
 62
     7
  6
Continuous
290
     1
370
    -3
390
1D
  0
LAYER
  5
24
100
AcDbSymbolTableRecord
100
AcDbLayerTableRecord
  2
LC-INFO-1-2-mm-A3-0
 70
     1
 62
   255
  6
ByBlock
290
     1
370
    -3
390
1D
  0
LAYER
  5
25
100
AcDbSymbolTableRecord
100
AcDbLayerTableRecord
  2
LC-3D-HIDDEN
 70
     0
 62
     9
  6
DASHED
290
     1
370
    -3
390
1D
  0
LAYER
  5
26
100
AcDbSymbolTableRecord
100
AcDbLayerTableRecord
  2
LC-CUT-HIDDEN
 70
     0
 62
     9
  6
DASHED
290
     1
370
    -3
390
1D
  0
LAYER
  5
27
100
AcDbSymbolTableRecord
100
AcDbLayerTableRecord
  2
LC-VIEWPORT
 70
     0
 62
     7
  6
ByBlock
290
     1
370
    -3
390
1D
  0
LAYER
  5
2A
100
AcDbSymbolTableRecord
100
AcDbLayerTableRecord
  2
LC-001-002-----0
 70
     0
 62
     1
  6
ByBlock
290
     1
370
    -3
390
1D
  0
LAYER
  5
2D
100
AcDbSymbolTableRecord
100
AcDbLayerTableRecord
  2
LC-002-006-MLN-0
 70
     0
 62
     2
  6
CENTER
290
     1
370
    -3
390
1D
  0
LAYER
  5
38
100
AcDbSymbolTableRecord
100
AcDbLayerTableRecord
  2
LC-003-005-----0
 70
     0
 62
     2
  6
ByBlock
290
     1
370
    -3
390
1D
  0
LAYER
  5
BA
100
AcDbSymbolTableRecord
100
AcDbLayerTableRecord
  2
LC-004-003-MTH-0
 70
     0
 62
     2
  6
ByBlock
290
     1
370
    -3
390
1D
  0
LAYER
  5
BD
100
AcDbSymbolTableRecord
100
AcDbLayerTableRecord
  2
LC-005-003-MTG-0
 70
     0
 62
     2
  6
ByBlock
290
     1
370
    -3
390
1D
  0
LAYER
  5
BF
100
AcDbSymbolTableRecord
100
AcDbLayerTableRecord
  2
LC-006-003-----0
 70
     0
 62
     2
  6
ByBlock
290
     1
370
    -3
390
1D
  0
LAYER
  5
11E
100
AcDbSymbolTableRecord
100
AcDbLayerTableRecord
  2
LC-007-002-RND-0
 70
     0
 62
     1
  6
ByBlock
290
     1
370
    -3
390
1D
  0
ENDTAB
  0
TABLE
  2
STYLE
  5
3
100
AcDbSymbolTable
 70
     3
  0
STYLE
  5
17
100
AcDbSymbolTableRecord
100
AcDbTextStyleTableRecord
  2
Standard
 70
     0
 40
0.0
 41
1.0
 50
0.0
 71
     0
 42
0.0
  3
txt
  4

  0
STYLE
  5
29
100
AcDbSymbolTableRecord
100
AcDbTextStyleTableRecord
  2
LCTX15-400-0-0-ARIAL
 70
    64
 40
3.5
 41
1.0
 50
0.0
 71
     0
 42
0.0
  3
Arial
  4

1001
ACAD
1000
Arial
1071
 16777216
  0
STYLE
  5
B7
100
AcDbSymbolTableRecord
100
AcDbTextStyleTableRecord
  2
LCTX15-400-0-0-DIN-SCHRIFTP
 70
    64
 40
0.0
 41
1.0
 50
1.5
 71
     0
 42
3.5
  3
STANDARD
  4

  0
ENDTAB
  0
TABLE
  2
VIEW
  5
5
100
AcDbSymbolTable
 70
     0
  0
ENDTAB
  0
TABLE
  2
UCS
  5
6
100
AcDbSymbolTable
 70
     0
  0
ENDTAB
  0
TABLE
  2
APPID
  5
8
100
AcDbSymbolTable
 70
     1
  0
APPID
  5
16
100
AcDbSymbolTableRecord
100
AcDbRegAppTableRecord
  2
ACAD
 70
     0
  0
ENDTAB
  0
TABLE
  2
DIMSTYLE
  5
9
100
AcDbSymbolTable
 70
     2
100
AcDbDimStyleTable
 71
     0
  0
DIMSTYLE
105
18
100
AcDbSymbolTableRecord
100
AcDbDimStyleTableRecord
  2
Standard
 70
     0
  3

  4

 40
1.0
 41
0.18
 42
0.0625
 43
0.38
 44
0.18
 45
0.0
 46
0.0
 47
0.0
 48
0.0
 71
     0
 72
     0
 73
     1
 74
     1
 75
     0
 76
     0
 77
     0
 78
     0
 79
     0
140
0.18
141
0.09
142
0.0
143
25.4
144
1.0
145
0.0
146
1.0
147
0.09
148
0.0
170
     0
171
     2
172
     0
173
     0
174
     0
175
     0
176
     0
177
     0
178
     0
179
     0
271
     4
272
     4
273
     2
274
     2
275
     0
276
     0
277
     2
278
    46
279
     0
280
     0
281
     0
282
     0
283
     1
284
     0
285
     0
286
     0
288
     0
289
     0
340
17
341
0
342
0
343
0
344
0
371
    -2
372
    -2
  0
DIMSTYLE
105
B6
100
AcDbSymbolTableRecord
100
AcDbDimStyleTableRecord
  2
LC-DIM-L-0140-02-02
 70
     0
  3

  4

 40
2.0
 41
3.5
 42
0.0
 43
7.5
 44
1.8
 45
0.0
 46
0.0
 47
0.0
 48
0.0
 71
     0
 72
     0
 73
     0
 74
     0
 75
     0
 76
     0
 77
     1
 78
     8
 79
     0
140
14.0
141
0.0
142
0.0
143
25.4
144
1.0
145
0.0
146
0.71
147
1.5
148
0.0
170
     0
171
     2
172
     0
173
     0
174
     0
175
     0
176
     2
177
     2
178
     2
179
     2
271
     2
272
     4
273
     2
274
     2
275
     0
276
     0
277
     2
278
    44
279
     0
280
     0
281
     0
282
     0
283
     1
284
     0
285
     0
286
     0
288
     0
289
     0
340
B7
341
0
342
0
343
0
344
0
371
    -3
372
     0
  0
ENDTAB
  0
TABLE
  2
BLOCK_RECORD
  5
1
100
AcDbSymbolTable
 70
     7
  0
BLOCK_RECORD
  5
A
100
AcDbSymbolTableRecord
100
AcDbBlockTableRecord
  2
*MODEL_SPACE
340
20
  0
BLOCK_RECORD
  5
B
100
AcDbSymbolTableRecord
100
AcDbBlockTableRecord
  2
*PAPER_SPACE
340
21
  0
BLOCK_RECORD
  5
36
100
AcDbSymbolTableRecord
100
AcDbBlockTableRecord
  2
*X0
340
0
102
{BLKREFS
331
B4
102
}
  0
BLOCK_RECORD
  5
B8
100
AcDbSymbolTableRecord
100
AcDbBlockTableRecord
  2
*D1
340
0
  0
BLOCK_RECORD
  5
D5
100
AcDbSymbolTableRecord
100
AcDbBlockTableRecord
  2
*D2
340
0
  0
BLOCK_RECORD
  5
122
100
AcDbSymbolTableRecord
100
AcDbBlockTableRecord
  2
*D3
340
0
  0
BLOCK_RECORD
  5
13F
100
AcDbSymbolTableRecord
100
AcDbBlockTableRecord
  2
*X4
340
0
102
{BLKREFS
331
15D
102
}
  0
BLOCK_RECORD
  5
161
100
AcDbSymbolTableRecord
100
AcDbBlockTableRecord
  2
*D5
340
0
  0
BLOCK_RECORD
  5
17C
100
AcDbSymbolTableRecord
100
AcDbBlockTableRecord
  2
*X6
340
0
102
{BLKREFS
331
18F
102
}
  0
ENDTAB
  0
ENDSEC
  0
SECTION
  2
BLOCKS
  0
BLOCK
  5
D
100
AcDbEntity
  8
0
390
0
100
AcDbBlockBegin
  2
*MODEL_SPACE
 70
     0
 10
0.0
 20
0.0
 30
0.0
  3
*MODEL_SPACE
  1

  0
ENDBLK
  5
E
100
AcDbEntity
  8
0
390
0
100
AcDbBlockEnd
  0
BLOCK
  5
F
100
AcDbEntity
 67
     1
  8
0
390
0
100
AcDbBlockBegin
  2
*PAPER_SPACE
 70
     0
 10
0.0
 20
0.0
 30
0.0
  3
*PAPER_SPACE
  1

  0
ENDBLK
  5
10
100
AcDbEntity
 67
     1
  8
0
390
0
100
AcDbBlockEnd
  0
BLOCK
  5
37
100
AcDbEntity
  8
0
390
0
100
AcDbBlockBegin
  2
*X0
 70
    65
 10
0.0
 20
0.0
 30
0.0
  3
*X0
  1

  0
LINE
  5
39
100
AcDbEntity
  8
LC-003-005-----0
370
    25
390
0
 62
     2
100
AcDbLine
 10
435.662885
 20
138.678037
 30
0.0
 11
438.203393
 21
141.218545
 31
0.0
  0
LINE
  5
3A
100
AcDbEntity
  8
LC-003-005-----0
370
    25
390
0
 62
     2
100
AcDbLine
 10
427.177603
 20
138.678037
 30
0.0
 11
438.203393
 21
149.703826
 31
0.0
  0
LINE
  5
3B
100
AcDbEntity
  8
LC-003-005-----0
370
    25
390
0
 62
     2
100
AcDbLine
 10
418.692322
 20
138.678037
 30
0.0
 11
438.203393
 21
158.189108
 31
0.0
  0
LINE
  5
3C
100
AcDbEntity
  8
LC-003-005-----0
370
    25
390
0
 62
     2
100
AcDbLine
 10
410.207041
 20
138.678037
 30
0.0
 11
438.203393
 21
166.674389
 31
0.0
  0
LINE
  5
3D
100
AcDbEntity
  8
LC-003-005-----0
370
    25
390
0
 62
     2
100
AcDbLine
 10
401.721759
 20
138.678037
 30
0.0
 11
438.203393
 21
175.15967
 31
0.0
  0
LINE
  5
3E
100
AcDbEntity
  8
LC-003-005-----0
370
    25
390
0
 62
     2
100
AcDbLine
 10
393.236478
 20
138.678037
 30
0.0
 11
438.203393
 21
183.644952
 31
0.0
  0
LINE
  5
3F
100
AcDbEntity
  8
LC-003-005-----0
370
    25
390
0
 62
     2
100
AcDbLine
 10
384.751197
 20
138.678037
 30
0.0
 11
438.203393
 21
192.130233
 31
0.0
  0
LINE
  5
40
100
AcDbEntity
  8
LC-003-005-----0
370
    25
390
0
 62
     2
100
AcDbLine
 10
376.265915
 20
138.678037
 30
0.0
 11
438.203393
 21
200.615515
 31
0.0
  0
LINE
  5
41
100
AcDbEntity
  8
LC-003-005-----0
370
    25
390
0
 62
     2
100
AcDbLine
 10
367.780634
 20
138.678037
 30
0.0
 11
438.203393
 21
209.100796
 31
0.0
  0
LINE
  5
42
100
AcDbEntity
  8
LC-003-005-----0
370
    25
390
0
 62
     2
100
AcDbLine
 10
359.295352
 20
138.678037
 30
0.0
 11
438.203393
 21
217.586077
 31
0.0
  0
LINE
  5
43
100
AcDbEntity
  8
LC-003-005-----0
370
    25
390
0
 62
     2
100
AcDbLine
 10
350.810071
 20
138.678037
 30
0.0
 11
438.203393
 21
226.071359
 31
0.0
  0
LINE
  5
44
100
AcDbEntity
  8
LC-003-005-----0
370
    25
390
0
 62
     2
100
AcDbLine
 10
342.32479
 20
138.678037
 30
0.0
 11
438.203393
 21
234.55664
 31
0.0
  0
LINE
  5
45
100
AcDbEntity
  8
LC-003-005-----0
370
    25
390
0
 62
     2
100
AcDbLine
 10
333.839508
 20
138.678037
 30
0.0
 11
438.203393
 21
243.041921
 31
0.0
  0
LINE
  5
46
100
AcDbEntity
  8
LC-003-005-----0
370
    25
390
0
 62
     2
100
AcDbLine
 10
325.354227
 20
138.678037
 30
0.0
 11
438.203393
 21
251.527203
 31
0.0
  0
LINE
  5
47
100
AcDbEntity
  8
LC-003-005-----0
370
    25
390
0
 62
     2
100
AcDbLine
 10
316.868946
 20
138.678037
 30
0.0
 11
438.203393
 21
260.012484
 31
0.0
  0
LINE
  5
48
100
AcDbEntity
  8
LC-003-005-----0
370
    25
390
0
 62
     2
100
AcDbLine
 10
308.383664
 20
138.678037
 30
0.0
 11
438.203393
 21
268.497766
 31
0.0
  0
LINE
  5
49
100
AcDbEntity
  8
LC-003-005-----0
370
    25
390
0
 62
     2
100
AcDbLine
 10
299.898383
 20
138.678037
 30
0.0
 11
438.203393
 21
276.983047
 31
0.0
  0
LINE
  5
4A
100
AcDbEntity
  8
LC-003-005-----0
370
    25
390
0
 62
     2
100
AcDbLine
 10
291.413101
 20
138.678037
 30
0.0
 11
438.203393
 21
285.468328
 31
0.0
  0
LINE
  5
4B
100
AcDbEntity
  8
LC-003-005-----0
370
    25
390
0
 62
     2
100
AcDbLine
 10
282.92782
 20
138.678037
 30
0.0
 11
438.203393
 21
293.95361
 31
0.0
  0
LINE
  5
4C
100
AcDbEntity
  8
LC-003-005-----0
370
    25
390
0
 62
     2
100
AcDbLine
 10
274.442539
 20
138.678037
 30
0.0
 11
438.203393
 21
302.438891
 31
0.0
  0
LINE
  5
4D
100
AcDbEntity
  8
LC-003-005-----0
370
    25
390
0
 62
     2
100
AcDbLine
 10
265.957257
 20
138.678037
 30
0.0
 11
438.203393
 21
310.924172
 31
0.0
  0
LINE
  5
4E
100
AcDbEntity
  8
LC-003-005-----0
370
    25
390
0
 62
     2
100
AcDbLine
 10
257.471976
 20
138.678037
 30
0.0
 11
438.203393
 21
319.409454
 31
0.0
  0
LINE
  5
4F
100
AcDbEntity
  8
LC-003-005-----0
370
    25
390
0
 62
     2
100
AcDbLine
 10
248.986695
 20
138.678037
 30
0.0
 11
438.203393
 21
327.894735
 31
0.0
  0
LINE
  5
50
100
AcDbEntity
  8
LC-003-005-----0
370
    25
390
0
 62
     2
100
AcDbLine
 10
240.501413
 20
138.678037
 30
0.0
 11
438.203393
 21
336.380017
 31
0.0
  0
LINE
  5
51
100
AcDbEntity
  8
LC-003-005-----0
370
    25
390
0
 62
     2
100
AcDbLine
 10
232.016132
 20
138.678037
 30
0.0
 11
438.203393
 21
344.865298
 31
0.0
  0
LINE
  5
52
100
AcDbEntity
  8
LC-003-005-----0
370
    25
390
0
 62
     2
100
AcDbLine
 10
223.53085
 20
138.678037
 30
0.0
 11
438.203393
 21
353.350579
 31
0.0
  0
LINE
  5
53
100
AcDbEntity
  8
LC-003-005-----0
370
    25
390
0
 62
     2
100
AcDbLine
 10
223.203393
 20
146.835861
 30
0.0
 11
438.203393
 21
361.835861
 31
0.0
  0
LINE
  5
54
100
AcDbEntity
  8
LC-003-005-----0
370
    25
390
0
 62
     2
100
AcDbLine
 10
223.203393
 20
155.321142
 30
0.0
 11
438.203393
 21
370.321142
 31
0.0
  0
LINE
  5
55
100
AcDbEntity
  8
LC-003-005-----0
370
    25
390
0
 62
     2
100
AcDbLine
 10
223.203393
 20
163.806423
 30
0.0
 11
438.203393
 21
378.806423
 31
0.0
  0
LINE
  5
56
100
AcDbEntity
  8
LC-003-005-----0
370
    25
390
0
 62
     2
100
AcDbLine
 10
223.203393
 20
172.291705
 30
0.0
 11
438.203393
 21
387.291705
 31
0.0
  0
LINE
  5
57
100
AcDbEntity
  8
LC-003-005-----0
370
    25
390
0
 62
     2
100
AcDbLine
 10
223.203393
 20
180.776986
 30
0.0
 11
438.203393
 21
395.776986
 31
0.0
  0
LINE
  5
58
100
AcDbEntity
  8
LC-003-005-----0
370
    25
390
0
 62
     2
100
AcDbLine
 10
223.203393
 20
189.262268
 30
0.0
 11
438.203393
 21
404.262268
 31
0.0
  0
LINE
  5
59
100
AcDbEntity
  8
LC-003-005-----0
370
    25
390
0
 62
     2
100
AcDbLine
 10
223.203393
 20
197.747549
 30
0.0
 11
438.203393
 21
412.747549
 31
0.0
  0
LINE
  5
5A
100
AcDbEntity
  8
LC-003-005-----0
370
    25
390
0
 62
     2
100
AcDbLine
 10
223.203393
 20
206.23283
 30
0.0
 11
438.203393
 21
421.23283
 31
0.0
  0
LINE
  5
5B
100
AcDbEntity
  8
LC-003-005-----0
370
    25
390
0
 62
     2
100
AcDbLine
 10
223.203393
 20
214.718112
 30
0.0
 11
438.203393
 21
429.718112
 31
0.0
  0
LINE
  5
5C
100
AcDbEntity
  8
LC-003-005-----0
370
    25
390
0
 62
     2
100
AcDbLine
 10
223.203393
 20
223.203393
 30
0.0
 11
438.203393
 21
438.203393
 31
0.0
  0
LINE
  5
5D
100
AcDbEntity
  8
LC-003-005-----0
370
    25
390
0
 62
     2
100
AcDbLine
 10
223.203393
 20
231.688674
 30
0.0
 11
430.192755
 21
438.678037
 31
0.0
  0
LINE
  5
5E
100
AcDbEntity
  8
LC-003-005-----0
370
    25
390
0
 62
     2
100
AcDbLine
 10
223.203393
 20
240.173956
 30
0.0
 11
421.707474
 21
438.678037
 31
0.0
  0
LINE
  5
5F
100
AcDbEntity
  8
LC-003-005-----0
370
    25
390
0
 62
     2
100
AcDbLine
 10
223.203393
 20
248.659237
 30
0.0
 11
413.222193
 21
438.678037
 31
0.0
  0
LINE
  5
60
100
AcDbEntity
  8
LC-003-005-----0
370
    25
390
0
 62
     2
100
AcDbLine
 10
223.203393
 20
257.144519
 30
0.0
 11
404.736911
 21
438.678037
 31
0.0
  0
LINE
  5
61
100
AcDbEntity
  8
LC-003-005-----0
370
    25
390
0
 62
     2
100
AcDbLine
 10
223.203393
 20
265.6298
 30
0.0
 11
396.25163
 21
438.678037
 31
0.0
  0
LINE
  5
62
100
AcDbEntity
  8
LC-003-005-----0
370
    25
390
0
 62
     2
100
AcDbLine
 10
223.203393
 20
274.115081
 30
0.0
 11
387.766348
 21
438.678037
 31
0.0
  0
LINE
  5
63
100
AcDbEntity
  8
LC-003-005-----0
370
    25
390
0
 62
     2
100
AcDbLine
 10
223.203393
 20
282.600363
 30
0.0
 11
379.281067
 21
438.678037
 31
0.0
  0
LINE
  5
64
100
AcDbEntity
  8
LC-003-005-----0
370
    25
390
0
 62
     2
100
AcDbLine
 10
223.203393
 20
291.085644
 30
0.0
 11
370.795786
 21
438.678037
 31
0.0
  0
LINE
  5
65
100
AcDbEntity
  8
LC-003-005-----0
370
    25
390
0
 62
     2
100
AcDbLine
 10
223.203393
 20
299.570925
 30
0.0
 11
362.310504
 21
438.678037
 31
0.0
  0
LINE
  5
66
100
AcDbEntity
  8
LC-003-005-----0
370
    25
390
0
 62
     2
100
AcDbLine
 10
223.203393
 20
308.056207
 30
0.0
 11
353.825223
 21
438.678037
 31
0.0
  0
LINE
  5
67
100
AcDbEntity
  8
LC-003-005-----0
370
    25
390
0
 62
     2
100
AcDbLine
 10
223.203393
 20
316.541488
 30
0.0
 11
345.339942
 21
438.678037
 31
0.0
  0
LINE
  5
68
100
AcDbEntity
  8
LC-003-005-----0
370
    25
390
0
 62
     2
100
AcDbLine
 10
223.203393
 20
325.02677
 30
0.0
 11
336.85466
 21
438.678037
 31
0.0
  0
LINE
  5
69
100
AcDbEntity
  8
LC-003-005-----0
370
    25
390
0
 62
     2
100
AcDbLine
 10
223.203393
 20
333.512051
 30
0.0
 11
328.369379
 21
438.678037
 31
0.0
  0
LINE
  5
6A
100
AcDbEntity
  8
LC-003-005-----0
370
    25
390
0
 62
     2
100
AcDbLine
 10
223.203393
 20
341.997332
 30
0.0
 11
319.884097
 21
438.678037
 31
0.0
  0
LINE
  5
6B
100
AcDbEntity
  8
LC-003-005-----0
370
    25
390
0
 62
     2
100
AcDbLine
 10
223.203393
 20
350.482614
 30
0.0
 11
311.398816
 21
438.678037
 31
0.0
  0
LINE
  5
6C
100
AcDbEntity
  8
LC-003-005-----0
370
    25
390
0
 62
     2
100
AcDbLine
 10
223.203393
 20
358.967895
 30
0.0
 11
302.913535
 21
438.678037
 31
0.0
  0
LINE
  5
6D
100
AcDbEntity
  8
LC-003-005-----0
370
    25
390
0
 62
     2
100
AcDbLine
 10
223.203393
 20
367.453176
 30
0.0
 11
294.428253
 21
438.678037
 31
0.0
  0
LINE
  5
6E
100
AcDbEntity
  8
LC-003-005-----0
370
    25
390
0
 62
     2
100
AcDbLine
 10
223.203393
 20
375.938458
 30
0.0
 11
285.942972
 21
438.678037
 31
0.0
  0
LINE
  5
6F
100
AcDbEntity
  8
LC-003-005-----0
370
    25
390
0
 62
     2
100
AcDbLine
 10
223.203393
 20
384.423739
 30
0.0
 11
277.457691
 21
438.678037
 31
0.0
  0
LINE
  5
70
100
AcDbEntity
  8
LC-003-005-----0
370
    25
390
0
 62
     2
100
AcDbLine
 10
223.203393
 20
392.909021
 30
0.0
 11
268.972409
 21
438.678037
 31
0.0
  0
LINE
  5
71
100
AcDbEntity
  8
LC-003-005-----0
370
    25
390
0
 62
     2
100
AcDbLine
 10
223.203393
 20
401.394302
 30
0.0
 11
260.487128
 21
438.678037
 31
0.0
  0
LINE
  5
72
100
AcDbEntity
  8
LC-003-005-----0
370
    25
390
0
 62
     2
100
AcDbLine
 10
223.203393
 20
409.879583
 30
0.0
 11
252.001846
 21
438.678037
 31
0.0
  0
LINE
  5
73
100
AcDbEntity
  8
LC-003-005-----0
370
    25
390
0
 62
     2
100
AcDbLine
 10
223.203393
 20
418.364865
 30
0.0
 11
243.516565
 21
438.678037
 31
0.0
  0
LINE
  5
74
100
AcDbEntity
  8
LC-003-005-----0
370
    25
390
0
 62
     2
100
AcDbLine
 10
223.203393
 20
426.850146
 30
0.0
 11
235.031284
 21
438.678037
 31
0.0
  0
LINE
  5
75
100
AcDbEntity
  8
LC-003-005-----0
370
    25
390
0
 62
     2
100
AcDbLine
 10
223.203393
 20
435.335427
 30
0.0
 11
226.546002
 21
438.678037
 31
0.0
  0
LINE
  5
76
100
AcDbEntity
  8
LC-003-005-----0
370
    25
390
0
 62
     2
100
AcDbLine
 10
438.203393
 20
435.780588
 30
0.0
 11
435.305945
 21
438.678037
 31
0.0
  0
LINE
  5
77
100
AcDbEntity
  8
LC-003-005-----0
370
    25
390
0
 62
     2
100
AcDbLine
 10
438.203393
 20
427.295307
 30
0.0
 11
426.820663
 21
438.678037
 31
0.0
  0
LINE
  5
78
100
AcDbEntity
  8
LC-003-005-----0
370
    25
390
0
 62
     2
100
AcDbLine
 10
438.203393
 20
418.810026
 30
0.0
 11
418.335382
 21
438.678037
 31
0.0
  0
LINE
  5
79
100
AcDbEntity
  8
LC-003-005-----0
370
    25
390
0
 62
     2
100
AcDbLine
 10
438.203393
 20
410.324744
 30
0.0
 11
409.850101
 21
438.678037
 31
0.0
  0
LINE
  5
7A
100
AcDbEntity
  8
LC-003-005-----0
370
    25
390
0
 62
     2
100
AcDbLine
 10
438.203393
 20
401.839463
 30
0.0
 11
401.364819
 21
438.678037
 31
0.0
  0
LINE
  5
7B
100
AcDbEntity
  8
LC-003-005-----0
370
    25
390
0
 62
     2
100
AcDbLine
 10
438.203393
 20
393.354182
 30
0.0
 11
392.879538
 21
438.678037
 31
0.0
  0
LINE
  5
7C
100
AcDbEntity
  8
LC-003-005-----0
370
    25
390
0
 62
     2
100
AcDbLine
 10
438.203393
 20
384.8689
 30
0.0
 11
384.394257
 21
438.678037
 31
0.0
  0
LINE
  5
7D
100
AcDbEntity
  8
LC-003-005-----0
370
    25
390
0
 62
     2
100
AcDbLine
 10
438.203393
 20
376.383619
 30
0.0
 11
375.908975
 21
438.678037
 31
0.0
  0
LINE
  5
7E
100
AcDbEntity
  8
LC-003-005-----0
370
    25
390
0
 62
     2
100
AcDbLine
 10
438.203393
 20
367.898337
 30
0.0
 11
367.423694
 21
438.678037
 31
0.0
  0
LINE
  5
7F
100
AcDbEntity
  8
LC-003-005-----0
370
    25
390
0
 62
     2
100
AcDbLine
 10
438.203393
 20
359.413056
 30
0.0
 11
358.938413
 21
438.678037
 31
0.0
  0
LINE
  5
80
100
AcDbEntity
  8
LC-003-005-----0
370
    25
390
0
 62
     2
100
AcDbLine
 10
438.203393
 20
350.927775
 30
0.0
 11
350.453131
 21
438.678037
 31
0.0
  0
LINE
  5
81
100
AcDbEntity
  8
LC-003-005-----0
370
    25
390
0
 62
     2
100
AcDbLine
 10
438.203393
 20
342.442493
 30
0.0
 11
341.96785
 21
438.678037
 31
0.0
  0
LINE
  5
82
100
AcDbEntity
  8
LC-003-005-----0
370
    25
390
0
 62
     2
100
AcDbLine
 10
438.203393
 20
333.957212
 30
0.0
 11
333.482568
 21
438.678037
 31
0.0
  0
LINE
  5
83
100
AcDbEntity
  8
LC-003-005-----0
370
    25
390
0
 62
     2
100
AcDbLine
 10
438.203393
 20
325.471931
 30
0.0
 11
324.997287
 21
438.678037
 31
0.0
  0
LINE
  5
84
100
AcDbEntity
  8
LC-003-005-----0
370
    25
390
0
 62
     2
100
AcDbLine
 10
438.203393
 20
316.986649
 30
0.0
 11
316.512006
 21
438.678037
 31
0.0
  0
LINE
  5
85
100
AcDbEntity
  8
LC-003-005-----0
370
    25
390
0
 62
     2
100
AcDbLine
 10
438.203393
 20
308.501368
 30
0.0
 11
308.026724
 21
438.678037
 31
0.0
  0
LINE
  5
86
100
AcDbEntity
  8
LC-003-005-----0
370
    25
390
0
 62
     2
100
AcDbLine
 10
438.203393
 20
300.016087
 30
0.0
 11
299.541443
 21
438.678037
 31
0.0
  0
LINE
  5
87
100
AcDbEntity
  8
LC-003-005-----0
370
    25
390
0
 62
     2
100
AcDbLine
 10
438.203393
 20
291.530805
 30
0.0
 11
291.056162
 21
438.678037
 31
0.0
  0
LINE
  5
88
100
AcDbEntity
  8
LC-003-005-----0
370
    25
390
0
 62
     2
100
AcDbLine
 10
438.203393
 20
283.045524
 30
0.0
 11
282.57088
 21
438.678037
 31
0.0
  0
LINE
  5
89
100
AcDbEntity
  8
LC-003-005-----0
370
    25
390
0
 62
     2
100
AcDbLine
 10
438.203393
 20
274.560242
 30
0.0
 11
274.085599
 21
438.678037
 31
0.0
  0
LINE
  5
8A
100
AcDbEntity
  8
LC-003-005-----0
370
    25
390
0
 62
     2
100
AcDbLine
 10
438.203393
 20
266.074961
 30
0.0
 11
265.600317
 21
438.678037
 31
0.0
  0
LINE
  5
8B
100
AcDbEntity
  8
LC-003-005-----0
370
    25
390
0
 62
     2
100
AcDbLine
 10
438.203393
 20
257.58968
 30
0.0
 11
257.115036
 21
438.678037
 31
0.0
  0
LINE
  5
8C
100
AcDbEntity
  8
LC-003-005-----0
370
    25
390
0
 62
     2
100
AcDbLine
 10
438.203393
 20
249.104398
 30
0.0
 11
248.629755
 21
438.678037
 31
0.0
  0
LINE
  5
8D
100
AcDbEntity
  8
LC-003-005-----0
370
    25
390
0
 62
     2
100
AcDbLine
 10
438.203393
 20
240.619117
 30
0.0
 11
240.144473
 21
438.678037
 31
0.0
  0
LINE
  5
8E
100
AcDbEntity
  8
LC-003-005-----0
370
    25
390
0
 62
     2
100
AcDbLine
 10
438.203393
 20
232.133836
 30
0.0
 11
231.659192
 21
438.678037
 31
0.0
  0
LINE
  5
8F
100
AcDbEntity
  8
LC-003-005-----0
370
    25
390
0
 62
     2
100
AcDbLine
 10
438.203393
 20
223.648554
 30
0.0
 11
223.203393
 21
438.648554
 31
0.0
  0
LINE
  5
90
100
AcDbEntity
  8
LC-003-005-----0
370
    25
390
0
 62
     2
100
AcDbLine
 10
438.203393
 20
215.163273
 30
0.0
 11
223.203393
 21
430.163273
 31
0.0
  0
LINE
  5
91
100
AcDbEntity
  8
LC-003-005-----0
370
    25
390
0
 62
     2
100
AcDbLine
 10
438.203393
 20
206.677991
 30
0.0
 11
223.203393
 21
421.677991
 31
0.0
  0
LINE
  5
92
100
AcDbEntity
  8
LC-003-005-----0
370
    25
390
0
 62
     2
100
AcDbLine
 10
438.203393
 20
198.19271
 30
0.0
 11
223.203393
 21
413.19271
 31
0.0
  0
LINE
  5
93
100
AcDbEntity
  8
LC-003-005-----0
370
    25
390
0
 62
     2
100
AcDbLine
 10
438.203393
 20
189.707429
 30
0.0
 11
223.203393
 21
404.707429
 31
0.0
  0
LINE
  5
94
100
AcDbEntity
  8
LC-003-005-----0
370
    25
390
0
 62
     2
100
AcDbLine
 10
438.203393
 20
181.222147
 30
0.0
 11
223.203393
 21
396.222147
 31
0.0
  0
LINE
  5
95
100
AcDbEntity
  8
LC-003-005-----0
370
    25
390
0
 62
     2
100
AcDbLine
 10
438.203393
 20
172.736866
 30
0.0
 11
223.203393
 21
387.736866
 31
0.0
  0
LINE
  5
96
100
AcDbEntity
  8
LC-003-005-----0
370
    25
390
0
 62
     2
100
AcDbLine
 10
438.203393
 20
164.251585
 30
0.0
 11
223.203393
 21
379.251585
 31
0.0
  0
LINE
  5
97
100
AcDbEntity
  8
LC-003-005-----0
370
    25
390
0
 62
     2
100
AcDbLine
 10
438.203393
 20
155.766303
 30
0.0
 11
223.203393
 21
370.766303
 31
0.0
  0
LINE
  5
98
100
AcDbEntity
  8
LC-003-005-----0
370
    25
390
0
 62
     2
100
AcDbLine
 10
438.203393
 20
147.281022
 30
0.0
 11
223.203393
 21
362.281022
 31
0.0
  0
LINE
  5
99
100
AcDbEntity
  8
LC-003-005-----0
370
    25
390
0
 62
     2
100
AcDbLine
 10
438.203393
 20
138.79574
 30
0.0
 11
223.203393
 21
353.79574
 31
0.0
  0
LINE
  5
9A
100
AcDbEntity
  8
LC-003-005-----0
370
    25
390
0
 62
     2
100
AcDbLine
 10
429.835815
 20
138.678037
 30
0.0
 11
223.203393
 21
345.310459
 31
0.0
  0
LINE
  5
9B
100
AcDbEntity
  8
LC-003-005-----0
370
    25
390
0
 62
     2
100
AcDbLine
 10
421.350534
 20
138.678037
 30
0.0
 11
223.203393
 21
336.825178
 31
0.0
  0
LINE
  5
9C
100
AcDbEntity
  8
LC-003-005-----0
370
    25
390
0
 62
     2
100
AcDbLine
 10
412.865253
 20
138.678037
 30
0.0
 11
223.203393
 21
328.339896
 31
0.0
  0
LINE
  5
9D
100
AcDbEntity
  8
LC-003-005-----0
370
    25
390
0
 62
     2
100
AcDbLine
 10
404.379971
 20
138.678037
 30
0.0
 11
223.203393
 21
319.854615
 31
0.0
  0
LINE
  5
9E
100
AcDbEntity
  8
LC-003-005-----0
370
    25
390
0
 62
     2
100
AcDbLine
 10
395.89469
 20
138.678037
 30
0.0
 11
223.203393
 21
311.369334
 31
0.0
  0
LINE
  5
9F
100
AcDbEntity
  8
LC-003-005-----0
370
    25
390
0
 62
     2
100
AcDbLine
 10
387.409409
 20
138.678037
 30
0.0
 11
223.203393
 21
302.884052
 31
0.0
  0
LINE
  5
A0
100
AcDbEntity
  8
LC-003-005-----0
370
    25
390
0
 62
     2
100
AcDbLine
 10
378.924127
 20
138.678037
 30
0.0
 11
223.203393
 21
294.398771
 31
0.0
  0
LINE
  5
A1
100
AcDbEntity
  8
LC-003-005-----0
370
    25
390
0
 62
     2
100
AcDbLine
 10
370.438846
 20
138.678037
 30
0.0
 11
223.203393
 21
285.913489
 31
0.0
  0
LINE
  5
A2
100
AcDbEntity
  8
LC-003-005-----0
370
    25
390
0
 62
     2
100
AcDbLine
 10
361.953564
 20
138.678037
 30
0.0
 11
223.203393
 21
277.428208
 31
0.0
  0
LINE
  5
A3
100
AcDbEntity
  8
LC-003-005-----0
370
    25
390
0
 62
     2
100
AcDbLine
 10
353.468283
 20
138.678037
 30
0.0
 11
223.203393
 21
268.942927
 31
0.0
  0
LINE
  5
A4
100
AcDbEntity
  8
LC-003-005-----0
370
    25
390
0
 62
     2
100
AcDbLine
 10
344.983002
 20
138.678037
 30
0.0
 11
223.203393
 21
260.457645
 31
0.0
  0
LINE
  5
A5
100
AcDbEntity
  8
LC-003-005-----0
370
    25
390
0
 62
     2
100
AcDbLine
 10
336.49772
 20
138.678037
 30
0.0
 11
223.203393
 21
251.972364
 31
0.0
  0
LINE
  5
A6
100
AcDbEntity
  8
LC-003-005-----0
370
    25
390
0
 62
     2
100
AcDbLine
 10
328.012439
 20
138.678037
 30
0.0
 11
223.203393
 21
243.487083
 31
0.0
  0
LINE
  5
A7
100
AcDbEntity
  8
LC-003-005-----0
370
    25
390
0
 62
     2
100
AcDbLine
 10
319.527158
 20
138.678037
 30
0.0
 11
223.203393
 21
235.001801
 31
0.0
  0
LINE
  5
A8
100
AcDbEntity
  8
LC-003-005-----0
370
    25
390
0
 62
     2
100
AcDbLine
 10
311.041876
 20
138.678037
 30
0.0
 11
223.203393
 21
226.51652
 31
0.0
  0
LINE
  5
A9
100
AcDbEntity
  8
LC-003-005-----0
370
    25
390
0
 62
     2
100
AcDbLine
 10
302.556595
 20
138.678037
 30
0.0
 11
223.203393
 21
218.031238
 31
0.0
  0
LINE
  5
AA
100
AcDbEntity
  8
LC-003-005-----0
370
    25
390
0
 62
     2
100
AcDbLine
 10
294.071313
 20
138.678037
 30
0.0
 11
223.203393
 21
209.545957
 31
0.0
  0
LINE
  5
AB
100
AcDbEntity
  8
LC-003-005-----0
370
    25
390
0
 62
     2
100
AcDbLine
 10
285.586032
 20
138.678037
 30
0.0
 11
223.203393
 21
201.060676
 31
0.0
  0
LINE
  5
AC
100
AcDbEntity
  8
LC-003-005-----0
370
    25
390
0
 62
     2
100
AcDbLine
 10
277.100751
 20
138.678037
 30
0.0
 11
223.203393
 21
192.575394
 31
0.0
  0
LINE
  5
AD
100
AcDbEntity
  8
LC-003-005-----0
370
    25
390
0
 62
     2
100
AcDbLine
 10
268.615469
 20
138.678037
 30
0.0
 11
223.203393
 21
184.090113
 31
0.0
  0
LINE
  5
AE
100
AcDbEntity
  8
LC-003-005-----0
370
    25
390
0
 62
     2
100
AcDbLine
 10
260.130188
 20
138.678037
 30
0.0
 11
223.203393
 21
175.604832
 31
0.0
  0
LINE
  5
AF
100
AcDbEntity
  8
LC-003-005-----0
370
    25
390
0
 62
     2
100
AcDbLine
 10
251.644907
 20
138.678037
 30
0.0
 11
223.203393
 21
167.11955
 31
0.0
  0
LINE
  5
B0
100
AcDbEntity
  8
LC-003-005-----0
370
    25
390
0
 62
     2
100
AcDbLine
 10
243.159625
 20
138.678037
 30
0.0
 11
223.203393
 21
158.634269
 31
0.0
  0
LINE
  5
B1
100
AcDbEntity
  8
LC-003-005-----0
370
    25
390
0
 62
     2
100
AcDbLine
 10
234.674344
 20
138.678037
 30
0.0
 11
223.203393
 21
150.148987
 31
0.0
  0
LINE
  5
B2
100
AcDbEntity
  8
LC-003-005-----0
370
    25
390
0
 62
     2
100
AcDbLine
 10
226.189062
 20
138.678037
 30
0.0
 11
223.203393
 21
141.663706
 31
0.0
  0
ENDBLK
  5
B3
100
AcDbEntity
  8
0
390
0
100
AcDbBlockEnd
  0
BLOCK
  5
B9
100
AcDbEntity
  8
0
390
0
100
AcDbBlockBegin
  2
*D1
 70
    65
 10
0.0
 20
0.0
 30
0.0
  3
*D1
  1

  0
LINE
  5
BB
100
AcDbEntity
  8
LC-004-003-MTH-0
370
    25
390
0
 62
     2
100
AcDbLine
 10
223.203393
 20
438.678037
 30
0.0
 11
223.203393
 21
472.048
 31
0.0
  0
LINE
  5
BC
100
AcDbEntity
  8
LC-004-003-MTH-0
370
    25
390
0
 62
     2
100
AcDbLine
 10
438.203393
 20
438.678037
 30
0.0
 11
438.203393
 21
472.048
 31
0.0
  0
LINE
  5
BE
100
AcDbEntity
  8
LC-005-003-MTG-0
370
    25
390
0
 62
     2
100
AcDbLine
 10
223.203393
 20
455.248
 30
0.0
 11
438.203393
 21
455.248
 31
0.0
  0
LINE
  5
C0
100
AcDbEntity
  8
LC-006-003-----0
370
    25
390
0
 62
     2
100
AcDbLine
 10
250.963849
 20
458.902733
 30
0.0
 11
223.203393
 21
455.248
 31
0.0
  0
LINE
  5
C1
100
AcDbEntity
  8
LC-006-003-----0
370
    25
390
0
 62
     2
100
AcDbLine
 10
223.203393
 20
455.248
 30
0.0
 11
250.963849
 21
451.593267
 31
0.0
  0
LINE
  5
C2
100
AcDbEntity
  8
LC-006-003-----0
370
    25
390
0
 62
     2
100
AcDbLine
 10
250.963849
 20
451.593267
 30
0.0
 11
250.963849
 21
458.902733
 31
0.0
  0
LINE
  5
C3
100
AcDbEntity
  8
LC-006-003-----0
370
    25
390
0
 62
     2
100
AcDbLine
 10
251.026131
 20
457.952503
 30
0.0
 11
230.483393
 21
455.248
 31
0.0
  0
LINE
  5
C4
100
AcDbEntity
  8
LC-006-003-----0
370
    25
390
0
 62
     2
100
AcDbLine
 10
230.483393
 20
455.248
 30
0.0
 11
251.026131
 21
452.543497
 31
0.0
  0
LINE
  5
C5
100
AcDbEntity
  8
LC-006-003-----0
370
    25
390
0
 62
     2
100
AcDbLine
 10
251.088412
 20
457.002272
 30
0.0
 11
237.763393
 21
455.248
 31
0.0
  0
LINE
  5
C6
100
AcDbEntity
  8
LC-006-003-----0
370
    25
390
0
 62
     2
100
AcDbLine
 10
237.763393
 20
455.248
 30
0.0
 11
251.088412
 21
453.493728
 31
0.0
  0
LINE
  5
C7
100
AcDbEntity
  8
LC-006-003-----0
370
    25
390
0
 62
     2
100
AcDbLine
 10
251.150693
 20
456.052041
 30
0.0
 11
245.043393
 21
455.248
 31
0.0
  0
LINE
  5
C8
100
AcDbEntity
  8
LC-006-003-----0
370
    25
390
0
 62
     2
100
AcDbLine
 10
245.043393
 20
455.248
 30
0.0
 11
251.150693
 21
454.443959
 31
0.0
  0
LINE
  5
C9
100
AcDbEntity
  8
LC-006-003-----0
370
    25
390
0
 62
     2
100
AcDbLine
 10
410.442937
 20
451.593267
 30
0.0
 11
438.203393
 21
455.248
 31
0.0
  0
LINE
  5
CA
100
AcDbEntity
  8
LC-006-003-----0
370
    25
390
0
 62
     2
100
AcDbLine
 10
438.203393
 20
455.248
 30
0.0
 11
410.442937
 21
458.902733
 31
0.0
  0
LINE
  5
CB
100
AcDbEntity
  8
LC-006-003-----0
370
    25
390
0
 62
     2
100
AcDbLine
 10
410.442937
 20
458.902733
 30
0.0
 11
410.442937
 21
451.593267
 31
0.0
  0
LINE
  5
CC
100
AcDbEntity
  8
LC-006-003-----0
370
    25
390
0
 62
     2
100
AcDbLine
 10
410.380656
 20
452.543497
 30
0.0
 11
430.923393
 21
455.248
 31
0.0
  0
LINE
  5
CD
100
AcDbEntity
  8
LC-006-003-----0
370
    25
390
0
 62
     2
100
AcDbLine
 10
430.923393
 20
455.248
 30
0.0
 11
410.380656
 21
457.952503
 31
0.0
  0
LINE
  5
CE
100
AcDbEntity
  8
LC-006-003-----0
370
    25
390
0
 62
     2
100
AcDbLine
 10
410.318374
 20
453.493728
 30
0.0
 11
423.643393
 21
455.248
 31
0.0
  0
LINE
  5
CF
100
AcDbEntity
  8
LC-006-003-----0
370
    25
390
0
 62
     2
100
AcDbLine
 10
423.643393
 20
455.248
 30
0.0
 11
410.318374
 21
457.002272
 31
0.0
  0
LINE
  5
D0
100
AcDbEntity
  8
LC-006-003-----0
370
    25
390
0
 62
     2
100
AcDbLine
 10
410.256093
 20
454.443959
 30
0.0
 11
416.363393
 21
455.248
 31
0.0
  0
LINE
  5
D1
100
AcDbEntity
  8
LC-006-003-----0
370
    25
390
0
 62
     2
100
AcDbLine
 10
416.363393
 20
455.248
 30
0.0
 11
410.256093
 21
456.052041
 31
0.0
  0
TEXT
  5
D2
100
AcDbEntity
  8
LC-006-003-----0
370
    -2
390
0
 62
     7
100
AcDbText
 10
272.051553
 20
463.075554
 30
0.0
 40
28.0
  1
%%c215
 41
0.9
 51
15.0
  7
LCTX15-400-0-0-ARIAL
 72
     1
 11
335.051553
 21
463.075554
 31
0.0
100
AcDbText
  0
ENDBLK
  5
D3
100
AcDbEntity
  8
0
390
0
100
AcDbBlockEnd
  0
BLOCK
  5
D6
100
AcDbEntity
  8
0
390
0
100
AcDbBlockBegin
  2
*D2
 70
    65
 10
0.0
 20
0.0
 30
0.0
  3
*D2
  1

  0
LINE
  5
D7
100
AcDbEntity
  8
LC-004-003-MTH-0
370
    25
390
0
 62
     2
100
AcDbLine
 10
465.703393
 20
138.678037
 30
0.0
 11
504.506337
 21
138.678037
 31
0.0
  0
LINE
  5
D8
100
AcDbEntity
  8
LC-004-003-MTH-0
370
    25
390
0
 62
     2
100
AcDbLine
 10
438.203393
 20
438.678037
 30
0.0
 11
504.506337
 21
438.678037
 31
0.0
  0
LINE
  5
D9
100
AcDbEntity
  8
LC-005-003-MTG-0
370
    25
390
0
 62
     2
100
AcDbLine
 10
487.706337
 20
138.678037
 30
0.0
 11
487.706337
 21
438.678037
 31
0.0
  0
LINE
  5
DA
100
AcDbEntity
  8
LC-006-003-----0
370
    25
390
0
 62
     2
100
AcDbLine
 10
484.051604
 20
166.438493
 30
0.0
 11
487.706337
 21
138.678037
 31
0.0
  0
LINE
  5
DB
100
AcDbEntity
  8
LC-006-003-----0
370
    25
390
0
 62
     2
100
AcDbLine
 10
487.706337
 20
138.678037
 30
0.0
 11
491.36107
 21
166.438493
 31
0.0
  0
LINE
  5
DC
100
AcDbEntity
  8
LC-006-003-----0
370
    25
390
0
 62
     2
100
AcDbLine
 10
491.36107
 20
166.438493
 30
0.0
 11
484.051604
 21
166.438493
 31
0.0
  0
LINE
  5
DD
100
AcDbEntity
  8
LC-006-003-----0
370
    25
390
0
 62
     2
100
AcDbLine
 10
485.001834
 20
166.500774
 30
0.0
 11
487.706337
 21
145.958037
 31
0.0
  0
LINE
  5
DE
100
AcDbEntity
  8
LC-006-003-----0
370
    25
390
0
 62
     2
100
AcDbLine
 10
487.706337
 20
145.958037
 30
0.0
 11
490.41084
 21
166.500774
 31
0.0
  0
LINE
  5
DF
100
AcDbEntity
  8
LC-006-003-----0
370
    25
390
0
 62
     2
100
AcDbLine
 10
485.952065
 20
166.563056
 30
0.0
 11
487.706337
 21
153.238037
 31
0.0
  0
LINE
  5
E0
100
AcDbEntity
  8
LC-006-003-----0
370
    25
390
0
 62
     2
100
AcDbLine
 10
487.706337
 20
153.238037
 30
0.0
 11
489.460609
 21
166.563056
 31
0.0
  0
LINE
  5
E1
100
AcDbEntity
  8
LC-006-003-----0
370
    25
390
0
 62
     2
100
AcDbLine
 10
486.902296
 20
166.625337
 30
0.0
 11
487.706337
 21
160.518037
 31
0.0
  0
LINE
  5
E2
100
AcDbEntity
  8
LC-006-003-----0
370
    25
390
0
 62
     2
100
AcDbLine
 10
487.706337
 20
160.518037
 30
0.0
 11
488.510378
 21
166.625337
 31
0.0
  0
LINE
  5
E3
100
AcDbEntity
  8
LC-006-003-----0
370
    25
390
0
 62
     2
100
AcDbLine
 10
491.36107
 20
410.917581
 30
0.0
 11
487.706337
 21
438.678037
 31
0.0
  0
LINE
  5
E4
100
AcDbEntity
  8
LC-006-003-----0
370
    25
390
0
 62
     2
100
AcDbLine
 10
487.706337
 20
438.678037
 30
0.0
 11
484.051604
 21
410.917581
 31
0.0
  0
LINE
  5
E5
100
AcDbEntity
  8
LC-006-003-----0
370
    25
390
0
 62
     2
100
AcDbLine
 10
484.051604
 20
410.917581
 30
0.0
 11
491.36107
 21
410.917581
 31
0.0
  0
LINE
  5
E6
100
AcDbEntity
  8
LC-006-003-----0
370
    25
390
0
 62
     2
100
AcDbLine
 10
490.41084
 20
410.855299
 30
0.0
 11
487.706337
 21
431.398037
 31
0.0
  0
LINE
  5
E7
100
AcDbEntity
  8
LC-006-003-----0
370
    25
390
0
 62
     2
100
AcDbLine
 10
487.706337
 20
431.398037
 30
0.0
 11
485.001834
 21
410.855299
 31
0.0
  0
LINE
  5
E8
100
AcDbEntity
  8
LC-006-003-----0
370
    25
390
0
 62
     2
100
AcDbLine
 10
489.460609
 20
410.793018
 30
0.0
 11
487.706337
 21
424.118037
 31
0.0
  0
LINE
  5
E9
100
AcDbEntity
  8
LC-006-003-----0
370
    25
390
0
 62
     2
100
AcDbLine
 10
487.706337
 20
424.118037
 30
0.0
 11
485.952065
 21
410.793018
 31
0.0
  0
LINE
  5
EA
100
AcDbEntity
  8
LC-006-003-----0
370
    25
390
0
 62
     2
100
AcDbLine
 10
488.510378
 20
410.730736
 30
0.0
 11
487.706337
 21
416.838037
 31
0.0
  0
LINE
  5
EB
100
AcDbEntity
  8
LC-006-003-----0
370
    25
390
0
 62
     2
100
AcDbLine
 10
487.706337
 20
416.838037
 30
0.0
 11
486.902296
 21
410.730736
 31
0.0
  0
TEXT
  5
EC
100
AcDbEntity
  8
LC-006-003-----0
370
    -2
390
0
 62
     7
100
AcDbText
 10
479.878783
 20
266.398197
 30
0.0
 40
28.0
  1
300
 50
90.0
 41
0.9
 51
15.0
  7
LCTX15-400-0-0-ARIAL
 72
     1
 11
479.878783
 21
293.026197
 31
0.0
100
AcDbText
  0
ENDBLK
  5
ED
100
AcDbEntity
  8
0
390
0
100
AcDbBlockEnd
  0
BLOCK
  5
123
100
AcDbEntity
  8
0
390
0
100
AcDbBlockBegin
  2
*D3
 70
    65
 10
0.0
 20
0.0
 30
0.0
  3
*D3
  1

  0
LINE
  5
124
100
AcDbEntity
  8
LC-004-003-MTH-0
370
    25
390
0
 62
     2
100
AcDbLine
 10
177.705331
 20
138.678037
 30
0.0
 11
141.506331
 21
138.678037
 31
0.0
  0
LINE
  5
125
100
AcDbEntity
  8
LC-004-003-MTH-0
370
    25
390
0
 62
     2
100
AcDbLine
 10
218.705331
 20
188.678037
 30
0.0
 11
141.506331
 21
188.678037
 31
0.0
  0
LINE
  5
126
100
AcDbEntity
  8
LC-006-003-----0
370
    25
390
0
 62
     2
100
AcDbLine
 10
161.961064
 20
110.917581
 30
0.0
 11
158.306331
 21
138.678037
 31
0.0
  0
LINE
  5
127
100
AcDbEntity
  8
LC-006-003-----0
370
    25
390
0
 62
     2
100
AcDbLine
 10
158.306331
 20
138.678037
 30
0.0
 11
154.651598
 21
110.917581
 31
0.0
  0
LINE
  5
128
100
AcDbEntity
  8
LC-006-003-----0
370
    25
390
0
 62
     2
100
AcDbLine
 10
154.651598
 20
110.917581
 30
0.0
 11
161.961064
 21
110.917581
 31
0.0
  0
LINE
  5
129
100
AcDbEntity
  8
LC-006-003-----0
370
    25
390
0
 62
     2
100
AcDbLine
 10
161.010834
 20
110.855299
 30
0.0
 11
158.306331
 21
131.398037
 31
0.0
  0
LINE
  5
12A
100
AcDbEntity
  8
LC-006-003-----0
370
    25
390
0
 62
     2
100
AcDbLine
 10
158.306331
 20
131.398037
 30
0.0
 11
155.601828
 21
110.855299
 31
0.0
  0
LINE
  5
12B
100
AcDbEntity
  8
LC-006-003-----0
370
    25
390
0
 62
     2
100
AcDbLine
 10
160.060603
 20
110.793018
 30
0.0
 11
158.306331
 21
124.118037
 31
0.0
  0
LINE
  5
12C
100
AcDbEntity
  8
LC-006-003-----0
370
    25
390
0
 62
     2
100
AcDbLine
 10
158.306331
 20
124.118037
 30
0.0
 11
156.552059
 21
110.793018
 31
0.0
  0
LINE
  5
12D
100
AcDbEntity
  8
LC-006-003-----0
370
    25
390
0
 62
     2
100
AcDbLine
 10
159.110372
 20
110.730736
 30
0.0
 11
158.306331
 21
116.838037
 31
0.0
  0
LINE
  5
12E
100
AcDbEntity
  8
LC-006-003-----0
370
    25
390
0
 62
     2
100
AcDbLine
 10
158.306331
 20
116.838037
 30
0.0
 11
157.50229
 21
110.730736
 31
0.0
  0
LINE
  5
12F
100
AcDbEntity
  8
LC-006-003-----0
370
    25
390
0
 62
     2
100
AcDbLine
 10
154.651598
 20
216.438493
 30
0.0
 11
158.306331
 21
188.678037
 31
0.0
  0
LINE
  5
130
100
AcDbEntity
  8
LC-006-003-----0
370
    25
390
0
 62
     2
100
AcDbLine
 10
158.306331
 20
188.678037
 30
0.0
 11
161.961064
 21
216.438493
 31
0.0
  0
LINE
  5
131
100
AcDbEntity
  8
LC-006-003-----0
370
    25
390
0
 62
     2
100
AcDbLine
 10
161.961064
 20
216.438493
 30
0.0
 11
154.651598
 21
216.438493
 31
0.0
  0
LINE
  5
132
100
AcDbEntity
  8
LC-006-003-----0
370
    25
390
0
 62
     2
100
AcDbLine
 10
155.601828
 20
216.500774
 30
0.0
 11
158.306331
 21
195.958037
 31
0.0
  0
LINE
  5
133
100
AcDbEntity
  8
LC-006-003-----0
370
    25
390
0
 62
     2
100
AcDbLine
 10
158.306331
 20
195.958037
 30
0.0
 11
161.010834
 21
216.500774
 31
0.0
  0
LINE
  5
134
100
AcDbEntity
  8
LC-006-003-----0
370
    25
390
0
 62
     2
100
AcDbLine
 10
156.552059
 20
216.563056
 30
0.0
 11
158.306331
 21
203.238037
 31
0.0
  0
LINE
  5
135
100
AcDbEntity
  8
LC-006-003-----0
370
    25
390
0
 62
     2
100
AcDbLine
 10
158.306331
 20
203.238037
 30
0.0
 11
160.060603
 21
216.563056
 31
0.0
  0
LINE
  5
136
100
AcDbEntity
  8
LC-006-003-----0
370
    25
390
0
 62
     2
100
AcDbLine
 10
157.50229
 20
216.625337
 30
0.0
 11
158.306331
 21
210.518037
 31
0.0
  0
LINE
  5
137
100
AcDbEntity
  8
LC-006-003-----0
370
    25
390
0
 62
     2
100
AcDbLine
 10
158.306331
 20
210.518037
 30
0.0
 11
159.110372
 21
216.625337
 31
0.0
  0
LINE
  5
138
100
AcDbEntity
  8
LC-005-003-MTG-0
370
    25
390
0
 62
     2
100
AcDbLine
 10
158.306331
 20
99.478037
 30
0.0
 11
158.306331
 21
274.582037
 31
0.0
  0
TEXT
  5
139
100
AcDbEntity
  8
LC-006-003-----0
370
    -2
390
0
 62
     7
100
AcDbText
 10
150.478777
 20
232.226197
 30
0.0
 40
28.0
  1
50
 50
90.0
 41
0.9
 51
15.0
  7
LCTX15-400-0-0-ARIAL
100
AcDbText
  0
ENDBLK
  5
13A
100
AcDbEntity
  8
0
390
0
100
AcDbBlockEnd
  0
BLOCK
  5
140
100
AcDbEntity
  8
0
390
0
100
AcDbBlockBegin
  2
*X4
 70
    65
 10
0.0
 20
0.0
 30
0.0
  3
*X4
  1

  0
LINE
  5
141
100
AcDbEntity
  8
LC-003-005-----0
370
    25
390
0
 62
     2
100
AcDbLine
 10
212.217142
 20
138.678037
 30
0.0
 11
222.701455
 21
149.16235
 31
0.0
  0
LINE
  5
142
100
AcDbEntity
  8
LC-003-005-----0
370
    25
390
0
 62
     2
100
AcDbLine
 10
209.388715
 20
138.678037
 30
0.0
 11
212.484474
 21
141.773796
 31
0.0
  0
LINE
  5
143
100
AcDbEntity
  8
LC-003-005-----0
370
    25
390
0
 62
     2
100
AcDbLine
 10
219.605696
 20
148.895018
 30
0.0
 11
222.701455
 21
151.990777
 31
0.0
  0
LINE
  5
144
100
AcDbEntity
  8
LC-003-005-----0
370
    25
390
0
 62
     2
100
AcDbLine
 10
206.560288
 20
138.678037
 30
0.0
 11
209.560288
 21
141.678037
 31
0.0
  0
LINE
  5
145
100
AcDbEntity
  8
LC-003-005-----0
370
    25
390
0
 62
     2
100
AcDbLine
 10
219.701455
 20
151.819204
 30
0.0
 11
222.701455
 21
154.819204
 31
0.0
  0
LINE
  5
146
100
AcDbEntity
  8
LC-003-005-----0
370
    25
390
0
 62
     2
100
AcDbLine
 10
203.731861
 20
138.678037
 30
0.0
 11
206.731861
 21
141.678037
 31
0.0
  0
LINE
  5
147
100
AcDbEntity
  8
LC-003-005-----0
370
    25
390
0
 62
     2
100
AcDbLine
 10
219.701455
 20
154.647631
 30
0.0
 11
222.701455
 21
157.647631
 31
0.0
  0
LINE
  5
148
100
AcDbEntity
  8
LC-003-005-----0
370
    25
390
0
 62
     2
100
AcDbLine
 10
201.201455
 20
138.976058
 30
0.0
 11
203.903433
 21
141.678037
 31
0.0
  0
LINE
  5
149
100
AcDbEntity
  8
LC-003-005-----0
370
    25
390
0
 62
     2
100
AcDbLine
 10
219.701455
 20
157.476058
 30
0.0
 11
222.701455
 21
160.476058
 31
0.0
  0
LINE
  5
14A
100
AcDbEntity
  8
LC-003-005-----0
370
    25
390
0
 62
     2
100
AcDbLine
 10
219.701455
 20
160.304485
 30
0.0
 11
222.701455
 21
163.304485
 31
0.0
  0
LINE
  5
14B
100
AcDbEntity
  8
LC-003-005-----0
370
    25
390
0
 62
     2
100
AcDbLine
 10
195.246579
 20
138.678037
 30
0.0
 11
197.201455
 21
140.632913
 31
0.0
  0
LINE
  5
14C
100
AcDbEntity
  8
LC-003-005-----0
370
    25
390
0
 62
     2
100
AcDbLine
 10
219.701455
 20
163.132913
 30
0.0
 11
222.701455
 21
166.132913
 31
0.0
  0
LINE
  5
14D
100
AcDbEntity
  8
LC-003-005-----0
370
    25
390
0
 62
     2
100
AcDbLine
 10
192.418152
 20
138.678037
 30
0.0
 11
195.418152
 21
141.678037
 31
0.0
  0
LINE
  5
14E
100
AcDbEntity
  8
LC-003-005-----0
370
    25
390
0
 62
     2
100
AcDbLine
 10
219.701455
 20
165.96134
 30
0.0
 11
222.701455
 21
168.96134
 31
0.0
  0
LINE
  5
14F
100
AcDbEntity
  8
LC-003-005-----0
370
    25
390
0
 62
     2
100
AcDbLine
 10
189.589725
 20
138.678037
 30
0.0
 11
192.589725
 21
141.678037
 31
0.0
  0
LINE
  5
150
100
AcDbEntity
  8
LC-003-005-----0
370
    25
390
0
 62
     2
100
AcDbLine
 10
219.701455
 20
168.789767
 30
0.0
 11
222.701455
 21
171.789767
 31
0.0
  0
LINE
  5
151
100
AcDbEntity
  8
LC-003-005-----0
370
    25
390
0
 62
     2
100
AcDbLine
 10
186.761298
 20
138.678037
 30
0.0
 11
189.761298
 21
141.678037
 31
0.0
  0
LINE
  5
152
100
AcDbEntity
  8
LC-003-005-----0
370
    25
390
0
 62
     2
100
AcDbLine
 10
219.701455
 20
171.618194
 30
0.0
 11
222.701455
 21
174.618194
 31
0.0
  0
LINE
  5
153
100
AcDbEntity
  8
LC-003-005-----0
370
    25
390
0
 62
     2
100
AcDbLine
 10
183.932871
 20
138.678037
 30
0.0
 11
186.932871
 21
141.678037
 31
0.0
  0
LINE
  5
154
100
AcDbEntity
  8
LC-003-005-----0
370
    25
390
0
 62
     2
100
AcDbLine
 10
219.701455
 20
174.446621
 30
0.0
 11
222.701455
 21
177.446621
 31
0.0
  0
LINE
  5
155
100
AcDbEntity
  8
LC-003-005-----0
370
    25
390
0
 62
     2
100
AcDbLine
 10
181.104444
 20
138.678037
 30
0.0
 11
184.104444
 21
141.678037
 31
0.0
  0
LINE
  5
156
100
AcDbEntity
  8
LC-003-005-----0
370
    25
390
0
 62
     2
100
AcDbLine
 10
219.701455
 20
177.275048
 30
0.0
 11
222.701455
 21
180.275048
 31
0.0
  0
LINE
  5
157
100
AcDbEntity
  8
LC-003-005-----0
370
    25
390
0
 62
     2
100
AcDbLine
 10
178.701455
 20
139.103475
 30
0.0
 11
181.276016
 21
141.678037
 31
0.0
  0
LINE
  5
158
100
AcDbEntity
  8
LC-003-005-----0
370
    25
390
0
 62
     2
100
AcDbLine
 10
219.701455
 20
180.103475
 30
0.0
 11
222.701455
 21
183.103475
 31
0.0
  0
LINE
  5
159
100
AcDbEntity
  8
LC-003-005-----0
370
    25
390
0
 62
     2
100
AcDbLine
 10
219.701455
 20
182.931902
 30
0.0
 11
222.225157
 21
185.455605
 31
0.0
  0
LINE
  5
15A
100
AcDbEntity
  8
LC-003-005-----0
370
    25
390
0
 62
     2
100
AcDbLine
 10
219.701455
 20
185.76033
 30
0.0
 11
221.62744
 21
187.686315
 31
0.0
  0
LINE
  5
15B
100
AcDbEntity
  8
LC-003-005-----0
370
    25
390
0
 62
     2
100
AcDbLine
 10
219.701455
 20
188.588757
 30
0.0
 11
219.790735
 21
188.678037
 31
0.0
  0
ENDBLK
  5
15C
100
AcDbEntity
  8
0
390
0
100
AcDbBlockEnd
  0
BLOCK
  5
162
100
AcDbEntity
  8
0
390
0
100
AcDbBlockBegin
  2
*D5
 70
    65
 10
0.0
 20
0.0
 30
0.0
  3
*D5
  1

  0
LINE
  5
163
100
AcDbEntity
  8
LC-004-003-MTH-0
370
    25
390
0
 62
     2
100
AcDbLine
 10
178.701455
 20
138.678037
 30
0.0
 11
178.701455
 21
69.924
 31
0.0
  0
LINE
  5
164
100
AcDbEntity
  8
LC-004-003-MTH-0
370
    25
390
0
 62
     2
100
AcDbLine
 10
483.701455
 20
138.678037
 30
0.0
 11
483.701455
 21
69.924
 31
0.0
  0
LINE
  5
165
100
AcDbEntity
  8
LC-005-003-MTG-0
370
    25
390
0
 62
     2
100
AcDbLine
 10
178.701455
 20
86.724
 30
0.0
 11
483.701455
 21
86.724
 31
0.0
  0
LINE
  5
166
100
AcDbEntity
  8
LC-006-003-----0
370
    25
390
0
 62
     2
100
AcDbLine
 10
206.461911
 20
90.378733
 30
0.0
 11
178.701455
 21
86.724
 31
0.0
  0
LINE
  5
167
100
AcDbEntity
  8
LC-006-003-----0
370
    25
390
0
 62
     2
100
AcDbLine
 10
178.701455
 20
86.724
 30
0.0
 11
206.461911
 21
83.069267
 31
0.0
  0
LINE
  5
168
100
AcDbEntity
  8
LC-006-003-----0
370
    25
390
0
 62
     2
100
AcDbLine
 10
206.461911
 20
83.069267
 30
0.0
 11
206.461911
 21
90.378733
 31
0.0
  0
LINE
  5
169
100
AcDbEntity
  8
LC-006-003-----0
370
    25
390
0
 62
     2
100
AcDbLine
 10
206.524193
 20
89.428503
 30
0.0
 11
185.981455
 21
86.724
 31
0.0
  0
LINE
  5
16A
100
AcDbEntity
  8
LC-006-003-----0
370
    25
390
0
 62
     2
100
AcDbLine
 10
185.981455
 20
86.724
 30
0.0
 11
206.524193
 21
84.019497
 31
0.0
  0
LINE
  5
16B
100
AcDbEntity
  8
LC-006-003-----0
370
    25
390
0
 62
     2
100
AcDbLine
 10
206.586474
 20
88.478272
 30
0.0
 11
193.261455
 21
86.724
 31
0.0
  0
LINE
  5
16C
100
AcDbEntity
  8
LC-006-003-----0
370
    25
390
0
 62
     2
100
AcDbLine
 10
193.261455
 20
86.724
 30
0.0
 11
206.586474
 21
84.969728
 31
0.0
  0
LINE
  5
16D
100
AcDbEntity
  8
LC-006-003-----0
370
    25
390
0
 62
     2
100
AcDbLine
 10
206.648755
 20
87.528041
 30
0.0
 11
200.541455
 21
86.724
 31
0.0
  0
LINE
  5
16E
100
AcDbEntity
  8
LC-006-003-----0
370
    25
390
0
 62
     2
100
AcDbLine
 10
200.541455
 20
86.724
 30
0.0
 11
206.648755
 21
85.919959
 31
0.0
  0
LINE
  5
16F
100
AcDbEntity
  8
LC-006-003-----0
370
    25
390
0
 62
     2
100
AcDbLine
 10
455.940999
 20
83.069267
 30
0.0
 11
483.701455
 21
86.724
 31
0.0
  0
LINE
  5
170
100
AcDbEntity
  8
LC-006-003-----0
370
    25
390
0
 62
     2
100
AcDbLine
 10
483.701455
 20
86.724
 30
0.0
 11
455.940999
 21
90.378733
 31
0.0
  0
LINE
  5
171
100
AcDbEntity
  8
LC-006-003-----0
370
    25
390
0
 62
     2
100
AcDbLine
 10
455.940999
 20
90.378733
 30
0.0
 11
455.940999
 21
83.069267
 31
0.0
  0
LINE
  5
172
100
AcDbEntity
  8
LC-006-003-----0
370
    25
390
0
 62
     2
100
AcDbLine
 10
455.878717
 20
84.019497
 30
0.0
 11
476.421455
 21
86.724
 31
0.0
  0
LINE
  5
173
100
AcDbEntity
  8
LC-006-003-----0
370
    25
390
0
 62
     2
100
AcDbLine
 10
476.421455
 20
86.724
 30
0.0
 11
455.878717
 21
89.428503
 31
0.0
  0
LINE
  5
174
100
AcDbEntity
  8
LC-006-003-----0
370
    25
390
0
 62
     2
100
AcDbLine
 10
455.816436
 20
84.969728
 30
0.0
 11
469.141455
 21
86.724
 31
0.0
  0
LINE
  5
175
100
AcDbEntity
  8
LC-006-003-----0
370
    25
390
0
 62
     2
100
AcDbLine
 10
469.141455
 20
86.724
 30
0.0
 11
455.816436
 21
88.478272
 31
0.0
  0
LINE
  5
176
100
AcDbEntity
  8
LC-006-003-----0
370
    25
390
0
 62
     2
100
AcDbLine
 10
455.754155
 20
85.919959
 30
0.0
 11
461.861455
 21
86.724
 31
0.0
  0
LINE
  5
177
100
AcDbEntity
  8
LC-006-003-----0
370
    25
390
0
 62
     2
100
AcDbLine
 10
461.861455
 20
86.724
 30
0.0
 11
455.754155
 21
87.528041
 31
0.0
  0
TEXT
  5
178
100
AcDbEntity
  8
LC-006-003-----0
370
    -2
390
0
 62
     7
100
AcDbText
 10
272.549615
 20
94.551554
 30
0.0
 40
28.0
  1
%%c305
 41
0.9
 51
15.0
  7
LCTX15-400-0-0-ARIAL
 72
     1
 11
335.549615
 21
94.551554
 31
0.0
100
AcDbText
  0
ENDBLK
  5
179
100
AcDbEntity
  8
0
390
0
100
AcDbBlockEnd
  0
BLOCK
  5
17D
100
AcDbEntity
  8
0
390
0
100
AcDbBlockBegin
  2
*X6
 70
    65
 10
0.0
 20
0.0
 30
0.0
  3
*X6
  1

  0
LINE
  5
17E
100
AcDbEntity
  8
LC-003-005-----0
370
    25
390
0
 62
     2
100
AcDbLine
 10
478.089292
 20
138.678037
 30
0.0
 11
481.089292
 21
141.678037
 31
0.0
  0
LINE
  5
17F
100
AcDbEntity
  8
LC-003-005-----0
370
    25
390
0
 62
     2
100
AcDbLine
 10
472.432437
 20
138.678037
 30
0.0
 11
475.432437
 21
141.678037
 31
0.0
  0
LINE
  5
180
100
AcDbEntity
  8
LC-003-005-----0
370
    25
390
0
 62
     2
100
AcDbLine
 10
466.775583
 20
138.678037
 30
0.0
 11
469.775583
 21
141.678037
 31
0.0
  0
LINE
  5
181
100
AcDbEntity
  8
LC-003-005-----0
370
    25
390
0
 62
     2
100
AcDbLine
 10
461.118729
 20
138.678037
 30
0.0
 11
464.118729
 21
141.678037
 31
0.0
  0
LINE
  5
182
100
AcDbEntity
  8
LC-003-005-----0
370
    25
390
0
 62
     2
100
AcDbLine
 10
455.461875
 20
138.678037
 30
0.0
 11
458.461875
 21
141.678037
 31
0.0
  0
LINE
  5
183
100
AcDbEntity
  8
LC-003-005-----0
370
    25
390
0
 62
     2
100
AcDbLine
 10
449.80502
 20
138.678037
 30
0.0
 11
452.80502
 21
141.678037
 31
0.0
  0
LINE
  5
184
100
AcDbEntity
  8
LC-003-005-----0
370
    25
390
0
 62
     2
100
AcDbLine
 10
446.30349
 20
140.833361
 30
0.0
 11
448.424811
 21
142.954681
 31
0.0
  0
LINE
  5
185
100
AcDbEntity
  8
LC-003-005-----0
370
    25
390
0
 62
     2
100
AcDbLine
 10
443.475063
 20
143.661788
 30
0.0
 11
445.596383
 21
145.783108
 31
0.0
  0
LINE
  5
186
100
AcDbEntity
  8
LC-003-005-----0
370
    25
390
0
 62
     2
100
AcDbLine
 10
440.646636
 20
146.490215
 30
0.0
 11
442.866745
 21
148.710324
 31
0.0
  0
LINE
  5
187
100
AcDbEntity
  8
LC-003-005-----0
370
    25
390
0
 62
     2
100
AcDbLine
 10
438.701455
 20
150.201888
 30
0.0
 11
442.701455
 21
154.201888
 31
0.0
  0
LINE
  5
188
100
AcDbEntity
  8
LC-003-005-----0
370
    25
390
0
 62
     2
100
AcDbLine
 10
438.701455
 20
155.858743
 30
0.0
 11
442.701455
 21
159.858743
 31
0.0
  0
LINE
  5
189
100
AcDbEntity
  8
LC-003-005-----0
370
    25
390
0
 62
     2
100
AcDbLine
 10
438.701455
 20
161.515597
 30
0.0
 11
442.701455
 21
165.515597
 31
0.0
  0
LINE
  5
18A
100
AcDbEntity
  8
LC-003-005-----0
370
    25
390
0
 62
     2
100
AcDbLine
 10
438.701455
 20
167.172451
 30
0.0
 11
442.701455
 21
171.172451
 31
0.0
  0
LINE
  5
18B
100
AcDbEntity
  8
LC-003-005-----0
370
    25
390
0
 62
     2
100
AcDbLine
 10
438.701455
 20
172.829305
 30
0.0
 11
442.701455
 21
176.829305
 31
0.0
  0
LINE
  5
18C
100
AcDbEntity
  8
LC-003-005-----0
370
    25
390
0
 62
     2
100
AcDbLine
 10
438.701455
 20
178.48616
 30
0.0
 11
442.701455
 21
182.48616
 31
0.0
  0
LINE
  5
18D
100
AcDbEntity
  8
LC-003-005-----0
370
    25
390
0
 62
     2
100
AcDbLine
 10
440.237674
 20
185.679233
 30
0.0
 11
442.701455
 21
188.143014
 31
0.0
  0
ENDBLK
  5
18E
100
AcDbEntity
  8
0
390
0
100
AcDbBlockEnd
  0
ENDSEC
  0
SECTION
  2
ENTITIES
  0
VIEWPORT
  5
193
100
AcDbEntity
 67
     1
  8
LC-VIEWPORT
390
0
100
AcDbViewport
 10
420.0
 20
297.0
 30
0.0
 40
840.0
 41
594.0
 68
     1
 69
     1
 12
420.0
 22
297.0
 13
0.0
 23
0.0
 14
1.0
 24
1.0
 15
0.0
 25
0.0
 16
0.0
 26
0.0
 36
1.0
 17
0.0
 27
0.0
 37
0.0
 42
50.0
 43
0.0
 44
0.0
 45
594.0
 50
0.0
 51
0.0
 72
   100
 90
    32928
340
0
  1

281
     0
 71
     0
 74
     1
110
0.0
120
0.0
130
0.0
111
1.0
121
0.0
131
0.0
112
0.0
122
1.0
132
0.0
345
0
346
0
 79
     0
146
0.0
  0
CIRCLE
  5
2B
100
AcDbEntity
  8
LC-001-002-----0
370
    50
390
0
 62
     1
100
AcDbCircle
 10
650.552256
 20
288.678037
 30
0.0
 40
107.5
  0
LINE
  5
2E
102
{ACAD_REACTORS
330
194
102
}
100
AcDbEntity
  8
LC-002-006-MLN-0
370
    25
390
0
 62
     2
100
AcDbLine
 10
650.552256
 20
433.678037
 30
0.0
 11
650.552256
 21
143.678037
 31
0.0
  0
LINE
  5
2F
102
{ACAD_REACTORS
330
194
102
}
100
AcDbEntity
  8
LC-002-006-MLN-0
370
    25
390
0
 62
     2
100
AcDbLine
 10
795.552256
 20
288.678037
 30
0.0
 11
505.552256
 21
288.678037
 31
0.0
  0
LINE
  5
30
102
{ACAD_REACTORS
330
195
102
}
100
AcDbEntity
  8
LC-001-002-----0
370
    50
390
0
 62
     1
100
AcDbLine
 10
438.172138
 20
138.678037
 30
0.0
 11
438.172138
 21
163.678037
 31
0.0
  0
LINE
  5
31
100
AcDbEntity
  8
LC-001-002-----0
370
    50
390
0
 62
     1
100
AcDbLine
 10
438.203393
 20
138.678037
 30
0.0
 11
438.203393
 21
438.678037
 31
0.0
  0
LINE
  5
32
100
AcDbEntity
  8
LC-001-002-----0
370
    50
390
0
 62
     1
100
AcDbLine
 10
438.203393
 20
438.678037
 30
0.0
 11
223.203393
 21
438.678037
 31
0.0
  0
LINE
  5
33
100
AcDbEntity
  8
LC-001-002-----0
370
    50
390
0
 62
     1
100
AcDbLine
 10
223.203393
 20
438.678037
 30
0.0
 11
223.203393
 21
138.678037
 31
0.0
  0
LINE
  5
34
100
AcDbEntity
  8
LC-001-002-----0
370
    50
390
0
 62
     1
100
AcDbLine
 10
223.203393
 20
138.678037
 30
0.0
 11
438.203393
 21
138.678037
 31
0.0
  0
LINE
  5
35
100
AcDbEntity
  8
LC-002-006-MLN-0
370
    25
390
0
 62
     2
100
AcDbLine
 10
330.703393
 20
128.678037
 30
0.0
 11
330.703393
 21
448.678037
 31
0.0
  0
INSERT
  5
B4
100
AcDbEntity
  8
LC-003-005-----0
370
    25
390
0
 62
     2
100
AcDbBlockReference
  2
*X0
 10
0.0
 20
0.0
 30
0.0
  0
LINE
  5
B5
100
AcDbEntity
  8
LC-001-002-----0
370
    50
390
0
 62
     1
100
AcDbLine
 10
438.203393
 20
438.678037
 30
0.0
 11
438.203393
 21
138.678037
 31
0.0
  0
DIMENSION
  5
D4
100
AcDbEntity
  8
LC-006-003-----0
370
    25
390
0
 62
     2
100
AcDbDimension
  2
*D1
 10
330.703393
 20
455.248
 30
0.0
 11
330.703393
 21
455.248
 31
0.0
 71
     5
 72
     1
 41
1.0
 42
0.0
  1
%%c<>
  3
LC-DIM-L-0140-02-02
100
AcDbAlignedDimension
 13
223.203393
 23
438.678037
 33
0.0
 14
438.203393
 24
438.678037
 34
0.0
100
AcDbRotatedDimension
  0
DIMENSION
  5
EE
100
AcDbEntity
  8
LC-006-003-----0
370
    25
390
0
 62
     2
100
AcDbDimension
  2
*D2
 10
487.706337
 20
288.678037
 30
0.0
 11
487.706337
 21
288.678037
 31
0.0
 71
     5
 72
     1
 41
1.0
 42
0.0
  3
LC-DIM-L-0140-02-02
100
AcDbAlignedDimension
 13
465.703393
 23
138.678037
 33
0.0
 14
438.203393
 24
438.678037
 34
0.0
 50
90.0
100
AcDbRotatedDimension
  0
ARC
  5
EF
102
{ACAD_REACTORS
330
196
102
}
100
AcDbEntity
  8
LC-001-002-----0
370
    25
390
0
 62
     2
100
AcDbCircle
 10
650.552256
 20
288.678037
 30
0.0
 40
107.500021
100
AcDbArc
 50
112.5
 51
125.002946
  0
CIRCLE
  5
F0
102
{ACAD_REACTORS
330
196
102
}
100
AcDbEntity
  8
LC-001-002-----0
370
    50
390
0
 62
     1
100
AcDbCircle
 10
650.552256
 20
288.678037
 30
0.0
 40
152.5
  0
CIRCLE
  5
F1
102
{ACAD_REACTORS
330
196
102
}
100
AcDbEntity
  8
LC-001-002-----0
370
    50
390
0
 62
     1
100
AcDbCircle
 10
650.552256
 20
288.678037
 30
0.0
 40
111.5
  0
CIRCLE
  5
F2
102
{ACAD_REACTORS
330
196
102
}
100
AcDbEntity
  8
LC-001-002-----0
370
    50
390
0
 62
     1
100
AcDbCircle
 10
650.552256
 20
288.678037
 30
0.0
 40
108.5
  0
CIRCLE
  5
F3
102
{ACAD_REACTORS
330
196
102
}
100
AcDbEntity
  8
LC-001-002-----0
370
    50
390
0
 62
     1
100
AcDbCircle
 10
650.552256
 20
288.678037
 30
0.0
 40
109.839746
  0
CIRCLE
  5
F4
102
{ACAD_REACTORS
330
196
102
}
100
AcDbEntity
  8
LC-002-006-MLN-0
370
    25
390
0
 62
     2
100
AcDbCircle
 10
650.552256
 20
288.678037
 30
0.0
 40
132.0
  0
CIRCLE
  5
F5
102
{ACAD_REACTORS
330
196
102
}
100
AcDbEntity
  8
LC-001-002-----0
370
    50
390
0
 62
     1
100
AcDbCircle
 10
650.552256
 20
288.678037
 30
0.0
 40
118.5
  0
CIRCLE
  5
F6
102
{ACAD_REACTORS
330
196
102
}
100
AcDbEntity
  8
LC-001-002-----0
370
    50
390
0
 62
     1
100
AcDbCircle
 10
650.552256
 20
420.678037
 30
0.0
 40
2.0
  0
LINE
  5
F7
102
{ACAD_REACTORS
330
196
102
}
100
AcDbEntity
  8
LC-001-002-----0
370
    50
390
0
 62
     1
100
AcDbLine
 10
691.690733
 20
387.995106
 30
0.0
 11
692.991303
 21
388.533819
 31
0.0
  0
LINE
  5
F8
102
{ACAD_REACTORS
330
196
102
}
100
AcDbEntity
  8
LC-001-002-----0
370
    50
390
0
 62
     1
100
AcDbLine
 10
691.690733
 20
387.995106
 30
0.0
 11
691.15202
 21
389.295675
 31
0.0
  0
LINE
  5
F9
102
{ACAD_REACTORS
330
196
102
}
100
AcDbEntity
  8
LC-006-003-----0
370
    25
390
0
 62
     2
100
AcDbLine
 10
550.773267
 20
330.007847
 30
0.0
 11
541.534472
 21
333.834682
 31
0.0
  0
LINE
  5
FA
102
{ACAD_REACTORS
330
196
102
}
100
AcDbEntity
  8
LC-006-003-----0
370
    25
390
0
 62
     2
100
AcDbLine
 10
541.534472
 20
243.521392
 30
0.0
 11
550.773267
 21
247.348226
 31
0.0
  0
LINE
  5
FB
102
{ACAD_REACTORS
330
196
102
}
100
AcDbEntity
  8
LC-001-002-----0
370
    50
390
0
 62
     1
100
AcDbLine
 10
609.413779
 20
387.995106
 30
0.0
 11
609.952493
 21
389.295675
 31
0.0
  0
LINE
  5
FC
102
{ACAD_REACTORS
330
196
102
}
100
AcDbEntity
  8
LC-001-002-----0
370
    50
390
0
 62
     1
100
AcDbLine
 10
609.413779
 20
387.995106
 30
0.0
 11
608.11321
 21
388.533819
 31
0.0
  0
LINE
  5
FD
102
{ACAD_REACTORS
330
196
102
}
100
AcDbEntity
  8
LC-001-002-----0
370
    50
390
0
 62
     1
100
AcDbLine
 10
551.235187
 20
329.816514
 30
0.0
 11
550.696474
 21
331.117083
 31
0.0
  0
LINE
  5
FE
102
{ACAD_REACTORS
330
196
102
}
100
AcDbEntity
  8
LC-001-002-----0
370
    50
390
0
 62
     1
100
AcDbLine
 10
551.235187
 20
329.816514
 30
0.0
 11
549.934618
 21
329.2778
 31
0.0
  0
LINE
  5
FF
102
{ACAD_REACTORS
330
196
102
}
100
AcDbEntity
  8
LC-001-002-----0
370
    50
390
0
 62
     1
100
AcDbLine
 10
551.235187
 20
247.53956
 30
0.0
 11
549.934618
 21
248.078273
 31
0.0
  0
LINE
  5
100
102
{ACAD_REACTORS
330
196
102
}
100
AcDbEntity
  8
LC-001-002-----0
370
    50
390
0
 62
     1
100
AcDbLine
 10
551.235187
 20
247.53956
 30
0.0
 11
550.696474
 21
246.23899
 31
0.0
  0
LINE
  5
101
102
{ACAD_REACTORS
330
196
102
}
100
AcDbEntity
  8
LC-001-002-----0
370
    50
390
0
 62
     1
100
AcDbLine
 10
609.413779
 20
189.360967
 30
0.0
 11
608.11321
 21
188.822254
 31
0.0
  0
LINE
  5
102
102
{ACAD_REACTORS
330
196
102
}
100
AcDbEntity
  8
LC-001-002-----0
370
    50
390
0
 62
     1
100
AcDbLine
 10
609.413779
 20
189.360967
 30
0.0
 11
609.952493
 21
188.060398
 31
0.0
  0
LINE
  5
103
102
{ACAD_REACTORS
330
196
102
}
100
AcDbEntity
  8
LC-001-002-----0
370
    50
390
0
 62
     1
100
AcDbLine
 10
691.690733
 20
189.360967
 30
0.0
 11
691.15202
 21
188.060398
 31
0.0
  0
LINE
  5
104
102
{ACAD_REACTORS
330
196
102
}
100
AcDbEntity
  8
LC-001-002-----0
370
    50
390
0
 62
     1
100
AcDbLine
 10
691.690733
 20
189.360967
 30
0.0
 11
692.991303
 21
188.822254
 31
0.0
  0
LINE
  5
105
102
{ACAD_REACTORS
330
196
102
}
100
AcDbEntity
  8
LC-001-002-----0
370
    50
390
0
 62
     1
100
AcDbLine
 10
749.869326
 20
247.53956
 30
0.0
 11
750.408039
 21
246.23899
 31
0.0
  0
LINE
  5
106
102
{ACAD_REACTORS
330
196
102
}
100
AcDbEntity
  8
LC-001-002-----0
370
    50
390
0
 62
     1
100
AcDbLine
 10
749.869326
 20
247.53956
 30
0.0
 11
751.169895
 21
248.078273
 31
0.0
  0
LINE
  5
107
102
{ACAD_REACTORS
330
196
102
}
100
AcDbEntity
  8
LC-001-002-----0
370
    50
390
0
 62
     1
100
AcDbLine
 10
749.869326
 20
329.816514
 30
0.0
 11
751.169895
 21
329.2778
 31
0.0
  0
LINE
  5
108
102
{ACAD_REACTORS
330
196
102
}
100
AcDbEntity
  8
LC-001-002-----0
370
    50
390
0
 62
     1
100
AcDbLine
 10
749.869326
 20
329.816514
 30
0.0
 11
750.408039
 21
331.117083
 31
0.0
  0
ARC
  5
109
102
{ACAD_REACTORS
330
196
102
}
100
AcDbEntity
  8
LC-001-002-----0
370
    25
390
0
 62
     2
100
AcDbCircle
 10
650.552256
 20
288.678037
 30
0.0
 40
107.500021
100
AcDbArc
 50
292.5
 51
305.002946
  0
CIRCLE
  5
10A
102
{ACAD_REACTORS
330
196
102
}
100
AcDbEntity
  8
LC-001-002-----0
370
    50
390
0
 62
     1
100
AcDbCircle
 10
557.214161
 20
382.016132
 30
0.0
 40
2.0
  0
CIRCLE
  5
10B
102
{ACAD_REACTORS
330
196
102
}
100
AcDbEntity
  8
LC-001-002-----0
370
    50
390
0
 62
     1
100
AcDbCircle
 10
518.552256
 20
288.678037
 30
0.0
 40
2.0
  0
CIRCLE
  5
10C
102
{ACAD_REACTORS
330
196
102
}
100
AcDbEntity
  8
LC-001-002-----0
370
    50
390
0
 62
     1
100
AcDbCircle
 10
557.214161
 20
195.339942
 30
0.0
 40
2.0
  0
CIRCLE
  5
10D
102
{ACAD_REACTORS
330
196
102
}
100
AcDbEntity
  8
LC-001-002-----0
370
    50
390
0
 62
     1
100
AcDbCircle
 10
650.552256
 20
156.678037
 30
0.0
 40
2.0
  0
CIRCLE
  5
10E
102
{ACAD_REACTORS
330
196
102
}
100
AcDbEntity
  8
LC-001-002-----0
370
    50
390
0
 62
     1
100
AcDbCircle
 10
743.890351
 20
195.339942
 30
0.0
 40
2.0
  0
CIRCLE
  5
10F
102
{ACAD_REACTORS
330
196
102
}
100
AcDbEntity
  8
LC-001-002-----0
370
    50
390
0
 62
     1
100
AcDbCircle
 10
782.552256
 20
288.678037
 30
0.0
 40
2.0
  0
CIRCLE
  5
110
102
{ACAD_REACTORS
330
196
102
}
100
AcDbEntity
  8
LC-001-002-----0
370
    50
390
0
 62
     1
100
AcDbCircle
 10
743.890351
 20
382.016132
 30
0.0
 40
2.0
  0
LINE
  5
111
102
{ACAD_REACTORS
330
197
102
}
100
AcDbEntity
  8
LC-001-002-----0
370
    50
390
0
 62
     1
100
AcDbLine
 10
483.701455
 20
138.678037
 30
0.0
 11
178.701455
 21
138.678037
 31
0.0
  0
LINE
  5
112
102
{ACAD_REACTORS
330
197
102
}
100
AcDbEntity
  8
LC-001-002-----0
370
    50
390
0
 62
     1
100
AcDbLine
 10
178.701455
 20
138.678037
 30
0.0
 11
178.701455
 21
141.678037
 31
0.0
  0
LINE
  5
113
102
{ACAD_REACTORS
330
197
102
}
100
AcDbEntity
  8
LC-001-002-----0
370
    50
390
0
 62
     1
100
AcDbLine
 10
178.701455
 20
141.678037
 30
0.0
 11
211.873028
 21
141.678037
 31
0.0
  0
LINE
  5
114
102
{ACAD_REACTORS
330
197
102
}
100
AcDbEntity
  8
LC-001-002-----0
370
    50
390
0
 62
     1
100
AcDbLine
 10
483.701455
 20
141.678037
 30
0.0
 11
483.701455
 21
138.678037
 31
0.0
  0
LINE
  5
115
102
{ACAD_REACTORS
330
197
102
}
100
AcDbEntity
  8
LC-001-002-----0
370
    50
390
0
 62
     1
100
AcDbLine
 10
442.701455
 20
188.678037
 30
0.0
 11
438.203393
 21
188.678037
 31
0.0
  0
LINE
  5
116
102
{ACAD_REACTORS
330
197
102
}
100
AcDbEntity
  8
LC-001-002-----0
370
    50
390
0
 62
     1
100
AcDbLine
 10
219.701455
 20
148.678037
 30
0.0
 11
219.701455
 21
188.678037
 31
0.0
  0
LINE
  5
117
102
{ACAD_REACTORS
330
197
102
}
100
AcDbEntity
  8
LC-001-002-----0
370
    50
390
0
 62
     1
100
AcDbLine
 10
442.701455
 20
188.678037
 30
0.0
 11
442.701455
 21
148.678037
 31
0.0
  0
LINE
  5
118
102
{ACAD_REACTORS
330
197
102
}
100
AcDbEntity
  8
LC-001-002-----0
370
    50
390
0
 62
     1
100
AcDbLine
 10
222.701455
 20
147.435396
 30
0.0
 11
222.701455
 21
183.678037
 31
0.0
  0
LINE
  5
119
102
{ACAD_REACTORS
330
197
102
}
100
AcDbEntity
  8
LC-001-002-----0
370
    50
390
0
 62
     1
100
AcDbLine
 10
450.529882
 20
141.678037
 30
0.0
 11
483.701455
 21
141.678037
 31
0.0
  0
LINE
  5
11A
102
{ACAD_REACTORS
330
197
102
}
100
AcDbEntity
  8
LC-001-002-----0
370
    50
390
0
 62
     1
100
AcDbLine
 10
219.701455
 20
148.678037
 30
0.0
 11
213.287241
 21
142.263823
 31
0.0
  0
LINE
  5
11B
102
{ACAD_REACTORS
330
197
102
}
100
AcDbEntity
  8
LC-001-002-----0
370
    50
390
0
 62
     1
100
AcDbLine
 10
222.701455
 20
147.435396
 30
0.0
 11
213.944096
 21
138.678037
 31
0.0
  0
LINE
  5
11C
102
{ACAD_REACTORS
330
197
102
}
100
AcDbEntity
  8
LC-001-002-----0
370
    50
390
0
 62
     1
100
AcDbLine
 10
442.701455
 20
148.678037
 30
0.0
 11
449.115669
 21
142.263823
 31
0.0
  0
LINE
  5
11D
102
{ACAD_REACTORS
330
197
102
}
100
AcDbEntity
  8
LC-001-002-----0
370
    50
390
0
 62
     1
100
AcDbLine
 10
439.701455
 20
147.435396
 30
0.0
 11
448.458814
 21
138.678037
 31
0.0
  0
ARC
  5
11F
102
{ACAD_REACTORS
330
197
102
}
100
AcDbEntity
  8
LC-007-002-RND-0
370
    50
390
0
 62
     1
100
AcDbCircle
 10
450.529882
 20
143.678037
 30
0.0
 40
2.0
100
AcDbArc
 50
225.0
 51
270.0
  0
ARC
  5
120
102
{ACAD_REACTORS
330
197
102
}
100
AcDbEntity
  8
LC-007-002-RND-0
370
    50
390
0
 62
     1
100
AcDbCircle
 10
211.873028
 20
143.678037
 30
0.0
 40
2.0
100
AcDbArc
 50
270.0
 51
315.0
  0
LINE
  5
121
102
{ACAD_REACTORS
330
197
102
}
100
AcDbEntity
  8
LC-001-002-----0
370
    50
390
0
 62
     1
100
AcDbLine
 10
439.701455
 20
147.435396
 30
0.0
 11
438.172138
 21
147.435396
 31
0.0
  0
DIMENSION
  5
13B
100
AcDbEntity
  8
LC-006-003-----0
370
    25
390
0
 62
     2
100
AcDbDimension
  2
*D3
 10
158.306331
 20
163.716782
 30
0.0
 11
158.306331
 21
163.716782
 31
0.0
 71
     5
 72
     1
 41
1.0
 42
0.0
  3
LC-DIM-L-0140-02-02
100
AcDbAlignedDimension
 13
218.705331
 23
188.678037
 33
0.0
 14
177.705331
 24
138.678037
 34
0.0
 50
90.0
100
AcDbRotatedDimension
  0
LINE
  5
13C
102
{ACAD_REACTORS
330
197
102
}
100
AcDbEntity
  8
LC-001-002-----0
370
    50
390
0
 62
     1
100
AcDbLine
 10
197.201455
 20
138.678037
 30
0.0
 11
197.201455
 21
141.678037
 31
0.0
  0
LINE
  5
13D
102
{ACAD_REACTORS
330
197
102
}
100
AcDbEntity
  8
LC-001-002-----0
370
    50
390
0
 62
     1
100
AcDbLine
 10
201.201455
 20
138.678037
 30
0.0
 11
201.201455
 21
141.678037
 31
0.0
  0
LINE
  5
13E
102
{ACAD_REACTORS
330
197
102
}
100
AcDbEntity
  8
LC-002-006-MLN-0
370
    25
390
0
 62
     2
100
AcDbLine
 10
199.201455
 20
151.678037
 30
0.0
 11
199.201455
 21
128.678037
 31
0.0
  0
INSERT
  5
15D
102
{ACAD_REACTORS
330
197
102
}
100
AcDbEntity
  8
LC-003-005-----0
370
    25
390
0
 62
     2
100
AcDbBlockReference
  2
*X4
 10
0.0
 20
0.0
 30
0.0
  0
LINE
  5
15E
102
{ACAD_REACTORS
330
197
102
}
100
AcDbEntity
  8
LC-001-002-----0
370
    50
390
0
 62
     1
100
AcDbLine
 10
439.701455
 20
183.678037
 30
0.0
 11
441.041201
 21
188.678037
 31
0.0
  0
LINE
  5
15F
102
{ACAD_REACTORS
330
197
102
}
100
AcDbEntity
  8
LC-001-002-----0
370
    50
390
0
 62
     1
100
AcDbLine
 10
222.701455
 20
183.678037
 30
0.0
 11
221.361709
 21
188.678037
 31
0.0
  0
LINE
  5
160
102
{ACAD_REACTORS
330
197
102
}
100
AcDbEntity
  8
LC-001-002-----0
370
    50
390
0
 62
     1
100
AcDbLine
 10
439.701455
 20
183.678037
 30
0.0
 11
438.203393
 21
183.678037
 31
0.0
  0
DIMENSION
  5
17A
100
AcDbEntity
  8
LC-006-003-----0
370
    25
390
0
 62
     2
100
AcDbDimension
  2
*D5
 10
331.201455
 20
86.724
 30
0.0
 11
331.201455
 21
86.724
 31
0.0
 71
     5
 72
     1
 41
1.0
 42
0.0
  1
%%c<>
  3
LC-DIM-L-0140-02-02
100
AcDbAlignedDimension
 13
178.701455
 23
138.678037
 33
0.0
 14
483.701455
 24
138.678037
 34
0.0
100
AcDbRotatedDimension
  0
LINE
  5
17B
102
{ACAD_REACTORS
330
197
102
}
100
AcDbEntity
  8
LC-001-002-----0
370
    50
390
0
 62
     1
100
AcDbLine
 10
438.701455
 20
147.435396
 30
0.0
 11
438.701455
 21
183.678037
 31
0.0
  0
INSERT
  5
18F
102
{ACAD_REACTORS
330
197
102
}
100
AcDbEntity
  8
LC-003-005-----0
370
    25
390
0
 62
     2
100
AcDbBlockReference
  2
*X6
 10
0.0
 20
0.0
 30
0.0
  0
LINE
  5
190
102
{ACAD_REACTORS
330
197
102
}
100
AcDbEntity
  8
LC-001-002-----0
370
    50
390
0
 62
     1
100
AcDbLine
 10
223.203393
 20
183.678037
 30
0.0
 11
222.701455
 21
183.678037
 31
0.0
  0
LINE
  5
191
102
{ACAD_REACTORS
330
197
102
}
100
AcDbEntity
  8
LC-001-002-----0
370
    50
390
0
 62
     1
100
AcDbLine
 10
223.203393
 20
147.435396
 30
0.0
 11
222.701455
 21
147.435396
 31
0.0
  0
LINE
  5
192
102
{ACAD_REACTORS
330
197
102
}
100
AcDbEntity
  8
LC-001-002-----0
370
    50
390
0
 62
     1
100
AcDbLine
 10
223.203393
 20
188.678037
 30
0.0
 11
219.701455
 21
188.678037
 31
0.0
  0
ENDSEC
  0
SECTION
  2
OBJECTS
  0
DICTIONARY
  5
19
100
AcDbDictionary
280
     0
281
     1
  3
ACAD_GROUP
350
1A
  3
ACAD_MLINESTYLE
350
1B
  3
ACAD_LAYOUT
350
1E
  3
ACAD_PLOTSETTINGS
350
22
  3
ACAD_PLOTSTYLENAME
350
1F
  0
DICTIONARY
  5
1A
102
{ACAD_REACTORS
330
19
102
}
100
AcDbDictionary
280
     0
281
     1
  3
GRP105
350
194
  3
GRP131
350
195
  3
GRP158
350
196
  3
GRP204
350
197
  0
DICTIONARY
  5
1B
102
{ACAD_REACTORS
330
19
102
}
100
AcDbDictionary
280
     0
281
     1
  3
Standard
350
1C
  0
MLINESTYLE
  5
1C
102
{ACAD_REACTORS
330
1B
102
}
100
AcDbMlineStyle
  2
Standard
 70
     0
  3

 62
     0
 51
90.0
 52
90.0
 71
     2
 49
0.5
 62
   256
  6
ByLayer
 49
-0.5
 62
   256
  6
ByLayer
  0
ACDBDICTIONARYWDFLT
  5
1F
102
{ACAD_REACTORS
330
19
102
}
100
AcDbDictionary
281
     1
  3
Normal
350
1D
100
AcDbDictionaryWithDefault
340
1D
  0
ACDBPLACEHOLDER
  5
1D
102
{ACAD_REACTORS
330
1F
102
}
  0
LAYOUT
  5
20
102
{ACAD_REACTORS
330
1E
102
}
100
AcDbPlotSettings
  1

  2

  4

  6

 40
0.0
 41
0.0
 42
0.0
 43
0.0
 44
0.0
 45
0.0
 46
0.0
 47
0.0
 48
0.0
 49
0.0
140
0.0
141
0.0
142
1.0
143
1.0
 70
  1152
 72
     0
 73
     0
 74
     0
  7

 75
     0
147
1.0
148
0.0
149
0.0
100
AcDbLayout
  1
Model
 70
     0
 71
     0
 10
0.0
 20
0.0
 11
0.0
 21
0.0
 12
0.0
 22
0.0
 32
0.0
 14
0.0
 24
0.0
 34
0.0
 15
0.0
 25
0.0
 35
0.0
146
0.0
 13
0.0
 23
0.0
 33
0.0
 16
0.0
 26
0.0
 36
0.0
 17
0.0
 27
0.0
 37
0.0
 76
     0
330
A
331
0
345
0
346
0
  0
LAYOUT
  5
21
102
{ACAD_REACTORS
330
1E
102
}
100
AcDbPlotSettings
  1

  2

  4

  6

 40
0.0
 41
0.0
 42
0.0
 43
0.0
 44
0.0
 45
0.0
 46
0.0
 47
0.0
 48
0.0
 49
0.0
140
0.0
141
0.0
142
1.0
143
1.0
 70
   128
 72
     0
 73
     0
 74
     0
  7

 75
     0
147
1.0
148
0.0
149
0.0
100
AcDbLayout
  1
Layout1
 70
     0
 71
     0
 10
0.0
 20
0.0
 11
0.0
 21
0.0
 12
0.0
 22
0.0
 32
0.0
 14
0.0
 24
0.0
 34
0.0
 15
0.0
 25
0.0
 35
0.0
146
0.0
 13
0.0
 23
0.0
 33
0.0
 16
0.0
 26
0.0
 36
0.0
 17
0.0
 27
0.0
 37
0.0
 76
     0
330
B
331
0
345
0
346
0
  0
DICTIONARY
  5
1E
102
{ACAD_REACTORS
330
19
102
}
100
AcDbDictionary
280
     0
281
     1
  3
Layout1
350
21
  3
Model
350
20
  0
DICTIONARY
  5
22
102
{ACAD_REACTORS
330
19
102
}
100
AcDbDictionary
280
     0
281
     1
  0
GROUP
  5
194
102
{ACAD_REACTORS
330
1A
102
}
100
AcDbGroup
300
GRP105
 70
     0
 71
     1
340
2E
340
2F
  0
GROUP
  5
195
102
{ACAD_REACTORS
330
1A
102
}
100
AcDbGroup
300
GRP131
 70
     0
 71
     1
340
30
  0
GROUP
  5
196
102
{ACAD_REACTORS
330
1A
102
}
100
AcDbGroup
300
GRP158
 70
     0
 71
     1
340
EF
340
F0
340
F1
340
F2
340
F3
340
F4
340
F5
340
F6
340
F7
340
F8
340
F9
340
FA
340
FB
340
FC
340
FD
340
FE
340
FF
340
100
340
101
340
102
340
103
340
104
340
105
340
106
340
107
340
108
340
109
340
10A
340
10B
340
10C
340
10D
340
10E
340
10F
340
110
  0
GROUP
  5
197
102
{ACAD_REACTORS
330
1A
102
}
100
AcDbGroup
300
GRP204
 70
     0
 71
     1
340
111
340
112
340
113
340
114
340
115
340
116
340
117
340
118
340
119
340
11A
340
11B
340
11C
340
11D
340
11F
340
120
340
121
340
13C
340
13D
340
13E
340
15D
340
15E
340
15F
340
160
340
17B
340
18F
340
190
340
191
340
192
  0
ENDSEC
  0
EOF
