  0
SECTION
  2
HEADER
  9
$ACADVER
  1
AC1015
  9
$ACADMAINTVER
 70
     6
  9
$DWGCODEPAGE
  3
ANSI_1252
  9
$INSBASE
 10
0.0
 20
0.0
 30
0.0
  9
$EXTMIN
 10
0.0
 20
0.0
 30
0.0
  9
$EXTMAX
 10
840.0
 20
594.0
 30
0.0
  9
$LIMMIN
 10
0.0
 20
0.0
  9
$LIMMAX
 10
840.0
 20
594.0
  9
$ORTHOMODE
 70
     0
  9
$REGENMODE
 70
     1
  9
$FILLMODE
 70
     1
  9
$QTEXTMODE
 70
     0
  9
$MIRRTEXT
 70
     1
  9
$LTSCALE
 40
2.0
  9
$ATTMODE
 70
     1
  9
$TEXTSIZE
 40
2.5
  9
$TRACEWID
 40
1.0
  9
$TEXTSTYLE
  7
Standard
  9
$CLAYER
  8
0
  9
$CELTYPE
  6
ByLayer
  9
$CECOLOR
 62
     7
  9
$CELTSCALE
 40
1.0
  9
$DISPSILH
 70
     0
  9
$DIMSCALE
 40
2.0
  9
$DIMASZ
 40
3.5
  9
$DIMEXO
 40
0.625
  9
$DIMDLI
 40
3.75
  9
$DIMRND
 40
0.0
  9
$DIMDLE
 40
0.0
  9
$DIMEXE
 40
1.25
  9
$DIMTP
 40
0.0
  9
$DIMTM
 40
0.0
  9
$DIMTXT
 40
3.5
  9
$DIMCEN
 40
2.5
  9
$DIMTSZ
 40
0.0
  9
$DIMTOL
 70
     0
  9
$DIMLIM
 70
     0
  9
$DIMTIH
 70
     0
  9
$DIMTOH
 70
     0
  9
$DIMSE1
 70
     0
  9
$DIMSE2
 70
     0
  9
$DIMTAD
 70
     1
  9
$DIMZIN
 70
     8
  9
$DIMBLK
  1

  9
$DIMASO
 70
     1
  9
$DIMSHO
 70
     1
  9
$DIMPOST
  1

  9
$DIMAPOST
  1

  9
$DIMALT
 70
     0
  9
$DIMALTD
 70
     3
  9
$DIMALTF
 40
0.03937
  9
$DIMLFAC
 40
1.0
  9
$DIMTOFL
 70
     1
  9
$DIMTVP
 40
0.0
  9
$DIMTIX
 70
     0
  9
$DIMSOXD
 70
     0
  9
$DIMSAH
 70
     0
  9
$DIMBLK1
  1

  9
$DIMBLK2
  1

  9
$DIMSTYLE
  2
ISO-25
  9
$DIMCLRD
 70
     0
  9
$DIMCLRE
 70
     0
  9
$DIMCLRT
 70
     0
  9
$DIMTFAC
 40
1.0
  9
$DIMGAP
 40
0.625
  9
$DIMJUST
 70
     0
  9
$DIMSD1
 70
     0
  9
$DIMSD2
 70
     0
  9
$DIMTOLJ
 70
     0
  9
$DIMTZIN
 70
     8
  9
$DIMALTZ
 70
     0
  9
$DIMALTTZ
 70
     0
  9
$DIMUPT
 70
     0
  9
$DIMDEC
 70
     2
  9
$DIMTDEC
 70
     2
  9
$DIMALTU
 70
     2
  9
$DIMALTTD
 70
     3
  9
$DIMTXSTY
  7
Standard
  9
$DIMAUNIT
 70
     0
  9
$DIMADEC
 70
     0
  9
$DIMALTRND
 40
0.0
  9
$DIMAZIN
 70
     0
  9
$DIMDSEP
 70
    44
  9
$DIMATFIT
 70
     3
  9
$DIMFRAC
 70
     0
  9
$DIMLDRBLK
  1

  9
$DIMLUNIT
 70
     2
  9
$DIMLWD
 70
    -2
  9
$DIMLWE
 70
    -2
  9
$DIMTMOVE
 70
     0
  9
$LUNITS
 70
     2
  9
$LUPREC
 70
     4
  9
$SKETCHINC
 40
1.0
  9
$FILLETRAD
 40
10.0
  9
$AUNITS
 70
     0
  9
$AUPREC
 70
     0
  9
$MENU
  1
.
  9
$ELEVATION
 40
0.0
  9
$PELEVATION
 40
0.0
  9
$THICKNESS
 40
0.0
  9
$LIMCHECK
 70
     0
  9
$CHAMFERA
 40
10.0
  9
$CHAMFERB
 40
10.0
  9
$CHAMFERC
 40
20.0
  9
$CHAMFERD
 40
0.0
  9
$SKPOLY
 70
     0
  9
$TDCREATE
 40
2455765.390452882
  9
$TDUCREATE
 40
2455765.307119549
  9
$TDUPDATE
 40
2455765.390452894
  9
$TDUUPDATE
 40
2455765.30711956
  9
$TDINDWG
 40
0.0000000116
  9
$TDUSRTIMER
 40
0.0000000116
  9
$USRTIMER
 70
     1
  9
$ANGBASE
 50
0.0
  9
$ANGDIR
 70
     0
  9
$PDMODE
 70
     0
  9
$PDSIZE
 40
0.0
  9
$PLINEWID
 40
0.0
  9
$SPLFRAME
 70
     0
  9
$SPLINETYPE
 70
     6
  9
$SPLINESEGS
 70
     8
  9
$HANDSEED
  5
3DB
  9
$SURFTAB1
 70
     6
  9
$SURFTAB2
 70
     6
  9
$SURFTYPE
 70
     6
  9
$SURFU
 70
     6
  9
$SURFV
 70
     6
  9
$UCSBASE
  2

  9
$UCSNAME
  2

  9
$UCSORG
 10
0.0
 20
0.0
 30
0.0
  9
$UCSXDIR
 10
1.0
 20
0.0
 30
0.0
  9
$UCSYDIR
 10
0.0
 20
1.0
 30
0.0
  9
$UCSORTHOREF
  2

  9
$UCSORTHOVIEW
 70
     0
  9
$UCSORGTOP
 10
0.0
 20
0.0
 30
0.0
  9
$UCSORGBOTTOM
 10
0.0
 20
0.0
 30
0.0
  9
$UCSORGLEFT
 10
0.0
 20
0.0
 30
0.0
  9
$UCSORGRIGHT
 10
0.0
 20
0.0
 30
0.0
  9
$UCSORGFRONT
 10
0.0
 20
0.0
 30
0.0
  9
$UCSORGBACK
 10
0.0
 20
0.0
 30
0.0
  9
$PUCSBASE
  2

  9
$PUCSNAME
  2

  9
$PUCSORG
 10
0.0
 20
0.0
 30
0.0
  9
$PUCSXDIR
 10
1.0
 20
0.0
 30
0.0
  9
$PUCSYDIR
 10
0.0
 20
1.0
 30
0.0
  9
$PUCSORTHOREF
  2

  9
$PUCSORTHOVIEW
 70
     0
  9
$PUCSORGTOP
 10
0.0
 20
0.0
 30
0.0
  9
$PUCSORGBOTTOM
 10
0.0
 20
0.0
 30
0.0
  9
$PUCSORGLEFT
 10
0.0
 20
0.0
 30
0.0
  9
$PUCSORGRIGHT
 10
0.0
 20
0.0
 30
0.0
  9
$PUCSORGFRONT
 10
0.0
 20
0.0
 30
0.0
  9
$PUCSORGBACK
 10
0.0
 20
0.0
 30
0.0
  9
$USERI1
 70
     0
  9
$USERI2
 70
     0
  9
$USERI3
 70
     0
  9
$USERI4
 70
     0
  9
$USERI5
 70
     0
  9
$USERR1
 40
0.0
  9
$USERR2
 40
0.0
  9
$USERR3
 40
0.0
  9
$USERR4
 40
0.0
  9
$USERR5
 40
0.0
  9
$WORLDVIEW
 70
     1
  9
$SHADEDGE
 70
     3
  9
$SHADEDIF
 70
    70
  9
$TILEMODE
 70
     1
  9
$MAXACTVP
 70
    64
  9
$PINSBASE
 10
0.0
 20
0.0
 30
0.0
  9
$PLIMCHECK
 70
     0
  9
$PEXTMIN
 10
0.0
 20
0.0
 30
0.0
  9
$PEXTMAX
 10
840.0
 20
594.0
 30
0.0
  9
$PLIMMIN
 10
0.0
 20
0.0
  9
$PLIMMAX
 10
840.0
 20
594.0
  9
$UNITMODE
 70
     0
  9
$VISRETAIN
 70
     1
  9
$PLINEGEN
 70
     0
  9
$PSLTSCALE
 70
     1
  9
$TREEDEPTH
 70
  3020
  9
$CMLSTYLE
  2
Standard
  9
$CMLJUST
 70
     0
  9
$CMLSCALE
 40
20.0
  9
$PROXYGRAPHICS
 70
     1
  9
$MEASUREMENT
 70
     1
  9
$CELWEIGHT
370
    -1
  9
$ENDCAPS
280
     0
  9
$JOINSTYLE
280
     0
  9
$LWDISPLAY
290
     0
  9
$INSUNITS
 70
     4
  9
$HYPERLINKBASE
  1

  9
$STYLESHEET
  1

  9
$XEDIT
290
     1
  9
$CEPSNTYPE
380
     0
  9
$PSTYLEMODE
290
     1
  9
$FINGERPRINTGUID
  2
{FAEB1C30-E019-11D5-929B-00C0DF256EC4}
  9
$VERSIONGUID
  2
{FAEB1C32-E019-11D5-929B-00C0DF256EC4}
  9
$EXTNAMES
290
     1
  9
$PSVPSCALE
 40
0.0
  9
$OLESTARTUP
290
     0
  0
ENDSEC
  0
SECTION
  2
CLASSES
  0
CLASS
  1
ACDBDICTIONARYWDFLT
  2
AcDbDictionaryWithDefault
  3
ObjectDBX Classes
 90
        0
280
     0
281
     0
  0
CLASS
  1
ACDBPLACEHOLDER
  2
AcDbPlaceHolder
  3
ObjectDBX Classes
 90
        0
280
     0
281
     0
  0
CLASS
  1
LAYOUT
  2
AcDbLayout
  3
ObjectDBX Classes
 90
        0
280
     0
281
     0
  0
ENDSEC
  0
SECTION
  2
TABLES
  0
TABLE
  2
VPORT
  5
8
330
0
100
AcDbSymbolTable
 70
     2
  0
VPORT
  5
29
330
8
100
AcDbSymbolTableRecord
100
AcDbViewportTableRecord
  2
*ACTIVE
 70
     0
 10
0.0
 20
0.0
 11
1.0
 21
1.0
 12
420.0
 22
297.0
 13
0.0
 23
0.0
 14
1.0
 24
1.0
 15
0.0
 25
0.0
 16
0.0
 26
0.0
 36
1.0
 17
0.0
 27
0.0
 37
0.0
 40
594.0
 41
1.414141
 42
50.0
 43
0.0
 44
0.0
 50
0.0
 51
0.0
 71
    16
 72
   100
 73
     1
 74
     0
 75
     0
 76
     0
 77
     0
 78
     0
281
     0
 65
     0
110
0.0
120
0.0
130
0.0
111
1.0
121
0.0
131
0.0
112
0.0
122
1.0
132
0.0
 79
     0
146
0.0
  0
ENDTAB
  0
TABLE
  2
LTYPE
  5
5
330
0
100
AcDbSymbolTable
 70
     4
  0
LTYPE
  5
14
330
5
100
AcDbSymbolTableRecord
100
AcDbLinetypeTableRecord
  2
ByBlock
 70
     0
  3

 72
    65
 73
     0
 40
0.0
  0
LTYPE
  5
15
330
5
100
AcDbSymbolTableRecord
100
AcDbLinetypeTableRecord
  2
ByLayer
 70
     0
  3

 72
    65
 73
     0
 40
0.0
  0
LTYPE
  5
16
330
5
100
AcDbSymbolTableRecord
100
AcDbLinetypeTableRecord
  2
Continuous
 70
     0
  3
Solid line
 72
    65
 73
     0
 40
0.0
  0
LTYPE
  5
2A
330
5
100
AcDbSymbolTableRecord
100
AcDbLinetypeTableRecord
  2
DASHED
 70
     0
  3
__ __ __ __ __
 72
    65
 73
     2
 40
6.25
 49
5.0
 74
     4
 75
     0
340
0
 46
1.0
 50
0.0
 44
0.0
 45
0.0
 49
-1.25
 74
     4
 75
     0
340
0
 46
1.0
 50
0.0
 44
0.0
 45
0.0
  0
LTYPE
  5
6F
330
5
100
AcDbSymbolTableRecord
100
AcDbLinetypeTableRecord
  2
DASHDOT
 70
     0
  3
__ . __ . __ . __ . __
 72
    65
 73
     4
 40
7.5
 49
5.0
 74
     4
 75
     0
340
0
 46
1.0
 50
0.0
 44
0.0
 45
0.0
 49
-1.25
 74
     4
 75
     0
340
0
 46
1.0
 50
0.0
 44
0.0
 45
0.0
 49
0.0
 74
     4
 75
     0
340
0
 46
1.0
 50
0.0
 44
0.0
 45
0.0
 49
-1.25
 74
     4
 75
     0
340
0
 46
1.0
 50
0.0
 44
0.0
 45
0.0
  0
LTYPE
  5
2C2
330
5
100
AcDbSymbolTableRecord
100
AcDbLinetypeTableRecord
  2
CENTER
 70
     0
  3
__ . __ . __ . __ . __
 72
    65
 73
     4
 40
7.5
 49
5.0
 74
     4
 75
     0
340
0
 46
1.0
 50
0.0
 44
0.0
 45
0.0
 49
-1.25
 74
     4
 75
     0
340
0
 46
1.0
 50
0.0
 44
0.0
 45
0.0
 49
0.0
 74
     4
 75
     0
340
0
 46
1.0
 50
0.0
 44
0.0
 45
0.0
 49
-1.25
 74
     4
 75
     0
340
0
 46
1.0
 50
0.0
 44
0.0
 45
0.0
  0
ENDTAB
  0
TABLE
  2
LAYER
  5
2
330
0
100
AcDbSymbolTable
 70
    14
  0
LAYER
  5
10
330
2
100
AcDbSymbolTableRecord
100
AcDbLayerTableRecord
  2
0
 70
     0
 62
     7
  6
Continuous
370
    -3
390
F
  0
LAYER
  5
2B
330
2
100
AcDbSymbolTableRecord
100
AcDbLayerTableRecord
  2
LC-INFO-1-2-mm-A3-0
 70
     1
 62
     7
  6
ByBlock
370
    -3
390
F
  0
LAYER
  5
2C
330
2
100
AcDbSymbolTableRecord
100
AcDbLayerTableRecord
  2
LC-CUT-HIDDEN
 70
     0
 62
     7
  6
DASHED
370
    -3
390
F
  0
LAYER
  5
2D
330
2
100
AcDbSymbolTableRecord
100
AcDbLayerTableRecord
  2
LC-VIEWPORT
 70
     0
 62
     7
  6
ByBlock
370
    -3
390
F
  0
LAYER
  5
2E
330
2
100
AcDbSymbolTableRecord
100
AcDbLayerTableRecord
  2
LC-3D-HIDDEN
 70
     0
 62
     9
  6
DASHED
370
    -3
390
F
  0
LAYER
  5
30
330
2
100
AcDbSymbolTableRecord
100
AcDbLayerTableRecord
  2
LC-001-020-----0
 70
     0
 62
     1
  6
ByBlock
370
    -3
390
F
  0
LAYER
  5
A7
330
2
100
AcDbSymbolTableRecord
100
AcDbLayerTableRecord
  2
LC-002-002-----0
 70
     0
 62
     1
  6
ByBlock
370
    -3
390
F
  0
LAYER
  5
AE
330
2
100
AcDbSymbolTableRecord
100
AcDbLayerTableRecord
  2
LC-003-005-----0
 70
     0
 62
     2
  6
ByBlock
370
    -3
390
F
  0
LAYER
  5
BB
330
2
100
AcDbSymbolTableRecord
100
AcDbLayerTableRecord
  2
LC-004-001-----0
 70
     0
 62
     2
  6
ByBlock
370
    -3
390
F
  0
LAYER
  5
18D
330
2
100
AcDbSymbolTableRecord
100
AcDbLayerTableRecord
  2
LC-005-003-----0
 70
     0
 62
     2
  6
ByBlock
370
    -3
390
F
  0
LAYER
  5
18F
330
2
100
AcDbSymbolTableRecord
100
AcDbLayerTableRecord
  2
Defpoints
 70
     0
 62
     7
  6
Continuous
290
     0
370
    -3
390
F
  0
LAYER
  5
1AF
330
2
100
AcDbSymbolTableRecord
100
AcDbLayerTableRecord
  2
LC-006-002-RND-0
 70
     0
 62
     1
  6
ByBlock
370
    -3
390
F
  0
LAYER
  5
2C3
330
2
100
AcDbSymbolTableRecord
100
AcDbLayerTableRecord
  2
LC-007-006-MLN-0
 70
     0
 62
     2
  6
CENTER
370
    -3
390
F
  0
LAYER
  5
31E
330
2
100
AcDbSymbolTableRecord
100
AcDbLayerTableRecord
  2
LC-008-100-D00-0
 70
     0
 62
     1
  6
ByBlock
370
    -3
390
F
  0
ENDTAB
  0
TABLE
  2
STYLE
  5
3
330
0
100
AcDbSymbolTable
 70
     3
  0
STYLE
  5
11
330
3
100
AcDbSymbolTableRecord
100
AcDbTextStyleTableRecord
  2
Standard
 70
     0
 40
0.0
 41
1.0
 50
0.0
 71
     0
 42
2.5
  3
txt
  4

  0
STYLE
  5
2F
330
3
100
AcDbSymbolTableRecord
100
AcDbTextStyleTableRecord
  2
LCTX15-400-0-0-Arial
 70
     0
 40
0.0
 41
0.9
 50
0.0
 71
     0
 42
3.5
  3

  4

1001
ACAD
1000
Arial
1071
 16777218
  0
STYLE
  5
18B
330
3
100
AcDbSymbolTableRecord
100
AcDbTextStyleTableRecord
  2
LCTX15-400-0-0pDIN-Schrift
 70
     0
 40
2.5
 41
0.8
 50
15.0
 71
     0
 42
3.5
  3
STANDARD
  4

  0
ENDTAB
  0
TABLE
  2
VIEW
  5
6
330
0
100
AcDbSymbolTable
 70
     0
  0
ENDTAB
  0
TABLE
  2
UCS
  5
7
330
0
100
AcDbSymbolTable
 70
     0
  0
ENDTAB
  0
TABLE
  2
APPID
  5
9
330
0
100
AcDbSymbolTable
 70
     1
  0
APPID
  5
12
330
9
100
AcDbSymbolTableRecord
100
AcDbRegAppTableRecord
  2
ACAD
 70
     0
  0
ENDTAB
  0
TABLE
  2
DIMSTYLE
  5
A
330
0
100
AcDbSymbolTable
 70
     2
100
AcDbDimStyleTable
  0
DIMSTYLE
105
27
330
A
100
AcDbSymbolTableRecord
100
AcDbDimStyleTableRecord
  2
ISO-25
 70
     0
 41
2.5
 42
0.625
 43
3.75
 44
1.25
 73
     0
 74
     0
 77
     1
 78
     8
140
2.5
141
2.5
143
0.03937
147
0.625
171
     3
172
     1
271
     2
272
     2
274
     3
278
    44
283
     0
284
     8
340
11
  0
DIMSTYLE
105
18C
102
{ACAD_REACTORS
330
18E
330
19C
330
213
330
271
330
27E
330
28B
330
373
330
380
330
38D
102
}
330
A
100
AcDbSymbolTableRecord
100
AcDbDimStyleTableRecord
  2
LC-DIM-L-0140-02-02
 70
     0
 40
2.0
 41
14.0
 42
0.0
 43
7.5
 44
1.8
 73
     0
 74
     0
 77
     1
 78
     8
 79
     2
140
14.0
141
0.0
146
0.71
147
1.5
176
     2
177
     2
178
     2
179
     2
271
     2
278
    44
289
     1
340
18B
  0
ENDTAB
  0
TABLE
  2
BLOCK_RECORD
  5
1
330
0
100
AcDbSymbolTable
 70
    32
  0
BLOCK_RECORD
  5
1F
330
1
100
AcDbSymbolTableRecord
100
AcDbBlockTableRecord
  2
*Model_Space
340
22
  0
BLOCK_RECORD
  5
1B
330
1
100
AcDbSymbolTableRecord
100
AcDbBlockTableRecord
  2
*Paper_Space
340
1E
  0
BLOCK_RECORD
  5
23
330
1
100
AcDbSymbolTableRecord
100
AcDbBlockTableRecord
  2
*Paper_Space0
340
26
  0
BLOCK_RECORD
  5
73
330
1
100
AcDbSymbolTableRecord
100
AcDbBlockTableRecord
  2
*X11
340
0
102
{BLKREFS
331
7D
102
}
  0
BLOCK_RECORD
  5
7E
330
1
100
AcDbSymbolTableRecord
100
AcDbBlockTableRecord
  2
*X22
340
0
102
{BLKREFS
331
87
102
}
  0
BLOCK_RECORD
  5
9E
330
1
100
AcDbSymbolTableRecord
100
AcDbBlockTableRecord
  2
*X33
340
0
102
{BLKREFS
331
A5
102
}
  0
BLOCK_RECORD
  5
AB
330
1
100
AcDbSymbolTableRecord
100
AcDbBlockTableRecord
  2
*X44
340
0
102
{BLKREFS
331
BA
102
}
  0
BLOCK_RECORD
  5
BD
330
1
100
AcDbSymbolTableRecord
100
AcDbBlockTableRecord
  2
*X55
340
0
102
{BLKREFS
331
C5
102
}
  0
BLOCK_RECORD
  5
C6
330
1
100
AcDbSymbolTableRecord
100
AcDbBlockTableRecord
  2
*X66
340
0
102
{BLKREFS
331
D6
102
}
  0
BLOCK_RECORD
  5
140
330
1
100
AcDbSymbolTableRecord
100
AcDbBlockTableRecord
  2
*X77
340
0
102
{BLKREFS
331
147
102
}
  0
BLOCK_RECORD
  5
148
330
1
100
AcDbSymbolTableRecord
100
AcDbBlockTableRecord
  2
*X88
340
0
102
{BLKREFS
331
14E
102
}
  0
BLOCK_RECORD
  5
14F
330
1
100
AcDbSymbolTableRecord
100
AcDbBlockTableRecord
  2
*X99
340
0
102
{BLKREFS
331
155
102
}
  0
BLOCK_RECORD
  5
156
330
1
100
AcDbSymbolTableRecord
100
AcDbBlockTableRecord
  2
*X1010
340
0
102
{BLKREFS
331
15F
102
}
  0
BLOCK_RECORD
  5
160
330
1
100
AcDbSymbolTableRecord
100
AcDbBlockTableRecord
  2
*X1111
340
0
102
{BLKREFS
331
169
102
}
  0
BLOCK_RECORD
  5
16A
330
1
100
AcDbSymbolTableRecord
100
AcDbBlockTableRecord
  2
*X1212
340
0
102
{BLKREFS
331
170
102
}
  0
BLOCK_RECORD
  5
171
330
1
100
AcDbSymbolTableRecord
100
AcDbBlockTableRecord
  2
*X1313
340
0
102
{BLKREFS
331
177
102
}
  0
BLOCK_RECORD
  5
178
330
1
100
AcDbSymbolTableRecord
100
AcDbBlockTableRecord
  2
*X1414
340
0
102
{BLKREFS
331
17F
102
}
  0
BLOCK_RECORD
  5
190
330
1
100
AcDbSymbolTableRecord
100
AcDbBlockTableRecord
  2
*D15
340
0
  0
BLOCK_RECORD
  5
19D
330
1
100
AcDbSymbolTableRecord
100
AcDbBlockTableRecord
  2
*D16
340
0
  0
BLOCK_RECORD
  5
1EA
330
1
100
AcDbSymbolTableRecord
100
AcDbBlockTableRecord
  2
*X1517
340
0
102
{BLKREFS
331
212
102
}
  0
BLOCK_RECORD
  5
214
330
1
100
AcDbSymbolTableRecord
100
AcDbBlockTableRecord
  2
*D18
340
0
  0
BLOCK_RECORD
  5
221
330
1
100
AcDbSymbolTableRecord
100
AcDbBlockTableRecord
  2
*X1619
340
0
102
{BLKREFS
331
22F
102
}
  0
BLOCK_RECORD
  5
230
330
1
100
AcDbSymbolTableRecord
100
AcDbBlockTableRecord
  2
*X1720
340
0
102
{BLKREFS
331
23E
102
}
  0
BLOCK_RECORD
  5
24C
330
1
100
AcDbSymbolTableRecord
100
AcDbBlockTableRecord
  2
*X1821
340
0
102
{BLKREFS
331
254
102
}
  0
BLOCK_RECORD
  5
261
330
1
100
AcDbSymbolTableRecord
100
AcDbBlockTableRecord
  2
*X1922
340
0
102
{BLKREFS
331
269
102
}
  0
BLOCK_RECORD
  5
272
330
1
100
AcDbSymbolTableRecord
100
AcDbBlockTableRecord
  2
*D23
340
0
  0
BLOCK_RECORD
  5
27F
330
1
100
AcDbSymbolTableRecord
100
AcDbBlockTableRecord
  2
*D24
340
0
  0
BLOCK_RECORD
  5
28C
330
1
100
AcDbSymbolTableRecord
100
AcDbBlockTableRecord
  2
*D25
340
0
  0
BLOCK_RECORD
  5
2C5
330
1
100
AcDbSymbolTableRecord
100
AcDbBlockTableRecord
  2
*X2026
340
0
102
{BLKREFS
331
318
102
}
  0
BLOCK_RECORD
  5
33E
330
1
100
AcDbSymbolTableRecord
100
AcDbBlockTableRecord
  2
KLON1
340
0
102
{BLKREFS
331
348
102
}
  0
BLOCK_RECORD
  5
368
330
1
100
AcDbSymbolTableRecord
100
AcDbBlockTableRecord
  2
KLON2
340
0
102
{BLKREFS
331
372
102
}
  0
BLOCK_RECORD
  5
374
330
1
100
AcDbSymbolTableRecord
100
AcDbBlockTableRecord
  2
*D29
340
0
  0
BLOCK_RECORD
  5
381
330
1
100
AcDbSymbolTableRecord
100
AcDbBlockTableRecord
  2
*D30
340
0
  0
BLOCK_RECORD
  5
38E
330
1
100
AcDbSymbolTableRecord
100
AcDbBlockTableRecord
  2
*D31
340
0
  0
ENDTAB
  0
ENDSEC
  0
SECTION
  2
BLOCKS
  0
BLOCK
  5
20
330
1F
100
AcDbEntity
  8
0
100
AcDbBlockBegin
  2
*Model_Space
 70
     0
 71
     0
 10
0.0
 20
0.0
 30
0.0
  3
*Model_Space
  1

  0
ENDBLK
  5
21
330
1F
100
AcDbEntity
  8
0
100
AcDbBlockEnd
  0
BLOCK
  5
1C
330
1B
100
AcDbEntity
 67
     1
  8
0
100
AcDbBlockBegin
  2
*Paper_Space
 70
     0
 71
     0
 10
0.0
 20
0.0
 30
0.0
  3
*Paper_Space
  1

  0
ENDBLK
  5
1D
330
1B
100
AcDbEntity
 67
     1
  8
0
100
AcDbBlockEnd
  0
BLOCK
  5
24
330
23
100
AcDbEntity
  8
0
100
AcDbBlockBegin
  2
*Paper_Space0
 70
     0
 71
     0
 10
0.0
 20
0.0
 30
0.0
  3
*Paper_Space0
  1

  0
ENDBLK
  5
25
330
23
100
AcDbEntity
  8
0
100
AcDbBlockEnd
  0
BLOCK
  5
74
330
73
100
AcDbEntity
  8
0
100
AcDbBlockBegin
  2
*X11
 70
     1
 71
     0
 10
0.0
 20
0.0
 30
0.0
  3
*X11
  1

  4
*X1
  0
LINE
  5
76
330
73
100
AcDbEntity
  8
LC-001-020-----0
 62
     7
370
    25
100
AcDbLine
 10
398.823446
 20
326.698073
 30
0.0
 11
400.70594
 21
328.580564
 31
0.0
  0
LINE
  5
77
330
73
100
AcDbEntity
  8
LC-001-020-----0
 62
     7
370
    25
100
AcDbLine
 10
395.155173
 20
327.272443
 30
0.0
 11
396.834622
 21
328.951889
 31
0.0
  0
LINE
  5
78
330
73
100
AcDbEntity
  8
LC-001-020-----0
 62
     7
370
    25
100
AcDbLine
 10
391.843674
 20
328.203586
 30
0.0
 11
393.365102
 21
329.725012
 31
0.0
  0
LINE
  5
79
330
73
100
AcDbEntity
  8
LC-001-020-----0
 62
     7
370
    25
100
AcDbLine
 10
384.140535
 20
324.743096
 30
0.0
 11
386.640539
 21
327.243096
 31
0.0
  0
LINE
  5
7A
330
73
100
AcDbEntity
  8
LC-001-020-----0
 62
     7
370
    25
100
AcDbLine
 10
388.825278
 20
329.427832
 30
0.0
 11
390.214502
 21
330.817054
 31
0.0
  0
LINE
  5
7B
330
73
100
AcDbEntity
  8
LC-001-020-----0
 62
     7
370
    25
100
AcDbLine
 10
384.140541
 20
328.985739
 30
0.0
 11
387.334512
 21
332.179706
 31
0.0
  0
LINE
  5
7C
330
73
100
AcDbEntity
  8
LC-001-020-----0
 62
     7
370
    25
100
AcDbLine
 10
380.978249
 20
330.06609
 30
0.0
 11
383.478249
 21
332.566086
 31
0.0
  0
ENDBLK
  5
75
330
73
100
AcDbEntity
  8
0
100
AcDbBlockEnd
  0
BLOCK
  5
7F
330
7E
100
AcDbEntity
  8
0
100
AcDbBlockBegin
  2
*X22
 70
     1
 71
     0
 10
0.0
 20
0.0
 30
0.0
  3
*X22
  1

  4
*X2
  0
LINE
  5
81
330
7E
100
AcDbEntity
  8
LC-001-020-----0
 62
     7
370
    25
100
AcDbLine
 10
416.904628
 20
323.566042
 30
0.0
 11
419.140537
 21
325.801948
 31
0.0
  0
LINE
  5
82
330
7E
100
AcDbEntity
  8
LC-001-020-----0
 62
     7
370
    25
100
AcDbLine
 10
416.640539
 20
327.544591
 30
0.0
 11
419.140543
 21
330.044591
 31
0.0
  0
LINE
  5
83
330
7E
100
AcDbEntity
  8
LC-001-020-----0
 62
     7
370
    25
100
AcDbLine
 10
419.16199
 20
330.066039
 30
0.0
 11
421.66199
 21
332.566036
 31
0.0
  0
LINE
  5
84
330
7E
100
AcDbEntity
  8
LC-001-020-----0
 62
     7
370
    25
100
AcDbLine
 10
414.130592
 20
329.277285
 30
0.0
 11
417.419352
 21
332.566041
 31
0.0
  0
LINE
  5
85
330
7E
100
AcDbEntity
  8
LC-001-020-----0
 62
     7
370
    25
100
AcDbLine
 10
407.816602
 20
327.205941
 30
0.0
 11
410.512874
 21
329.902209
 31
0.0
  0
LINE
  5
86
330
7E
100
AcDbEntity
  8
LC-001-020-----0
 62
     7
370
    25
100
AcDbLine
 10
402.963124
 20
326.595107
 30
0.0
 11
405.137762
 21
328.769743
 31
0.0
  0
ENDBLK
  5
80
330
7E
100
AcDbEntity
  8
0
100
AcDbBlockEnd
  0
BLOCK
  5
9F
330
9E
100
AcDbEntity
  8
0
100
AcDbBlockBegin
  2
*X33
 70
     1
 71
     0
 10
0.0
 20
0.0
 30
0.0
  3
*X33
  1

  4
*X3
  0
LINE
  5
A1
330
9E
100
AcDbEntity
  8
LC-001-020-----0
 62
     7
370
    25
100
AcDbLine
 10
296.682349
 20
329.208846
 30
0.0
 11
298.068021
 21
330.594516
 31
0.0
  0
LINE
  5
A2
330
9E
100
AcDbEntity
  8
LC-001-020-----0
 62
     7
370
    25
100
AcDbLine
 10
295.356233
 20
329.296944
 30
0.0
 11
297.979925
 21
331.920633
 31
0.0
  0
LINE
  5
A3
330
9E
100
AcDbEntity
  8
LC-001-020-----0
 62
     7
370
    25
100
AcDbLine
 10
294.560309
 20
329.915234
 30
0.0
 11
297.361636
 21
332.716557
 31
0.0
  0
LINE
  5
A4
330
9E
100
AcDbEntity
  8
LC-001-020-----0
 62
     7
370
    25
100
AcDbLine
 10
294.157156
 20
330.926294
 30
0.0
 11
296.350577
 21
333.119712
 31
0.0
  0
ENDBLK
  5
A0
330
9E
100
AcDbEntity
  8
0
100
AcDbBlockEnd
  0
BLOCK
  5
AC
330
AB
100
AcDbEntity
  8
0
100
AcDbBlockBegin
  2
*X44
 70
     1
 71
     0
 10
0.0
 20
0.0
 30
0.0
  3
*X44
  1

  4
*X4
  0
LINE
  5
AF
330
AB
100
AcDbEntity
  8
LC-003-005-----0
 62
     7
370
    25
100
AcDbLine
 10
365.390927
 20
238.111306
 30
0.0
 11
367.241018
 21
239.961395
 31
0.0
  0
LINE
  5
B0
330
AB
100
AcDbEntity
  8
LC-003-005-----0
 62
     7
370
    25
100
AcDbLine
 10
366.912112
 20
246.703552
 30
0.0
 11
368.762204
 21
248.553641
 31
0.0
  0
LINE
  5
B1
330
AB
100
AcDbEntity
  8
LC-003-005-----0
 62
     7
370
    25
100
AcDbLine
 10
368.433297
 20
255.295799
 30
0.0
 11
370.283389
 21
257.145888
 31
0.0
  0
LINE
  5
B2
330
AB
100
AcDbEntity
  8
LC-003-005-----0
 62
     7
370
    25
100
AcDbLine
 10
369.954483
 20
263.888045
 30
0.0
 11
371.804574
 21
265.738134
 31
0.0
  0
LINE
  5
B3
330
AB
100
AcDbEntity
  8
LC-003-005-----0
 62
     7
370
    25
100
AcDbLine
 10
371.475668
 20
272.480292
 30
0.0
 11
373.32576
 21
274.330381
 31
0.0
  0
LINE
  5
B4
330
AB
100
AcDbEntity
  8
LC-003-005-----0
 62
     7
370
    25
100
AcDbLine
 10
372.996854
 20
281.072538
 30
0.0
 11
374.846945
 21
282.922627
 31
0.0
  0
LINE
  5
B5
330
AB
100
AcDbEntity
  8
LC-003-005-----0
 62
     7
370
    25
100
AcDbLine
 10
374.518039
 20
289.664785
 30
0.0
 11
376.36813
 21
291.514874
 31
0.0
  0
LINE
  5
B6
330
AB
100
AcDbEntity
  8
LC-003-005-----0
 62
     7
370
    25
100
AcDbLine
 10
376.039224
 20
298.257031
 30
0.0
 11
377.889316
 21
300.10712
 31
0.0
  0
LINE
  5
B7
330
AB
100
AcDbEntity
  8
LC-003-005-----0
 62
     7
370
    25
100
AcDbLine
 10
377.56041
 20
306.849277
 30
0.0
 11
379.410501
 21
308.699367
 31
0.0
  0
LINE
  5
B8
330
AB
100
AcDbEntity
  8
LC-003-005-----0
 62
     7
370
    25
100
AcDbLine
 10
378.640523
 20
315.000452
 30
0.0
 11
380.108447
 21
316.468374
 31
0.0
  0
LINE
  5
B9
330
AB
100
AcDbEntity
  8
LC-003-005-----0
 62
     7
370
    25
100
AcDbLine
 10
378.640532
 20
322.071525
 30
0.0
 11
380.108456
 21
323.539447
 31
0.0
  0
ENDBLK
  5
AD
330
AB
100
AcDbEntity
  8
0
100
AcDbBlockEnd
  0
BLOCK
  5
BE
330
BD
100
AcDbEntity
  8
0
100
AcDbBlockBegin
  2
*X55
 70
     1
 71
     0
 10
0.0
 20
0.0
 30
0.0
  3
*X55
  1

  4
*X5
  0
LINE
  5
C0
330
BD
100
AcDbEntity
  8
LC-003-005-----0
 62
     7
370
    25
100
AcDbLine
 10
429.330779
 20
328.921113
 30
0.0
 11
431.626258
 21
331.216589
 31
0.0
  0
LINE
  5
C1
330
BD
100
AcDbEntity
  8
LC-003-005-----0
 62
     7
370
    25
100
AcDbLine
 10
428.154038
 20
329.158586
 30
0.0
 11
431.388787
 21
332.393331
 31
0.0
  0
LINE
  5
C2
330
BD
100
AcDbEntity
  8
LC-003-005-----0
 62
     7
370
    25
100
AcDbLine
 10
427.357118
 20
329.77588
 30
0.0
 11
430.771494
 21
333.190252
 31
0.0
  0
LINE
  5
C3
330
BD
100
AcDbEntity
  8
LC-003-005-----0
 62
     7
370
    25
100
AcDbLine
 10
426.869557
 20
330.702532
 30
0.0
 11
429.844843
 21
333.677814
 31
0.0
  0
LINE
  5
C4
330
BD
100
AcDbEntity
  8
LC-003-005-----0
 62
     7
370
    25
100
AcDbLine
 10
426.934781
 20
332.181969
 30
0.0
 11
428.365406
 21
333.612592
 31
0.0
  0
ENDBLK
  5
BF
330
BD
100
AcDbEntity
  8
0
100
AcDbBlockEnd
  0
BLOCK
  5
C7
330
C6
100
AcDbEntity
  8
0
100
AcDbBlockBegin
  2
*X66
 70
     1
 71
     0
 10
0.0
 20
0.0
 30
0.0
  3
*X66
  1

  4
*X6
  0
LINE
  5
C9
330
C6
100
AcDbEntity
  8
LC-003-005-----0
 62
     7
370
    25
100
AcDbLine
 10
425.14055
 20
335.566031
 30
0.0
 11
425.140541
 21
328.566031
 31
0.0
  0
LINE
  5
CA
330
C6
100
AcDbEntity
  8
LC-003-005-----0
 62
     7
370
    25
100
AcDbLine
 10
425.140541
 20
328.566031
 30
0.0
 11
419.140541
 21
328.566039
 31
0.0
  0
LINE
  5
CB
330
C6
100
AcDbEntity
  8
LC-003-005-----0
 62
     7
370
    25
100
AcDbLine
 10
419.140541
 20
328.566039
 30
0.0
 11
419.140539
 21
327.066039
 31
0.0
  0
LINE
  5
CC
330
C6
100
AcDbEntity
  8
LC-003-005-----0
 62
     7
370
    25
100
AcDbLine
 10
419.140539
 20
327.066039
 30
0.0
 11
431.640539
 21
327.066022
 31
0.0
  0
LINE
  5
CD
330
C6
100
AcDbEntity
  8
LC-003-005-----0
 62
     7
370
    25
100
AcDbLine
 10
431.640539
 20
327.066022
 30
0.0
 11
431.640541
 21
328.566022
 31
0.0
  0
LINE
  5
CE
330
C6
100
AcDbEntity
  8
LC-003-005-----0
 62
     7
370
    25
100
AcDbLine
 10
431.640541
 20
328.566022
 30
0.0
 11
426.640541
 21
328.566029
 31
0.0
  0
LINE
  5
CF
330
C6
100
AcDbEntity
  8
LC-003-005-----0
 62
     7
370
    25
100
AcDbLine
 10
426.640541
 20
328.566029
 30
0.0
 11
426.640548
 21
334.066029
 31
0.0
  0
LINE
  5
D0
330
C6
100
AcDbEntity
  8
LC-003-005-----0
 62
     7
370
    25
100
AcDbLine
 10
426.640548
 20
334.066029
 30
0.0
 11
431.640548
 21
334.066022
 31
0.0
  0
LINE
  5
D1
330
C6
100
AcDbEntity
  8
LC-003-005-----0
 62
     7
370
    25
100
AcDbLine
 10
431.640548
 20
334.066022
 30
0.0
 11
431.64055
 21
335.566022
 31
0.0
  0
LINE
  5
D2
330
C6
100
AcDbEntity
  8
LC-003-005-----0
 62
     7
370
    25
100
AcDbLine
 10
431.64055
 20
335.566022
 30
0.0
 11
425.14055
 21
335.566031
 31
0.0
  0
LINE
  5
D3
330
C6
100
AcDbEntity
  8
LC-003-005-----0
 62
     7
370
    25
100
AcDbLine
 10
426.061479
 20
327.06603
 30
0.0
 11
427.561479
 21
328.566028
 31
0.0
  0
LINE
  5
D4
330
C6
100
AcDbEntity
  8
LC-003-005-----0
 62
     7
370
    25
100
AcDbLine
 10
419.140539
 20
327.216162
 30
0.0
 11
420.490416
 21
328.566037
 31
0.0
  0
LINE
  5
D5
330
C6
100
AcDbEntity
  8
LC-003-005-----0
 62
     7
370
    25
100
AcDbLine
 10
425.140547
 20
333.216162
 30
0.0
 11
427.490416
 21
335.566028
 31
0.0
  0
ENDBLK
  5
C8
330
C6
100
AcDbEntity
  8
0
100
AcDbBlockEnd
  0
BLOCK
  5
141
330
140
100
AcDbEntity
  8
0
100
AcDbBlockBegin
  2
*X77
 70
     1
 71
     0
 10
0.0
 20
0.0
 30
0.0
  3
*X77
  1

  4
*X7
  0
LINE
  5
143
330
140
100
AcDbEntity
  8
LC-003-005-----0
 62
     7
370
    25
100
AcDbLine
 10
295.047714
 20
430.811734
 30
0.0
 11
296.421097
 21
432.185116
 31
0.0
  0
LINE
  5
144
330
140
100
AcDbEntity
  8
LC-003-005-----0
 62
     7
370
    25
100
AcDbLine
 10
300.9211
 20
436.685113
 30
0.0
 11
302.319992
 21
438.084003
 31
0.0
  0
LINE
  5
145
330
140
100
AcDbEntity
  8
LC-003-005-----0
 62
     7
370
    25
100
AcDbLine
 10
294.921099
 20
434.927758
 30
0.0
 11
296.4211
 21
436.427757
 31
0.0
  0
LINE
  5
146
330
140
100
AcDbEntity
  8
LC-003-005-----0
 62
     7
370
    25
100
AcDbLine
 10
298.805078
 20
438.811732
 30
0.0
 11
300.201721
 21
440.208372
 31
0.0
  0
ENDBLK
  5
142
330
140
100
AcDbEntity
  8
0
100
AcDbBlockEnd
  0
BLOCK
  5
149
330
148
100
AcDbEntity
  8
0
100
AcDbBlockBegin
  2
*X88
 70
     1
 71
     0
 10
0.0
 20
0.0
 30
0.0
  3
*X88
  1

  4
*X8
  0
LINE
  5
14B
330
148
100
AcDbEntity
  8
LC-003-005-----0
 62
     7
370
    25
100
AcDbLine
 10
316.9211
 20
435.71454
 30
0.0
 11
318.421101
 21
437.214539
 31
0.0
  0
LINE
  5
14C
330
148
100
AcDbEntity
  8
LC-003-005-----0
 62
     7
370
    25
100
AcDbLine
 10
315.741109
 20
438.777188
 30
0.0
 11
316.89091
 21
439.926988
 31
0.0
  0
LINE
  5
14D
330
148
100
AcDbEntity
  8
LC-003-005-----0
 62
     7
370
    25
100
AcDbLine
 10
310.450262
 20
437.728986
 30
0.0
 11
313.003832
 21
440.282553
 31
0.0
  0
ENDBLK
  5
14A
330
148
100
AcDbEntity
  8
0
100
AcDbBlockEnd
  0
BLOCK
  5
150
330
14F
100
AcDbEntity
  8
0
100
AcDbBlockBegin
  2
*X99
 70
     1
 71
     0
 10
0.0
 20
0.0
 30
0.0
  3
*X99
  1

  4
*X9
  0
LINE
  5
152
330
14F
100
AcDbEntity
  8
LC-003-005-----0
 62
     7
370
    25
100
AcDbLine
 10
333.488853
 20
435.311719
 30
0.0
 11
334.4211
 21
436.243965
 31
0.0
  0
LINE
  5
153
330
14F
100
AcDbEntity
  8
LC-003-005-----0
 62
     7
370
    25
100
AcDbLine
 10
332.390707
 20
438.456213
 30
0.0
 11
333.453172
 21
439.518677
 31
0.0
  0
LINE
  5
154
330
14F
100
AcDbEntity
  8
LC-003-005-----0
 62
     7
370
    25
100
AcDbLine
 10
326.4211
 20
436.729252
 30
0.0
 11
330.003567
 21
440.311714
 31
0.0
  0
ENDBLK
  5
151
330
14F
100
AcDbEntity
  8
0
100
AcDbBlockEnd
  0
BLOCK
  5
157
330
156
100
AcDbEntity
  8
0
100
AcDbBlockBegin
  2
*X1010
 70
     1
 71
     0
 10
0.0
 20
0.0
 30
0.0
  3
*X1010
  1

  4
*X10
  0
LINE
  5
159
330
156
100
AcDbEntity
  8
LC-003-005-----0
 62
     7
370
    25
100
AcDbLine
 10
362.4447
 20
438.811701
 30
0.0
 11
362.630881
 21
438.997882
 31
0.0
  0
LINE
  5
15A
330
156
100
AcDbEntity
  8
LC-003-005-----0
 62
     7
370
    25
100
AcDbLine
 10
358.202059
 20
438.811704
 30
0.0
 11
359.701807
 21
440.311449
 31
0.0
  0
LINE
  5
15B
330
156
100
AcDbEntity
  8
LC-003-005-----0
 62
     7
370
    25
100
AcDbLine
 10
353.959419
 20
438.811707
 30
0.0
 11
355.459242
 21
440.311528
 31
0.0
  0
LINE
  5
15C
330
156
100
AcDbEntity
  8
LC-003-005-----0
 62
     7
370
    25
100
AcDbLine
 10
349.716778
 20
438.81171
 30
0.0
 11
351.216677
 21
440.311606
 31
0.0
  0
LINE
  5
15D
330
156
100
AcDbEntity
  8
LC-003-005-----0
 62
     7
370
    25
100
AcDbLine
 10
342.4211
 20
435.758679
 30
0.0
 11
343.921101
 21
437.258678
 31
0.0
  0
LINE
  5
15E
330
156
100
AcDbEntity
  8
LC-003-005-----0
 62
     7
370
    25
100
AcDbLine
 10
345.474138
 20
438.811713
 30
0.0
 11
346.974112
 21
440.311685
 31
0.0
  0
ENDBLK
  5
158
330
156
100
AcDbEntity
  8
0
100
AcDbBlockEnd
  0
BLOCK
  5
161
330
160
100
AcDbEntity
  8
0
100
AcDbBlockBegin
  2
*X1111
 70
     1
 71
     0
 10
0.0
 20
0.0
 30
0.0
  3
*X1111
  1

  4
*X11
  0
LINE
  5
163
330
160
100
AcDbEntity
  8
LC-003-005-----0
 62
     7
370
    25
100
AcDbLine
 10
381.340881
 20
436.494668
 30
0.0
 11
382.776393
 21
437.930178
 31
0.0
  0
LINE
  5
164
330
160
100
AcDbEntity
  8
LC-003-005-----0
 62
     7
370
    25
100
AcDbLine
 10
379.415066
 20
438.811493
 30
0.0
 11
380.768163
 21
440.164588
 31
0.0
  0
LINE
  5
165
330
160
100
AcDbEntity
  8
LC-003-005-----0
 62
     7
370
    25
100
AcDbLine
 10
375.172422
 20
438.811493
 30
0.0
 11
376.672428
 21
440.311496
 31
0.0
  0
LINE
  5
166
330
160
100
AcDbEntity
  8
LC-003-005-----0
 62
     7
370
    25
100
AcDbLine
 10
370.929779
 20
438.811493
 30
0.0
 11
372.429787
 21
440.311499
 31
0.0
  0
LINE
  5
167
330
160
100
AcDbEntity
  8
LC-003-005-----0
 62
     7
370
    25
100
AcDbLine
 10
366.687135
 20
438.811493
 30
0.0
 11
368.187147
 21
440.311502
 31
0.0
  0
LINE
  5
168
330
160
100
AcDbEntity
  8
LC-003-005-----0
 62
     7
370
    25
100
AcDbLine
 10
362.630881
 20
438.997882
 30
0.0
 11
363.944506
 21
440.311505
 31
0.0
  0
ENDBLK
  5
162
330
160
100
AcDbEntity
  8
0
100
AcDbBlockEnd
  0
BLOCK
  5
16B
330
16A
100
AcDbEntity
  8
0
100
AcDbBlockBegin
  2
*X1212
 70
     1
 71
     0
 10
0.0
 20
0.0
 30
0.0
  3
*X1212
  1

  4
*X12
  0
LINE
  5
16D
330
16A
100
AcDbEntity
  8
LC-003-005-----0
 62
     7
370
    25
100
AcDbLine
 10
397.340881
 20
435.524095
 30
0.0
 11
398.840881
 21
437.024093
 31
0.0
  0
LINE
  5
16E
330
16A
100
AcDbEntity
  8
LC-003-005-----0
 62
     7
370
    25
100
AcDbLine
 10
396.310297
 20
438.736149
 30
0.0
 11
397.430108
 21
439.855959
 31
0.0
  0
LINE
  5
16F
330
16A
100
AcDbEntity
  8
LC-003-005-----0
 62
     7
370
    25
100
AcDbLine
 10
390.847887
 20
437.516385
 30
0.0
 11
393.635985
 21
440.304479
 31
0.0
  0
ENDBLK
  5
16C
330
16A
100
AcDbEntity
  8
0
100
AcDbBlockEnd
  0
BLOCK
  5
172
330
171
100
AcDbEntity
  8
0
100
AcDbBlockBegin
  2
*X1313
 70
     1
 71
     0
 10
0.0
 20
0.0
 30
0.0
  3
*X1313
  1

  4
*X13
  0
LINE
  5
174
330
171
100
AcDbEntity
  8
LC-003-005-----0
 62
     7
370
    25
100
AcDbLine
 10
414.098841
 20
435.311481
 30
0.0
 11
414.840881
 21
436.05352
 31
0.0
  0
LINE
  5
175
330
171
100
AcDbEntity
  8
LC-003-005-----0
 62
     7
370
    25
100
AcDbLine
 10
412.909174
 20
438.364454
 30
0.0
 11
413.969845
 21
439.425123
 31
0.0
  0
LINE
  5
176
330
171
100
AcDbEntity
  8
LC-003-005-----0
 62
     7
370
    25
100
AcDbLine
 10
406.840881
 20
436.538807
 30
0.0
 11
410.613553
 21
440.311474
 31
0.0
  0
ENDBLK
  5
173
330
171
100
AcDbEntity
  8
0
100
AcDbBlockEnd
  0
BLOCK
  5
179
330
178
100
AcDbEntity
  8
0
100
AcDbBlockBegin
  2
*X1414
 70
     1
 71
     0
 10
0.0
 20
0.0
 30
0.0
  3
*X1414
  1

  4
*X14
  0
LINE
  5
17B
330
178
100
AcDbEntity
  8
LC-003-005-----0
 62
     7
370
    25
100
AcDbLine
 10
428.840881
 20
433.08295
 30
0.0
 11
430.340881
 21
434.582948
 31
0.0
  0
LINE
  5
17C
330
178
100
AcDbEntity
  8
LC-003-005-----0
 62
     7
370
    25
100
AcDbLine
 10
428.840816
 20
437.325522
 30
0.0
 11
430.070787
 21
438.555492
 31
0.0
  0
LINE
  5
17D
330
178
100
AcDbEntity
  8
LC-003-005-----0
 62
     7
370
    25
100
AcDbLine
 10
422.840881
 20
435.568234
 30
0.0
 11
424.340881
 21
437.068232
 31
0.0
  0
LINE
  5
17E
330
178
100
AcDbEntity
  8
LC-003-005-----0
 62
     7
370
    25
100
AcDbLine
 10
426.084133
 20
438.811481
 30
0.0
 11
427.574967
 21
440.302314
 31
0.0
  0
ENDBLK
  5
17A
330
178
100
AcDbEntity
  8
0
100
AcDbBlockEnd
  0
BLOCK
  5
19A
330
190
100
AcDbEntity
  8
0
100
AcDbBlockBegin
  2
*D15
 70
     1
 71
     0
 10
0.0
 20
0.0
 30
0.0
  3
*D15
  1

  0
LINE
  5
191
330
190
100
AcDbEntity
  8
LC-005-003-----0
 62
     2
370
    -2
100
AcDbLine
 10
288.920712
 20
440.311395
 30
0.0
 11
288.920712
 21
465.138
 31
0.0
  0
LINE
  5
192
330
190
100
AcDbEntity
  8
LC-005-003-----0
 62
     2
370
    -2
100
AcDbLine
 10
436.287795
 20
440.31146
 30
0.0
 11
436.287795
 21
465.138
 31
0.0
  0
LINE
  5
193
330
190
100
AcDbEntity
  8
LC-005-003-----0
 62
     2
370
    -2
100
AcDbLine
 10
316.920712
 20
461.538
 30
0.0
 11
408.287795
 21
461.538
 31
0.0
  0
SOLID
  5
194
330
190
100
AcDbEntity
  8
LC-005-003-----0
 62
     2
100
AcDbTrace
 10
316.920712
 20
466.204667
 30
0.0
 11
316.920712
 21
456.871333
 31
0.0
 12
288.920712
 22
461.538
 32
0.0
 13
288.920712
 23
461.538
 33
0.0
  0
SOLID
  5
195
330
190
100
AcDbEntity
  8
LC-005-003-----0
 62
     2
100
AcDbTrace
 10
408.287795
 20
456.871333
 30
0.0
 11
408.287795
 21
466.204667
 31
0.0
 12
436.287795
 22
461.538
 32
0.0
 13
436.287795
 23
461.538
 33
0.0
  0
MTEXT
  5
196
330
190
100
AcDbEntity
  8
LC-005-003-----0
 62
     2
100
AcDbMText
 10
388.973399
 20
492.338
 30
0.0
 40
28.0
 41
0.0
 71
     5
 72
     1
  1
\A1;150
  7
LCTX15-400-0-0pDIN-Schrift
 73
     1
 44
1.0
  0
POINT
  5
197
330
190
100
AcDbEntity
  8
Defpoints
 62
     0
100
AcDbPoint
 10
288.920712
 20
440.311395
 30
0.0
  0
POINT
  5
198
330
190
100
AcDbEntity
  8
Defpoints
 62
     0
100
AcDbPoint
 10
436.287795
 20
440.31146
 30
0.0
  0
POINT
  5
199
330
190
100
AcDbEntity
  8
Defpoints
 62
     0
100
AcDbPoint
 10
436.287795
 20
461.538
 30
0.0
  0
ENDBLK
  5
19B
330
190
100
AcDbEntity
  8
0
100
AcDbBlockEnd
  0
BLOCK
  5
1A8
330
19D
100
AcDbEntity
  8
0
100
AcDbBlockBegin
  2
*D16
 70
     1
 71
     0
 10
0.0
 20
0.0
 30
0.0
  3
*D16
  1

  0
LINE
  5
19E
330
19D
100
AcDbEntity
  8
LC-005-003-----0
 62
     2
370
    -2
100
AcDbLine
 10
371.749235
 20
236.566449
 30
0.0
 11
336.038253
 21
236.566449
 31
0.0
  0
LINE
  5
19F
330
19D
100
AcDbEntity
  8
LC-005-003-----0
 62
     2
370
    -2
100
AcDbLine
 10
395.140475
 20
297.069703
 30
0.0
 11
336.038253
 21
297.069703
 31
0.0
  0
LINE
  5
1A0
330
19D
100
AcDbEntity
  8
LC-005-003-----0
 62
     2
370
    -2
100
AcDbLine
 10
339.638253
 20
325.069703
 30
0.0
 11
339.638253
 21
353.069703
 31
0.0
  0
LINE
  5
1A1
330
19D
100
AcDbEntity
  8
LC-005-003-----0
 62
     2
370
    -2
100
AcDbLine
 10
339.638253
 20
208.566449
 30
0.0
 11
339.638253
 21
146.661808
 31
0.0
  0
SOLID
  5
1A2
330
19D
100
AcDbEntity
  8
LC-005-003-----0
 62
     2
100
AcDbTrace
 10
344.30492
 20
208.566449
 30
0.0
 11
334.971587
 21
208.566449
 31
0.0
 12
339.638253
 22
236.566449
 32
0.0
 13
339.638253
 23
236.566449
 33
0.0
  0
SOLID
  5
1A3
330
19D
100
AcDbEntity
  8
LC-005-003-----0
 62
     2
100
AcDbTrace
 10
334.971587
 20
325.069703
 30
0.0
 11
344.30492
 21
325.069703
 31
0.0
 12
339.638253
 22
297.069703
 32
0.0
 13
339.638253
 23
297.069703
 33
0.0
  0
MTEXT
  5
1A4
330
19D
100
AcDbEntity
  8
LC-005-003-----0
 62
     2
100
AcDbMText
 10
308.838253
 20
168.696
 30
0.0
 40
28.0
 41
0.0
 71
     5
 72
     1
  1
\A1;60
  7
LCTX15-400-0-0pDIN-Schrift
 11
6.123031769111886E-17
 21
1.0
 31
0.0
 73
     1
 44
1.0
  0
POINT
  5
1A5
330
19D
100
AcDbEntity
  8
Defpoints
 62
     0
100
AcDbPoint
 10
371.749235
 20
236.566449
 30
0.0
  0
POINT
  5
1A6
330
19D
100
AcDbEntity
  8
Defpoints
 62
     0
100
AcDbPoint
 10
395.140475
 20
297.069703
 30
0.0
  0
POINT
  5
1A7
330
19D
100
AcDbEntity
  8
Defpoints
 62
     0
100
AcDbPoint
 10
339.638253
 20
297.069703
 30
0.0
  0
ENDBLK
  5
1A9
330
19D
100
AcDbEntity
  8
0
100
AcDbBlockEnd
  0
BLOCK
  5
1EB
330
1EA
100
AcDbEntity
  8
0
100
AcDbBlockBegin
  2
*X1517
 70
     1
 71
     0
 10
0.0
 20
0.0
 30
0.0
  3
*X1517
  1

  4
*X15
  0
LINE
  5
1ED
330
1EA
100
AcDbEntity
  8
LC-003-005-----0
 62
     7
370
    25
100
AcDbLine
 10
361.319531
 20
217.069748
 30
0.0
 11
362.631221
 21
218.381438
 31
0.0
  0
LINE
  5
1EE
330
1EA
100
AcDbEntity
  8
LC-003-005-----0
 62
     7
370
    25
100
AcDbLine
 10
352.834261
 20
217.069759
 30
0.0
 11
355.334258
 21
219.569756
 31
0.0
  0
LINE
  5
1EF
330
1EA
100
AcDbEntity
  8
LC-003-005-----0
 62
     7
370
    25
100
AcDbLine
 10
344.34899
 20
217.06977
 30
0.0
 11
346.848988
 21
219.569767
 31
0.0
  0
LINE
  5
1F0
330
1EA
100
AcDbEntity
  8
LC-003-005-----0
 62
     7
370
    25
100
AcDbLine
 10
335.86372
 20
217.069781
 30
0.0
 11
338.363717
 21
219.569778
 31
0.0
  0
LINE
  5
1F1
330
1EA
100
AcDbEntity
  8
LC-003-005-----0
 62
     7
370
    25
100
AcDbLine
 10
327.37845
 20
217.069792
 30
0.0
 11
329.878447
 21
219.569789
 31
0.0
  0
LINE
  5
1F2
330
1EA
100
AcDbEntity
  8
LC-003-005-----0
 62
     7
370
    25
100
AcDbLine
 10
318.89318
 20
217.069803
 30
0.0
 11
321.393177
 21
219.5698
 31
0.0
  0
LINE
  5
1F3
330
1EA
100
AcDbEntity
  8
LC-003-005-----0
 62
     7
370
    25
100
AcDbLine
 10
310.409141
 20
217.071046
 30
0.0
 11
312.907906
 21
219.569811
 31
0.0
  0
LINE
  5
1F4
330
1EA
100
AcDbEntity
  8
LC-003-005-----0
 62
     7
370
    25
100
AcDbLine
 10
303.310558
 20
218.457744
 30
0.0
 11
305.265499
 21
220.412685
 31
0.0
  0
LINE
  5
1F5
330
1EA
100
AcDbEntity
  8
LC-003-005-----0
 62
     7
370
    25
100
AcDbLine
 10
297.961881
 20
221.594349
 30
0.0
 11
299.739677
 21
223.372145
 31
0.0
  0
LINE
  5
1F6
330
1EA
100
AcDbEntity
  8
LC-003-005-----0
 62
     7
370
    25
100
AcDbLine
 10
293.937465
 20
226.055214
 30
0.0
 11
295.747429
 21
227.865178
 31
0.0
  0
LINE
  5
1F7
330
1EA
100
AcDbEntity
  8
LC-003-005-----0
 62
     7
370
    25
100
AcDbLine
 10
291.30793
 20
231.91096
 30
0.0
 11
293.401654
 21
234.004685
 31
0.0
  0
LINE
  5
1F8
330
1EA
100
AcDbEntity
  8
LC-003-005-----0
 62
     7
370
    25
100
AcDbLine
 10
290.631138
 20
239.719449
 30
0.0
 11
293.130626
 21
242.218938
 31
0.0
  0
LINE
  5
1F9
330
1EA
100
AcDbEntity
  8
LC-003-005-----0
 62
     7
370
    25
100
AcDbLine
 10
290.631148
 20
248.204741
 30
0.0
 11
293.129788
 21
250.703381
 31
0.0
  0
LINE
  5
1FA
330
1EA
100
AcDbEntity
  8
LC-003-005-----0
 62
     7
370
    25
100
AcDbLine
 10
290.631158
 20
256.690032
 30
0.0
 11
293.12895
 21
259.187824
 31
0.0
  0
LINE
  5
1FB
330
1EA
100
AcDbEntity
  8
LC-003-005-----0
 62
     7
370
    25
100
AcDbLine
 10
290.631168
 20
265.175323
 30
0.0
 11
293.128112
 21
267.672267
 31
0.0
  0
LINE
  5
1FC
330
1EA
100
AcDbEntity
  8
LC-003-005-----0
 62
     7
370
    25
100
AcDbLine
 10
290.631178
 20
273.660615
 30
0.0
 11
293.127274
 21
276.156711
 31
0.0
  0
LINE
  5
1FD
330
1EA
100
AcDbEntity
  8
LC-003-005-----0
 62
     7
370
    25
100
AcDbLine
 10
290.631188
 20
282.145906
 30
0.0
 11
293.126435
 21
284.641154
 31
0.0
  0
LINE
  5
1FE
330
1EA
100
AcDbEntity
  8
LC-003-005-----0
 62
     7
370
    25
100
AcDbLine
 10
290.631198
 20
290.631198
 30
0.0
 11
293.125597
 21
293.125597
 31
0.0
  0
LINE
  5
1FF
330
1EA
100
AcDbEntity
  8
LC-003-005-----0
 62
     7
370
    25
100
AcDbLine
 10
290.631208
 20
299.116489
 30
0.0
 11
293.124759
 21
301.610041
 31
0.0
  0
LINE
  5
200
330
1EA
100
AcDbEntity
  8
LC-003-005-----0
 62
     7
370
    25
100
AcDbLine
 10
290.631218
 20
307.60178
 30
0.0
 11
293.123921
 21
310.094484
 31
0.0
  0
LINE
  5
201
330
1EA
100
AcDbEntity
  8
LC-003-005-----0
 62
     7
370
    25
100
AcDbLine
 10
290.631228
 20
316.087072
 30
0.0
 11
293.123083
 21
318.578927
 31
0.0
  0
LINE
  5
202
330
1EA
100
AcDbEntity
  8
LC-003-005-----0
 62
     7
370
    25
100
AcDbLine
 10
290.631238
 20
324.572363
 30
0.0
 11
293.122245
 21
327.063371
 31
0.0
  0
LINE
  5
203
330
1EA
100
AcDbEntity
  8
LC-003-005-----0
 62
     7
370
    25
100
AcDbLine
 10
290.140601
 20
332.567007
 30
0.0
 11
292.693941
 21
335.120348
 31
0.0
  0
LINE
  5
204
330
1EA
100
AcDbEntity
  8
LC-003-005-----0
 62
     7
370
    25
100
AcDbLine
 10
281.656126
 20
332.567814
 30
0.0
 11
285.57803
 21
336.489718
 31
0.0
  0
LINE
  5
205
330
1EA
100
AcDbEntity
  8
LC-003-005-----0
 62
     7
370
    25
100
AcDbLine
 10
277.695959
 20
337.092929
 30
0.0
 11
284.869392
 21
344.266362
 31
0.0
  0
LINE
  5
206
330
1EA
100
AcDbEntity
  8
LC-003-005-----0
 62
     7
370
    25
100
AcDbLine
 10
275.000776
 20
342.883027
 30
0.0
 11
277.231661
 21
345.113912
 31
0.0
  0
LINE
  5
207
330
1EA
100
AcDbEntity
  8
LC-003-005-----0
 62
     7
370
    25
100
AcDbLine
 10
273.426483
 20
349.794015
 30
0.0
 11
275.741705
 21
352.109237
 31
0.0
  0
LINE
  5
208
330
1EA
100
AcDbEntity
  8
LC-003-005-----0
 62
     7
370
    25
100
AcDbLine
 10
269.585493
 20
354.438306
 30
0.0
 11
271.482413
 21
356.335226
 31
0.0
  0
LINE
  5
209
330
1EA
100
AcDbEntity
  8
LC-003-005-----0
 62
     7
370
    25
100
AcDbLine
 10
274.023762
 20
358.876576
 30
0.0
 11
275.741705
 21
360.594519
 31
0.0
  0
LINE
  5
20A
330
1EA
100
AcDbEntity
  8
LC-003-005-----0
 62
     7
370
    25
100
AcDbLine
 10
268.299885
 20
361.63798
 30
0.0
 11
270.88238
 21
364.220475
 31
0.0
  0
LINE
  5
20B
330
1EA
100
AcDbEntity
  8
LC-003-005-----0
 62
     7
370
    25
100
AcDbLine
 10
260.788353
 20
362.61173
 30
0.0
 11
263.61733
 21
365.440707
 31
0.0
  0
LINE
  5
20C
330
1EA
100
AcDbEntity
  8
LC-003-005-----0
 62
     7
370
    25
100
AcDbLine
 10
252.857641
 20
363.166299
 30
0.0
 11
256.117479
 21
366.426137
 31
0.0
  0
LINE
  5
20D
330
1EA
100
AcDbEntity
  8
LC-003-005-----0
 62
     7
370
    25
100
AcDbLine
 10
246.376227
 20
365.170166
 30
0.0
 11
249.641179
 21
368.435118
 31
0.0
  0
LINE
  5
20E
330
1EA
100
AcDbEntity
  8
LC-003-005-----0
 62
     7
370
    25
100
AcDbLine
 10
238.901511
 20
366.180731
 30
0.0
 11
241.710467
 21
368.989687
 31
0.0
  0
LINE
  5
20F
330
1EA
100
AcDbEntity
  8
LC-003-005-----0
 62
     7
370
    25
100
AcDbLine
 10
230.970798
 20
366.7353
 30
0.0
 11
233.779754
 21
369.544256
 31
0.0
  0
LINE
  5
210
330
1EA
100
AcDbEntity
  8
LC-003-005-----0
 62
     7
370
    25
100
AcDbLine
 10
223.040086
 20
367.289869
 30
0.0
 11
225.849042
 21
370.098825
 31
0.0
  0
LINE
  5
211
330
1EA
100
AcDbEntity
  8
LC-003-005-----0
 62
     7
370
    25
100
AcDbLine
 10
215.109374
 20
367.844438
 30
0.0
 11
217.91833
 21
370.653394
 31
0.0
  0
ENDBLK
  5
1EC
330
1EA
100
AcDbEntity
  8
0
100
AcDbBlockEnd
  0
BLOCK
  5
21E
330
214
100
AcDbEntity
  8
0
100
AcDbBlockBegin
  2
*D18
 70
     1
 71
     0
 10
0.0
 20
0.0
 30
0.0
  3
*D18
  1

  0
LINE
  5
215
330
214
100
AcDbEntity
  8
LC-005-003-----0
 62
     2
370
    -2
100
AcDbLine
 10
211.966279
 20
368.064225
 30
0.0
 11
193.373579
 21
368.064225
 31
0.0
  0
LINE
  5
216
330
214
100
AcDbEntity
  8
LC-005-003-----0
 62
     2
370
    -2
100
AcDbLine
 10
310.631108
 20
217.069814
 30
0.0
 11
193.373579
 21
217.069814
 31
0.0
  0
LINE
  5
217
330
214
100
AcDbEntity
  8
LC-005-003-----0
 62
     2
370
    -2
100
AcDbLine
 10
196.973579
 20
340.064225
 30
0.0
 11
196.973579
 21
245.069814
 31
0.0
  0
SOLID
  5
218
330
214
100
AcDbEntity
  8
LC-005-003-----0
 62
     2
100
AcDbTrace
 10
201.640246
 20
340.064225
 30
0.0
 11
192.306912
 21
340.064225
 31
0.0
 12
196.973579
 22
368.064225
 32
0.0
 13
196.973579
 23
368.064225
 33
0.0
  0
SOLID
  5
219
330
214
100
AcDbEntity
  8
LC-005-003-----0
 62
     2
100
AcDbTrace
 10
192.306912
 20
245.069814
 30
0.0
 11
201.640246
 21
245.069814
 31
0.0
 12
196.973579
 22
217.069814
 32
0.0
 13
196.973579
 23
217.069814
 33
0.0
  0
MTEXT
  5
21A
330
214
100
AcDbEntity
  8
LC-005-003-----0
 62
     2
100
AcDbMText
 10
166.173579
 20
269.676
 30
0.0
 40
28.0
 41
0.0
 71
     5
 72
     1
  1
\A1;150
  7
LCTX15-400-0-0pDIN-Schrift
 11
6.123031769111886E-17
 21
1.0
 31
0.0
 73
     1
 44
1.0
  0
POINT
  5
21B
330
214
100
AcDbEntity
  8
Defpoints
 62
     0
100
AcDbPoint
 10
211.966279
 20
368.064225
 30
0.0
  0
POINT
  5
21C
330
214
100
AcDbEntity
  8
Defpoints
 62
     0
100
AcDbPoint
 10
310.631108
 20
217.069814
 30
0.0
  0
POINT
  5
21D
330
214
100
AcDbEntity
  8
Defpoints
 62
     0
100
AcDbPoint
 10
196.973579
 20
217.069814
 30
0.0
  0
ENDBLK
  5
21F
330
214
100
AcDbEntity
  8
0
100
AcDbBlockEnd
  0
BLOCK
  5
222
330
221
100
AcDbEntity
  8
0
100
AcDbBlockBegin
  2
*X1619
 70
     1
 71
     0
 10
0.0
 20
0.0
 30
0.0
  3
*X1619
  1

  4
*X16
  0
LINE
  5
224
330
221
100
AcDbEntity
  8
LC-003-005-----0
 62
     7
370
    25
100
AcDbLine
 10
292.246915
 20
351.643884
 30
0.0
 11
294.475137
 21
353.872107
 31
0.0
  0
LINE
  5
225
330
221
100
AcDbEntity
  8
LC-003-005-----0
 62
     7
370
    25
100
AcDbLine
 10
292.246915
 20
360.129165
 30
0.0
 11
294.475114
 21
362.357365
 31
0.0
  0
LINE
  5
226
330
221
100
AcDbEntity
  8
LC-003-005-----0
 62
     7
370
    25
100
AcDbLine
 10
292.246895
 20
368.614428
 30
0.0
 11
294.47509
 21
370.842622
 31
0.0
  0
LINE
  5
227
330
221
100
AcDbEntity
  8
LC-003-005-----0
 62
     7
370
    25
100
AcDbLine
 10
292.246871
 20
377.099685
 30
0.0
 11
294.475066
 21
379.32788
 31
0.0
  0
LINE
  5
228
330
221
100
AcDbEntity
  8
LC-003-005-----0
 62
     7
370
    25
100
AcDbLine
 10
292.246847
 20
385.584942
 30
0.0
 11
294.475042
 21
387.813137
 31
0.0
  0
LINE
  5
229
330
221
100
AcDbEntity
  8
LC-003-005-----0
 62
     7
370
    25
100
AcDbLine
 10
292.246823
 20
394.0702
 30
0.0
 11
294.475018
 21
396.298395
 31
0.0
  0
LINE
  5
22A
330
221
100
AcDbEntity
  8
LC-003-005-----0
 62
     7
370
    25
100
AcDbLine
 10
292.246799
 20
402.555457
 30
0.0
 11
294.474994
 21
404.783652
 31
0.0
  0
LINE
  5
22B
330
221
100
AcDbEntity
  8
LC-003-005-----0
 62
     7
370
    25
100
AcDbLine
 10
292.246775
 20
411.040714
 30
0.0
 11
294.445695
 21
413.239634
 31
0.0
  0
LINE
  5
22C
330
221
100
AcDbEntity
  8
LC-003-005-----0
 62
     7
370
    25
100
AcDbLine
 10
292.246751
 20
419.525972
 30
0.0
 11
294.420712
 21
421.699932
 31
0.0
  0
LINE
  5
22D
330
221
100
AcDbEntity
  8
LC-003-005-----0
 62
     7
370
    25
100
AcDbLine
 10
288.920712
 20
424.685214
 30
0.0
 11
294.420712
 21
430.185214
 31
0.0
  0
LINE
  5
22E
330
221
100
AcDbEntity
  8
LC-003-005-----0
 62
     7
370
    25
100
AcDbLine
 10
288.920712
 20
433.170495
 30
0.0
 11
294.420712
 21
438.670495
 31
0.0
  0
ENDBLK
  5
223
330
221
100
AcDbEntity
  8
0
100
AcDbBlockEnd
  0
BLOCK
  5
231
330
230
100
AcDbEntity
  8
0
100
AcDbBlockBegin
  2
*X1720
 70
     1
 71
     0
 10
0.0
 20
0.0
 30
0.0
  3
*X1720
  1

  4
*X17
  0
LINE
  5
233
330
230
100
AcDbEntity
  8
LC-003-005-----0
 62
     7
370
    25
100
AcDbLine
 10
430.774511
 20
354.406979
 30
0.0
 11
433.003078
 21
356.635546
 31
0.0
  0
LINE
  5
234
330
230
100
AcDbEntity
  8
LC-003-005-----0
 62
     7
370
    25
100
AcDbLine
 10
430.775852
 20
362.893601
 30
0.0
 11
433.004404
 21
365.122153
 31
0.0
  0
LINE
  5
235
330
230
100
AcDbEntity
  8
LC-003-005-----0
 62
     7
370
    25
100
AcDbLine
 10
430.777192
 20
371.380223
 30
0.0
 11
433.005745
 21
373.608775
 31
0.0
  0
LINE
  5
236
330
230
100
AcDbEntity
  8
LC-003-005-----0
 62
     7
370
    25
100
AcDbLine
 10
430.778533
 20
379.866845
 30
0.0
 11
433.007086
 21
382.095398
 31
0.0
  0
LINE
  5
237
330
230
100
AcDbEntity
  8
LC-003-005-----0
 62
     7
370
    25
100
AcDbLine
 10
430.779873
 20
388.353466
 30
0.0
 11
433.008427
 21
390.58202
 31
0.0
  0
LINE
  5
238
330
230
100
AcDbEntity
  8
LC-003-005-----0
 62
     7
370
    25
100
AcDbLine
 10
430.781214
 20
396.840088
 30
0.0
 11
433.009767
 21
399.068642
 31
0.0
  0
LINE
  5
239
330
230
100
AcDbEntity
  8
LC-003-005-----0
 62
     7
370
    25
100
AcDbLine
 10
430.782555
 20
405.32671
 30
0.0
 11
433.011108
 21
407.555264
 31
0.0
  0
LINE
  5
23A
330
230
100
AcDbEntity
  8
LC-003-005-----0
 62
     7
370
    25
100
AcDbLine
 10
430.820664
 20
413.850101
 30
0.0
 11
433.012449
 21
416.041886
 31
0.0
  0
LINE
  5
23B
330
230
100
AcDbEntity
  8
LC-003-005-----0
 62
     7
370
    25
100
AcDbLine
 10
430.839478
 20
422.354196
 30
0.0
 11
436.340331
 21
427.85505
 31
0.0
  0
LINE
  5
23C
330
230
100
AcDbEntity
  8
LC-003-005-----0
 62
     7
370
    25
100
AcDbLine
 10
430.840795
 20
430.840795
 30
0.0
 11
436.341648
 21
436.341648
 31
0.0
  0
LINE
  5
23D
330
230
100
AcDbEntity
  8
LC-003-005-----0
 62
     7
370
    25
100
AcDbLine
 10
430.842111
 20
439.327393
 30
0.0
 11
431.815379
 21
440.300661
 31
0.0
  0
ENDBLK
  5
232
330
230
100
AcDbEntity
  8
0
100
AcDbBlockEnd
  0
BLOCK
  5
24D
330
24C
100
AcDbEntity
  8
0
100
AcDbBlockBegin
  2
*X1821
 70
     1
 71
     0
 10
0.0
 20
0.0
 30
0.0
  3
*X1821
  1

  4
*X18
  0
LINE
  5
24F
330
24C
100
AcDbEntity
  8
LC-003-005-----0
 62
     7
370
    25
100
AcDbLine
 10
433.379525
 20
347.266362
 30
0.0
 11
436.379525
 21
344.266362
 31
0.0
  0
LINE
  5
250
330
24C
100
AcDbEntity
  8
LC-003-005-----0
 62
     7
370
    25
100
AcDbLine
 10
438.641556
 20
350.489612
 30
0.0
 11
441.641556
 21
347.489612
 31
0.0
  0
LINE
  5
251
330
24C
100
AcDbEntity
  8
LC-003-005-----0
 62
     7
370
    25
100
AcDbLine
 10
438.641556
 20
358.974894
 30
0.0
 11
441.641556
 21
355.974894
 31
0.0
  0
LINE
  5
252
330
24C
100
AcDbEntity
  8
LC-003-005-----0
 62
     7
370
    25
100
AcDbLine
 10
442.082595
 20
364.019136
 30
0.0
 11
444.417052
 21
361.684679
 31
0.0
  0
LINE
  5
253
330
24C
100
AcDbEntity
  8
LC-003-005-----0
 62
     7
370
    25
100
AcDbLine
 10
449.99303
 20
364.593982
 30
0.0
 11
454.379723
 21
360.207289
 31
0.0
  0
ENDBLK
  5
24E
330
24C
100
AcDbEntity
  8
0
100
AcDbBlockEnd
  0
BLOCK
  5
262
330
261
100
AcDbEntity
  8
0
100
AcDbBlockBegin
  2
*X1922
 70
     1
 71
     0
 10
0.0
 20
0.0
 30
0.0
  3
*X1922
  1

  4
*X19
  0
LINE
  5
264
330
261
100
AcDbEntity
  8
LC-003-005-----0
 62
     7
370
    25
100
AcDbLine
 10
270.926338
 20
356.984484
 30
0.0
 11
271.63039
 21
356.280432
 31
0.0
  0
LINE
  5
265
330
261
100
AcDbEntity
  8
LC-003-005-----0
 62
     7
370
    25
100
AcDbLine
 10
271.522843
 20
364.87326
 30
0.0
 11
274.333344
 21
362.062759
 31
0.0
  0
LINE
  5
266
330
261
100
AcDbEntity
  8
LC-003-005-----0
 62
     7
370
    25
100
AcDbLine
 10
283.613891
 20
352.782212
 30
0.0
 11
286.613646
 21
349.782457
 31
0.0
  0
LINE
  5
267
330
261
100
AcDbEntity
  8
LC-003-005-----0
 62
     7
370
    25
100
AcDbLine
 10
289.123728
 20
347.272375
 30
0.0
 11
292.123973
 21
344.27213
 31
0.0
  0
LINE
  5
268
330
261
100
AcDbEntity
  8
LC-003-005-----0
 62
     7
370
    25
100
AcDbLine
 10
280.673877
 20
364.207508
 30
0.0
 11
286.61434
 21
358.267045
 31
0.0
  0
ENDBLK
  5
263
330
261
100
AcDbEntity
  8
0
100
AcDbBlockEnd
  0
BLOCK
  5
27C
330
272
100
AcDbEntity
  8
0
100
AcDbBlockBegin
  2
*D23
 70
     1
 71
     0
 10
0.0
 20
0.0
 30
0.0
  3
*D23
  1

  0
LINE
  5
273
330
272
100
AcDbEntity
  8
LC-005-003-----0
 62
     2
370
    -2
100
AcDbLine
 10
513.295824
 20
368.064225
 30
0.0
 11
581.614671
 21
368.064225
 31
0.0
  0
LINE
  5
274
330
272
100
AcDbEntity
  8
LC-005-003-----0
 62
     2
370
    -2
100
AcDbLine
 10
515.039307
 20
290.08941
 30
0.0
 11
581.614671
 21
290.08941
 31
0.0
  0
LINE
  5
275
330
272
100
AcDbEntity
  8
LC-005-003-----0
 62
     2
370
    -2
100
AcDbLine
 10
578.014671
 20
340.064225
 30
0.0
 11
578.014671
 21
318.08941
 31
0.0
  0
SOLID
  5
276
330
272
100
AcDbEntity
  8
LC-005-003-----0
 62
     2
100
AcDbTrace
 10
582.681337
 20
340.064225
 30
0.0
 11
573.348004
 21
340.064225
 31
0.0
 12
578.014671
 22
368.064225
 32
0.0
 13
578.014671
 23
368.064225
 33
0.0
  0
SOLID
  5
277
330
272
100
AcDbEntity
  8
LC-005-003-----0
 62
     2
100
AcDbTrace
 10
573.348004
 20
318.08941
 30
0.0
 11
582.681337
 21
318.08941
 31
0.0
 12
578.014671
 22
290.08941
 32
0.0
 13
578.014671
 23
290.08941
 33
0.0
  0
MTEXT
  5
278
330
272
100
AcDbEntity
  8
LC-005-003-----0
 62
     2
100
AcDbMText
 10
547.214671
 20
322.542
 30
0.0
 40
28.0
 41
0.0
 71
     5
 72
     1
  1
\A1;80
  7
LCTX15-400-0-0pDIN-Schrift
 11
6.123031769111886E-17
 21
1.0
 31
0.0
 73
     1
 44
1.0
  0
POINT
  5
279
330
272
100
AcDbEntity
  8
Defpoints
 62
     0
100
AcDbPoint
 10
513.295824
 20
368.064225
 30
0.0
  0
POINT
  5
27A
330
272
100
AcDbEntity
  8
Defpoints
 62
     0
100
AcDbPoint
 10
515.039307
 20
290.08941
 30
0.0
  0
POINT
  5
27B
330
272
100
AcDbEntity
  8
Defpoints
 62
     0
100
AcDbPoint
 10
578.014671
 20
290.08941
 30
0.0
  0
ENDBLK
  5
27D
330
272
100
AcDbEntity
  8
0
100
AcDbBlockEnd
  0
BLOCK
  5
289
330
27F
100
AcDbEntity
  8
0
100
AcDbBlockBegin
  2
*D24
 70
     1
 71
     0
 10
0.0
 20
0.0
 30
0.0
  3
*D24
  1

  0
LINE
  5
280
330
27F
100
AcDbEntity
  8
LC-005-003-----0
 62
     2
370
    -2
100
AcDbLine
 10
211.966279
 20
371.069602
 30
0.0
 11
211.966279
 21
523.6
 31
0.0
  0
LINE
  5
281
330
27F
100
AcDbEntity
  8
LC-005-003-----0
 62
     2
370
    -2
100
AcDbLine
 10
513.295824
 20
476.223234
 30
0.0
 11
513.295824
 21
523.6
 31
0.0
  0
LINE
  5
282
330
27F
100
AcDbEntity
  8
LC-005-003-----0
 62
     2
370
    -2
100
AcDbLine
 10
239.966279
 20
520.0
 30
0.0
 11
485.295824
 21
520.0
 31
0.0
  0
SOLID
  5
283
330
27F
100
AcDbEntity
  8
LC-005-003-----0
 62
     2
100
AcDbTrace
 10
239.966279
 20
524.666667
 30
0.0
 11
239.966279
 21
515.333333
 31
0.0
 12
211.966279
 22
520.0
 32
0.0
 13
211.966279
 23
520.0
 33
0.0
  0
SOLID
  5
284
330
27F
100
AcDbEntity
  8
LC-005-003-----0
 62
     2
100
AcDbTrace
 10
485.295824
 20
515.333333
 30
0.0
 11
485.295824
 21
524.666667
 31
0.0
 12
513.295824
 22
520.0
 32
0.0
 13
513.295824
 23
520.0
 33
0.0
  0
MTEXT
  5
285
330
27F
100
AcDbEntity
  8
LC-005-003-----0
 62
     2
100
AcDbMText
 10
362.631051
 20
550.8
 30
0.0
 40
28.0
 41
0.0
 71
     5
 72
     1
  1
\A1;%%c300
  7
LCTX15-400-0-0pDIN-Schrift
 73
     1
 44
1.0
  0
POINT
  5
286
330
27F
100
AcDbEntity
  8
Defpoints
 62
     0
100
AcDbPoint
 10
211.966279
 20
371.069602
 30
0.0
  0
POINT
  5
287
330
27F
100
AcDbEntity
  8
Defpoints
 62
     0
100
AcDbPoint
 10
513.295824
 20
476.223234
 30
0.0
  0
POINT
  5
288
330
27F
100
AcDbEntity
  8
Defpoints
 62
     0
100
AcDbPoint
 10
513.295824
 20
520.0
 30
0.0
  0
ENDBLK
  5
28A
330
27F
100
AcDbEntity
  8
0
100
AcDbBlockEnd
  0
BLOCK
  5
296
330
28C
100
AcDbEntity
  8
0
100
AcDbBlockBegin
  2
*D25
 70
     1
 71
     0
 10
0.0
 20
0.0
 30
0.0
  3
*D25
  1

  0
LINE
  5
28D
330
28C
100
AcDbEntity
  8
LC-005-003-----0
 62
     2
370
    -2
100
AcDbLine
 10
513.295824
 20
371.069602
 30
0.0
 11
529.976918
 21
371.069602
 31
0.0
  0
LINE
  5
28E
330
28C
100
AcDbEntity
  8
LC-005-003-----0
 62
     2
370
    -2
100
AcDbLine
 10
519.739794
 20
440.31146
 30
0.0
 11
529.976918
 21
440.31146
 31
0.0
  0
LINE
  5
28F
330
28C
100
AcDbEntity
  8
LC-005-003-----0
 62
     2
370
    -2
100
AcDbLine
 10
526.376918
 20
399.069602
 30
0.0
 11
526.376918
 21
412.31146
 31
0.0
  0
SOLID
  5
290
330
28C
100
AcDbEntity
  8
LC-005-003-----0
 62
     2
100
AcDbTrace
 10
521.710251
 20
399.069602
 30
0.0
 11
531.043585
 21
399.069602
 31
0.0
 12
526.376918
 22
371.069602
 32
0.0
 13
526.376918
 23
371.069602
 33
0.0
  0
SOLID
  5
291
330
28C
100
AcDbEntity
  8
LC-005-003-----0
 62
     2
100
AcDbTrace
 10
531.043585
 20
412.31146
 30
0.0
 11
521.710251
 21
412.31146
 31
0.0
 12
526.376918
 22
440.31146
 32
0.0
 13
526.376918
 23
440.31146
 33
0.0
  0
MTEXT
  5
292
330
28C
100
AcDbEntity
  8
LC-005-003-----0
 62
     2
100
AcDbMText
 10
495.576918
 20
414.018
 30
0.0
 40
28.0
 41
0.0
 71
     5
 72
     1
  1
\A1;20-70
  7
LCTX15-400-0-0pDIN-Schrift
 11
6.123031769111886E-17
 21
1.0
 31
0.0
 73
     1
 44
1.0
  0
POINT
  5
293
330
28C
100
AcDbEntity
  8
Defpoints
 62
     0
100
AcDbPoint
 10
513.295824
 20
371.069602
 30
0.0
  0
POINT
  5
294
330
28C
100
AcDbEntity
  8
Defpoints
 62
     0
100
AcDbPoint
 10
519.739794
 20
440.31146
 30
0.0
  0
POINT
  5
295
330
28C
100
AcDbEntity
  8
Defpoints
 62
     0
100
AcDbPoint
 10
526.376918
 20
440.31146
 30
0.0
  0
ENDBLK
  5
297
330
28C
100
AcDbEntity
  8
0
100
AcDbBlockEnd
  0
BLOCK
  5
2C6
330
2C5
100
AcDbEntity
  8
0
100
AcDbBlockBegin
  2
*X2026
 70
     1
 71
     0
 10
0.0
 20
0.0
 30
0.0
  3
*X2026
  1

  4
*X20
  0
LINE
  5
2C8
330
2C5
100
AcDbEntity
  8
LC-003-005-----0
 62
     7
370
    25
100
AcDbLine
 10
533.326413
 20
336.414928
 30
0.0
 11
530.988908
 21
338.752433
 31
0.0
  0
LINE
  5
2C9
330
2C5
100
AcDbEntity
  8
LC-003-005-----0
 62
     7
370
    25
100
AcDbLine
 10
529.790879
 20
336.414928
 30
0.0
 11
527.090879
 21
339.114928
 31
0.0
  0
LINE
  5
2CA
330
2C5
100
AcDbEntity
  8
LC-003-005-----0
 62
     7
370
    25
100
AcDbLine
 10
526.255345
 20
336.414928
 30
0.0
 11
523.555345
 21
339.114928
 31
0.0
  0
LINE
  5
2CB
330
2C5
100
AcDbEntity
  8
LC-003-005-----0
 62
     7
370
    25
100
AcDbLine
 10
522.719811
 20
336.414928
 30
0.0
 11
520.019811
 21
339.114928
 31
0.0
  0
LINE
  5
2CC
330
2C5
100
AcDbEntity
  8
LC-003-005-----0
 62
     7
370
    25
100
AcDbLine
 10
519.184277
 20
336.414928
 30
0.0
 11
516.484277
 21
339.114928
 31
0.0
  0
LINE
  5
2CD
330
2C5
100
AcDbEntity
  8
LC-003-005-----0
 62
     7
370
    25
100
AcDbLine
 10
515.648743
 20
336.414928
 30
0.0
 11
512.948743
 21
339.114928
 31
0.0
  0
LINE
  5
2CE
330
2C5
100
AcDbEntity
  8
LC-003-005-----0
 62
     7
370
    25
100
AcDbLine
 10
512.113209
 20
336.414928
 30
0.0
 11
509.413209
 21
339.114928
 31
0.0
  0
LINE
  5
2CF
330
2C5
100
AcDbEntity
  8
LC-003-005-----0
 62
     7
370
    25
100
AcDbLine
 10
508.577675
 20
336.414928
 30
0.0
 11
505.877675
 21
339.114928
 31
0.0
  0
LINE
  5
2D0
330
2C5
100
AcDbEntity
  8
LC-003-005-----0
 62
     7
370
    25
100
AcDbLine
 10
505.042141
 20
336.414928
 30
0.0
 11
502.342141
 21
339.114928
 31
0.0
  0
LINE
  5
2D1
330
2C5
100
AcDbEntity
  8
LC-003-005-----0
 62
     7
370
    25
100
AcDbLine
 10
501.506607
 20
336.414928
 30
0.0
 11
498.806607
 21
339.114928
 31
0.0
  0
LINE
  5
2D2
330
2C5
100
AcDbEntity
  8
LC-003-005-----0
 62
     7
370
    25
100
AcDbLine
 10
497.971074
 20
336.414928
 30
0.0
 11
495.271074
 21
339.114928
 31
0.0
  0
LINE
  5
2D3
330
2C5
100
AcDbEntity
  8
LC-003-005-----0
 62
     7
370
    25
100
AcDbLine
 10
494.43554
 20
336.414928
 30
0.0
 11
491.73554
 21
339.114928
 31
0.0
  0
LINE
  5
2D4
330
2C5
100
AcDbEntity
  8
LC-003-005-----0
 62
     7
370
    25
100
AcDbLine
 10
500.136057
 20
327.178877
 30
0.0
 11
497.500006
 21
329.814928
 31
0.0
  0
LINE
  5
2D5
330
2C5
100
AcDbEntity
  8
LC-003-005-----0
 62
     7
370
    25
100
AcDbLine
 10
490.900006
 20
336.414928
 30
0.0
 11
488.200006
 21
339.114928
 31
0.0
  0
LINE
  5
2D6
330
2C5
100
AcDbEntity
  8
LC-003-005-----0
 62
     7
370
    25
100
AcDbLine
 10
495.964472
 20
327.814928
 30
0.0
 11
493.964472
 21
329.814928
 31
0.0
  0
LINE
  5
2D7
330
2C5
100
AcDbEntity
  8
LC-003-005-----0
 62
     7
370
    25
100
AcDbLine
 10
487.364472
 20
336.414928
 30
0.0
 11
484.664472
 21
339.114928
 31
0.0
  0
LINE
  5
2D8
330
2C5
100
AcDbEntity
  8
LC-003-005-----0
 62
     7
370
    25
100
AcDbLine
 10
492.428938
 20
327.814928
 30
0.0
 11
490.428938
 21
329.814928
 31
0.0
  0
LINE
  5
2D9
330
2C5
100
AcDbEntity
  8
LC-003-005-----0
 62
     7
370
    25
100
AcDbLine
 10
483.828938
 20
336.414928
 30
0.0
 11
481.128938
 21
339.114928
 31
0.0
  0
LINE
  5
2DA
330
2C5
100
AcDbEntity
  8
LC-003-005-----0
 62
     7
370
    25
100
AcDbLine
 10
488.893404
 20
327.814928
 30
0.0
 11
486.893404
 21
329.814928
 31
0.0
  0
LINE
  5
2DB
330
2C5
100
AcDbEntity
  8
LC-003-005-----0
 62
     7
370
    25
100
AcDbLine
 10
480.293404
 20
336.414928
 30
0.0
 11
477.593404
 21
339.114928
 31
0.0
  0
LINE
  5
2DC
330
2C5
100
AcDbEntity
  8
LC-003-005-----0
 62
     7
370
    25
100
AcDbLine
 10
485.35787
 20
327.814928
 30
0.0
 11
483.35787
 21
329.814928
 31
0.0
  0
LINE
  5
2DD
330
2C5
100
AcDbEntity
  8
LC-003-005-----0
 62
     7
370
    25
100
AcDbLine
 10
476.75787
 20
336.414928
 30
0.0
 11
474.05787
 21
339.114928
 31
0.0
  0
LINE
  5
2DE
330
2C5
100
AcDbEntity
  8
LC-003-005-----0
 62
     7
370
    25
100
AcDbLine
 10
481.822336
 20
327.814928
 30
0.0
 11
479.822336
 21
329.814928
 31
0.0
  0
LINE
  5
2DF
330
2C5
100
AcDbEntity
  8
LC-003-005-----0
 62
     7
370
    25
100
AcDbLine
 10
473.222336
 20
336.414928
 30
0.0
 11
470.522336
 21
339.114928
 31
0.0
  0
LINE
  5
2E0
330
2C5
100
AcDbEntity
  8
LC-003-005-----0
 62
     7
370
    25
100
AcDbLine
 10
478.286802
 20
327.814928
 30
0.0
 11
476.286802
 21
329.814928
 31
0.0
  0
LINE
  5
2E1
330
2C5
100
AcDbEntity
  8
LC-003-005-----0
 62
     7
370
    25
100
AcDbLine
 10
469.686802
 20
336.414928
 30
0.0
 11
466.986802
 21
339.114928
 31
0.0
  0
LINE
  5
2E2
330
2C5
100
AcDbEntity
  8
LC-003-005-----0
 62
     7
370
    25
100
AcDbLine
 10
474.751268
 20
327.814928
 30
0.0
 11
472.751268
 21
329.814928
 31
0.0
  0
LINE
  5
2E3
330
2C5
100
AcDbEntity
  8
LC-003-005-----0
 62
     7
370
    25
100
AcDbLine
 10
466.151268
 20
336.414928
 30
0.0
 11
463.451268
 21
339.114928
 31
0.0
  0
LINE
  5
2E4
330
2C5
100
AcDbEntity
  8
LC-003-005-----0
 62
     7
370
    25
100
AcDbLine
 10
471.215735
 20
327.814928
 30
0.0
 11
469.215735
 21
329.814928
 31
0.0
  0
LINE
  5
2E5
330
2C5
100
AcDbEntity
  8
LC-003-005-----0
 62
     7
370
    25
100
AcDbLine
 10
463.136057
 20
335.894606
 30
0.0
 11
460.470972
 21
338.559691
 31
0.0
  0
LINE
  5
2E6
330
2C5
100
AcDbEntity
  8
LC-003-005-----0
 62
     7
370
    25
100
AcDbLine
 10
467.680201
 20
327.814928
 30
0.0
 11
465.680201
 21
329.814928
 31
0.0
  0
LINE
  5
2E7
330
2C5
100
AcDbEntity
  8
LC-003-005-----0
 62
     7
370
    25
100
AcDbLine
 10
463.136057
 20
332.359072
 30
0.0
 11
460.136057
 21
335.359072
 31
0.0
  0
LINE
  5
2E8
330
2C5
100
AcDbEntity
  8
LC-003-005-----0
 62
     7
370
    25
100
AcDbLine
 10
464.144667
 20
327.814928
 30
0.0
 11
461.236057
 21
330.723538
 31
0.0
  0
LINE
  5
2E9
330
2C5
100
AcDbEntity
  8
LC-003-005-----0
 62
     7
370
    25
100
AcDbLine
 10
459.594667
 20
332.364928
 30
0.0
 11
457.844667
 21
334.114928
 31
0.0
  0
LINE
  5
2EA
330
2C5
100
AcDbEntity
  8
LC-003-005-----0
 62
     7
370
    25
100
AcDbLine
 10
456.059133
 20
332.364928
 30
0.0
 11
454.309133
 21
334.114928
 31
0.0
  0
LINE
  5
2EB
330
2C5
100
AcDbEntity
  8
LC-003-005-----0
 62
     7
370
    25
100
AcDbLine
 10
452.658292
 20
332.230235
 30
0.0
 11
451.173163
 21
333.715364
 31
0.0
  0
LINE
  5
2EC
330
2C5
100
AcDbEntity
  8
LC-003-005-----0
 62
     7
370
    25
100
AcDbLine
 10
451.364197
 20
329.988797
 30
0.0
 11
449.900095
 21
331.452898
 31
0.0
  0
LINE
  5
2ED
330
2C5
100
AcDbEntity
  8
LC-003-005-----0
 62
     7
370
    25
100
AcDbLine
 10
450.002531
 20
327.814928
 30
0.0
 11
448.002531
 21
329.814928
 31
0.0
  0
LINE
  5
2EE
330
2C5
100
AcDbEntity
  8
LC-003-005-----0
 62
     7
370
    25
100
AcDbLine
 10
446.466997
 20
327.814928
 30
0.0
 11
445.136057
 21
329.145869
 31
0.0
  0
LINE
  5
2EF
330
2C5
100
AcDbEntity
  8
LC-003-005-----0
 62
     7
370
    25
100
AcDbLine
 10
533.51976
 20
230.155563
 30
0.0
 11
531.860395
 21
231.814928
 31
0.0
  0
LINE
  5
2F0
330
2C5
100
AcDbEntity
  8
LC-003-005-----0
 62
     7
370
    25
100
AcDbLine
 10
530.731373
 20
229.408417
 30
0.0
 11
528.324862
 21
231.814928
 31
0.0
  0
LINE
  5
2F1
330
2C5
100
AcDbEntity
  8
LC-003-005-----0
 62
     7
370
    25
100
AcDbLine
 10
527.489328
 20
229.114928
 30
0.0
 11
524.789328
 21
231.814928
 31
0.0
  0
LINE
  5
2F2
330
2C5
100
AcDbEntity
  8
LC-003-005-----0
 62
     7
370
    25
100
AcDbLine
 10
523.953794
 20
229.114928
 30
0.0
 11
521.253794
 21
231.814928
 31
0.0
  0
LINE
  5
2F3
330
2C5
100
AcDbEntity
  8
LC-003-005-----0
 62
     7
370
    25
100
AcDbLine
 10
500.136057
 20
252.932665
 30
0.0
 11
499.910408
 21
253.158314
 31
0.0
  0
LINE
  5
2F4
330
2C5
100
AcDbEntity
  8
LC-003-005-----0
 62
     7
370
    25
100
AcDbLine
 10
520.41826
 20
229.114928
 30
0.0
 11
517.71826
 21
231.814928
 31
0.0
  0
LINE
  5
2F5
330
2C5
100
AcDbEntity
  8
LC-003-005-----0
 62
     7
370
    25
100
AcDbLine
 10
499.11826
 20
250.414928
 30
0.0
 11
497.11826
 21
252.414928
 31
0.0
  0
LINE
  5
2F6
330
2C5
100
AcDbEntity
  8
LC-003-005-----0
 62
     7
370
    25
100
AcDbLine
 10
516.882726
 20
229.114928
 30
0.0
 11
514.182726
 21
231.814928
 31
0.0
  0
LINE
  5
2F7
330
2C5
100
AcDbEntity
  8
LC-003-005-----0
 62
     7
370
    25
100
AcDbLine
 10
495.582726
 20
250.414928
 30
0.0
 11
493.582726
 21
252.414928
 31
0.0
  0
LINE
  5
2F8
330
2C5
100
AcDbEntity
  8
LC-003-005-----0
 62
     7
370
    25
100
AcDbLine
 10
513.347192
 20
229.114928
 30
0.0
 11
510.647192
 21
231.814928
 31
0.0
  0
LINE
  5
2F9
330
2C5
100
AcDbEntity
  8
LC-003-005-----0
 62
     7
370
    25
100
AcDbLine
 10
492.047192
 20
250.414928
 30
0.0
 11
490.047192
 21
252.414928
 31
0.0
  0
LINE
  5
2FA
330
2C5
100
AcDbEntity
  8
LC-003-005-----0
 62
     7
370
    25
100
AcDbLine
 10
509.811658
 20
229.114928
 30
0.0
 11
507.111658
 21
231.814928
 31
0.0
  0
LINE
  5
2FB
330
2C5
100
AcDbEntity
  8
LC-003-005-----0
 62
     7
370
    25
100
AcDbLine
 10
488.511658
 20
250.414928
 30
0.0
 11
486.511658
 21
252.414928
 31
0.0
  0
LINE
  5
2FC
330
2C5
100
AcDbEntity
  8
LC-003-005-----0
 62
     7
370
    25
100
AcDbLine
 10
506.276124
 20
229.114928
 30
0.0
 11
503.576124
 21
231.814928
 31
0.0
  0
LINE
  5
2FD
330
2C5
100
AcDbEntity
  8
LC-003-005-----0
 62
     7
370
    25
100
AcDbLine
 10
484.976124
 20
250.414928
 30
0.0
 11
482.976124
 21
252.414928
 31
0.0
  0
LINE
  5
2FE
330
2C5
100
AcDbEntity
  8
LC-003-005-----0
 62
     7
370
    25
100
AcDbLine
 10
502.74059
 20
229.114928
 30
0.0
 11
500.04059
 21
231.814928
 31
0.0
  0
LINE
  5
2FF
330
2C5
100
AcDbEntity
  8
LC-003-005-----0
 62
     7
370
    25
100
AcDbLine
 10
481.44059
 20
250.414928
 30
0.0
 11
479.44059
 21
252.414928
 31
0.0
  0
LINE
  5
300
330
2C5
100
AcDbEntity
  8
LC-003-005-----0
 62
     7
370
    25
100
AcDbLine
 10
499.205056
 20
229.114928
 30
0.0
 11
496.505056
 21
231.814928
 31
0.0
  0
LINE
  5
301
330
2C5
100
AcDbEntity
  8
LC-003-005-----0
 62
     7
370
    25
100
AcDbLine
 10
477.905056
 20
250.414928
 30
0.0
 11
475.905056
 21
252.414928
 31
0.0
  0
LINE
  5
302
330
2C5
100
AcDbEntity
  8
LC-003-005-----0
 62
     7
370
    25
100
AcDbLine
 10
495.669522
 20
229.114928
 30
0.0
 11
492.969522
 21
231.814928
 31
0.0
  0
LINE
  5
303
330
2C5
100
AcDbEntity
  8
LC-003-005-----0
 62
     7
370
    25
100
AcDbLine
 10
474.369522
 20
250.414928
 30
0.0
 11
472.369522
 21
252.414928
 31
0.0
  0
LINE
  5
304
330
2C5
100
AcDbEntity
  8
LC-003-005-----0
 62
     7
370
    25
100
AcDbLine
 10
492.133989
 20
229.114928
 30
0.0
 11
489.433989
 21
231.814928
 31
0.0
  0
LINE
  5
305
330
2C5
100
AcDbEntity
  8
LC-003-005-----0
 62
     7
370
    25
100
AcDbLine
 10
470.833989
 20
250.414928
 30
0.0
 11
468.833989
 21
252.414928
 31
0.0
  0
LINE
  5
306
330
2C5
100
AcDbEntity
  8
LC-003-005-----0
 62
     7
370
    25
100
AcDbLine
 10
488.598455
 20
229.114928
 30
0.0
 11
485.898455
 21
231.814928
 31
0.0
  0
LINE
  5
307
330
2C5
100
AcDbEntity
  8
LC-003-005-----0
 62
     7
370
    25
100
AcDbLine
 10
467.298455
 20
250.414928
 30
0.0
 11
465.298455
 21
252.414928
 31
0.0
  0
LINE
  5
308
330
2C5
100
AcDbEntity
  8
LC-003-005-----0
 62
     7
370
    25
100
AcDbLine
 10
485.062921
 20
229.114928
 30
0.0
 11
482.362921
 21
231.814928
 31
0.0
  0
LINE
  5
309
330
2C5
100
AcDbEntity
  8
LC-003-005-----0
 62
     7
370
    25
100
AcDbLine
 10
463.762921
 20
250.414928
 30
0.0
 11
461.762921
 21
252.414928
 31
0.0
  0
LINE
  5
30A
330
2C5
100
AcDbEntity
  8
LC-003-005-----0
 62
     7
370
    25
100
AcDbLine
 10
481.527387
 20
229.114928
 30
0.0
 11
478.827387
 21
231.814928
 31
0.0
  0
LINE
  5
30B
330
2C5
100
AcDbEntity
  8
LC-003-005-----0
 62
     7
370
    25
100
AcDbLine
 10
463.136057
 20
247.506258
 30
0.0
 11
461.236057
 21
249.406258
 31
0.0
  0
LINE
  5
30C
330
2C5
100
AcDbEntity
  8
LC-003-005-----0
 62
     7
370
    25
100
AcDbLine
 10
477.991853
 20
229.114928
 30
0.0
 11
475.291853
 21
231.814928
 31
0.0
  0
LINE
  5
30D
330
2C5
100
AcDbEntity
  8
LC-003-005-----0
 62
     7
370
    25
100
AcDbLine
 10
463.136057
 20
243.970724
 30
0.0
 11
459.241853
 21
247.864928
 31
0.0
  0
LINE
  5
30E
330
2C5
100
AcDbEntity
  8
LC-003-005-----0
 62
     7
370
    25
100
AcDbLine
 10
474.456319
 20
229.114928
 30
0.0
 11
471.756319
 21
231.814928
 31
0.0
  0
LINE
  5
30F
330
2C5
100
AcDbEntity
  8
LC-003-005-----0
 62
     7
370
    25
100
AcDbLine
 10
463.136057
 20
240.435191
 30
0.0
 11
460.136057
 21
243.435191
 31
0.0
  0
LINE
  5
310
330
2C5
100
AcDbEntity
  8
LC-003-005-----0
 62
     7
370
    25
100
AcDbLine
 10
457.456319
 20
246.114928
 30
0.0
 11
455.706319
 21
247.864928
 31
0.0
  0
LINE
  5
311
330
2C5
100
AcDbEntity
  8
LC-003-005-----0
 62
     7
370
    25
100
AcDbLine
 10
470.920785
 20
229.114928
 30
0.0
 11
468.220785
 21
231.814928
 31
0.0
  0
LINE
  5
312
330
2C5
100
AcDbEntity
  8
LC-003-005-----0
 62
     7
370
    25
100
AcDbLine
 10
463.136057
 20
236.899657
 30
0.0
 11
460.136057
 21
239.899657
 31
0.0
  0
LINE
  5
313
330
2C5
100
AcDbEntity
  8
LC-003-005-----0
 62
     7
370
    25
100
AcDbLine
 10
453.920785
 20
246.114928
 30
0.0
 11
447.620785
 21
252.414928
 31
0.0
  0
LINE
  5
314
330
2C5
100
AcDbEntity
  8
LC-003-005-----0
 62
     7
370
    25
100
AcDbLine
 10
467.385251
 20
229.114928
 30
0.0
 11
464.685251
 21
231.814928
 31
0.0
  0
LINE
  5
315
330
2C5
100
AcDbEntity
  8
LC-003-005-----0
 62
     7
370
    25
100
AcDbLine
 10
463.136057
 20
233.364123
 30
0.0
 11
460.136057
 21
236.364123
 31
0.0
  0
LINE
  5
316
330
2C5
100
AcDbEntity
  8
LC-003-005-----0
 62
     7
370
    25
100
AcDbLine
 10
446.085251
 20
250.414928
 30
0.0
 11
445.136057
 21
251.364123
 31
0.0
  0
LINE
  5
317
330
2C5
100
AcDbEntity
  8
LC-003-005-----0
 62
     7
370
    25
100
AcDbLine
 10
463.849717
 20
229.114928
 30
0.0
 11
460.136057
 21
232.828589
 31
0.0
  0
ENDBLK
  5
2C7
330
2C5
100
AcDbEntity
  8
0
100
AcDbBlockEnd
  0
BLOCK
  5
33F
330
33E
100
AcDbEntity
  8
0
100
AcDbBlockBegin
  2
KLON1
 70
     0
 71
     0
 10
0.0
 20
0.0
 30
0.0
  3
KLON1
  1

  4
KLON1
  0
LINE
  5
341
330
33E
100
AcDbEntity
  8
LC-008-100-D00-0
 62
     7
370
    25
100
AcDbLine
 10
457.934685
 20
326.940561
 30
0.0
 11
458.507959
 21
327.513834
 31
0.0
  0
LINE
  5
342
330
33E
100
AcDbEntity
  8
LC-008-100-D00-0
 62
     7
370
    25
100
AcDbLine
 10
459.627381
 20
328.633257
 30
0.0
 11
460.843399
 21
329.849275
 31
0.0
  0
LINE
  5
343
330
33E
100
AcDbEntity
  8
LC-008-100-D00-0
 62
     7
370
    25
100
AcDbLine
 10
456.733764
 20
327.633913
 30
0.0
 11
460.642394
 21
331.542542
 31
0.0
  0
LINE
  5
344
330
33E
100
AcDbEntity
  8
LC-008-100-D00-0
 62
     7
370
    25
100
AcDbLine
 10
455.532844
 20
328.327265
 30
0.0
 11
459.144268
 21
331.93869
 31
0.0
  0
LINE
  5
345
330
33E
100
AcDbEntity
  8
LC-008-100-D00-0
 62
     7
370
    25
100
AcDbLine
 10
459.406321
 20
332.200742
 30
0.0
 11
459.545709
 21
332.34013
 31
0.0
  0
LINE
  5
346
330
33E
100
AcDbEntity
  8
LC-008-100-D00-0
 62
     7
370
    25
100
AcDbLine
 10
454.441039
 20
329.129733
 30
0.0
 11
457.42528
 21
332.113974
 31
0.0
  0
LINE
  5
347
330
33E
100
AcDbEntity
  8
LC-008-100-D00-0
 62
     7
370
    25
100
AcDbLine
 10
454.763949
 20
331.346915
 30
0.0
 11
455.335042
 21
331.918009
 31
0.0
  0
ENDBLK
  5
340
330
33E
100
AcDbEntity
  8
0
100
AcDbBlockEnd
  0
BLOCK
  5
369
330
368
100
AcDbEntity
  8
0
100
AcDbBlockBegin
  2
KLON2
 70
     0
 71
     0
 10
0.0
 20
0.0
 30
0.0
  3
KLON2
  1

  4
KLON2
  0
LINE
  5
36B
330
368
100
AcDbEntity
  8
LC-008-100-D00-0
 62
     7
370
    25
100
AcDbLine
 10
457.934685
 20
253.289796
 30
0.0
 11
458.507959
 21
252.716522
 31
0.0
  0
LINE
  5
36C
330
368
100
AcDbEntity
  8
LC-008-100-D00-0
 62
     7
370
    25
100
AcDbLine
 10
459.627381
 20
251.597099
 30
0.0
 11
460.843399
 21
250.381081
 31
0.0
  0
LINE
  5
36D
330
368
100
AcDbEntity
  8
LC-008-100-D00-0
 62
     7
370
    25
100
AcDbLine
 10
456.733764
 20
252.596444
 30
0.0
 11
460.642394
 21
248.687814
 31
0.0
  0
LINE
  5
36E
330
368
100
AcDbEntity
  8
LC-008-100-D00-0
 62
     7
370
    25
100
AcDbLine
 10
455.532844
 20
251.903092
 30
0.0
 11
459.144268
 21
248.291667
 31
0.0
  0
LINE
  5
36F
330
368
100
AcDbEntity
  8
LC-008-100-D00-0
 62
     7
370
    25
100
AcDbLine
 10
459.406321
 20
248.029614
 30
0.0
 11
459.545709
 21
247.890226
 31
0.0
  0
LINE
  5
370
330
368
100
AcDbEntity
  8
LC-008-100-D00-0
 62
     7
370
    25
100
AcDbLine
 10
454.441039
 20
251.100624
 30
0.0
 11
457.42528
 21
248.116383
 31
0.0
  0
LINE
  5
371
330
368
100
AcDbEntity
  8
LC-008-100-D00-0
 62
     7
370
    25
100
AcDbLine
 10
454.763949
 20
248.883441
 30
0.0
 11
455.335042
 21
248.312348
 31
0.0
  0
ENDBLK
  5
36A
330
368
100
AcDbEntity
  8
0
100
AcDbBlockEnd
  0
BLOCK
  5
37E
330
374
100
AcDbEntity
  8
0
100
AcDbBlockBegin
  2
*D29
 70
     1
 71
     0
 10
0.0
 20
0.0
 30
0.0
  3
*D29
  1

  0
LINE
  5
375
330
374
100
AcDbEntity
  8
LC-005-003-----0
 62
     2
370
    -2
100
AcDbLine
 10
362.13615
 20
220.569804
 30
0.0
 11
362.13615
 21
164.312545
 31
0.0
  0
LINE
  5
376
330
374
100
AcDbEntity
  8
LC-005-003-----0
 62
     2
370
    -2
100
AcDbLine
 10
534.136057
 20
231.814928
 30
0.0
 11
534.136057
 21
164.312545
 31
0.0
  0
LINE
  5
377
330
374
100
AcDbEntity
  8
LC-005-003-----0
 62
     2
370
    -2
100
AcDbLine
 10
390.13615
 20
167.912545
 30
0.0
 11
506.136057
 21
167.912545
 31
0.0
  0
SOLID
  5
378
330
374
100
AcDbEntity
  8
LC-005-003-----0
 62
     2
100
AcDbTrace
 10
390.13615
 20
172.579211
 30
0.0
 11
390.13615
 21
163.245878
 31
0.0
 12
362.13615
 22
167.912545
 32
0.0
 13
362.13615
 23
167.912545
 33
0.0
  0
SOLID
  5
379
330
374
100
AcDbEntity
  8
LC-005-003-----0
 62
     2
100
AcDbTrace
 10
506.136057
 20
163.245878
 30
0.0
 11
506.136057
 21
172.579211
 31
0.0
 12
534.136057
 22
167.912545
 32
0.0
 13
534.136057
 23
167.912545
 33
0.0
  0
MTEXT
  5
37A
330
374
100
AcDbEntity
  8
LC-005-003-----0
 62
     2
100
AcDbMText
 10
434.575035
 20
198.712545
 30
0.0
 40
28.0
 41
0.0
 71
     5
 72
     1
  1
\A1;172
  7
LCTX15-400-0-0pDIN-Schrift
 73
     1
 44
1.0
  0
POINT
  5
37B
330
374
100
AcDbEntity
  8
Defpoints
 62
     0
100
AcDbPoint
 10
362.13615
 20
220.569804
 30
0.0
  0
POINT
  5
37C
330
374
100
AcDbEntity
  8
Defpoints
 62
     0
100
AcDbPoint
 10
534.136057
 20
231.814928
 30
0.0
  0
POINT
  5
37D
330
374
100
AcDbEntity
  8
Defpoints
 62
     0
100
AcDbPoint
 10
534.136057
 20
167.912545
 30
0.0
  0
ENDBLK
  5
37F
330
374
100
AcDbEntity
  8
0
100
AcDbBlockEnd
  0
BLOCK
  5
38B
330
381
100
AcDbEntity
  8
0
100
AcDbBlockBegin
  2
*D30
 70
     1
 71
     0
 10
0.0
 20
0.0
 30
0.0
  3
*D30
  1

  0
LINE
  5
382
330
381
100
AcDbEntity
  8
LC-005-003-----0
 62
     2
370
    -2
100
AcDbLine
 10
497.136057
 20
252.615602
 30
0.0
 11
637.145688
 21
252.615602
 31
0.0
  0
LINE
  5
383
330
381
100
AcDbEntity
  8
LC-005-003-----0
 62
     2
370
    -2
100
AcDbLine
 10
567.096847
 20
327.615004
 30
0.0
 11
637.145688
 21
327.615004
 31
0.0
  0
LINE
  5
384
330
381
100
AcDbEntity
  8
LC-005-003-----0
 62
     2
370
    -2
100
AcDbLine
 10
633.545688
 20
280.615602
 30
0.0
 11
633.545688
 21
299.615004
 31
0.0
  0
SOLID
  5
385
330
381
100
AcDbEntity
  8
LC-005-003-----0
 62
     2
100
AcDbTrace
 10
628.879021
 20
280.615602
 30
0.0
 11
638.212354
 21
280.615602
 31
0.0
 12
633.545688
 22
252.615602
 32
0.0
 13
633.545688
 23
252.615602
 33
0.0
  0
SOLID
  5
386
330
381
100
AcDbEntity
  8
LC-005-003-----0
 62
     2
100
AcDbTrace
 10
638.212354
 20
299.615004
 30
0.0
 11
628.879021
 21
299.615004
 31
0.0
 12
633.545688
 22
327.615004
 32
0.0
 13
633.545688
 23
327.615004
 33
0.0
  0
MTEXT
  5
387
330
381
100
AcDbEntity
  8
LC-005-003-----0
 62
     2
100
AcDbMText
 10
602.745688
 20
287.306545
 30
0.0
 40
28.0
 41
0.0
 71
     5
 72
     1
  1
\A1;DN70
  7
LCTX15-400-0-0pDIN-Schrift
 11
6.123031769111886E-17
 21
1.0
 31
0.0
 73
     1
 44
1.0
  0
POINT
  5
388
330
381
100
AcDbEntity
  8
Defpoints
 62
     0
100
AcDbPoint
 10
497.136057
 20
252.615602
 30
0.0
  0
POINT
  5
389
330
381
100
AcDbEntity
  8
Defpoints
 62
     0
100
AcDbPoint
 10
567.096847
 20
327.615004
 30
0.0
  0
POINT
  5
38A
330
381
100
AcDbEntity
  8
Defpoints
 62
     0
100
AcDbPoint
 10
633.545688
 20
327.615004
 30
0.0
  0
ENDBLK
  5
38C
330
381
100
AcDbEntity
  8
0
100
AcDbBlockEnd
  0
BLOCK
  5
398
330
38E
100
AcDbEntity
  8
0
100
AcDbBlockBegin
  2
*D31
 70
     1
 71
     0
 10
0.0
 20
0.0
 30
0.0
  3
*D31
  1

  0
LINE
  5
38F
330
38E
100
AcDbEntity
  8
LC-005-003-----0
 62
     2
370
    -2
100
AcDbLine
 10
535.136057
 20
229.114928
 30
0.0
 11
697.843794
 21
229.114928
 31
0.0
  0
LINE
  5
390
330
38E
100
AcDbEntity
  8
LC-005-003-----0
 62
     2
370
    -2
100
AcDbLine
 10
535.136057
 20
339.114928
 30
0.0
 11
697.843794
 21
339.114928
 31
0.0
  0
LINE
  5
391
330
38E
100
AcDbEntity
  8
LC-005-003-----0
 62
     2
370
    -2
100
AcDbLine
 10
694.243794
 20
257.114928
 30
0.0
 11
694.243794
 21
311.114928
 31
0.0
  0
SOLID
  5
392
330
38E
100
AcDbEntity
  8
LC-005-003-----0
 62
     2
100
AcDbTrace
 10
689.577127
 20
257.114928
 30
0.0
 11
698.91046
 21
257.114928
 31
0.0
 12
694.243794
 22
229.114928
 32
0.0
 13
694.243794
 23
229.114928
 33
0.0
  0
SOLID
  5
393
330
38E
100
AcDbEntity
  8
LC-005-003-----0
 62
     2
100
AcDbTrace
 10
698.91046
 20
311.114928
 30
0.0
 11
689.577127
 21
311.114928
 31
0.0
 12
694.243794
 22
339.114928
 32
0.0
 13
694.243794
 23
339.114928
 33
0.0
  0
MTEXT
  5
394
330
38E
100
AcDbEntity
  8
LC-005-003-----0
 62
     2
100
AcDbMText
 10
725.043186
 20
285.718066
 30
0.0
 40
28.0
 41
0.0
 71
     5
 72
     1
  1
\A1;DN100
  7
LCTX15-400-0-0pDIN-Schrift
 11
6.123031769111886E-17
 21
1.0
 31
0.0
 73
     1
 44
1.0
  0
POINT
  5
395
330
38E
100
AcDbEntity
  8
Defpoints
 62
     0
100
AcDbPoint
 10
535.136057
 20
229.114928
 30
0.0
  0
POINT
  5
396
330
38E
100
AcDbEntity
  8
Defpoints
 62
     0
100
AcDbPoint
 10
535.136057
 20
339.114928
 30
0.0
  0
POINT
  5
397
330
38E
100
AcDbEntity
  8
Defpoints
 62
     0
100
AcDbPoint
 10
694.243794
 20
339.114928
 30
0.0
  0
ENDBLK
  5
399
330
38E
100
AcDbEntity
  8
0
100
AcDbBlockEnd
  0
ENDSEC
  0
SECTION
  2
ENTITIES
  0
LINE
  5
31
102
{ACAD_REACTORS
330
3CC
102
}
330
1F
100
AcDbEntity
  8
LC-001-020-----0
 62
     7
370
    50
100
AcDbLine
 10
290.631247
 20
332.566993
 30
0.0
 11
290.63112
 21
237.069814
 31
0.0
  0
LINE
  5
32
102
{ACAD_REACTORS
330
3CB
102
}
330
1F
100
AcDbEntity
  8
LC-001-020-----0
 62
     7
370
    50
100
AcDbLine
 10
437.998732
 20
335.565983
 30
0.0
 11
433.640064
 21
335.566012
 31
0.0
  0
LINE
  5
33
102
{ACAD_REACTORS
330
3CB
102
}
330
1F
100
AcDbEntity
  8
LC-001-020-----0
 62
     7
370
    50
100
AcDbLine
 10
432.14054
 20
334.071755
 30
0.0
 11
432.14049
 21
326.566022
 31
0.0
  0
LINE
  5
34
102
{ACAD_REACTORS
330
3CB
102
}
330
1F
100
AcDbEntity
  8
LC-001-020-----0
 62
     7
370
    50
100
AcDbLine
 10
432.14049
 20
326.566022
 30
0.0
 11
431.14049
 21
326.566028
 31
0.0
  0
ARC
  5
35
102
{ACAD_REACTORS
330
3CC
102
}
330
1F
100
AcDbEntity
  8
LC-001-020-----0
 62
     7
370
    50
100
AcDbCircle
 10
310.631134
 20
237.069814
 30
0.0
 40
20.00000000000165
100
AcDbArc
 50
179.999905
 51
269.999924
  0
LINE
  5
36
102
{ACAD_REACTORS
330
3CC
102
}
330
1F
100
AcDbEntity
  8
LC-001-020-----0
 62
     7
370
    50
100
AcDbLine
 10
310.631108
 20
217.069815
 30
0.0
 11
413.63994
 21
217.069679
 31
0.0
  0
ARC
  5
37
102
{ACAD_REACTORS
330
3CC
102
}
330
1F
100
AcDbEntity
  8
LC-001-020-----0
 62
     7
370
    50
100
AcDbCircle
 10
413.639966
 20
237.069679
 30
0.0
 40
20.00000000000078
100
AcDbArc
 50
269.999924
 51
359.999468
  0
ARC
  5
38
102
{ACAD_REACTORS
330
3CC
102
}
330
1F
100
AcDbEntity
  8
LC-001-020-----0
 62
     7
370
    50
100
AcDbCircle
 10
310.631134
 20
237.069814
 30
0.0
 40
17.50000000000136
100
AcDbArc
 50
179.999905
 51
269.999924
  0
LINE
  5
39
102
{ACAD_REACTORS
330
3CC
102
}
330
1F
100
AcDbEntity
  8
LC-001-020-----0
 62
     7
370
    50
100
AcDbLine
 10
310.631111
 20
219.569815
 30
0.0
 11
402.140386
 21
219.569694
 31
0.0
  0
ARC
  5
3A
102
{ACAD_REACTORS
330
3CC
102
}
330
1F
100
AcDbEntity
  8
LC-001-020-----0
 62
     7
370
    50
100
AcDbCircle
 10
413.639966
 20
237.069679
 30
0.0
 40
17.50000000000063
100
AcDbArc
 50
269.999924
 51
359.999468
  0
LINE
  5
3B
102
{ACAD_REACTORS
330
3CB
102
}
330
1F
100
AcDbEntity
  8
LC-001-020-----0
 62
     7
370
    50
100
AcDbLine
 10
431.140016
 20
255.065959
 30
0.0
 11
431.139896
 21
237.069516
 31
0.0
  0
LINE
  5
3C
102
{ACAD_REACTORS
330
3CC
102
}
330
1F
100
AcDbEntity
  8
LC-001-020-----0
 62
     7
370
    50
100
AcDbLine
 10
404.140475
 20
297.06607
 30
0.0
 11
404.140386
 21
219.56607
 31
0.0
  0
LINE
  5
3D
102
{ACAD_REACTORS
330
3CC
102
}
330
1F
100
AcDbEntity
  8
LC-001-020-----0
 62
     7
370
    50
100
AcDbLine
 10
402.140386
 20
219.569694
 30
0.0
 11
402.140475
 21
297.069694
 31
0.0
  0
LINE
  5
3E
102
{ACAD_REACTORS
330
3CC
102
}
330
1F
100
AcDbEntity
  8
LC-001-020-----0
 62
     7
370
    50
100
AcDbLine
 10
402.140475
 20
297.069694
 30
0.0
 11
404.140475
 21
297.069691
 31
0.0
  0
LINE
  5
3F
102
{ACAD_REACTORS
330
3CC
102
}
330
1F
100
AcDbEntity
  8
LC-001-020-----0
 62
     7
370
    50
100
AcDbLine
 10
402.140475
 20
297.069694
 30
0.0
 11
395.140475
 21
297.069703
 31
0.0
  0
LINE
  5
40
102
{ACAD_REACTORS
330
3CC
102
}
330
1F
100
AcDbEntity
  8
LC-001-020-----0
 62
     7
370
    50
100
AcDbLine
 10
395.140475
 20
297.069703
 30
0.0
 11
395.140386
 21
219.569703
 31
0.0
  0
LINE
  5
41
102
{ACAD_REACTORS
330
3CC
102
}
330
1F
100
AcDbEntity
  8
LC-001-020-----0
 62
     7
370
    50
100
AcDbLine
 10
293.631251
 20
335.569838
 30
0.0
 11
293.631249
 21
334.069838
 31
0.0
  0
LINE
  5
42
102
{ACAD_REACTORS
330
3CC
102
}
330
1F
100
AcDbEntity
  8
LC-001-020-----0
 62
     7
370
    50
100
AcDbLine
 10
293.63124
 20
327.069838
 30
0.0
 11
313.63124
 21
327.069812
 31
0.0
  0
LINE
  5
43
102
{ACAD_REACTORS
330
3CC
102
}
330
1F
100
AcDbEntity
  8
LC-001-020-----0
 62
     7
370
    50
100
AcDbLine
 10
298.631249
 20
334.069831
 30
0.0
 11
293.631249
 21
334.069838
 31
0.0
  0
LINE
  5
44
102
{ACAD_REACTORS
330
3CC
102
}
330
1F
100
AcDbEntity
  8
LC-001-020-----0
 62
     7
370
    50
100
AcDbLine
 10
293.631251
 20
335.569838
 30
0.0
 11
300.131251
 21
335.569829
 31
0.0
  0
LINE
  5
45
102
{ACAD_REACTORS
330
3CC
102
}
330
1F
100
AcDbEntity
  8
LC-001-020-----0
 62
     7
370
    50
100
AcDbLine
 10
293.631242
 20
328.569838
 30
0.0
 11
293.63124
 21
327.069838
 31
0.0
  0
LINE
  5
46
102
{ACAD_REACTORS
330
3CC
102
}
330
1F
100
AcDbEntity
  8
LC-001-020-----0
 62
     7
370
    50
100
AcDbLine
 10
300.131251
 20
335.569829
 30
0.0
 11
300.131242
 21
328.566197
 31
0.0
  0
LINE
  5
47
102
{ACAD_REACTORS
330
3CC
102
}
330
1F
100
AcDbEntity
  8
LC-001-020-----0
 62
     7
370
    50
100
AcDbLine
 10
431.64055
 20
335.566022
 30
0.0
 11
431.640548
 21
334.066022
 31
0.0
  0
LINE
  5
48
102
{ACAD_REACTORS
330
3CC
102
}
330
1F
100
AcDbEntity
  8
LC-001-020-----0
 62
     7
370
    50
100
AcDbLine
 10
431.640541
 20
328.566022
 30
0.0
 11
426.640541
 21
328.566029
 31
0.0
  0
LINE
  5
49
102
{ACAD_REACTORS
330
3CC
102
}
330
1F
100
AcDbEntity
  8
LC-001-020-----0
 62
     7
370
    50
100
AcDbLine
 10
426.640541
 20
328.566029
 30
0.0
 11
426.640548
 21
334.066029
 31
0.0
  0
LINE
  5
4A
102
{ACAD_REACTORS
330
3CC
102
}
330
1F
100
AcDbEntity
  8
LC-001-020-----0
 62
     7
370
    50
100
AcDbLine
 10
426.640548
 20
334.066029
 30
0.0
 11
431.640548
 21
334.066022
 31
0.0
  0
LINE
  5
4B
102
{ACAD_REACTORS
330
3CC
102
}
330
1F
100
AcDbEntity
  8
LC-001-020-----0
 62
     7
370
    50
100
AcDbLine
 10
431.64055
 20
335.566022
 30
0.0
 11
425.14055
 21
335.566031
 31
0.0
  0
LINE
  5
4C
102
{ACAD_REACTORS
330
3CC
102
}
330
1F
100
AcDbEntity
  8
LC-001-020-----0
 62
     7
370
    50
100
AcDbLine
 10
431.640541
 20
328.566022
 30
0.0
 11
431.640539
 21
327.066022
 31
0.0
  0
LINE
  5
4D
102
{ACAD_REACTORS
330
3CC
102
}
330
1F
100
AcDbEntity
  8
LC-001-020-----0
 62
     7
370
    50
100
AcDbLine
 10
425.14055
 20
335.566031
 30
0.0
 11
425.140541
 21
328.566031
 31
0.0
  0
LINE
  5
4E
102
{ACAD_REACTORS
330
3CC
102
}
330
1F
100
AcDbEntity
  8
LC-001-020-----0
 62
     7
370
    50
100
AcDbLine
 10
425.140541
 20
328.566031
 30
0.0
 11
419.140541
 21
328.566039
 31
0.0
  0
LINE
  5
4F
102
{ACAD_REACTORS
330
3CC
102
}
330
1F
100
AcDbEntity
  8
LC-001-020-----0
 62
     7
370
    50
100
AcDbLine
 10
300.131251
 20
335.569829
 30
0.0
 11
425.14055
 21
335.569664
 31
0.0
  0
CIRCLE
  5
50
102
{ACAD_REACTORS
330
3CC
102
}
330
1F
100
AcDbEntity
  8
LC-001-020-----0
 62
     7
370
    50
100
AcDbCircle
 10
429.206723
 20
331.340649
 30
0.0
 40
2.422713426575315
  0
CIRCLE
  5
51
102
{ACAD_REACTORS
330
3CC
102
}
330
1F
100
AcDbEntity
  8
LC-001-020-----0
 62
     7
370
    50
100
AcDbCircle
 10
296.144172
 20
331.132696
 30
0.0
 40
1.997707361381739
  0
LINE
  5
52
102
{ACAD_REACTORS
330
3CC
102
}
330
1F
100
AcDbEntity
  8
LC-001-020-----0
 62
     7
370
    50
100
AcDbLine
 10
316.640077
 20
327.069808
 30
0.0
 11
313.63124
 21
327.069812
 31
0.0
  0
LINE
  5
53
102
{ACAD_REACTORS
330
3CC
102
}
330
1F
100
AcDbEntity
  8
LC-001-020-----0
 62
     7
370
    50
100
AcDbLine
 10
316.640077
 20
327.069808
 30
0.0
 11
316.639973
 21
236.566809
 31
0.0
  0
LINE
  5
54
102
{ACAD_REACTORS
330
3CC
102
}
330
1F
100
AcDbEntity
  8
LC-001-020-----0
 62
     7
370
    50
100
AcDbLine
 10
371.749235
 20
236.566449
 30
0.0
 11
366.639973
 21
236.566456
 31
0.0
  0
LINE
  5
55
102
{ACAD_REACTORS
330
3CC
102
}
330
1F
100
AcDbEntity
  8
LC-001-020-----0
 62
     7
370
    50
100
AcDbLine
 10
316.639973
 20
236.566522
 30
0.0
 11
316.640077
 21
327.069808
 31
0.0
  0
LINE
  5
56
102
{ACAD_REACTORS
330
3CC
102
}
330
1F
100
AcDbEntity
  8
LC-001-020-----0
 62
     7
370
    50
100
AcDbLine
 10
318.139973
 20
236.566521
 30
0.0
 11
318.140079
 21
328.566173
 31
0.0
  0
LINE
  5
57
102
{ACAD_REACTORS
330
3CC
102
}
330
1F
100
AcDbEntity
  8
LC-001-020-----0
 62
     7
370
    50
100
AcDbLine
 10
380.140541
 20
328.566091
 30
0.0
 11
380.140546
 21
332.566091
 31
0.0
  0
LINE
  5
58
102
{ACAD_REACTORS
330
3CC
102
}
330
1F
100
AcDbEntity
  8
LC-001-020-----0
 62
     7
370
    50
100
AcDbLine
 10
380.140546
 20
332.566091
 30
0.0
 11
423.140546
 21
332.566034
 31
0.0
  0
LINE
  5
59
102
{ACAD_REACTORS
330
3CC
102
}
330
1F
100
AcDbEntity
  8
LC-001-020-----0
 62
     7
370
    50
100
AcDbLine
 10
423.140546
 20
332.566034
 30
0.0
 11
423.140541
 21
328.566034
 31
0.0
  0
LINE
  5
5A
102
{ACAD_REACTORS
330
3CC
102
}
330
1F
100
AcDbEntity
  8
LC-001-020-----0
 62
     7
370
    50
100
AcDbLine
 10
378.640538
 20
326.566093
 30
0.0
 11
378.64052
 21
312.95016
 31
0.0
  0
ARC
  5
5B
102
{ACAD_REACTORS
330
3CC
102
}
330
1F
100
AcDbEntity
  8
LC-001-020-----0
 62
     7
370
    50
100
AcDbCircle
 10
380.640538
 20
326.56609
 30
0.0
 40
2.000000000000055
100
AcDbArc
 50
89.999924
 51
179.999924
  0
LINE
  5
5C
102
{ACAD_REACTORS
330
3CC
102
}
330
1F
100
AcDbEntity
  8
LC-001-020-----0
 62
     7
370
    50
100
AcDbLine
 10
380.640538
 20
328.56609
 30
0.0
 11
318.140079
 21
328.566173
 31
0.0
  0
LINE
  5
5D
102
{ACAD_REACTORS
330
3CF
102
}
330
1F
100
AcDbEntity
  8
LC-001-020-----0
 62
     7
370
    50
100
AcDbLine
 10
366.639973
 20
236.566456
 30
0.0
 11
380.108442
 21
312.641606
 31
0.0
  0
ARC
  5
5E
102
{ACAD_REACTORS
330
3CF
102
}
330
1F
100
AcDbEntity
  8
LC-001-020-----0
 62
     7
370
    50
100
AcDbCircle
 10
384.357921
 20
325.566085
 30
0.0
 40
1.500000000000134
100
AcDbArc
 50
98.245976
 51
168.129355
  0
LINE
  5
5F
102
{ACAD_REACTORS
330
3CC
102
}
330
1F
100
AcDbEntity
  8
LC-001-020-----0
 62
     7
370
    50
100
AcDbLine
 10
371.749235
 20
236.566449
 30
0.0
 11
387.514009
 21
323.566081
 31
0.0
  0
LINE
  5
60
102
{ACAD_REACTORS
330
3CC
102
}
330
1F
100
AcDbEntity
  8
LC-001-020-----0
 62
     7
370
    50
100
AcDbLine
 10
327.890002
 20
328.56616
 30
0.0
 11
327.889912
 21
250.419733
 31
0.0
  0
LINE
  5
61
102
{ACAD_REACTORS
330
3CC
102
}
330
1F
100
AcDbEntity
  8
LC-001-020-----0
 62
     7
370
    50
100
AcDbLine
 10
365.172051
 20
236.87501
 30
0.0
 11
378.64052
 21
312.95016
 31
0.0
  0
LINE
  5
62
102
{ACAD_REACTORS
330
3CC
102
}
330
1F
100
AcDbEntity
  8
LC-001-020-----0
 62
     7
370
    50
100
AcDbLine
 10
380.108459
 20
325.566091
 30
0.0
 11
380.108442
 21
312.641606
 31
0.0
  0
ARC
  5
63
102
{ACAD_REACTORS
330
3CC
102
}
330
1F
100
AcDbEntity
  8
LC-001-020-----0
 62
     7
370
    50
100
AcDbCircle
 10
381.608459
 20
325.566089
 30
0.0
 40
1.500000000000013
100
AcDbArc
 50
89.999924
 51
179.999924
  0
LINE
  5
64
102
{ACAD_REACTORS
330
3CC
102
}
330
1F
100
AcDbEntity
  8
LC-001-020-----0
 62
     7
370
    50
100
AcDbLine
 10
431.640539
 20
327.066022
 30
0.0
 11
419.140539
 21
327.066039
 31
0.0
  0
LINE
  5
65
102
{ACAD_REACTORS
330
3CC
102
}
330
1F
100
AcDbEntity
  8
LC-001-020-----0
 62
     7
370
    50
100
AcDbLine
 10
384.140543
 20
330.066085
 30
0.0
 11
384.140537
 21
325.566085
 31
0.0
  0
LINE
  5
66
102
{ACAD_REACTORS
330
3CC
102
}
330
1F
100
AcDbEntity
  8
LC-001-020-----0
 62
     7
370
    50
100
AcDbLine
 10
419.140537
 20
325.566039
 30
0.0
 11
419.140543
 21
330.066039
 31
0.0
  0
LINE
  5
67
102
{ACAD_REACTORS
330
3CC
102
}
330
1F
100
AcDbEntity
  8
LC-001-020-----0
 62
     7
370
    50
100
AcDbLine
 10
384.140537
 20
325.566085
 30
0.0
 11
384.140534
 21
323.566085
 31
0.0
  0
LINE
  5
68
102
{ACAD_REACTORS
330
3CC
102
}
330
1F
100
AcDbEntity
  8
LC-001-020-----0
 62
     7
370
    50
100
AcDbLine
 10
384.140534
 20
323.566085
 30
0.0
 11
419.140534
 21
323.566039
 31
0.0
  0
LINE
  5
69
102
{ACAD_REACTORS
330
3CC
102
}
330
1F
100
AcDbEntity
  8
LC-001-020-----0
 62
     7
370
    50
100
AcDbLine
 10
419.140534
 20
323.566039
 30
0.0
 11
419.140537
 21
325.566039
 31
0.0
  0
LINE
  5
6A
102
{ACAD_REACTORS
330
3CC
102
}
330
1F
100
AcDbEntity
  8
LC-001-020-----0
 62
     7
370
    50
100
AcDbLine
 10
416.640534
 20
323.566042
 30
0.0
 11
416.640543
 21
330.566042
 31
0.0
  0
LINE
  5
6B
102
{ACAD_REACTORS
330
3CC
102
}
330
1F
100
AcDbEntity
  8
LC-001-020-----0
 62
     7
370
    50
100
AcDbLine
 10
386.640543
 20
330.566012
 30
0.0
 11
386.640534
 21
323.566082
 31
0.0
  0
LINE
  5
6C
102
{ACAD_REACTORS
330
3CC
102
}
330
1F
100
AcDbEntity
  8
LC-001-020-----0
 62
     7
370
    50
100
AcDbLine
 10
384.140539
 20
327.066085
 30
0.0
 11
381.608461
 21
327.066089
 31
0.0
  0
LINE
  5
6D
102
{ACAD_REACTORS
330
3CC
102
}
330
1F
100
AcDbEntity
  8
LC-001-020-----0
 62
     7
370
    50
100
AcDbLine
 10
380.140543
 20
330.066091
 30
0.0
 11
384.140543
 21
330.066085
 31
0.0
  0
LINE
  5
6E
102
{ACAD_REACTORS
330
3CC
102
}
330
1F
100
AcDbEntity
  8
LC-001-020-----0
 62
     7
370
    50
100
AcDbLine
 10
423.140543
 20
330.066034
 30
0.0
 11
419.140543
 21
330.066039
 31
0.0
  0
LINE
  5
70
102
{ACAD_REACTORS
330
3CC
102
}
330
1F
100
AcDbEntity
  8
LC-001-020-----0
  6
DASHDOT
 62
     7
370
    25
100
AcDbLine
 10
401.640534
 20
323.566062
 30
0.0
 11
401.640546
 21
332.566062
 31
0.0
  0
ARC
  5
71
102
{ACAD_REACTORS
330
3CC
102
}
330
1F
100
AcDbEntity
  8
LC-001-020-----0
 62
     7
370
    50
100
AcDbCircle
 10
401.640578
 20
356.691062
 30
0.0
 40
30.1250000000014
100
AcDbArc
 50
240.137415
 51
299.862454
  0
ARC
  5
72
102
{ACAD_REACTORS
330
3CC
102
}
330
1F
100
AcDbEntity
  8
LC-001-020-----0
 62
     7
370
    50
100
AcDbCircle
 10
401.640581
 20
358.691062
 30
0.0
 40
30.12500000000196
100
AcDbArc
 50
240.137415
 51
299.862454
  0
INSERT
  5
7D
330
1F
100
AcDbEntity
  8
LC-001-020-----0
 62
     7
370
    25
100
AcDbBlockReference
  2
*X11
 10
0.0
 20
0.0
 30
0.0
  0
INSERT
  5
87
330
1F
100
AcDbEntity
  8
LC-001-020-----0
 62
     7
370
    25
100
AcDbBlockReference
  2
*X22
 10
0.0
 20
0.0
 30
0.0
  0
LINE
  5
88
102
{ACAD_REACTORS
330
3CC
102
}
330
1F
100
AcDbEntity
  8
LC-001-020-----0
 62
     7
370
    50
100
AcDbLine
 10
404.140386
 20
219.569691
 30
0.0
 11
413.639943
 21
219.569679
 31
0.0
  0
LINE
  5
89
102
{ACAD_REACTORS
330
3CC
102
}
330
1F
100
AcDbEntity
  8
LC-001-020-----0
 62
     7
370
    50
100
AcDbLine
 10
318.139973
 20
236.566521
 30
0.0
 11
316.639973
 21
236.566522
 31
0.0
  0
LINE
  5
8A
102
{ACAD_REACTORS
330
3CC
102
}
330
1F
100
AcDbEntity
  8
LC-001-020-----0
 62
     7
370
    50
100
AcDbLine
 10
318.140079
 20
328.566173
 30
0.0
 11
300.131242
 21
328.566197
 31
0.0
  0
LINE
  5
8B
102
{ACAD_REACTORS
330
3CC
102
}
330
1F
100
AcDbEntity
  8
LC-001-020-----0
 62
     7
370
    50
100
AcDbLine
 10
293.631242
 20
328.569838
 30
0.0
 11
298.631242
 21
328.569831
 31
0.0
  0
LINE
  5
8C
102
{ACAD_REACTORS
330
3CC
102
}
330
1F
100
AcDbEntity
  8
LC-001-020-----0
 62
     7
370
    50
100
AcDbLine
 10
298.631242
 20
328.569831
 30
0.0
 11
298.631249
 21
334.069831
 31
0.0
  0
LINE
  5
8D
102
{ACAD_REACTORS
330
3CC
102
}
330
1F
100
AcDbEntity
  8
LC-001-020-----0
 62
     7
370
    25
100
AcDbLine
 10
316.639973
 20
236.8877
 30
0.0
 11
318.139975
 21
238.3877
 31
0.0
  0
LINE
  5
8E
102
{ACAD_REACTORS
330
3CC
102
}
330
1F
100
AcDbEntity
  8
LC-001-020-----0
 62
     7
370
    25
100
AcDbLine
 10
316.639982
 20
243.958772
 30
0.0
 11
318.139984
 21
245.458772
 31
0.0
  0
LINE
  5
8F
102
{ACAD_REACTORS
330
3CC
102
}
330
1F
100
AcDbEntity
  8
LC-001-020-----0
 62
     7
370
    25
100
AcDbLine
 10
316.639992
 20
263.029845
 30
0.0
 11
318.139994
 21
264.529845
 31
0.0
  0
LINE
  5
90
102
{ACAD_REACTORS
330
3CC
102
}
330
1F
100
AcDbEntity
  8
LC-001-020-----0
 62
     7
370
    25
100
AcDbLine
 10
316.640001
 20
270.100917
 30
0.0
 11
318.140003
 21
271.600917
 31
0.0
  0
LINE
  5
91
102
{ACAD_REACTORS
330
3CC
102
}
330
1F
100
AcDbEntity
  8
LC-001-020-----0
 62
     7
370
    25
100
AcDbLine
 10
316.640011
 20
277.17199
 30
0.0
 11
318.140013
 21
278.67199
 31
0.0
  0
LINE
  5
92
102
{ACAD_REACTORS
330
3CC
102
}
330
1F
100
AcDbEntity
  8
LC-001-020-----0
 62
     7
370
    25
100
AcDbLine
 10
316.64002
 20
284.243062
 30
0.0
 11
318.140022
 21
285.743062
 31
0.0
  0
LINE
  5
93
102
{ACAD_REACTORS
330
3CC
102
}
330
1F
100
AcDbEntity
  8
LC-001-020-----0
 62
     7
370
    25
100
AcDbLine
 10
316.640029
 20
291.314135
 30
0.0
 11
318.140031
 21
292.814135
 31
0.0
  0
LINE
  5
94
102
{ACAD_REACTORS
330
3CC
102
}
330
1F
100
AcDbEntity
  8
LC-001-020-----0
 62
     7
370
    25
100
AcDbLine
 10
316.640039
 20
298.385207
 30
0.0
 11
318.140041
 21
299.885207
 31
0.0
  0
LINE
  5
95
102
{ACAD_REACTORS
330
3CC
102
}
330
1F
100
AcDbEntity
  8
LC-001-020-----0
 62
     7
370
    25
100
AcDbLine
 10
316.640048
 20
305.45628
 30
0.0
 11
318.14005
 21
306.95628
 31
0.0
  0
LINE
  5
96
102
{ACAD_REACTORS
330
3CC
102
}
330
1F
100
AcDbEntity
  8
LC-001-020-----0
 62
     7
370
    25
100
AcDbLine
 10
316.640058
 20
317.527352
 30
0.0
 11
318.14006
 21
319.027352
 31
0.0
  0
LINE
  5
97
102
{ACAD_REACTORS
330
3CC
102
}
330
1F
100
AcDbEntity
  8
LC-001-020-----0
 62
     7
370
    25
100
AcDbLine
 10
316.640067
 20
324.598425
 30
0.0
 11
318.140069
 21
326.098425
 31
0.0
  0
LINE
  5
98
102
{ACAD_REACTORS
330
3CC
102
}
330
1F
100
AcDbEntity
  8
LC-001-020-----0
 62
     7
370
    25
100
AcDbLine
 10
316.640076
 20
326.669497
 30
0.0
 11
318.140078
 21
328.169497
 31
0.0
  0
LINE
  5
99
102
{ACAD_REACTORS
330
3CC
102
}
330
1F
100
AcDbEntity
  8
LC-001-020-----0
 62
     7
370
    25
100
AcDbLine
 10
309.969324
 20
327.069816
 30
0.0
 11
311.465691
 21
328.566182
 31
0.0
  0
LINE
  5
9A
102
{ACAD_REACTORS
330
3CC
102
}
330
1F
100
AcDbEntity
  8
LC-001-020-----0
 62
     7
370
    25
100
AcDbLine
 10
302.89826
 20
327.069826
 30
0.0
 11
304.394628
 21
328.566191
 31
0.0
  0
LINE
  5
9B
102
{ACAD_REACTORS
330
3CC
102
}
330
1F
100
AcDbEntity
  8
LC-001-020-----0
 62
     7
370
    25
100
AcDbLine
 10
295.827197
 20
327.069835
 30
0.0
 11
297.327197
 21
328.569833
 31
0.0
  0
LINE
  5
9C
102
{ACAD_REACTORS
330
3CC
102
}
330
1F
100
AcDbEntity
  8
LC-001-020-----0
 62
     7
370
    25
100
AcDbLine
 10
295.756134
 20
334.069835
 30
0.0
 11
297.256134
 21
335.569833
 31
0.0
  0
LINE
  5
9D
102
{ACAD_REACTORS
330
3CC
102
}
330
1F
100
AcDbEntity
  8
LC-001-020-----0
 62
     7
370
    25
100
AcDbLine
 10
298.631244
 20
329.873878
 30
0.0
 11
300.131246
 21
331.373878
 31
0.0
  0
INSERT
  5
A5
330
1F
100
AcDbEntity
  8
LC-001-020-----0
 62
     7
370
    25
100
AcDbBlockReference
  2
*X33
 10
0.0
 20
0.0
 30
0.0
  0
LINE
  5
A6
102
{ACAD_REACTORS
330
3CC
102
}
330
1F
100
AcDbEntity
  8
LC-001-020-----0
 62
     7
370
    50
100
AcDbLine
 10
365.107194
 20
236.566458
 30
0.0
 11
318.139973
 21
236.566521
 31
0.0
  0
LINE
  5
A8
330
1F
100
AcDbEntity
  8
LC-002-002-----0
 62
     7
370
    50
100
AcDbLine
 10
380.140541
 20
328.566091
 30
0.0
 11
384.140543
 21
328.566091
 31
0.0
  0
LINE
  5
A9
330
1F
100
AcDbEntity
  8
LC-002-002-----0
 62
     7
370
    50
100
AcDbLine
 10
365.107194
 20
236.566458
 30
0.0
 11
366.639973
 21
236.566458
 31
0.0
  0
LINE
  5
AA
330
1F
100
AcDbEntity
  8
LC-002-002-----0
 62
     7
370
    50
100
AcDbLine
 10
380.108442
 20
312.641606
 30
0.0
 11
382.889999
 21
325.874639
 31
0.0
  0
INSERT
  5
BA
330
1F
100
AcDbEntity
  8
LC-003-005-----0
 62
     7
370
    25
100
AcDbBlockReference
  2
*X44
 10
0.0
 20
0.0
 30
0.0
  0
LINE
  5
BC
330
1F
100
AcDbEntity
  8
LC-004-001-----0
 62
     7
370
    25
100
AcDbLine
 10
432.14049
 20
326.566022
 30
0.0
 11
431.14049
 21
326.566028
 31
0.0
  0
INSERT
  5
C5
330
1F
100
AcDbEntity
  8
LC-003-005-----0
 62
     7
370
    25
100
AcDbBlockReference
  2
*X55
 10
0.0
 20
0.0
 30
0.0
  0
INSERT
  5
D6
330
1F
100
AcDbEntity
  8
LC-003-005-----0
 62
     7
370
    25
100
AcDbBlockReference
  2
*X66
 10
0.0
 20
0.0
 30
0.0
  0
LINE
  5
D7
330
1F
100
AcDbEntity
  8
LC-002-002-----0
 62
     7
370
    50
100
AcDbLine
 10
292.246915
 20
350.310874
 30
0.0
 11
292.246745
 21
421.811395
 31
0.0
  0
LINE
  5
D8
102
{ACAD_REACTORS
330
3D4
102
}
330
1F
100
AcDbEntity
  8
LC-002-002-----0
 62
     7
370
    50
100
AcDbLine
 10
292.246915
 20
361.810027
 30
0.0
 11
292.246745
 21
421.811395
 31
0.0
  0
LINE
  5
D9
102
{ACAD_REACTORS
330
3D3
102
}
330
1F
100
AcDbEntity
  8
LC-002-002-----0
 62
     7
370
    50
100
AcDbLine
 10
294.475147
 20
350.310874
 30
0.0
 11
294.474977
 21
410.811395
 31
0.0
  0
LINE
  5
DA
102
{ACAD_REACTORS
330
3D2
102
}
330
1F
100
AcDbEntity
  8
LC-002-002-----0
 62
     7
370
    50
100
AcDbLine
 10
433.016185
 20
350.310874
 30
0.0
 11
433.016008
 21
421.811459
 31
0.0
  0
LINE
  5
DB
102
{ACAD_REACTORS
330
3D1
102
}
330
1F
100
AcDbEntity
  8
LC-002-002-----0
 62
     7
370
    50
100
AcDbLine
 10
430.78792
 20
350.312014
 30
0.0
 11
430.787776
 21
410.811461
 31
0.0
  0
LINE
  5
DC
102
{ACAD_REACTORS
330
3D0
102
}
330
1F
100
AcDbEntity
  8
LC-002-002-----0
  6
DASHDOT
 62
     7
370
    25
100
AcDbLine
 10
362.631221
 20
217.069746
 30
0.0
 11
362.631221
 21
226.808332
 31
0.0
  0
LINE
  5
DD
102
{ACAD_REACTORS
330
3D0
102
}
330
1F
100
AcDbEntity
  8
LC-002-002-----0
 62
     7
370
    50
100
AcDbLine
 10
294.420712
 20
430.311395
 30
0.0
 11
362.630712
 21
430.311395
 31
0.0
  0
LINE
  5
DE
102
{ACAD_REACTORS
330
3D0
102
}
330
1F
100
AcDbEntity
  8
LC-002-002-----0
 62
     7
370
    50
100
AcDbLine
 10
294.420712
 20
410.811395
 30
0.0
 11
294.420712
 21
415.311395
 31
0.0
  0
LINE
  5
DF
102
{ACAD_REACTORS
330
3D0
102
}
330
1F
100
AcDbEntity
  8
LC-002-002-----0
 62
     7
370
    50
100
AcDbLine
 10
288.920712
 20
426.811395
 30
0.0
 11
288.920712
 21
421.811395
 31
0.0
  0
LINE
  5
E0
102
{ACAD_REACTORS
330
3D0
102
}
330
1F
100
AcDbEntity
  8
LC-002-002-----0
 62
     7
370
    50
100
AcDbLine
 10
288.920712
 20
421.811395
 30
0.0
 11
292.246745
 21
421.811395
 31
0.0
  0
LINE
  5
E1
102
{ACAD_REACTORS
330
3D0
102
}
330
1F
100
AcDbEntity
  8
LC-002-002-----0
 62
     7
370
    50
100
AcDbLine
 10
430.787788
 20
430.311461
 30
0.0
 11
362.630875
 21
430.311506
 31
0.0
  0
LINE
  5
E2
102
{ACAD_REACTORS
330
3D0
102
}
330
1F
100
AcDbEntity
  8
LC-002-002-----0
 62
     7
370
    50
100
AcDbLine
 10
430.787776
 20
410.811461
 30
0.0
 11
430.787778
 21
415.311461
 31
0.0
  0
LINE
  5
E3
102
{ACAD_REACTORS
330
3D0
102
}
330
1F
100
AcDbEntity
  8
LC-002-002-----0
 62
     7
370
    50
100
AcDbLine
 10
436.340869
 20
421.811457
 30
0.0
 11
433.016008
 21
421.811459
 31
0.0
  0
LINE
  5
E4
102
{ACAD_REACTORS
330
3D0
102
}
330
1F
100
AcDbEntity
  8
LC-002-002-----0
 62
     7
370
    50
100
AcDbLine
 10
288.920712
 20
440.311395
 30
0.0
 11
288.920712
 21
426.811395
 31
0.0
  0
LINE
  5
E5
102
{ACAD_REACTORS
330
3D0
102
}
330
1F
100
AcDbEntity
  8
LC-002-002-----0
 62
     7
370
    50
100
AcDbLine
 10
292.420712
 20
440.311395
 30
0.0
 11
288.920712
 21
440.311395
 31
0.0
  0
LINE
  5
E6
102
{ACAD_REACTORS
330
3D0
102
}
330
1F
100
AcDbEntity
  8
LC-002-002-----0
 62
     7
370
    50
100
AcDbLine
 10
294.420712
 20
440.311395
 30
0.0
 11
294.420712
 21
415.311395
 31
0.0
  0
LINE
  5
E7
102
{ACAD_REACTORS
330
3D0
102
}
330
1F
100
AcDbEntity
  8
LC-002-002-----0
 62
     7
370
    50
100
AcDbLine
 10
292.420712
 20
440.311395
 30
0.0
 11
294.420712
 21
440.311395
 31
0.0
  0
LINE
  5
E8
102
{ACAD_REACTORS
330
3D0
102
}
330
1F
100
AcDbEntity
  8
LC-002-002-----0
 62
     7
370
    50
100
AcDbLine
 10
430.787795
 20
440.311462
 30
0.0
 11
430.787778
 21
415.311461
 31
0.0
  0
LINE
  5
E9
102
{ACAD_REACTORS
330
3D0
102
}
330
1F
100
AcDbEntity
  8
LC-002-002-----0
 62
     7
370
    50
100
AcDbLine
 10
362.630881
 20
440.311506
 30
0.0
 11
427.340883
 21
440.311463
 31
0.0
  0
LINE
  5
EA
102
{ACAD_REACTORS
330
3D0
102
}
330
1F
100
AcDbEntity
  8
LC-002-002-----0
 62
     7
370
    50
100
AcDbLine
 10
436.287795
 20
440.31146
 30
0.0
 11
436.287783
 21
421.811457
 31
0.0
  0
LINE
  5
EB
102
{ACAD_REACTORS
330
3D0
102
}
330
1F
100
AcDbEntity
  8
LC-002-002-----0
 62
     7
370
    50
100
AcDbLine
 10
430.787795
 20
440.31146
 30
0.0
 11
436.287793
 21
440.31146
 31
0.0
  0
LINE
  5
EC
102
{ACAD_REACTORS
330
3D0
102
}
330
1F
100
AcDbEntity
  8
LC-002-002-----0
 62
     7
370
    50
100
AcDbLine
 10
288.920712
 20
428.811395
 30
0.0
 11
288.920712
 21
428.811395
 31
0.0
  0
LINE
  5
ED
102
{ACAD_REACTORS
330
3D0
102
}
330
1F
100
AcDbEntity
  8
LC-002-002-----0
 62
     7
370
    50
100
AcDbLine
 10
288.920712
 20
424.811395
 30
0.0
 11
288.920712
 21
424.552807
 31
0.0
  0
LINE
  5
EE
102
{ACAD_REACTORS
330
3D0
102
}
330
1F
100
AcDbEntity
  8
LC-002-002-----0
 62
     7
370
    50
100
AcDbLine
 10
362.630881
 20
435.311506
 30
0.0
 11
382.840881
 21
435.311506
 31
0.0
  0
LINE
  5
EF
102
{ACAD_REACTORS
330
3D0
102
}
330
1F
100
AcDbEntity
  8
LC-002-002-----0
 62
     7
370
    50
100
AcDbLine
 10
382.840881
 20
435.311506
 30
0.0
 11
382.840881
 21
437.311494
 31
0.0
  0
LINE
  5
F0
102
{ACAD_REACTORS
330
3D0
102
}
330
1F
100
AcDbEntity
  8
LC-002-002-----0
 62
     7
370
    50
100
AcDbLine
 10
390.840881
 20
437.311485
 30
0.0
 11
390.840881
 21
435.311492
 31
0.0
  0
LINE
  5
F1
102
{ACAD_REACTORS
330
3D0
102
}
330
1F
100
AcDbEntity
  8
LC-002-002-----0
 62
     7
370
    50
100
AcDbLine
 10
382.840881
 20
435.311492
 30
0.0
 11
392.340881
 21
435.311492
 31
0.0
  0
LINE
  5
F2
102
{ACAD_REACTORS
330
3D0
102
}
330
1F
100
AcDbEntity
  8
LC-002-002-----0
 62
     7
370
    50
100
AcDbLine
 10
392.340881
 20
435.311492
 30
0.0
 11
398.840881
 21
435.311492
 31
0.0
  0
LINE
  5
F3
102
{ACAD_REACTORS
330
3D0
102
}
330
1F
100
AcDbEntity
  8
LC-002-002-----0
 62
     7
370
    50
100
AcDbLine
 10
398.840881
 20
435.311492
 30
0.0
 11
398.840881
 21
437.311483
 31
0.0
  0
LINE
  5
F4
102
{ACAD_REACTORS
330
3D0
102
}
330
1F
100
AcDbEntity
  8
LC-002-002-----0
 62
     7
370
    50
100
AcDbLine
 10
406.840881
 20
437.311474
 30
0.0
 11
406.840881
 21
435.311481
 31
0.0
  0
LINE
  5
F5
102
{ACAD_REACTORS
330
3D0
102
}
330
1F
100
AcDbEntity
  8
LC-002-002-----0
 62
     7
370
    50
100
AcDbLine
 10
398.840881
 20
435.311481
 30
0.0
 11
408.340881
 21
435.311481
 31
0.0
  0
LINE
  5
F6
102
{ACAD_REACTORS
330
3D0
102
}
330
1F
100
AcDbEntity
  8
LC-002-002-----0
 62
     7
370
    50
100
AcDbLine
 10
408.340881
 20
435.311481
 30
0.0
 11
414.840881
 21
435.311481
 31
0.0
  0
LINE
  5
F7
102
{ACAD_REACTORS
330
3D0
102
}
330
1F
100
AcDbEntity
  8
LC-002-002-----0
 62
     7
370
    50
100
AcDbLine
 10
414.840881
 20
435.311481
 30
0.0
 11
414.840881
 21
437.311473
 31
0.0
  0
LINE
  5
F8
102
{ACAD_REACTORS
330
3D0
102
}
330
1F
100
AcDbEntity
  8
LC-002-002-----0
 62
     7
370
    50
100
AcDbLine
 10
422.840881
 20
437.311472
 30
0.0
 11
422.840881
 21
435.311481
 31
0.0
  0
LINE
  5
F9
102
{ACAD_REACTORS
330
3D0
102
}
330
1F
100
AcDbEntity
  8
LC-002-002-----0
 62
     7
370
    50
100
AcDbLine
 10
414.840881
 20
435.311481
 30
0.0
 11
424.340881
 21
435.311481
 31
0.0
  0
LINE
  5
FA
102
{ACAD_REACTORS
330
3D0
102
}
330
1F
100
AcDbEntity
  8
LC-002-002-----0
 62
     7
370
    50
100
AcDbLine
 10
430.340881
 20
435.311481
 30
0.0
 11
430.340881
 21
437.31146
 31
0.0
  0
ARC
  5
FB
102
{ACAD_REACTORS
330
3D0
102
}
330
1F
100
AcDbEntity
  8
LC-002-002-----0
 62
     7
370
    50
100
AcDbCircle
 10
379.840881
 20
437.311494
 30
0.0
 40
3.000000000000455
100
AcDbArc
 50
0.0
 51
89.999963
  0
ARC
  5
FC
102
{ACAD_REACTORS
330
3D0
102
}
330
1F
100
AcDbEntity
  8
LC-002-002-----0
 62
     7
370
    50
100
AcDbCircle
 10
395.840881
 20
437.311483
 30
0.0
 40
3.000000000000227
100
AcDbArc
 50
0.0
 51
89.999963
  0
ARC
  5
FD
102
{ACAD_REACTORS
330
3D0
102
}
330
1F
100
AcDbEntity
  8
LC-002-002-----0
 62
     7
370
    50
100
AcDbCircle
 10
393.840881
 20
437.311485
 30
0.0
 40
3.000000000000357
100
AcDbArc
 50
89.999963
 51
180.0
  0
ARC
  5
FE
102
{ACAD_REACTORS
330
3D0
102
}
330
1F
100
AcDbEntity
  8
LC-002-002-----0
 62
     7
370
    50
100
AcDbCircle
 10
411.840881
 20
437.311473
 30
0.0
 40
3.000000000000341
100
AcDbArc
 50
0.0
 51
89.999963
  0
ARC
  5
FF
102
{ACAD_REACTORS
330
3D0
102
}
330
1F
100
AcDbEntity
  8
LC-002-002-----0
 62
     7
370
    50
100
AcDbCircle
 10
409.840881
 20
437.311474
 30
0.0
 40
3.000000000000357
100
AcDbArc
 50
89.999963
 51
180.0
  0
ARC
  5
100
102
{ACAD_REACTORS
330
3D0
102
}
330
1F
100
AcDbEntity
  8
LC-002-002-----0
 62
     7
370
    50
100
AcDbCircle
 10
425.840881
 20
437.311464
 30
0.0
 40
3.000000000000186
100
AcDbArc
 50
89.999963
 51
179.999848
  0
ARC
  5
101
102
{ACAD_REACTORS
330
3D0
102
}
330
1F
100
AcDbEntity
  8
LC-002-002-----0
 62
     7
370
    50
100
AcDbCircle
 10
427.340881
 20
437.31146
 30
0.0
 40
3.000000000000341
100
AcDbArc
 50
0.0
 51
90.0
  0
LINE
  5
102
102
{ACAD_REACTORS
330
3D0
102
}
330
1F
100
AcDbEntity
  8
LC-002-002-----0
 62
     7
370
    50
100
AcDbLine
 10
379.840881
 20
438.811493
 30
0.0
 11
362.630881
 21
438.811493
 31
0.0
  0
ARC
  5
103
102
{ACAD_REACTORS
330
3D0
102
}
330
1F
100
AcDbEntity
  8
LC-002-002-----0
 62
     7
370
    50
100
AcDbCircle
 10
379.840881
 20
437.311493
 30
0.0
 40
1.500000000000171
100
AcDbArc
 50
0.0
 51
90.0
  0
LINE
  5
104
102
{ACAD_REACTORS
330
3D0
102
}
330
1F
100
AcDbEntity
  8
LC-002-002-----0
 62
     7
370
    50
100
AcDbLine
 10
381.340881
 20
437.311493
 30
0.0
 11
381.340881
 21
435.311506
 31
0.0
  0
ARC
  5
105
102
{ACAD_REACTORS
330
3D0
102
}
330
1F
100
AcDbEntity
  8
LC-002-002-----0
 62
     7
370
    50
100
AcDbCircle
 10
393.840881
 20
437.311492
 30
0.0
 40
1.500000000000114
100
AcDbArc
 50
90.0
 51
179.999848
  0
LINE
  5
106
102
{ACAD_REACTORS
330
3D0
102
}
330
1F
100
AcDbEntity
  8
LC-002-002-----0
 62
     7
370
    50
100
AcDbLine
 10
392.340881
 20
435.311492
 30
0.0
 11
392.340881
 21
437.311492
 31
0.0
  0
LINE
  5
107
102
{ACAD_REACTORS
330
3D0
102
}
330
1F
100
AcDbEntity
  8
LC-002-002-----0
 62
     7
370
    50
100
AcDbLine
 10
397.340881
 20
437.311492
 30
0.0
 11
397.340881
 21
435.311492
 31
0.0
  0
ARC
  5
108
102
{ACAD_REACTORS
330
3D0
102
}
330
1F
100
AcDbEntity
  8
LC-002-002-----0
 62
     7
370
    50
100
AcDbCircle
 10
395.840881
 20
437.311492
 30
0.0
 40
1.500000000000114
100
AcDbArc
 50
0.0
 51
89.999981
  0
LINE
  5
109
102
{ACAD_REACTORS
330
3D0
102
}
330
1F
100
AcDbEntity
  8
LC-002-002-----0
 62
     7
370
    50
100
AcDbLine
 10
393.840881
 20
438.811492
 30
0.0
 11
395.840881
 21
438.811492
 31
0.0
  0
ARC
  5
10A
102
{ACAD_REACTORS
330
3D0
102
}
330
1F
100
AcDbEntity
  8
LC-002-002-----0
 62
     7
370
    50
100
AcDbCircle
 10
409.840881
 20
437.311481
 30
0.0
 40
1.500000000000114
100
AcDbArc
 50
90.0
 51
179.999848
  0
LINE
  5
10B
102
{ACAD_REACTORS
330
3D0
102
}
330
1F
100
AcDbEntity
  8
LC-002-002-----0
 62
     7
370
    50
100
AcDbLine
 10
408.340881
 20
435.311481
 30
0.0
 11
408.340881
 21
437.311481
 31
0.0
  0
LINE
  5
10C
102
{ACAD_REACTORS
330
3D0
102
}
330
1F
100
AcDbEntity
  8
LC-002-002-----0
 62
     7
370
    50
100
AcDbLine
 10
413.340881
 20
437.311481
 30
0.0
 11
413.340881
 21
435.311481
 31
0.0
  0
ARC
  5
10D
102
{ACAD_REACTORS
330
3D0
102
}
330
1F
100
AcDbEntity
  8
LC-002-002-----0
 62
     7
370
    50
100
AcDbCircle
 10
411.840881
 20
437.311481
 30
0.0
 40
1.500000000000114
100
AcDbArc
 50
0.0
 51
89.999981
  0
LINE
  5
10E
102
{ACAD_REACTORS
330
3D0
102
}
330
1F
100
AcDbEntity
  8
LC-002-002-----0
 62
     7
370
    50
100
AcDbLine
 10
409.840881
 20
438.811481
 30
0.0
 11
411.840881
 21
438.811481
 31
0.0
  0
LINE
  5
10F
102
{ACAD_REACTORS
330
3D0
102
}
330
1F
100
AcDbEntity
  8
LC-002-002-----0
 62
     7
370
    50
100
AcDbLine
 10
424.340881
 20
435.311481
 30
0.0
 11
424.340881
 21
437.311481
 31
0.0
  0
ARC
  5
110
102
{ACAD_REACTORS
330
3D0
102
}
330
1F
100
AcDbEntity
  8
LC-002-002-----0
 62
     7
370
    50
100
AcDbCircle
 10
425.840881
 20
437.311481
 30
0.0
 40
1.500000000000194
100
AcDbArc
 50
89.999981
 51
180.0
  0
LINE
  5
111
102
{ACAD_REACTORS
330
3D0
102
}
330
1F
100
AcDbEntity
  8
LC-002-002-----0
 62
     7
370
    50
100
AcDbLine
 10
428.840881
 20
437.311481
 30
0.0
 11
428.840881
 21
435.311481
 31
0.0
  0
ARC
  5
112
102
{ACAD_REACTORS
330
3D0
102
}
330
1F
100
AcDbEntity
  8
LC-002-002-----0
 62
     7
370
    50
100
AcDbCircle
 10
427.340881
 20
437.311481
 30
0.0
 40
1.500000000000114
100
AcDbArc
 50
0.0
 51
89.999981
  0
LINE
  5
113
102
{ACAD_REACTORS
330
3D0
102
}
330
1F
100
AcDbEntity
  8
LC-002-002-----0
 62
     7
370
    50
100
AcDbLine
 10
425.840881
 20
438.811481
 30
0.0
 11
427.340881
 21
438.811481
 31
0.0
  0
LINE
  5
114
102
{ACAD_REACTORS
330
3D0
102
}
330
1F
100
AcDbEntity
  8
LC-002-002-----0
 62
     7
370
    50
100
AcDbLine
 10
428.840881
 20
435.311481
 30
0.0
 11
428.840881
 21
430.811481
 31
0.0
  0
LINE
  5
115
102
{ACAD_REACTORS
330
3D0
102
}
330
1F
100
AcDbEntity
  8
LC-002-002-----0
 62
     7
370
    50
100
AcDbLine
 10
428.840881
 20
430.811481
 30
0.0
 11
430.340881
 21
430.811481
 31
0.0
  0
LINE
  5
116
102
{ACAD_REACTORS
330
3D0
102
}
330
1F
100
AcDbEntity
  8
LC-002-002-----0
 62
     7
370
    50
100
AcDbLine
 10
430.340881
 20
430.811481
 30
0.0
 11
430.340881
 21
435.311481
 31
0.0
  0
LINE
  5
117
102
{ACAD_REACTORS
330
3D0
102
}
330
1F
100
AcDbEntity
  8
LC-002-002-----0
 62
     7
370
    50
100
AcDbLine
 10
362.631099
 20
435.311714
 30
0.0
 11
342.421099
 21
435.311728
 31
0.0
  0
LINE
  5
118
102
{ACAD_REACTORS
330
3D0
102
}
330
1F
100
AcDbEntity
  8
LC-002-002-----0
 62
     7
370
    50
100
AcDbLine
 10
342.421099
 20
435.311728
 30
0.0
 11
342.421101
 21
437.311716
 31
0.0
  0
LINE
  5
119
102
{ACAD_REACTORS
330
3D0
102
}
330
1F
100
AcDbEntity
  8
LC-002-002-----0
 62
     7
370
    50
100
AcDbLine
 10
334.421101
 20
437.311712
 30
0.0
 11
334.421099
 21
435.311719
 31
0.0
  0
LINE
  5
11A
102
{ACAD_REACTORS
330
3D0
102
}
330
1F
100
AcDbEntity
  8
LC-002-002-----0
 62
     7
370
    50
100
AcDbLine
 10
342.421099
 20
435.311714
 30
0.0
 11
332.921099
 21
435.31172
 31
0.0
  0
LINE
  5
11B
102
{ACAD_REACTORS
330
3D0
102
}
330
1F
100
AcDbEntity
  8
LC-002-002-----0
 62
     7
370
    50
100
AcDbLine
 10
332.921099
 20
435.31172
 30
0.0
 11
326.421099
 21
435.311724
 31
0.0
  0
LINE
  5
11C
102
{ACAD_REACTORS
330
3D0
102
}
330
1F
100
AcDbEntity
  8
LC-002-002-----0
 62
     7
370
    50
100
AcDbLine
 10
326.421099
 20
435.311724
 30
0.0
 11
326.421101
 21
437.311716
 31
0.0
  0
LINE
  5
11D
102
{ACAD_REACTORS
330
3D0
102
}
330
1F
100
AcDbEntity
  8
LC-002-002-----0
 62
     7
370
    50
100
AcDbLine
 10
318.421101
 20
437.311712
 30
0.0
 11
318.421099
 21
435.311719
 31
0.0
  0
LINE
  5
11E
102
{ACAD_REACTORS
330
3D0
102
}
330
1F
100
AcDbEntity
  8
LC-002-002-----0
 62
     7
370
    50
100
AcDbLine
 10
326.421099
 20
435.311714
 30
0.0
 11
316.921099
 21
435.31172
 31
0.0
  0
LINE
  5
11F
102
{ACAD_REACTORS
330
3D0
102
}
330
1F
100
AcDbEntity
  8
LC-002-002-----0
 62
     7
370
    50
100
AcDbLine
 10
316.921099
 20
435.31172
 30
0.0
 11
310.421099
 21
435.311724
 31
0.0
  0
LINE
  5
120
102
{ACAD_REACTORS
330
3D0
102
}
330
1F
100
AcDbEntity
  8
LC-002-002-----0
 62
     7
370
    50
100
AcDbLine
 10
310.421099
 20
435.311724
 30
0.0
 11
310.421101
 21
437.311716
 31
0.0
  0
LINE
  5
121
102
{ACAD_REACTORS
330
3D0
102
}
330
1F
100
AcDbEntity
  8
LC-002-002-----0
 62
     7
370
    50
100
AcDbLine
 10
302.421101
 20
437.31172
 30
0.0
 11
302.421099
 21
435.311729
 31
0.0
  0
LINE
  5
122
102
{ACAD_REACTORS
330
3D0
102
}
330
1F
100
AcDbEntity
  8
LC-002-002-----0
 62
     7
370
    50
100
AcDbLine
 10
310.421099
 20
435.311724
 30
0.0
 11
300.921099
 21
435.31173
 31
0.0
  0
ARC
  5
123
102
{ACAD_REACTORS
330
3D0
102
}
330
1F
100
AcDbEntity
  8
LC-002-002-----0
 62
     7
370
    50
100
AcDbCircle
 10
345.421101
 20
437.311714
 30
0.0
 40
3.000000000000455
100
AcDbArc
 50
90.0
 51
179.999944
  0
ARC
  5
124
102
{ACAD_REACTORS
330
3D0
102
}
330
1F
100
AcDbEntity
  8
LC-002-002-----0
 62
     7
370
    50
100
AcDbCircle
 10
329.421101
 20
437.311714
 30
0.0
 40
3.000000000000445
100
AcDbArc
 50
89.999981
 51
179.999963
  0
ARC
  5
125
102
{ACAD_REACTORS
330
3D0
102
}
330
1F
100
AcDbEntity
  8
LC-002-002-----0
 62
     7
370
    50
100
AcDbCircle
 10
331.421101
 20
437.311714
 30
0.0
 40
3.000000000000413
100
AcDbArc
 50
359.999963
 51
89.999906
  0
ARC
  5
126
102
{ACAD_REACTORS
330
3D0
102
}
330
1F
100
AcDbEntity
  8
LC-002-002-----0
 62
     7
370
    50
100
AcDbCircle
 10
313.421101
 20
437.311714
 30
0.0
 40
3.000000000000341
100
AcDbArc
 50
90.0
 51
179.999944
  0
ARC
  5
127
102
{ACAD_REACTORS
330
3D0
102
}
330
1F
100
AcDbEntity
  8
LC-002-002-----0
 62
     7
370
    50
100
AcDbCircle
 10
315.421101
 20
437.311714
 30
0.0
 40
3.000000000000413
100
AcDbArc
 50
359.999963
 51
89.999906
  0
ARC
  5
128
102
{ACAD_REACTORS
330
3D0
102
}
330
1F
100
AcDbEntity
  8
LC-002-002-----0
 62
     7
370
    50
100
AcDbCircle
 10
299.421101
 20
437.311714
 30
0.0
 40
3.000000000000561
100
AcDbArc
 50
0.000096
 51
90.0
  0
ARC
  5
129
102
{ACAD_REACTORS
330
3D0
102
}
330
1F
100
AcDbEntity
  8
LC-002-002-----0
 62
     7
370
    50
100
AcDbCircle
 10
297.921101
 20
437.311711
 30
0.0
 40
3.0000000000003
100
AcDbArc
 50
89.999963
 51
179.999944
  0
LINE
  5
12A
102
{ACAD_REACTORS
330
3D0
102
}
330
1F
100
AcDbEntity
  8
LC-002-002-----0
 62
     7
370
    50
100
AcDbLine
 10
345.421102
 20
438.811713
 30
0.0
 11
362.631102
 21
438.8117
 31
0.0
  0
ARC
  5
12B
102
{ACAD_REACTORS
330
3D0
102
}
330
1F
100
AcDbEntity
  8
LC-002-002-----0
 62
     7
370
    50
100
AcDbCircle
 10
345.421101
 20
437.311713
 30
0.0
 40
1.500000000000207
100
AcDbArc
 50
89.999963
 51
179.999944
  0
LINE
  5
12C
102
{ACAD_REACTORS
330
3D0
102
}
330
1F
100
AcDbEntity
  8
LC-002-002-----0
 62
     7
370
    50
100
AcDbLine
 10
343.921101
 20
437.311714
 30
0.0
 11
343.921099
 21
435.311727
 31
0.0
  0
ARC
  5
12D
102
{ACAD_REACTORS
330
3D0
102
}
330
1F
100
AcDbEntity
  8
LC-002-002-----0
 62
     7
370
    50
100
AcDbCircle
 10
331.421101
 20
437.311721
 30
0.0
 40
1.500000000000281
100
AcDbArc
 50
0.000096
 51
89.999963
  0
LINE
  5
12E
102
{ACAD_REACTORS
330
3D0
102
}
330
1F
100
AcDbEntity
  8
LC-002-002-----0
 62
     7
370
    50
100
AcDbLine
 10
332.921099
 20
435.31172
 30
0.0
 11
332.921101
 21
437.31172
 31
0.0
  0
LINE
  5
12F
102
{ACAD_REACTORS
330
3D0
102
}
330
1F
100
AcDbEntity
  8
LC-002-002-----0
 62
     7
370
    50
100
AcDbLine
 10
327.921101
 20
437.311723
 30
0.0
 11
327.921099
 21
435.311723
 31
0.0
  0
ARC
  5
130
102
{ACAD_REACTORS
330
3D0
102
}
330
1F
100
AcDbEntity
  8
LC-002-002-----0
 62
     7
370
    50
100
AcDbCircle
 10
329.421101
 20
437.311722
 30
0.0
 40
1.500000000000264
100
AcDbArc
 50
89.999963
 51
179.999963
  0
LINE
  5
131
102
{ACAD_REACTORS
330
3D0
102
}
330
1F
100
AcDbEntity
  8
LC-002-002-----0
 62
     7
370
    50
100
AcDbLine
 10
331.421102
 20
438.811721
 30
0.0
 11
329.421102
 21
438.811722
 31
0.0
  0
ARC
  5
132
102
{ACAD_REACTORS
330
3D0
102
}
330
1F
100
AcDbEntity
  8
LC-002-002-----0
 62
     7
370
    50
100
AcDbCircle
 10
315.421101
 20
437.311721
 30
0.0
 40
1.500000000000167
100
AcDbArc
 50
0.000096
 51
89.999963
  0
LINE
  5
133
102
{ACAD_REACTORS
330
3D0
102
}
330
1F
100
AcDbEntity
  8
LC-002-002-----0
 62
     7
370
    50
100
AcDbLine
 10
316.921099
 20
435.31172
 30
0.0
 11
316.921101
 21
437.31172
 31
0.0
  0
LINE
  5
134
102
{ACAD_REACTORS
330
3D0
102
}
330
1F
100
AcDbEntity
  8
LC-002-002-----0
 62
     7
370
    50
100
AcDbLine
 10
311.921101
 20
437.311723
 30
0.0
 11
311.921099
 21
435.311723
 31
0.0
  0
ARC
  5
135
102
{ACAD_REACTORS
330
3D0
102
}
330
1F
100
AcDbEntity
  8
LC-002-002-----0
 62
     7
370
    50
100
AcDbCircle
 10
313.421101
 20
437.311722
 30
0.0
 40
1.500000000000264
100
AcDbArc
 50
89.999963
 51
179.999963
  0
LINE
  5
136
102
{ACAD_REACTORS
330
3D0
102
}
330
1F
100
AcDbEntity
  8
LC-002-002-----0
 62
     7
370
    50
100
AcDbLine
 10
315.421102
 20
438.811721
 30
0.0
 11
313.421102
 21
438.811722
 31
0.0
  0
LINE
  5
137
102
{ACAD_REACTORS
330
3D0
102
}
330
1F
100
AcDbEntity
  8
LC-002-002-----0
 62
     7
370
    50
100
AcDbLine
 10
300.921099
 20
435.31173
 30
0.0
 11
300.921101
 21
437.31173
 31
0.0
  0
ARC
  5
138
102
{ACAD_REACTORS
330
3D0
102
}
330
1F
100
AcDbEntity
  8
LC-002-002-----0
 62
     7
370
    50
100
AcDbCircle
 10
299.421101
 20
437.311731
 30
0.0
 40
1.500000000000207
100
AcDbArc
 50
359.999963
 51
89.999888
  0
LINE
  5
139
102
{ACAD_REACTORS
330
3D0
102
}
330
1F
100
AcDbEntity
  8
LC-002-002-----0
 62
     7
370
    50
100
AcDbLine
 10
296.421101
 20
437.311733
 30
0.0
 11
296.421099
 21
435.311733
 31
0.0
  0
ARC
  5
13A
102
{ACAD_REACTORS
330
3D0
102
}
330
1F
100
AcDbEntity
  8
LC-002-002-----0
 62
     7
370
    50
100
AcDbCircle
 10
297.921101
 20
437.311732
 30
0.0
 40
1.500000000000264
100
AcDbArc
 50
89.999963
 51
179.999963
  0
LINE
  5
13B
102
{ACAD_REACTORS
330
3D0
102
}
330
1F
100
AcDbEntity
  8
LC-002-002-----0
 62
     7
370
    50
100
AcDbLine
 10
299.421102
 20
438.811731
 30
0.0
 11
297.921102
 21
438.811732
 31
0.0
  0
LINE
  5
13C
102
{ACAD_REACTORS
330
3D0
102
}
330
1F
100
AcDbEntity
  8
LC-002-002-----0
 62
     7
370
    50
100
AcDbLine
 10
296.421099
 20
435.311733
 30
0.0
 11
296.421097
 21
430.811733
 31
0.0
  0
LINE
  5
13D
102
{ACAD_REACTORS
330
3D0
102
}
330
1F
100
AcDbEntity
  8
LC-002-002-----0
 62
     7
370
    50
100
AcDbLine
 10
294.921097
 20
430.811734
 30
0.0
 11
294.921099
 21
435.311734
 31
0.0
  0
LINE
  5
13E
102
{ACAD_REACTORS
330
3D0
102
}
330
1F
100
AcDbEntity
  8
LC-002-002-----0
 62
     7
370
    50
100
AcDbLine
 10
294.921099
 20
435.311734
 30
0.0
 11
294.921101
 21
437.311713
 31
0.0
  0
LINE
  5
13F
102
{ACAD_REACTORS
330
3D0
102
}
330
1F
100
AcDbEntity
  8
LC-002-002-----0
 62
     7
370
    50
100
AcDbLine
 10
296.421097
 20
430.811733
 30
0.0
 11
294.921097
 21
430.811734
 31
0.0
  0
INSERT
  5
147
102
{ACAD_REACTORS
330
3D9
102
}
330
1F
100
AcDbEntity
  8
LC-003-005-----0
 62
     7
370
    25
100
AcDbBlockReference
  2
*X77
 10
0.0
 20
0.0
 30
0.0
  0
INSERT
  5
14E
102
{ACAD_REACTORS
330
3D9
102
}
330
1F
100
AcDbEntity
  8
LC-003-005-----0
 62
     7
370
    25
100
AcDbBlockReference
  2
*X88
 10
0.0
 20
0.0
 30
0.0
  0
INSERT
  5
155
102
{ACAD_REACTORS
330
3D9
102
}
330
1F
100
AcDbEntity
  8
LC-003-005-----0
 62
     7
370
    25
100
AcDbBlockReference
  2
*X99
 10
0.0
 20
0.0
 30
0.0
  0
INSERT
  5
15F
102
{ACAD_REACTORS
330
3D9
102
}
330
1F
100
AcDbEntity
  8
LC-003-005-----0
 62
     7
370
    25
100
AcDbBlockReference
  2
*X1010
 10
0.0
 20
0.0
 30
0.0
  0
INSERT
  5
169
102
{ACAD_REACTORS
330
3D9
102
}
330
1F
100
AcDbEntity
  8
LC-003-005-----0
 62
     7
370
    25
100
AcDbBlockReference
  2
*X1111
 10
0.0
 20
0.0
 30
0.0
  0
INSERT
  5
170
102
{ACAD_REACTORS
330
3D9
102
}
330
1F
100
AcDbEntity
  8
LC-003-005-----0
 62
     7
370
    25
100
AcDbBlockReference
  2
*X1212
 10
0.0
 20
0.0
 30
0.0
  0
INSERT
  5
177
102
{ACAD_REACTORS
330
3D9
102
}
330
1F
100
AcDbEntity
  8
LC-003-005-----0
 62
     7
370
    25
100
AcDbBlockReference
  2
*X1313
 10
0.0
 20
0.0
 30
0.0
  0
INSERT
  5
17F
102
{ACAD_REACTORS
330
3D9
102
}
330
1F
100
AcDbEntity
  8
LC-003-005-----0
 62
     7
370
    25
100
AcDbBlockReference
  2
*X1414
 10
0.0
 20
0.0
 30
0.0
  0
LINE
  5
180
330
1F
100
AcDbEntity
  8
LC-002-002-----0
 62
     7
370
    50
100
AcDbLine
 10
292.246915
 20
350.310874
 30
0.0
 11
433.016153
 21
350.310874
 31
0.0
  0
LINE
  5
181
330
1F
100
AcDbEntity
  8
LC-002-002-----0
 62
     7
370
    50
100
AcDbLine
 10
433.64
 20
252.615178
 30
0.0
 11
497.136057
 21
252.615178
 31
0.0
  0
LINE
  5
182
330
1F
100
AcDbEntity
  8
LC-004-001-----0
 62
     7
370
    50
100
AcDbLine
 10
500.136057
 20
255.115178
 30
0.0
 11
431.140016
 21
255.115178
 31
0.0
  0
LINE
  5
183
330
1F
100
AcDbEntity
  8
LC-002-002-----0
 62
     7
370
    50
100
AcDbLine
 10
500.136057
 20
326.760906
 30
0.0
 11
500.136057
 21
253.46945
 31
0.0
  0
LINE
  5
184
330
1F
100
AcDbEntity
  8
LC-002-002-----0
  6
DASHDOT
 62
     7
370
    25
100
AcDbLine
 10
457.788363
 20
290.115178
 30
0.0
 11
424.142183
 21
290.115178
 31
0.0
  0
LINE
  5
185
330
1F
100
AcDbEntity
  8
LC-002-002-----0
 62
     7
370
    50
100
AcDbLine
 10
497.136057
 20
327.564754
 30
0.0
 11
500.136057
 21
326.760906
 31
0.0
  0
LINE
  5
186
330
1F
100
AcDbEntity
  8
LC-002-002-----0
 62
     7
370
    25
100
AcDbLine
 10
317.530624
 20
477.964939
 30
0.0
 11
317.530624
 21
492.548451
 31
0.0
  0
LINE
  5
187
330
1F
100
AcDbEntity
  8
LC-002-002-----0
 62
     7
370
    25
100
AcDbLine
 10
317.530624
 20
492.548451
 30
0.0
 11
332.266497
 21
492.548451
 31
0.0
  0
LINE
  5
188
330
1F
100
AcDbEntity
  8
LC-002-002-----0
 62
     7
370
    25
100
AcDbLine
 10
317.530624
 20
477.964939
 30
0.0
 11
332.266497
 21
477.964939
 31
0.0
  0
LINE
  5
189
330
1F
100
AcDbEntity
  8
LC-002-002-----0
 62
     7
370
    25
100
AcDbLine
 10
332.266497
 20
477.964939
 30
0.0
 11
332.266497
 21
492.548451
 31
0.0
  0
LINE
  5
18A
102
{ACAD_REACTORS
330
3CC
102
}
330
1F
100
AcDbEntity
  8
LC-001-020-----0
 62
     7
370
    50
100
AcDbLine
 10
327.889912
 20
250.419733
 30
0.0
 11
327.889896
 21
236.566508
 31
0.0
  0
DIMENSION
  5
18E
330
1F
100
AcDbEntity
  8
LC-005-003-----0
 62
     7
370
    25
100
AcDbDimension
  2
*D15
 10
436.287795
 20
461.538
 30
0.0
 11
388.973399
 21
492.338
 31
0.0
 70
   160
  1
150
 71
     5
 42
147.367083
  3
LC-DIM-L-0140-02-02
100
AcDbAlignedDimension
 13
288.920712
 23
440.311395
 33
0.0
 14
436.287795
 24
440.31146
 34
0.0
100
AcDbRotatedDimension
  0
DIMENSION
  5
19C
330
1F
100
AcDbEntity
  8
LC-005-003-----0
 62
     7
370
    25
100
AcDbDimension
  2
*D16
 10
339.638253
 20
297.069703
 30
0.0
 11
308.838253
 21
168.696
 31
0.0
 70
   160
  1
60
 71
     5
 42
60.503254
 53
90.0
  3
LC-DIM-L-0140-02-02
100
AcDbAlignedDimension
 13
371.749235
 23
236.566449
 33
0.0
 14
395.140475
 24
297.069703
 34
0.0
 50
90.0
100
AcDbRotatedDimension
  0
LINE
  5
1AA
102
{ACAD_REACTORS
330
3D0
102
}
330
1F
100
AcDbEntity
  8
LC-002-002-----0
  6
DASHDOT
 62
     7
370
    25
100
AcDbLine
 10
362.631169
 20
226.808332
 30
0.0
 11
362.630881
 21
440.311506
 31
0.0
  0
LINE
  5
1AB
330
1F
100
AcDbEntity
  8
LC-002-002-----0
 62
     7
370
    25
100
AcDbLine
 10
316.639995
 20
255.958785
 30
0.0
 11
318.139997
 21
257.458784
 31
0.0
  0
LINE
  5
1AC
330
1F
100
AcDbEntity
  8
LC-002-002-----0
 62
     7
370
    25
100
AcDbLine
 10
316.639987
 20
248.887713
 30
0.0
 11
318.139989
 21
250.387713
 31
0.0
  0
LINE
  5
1AD
330
1F
100
AcDbEntity
  8
LC-002-002-----0
 62
     7
370
    25
100
AcDbLine
 10
316.64006
 20
312.527355
 30
0.0
 11
318.140062
 21
314.027355
 31
0.0
  0
LINE
  5
1AE
330
1F
100
AcDbEntity
  8
LC-002-002-----0
 62
     7
370
    50
100
AcDbLine
 10
451.835593
 20
346.265043
 30
0.0
 11
446.321184
 21
334.425731
 31
0.0
  0
ARC
  5
1B0
330
1F
100
AcDbEntity
  8
LC-006-002-RND-0
 62
     7
370
    50
100
AcDbCircle
 10
443.547498
 20
335.566272
 30
0.0
 40
2.999028000000749
100
AcDbArc
 50
270.0
 51
337.647512
  0
ARC
  5
1B1
330
1F
100
AcDbEntity
  8
LC-006-002-RND-0
 62
     7
370
    50
100
AcDbCircle
 10
437.998732
 20
337.565374
 30
0.0
 40
1.999352000000158
100
AcDbArc
 50
270.0
 51
0.0
  0
LINE
  5
1B2
330
1F
100
AcDbEntity
  8
LC-002-002-----0
 62
     7
370
    50
100
AcDbLine
 10
439.998084
 20
340.84172
 30
0.0
 11
439.998084
 21
337.565374
 31
0.0
  0
LINE
  5
1B3
330
1F
100
AcDbEntity
  8
LC-002-002-----0
 62
     7
370
    50
100
AcDbLine
 10
443.547498
 20
332.566994
 30
0.0
 11
434.93976
 21
332.566994
 31
0.0
  0
ARC
  5
1B4
330
1F
100
AcDbEntity
  8
LC-002-002-----0
 62
     7
370
    50
100
AcDbCircle
 10
433.640064
 20
334.071745
 30
0.0
 40
1.499514000000803
100
AcDbArc
 50
89.999925
 51
179.999925
  0
LINE
  5
1B5
330
1F
100
AcDbEntity
  8
LC-002-002-----0
 62
     7
370
    50
100
AcDbLine
 10
449.520398
 20
362.055536
 30
0.0
 11
449.520398
 21
348.193089
 31
0.0
  0
LINE
  5
1B6
330
1F
100
AcDbEntity
  8
LC-002-002-----0
 62
     7
370
    50
100
AcDbLine
 10
439.998084
 20
344.266362
 30
0.0
 11
439.998084
 21
343.140222
 31
0.0
  0
LINE
  5
1B7
330
1F
100
AcDbEntity
  8
LC-002-002-----0
 62
     7
370
    50
100
AcDbLine
 10
445.59367
 20
344.266362
 30
0.0
 11
439.998084
 21
344.266362
 31
0.0
  0
ARC
  5
1B8
330
1F
100
AcDbEntity
  8
LC-002-002-----0
 62
     7
370
    50
100
AcDbCircle
 10
439.994981
 20
341.990971
 30
0.0
 40
1.149254920722683
100
AcDbArc
 50
90.0
 51
270.0
  0
LINE
  5
1B9
330
1F
100
AcDbEntity
  8
LC-002-002-----0
 62
     7
370
    50
100
AcDbLine
 10
449.520398
 20
362.055536
 30
0.0
 11
451.238341
 21
362.055536
 31
0.0
  0
LINE
  5
1BA
330
1F
100
AcDbEntity
  8
LC-002-002-----0
 62
     7
370
    50
100
AcDbLine
 10
454.379723
 20
364.91276
 30
0.0
 11
454.379723
 21
357.289787
 31
0.0
  0
ARC
  5
1BB
330
1F
100
AcDbEntity
  8
LC-002-002-----0
 62
     7
370
    50
100
AcDbCircle
 10
462.330162
 20
388.771672
 30
0.0
 40
23.36150376404783
100
AcDbArc
 50
280.467361
 51
298.758543
  0
LINE
  5
1BC
330
1F
100
AcDbEntity
  8
LC-002-002-----0
 62
     7
370
    50
100
AcDbLine
 10
451.83562
 20
348.765327
 30
0.0
 11
451.835596
 21
346.992523
 31
0.0
  0
LINE
  5
1BD
330
1F
100
AcDbEntity
  8
LC-002-002-----0
 62
     7
370
    50
100
AcDbLine
 10
473.572268
 20
363.24796
 30
0.0
 11
457.762078
 21
362.142405
 31
0.0
  0
ARC
  5
1BE
330
1F
100
AcDbEntity
  8
LC-002-002-----0
 62
     7
370
    50
100
AcDbCircle
 10
452.835012
 20
357.289805
 30
0.0
 40
3.99740841990574
100
AcDbArc
 50
282.290407
 51
359.999748
  0
ARC
  5
1BF
330
1F
100
AcDbEntity
  8
LC-006-002-RND-0
 62
     7
370
    50
100
AcDbCircle
 10
453.299873
 20
357.302621
 30
0.0
 40
1.079850015200164
100
AcDbArc
 50
273.999997
 51
0.0
  0
ARC
  5
1C0
330
1F
100
AcDbEntity
  8
LC-002-002-----0
 62
     7
370
    50
100
AcDbCircle
 10
457.83179
 20
361.145487
 30
0.0
 40
0.9993521049763168
100
AcDbArc
 50
93.999997
 51
179.999748
  0
LINE
  5
1C1
330
1F
100
AcDbEntity
  8
LC-002-002-----0
 62
     7
370
    50
100
AcDbLine
 10
513.295824
 20
371.069602
 30
0.0
 11
473.569836
 21
368.291693
 31
0.0
  0
LINE
  5
1C2
330
1F
100
AcDbEntity
  8
LC-002-002-----0
 62
     7
370
    50
100
AcDbLine
 10
456.832437
 20
361.145491
 30
0.0
 11
456.832421
 21
357.289787
 31
0.0
  0
LINE
  5
1C3
330
1F
100
AcDbEntity
  8
LC-002-002-----0
 62
     7
370
    50
100
AcDbLine
 10
513.295824
 20
368.064225
 30
0.0
 11
480.597032
 21
365.777704
 31
0.0
  0
ARC
  5
1C4
330
1F
100
AcDbEntity
  8
LC-002-002-----0
 62
     7
370
    50
100
AcDbCircle
 10
453.834336
 20
351.34893
 30
0.0
 40
1.99870420995296
100
AcDbArc
 50
94.170914
 51
179.999733
  0
LINE
  5
1C5
330
1F
100
AcDbEntity
  8
LC-002-002-----0
 62
     7
370
    50
100
AcDbLine
 10
451.835632
 20
351.348939
 30
0.0
 11
451.835593
 21
346.265043
 31
0.0
  0
LINE
  5
1C6
330
1F
100
AcDbEntity
  8
LC-002-002-----0
 62
     7
370
    50
100
AcDbLine
 10
453.375199
 20
356.225401
 30
0.0
 11
451.238341
 21
356.075978
 31
0.0
  0
LINE
  5
1C7
330
1F
100
AcDbEntity
  8
LC-002-002-----0
 62
     7
370
    50
100
AcDbLine
 10
480.597032
 20
365.777704
 30
0.0
 11
473.569836
 21
363.282731
 31
0.0
  0
LINE
  5
1C8
330
1F
100
AcDbEntity
  8
LC-002-002-----0
 62
     7
370
    50
100
AcDbLine
 10
454.379723
 20
364.91276
 30
0.0
 11
466.574372
 21
365.798938
 31
0.0
  0
LINE
  5
1C9
330
1F
100
AcDbEntity
  8
LC-002-002-----0
 62
     7
370
    50
100
AcDbLine
 10
451.238341
 20
356.075978
 30
0.0
 11
451.238341
 21
362.055536
 31
0.0
  0
LINE
  5
1CA
330
1F
100
AcDbEntity
  8
LC-002-002-----0
 62
     7
370
    50
100
AcDbLine
 10
513.295824
 20
368.064225
 30
0.0
 11
513.295824
 21
371.069602
 31
0.0
  0
LINE
  5
1CB
330
1F
100
AcDbEntity
  8
LC-002-002-----0
 62
     7
370
    50
100
AcDbLine
 10
293.131134
 20
237.069843
 30
0.0
 11
293.131134
 21
334.071747
 31
0.0
  0
ARC
  5
1CC
330
1F
100
AcDbEntity
  8
LC-002-002-----0
 62
     7
370
    50
100
AcDbCircle
 10
291.622039
 20
334.071745
 30
0.0
 40
1.499514000000519
100
AcDbArc
 50
0.000075
 51
90.000075
  0
LINE
  5
1CD
330
1F
100
AcDbEntity
  8
LC-002-002-----0
 62
     7
370
    50
100
AcDbLine
 10
281.714605
 20
332.566994
 30
0.0
 11
290.631247
 21
332.566994
 31
0.0
  0
LINE
  5
1CE
330
1F
100
AcDbEntity
  8
LC-001-020-----0
 62
     7
370
    50
100
AcDbLine
 10
287.263371
 20
335.565983
 30
0.0
 11
291.622039
 21
335.566012
 31
0.0
  0
ARC
  5
1CF
330
1F
100
AcDbEntity
  8
LC-006-002-RND-0
 62
     7
370
    50
100
AcDbCircle
 10
287.263371
 20
337.565374
 30
0.0
 40
1.999352000000386
100
AcDbArc
 50
180.0
 51
270.0
  0
ARC
  5
1D0
330
1F
100
AcDbEntity
  8
LC-006-002-RND-0
 62
     7
370
    50
100
AcDbCircle
 10
287.263371
 20
337.565374
 30
0.0
 40
1.999352000000386
100
AcDbArc
 50
180.0
 51
270.0
  0
LINE
  5
1D1
330
1F
100
AcDbEntity
  8
LC-002-002-----0
 62
     7
370
    50
100
AcDbLine
 10
285.264019
 20
340.84172
 30
0.0
 11
285.264019
 21
337.565374
 31
0.0
  0
ARC
  5
1D2
330
1F
100
AcDbEntity
  8
LC-002-002-----0
 62
     7
370
    50
100
AcDbCircle
 10
285.267122
 20
341.990971
 30
0.0
 40
1.14925492072274
100
AcDbArc
 50
270.0
 51
90.0
  0
LINE
  5
1D3
330
1F
100
AcDbEntity
  8
LC-002-002-----0
 62
     7
370
    50
100
AcDbLine
 10
285.264019
 20
344.266362
 30
0.0
 11
285.264019
 21
343.140222
 31
0.0
  0
LINE
  5
1D4
330
1F
100
AcDbEntity
  8
LC-002-002-----0
 62
     7
370
    50
100
AcDbLine
 10
279.668432
 20
344.266362
 30
0.0
 11
285.264019
 21
344.266362
 31
0.0
  0
ARC
  5
1D5
330
1F
100
AcDbEntity
  8
LC-006-002-RND-0
 62
     7
370
    50
100
AcDbCircle
 10
279.668432
 20
348.193089
 30
0.0
 40
3.926727328000823
100
AcDbArc
 50
180.0
 51
270.0
  0
ARC
  5
1D6
330
1F
100
AcDbEntity
  8
LC-006-002-RND-0
 62
     7
370
    50
100
AcDbCircle
 10
281.714605
 20
335.566272
 30
0.0
 40
2.999028000000676
100
AcDbArc
 50
202.352488
 51
270.0
  0
LINE
  5
1D7
330
1F
100
AcDbEntity
  8
LC-002-002-----0
 62
     7
370
    50
100
AcDbLine
 10
273.42651
 20
346.265043
 30
0.0
 11
278.940919
 21
334.425731
 31
0.0
  0
LINE
  5
1D8
330
1F
100
AcDbEntity
  8
LC-002-002-----0
 62
     7
370
    50
100
AcDbLine
 10
211.966279
 20
368.064225
 30
0.0
 11
211.966279
 21
371.069602
 31
0.0
  0
LINE
  5
1D9
330
1F
100
AcDbEntity
  8
LC-002-002-----0
 62
     7
370
    50
100
AcDbLine
 10
211.966279
 20
371.069602
 30
0.0
 11
251.692266
 21
368.291693
 31
0.0
  0
LINE
  5
1DA
330
1F
100
AcDbEntity
  8
LC-002-002-----0
 62
     7
370
    50
100
AcDbLine
 10
211.966279
 20
368.064225
 30
0.0
 11
244.665071
 21
365.777704
 31
0.0
  0
LINE
  5
1DB
330
1F
100
AcDbEntity
  8
LC-002-002-----0
 62
     7
370
    50
100
AcDbLine
 10
244.665071
 20
365.777704
 30
0.0
 11
251.692266
 21
363.282731
 31
0.0
  0
ARC
  5
1DC
330
1F
100
AcDbEntity
  8
LC-002-002-----0
 62
     7
370
    50
100
AcDbCircle
 10
262.931941
 20
388.771672
 30
0.0
 40
23.36150376404855
100
AcDbArc
 50
241.241457
 51
259.532639
  0
LINE
  5
1DD
330
1F
100
AcDbEntity
  8
LC-002-002-----0
 62
     7
370
    50
100
AcDbLine
 10
270.88238
 20
364.91276
 30
0.0
 11
258.687731
 21
365.798938
 31
0.0
  0
LINE
  5
1DE
330
1F
100
AcDbEntity
  8
LC-002-002-----0
 62
     7
370
    50
100
AcDbLine
 10
251.689835
 20
363.24796
 30
0.0
 11
267.500024
 21
362.142405
 31
0.0
  0
ARC
  5
1DF
330
1F
100
AcDbEntity
  8
LC-002-002-----0
 62
     7
370
    50
100
AcDbCircle
 10
267.430313
 20
361.145487
 30
0.0
 40
0.9993521049763463
100
AcDbArc
 50
0.000252
 51
86.000003
  0
LINE
  5
1E0
330
1F
100
AcDbEntity
  8
LC-002-002-----0
 62
     7
370
    50
100
AcDbLine
 10
268.429665
 20
361.145491
 30
0.0
 11
268.429682
 21
357.289787
 31
0.0
  0
ARC
  5
1E1
330
1F
100
AcDbEntity
  8
LC-002-002-----0
 62
     7
370
    50
100
AcDbCircle
 10
272.427091
 20
357.289805
 30
0.0
 40
3.997408419905613
100
AcDbArc
 50
180.000252
 51
257.709593
  0
ARC
  5
1E2
330
1F
100
AcDbEntity
  8
LC-002-002-----0
 62
     7
370
    50
100
AcDbCircle
 10
271.427767
 20
351.34893
 30
0.0
 40
1.998704209952719
100
AcDbArc
 50
0.000267
 51
85.829086
  0
LINE
  5
1E3
330
1F
100
AcDbEntity
  8
LC-002-002-----0
 62
     7
370
    50
100
AcDbLine
 10
273.426471
 20
351.348939
 30
0.0
 11
273.42651
 21
346.265043
 31
0.0
  0
LINE
  5
1E4
330
1F
100
AcDbEntity
  8
LC-002-002-----0
 62
     7
370
    50
100
AcDbLine
 10
270.88238
 20
364.91276
 30
0.0
 11
270.88238
 21
357.289787
 31
0.0
  0
ARC
  5
1E5
330
1F
100
AcDbEntity
  8
LC-006-002-RND-0
 62
     7
370
    50
100
AcDbCircle
 10
271.96223
 20
357.302621
 30
0.0
 40
1.07985001520052
100
AcDbArc
 50
180.0
 51
266.000003
  0
LINE
  5
1E6
330
1F
100
AcDbEntity
  8
LC-002-002-----0
 62
     7
370
    50
100
AcDbLine
 10
271.886904
 20
356.225401
 30
0.0
 11
274.023762
 21
356.075978
 31
0.0
  0
LINE
  5
1E7
330
1F
100
AcDbEntity
  8
LC-002-002-----0
 62
     7
370
    50
100
AcDbLine
 10
274.023762
 20
356.075978
 30
0.0
 11
274.023762
 21
362.055536
 31
0.0
  0
LINE
  5
1E8
330
1F
100
AcDbEntity
  8
LC-002-002-----0
 62
     7
370
    50
100
AcDbLine
 10
275.741705
 20
362.055536
 30
0.0
 11
274.023762
 21
362.055536
 31
0.0
  0
LINE
  5
1E9
330
1F
100
AcDbEntity
  8
LC-002-002-----0
 62
     7
370
    50
100
AcDbLine
 10
275.741705
 20
362.055536
 30
0.0
 11
275.741705
 21
348.193089
 31
0.0
  0
INSERT
  5
212
330
1F
100
AcDbEntity
  8
LC-003-005-----0
 62
     7
370
    25
100
AcDbBlockReference
  2
*X1517
 10
0.0
 20
0.0
 30
0.0
  0
DIMENSION
  5
213
330
1F
100
AcDbEntity
  8
LC-005-003-----0
 62
     7
370
    25
100
AcDbDimension
  2
*D18
 10
196.973579
 20
217.069814
 30
0.0
 11
166.173579
 21
269.676
 31
0.0
 70
   160
  1
150
 71
     5
 42
150.994411
 53
90.0
  3
LC-DIM-L-0140-02-02
100
AcDbAlignedDimension
 13
211.966279
 23
368.064225
 33
0.0
 14
310.631108
 24
217.069814
 34
0.0
 50
90.0
100
AcDbRotatedDimension
  0
LINE
  5
220
102
{ACAD_REACTORS
330
3D0
102
}
330
1F
100
AcDbEntity
  8
LC-002-002-----0
 62
     7
370
    50
100
AcDbLine
 10
297.921101
 20
440.311395
 30
0.0
 11
362.630712
 21
440.311395
 31
0.0
  0
INSERT
  5
22F
330
1F
100
AcDbEntity
  8
LC-003-005-----0
 62
     7
370
    25
100
AcDbBlockReference
  2
*X1619
 10
0.0
 20
0.0
 30
0.0
  0
INSERT
  5
23E
330
1F
100
AcDbEntity
  8
LC-003-005-----0
 62
     7
370
    25
100
AcDbBlockReference
  2
*X1720
 10
0.0
 20
0.0
 30
0.0
  0
ARC
  5
23F
330
1F
100
AcDbEntity
  8
LC-006-002-RND-0
 62
     7
370
    50
100
AcDbCircle
 10
445.59367
 20
348.193089
 30
0.0
 40
3.926727328001221
100
AcDbArc
 50
270.0
 51
0.0
  0
ARC
  5
240
330
1F
100
AcDbEntity
  8
LC-006-002-RND-0
 62
     7
370
    50
100
AcDbCircle
 10
436.891556
 20
362.137951
 30
0.0
 40
1.500000000000085
100
AcDbArc
 50
94.156341
 51
180.0
  0
LINE
  5
241
330
1F
100
AcDbEntity
  8
LC-002-002-----0
 62
     7
370
    50
100
AcDbLine
 10
435.391556
 20
362.137951
 30
0.0
 11
435.391556
 21
347.266362
 31
0.0
  0
LINE
  5
242
330
1F
100
AcDbEntity
  8
LC-002-002-----0
 62
     7
370
    50
100
AcDbLine
 10
421.028972
 20
347.266362
 30
0.0
 11
438.641556
 21
347.266362
 31
0.0
  0
LINE
  5
243
330
1F
100
AcDbEntity
  8
LC-002-002-----0
 62
     7
370
    50
100
AcDbLine
 10
432.91746
 20
347.266362
 30
0.0
 11
432.91746
 21
344.266362
 31
0.0
  0
ARC
  5
244
330
1F
100
AcDbEntity
  8
LC-006-002-RND-0
 62
     7
370
    50
100
AcDbCircle
 10
440.141556
 20
345.766362
 30
0.0
 40
1.500000000000171
100
AcDbArc
 50
270.0
 51
0.0
  0
LINE
  5
245
330
1F
100
AcDbEntity
  8
LC-002-002-----0
 62
     7
370
    50
100
AcDbLine
 10
441.641556
 20
360.088034
 30
0.0
 11
441.641556
 21
345.766362
 31
0.0
  0
ARC
  5
246
330
1F
100
AcDbEntity
  8
LC-006-002-RND-0
 62
     7
370
    50
100
AcDbCircle
 10
443.141556
 20
360.088034
 30
0.0
 40
1.500000000000085
100
AcDbArc
 50
94.156341
 51
180.0
  0
LINE
  5
247
330
1F
100
AcDbEntity
  8
LC-002-002-----0
 62
     7
370
    50
100
AcDbLine
 10
443.032838
 20
361.584089
 30
0.0
 11
449.520398
 21
362.055536
 31
0.0
  0
LINE
  5
248
330
1F
100
AcDbEntity
  8
LC-002-002-----0
 62
     7
370
    50
100
AcDbLine
 10
440.141556
 20
344.266362
 30
0.0
 11
421.927766
 21
344.266362
 31
0.0
  0
LINE
  5
249
330
1F
100
AcDbEntity
  8
LC-002-002-----0
 62
     7
370
    50
100
AcDbLine
 10
438.641556
 20
347.266362
 30
0.0
 11
438.641556
 21
362.374126
 31
0.0
  0
ARC
  5
24A
330
1F
100
AcDbEntity
  8
LC-006-002-RND-0
 62
     7
370
    50
100
AcDbCircle
 10
440.141556
 20
362.374126
 30
0.0
 40
1.499999999999972
100
AcDbArc
 50
94.156341
 51
180.0
  0
LINE
  5
24B
330
1F
100
AcDbEntity
  8
LC-002-002-----0
 62
     7
370
    50
100
AcDbLine
 10
436.782838
 20
363.634006
 30
0.0
 11
454.379723
 21
364.91276
 31
0.0
  0
INSERT
  5
254
330
1F
100
AcDbEntity
  8
LC-003-005-----0
 62
     7
370
    25
100
AcDbBlockReference
  2
*X1821
 10
0.0
 20
0.0
 30
0.0
  0
LINE
  5
255
330
1F
100
AcDbEntity
  8
LC-002-002-----0
 62
     7
370
    50
100
AcDbLine
 10
289.864657
 20
362.143904
 30
0.0
 11
289.86344
 21
347.272315
 31
0.0
  0
ARC
  5
256
330
1F
100
AcDbEntity
  8
LC-006-002-RND-0
 62
     7
370
    50
100
AcDbCircle
 10
288.364657
 20
362.144027
 30
0.0
 40
1.500000000000103
100
AcDbArc
 50
359.995312
 51
85.838971
  0
LINE
  5
257
330
1F
100
AcDbEntity
  8
LC-002-002-----0
 62
     7
370
    50
100
AcDbLine
 10
288.473497
 20
363.640073
 30
0.0
 11
270.876717
 21
364.920267
 31
0.0
  0
ARC
  5
258
330
1F
100
AcDbEntity
  8
LC-006-002-RND-0
 62
     7
370
    50
100
AcDbCircle
 10
285.114676
 20
362.380468
 30
0.0
 40
1.499999999999989
100
AcDbArc
 50
359.995312
 51
85.838971
  0
LINE
  5
259
330
1F
100
AcDbEntity
  8
LC-002-002-----0
 62
     7
370
    50
100
AcDbLine
 10
286.61344
 20
347.272581
 30
0.0
 11
286.614676
 21
362.380345
 31
0.0
  0
LINE
  5
25A
330
1F
100
AcDbEntity
  8
LC-002-002-----0
 62
     7
370
    50
100
AcDbLine
 10
421.028972
 20
347.261584
 30
0.0
 11
286.61344
 21
347.272581
 31
0.0
  0
LINE
  5
25B
330
1F
100
AcDbEntity
  8
LC-002-002-----0
 62
     7
370
    50
100
AcDbLine
 10
292.337536
 20
347.272112
 30
0.0
 11
292.337291
 21
344.272112
 31
0.0
  0
LINE
  5
25C
330
1F
100
AcDbEntity
  8
LC-002-002-----0
 62
     7
370
    50
100
AcDbLine
 10
285.113195
 20
344.272703
 30
0.0
 11
421.927766
 21
344.26151
 31
0.0
  0
ARC
  5
25D
330
1F
100
AcDbEntity
  8
LC-006-002-RND-0
 62
     7
370
    50
100
AcDbCircle
 10
285.113318
 20
345.772703
 30
0.0
 40
1.500000000000103
100
AcDbArc
 50
179.995312
 51
269.995312
  0
LINE
  5
25E
330
1F
100
AcDbEntity
  8
LC-002-002-----0
 62
     7
370
    50
100
AcDbLine
 10
283.614489
 20
360.094498
 30
0.0
 11
283.613318
 21
345.772826
 31
0.0
  0
LINE
  5
25F
330
1F
100
AcDbEntity
  8
LC-002-002-----0
 62
     7
370
    50
100
AcDbLine
 10
282.223329
 20
361.590667
 30
0.0
 11
275.735808
 21
362.062645
 31
0.0
  0
ARC
  5
260
330
1F
100
AcDbEntity
  8
LC-006-002-RND-0
 62
     7
370
    50
100
AcDbCircle
 10
282.114489
 20
360.094621
 30
0.0
 40
1.500000000000159
100
AcDbArc
 50
359.995312
 51
85.838971
  0
INSERT
  5
269
330
1F
100
AcDbEntity
  8
LC-003-005-----0
 62
     7
370
    25
100
AcDbBlockReference
  2
*X1922
 10
0.0
 20
0.0
 30
0.0
  0
LINE
  5
26A
102
{ACAD_REACTORS
330
3D5
102
}
330
1F
100
AcDbEntity
  8
LC-001-020-----0
 62
     7
370
    50
100
AcDbLine
 10
433.639896
 20
237.069493
 30
0.0
 11
433.64
 21
252.615178
 31
0.0
  0
LINE
  5
26B
330
1F
100
AcDbEntity
  8
LC-004-001-----0
 62
     7
370
    50
100
AcDbLine
 10
431.14048
 20
325.064754
 30
0.0
 11
500.136057
 21
325.064754
 31
0.0
  0
LINE
  5
26C
330
1F
100
AcDbEntity
  8
LC-002-002-----0
 62
     7
370
    50
100
AcDbLine
 10
434.939753
 20
327.564754
 30
0.0
 11
434.93976
 21
332.566699
 31
0.0
  0
LINE
  5
26D
330
1F
100
AcDbEntity
  8
LC-002-002-----0
 62
     7
370
    50
100
AcDbLine
 10
434.939753
 20
327.564754
 30
0.0
 11
497.136057
 21
327.564754
 31
0.0
  0
LINE
  5
26E
330
1F
100
AcDbEntity
  8
LC-002-002-----0
 62
     7
370
    50
100
AcDbLine
 10
431.14049
 20
326.566028
 30
0.0
 11
431.14049
 21
325.064754
 31
0.0
  0
ARC
  5
26F
330
1F
100
AcDbEntity
  8
LC-002-002-----0
 62
     7
370
    50
100
AcDbCircle
 10
515.039307
 20
290.08941
 30
0.0
 40
90.89712754879676
100
AcDbArc
 50
157.369953
 51
202.657917
  0
LINE
  5
270
102
{ACAD_REACTORS
330
3D7
102
}
330
1F
100
AcDbEntity
  8
LC-002-002-----0
  6
DASHDOT
 62
     7
370
    25
100
AcDbLine
 10
512.856933
 20
290.115178
 30
0.0
 11
457.788363
 21
290.115178
 31
0.0
  0
DIMENSION
  5
271
330
1F
100
AcDbEntity
  8
LC-005-003-----0
 62
     7
370
    25
100
AcDbDimension
  2
*D23
 10
578.014671
 20
290.08941
 30
0.0
 11
547.214671
 21
322.542
 31
0.0
 70
   160
  1
80
 71
     5
 42
77.974815
 53
90.0
  3
LC-DIM-L-0140-02-02
100
AcDbAlignedDimension
 13
513.295824
 23
368.064225
 33
0.0
 14
515.039307
 24
290.08941
 34
0.0
 50
90.0
100
AcDbRotatedDimension
  0
DIMENSION
  5
27E
330
1F
100
AcDbEntity
  8
LC-005-003-----0
 62
     7
370
    25
100
AcDbDimension
  2
*D24
 10
513.295824
 20
520.0
 30
0.0
 11
362.631051
 21
550.8
 31
0.0
 70
   160
  1
%%c300
 71
     5
 42
301.329546
  3
LC-DIM-L-0140-02-02
100
AcDbAlignedDimension
 13
211.966279
 23
371.069602
 33
0.0
 14
513.295824
 24
476.223234
 34
0.0
100
AcDbRotatedDimension
  0
DIMENSION
  5
28B
330
1F
100
AcDbEntity
  8
LC-005-003-----0
 62
     7
370
    25
100
AcDbDimension
  2
*D25
 10
526.376918
 20
440.31146
 30
0.0
 11
495.576918
 21
414.018
 31
0.0
 70
   160
  1
20-70
 71
     5
 42
69.241858
 53
90.0
  3
LC-DIM-L-0140-02-02
100
AcDbAlignedDimension
 13
513.295824
 23
371.069602
 33
0.0
 14
519.739794
 24
440.31146
 34
0.0
 50
90.0
100
AcDbRotatedDimension
  0
LINE
  5
298
330
1F
100
AcDbEntity
  8
LC-002-002-----0
 62
     7
370
    25
100
AcDbLine
 10
436.287795
 20
440.31146
 30
0.0
 11
477.539127
 21
440.31146
 31
0.0
  0
LINE
  5
299
102
{ACAD_REACTORS
330
3D6
102
}
330
1F
100
AcDbEntity
  8
LC-002-002-----0
 62
     7
370
    50
100
AcDbLine
 10
461.636057
 20
229.114928
 30
0.0
 11
529.636057
 21
229.114928
 31
0.0
  0
LINE
  5
29A
102
{ACAD_REACTORS
330
3D6
102
}
330
1F
100
AcDbEntity
  8
LC-002-002-----0
 62
     7
370
    50
100
AcDbLine
 10
463.136057
 20
231.814928
 30
0.0
 11
534.136057
 21
231.814928
 31
0.0
  0
LINE
  5
29B
102
{ACAD_REACTORS
330
3D6
102
}
330
1F
100
AcDbEntity
  8
LC-002-002-----0
 62
     7
370
    50
100
AcDbLine
 10
460.136057
 20
230.614928
 30
0.0
 11
460.136057
 21
245.614928
 31
0.0
  0
LINE
  5
29C
102
{ACAD_REACTORS
330
3D6
102
}
330
1F
100
AcDbEntity
  8
LC-002-002-----0
 62
     7
370
    50
100
AcDbLine
 10
461.636057
 20
339.114928
 30
0.0
 11
529.636057
 21
339.114928
 31
0.0
  0
LINE
  5
29D
102
{ACAD_REACTORS
330
3D6
102
}
330
1F
100
AcDbEntity
  8
LC-002-002-----0
 62
     7
370
    50
100
AcDbLine
 10
534.136057
 20
230.3207
 30
0.0
 11
534.136057
 21
337.909157
 31
0.0
  0
LINE
  5
29E
102
{ACAD_REACTORS
330
3D6
102
}
330
1F
100
AcDbEntity
  8
LC-002-002-----0
 62
     7
370
    50
100
AcDbLine
 10
529.636057
 20
229.114928
 30
0.0
 11
534.136057
 21
230.3207
 31
0.0
  0
LINE
  5
29F
102
{ACAD_REACTORS
330
3D6
102
}
330
1F
100
AcDbEntity
  8
LC-002-002-----0
 62
     7
370
    50
100
AcDbLine
 10
529.636057
 20
339.114928
 30
0.0
 11
534.136057
 21
337.909157
 31
0.0
  0
LINE
  5
2A0
102
{ACAD_REACTORS
330
3D6
102
}
330
1F
100
AcDbEntity
  8
LC-002-002-----0
 62
     7
370
    50
100
AcDbLine
 10
463.136057
 20
336.414928
 30
0.0
 11
534.136057
 21
336.414928
 31
0.0
  0
LINE
  5
2A1
102
{ACAD_REACTORS
330
3D6
102
}
330
1F
100
AcDbEntity
  8
LC-002-002-----0
 62
     7
370
    50
100
AcDbLine
 10
463.136057
 20
231.814928
 30
0.0
 11
463.136057
 21
250.414928
 31
0.0
  0
LINE
  5
2A2
102
{ACAD_REACTORS
330
3D6
102
}
330
1F
100
AcDbEntity
  8
LC-002-002-----0
 62
     7
370
    50
100
AcDbLine
 10
445.136057
 20
250.414928
 30
0.0
 11
445.136057
 21
252.414928
 31
0.0
  0
LINE
  5
2A3
102
{ACAD_REACTORS
330
3D6
102
}
330
1F
100
AcDbEntity
  8
LC-002-002-----0
 62
     7
370
    50
100
AcDbLine
 10
453.169069
 20
334.114928
 30
0.0
 11
459.636057
 21
334.114928
 31
0.0
  0
LINE
  5
2A4
102
{ACAD_REACTORS
330
3D6
102
}
330
1F
100
AcDbEntity
  8
LC-002-002-----0
 62
     7
370
    50
100
AcDbLine
 10
453.169069
 20
246.114928
 30
0.0
 11
459.636057
 21
246.114928
 31
0.0
  0
LINE
  5
2A5
102
{ACAD_REACTORS
330
3D6
102
}
330
1F
100
AcDbEntity
  8
LC-002-002-----0
 62
     7
370
    50
100
AcDbLine
 10
497.136057
 20
252.414928
 30
0.0
 11
461.236057
 21
252.414928
 31
0.0
  0
LINE
  5
2A6
102
{ACAD_REACTORS
330
3D6
102
}
330
1F
100
AcDbEntity
  8
LC-002-002-----0
 62
     7
370
    50
100
AcDbLine
 10
497.136057
 20
327.814928
 30
0.0
 11
461.236057
 21
327.814928
 31
0.0
  0
LINE
  5
2A7
102
{ACAD_REACTORS
330
3D6
102
}
330
1F
100
AcDbEntity
  8
LC-002-002-----0
 62
     7
370
    50
100
AcDbLine
 10
500.136057
 20
250.414928
 30
0.0
 11
500.136057
 21
329.814928
 31
0.0
  0
LINE
  5
2A8
102
{ACAD_REACTORS
330
3D6
102
}
330
1F
100
AcDbEntity
  8
LC-002-002-----0
 62
     7
370
    50
100
AcDbLine
 10
500.136057
 20
250.414928
 30
0.0
 11
463.136057
 21
250.414928
 31
0.0
  0
LINE
  5
2A9
102
{ACAD_REACTORS
330
3D6
102
}
330
1F
100
AcDbEntity
  8
LC-002-002-----0
 62
     7
370
    50
100
AcDbLine
 10
500.136057
 20
329.814928
 30
0.0
 11
463.136057
 21
329.814928
 31
0.0
  0
LINE
  5
2AA
102
{ACAD_REACTORS
330
3D6
102
}
330
1F
100
AcDbEntity
  8
LC-002-002-----0
 62
     7
370
    50
100
AcDbLine
 10
463.136057
 20
329.814928
 30
0.0
 11
463.136057
 21
336.414928
 31
0.0
  0
LINE
  5
2AB
102
{ACAD_REACTORS
330
3D6
102
}
330
1F
100
AcDbEntity
  8
LC-002-002-----0
 62
     7
370
    50
100
AcDbLine
 10
460.136057
 20
334.614928
 30
0.0
 11
460.136057
 21
337.614928
 31
0.0
  0
LINE
  5
2AC
102
{ACAD_REACTORS
330
3D6
102
}
330
1F
100
AcDbEntity
  8
LC-002-002-----0
 62
     7
370
    50
100
AcDbLine
 10
448.377062
 20
250.414928
 30
0.0
 11
445.136057
 21
250.414928
 31
0.0
  0
LINE
  5
2AD
102
{ACAD_REACTORS
330
3D6
102
}
330
1F
100
AcDbEntity
  8
LC-002-002-----0
 62
     7
370
    50
100
AcDbLine
 10
448.377062
 20
329.814928
 30
0.0
 11
445.136057
 21
329.814928
 31
0.0
  0
LINE
  5
2AE
102
{ACAD_REACTORS
330
3D6
102
}
330
1F
100
AcDbEntity
  8
LC-002-002-----0
 62
     7
370
    50
100
AcDbLine
 10
461.236057
 20
247.864928
 30
0.0
 11
452.736057
 21
247.864928
 31
0.0
  0
LINE
  5
2AF
102
{ACAD_REACTORS
330
3D6
102
}
330
1F
100
AcDbEntity
  8
LC-002-002-----0
 62
     7
370
    50
100
AcDbLine
 10
461.236057
 20
332.364928
 30
0.0
 11
452.736057
 21
332.364928
 31
0.0
  0
LINE
  5
2B0
102
{ACAD_REACTORS
330
3D6
102
}
330
1F
100
AcDbEntity
  8
LC-002-002-----0
 62
     7
370
    50
100
AcDbLine
 10
450.109113
 20
252.414928
 30
0.0
 11
445.136057
 21
252.414928
 31
0.0
  0
LINE
  5
2B1
102
{ACAD_REACTORS
330
3D6
102
}
330
1F
100
AcDbEntity
  8
LC-002-002-----0
 62
     7
370
    50
100
AcDbLine
 10
450.109113
 20
327.814928
 30
0.0
 11
445.136057
 21
327.814928
 31
0.0
  0
LINE
  5
2B2
102
{ACAD_REACTORS
330
3D6
102
}
330
1F
100
AcDbEntity
  8
LC-002-002-----0
 62
     7
370
    50
100
AcDbLine
 10
450.109113
 20
252.414928
 30
0.0
 11
452.736057
 21
247.864928
 31
0.0
  0
LINE
  5
2B3
102
{ACAD_REACTORS
330
3D6
102
}
330
1F
100
AcDbEntity
  8
LC-002-002-----0
 62
     7
370
    50
100
AcDbLine
 10
450.109113
 20
327.814928
 30
0.0
 11
452.736057
 21
332.364928
 31
0.0
  0
LINE
  5
2B4
102
{ACAD_REACTORS
330
3D6
102
}
330
1F
100
AcDbEntity
  8
LC-002-002-----0
 62
     7
370
    50
100
AcDbLine
 10
449.243088
 20
249.914928
 30
0.0
 11
450.570993
 21
247.614928
 31
0.0
  0
LINE
  5
2B5
102
{ACAD_REACTORS
330
3D6
102
}
330
1F
100
AcDbEntity
  8
LC-002-002-----0
 62
     7
370
    50
100
AcDbLine
 10
449.243088
 20
330.314928
 30
0.0
 11
450.570993
 21
332.614928
 31
0.0
  0
LINE
  5
2B6
102
{ACAD_REACTORS
330
3D6
102
}
330
1F
100
AcDbEntity
  8
LC-002-002-----0
 62
     7
370
    50
100
AcDbLine
 10
497.136057
 20
252.414928
 30
0.0
 11
500.136057
 21
253.218776
 31
0.0
  0
LINE
  5
2B7
102
{ACAD_REACTORS
330
3D6
102
}
330
1F
100
AcDbEntity
  8
LC-002-002-----0
 62
     7
370
    50
100
AcDbLine
 10
497.136057
 20
327.814928
 30
0.0
 11
500.136057
 21
327.011081
 31
0.0
  0
ARC
  5
2B8
102
{ACAD_REACTORS
330
3D6
102
}
330
1F
100
AcDbEntity
  8
LC-006-002-RND-0
 62
     7
370
    50
100
AcDbCircle
 10
459.636057
 20
245.614928
 30
0.0
 40
0.5
100
AcDbArc
 50
0.0
 51
90.0
  0
ARC
  5
2B9
102
{ACAD_REACTORS
330
3D6
102
}
330
1F
100
AcDbEntity
  8
LC-006-002-RND-0
 62
     7
370
    50
100
AcDbCircle
 10
459.636057
 20
334.614928
 30
0.0
 40
0.5
100
AcDbArc
 50
270.0
 51
0.0
  0
ARC
  5
2BA
102
{ACAD_REACTORS
330
3D6
102
}
330
1F
100
AcDbEntity
  8
LC-006-002-RND-0
 62
     7
370
    50
100
AcDbCircle
 10
448.377062
 20
249.414928
 30
0.0
 40
0.9999999999999836
100
AcDbArc
 50
30.0
 51
90.0
  0
ARC
  5
2BB
102
{ACAD_REACTORS
330
3D6
102
}
330
1F
100
AcDbEntity
  8
LC-006-002-RND-0
 62
     7
370
    50
100
AcDbCircle
 10
448.377062
 20
330.814928
 30
0.0
 40
1.0
100
AcDbArc
 50
270.0
 51
330.0
  0
ARC
  5
2BC
102
{ACAD_REACTORS
330
3D6
102
}
330
1F
100
AcDbEntity
  8
LC-006-002-RND-0
 62
     7
370
    50
100
AcDbCircle
 10
448.377062
 20
249.414928
 30
0.0
 40
0.9999999999999836
100
AcDbArc
 50
30.0
 51
90.0
  0
ARC
  5
2BD
102
{ACAD_REACTORS
330
3D6
102
}
330
1F
100
AcDbEntity
  8
LC-006-002-RND-0
 62
     7
370
    50
100
AcDbCircle
 10
453.169069
 20
249.114928
 30
0.0
 40
2.999999999999965
100
AcDbArc
 50
210.0
 51
270.0
  0
ARC
  5
2BE
102
{ACAD_REACTORS
330
3D6
102
}
330
1F
100
AcDbEntity
  8
LC-006-002-RND-0
 62
     7
370
    50
100
AcDbCircle
 10
453.169069
 20
331.114928
 30
0.0
 40
3.0
100
AcDbArc
 50
90.0
 51
150.0
  0
ARC
  5
2BF
102
{ACAD_REACTORS
330
3D6
102
}
330
1F
100
AcDbEntity
  8
LC-006-002-RND-0
 62
     7
370
    50
100
AcDbCircle
 10
461.636057
 20
230.614928
 30
0.0
 40
1.5
100
AcDbArc
 50
180.0
 51
270.0
  0
ARC
  5
2C0
102
{ACAD_REACTORS
330
3D6
102
}
330
1F
100
AcDbEntity
  8
LC-006-002-RND-0
 62
     7
370
    50
100
AcDbCircle
 10
461.636057
 20
337.614928
 30
0.0
 40
1.5
100
AcDbArc
 50
90.0
 51
180.0
  0
LINE
  5
2C1
102
{ACAD_REACTORS
330
3D6
102
}
330
1F
100
AcDbEntity
  8
LC-002-002-----0
 62
     7
370
    50
100
AcDbLine
 10
461.236057
 20
247.864928
 30
0.0
 11
461.236057
 21
252.414928
 31
0.0
  0
LINE
  5
2C4
102
{ACAD_REACTORS
330
3D6
102
}
330
1F
100
AcDbEntity
  8
LC-007-006-MLN-0
 62
     7
370
    25
100
AcDbLine
 10
544.136057
 20
284.114928
 30
0.0
 11
490.136057
 21
284.114928
 31
0.0
  0
INSERT
  5
318
102
{ACAD_REACTORS
330
3D6
102
}
330
1F
100
AcDbEntity
  8
LC-003-005-----0
 62
     7
370
    25
100
AcDbBlockReference
  2
*X2026
 10
0.0
 20
0.0
 30
0.0
  0
LINE
  5
319
102
{ACAD_REACTORS
330
3D6
102
}
330
1F
100
AcDbEntity
  8
LC-002-002-----0
 62
     7
370
    25
100
AcDbLine
 10
450.570993
 20
332.614928
 30
0.0
 11
451.437019
 21
334.114928
 31
0.0
  0
LINE
  5
31A
102
{ACAD_REACTORS
330
3D6
102
}
330
1F
100
AcDbEntity
  8
LC-002-002-----0
 62
     7
370
    25
100
AcDbLine
 10
448.954412
 20
329.814928
 30
0.0
 11
448.377062
 21
329.814928
 31
0.0
  0
LINE
  5
31B
102
{ACAD_REACTORS
330
3D6
102
}
330
1F
100
AcDbEntity
  8
LC-002-002-----0
 62
     7
370
    25
100
AcDbLine
 10
448.954412
 20
329.814928
 30
0.0
 11
449.243088
 21
330.314928
 31
0.0
  0
LINE
  5
31C
102
{ACAD_REACTORS
330
3D6
102
}
330
1F
100
AcDbEntity
  8
LC-002-002-----0
 62
     7
370
    50
100
AcDbLine
 10
445.136057
 20
327.814928
 30
0.0
 11
445.136057
 21
329.814928
 31
0.0
  0
LINE
  5
31D
102
{ACAD_REACTORS
330
3D6
102
}
330
1F
100
AcDbEntity
  8
LC-002-002-----0
 62
     7
370
    50
100
AcDbLine
 10
461.236057
 20
327.814928
 30
0.0
 11
461.236057
 21
332.364928
 31
0.0
  0
LINE
  5
31F
102
{ACAD_REACTORS
330
3D8
102
}
330
1F
100
AcDbEntity
  8
LC-008-100-D00-0
 62
     7
370
    50
100
AcDbLine
 10
458.088961
 20
326.85149
 30
0.0
 11
455.04752
 21
328.607467
 31
0.0
  0
ARC
  5
320
102
{ACAD_REACTORS
330
3D8
102
}
330
1F
100
AcDbEntity
  8
LC-008-100-D00-0
 62
     7
370
    50
100
AcDbCircle
 10
455.527774
 20
329.778433
 30
0.0
 40
1.265625000000102
100
AcDbArc
 50
167.699734
 51
247.699734
  0
LINE
  5
321
102
{ACAD_REACTORS
330
3D8
102
}
330
1F
100
AcDbEntity
  8
LC-008-100-D00-0
 62
     7
370
    50
100
AcDbLine
 10
454.291202
 20
330.048055
 30
0.0
 11
454.797478
 21
331.439036
 31
0.0
  0
ARC
  5
322
102
{ACAD_REACTORS
330
3D8
102
}
330
1F
100
AcDbEntity
  8
LC-008-100-D00-0
 62
     7
370
    50
100
AcDbCircle
 10
455.511057
 20
331.179315
 30
0.0
 40
0.759375000000091
100
AcDbArc
 50
90.0
 51
160.0
  0
LINE
  5
323
102
{ACAD_REACTORS
330
3D8
102
}
330
1F
100
AcDbEntity
  8
LC-008-100-D00-0
 62
     7
370
    50
100
AcDbLine
 10
455.511057
 20
331.93869
 30
0.0
 11
455.737238
 21
331.93869
 31
0.0
  0
LINE
  5
324
102
{ACAD_REACTORS
330
3D8
102
}
330
1F
100
AcDbEntity
  8
LC-008-100-D00-0
 62
     7
370
    50
100
AcDbLine
 10
455.737238
 20
331.93869
 30
0.0
 11
455.955739
 21
332.395544
 31
0.0
  0
ARC
  5
325
102
{ACAD_REACTORS
330
3D8
102
}
330
1F
100
AcDbEntity
  8
LC-008-100-D00-0
 62
     7
370
    50
100
AcDbCircle
 10
456.032551
 20
332.358807
 30
0.0
 40
0.085144671124813
100
AcDbArc
 50
25.560506
 51
154.439494
  0
LINE
  5
326
102
{ACAD_REACTORS
330
3D8
102
}
330
1F
100
AcDbEntity
  8
LC-008-100-D00-0
 62
     7
370
    50
100
AcDbLine
 10
456.109362
 20
332.395544
 30
0.0
 11
456.327863
 21
331.93869
 31
0.0
  0
LINE
  5
327
102
{ACAD_REACTORS
330
3D8
102
}
330
1F
100
AcDbEntity
  8
LC-008-100-D00-0
 62
     7
370
    50
100
AcDbLine
 10
456.327863
 20
331.93869
 30
0.0
 11
456.918488
 21
331.93869
 31
0.0
  0
LINE
  5
328
102
{ACAD_REACTORS
330
3D8
102
}
330
1F
100
AcDbEntity
  8
LC-008-100-D00-0
 62
     7
370
    50
100
AcDbLine
 10
456.918488
 20
331.93869
 30
0.0
 11
457.137684
 21
332.396996
 31
0.0
  0
ARC
  5
329
102
{ACAD_REACTORS
330
3D8
102
}
330
1F
100
AcDbEntity
  8
LC-008-100-D00-0
 62
     7
370
    50
100
AcDbCircle
 10
457.213801
 20
332.360591
 30
0.0
 40
0.0843749999999833
100
AcDbArc
 50
25.560506
 51
154.439494
  0
LINE
  5
32A
102
{ACAD_REACTORS
330
3D8
102
}
330
1F
100
AcDbEntity
  8
LC-008-100-D00-0
 62
     7
370
    50
100
AcDbLine
 10
457.289918
 20
332.396996
 30
0.0
 11
457.509113
 21
331.93869
 31
0.0
  0
LINE
  5
32B
102
{ACAD_REACTORS
330
3D8
102
}
330
1F
100
AcDbEntity
  8
LC-008-100-D00-0
 62
     7
370
    50
100
AcDbLine
 10
457.509113
 20
331.93869
 30
0.0
 11
458.099738
 21
331.93869
 31
0.0
  0
LINE
  5
32C
102
{ACAD_REACTORS
330
3D8
102
}
330
1F
100
AcDbEntity
  8
LC-008-100-D00-0
 62
     7
370
    50
100
AcDbLine
 10
458.099738
 20
331.93869
 30
0.0
 11
458.318934
 21
332.396996
 31
0.0
  0
ARC
  5
32D
102
{ACAD_REACTORS
330
3D8
102
}
330
1F
100
AcDbEntity
  8
LC-008-100-D00-0
 62
     7
370
    50
100
AcDbCircle
 10
458.395051
 20
332.360591
 30
0.0
 40
0.0843750000000324
100
AcDbArc
 50
25.560506
 51
154.439494
  0
LINE
  5
32E
102
{ACAD_REACTORS
330
3D8
102
}
330
1F
100
AcDbEntity
  8
LC-008-100-D00-0
 62
     7
370
    50
100
AcDbLine
 10
458.471168
 20
332.396996
 30
0.0
 11
458.690363
 21
331.93869
 31
0.0
  0
LINE
  5
32F
102
{ACAD_REACTORS
330
3D8
102
}
330
1F
100
AcDbEntity
  8
LC-008-100-D00-0
 62
     7
370
    50
100
AcDbLine
 10
458.690363
 20
331.93869
 30
0.0
 11
459.280988
 21
331.93869
 31
0.0
  0
LINE
  5
330
102
{ACAD_REACTORS
330
3D8
102
}
330
1F
100
AcDbEntity
  8
LC-008-100-D00-0
 62
     7
370
    50
100
AcDbLine
 10
459.280988
 20
331.93869
 30
0.0
 11
459.451032
 21
332.294227
 31
0.0
  0
ARC
  5
331
102
{ACAD_REACTORS
330
3D8
102
}
330
1F
100
AcDbEntity
  8
LC-008-100-D00-0
 62
     7
370
    50
100
AcDbCircle
 10
459.527149
 20
332.257822
 30
0.0
 40
0.0843750000000324
100
AcDbArc
 50
25.560506
 51
154.439494
  0
LINE
  5
332
102
{ACAD_REACTORS
330
3D8
102
}
330
1F
100
AcDbEntity
  8
LC-008-100-D00-0
 62
     7
370
    50
100
AcDbLine
 10
459.603266
 20
332.294227
 30
0.0
 11
459.77331
 21
331.93869
 31
0.0
  0
LINE
  5
333
102
{ACAD_REACTORS
330
3D8
102
}
330
1F
100
AcDbEntity
  8
LC-008-100-D00-0
 62
     7
370
    50
100
AcDbLine
 10
459.77331
 20
331.93869
 30
0.0
 11
459.975524
 21
331.93869
 31
0.0
  0
ARC
  5
334
102
{ACAD_REACTORS
330
3D8
102
}
330
1F
100
AcDbEntity
  8
LC-008-100-D00-0
 62
     7
370
    50
100
AcDbCircle
 10
459.975524
 20
331.179315
 30
0.0
 40
0.75937500000002
100
AcDbArc
 50
10.0
 51
90.0
  0
LINE
  5
335
102
{ACAD_REACTORS
330
3D8
102
}
330
1F
100
AcDbEntity
  8
LC-008-100-D00-0
 62
     7
370
    50
100
AcDbLine
 10
460.723362
 20
331.311179
 30
0.0
 11
460.843399
 21
330.630414
 31
0.0
  0
LINE
  5
336
102
{ACAD_REACTORS
330
3D8
102
}
330
1F
100
AcDbEntity
  8
LC-008-100-D00-0
 62
     7
370
    50
100
AcDbLine
 10
460.843399
 20
330.630414
 30
0.0
 11
460.843399
 21
328.821057
 31
0.0
  0
ARC
  5
337
102
{ACAD_REACTORS
330
3D8
102
}
330
1F
100
AcDbEntity
  8
LC-008-100-D00-0
 62
     7
370
    50
100
AcDbCircle
 10
460.505899
 20
328.821057
 30
0.0
 40
0.3375000000000777
100
AcDbArc
 50
260.0
 51
0.0
  0
LINE
  5
338
102
{ACAD_REACTORS
330
3D8
102
}
330
1F
100
AcDbEntity
  8
LC-008-100-D00-0
 62
     7
370
    50
100
AcDbLine
 10
460.447293
 20
328.488685
 30
0.0
 11
458.881917
 21
328.764703
 31
0.0
  0
ARC
  5
339
102
{ACAD_REACTORS
330
3D8
102
}
330
1F
100
AcDbEntity
  8
LC-008-100-D00-0
 62
     7
370
    50
100
AcDbCircle
 10
458.850383
 20
328.513549
 30
0.0
 40
0.2531250000000273
100
AcDbArc
 50
82.843677
 51
160.0
  0
LINE
  5
33A
102
{ACAD_REACTORS
330
3D8
102
}
330
1F
100
AcDbEntity
  8
LC-008-100-D00-0
 62
     7
370
    50
100
AcDbLine
 10
458.612523
 20
328.600123
 30
0.0
 11
458.411424
 21
328.047606
 31
0.0
  0
ARC
  5
33B
102
{ACAD_REACTORS
330
3D8
102
}
330
1F
100
AcDbEntity
  8
LC-008-100-D00-0
 62
     7
370
    50
100
AcDbCircle
 10
458.649283
 20
327.961032
 30
0.0
 40
0.2531249999999795
100
AcDbArc
 50
160.0
 51
190.241215
  0
LINE
  5
33C
102
{ACAD_REACTORS
330
3D8
102
}
330
1F
100
AcDbEntity
  8
LC-008-100-D00-0
 62
     7
370
    50
100
AcDbLine
 10
458.400191
 20
327.916029
 30
0.0
 11
458.583711
 21
327.231125
 31
0.0
  0
ARC
  5
33D
102
{ACAD_REACTORS
330
3D8
102
}
330
1F
100
AcDbEntity
  8
LC-008-100-D00-0
 62
     7
370
    50
100
AcDbCircle
 10
458.257711
 20
327.143774
 30
0.0
 40
0.3375000000001713
100
AcDbArc
 50
240.0
 51
15.0
  0
INSERT
  5
348
102
{ACAD_REACTORS
330
3D8
102
}
330
1F
100
AcDbEntity
  8
LC-008-100-D00-0
 62
     7
370
    25
100
AcDbBlockReference
  2
KLON1
 10
0.0
 20
0.0
 30
0.0
  0
LINE
  5
349
102
{ACAD_REACTORS
330
3DA
102
}
330
1F
100
AcDbEntity
  8
LC-008-100-D00-0
 62
     7
370
    50
100
AcDbLine
 10
458.088961
 20
253.378866
 30
0.0
 11
455.04752
 21
251.62289
 31
0.0
  0
ARC
  5
34A
102
{ACAD_REACTORS
330
3DA
102
}
330
1F
100
AcDbEntity
  8
LC-008-100-D00-0
 62
     7
370
    50
100
AcDbCircle
 10
455.527774
 20
250.451923
 30
0.0
 40
1.265625000000096
100
AcDbArc
 50
112.300266
 51
192.300266
  0
LINE
  5
34B
102
{ACAD_REACTORS
330
3DA
102
}
330
1F
100
AcDbEntity
  8
LC-008-100-D00-0
 62
     7
370
    50
100
AcDbLine
 10
454.291202
 20
250.182301
 30
0.0
 11
454.797478
 21
248.79132
 31
0.0
  0
ARC
  5
34C
102
{ACAD_REACTORS
330
3DA
102
}
330
1F
100
AcDbEntity
  8
LC-008-100-D00-0
 62
     7
370
    50
100
AcDbCircle
 10
455.511057
 20
249.051042
 30
0.0
 40
0.7593750000000938
100
AcDbArc
 50
200.0
 51
270.0
  0
LINE
  5
34D
102
{ACAD_REACTORS
330
3DA
102
}
330
1F
100
AcDbEntity
  8
LC-008-100-D00-0
 62
     7
370
    50
100
AcDbLine
 10
455.511057
 20
248.291667
 30
0.0
 11
455.737238
 21
248.291667
 31
0.0
  0
LINE
  5
34E
102
{ACAD_REACTORS
330
3DA
102
}
330
1F
100
AcDbEntity
  8
LC-008-100-D00-0
 62
     7
370
    50
100
AcDbLine
 10
455.737238
 20
248.291667
 30
0.0
 11
455.955739
 21
247.834812
 31
0.0
  0
ARC
  5
34F
102
{ACAD_REACTORS
330
3DA
102
}
330
1F
100
AcDbEntity
  8
LC-008-100-D00-0
 62
     7
370
    50
100
AcDbCircle
 10
456.032551
 20
247.871549
 30
0.0
 40
0.085144671124813
100
AcDbArc
 50
205.560506
 51
334.439494
  0
LINE
  5
350
102
{ACAD_REACTORS
330
3DA
102
}
330
1F
100
AcDbEntity
  8
LC-008-100-D00-0
 62
     7
370
    50
100
AcDbLine
 10
456.109362
 20
247.834812
 30
0.0
 11
456.327863
 21
248.291667
 31
0.0
  0
LINE
  5
351
102
{ACAD_REACTORS
330
3DA
102
}
330
1F
100
AcDbEntity
  8
LC-008-100-D00-0
 62
     7
370
    50
100
AcDbLine
 10
456.327863
 20
248.291667
 30
0.0
 11
456.918488
 21
248.291667
 31
0.0
  0
LINE
  5
352
102
{ACAD_REACTORS
330
3DA
102
}
330
1F
100
AcDbEntity
  8
LC-008-100-D00-0
 62
     7
370
    50
100
AcDbLine
 10
456.918488
 20
248.291667
 30
0.0
 11
457.137684
 21
247.833361
 31
0.0
  0
ARC
  5
353
102
{ACAD_REACTORS
330
3DA
102
}
330
1F
100
AcDbEntity
  8
LC-008-100-D00-0
 62
     7
370
    50
100
AcDbCircle
 10
457.213801
 20
247.869765
 30
0.0
 40
0.0843749999999566
100
AcDbArc
 50
205.560506
 51
334.439494
  0
LINE
  5
354
102
{ACAD_REACTORS
330
3DA
102
}
330
1F
100
AcDbEntity
  8
LC-008-100-D00-0
 62
     7
370
    50
100
AcDbLine
 10
457.289918
 20
247.833361
 30
0.0
 11
457.509113
 21
248.291667
 31
0.0
  0
LINE
  5
355
102
{ACAD_REACTORS
330
3DA
102
}
330
1F
100
AcDbEntity
  8
LC-008-100-D00-0
 62
     7
370
    50
100
AcDbLine
 10
457.509113
 20
248.291667
 30
0.0
 11
458.099738
 21
248.291667
 31
0.0
  0
LINE
  5
356
102
{ACAD_REACTORS
330
3DA
102
}
330
1F
100
AcDbEntity
  8
LC-008-100-D00-0
 62
     7
370
    50
100
AcDbLine
 10
458.099738
 20
248.291667
 30
0.0
 11
458.318934
 21
247.833361
 31
0.0
  0
ARC
  5
357
102
{ACAD_REACTORS
330
3DA
102
}
330
1F
100
AcDbEntity
  8
LC-008-100-D00-0
 62
     7
370
    50
100
AcDbCircle
 10
458.395051
 20
247.869765
 30
0.0
 40
0.0843750000000513
100
AcDbArc
 50
205.560506
 51
334.439494
  0
LINE
  5
358
102
{ACAD_REACTORS
330
3DA
102
}
330
1F
100
AcDbEntity
  8
LC-008-100-D00-0
 62
     7
370
    50
100
AcDbLine
 10
458.471168
 20
247.833361
 30
0.0
 11
458.690363
 21
248.291667
 31
0.0
  0
LINE
  5
359
102
{ACAD_REACTORS
330
3DA
102
}
330
1F
100
AcDbEntity
  8
LC-008-100-D00-0
 62
     7
370
    50
100
AcDbLine
 10
458.690363
 20
248.291667
 30
0.0
 11
459.280988
 21
248.291667
 31
0.0
  0
LINE
  5
35A
102
{ACAD_REACTORS
330
3DA
102
}
330
1F
100
AcDbEntity
  8
LC-008-100-D00-0
 62
     7
370
    50
100
AcDbLine
 10
459.280988
 20
248.291667
 30
0.0
 11
459.451032
 21
247.93613
 31
0.0
  0
ARC
  5
35B
102
{ACAD_REACTORS
330
3DA
102
}
330
1F
100
AcDbEntity
  8
LC-008-100-D00-0
 62
     7
370
    50
100
AcDbCircle
 10
459.527149
 20
247.972535
 30
0.0
 40
0.0843750000000369
100
AcDbArc
 50
205.560506
 51
334.439494
  0
LINE
  5
35C
102
{ACAD_REACTORS
330
3DA
102
}
330
1F
100
AcDbEntity
  8
LC-008-100-D00-0
 62
     7
370
    50
100
AcDbLine
 10
459.603266
 20
247.93613
 30
0.0
 11
459.77331
 21
248.291667
 31
0.0
  0
LINE
  5
35D
102
{ACAD_REACTORS
330
3DA
102
}
330
1F
100
AcDbEntity
  8
LC-008-100-D00-0
 62
     7
370
    50
100
AcDbLine
 10
459.77331
 20
248.291667
 30
0.0
 11
459.975524
 21
248.291667
 31
0.0
  0
ARC
  5
35E
102
{ACAD_REACTORS
330
3DA
102
}
330
1F
100
AcDbEntity
  8
LC-008-100-D00-0
 62
     7
370
    50
100
AcDbCircle
 10
459.975524
 20
249.051042
 30
0.0
 40
0.7593750000000341
100
AcDbArc
 50
270.0
 51
350.0
  0
LINE
  5
35F
102
{ACAD_REACTORS
330
3DA
102
}
330
1F
100
AcDbEntity
  8
LC-008-100-D00-0
 62
     7
370
    50
100
AcDbLine
 10
460.723362
 20
248.919178
 30
0.0
 11
460.843399
 21
249.599943
 31
0.0
  0
LINE
  5
360
102
{ACAD_REACTORS
330
3DA
102
}
330
1F
100
AcDbEntity
  8
LC-008-100-D00-0
 62
     7
370
    50
100
AcDbLine
 10
460.843399
 20
249.599943
 30
0.0
 11
460.843399
 21
251.409299
 31
0.0
  0
ARC
  5
361
102
{ACAD_REACTORS
330
3DA
102
}
330
1F
100
AcDbEntity
  8
LC-008-100-D00-0
 62
     7
370
    50
100
AcDbCircle
 10
460.505899
 20
251.409299
 30
0.0
 40
0.337500000000091
100
AcDbArc
 50
0.0
 51
100.0
  0
LINE
  5
362
102
{ACAD_REACTORS
330
3DA
102
}
330
1F
100
AcDbEntity
  8
LC-008-100-D00-0
 62
     7
370
    50
100
AcDbLine
 10
460.447293
 20
251.741672
 30
0.0
 11
458.881917
 21
251.465654
 31
0.0
  0
ARC
  5
363
102
{ACAD_REACTORS
330
3DA
102
}
330
1F
100
AcDbEntity
  8
LC-008-100-D00-0
 62
     7
370
    50
100
AcDbCircle
 10
458.850383
 20
251.716807
 30
0.0
 40
0.2531250000000184
100
AcDbArc
 50
200.0
 51
277.156323
  0
LINE
  5
364
102
{ACAD_REACTORS
330
3DA
102
}
330
1F
100
AcDbEntity
  8
LC-008-100-D00-0
 62
     7
370
    50
100
AcDbLine
 10
458.612523
 20
251.630233
 30
0.0
 11
458.411424
 21
252.18275
 31
0.0
  0
ARC
  5
365
102
{ACAD_REACTORS
330
3DA
102
}
330
1F
100
AcDbEntity
  8
LC-008-100-D00-0
 62
     7
370
    50
100
AcDbCircle
 10
458.649283
 20
252.269324
 30
0.0
 40
0.2531250000000031
100
AcDbArc
 50
169.758785
 51
200.0
  0
LINE
  5
366
102
{ACAD_REACTORS
330
3DA
102
}
330
1F
100
AcDbEntity
  8
LC-008-100-D00-0
 62
     7
370
    50
100
AcDbLine
 10
458.400191
 20
252.314328
 30
0.0
 11
458.583711
 21
252.999231
 31
0.0
  0
ARC
  5
367
102
{ACAD_REACTORS
330
3DA
102
}
330
1F
100
AcDbEntity
  8
LC-008-100-D00-0
 62
     7
370
    50
100
AcDbCircle
 10
458.257711
 20
253.086583
 30
0.0
 40
0.3375000000001837
100
AcDbArc
 50
345.0
 51
120.0
  0
INSERT
  5
372
102
{ACAD_REACTORS
330
3DA
102
}
330
1F
100
AcDbEntity
  8
LC-008-100-D00-0
 62
     7
370
    25
100
AcDbBlockReference
  2
KLON2
 10
0.0
 20
0.0
 30
0.0
  0
DIMENSION
  5
373
330
1F
100
AcDbEntity
  8
LC-005-003-----0
 62
     7
370
    25
100
AcDbDimension
  2
*D29
 10
534.136057
 20
167.912545
 30
0.0
 11
434.575035
 21
198.712545
 31
0.0
 70
   160
 71
     5
 42
171.999906
  3
LC-DIM-L-0140-02-02
100
AcDbAlignedDimension
 13
362.13615
 23
220.569804
 33
0.0
 14
534.136057
 24
231.814928
 34
0.0
100
AcDbRotatedDimension
  0
DIMENSION
  5
380
330
1F
100
AcDbEntity
  8
LC-005-003-----0
 62
     7
370
    25
100
AcDbDimension
  2
*D30
 10
633.545688
 20
327.615004
 30
0.0
 11
602.745688
 21
287.306545
 31
0.0
 70
   160
  1
DN70
 71
     5
 42
74.999402
 53
90.0
  3
LC-DIM-L-0140-02-02
100
AcDbAlignedDimension
 13
497.136057
 23
252.615602
 33
0.0
 14
567.096847
 24
327.615004
 34
0.0
 50
90.0
100
AcDbRotatedDimension
  0
DIMENSION
  5
38D
330
1F
100
AcDbEntity
  8
LC-005-003-----0
 62
     7
370
    25
100
AcDbDimension
  2
*D31
 10
694.243794
 20
339.114928
 30
0.0
 11
725.043186
 21
285.718066
 31
0.0
 70
   160
  1
DN100
 71
     5
 42
110.0
 53
90.0
  3
LC-DIM-L-0140-02-02
100
AcDbAlignedDimension
 13
535.136057
 23
229.114928
 33
0.0
 14
535.136057
 24
339.114928
 34
0.0
 50
90.0
100
AcDbRotatedDimension
  0
LINE
  5
39A
102
{ACAD_REACTORS
330
3CE
102
}
330
1F
100
AcDbEntity
  8
LC-003-005-----0
 62
     7
370
    25
100
AcDbLine
 10
494.770381
 20
325.064754
 30
0.0
 11
497.270381
 21
327.564754
 31
0.0
  0
LINE
  5
39B
102
{ACAD_REACTORS
330
3CE
102
}
330
1F
100
AcDbEntity
  8
LC-003-005-----0
 62
     7
370
    25
100
AcDbLine
 10
486.2851
 20
325.064754
 30
0.0
 11
488.7851
 21
327.564754
 31
0.0
  0
LINE
  5
39C
102
{ACAD_REACTORS
330
3CE
102
}
330
1F
100
AcDbEntity
  8
LC-003-005-----0
 62
     7
370
    25
100
AcDbLine
 10
477.799819
 20
325.064754
 30
0.0
 11
480.299819
 21
327.564754
 31
0.0
  0
LINE
  5
39D
102
{ACAD_REACTORS
330
3CE
102
}
330
1F
100
AcDbEntity
  8
LC-003-005-----0
 62
     7
370
    25
100
AcDbLine
 10
469.314537
 20
325.064754
 30
0.0
 11
471.814537
 21
327.564754
 31
0.0
  0
LINE
  5
39E
102
{ACAD_REACTORS
330
3CE
102
}
330
1F
100
AcDbEntity
  8
LC-003-005-----0
 62
     7
370
    25
100
AcDbLine
 10
512.240191
 20
367.990408
 30
0.0
 11
513.295824
 21
369.046041
 31
0.0
  0
LINE
  5
39F
102
{ACAD_REACTORS
330
3CE
102
}
330
1F
100
AcDbEntity
  8
LC-003-005-----0
 62
     7
370
    25
100
AcDbLine
 10
460.829256
 20
325.064754
 30
0.0
 11
463.329256
 21
327.564754
 31
0.0
  0
LINE
  5
3A0
102
{ACAD_REACTORS
330
3CE
102
}
330
1F
100
AcDbEntity
  8
LC-003-005-----0
 62
     7
370
    25
100
AcDbLine
 10
503.116951
 20
367.352449
 30
0.0
 11
506.348285
 21
370.583783
 31
0.0
  0
LINE
  5
3A1
102
{ACAD_REACTORS
330
3CE
102
}
330
1F
100
AcDbEntity
  8
LC-003-005-----0
 62
     7
370
    25
100
AcDbLine
 10
452.343975
 20
325.064754
 30
0.0
 11
454.843975
 21
327.564754
 31
0.0
  0
LINE
  5
3A2
102
{ACAD_REACTORS
330
3CE
102
}
330
1F
100
AcDbEntity
  8
LC-003-005-----0
 62
     7
370
    25
100
AcDbLine
 10
493.993711
 20
366.714491
 30
0.0
 11
497.225045
 21
369.945825
 31
0.0
  0
LINE
  5
3A3
102
{ACAD_REACTORS
330
3CE
102
}
330
1F
100
AcDbEntity
  8
LC-003-005-----0
 62
     7
370
    25
100
AcDbLine
 10
443.858693
 20
325.064754
 30
0.0
 11
446.358693
 21
327.564754
 31
0.0
  0
LINE
  5
3A4
102
{ACAD_REACTORS
330
3CE
102
}
330
1F
100
AcDbEntity
  8
LC-003-005-----0
 62
     7
370
    25
100
AcDbLine
 10
484.870471
 20
366.076532
 30
0.0
 11
488.101805
 21
369.307866
 31
0.0
  0
LINE
  5
3A5
102
{ACAD_REACTORS
330
3CE
102
}
330
1F
100
AcDbEntity
  8
LC-003-005-----0
 62
     7
370
    25
100
AcDbLine
 10
435.373412
 20
325.064754
 30
0.0
 11
437.873412
 21
327.564754
 31
0.0
  0
LINE
  5
3A6
102
{ACAD_REACTORS
330
3CE
102
}
330
1F
100
AcDbEntity
  8
LC-003-005-----0
 62
     7
370
    25
100
AcDbLine
 10
442.875882
 20
332.567224
 30
0.0
 11
447.704642
 21
337.395984
 31
0.0
  0
LINE
  5
3A7
102
{ACAD_REACTORS
330
3CE
102
}
330
1F
100
AcDbEntity
  8
LC-003-005-----0
 62
     7
370
    25
100
AcDbLine
 10
473.555441
 20
363.246783
 30
0.0
 11
478.978565
 21
368.669907
 31
0.0
  0
LINE
  5
3A8
102
{ACAD_REACTORS
330
3CE
102
}
330
1F
100
AcDbEntity
  8
LC-003-005-----0
 62
     7
370
    25
100
AcDbLine
 10
432.14052
 20
330.317143
 30
0.0
 11
437.389397
 21
335.56602
 31
0.0
  0
LINE
  5
3A9
102
{ACAD_REACTORS
330
3CE
102
}
330
1F
100
AcDbEntity
  8
LC-003-005-----0
 62
     7
370
    25
100
AcDbLine
 10
439.998084
 20
338.174707
 30
0.0
 11
446.125986
 21
344.30261
 31
0.0
  0
LINE
  5
3AA
102
{ACAD_REACTORS
330
3CE
102
}
330
1F
100
AcDbEntity
  8
LC-003-005-----0
 62
     7
370
    25
100
AcDbLine
 10
449.484149
 20
347.660773
 30
0.0
 11
451.835622
 21
350.012245
 31
0.0
  0
LINE
  5
3AB
102
{ACAD_REACTORS
330
3CE
102
}
330
1F
100
AcDbEntity
  8
LC-003-005-----0
 62
     7
370
    25
100
AcDbLine
 10
464.432201
 20
362.608825
 30
0.0
 11
467.909596
 21
366.08622
 31
0.0
  0
LINE
  5
3AC
102
{ACAD_REACTORS
330
3CE
102
}
330
1F
100
AcDbEntity
  8
LC-003-005-----0
 62
     7
370
    25
100
AcDbLine
 10
449.520398
 20
356.182303
 30
0.0
 11
451.238341
 21
357.900246
 31
0.0
  0
LINE
  5
3AD
102
{ACAD_REACTORS
330
3CE
102
}
330
1F
100
AcDbEntity
  8
LC-003-005-----0
 62
     7
370
    25
100
AcDbLine
 10
454.379723
 20
361.041628
 30
0.0
 11
458.554213
 21
365.216118
 31
0.0
  0
LINE
  5
3AE
102
{ACAD_REACTORS
330
3CD
102
}
330
1F
100
AcDbEntity
  8
LC-003-005-----0
 62
     7
370
    25
100
AcDbLine
 10
499.325393
 20
253.252233
 30
0.0
 11
500.136057
 21
254.062897
 31
0.0
  0
LINE
  5
3AF
102
{ACAD_REACTORS
330
3CD
102
}
330
1F
100
AcDbEntity
  8
LC-003-005-----0
 62
     7
370
    25
100
AcDbLine
 10
490.203057
 20
252.615178
 30
0.0
 11
492.703057
 21
255.115178
 31
0.0
  0
LINE
  5
3B0
102
{ACAD_REACTORS
330
3CD
102
}
330
1F
100
AcDbEntity
  8
LC-003-005-----0
 62
     7
370
    25
100
AcDbLine
 10
481.717775
 20
252.615178
 30
0.0
 11
484.217775
 21
255.115178
 31
0.0
  0
LINE
  5
3B1
102
{ACAD_REACTORS
330
3CD
102
}
330
1F
100
AcDbEntity
  8
LC-003-005-----0
 62
     7
370
    25
100
AcDbLine
 10
473.232494
 20
252.615178
 30
0.0
 11
475.732494
 21
255.115178
 31
0.0
  0
LINE
  5
3B2
102
{ACAD_REACTORS
330
3CD
102
}
330
1F
100
AcDbEntity
  8
LC-003-005-----0
 62
     7
370
    25
100
AcDbLine
 10
464.747213
 20
252.615178
 30
0.0
 11
467.247213
 21
255.115178
 31
0.0
  0
LINE
  5
3B3
102
{ACAD_REACTORS
330
3CD
102
}
330
1F
100
AcDbEntity
  8
LC-003-005-----0
 62
     7
370
    25
100
AcDbLine
 10
423.089648
 20
219.442895
 30
0.0
 11
431.26675
 21
227.619997
 31
0.0
  0
LINE
  5
3B4
102
{ACAD_REACTORS
330
3CD
102
}
330
1F
100
AcDbEntity
  8
LC-003-005-----0
 62
     7
370
    25
100
AcDbLine
 10
456.261931
 20
252.615178
 30
0.0
 11
458.761931
 21
255.115178
 31
0.0
  0
LINE
  5
3B5
102
{ACAD_REACTORS
330
3CD
102
}
330
1F
100
AcDbEntity
  8
LC-003-005-----0
 62
     7
370
    25
100
AcDbLine
 10
412.231152
 20
217.069681
 30
0.0
 11
414.767513
 21
219.606041
 31
0.0
  0
LINE
  5
3B6
102
{ACAD_REACTORS
330
3CD
102
}
330
1F
100
AcDbEntity
  8
LC-003-005-----0
 62
     7
370
    25
100
AcDbLine
 10
431.103604
 20
235.942132
 30
0.0
 11
433.639969
 21
238.478498
 31
0.0
  0
LINE
  5
3B7
102
{ACAD_REACTORS
330
3CD
102
}
330
1F
100
AcDbEntity
  8
LC-003-005-----0
 62
     7
370
    25
100
AcDbLine
 10
447.77665
 20
252.615178
 30
0.0
 11
450.27665
 21
255.115178
 31
0.0
  0
LINE
  5
3B8
102
{ACAD_REACTORS
330
3CD
102
}
330
1F
100
AcDbEntity
  8
LC-003-005-----0
 62
     7
370
    25
100
AcDbLine
 10
403.745882
 20
217.069692
 30
0.0
 11
406.245879
 21
219.569689
 31
0.0
  0
LINE
  5
3B9
102
{ACAD_REACTORS
330
3CD
102
}
330
1F
100
AcDbEntity
  8
LC-003-005-----0
 62
     7
370
    25
100
AcDbLine
 10
431.139987
 20
244.463796
 30
0.0
 11
433.639987
 21
246.963797
 31
0.0
  0
LINE
  5
3BA
102
{ACAD_REACTORS
330
3CD
102
}
330
1F
100
AcDbEntity
  8
LC-003-005-----0
 62
     7
370
    25
100
AcDbLine
 10
439.291368
 20
252.615178
 30
0.0
 11
441.791368
 21
255.115178
 31
0.0
  0
LINE
  5
3BB
102
{ACAD_REACTORS
330
3CD
102
}
330
1F
100
AcDbEntity
  8
LC-003-005-----0
 62
     7
370
    25
100
AcDbLine
 10
395.260612
 20
217.069703
 30
0.0
 11
397.760609
 21
219.5697
 31
0.0
  0
LINE
  5
3BC
102
{ACAD_REACTORS
330
3CD
102
}
330
1F
100
AcDbEntity
  8
LC-003-005-----0
 62
     7
370
    25
100
AcDbLine
 10
402.140391
 20
223.949482
 30
0.0
 11
404.140393
 21
225.949484
 31
0.0
  0
LINE
  5
3BD
102
{ACAD_REACTORS
330
3CD
102
}
330
1F
100
AcDbEntity
  8
LC-003-005-----0
 62
     7
370
    25
100
AcDbLine
 10
431.14001
 20
252.949101
 30
0.0
 11
433.306087
 21
255.115178
 31
0.0
  0
LINE
  5
3BE
102
{ACAD_REACTORS
330
3CD
102
}
330
1F
100
AcDbEntity
  8
LC-003-005-----0
 62
     7
370
    25
100
AcDbLine
 10
386.775342
 20
217.069714
 30
0.0
 11
389.275339
 21
219.569711
 31
0.0
  0
LINE
  5
3BF
102
{ACAD_REACTORS
330
3CD
102
}
330
1F
100
AcDbEntity
  8
LC-003-005-----0
 62
     7
370
    25
100
AcDbLine
 10
402.140401
 20
232.434773
 30
0.0
 11
404.140403
 21
234.434776
 31
0.0
  0
LINE
  5
3C0
102
{ACAD_REACTORS
330
3CD
102
}
330
1F
100
AcDbEntity
  8
LC-003-005-----0
 62
     7
370
    25
100
AcDbLine
 10
378.290072
 20
217.069726
 30
0.0
 11
380.790069
 21
219.569722
 31
0.0
  0
LINE
  5
3C1
102
{ACAD_REACTORS
330
3CD
102
}
330
1F
100
AcDbEntity
  8
LC-003-005-----0
 62
     7
370
    25
100
AcDbLine
 10
402.14041
 20
240.920064
 30
0.0
 11
404.140413
 21
242.920067
 31
0.0
  0
LINE
  5
3C2
102
{ACAD_REACTORS
330
3CD
102
}
330
1F
100
AcDbEntity
  8
LC-003-005-----0
 62
     7
370
    25
100
AcDbLine
 10
369.804802
 20
217.069737
 30
0.0
 11
372.304798
 21
219.569734
 31
0.0
  0
LINE
  5
3C3
102
{ACAD_REACTORS
330
3CD
102
}
330
1F
100
AcDbEntity
  8
LC-003-005-----0
 62
     7
370
    25
100
AcDbLine
 10
402.14042
 20
249.405355
 30
0.0
 11
404.140423
 21
251.405358
 31
0.0
  0
LINE
  5
3C4
102
{ACAD_REACTORS
330
3CD
102
}
330
1F
100
AcDbEntity
  8
LC-003-005-----0
 62
     7
370
    25
100
AcDbLine
 10
362.631221
 20
218.381438
 30
0.0
 11
363.819528
 21
219.569745
 31
0.0
  0
LINE
  5
3C5
102
{ACAD_REACTORS
330
3CD
102
}
330
1F
100
AcDbEntity
  8
LC-003-005-----0
 62
     7
370
    25
100
AcDbLine
 10
402.14043
 20
257.890647
 30
0.0
 11
404.140432
 21
259.890649
 31
0.0
  0
LINE
  5
3C6
102
{ACAD_REACTORS
330
3CD
102
}
330
1F
100
AcDbEntity
  8
LC-003-005-----0
 62
     7
370
    25
100
AcDbLine
 10
402.14044
 20
266.375938
 30
0.0
 11
404.140442
 21
268.37594
 31
0.0
  0
LINE
  5
3C7
102
{ACAD_REACTORS
330
3CD
102
}
330
1F
100
AcDbEntity
  8
LC-003-005-----0
 62
     7
370
    25
100
AcDbLine
 10
402.140449
 20
274.861229
 30
0.0
 11
404.140452
 21
276.861231
 31
0.0
  0
LINE
  5
3C8
102
{ACAD_REACTORS
330
3CD
102
}
330
1F
100
AcDbEntity
  8
LC-003-005-----0
 62
     7
370
    25
100
AcDbLine
 10
402.140459
 20
283.34652
 30
0.0
 11
404.140461
 21
285.346522
 31
0.0
  0
LINE
  5
3C9
102
{ACAD_REACTORS
330
3CD
102
}
330
1F
100
AcDbEntity
  8
LC-003-005-----0
 62
     7
370
    25
100
AcDbLine
 10
402.140469
 20
291.831811
 30
0.0
 11
404.140471
 21
293.831813
 31
0.0
  0
LINE
  5
3CA
330
1F
100
AcDbEntity
  8
LC-002-002-----0
 62
     7
370
    50
100
AcDbLine
 10
497.136057
 20
252.665602
 30
0.0
 11
500.136057
 21
253.46945
 31
0.0
  0
ENDSEC
  0
SECTION
  2
OBJECTS
  0
DICTIONARY
  5
C
330
0
100
AcDbDictionary
281
     1
  3
ACAD_GROUP
350
D
  3
ACAD_LAYOUT
350
1A
  3
ACAD_MLINESTYLE
350
17
  3
ACAD_PLOTSETTINGS
350
19
  3
ACAD_PLOTSTYLENAME
350
E
  0
DICTIONARY
  5
D
102
{ACAD_REACTORS
330
C
102
}
330
C
100
AcDbDictionary
281
     1
  3
LCGROUP11
350
3CC
  3
LCGROUP113
350
3D4
  3
LCGROUP115
350
3D3
  3
LCGROUP117
350
3D2
  3
LCGROUP119
350
3D1
  3
LCGROUP121
350
3D0
  3
LCGROUP13
350
3CB
  3
LCGROUP222
350
3D9
  3
LCGROUP308
350
3CE
  3
LCGROUP313
350
3CD
  3
LCGROUP412
350
3D5
  3
LCGROUP421
350
3D7
  3
LCGROUP429
350
3D6
  3
LCGROUP478
350
3D8
  3
LCGROUP512
350
3DA
  3
LCGROUP57
350
3CF
  0
DICTIONARY
  5
1A
102
{ACAD_REACTORS
330
C
102
}
330
C
100
AcDbDictionary
281
     1
  3
Layout1
350
1E
  3
Layout2
350
26
  3
Model
350
22
  0
DICTIONARY
  5
17
102
{ACAD_REACTORS
330
C
102
}
330
C
100
AcDbDictionary
281
     1
  3
Standard
350
18
  0
DICTIONARY
  5
19
102
{ACAD_REACTORS
330
C
102
}
330
C
100
AcDbDictionary
281
     1
  0
ACDBDICTIONARYWDFLT
  5
E
102
{ACAD_REACTORS
330
C
102
}
330
C
100
AcDbDictionary
281
     1
  3
Normal
350
F
100
AcDbDictionaryWithDefault
340
F
  0
GROUP
  5
3CC
102
{ACAD_REACTORS
330
D
102
}
330
D
100
AcDbGroup
300
GRP11
 70
     1
 71
     1
340
31
340
35
340
36
340
37
340
38
340
39
340
3A
340
3C
340
3D
340
3E
340
3F
340
40
340
41
340
42
340
43
340
44
340
45
340
46
340
47
340
48
340
49
340
4A
340
4B
340
4C
340
4D
340
4E
340
4F
340
50
340
51
340
52
340
53
340
54
340
55
340
56
340
57
340
58
340
59
340
5A
340
5B
340
5C
340
5F
340
60
340
61
340
62
340
63
340
64
340
65
340
66
340
67
340
68
340
69
340
6A
340
6B
340
6C
340
6D
340
6E
340
70
340
71
340
72
340
88
340
89
340
8A
340
8B
340
8C
340
8D
340
8E
340
8F
340
90
340
91
340
92
340
93
340
94
340
95
340
96
340
97
340
98
340
99
340
9A
340
9B
340
9C
340
9D
340
A6
340
18A
  0
GROUP
  5
3D4
102
{ACAD_REACTORS
330
D
102
}
330
D
100
AcDbGroup
300
GRP113
 70
     1
 71
     1
340
D8
  0
GROUP
  5
3D3
102
{ACAD_REACTORS
330
D
102
}
330
D
100
AcDbGroup
300
GRP115
 70
     1
 71
     1
340
D9
  0
GROUP
  5
3D2
102
{ACAD_REACTORS
330
D
102
}
330
D
100
AcDbGroup
300
GRP117
 70
     1
 71
     1
340
DA
  0
GROUP
  5
3D1
102
{ACAD_REACTORS
330
D
102
}
330
D
100
AcDbGroup
300
GRP119
 70
     1
 71
     1
340
DB
  0
GROUP
  5
3D0
102
{ACAD_REACTORS
330
D
102
}
330
D
100
AcDbGroup
300
GRP121
 70
     1
 71
     1
340
DC
340
DD
340
DE
340
DF
340
E0
340
E1
340
E2
340
E3
340
E4
340
E5
340
E6
340
E7
340
E8
340
E9
340
EA
340
EB
340
EC
340
ED
340
EE
340
EF
340
F0
340
F1
340
F2
340
F3
340
F4
340
F5
340
F6
340
F7
340
F8
340
F9
340
FA
340
FB
340
FC
340
FD
340
FE
340
FF
340
100
340
101
340
102
340
103
340
104
340
105
340
106
340
107
340
108
340
109
340
10A
340
10B
340
10C
340
10D
340
10E
340
10F
340
110
340
111
340
112
340
113
340
114
340
115
340
116
340
117
340
118
340
119
340
11A
340
11B
340
11C
340
11D
340
11E
340
11F
340
120
340
121
340
122
340
123
340
124
340
125
340
126
340
127
340
128
340
129
340
12A
340
12B
340
12C
340
12D
340
12E
340
12F
340
130
340
131
340
132
340
133
340
134
340
135
340
136
340
137
340
138
340
139
340
13A
340
13B
340
13C
340
13D
340
13E
340
13F
340
1AA
340
220
  0
GROUP
  5
3CB
102
{ACAD_REACTORS
330
D
102
}
330
D
100
AcDbGroup
300
GRP13
 70
     1
 71
     1
340
32
340
33
340
34
340
3B
  0
GROUP
  5
3D9
102
{ACAD_REACTORS
330
D
102
}
330
D
100
AcDbGroup
300
GRP222
 70
     1
 71
     1
340
147
340
14E
340
155
340
15F
340
169
340
170
340
177
340
17F
  0
GROUP
  5
3CE
102
{ACAD_REACTORS
330
D
102
}
330
D
100
AcDbGroup
300
GRP308
 70
     1
 71
     1
340
39A
340
39B
340
39C
340
39D
340
39E
340
39F
340
3A0
340
3A1
340
3A2
340
3A3
340
3A4
340
3A5
340
3A6
340
3A7
340
3A8
340
3A9
340
3AA
340
3AB
340
3AC
340
3AD
  0
GROUP
  5
3CD
102
{ACAD_REACTORS
330
D
102
}
330
D
100
AcDbGroup
300
GRP313
 70
     1
 71
     1
340
3AE
340
3AF
340
3B0
340
3B1
340
3B2
340
3B3
340
3B4
340
3B5
340
3B6
340
3B7
340
3B8
340
3B9
340
3BA
340
3BB
340
3BC
340
3BD
340
3BE
340
3BF
340
3C0
340
3C1
340
3C2
340
3C3
340
3C4
340
3C5
340
3C6
340
3C7
340
3C8
340
3C9
  0
GROUP
  5
3D5
102
{ACAD_REACTORS
330
D
102
}
330
D
100
AcDbGroup
300
GRP412
 70
     1
 71
     1
340
26A
  0
GROUP
  5
3D7
102
{ACAD_REACTORS
330
D
102
}
330
D
100
AcDbGroup
300
GRP421
 70
     1
 71
     1
340
270
  0
GROUP
  5
3D6
102
{ACAD_REACTORS
330
D
102
}
330
D
100
AcDbGroup
300
Adapter
 70
     1
 71
     1
340
299
340
29A
340
29B
340
29C
340
29D
340
29E
340
29F
340
2A0
340
2A1
340
2A2
340
2A3
340
2A4
340
2A5
340
2A6
340
2A7
340
2A8
340
2A9
340
2AA
340
2AB
340
2AC
340
2AD
340
2AE
340
2AF
340
2B0
340
2B1
340
2B2
340
2B3
340
2B4
340
2B5
340
2B6
340
2B7
340
2B8
340
2B9
340
2BA
340
2BB
340
2BC
340
2BD
340
2BE
340
2BF
340
2C0
340
2C1
340
2C4
340
318
340
319
340
31A
340
31B
340
31C
340
31D
  0
GROUP
  5
3D8
102
{ACAD_REACTORS
330
D
102
}
330
D
100
AcDbGroup
300
Dichtung
 70
     1
 71
     1
340
31F
340
320
340
321
340
322
340
323
340
324
340
325
340
326
340
327
340
328
340
329
340
32A
340
32B
340
32C
340
32D
340
32E
340
32F
340
330
340
331
340
332
340
333
340
334
340
335
340
336
340
337
340
338
340
339
340
33A
340
33B
340
33C
340
33D
340
348
  0
GROUP
  5
3DA
102
{ACAD_REACTORS
330
D
102
}
330
D
100
AcDbGroup
300
Dichtung
 70
     1
 71
     1
340
349
340
34A
340
34B
340
34C
340
34D
340
34E
340
34F
340
350
340
351
340
352
340
353
340
354
340
355
340
356
340
357
340
358
340
359
340
35A
340
35B
340
35C
340
35D
340
35E
340
35F
340
360
340
361
340
362
340
363
340
364
340
365
340
366
340
367
340
372
  0
GROUP
  5
3CF
102
{ACAD_REACTORS
330
D
102
}
330
D
100
AcDbGroup
300
GRP57
 70
     1
 71
     1
340
5D
340
5E
  0
LAYOUT
  5
1E
102
{ACAD_REACTORS
330
1A
102
}
330
1A
100
AcDbPlotSettings
  1

  2

  4

  6

 40
0.0
 41
0.0
 42
0.0
 43
0.0
 44
0.0
 45
0.0
 46
0.0
 47
0.0
 48
0.0
 49
0.0
140
0.0
141
0.0
142
1.0
143
1.0
 70
   688
 72
     0
 73
     0
 74
     5
  7

 75
    16
147
1.0
148
0.0
149
0.0
100
AcDbLayout
  1
Layout1
 70
     1
 71
     1
 10
0.0
 20
0.0
 11
840.0
 21
594.0
 12
0.0
 22
0.0
 32
0.0
 14
0.0
 24
0.0
 34
0.0
 15
840.0
 25
594.0
 35
0.0
146
0.0
 13
0.0
 23
0.0
 33
0.0
 16
1.0
 26
0.0
 36
0.0
 17
0.0
 27
1.0
 37
0.0
 76
     0
330
1B
  0
LAYOUT
  5
26
102
{ACAD_REACTORS
330
1A
102
}
330
1A
100
AcDbPlotSettings
  1

  2

  4

  6

 40
0.0
 41
0.0
 42
0.0
 43
0.0
 44
0.0
 45
0.0
 46
0.0
 47
0.0
 48
0.0
 49
0.0
140
0.0
141
0.0
142
1.0
143
1.0
 70
   688
 72
     0
 73
     0
 74
     5
  7

 75
    16
147
1.0
148
0.0
149
0.0
100
AcDbLayout
  1
Layout2
 70
     1
 71
     2
 10
0.0
 20
0.0
 11
0.0
 21
0.0
 12
0.0
 22
0.0
 32
0.0
 14
0.0
 24
0.0
 34
0.0
 15
0.0
 25
0.0
 35
0.0
146
0.0
 13
0.0
 23
0.0
 33
0.0
 16
1.0
 26
0.0
 36
0.0
 17
0.0
 27
1.0
 37
0.0
 76
     0
330
23
  0
LAYOUT
  5
22
102
{ACAD_REACTORS
330
1A
102
}
330
1A
100
AcDbPlotSettings
  1

  2

  4

  6

 40
0.0
 41
0.0
 42
0.0
 43
0.0
 44
0.0
 45
0.0
 46
0.0
 47
0.0
 48
0.0
 49
0.0
140
0.0
141
0.0
142
1.0
143
1.0
 70
  1776
 72
     0
 73
     0
 74
     0
  7

 75
     0
147
1.0
148
0.0
149
0.0
100
AcDbLayout
  1
Model
 70
     1
 71
     0
 10
0.0
 20
0.0
 11
840.0
 21
594.0
 12
0.0
 22
0.0
 32
0.0
 14
0.0
 24
0.0
 34
0.0
 15
840.0
 25
594.0
 35
0.0
146
0.0
 13
0.0
 23
0.0
 33
0.0
 16
1.0
 26
0.0
 36
0.0
 17
0.0
 27
1.0
 37
0.0
 76
     0
330
1F
  0
MLINESTYLE
  5
18
102
{ACAD_REACTORS
330
17
102
}
330
17
100
AcDbMlineStyle
  2
Standard
 70
     0
  3

 62
   256
 51
90.0
 52
90.0
 71
     2
 49
0.5
 62
   256
  6
BYLAYER
 49
-0.5
 62
   256
  6
BYLAYER
  0
ACDBPLACEHOLDER
  5
F
102
{ACAD_REACTORS
330
E
102
}
330
E
  0
ENDSEC
  0
EOF
