  0
SECTION
  2
HEADER
  9
$ACADVER
  1
AC1015
  9
$ACADMAINTVER
 70
     6
  9
$DWGCODEPAGE
  3
ANSI_1252
  9
$INSBASE
 10
0.0
 20
0.0
 30
0.0
  9
$EXTMIN
 10
0.0
 20
0.0
 30
0.0
  9
$EXTMAX
 10
840.0
 20
594.0
 30
0.0
  9
$LIMMIN
 10
0.0
 20
0.0
  9
$LIMMAX
 10
840.0
 20
594.0
  9
$ORTHOMODE
 70
     0
  9
$REGENMODE
 70
     1
  9
$FILLMODE
 70
     1
  9
$QTEXTMODE
 70
     0
  9
$MIRRTEXT
 70
     1
  9
$LTSCALE
 40
2.0
  9
$ATTMODE
 70
     1
  9
$TEXTSIZE
 40
2.5
  9
$TRACEWID
 40
1.0
  9
$TEXTSTYLE
  7
Standard
  9
$CLAYER
  8
0
  9
$CELTYPE
  6
ByLayer
  9
$CECOLOR
 62
     7
  9
$CELTSCALE
 40
1.0
  9
$DISPSILH
 70
     0
  9
$DIMSCALE
 40
2.0
  9
$DIMASZ
 40
3.5
  9
$DIMEXO
 40
0.625
  9
$DIMDLI
 40
3.75
  9
$DIMRND
 40
0.0
  9
$DIMDLE
 40
0.0
  9
$DIMEXE
 40
1.25
  9
$DIMTP
 40
0.0
  9
$DIMTM
 40
0.0
  9
$DIMTXT
 40
3.5
  9
$DIMCEN
 40
2.5
  9
$DIMTSZ
 40
0.0
  9
$DIMTOL
 70
     0
  9
$DIMLIM
 70
     0
  9
$DIMTIH
 70
     0
  9
$DIMTOH
 70
     0
  9
$DIMSE1
 70
     0
  9
$DIMSE2
 70
     0
  9
$DIMTAD
 70
     1
  9
$DIMZIN
 70
     8
  9
$DIMBLK
  1

  9
$DIMASO
 70
     1
  9
$DIMSHO
 70
     1
  9
$DIMPOST
  1

  9
$DIMAPOST
  1

  9
$DIMALT
 70
     0
  9
$DIMALTD
 70
     3
  9
$DIMALTF
 40
0.03937
  9
$DIMLFAC
 40
1.0
  9
$DIMTOFL
 70
     1
  9
$DIMTVP
 40
0.0
  9
$DIMTIX
 70
     0
  9
$DIMSOXD
 70
     0
  9
$DIMSAH
 70
     0
  9
$DIMBLK1
  1

  9
$DIMBLK2
  1

  9
$DIMSTYLE
  2
ISO-25
  9
$DIMCLRD
 70
     0
  9
$DIMCLRE
 70
     0
  9
$DIMCLRT
 70
     0
  9
$DIMTFAC
 40
1.0
  9
$DIMGAP
 40
0.625
  9
$DIMJUST
 70
     0
  9
$DIMSD1
 70
     0
  9
$DIMSD2
 70
     0
  9
$DIMTOLJ
 70
     0
  9
$DIMTZIN
 70
     8
  9
$DIMALTZ
 70
     0
  9
$DIMALTTZ
 70
     0
  9
$DIMUPT
 70
     0
  9
$DIMDEC
 70
     2
  9
$DIMTDEC
 70
     2
  9
$DIMALTU
 70
     2
  9
$DIMALTTD
 70
     3
  9
$DIMTXSTY
  7
Standard
  9
$DIMAUNIT
 70
     0
  9
$DIMADEC
 70
     0
  9
$DIMALTRND
 40
0.0
  9
$DIMAZIN
 70
     0
  9
$DIMDSEP
 70
    44
  9
$DIMATFIT
 70
     3
  9
$DIMFRAC
 70
     0
  9
$DIMLDRBLK
  1

  9
$DIMLUNIT
 70
     2
  9
$DIMLWD
 70
    -2
  9
$DIMLWE
 70
    -2
  9
$DIMTMOVE
 70
     0
  9
$LUNITS
 70
     2
  9
$LUPREC
 70
     4
  9
$SKETCHINC
 40
1.0
  9
$FILLETRAD
 40
10.0
  9
$AUNITS
 70
     0
  9
$AUPREC
 70
     0
  9
$MENU
  1
.
  9
$ELEVATION
 40
0.0
  9
$PELEVATION
 40
0.0
  9
$THICKNESS
 40
0.0
  9
$LIMCHECK
 70
     0
  9
$CHAMFERA
 40
10.0
  9
$CHAMFERB
 40
10.0
  9
$CHAMFERC
 40
20.0
  9
$CHAMFERD
 40
0.0
  9
$SKPOLY
 70
     0
  9
$TDCREATE
 40
2455765.382915475
  9
$TDUCREATE
 40
2455765.299582141
  9
$TDUPDATE
 40
2455765.382915486
  9
$TDUUPDATE
 40
2455765.299582153
  9
$TDINDWG
 40
0.0000000116
  9
$TDUSRTIMER
 40
0.0000000116
  9
$USRTIMER
 70
     1
  9
$ANGBASE
 50
0.0
  9
$ANGDIR
 70
     0
  9
$PDMODE
 70
     0
  9
$PDSIZE
 40
0.0
  9
$PLINEWID
 40
0.0
  9
$SPLFRAME
 70
     0
  9
$SPLINETYPE
 70
     6
  9
$SPLINESEGS
 70
     8
  9
$HANDSEED
  5
441
  9
$SURFTAB1
 70
     6
  9
$SURFTAB2
 70
     6
  9
$SURFTYPE
 70
     6
  9
$SURFU
 70
     6
  9
$SURFV
 70
     6
  9
$UCSBASE
  2

  9
$UCSNAME
  2

  9
$UCSORG
 10
0.0
 20
0.0
 30
0.0
  9
$UCSXDIR
 10
1.0
 20
0.0
 30
0.0
  9
$UCSYDIR
 10
0.0
 20
1.0
 30
0.0
  9
$UCSORTHOREF
  2

  9
$UCSORTHOVIEW
 70
     0
  9
$UCSORGTOP
 10
0.0
 20
0.0
 30
0.0
  9
$UCSORGBOTTOM
 10
0.0
 20
0.0
 30
0.0
  9
$UCSORGLEFT
 10
0.0
 20
0.0
 30
0.0
  9
$UCSORGRIGHT
 10
0.0
 20
0.0
 30
0.0
  9
$UCSORGFRONT
 10
0.0
 20
0.0
 30
0.0
  9
$UCSORGBACK
 10
0.0
 20
0.0
 30
0.0
  9
$PUCSBASE
  2

  9
$PUCSNAME
  2

  9
$PUCSORG
 10
0.0
 20
0.0
 30
0.0
  9
$PUCSXDIR
 10
1.0
 20
0.0
 30
0.0
  9
$PUCSYDIR
 10
0.0
 20
1.0
 30
0.0
  9
$PUCSORTHOREF
  2

  9
$PUCSORTHOVIEW
 70
     0
  9
$PUCSORGTOP
 10
0.0
 20
0.0
 30
0.0
  9
$PUCSORGBOTTOM
 10
0.0
 20
0.0
 30
0.0
  9
$PUCSORGLEFT
 10
0.0
 20
0.0
 30
0.0
  9
$PUCSORGRIGHT
 10
0.0
 20
0.0
 30
0.0
  9
$PUCSORGFRONT
 10
0.0
 20
0.0
 30
0.0
  9
$PUCSORGBACK
 10
0.0
 20
0.0
 30
0.0
  9
$USERI1
 70
     0
  9
$USERI2
 70
     0
  9
$USERI3
 70
     0
  9
$USERI4
 70
     0
  9
$USERI5
 70
     0
  9
$USERR1
 40
0.0
  9
$USERR2
 40
0.0
  9
$USERR3
 40
0.0
  9
$USERR4
 40
0.0
  9
$USERR5
 40
0.0
  9
$WORLDVIEW
 70
     1
  9
$SHADEDGE
 70
     3
  9
$SHADEDIF
 70
    70
  9
$TILEMODE
 70
     1
  9
$MAXACTVP
 70
    64
  9
$PINSBASE
 10
0.0
 20
0.0
 30
0.0
  9
$PLIMCHECK
 70
     0
  9
$PEXTMIN
 10
0.0
 20
0.0
 30
0.0
  9
$PEXTMAX
 10
840.0
 20
594.0
 30
0.0
  9
$PLIMMIN
 10
0.0
 20
0.0
  9
$PLIMMAX
 10
840.0
 20
594.0
  9
$UNITMODE
 70
     0
  9
$VISRETAIN
 70
     1
  9
$PLINEGEN
 70
     0
  9
$PSLTSCALE
 70
     1
  9
$TREEDEPTH
 70
  3020
  9
$CMLSTYLE
  2
Standard
  9
$CMLJUST
 70
     0
  9
$CMLSCALE
 40
20.0
  9
$PROXYGRAPHICS
 70
     1
  9
$MEASUREMENT
 70
     1
  9
$CELWEIGHT
370
    -1
  9
$ENDCAPS
280
     0
  9
$JOINSTYLE
280
     0
  9
$LWDISPLAY
290
     0
  9
$INSUNITS
 70
     4
  9
$HYPERLINKBASE
  1

  9
$STYLESHEET
  1

  9
$XEDIT
290
     1
  9
$CEPSNTYPE
380
     0
  9
$PSTYLEMODE
290
     1
  9
$FINGERPRINTGUID
  2
{FAEB1C30-E019-11D5-929B-00C0DF256EC4}
  9
$VERSIONGUID
  2
{FAEB1C32-E019-11D5-929B-00C0DF256EC4}
  9
$EXTNAMES
290
     1
  9
$PSVPSCALE
 40
0.0
  9
$OLESTARTUP
290
     0
  0
ENDSEC
  0
SECTION
  2
CLASSES
  0
CLASS
  1
ACDBDICTIONARYWDFLT
  2
AcDbDictionaryWithDefault
  3
ObjectDBX Classes
 90
        0
280
     0
281
     0
  0
CLASS
  1
ACDBPLACEHOLDER
  2
AcDbPlaceHolder
  3
ObjectDBX Classes
 90
        0
280
     0
281
     0
  0
CLASS
  1
LAYOUT
  2
AcDbLayout
  3
ObjectDBX Classes
 90
        0
280
     0
281
     0
  0
ENDSEC
  0
SECTION
  2
TABLES
  0
TABLE
  2
VPORT
  5
8
330
0
100
AcDbSymbolTable
 70
     2
  0
VPORT
  5
29
330
8
100
AcDbSymbolTableRecord
100
AcDbViewportTableRecord
  2
*ACTIVE
 70
     0
 10
0.0
 20
0.0
 11
1.0
 21
1.0
 12
420.0
 22
297.0
 13
0.0
 23
0.0
 14
1.0
 24
1.0
 15
0.0
 25
0.0
 16
0.0
 26
0.0
 36
1.0
 17
0.0
 27
0.0
 37
0.0
 40
594.0
 41
1.414141
 42
50.0
 43
0.0
 44
0.0
 50
0.0
 51
0.0
 71
    16
 72
   100
 73
     1
 74
     0
 75
     0
 76
     0
 77
     0
 78
     0
281
     0
 65
     0
110
0.0
120
0.0
130
0.0
111
1.0
121
0.0
131
0.0
112
0.0
122
1.0
132
0.0
 79
     0
146
0.0
  0
ENDTAB
  0
TABLE
  2
LTYPE
  5
5
330
0
100
AcDbSymbolTable
 70
     4
  0
LTYPE
  5
14
330
5
100
AcDbSymbolTableRecord
100
AcDbLinetypeTableRecord
  2
ByBlock
 70
     0
  3

 72
    65
 73
     0
 40
0.0
  0
LTYPE
  5
15
330
5
100
AcDbSymbolTableRecord
100
AcDbLinetypeTableRecord
  2
ByLayer
 70
     0
  3

 72
    65
 73
     0
 40
0.0
  0
LTYPE
  5
16
330
5
100
AcDbSymbolTableRecord
100
AcDbLinetypeTableRecord
  2
Continuous
 70
     0
  3
Solid line
 72
    65
 73
     0
 40
0.0
  0
LTYPE
  5
2A
330
5
100
AcDbSymbolTableRecord
100
AcDbLinetypeTableRecord
  2
DASHED
 70
     0
  3
__ __ __ __ __
 72
    65
 73
     2
 40
6.25
 49
5.0
 74
     4
 75
     0
340
0
 46
1.0
 50
0.0
 44
0.0
 45
0.0
 49
-1.25
 74
     4
 75
     0
340
0
 46
1.0
 50
0.0
 44
0.0
 45
0.0
  0
LTYPE
  5
30
330
5
100
AcDbSymbolTableRecord
100
AcDbLinetypeTableRecord
  2
DASHDOT
 70
     0
  3
__ . __ . __ . __ . __
 72
    65
 73
     4
 40
7.5
 49
5.0
 74
     4
 75
     0
340
0
 46
1.0
 50
0.0
 44
0.0
 45
0.0
 49
-1.25
 74
     4
 75
     0
340
0
 46
1.0
 50
0.0
 44
0.0
 45
0.0
 49
0.0
 74
     4
 75
     0
340
0
 46
1.0
 50
0.0
 44
0.0
 45
0.0
 49
-1.25
 74
     4
 75
     0
340
0
 46
1.0
 50
0.0
 44
0.0
 45
0.0
  0
LTYPE
  5
37D
330
5
100
AcDbSymbolTableRecord
100
AcDbLinetypeTableRecord
  2
CENTER
 70
     0
  3
__ . __ . __ . __ . __
 72
    65
 73
     4
 40
7.5
 49
5.0
 74
     4
 75
     0
340
0
 46
1.0
 50
0.0
 44
0.0
 45
0.0
 49
-1.25
 74
     4
 75
     0
340
0
 46
1.0
 50
0.0
 44
0.0
 45
0.0
 49
0.0
 74
     4
 75
     0
340
0
 46
1.0
 50
0.0
 44
0.0
 45
0.0
 49
-1.25
 74
     4
 75
     0
340
0
 46
1.0
 50
0.0
 44
0.0
 45
0.0
  0
ENDTAB
  0
TABLE
  2
LAYER
  5
2
330
0
100
AcDbSymbolTable
 70
    15
  0
LAYER
  5
10
330
2
100
AcDbSymbolTableRecord
100
AcDbLayerTableRecord
  2
0
 70
     0
 62
     7
  6
Continuous
370
    -3
390
F
  0
LAYER
  5
2B
330
2
100
AcDbSymbolTableRecord
100
AcDbLayerTableRecord
  2
LC-INFO-1-2-mm-A3-0
 70
     1
 62
     7
  6
ByBlock
370
    -3
390
F
  0
LAYER
  5
2C
330
2
100
AcDbSymbolTableRecord
100
AcDbLayerTableRecord
  2
LC-CUT-HIDDEN
 70
     0
 62
     7
  6
DASHED
370
    -3
390
F
  0
LAYER
  5
2D
330
2
100
AcDbSymbolTableRecord
100
AcDbLayerTableRecord
  2
LC-VIEWPORT
 70
     0
 62
     7
  6
ByBlock
370
    -3
390
F
  0
LAYER
  5
2E
330
2
100
AcDbSymbolTableRecord
100
AcDbLayerTableRecord
  2
LC-3D-HIDDEN
 70
     0
 62
     9
  6
DASHED
370
    -3
390
F
  0
LAYER
  5
31
330
2
100
AcDbSymbolTableRecord
100
AcDbLayerTableRecord
  2
LC-001-002-----0
 70
     0
 62
     2
  6
DASHDOT
370
    -3
390
F
  0
LAYER
  5
36
330
2
100
AcDbSymbolTableRecord
100
AcDbLayerTableRecord
  2
LC-002-003-----0
 70
     0
 62
     2
  6
ByBlock
370
    -3
390
F
  0
LAYER
  5
38
330
2
100
AcDbSymbolTableRecord
100
AcDbLayerTableRecord
  2
Defpoints
 70
     0
 62
     7
  6
Continuous
290
     0
370
    -3
390
F
  0
LAYER
  5
47
330
2
100
AcDbSymbolTableRecord
100
AcDbLayerTableRecord
  2
LC-003-020-RND-0
 70
     0
 62
     1
  6
ByBlock
370
    -3
390
F
  0
LAYER
  5
4E
330
2
100
AcDbSymbolTableRecord
100
AcDbLayerTableRecord
  2
LC-004-020-----0
 70
     0
 62
     1
  6
ByBlock
370
    -3
390
F
  0
LAYER
  5
51
330
2
100
AcDbSymbolTableRecord
100
AcDbLayerTableRecord
  2
LC-005-002-RND-0
 70
     0
 62
     1
  6
ByBlock
370
    -3
390
F
  0
LAYER
  5
8A
330
2
100
AcDbSymbolTableRecord
100
AcDbLayerTableRecord
  2
LC-006-005-----0
 70
     0
 62
     2
  6
ByBlock
370
    -3
390
F
  0
LAYER
  5
D6
330
2
100
AcDbSymbolTableRecord
100
AcDbLayerTableRecord
  2
LC-007-001-----0
 70
     0
 62
     1
  6
ByBlock
370
    -3
390
F
  0
LAYER
  5
37E
330
2
100
AcDbSymbolTableRecord
100
AcDbLayerTableRecord
  2
LC-008-006-MLN-0
 70
     0
 62
     2
  6
CENTER
370
    -3
390
F
  0
LAYER
  5
3E5
330
2
100
AcDbSymbolTableRecord
100
AcDbLayerTableRecord
  2
LC-009-100-D00-0
 70
     0
 62
     1
  6
ByBlock
370
    -3
390
F
  0
ENDTAB
  0
TABLE
  2
STYLE
  5
3
330
0
100
AcDbSymbolTable
 70
     3
  0
STYLE
  5
11
330
3
100
AcDbSymbolTableRecord
100
AcDbTextStyleTableRecord
  2
Standard
 70
     0
 40
0.0
 41
1.0
 50
0.0
 71
     0
 42
2.5
  3
txt
  4

  0
STYLE
  5
2F
330
3
100
AcDbSymbolTableRecord
100
AcDbTextStyleTableRecord
  2
LCTX15-400-0-0-Arial
 70
     0
 40
0.0
 41
0.8
 50
0.0
 71
     0
 42
3.5
  3

  4

1001
ACAD
1000
Arial
1071
 16777218
  0
STYLE
  5
34
330
3
100
AcDbSymbolTableRecord
100
AcDbTextStyleTableRecord
  2
LCTX15-400-0-0pDIN-Schrift
 70
     0
 40
2.5
 41
0.8
 50
15.0
 71
     0
 42
3.5
  3
STANDARD
  4

  0
ENDTAB
  0
TABLE
  2
VIEW
  5
6
330
0
100
AcDbSymbolTable
 70
     0
  0
ENDTAB
  0
TABLE
  2
UCS
  5
7
330
0
100
AcDbSymbolTable
 70
     0
  0
ENDTAB
  0
TABLE
  2
APPID
  5
9
330
0
100
AcDbSymbolTable
 70
     1
  0
APPID
  5
12
330
9
100
AcDbSymbolTableRecord
100
AcDbRegAppTableRecord
  2
ACAD
 70
     0
  0
ENDTAB
  0
TABLE
  2
DIMSTYLE
  5
A
330
0
100
AcDbSymbolTable
 70
     2
100
AcDbDimStyleTable
  0
DIMSTYLE
105
27
330
A
100
AcDbSymbolTableRecord
100
AcDbDimStyleTableRecord
  2
ISO-25
 70
     0
 41
2.5
 42
0.625
 43
3.75
 44
1.25
 73
     0
 74
     0
 77
     1
 78
     8
140
2.5
141
2.5
143
0.03937
147
0.625
171
     3
172
     1
271
     2
272
     2
274
     3
278
    44
283
     0
284
     8
340
11
  0
DIMSTYLE
105
35
102
{ACAD_REACTORS
330
37
330
305
330
312
330
31F
330
32C
330
33A
330
347
330
3D8
102
}
330
A
100
AcDbSymbolTableRecord
100
AcDbDimStyleTableRecord
  2
LC-DIM-L-0140-02-02
 70
     0
 40
2.0
 41
14.0
 42
0.0
 43
7.5
 44
1.8
 73
     0
 74
     0
 77
     1
 78
     8
 79
     2
140
14.0
141
0.0
146
0.71
147
1.5
176
     2
177
     2
178
     2
179
     2
271
     2
278
    44
289
     1
340
34
  0
ENDTAB
  0
TABLE
  2
BLOCK_RECORD
  5
1
330
0
100
AcDbSymbolTable
 70
    25
  0
BLOCK_RECORD
  5
1F
330
1
100
AcDbSymbolTableRecord
100
AcDbBlockTableRecord
  2
*Model_Space
340
22
  0
BLOCK_RECORD
  5
1B
330
1
100
AcDbSymbolTableRecord
100
AcDbBlockTableRecord
  2
*Paper_Space
340
1E
  0
BLOCK_RECORD
  5
23
330
1
100
AcDbSymbolTableRecord
100
AcDbBlockTableRecord
  2
*Paper_Space0
340
26
  0
BLOCK_RECORD
  5
39
330
1
100
AcDbSymbolTableRecord
100
AcDbBlockTableRecord
  2
*D1
340
0
  0
BLOCK_RECORD
  5
87
330
1
100
AcDbSymbolTableRecord
100
AcDbBlockTableRecord
  2
*X12
340
0
102
{BLKREFS
331
C9
102
}
  0
BLOCK_RECORD
  5
EF
330
1
100
AcDbSymbolTableRecord
100
AcDbBlockTableRecord
  2
*X23
340
0
102
{BLKREFS
331
1AF
102
}
  0
BLOCK_RECORD
  5
1E7
330
1
100
AcDbSymbolTableRecord
100
AcDbBlockTableRecord
  2
*X34
340
0
102
{BLKREFS
331
1EF
102
}
  0
BLOCK_RECORD
  5
1F1
330
1
100
AcDbSymbolTableRecord
100
AcDbBlockTableRecord
  2
*X45
340
0
102
{BLKREFS
331
1F9
102
}
  0
BLOCK_RECORD
  5
1FA
330
1
100
AcDbSymbolTableRecord
100
AcDbBlockTableRecord
  2
*X56
340
0
102
{BLKREFS
331
22A
102
}
  0
BLOCK_RECORD
  5
22B
330
1
100
AcDbSymbolTableRecord
100
AcDbBlockTableRecord
  2
*X67
340
0
102
{BLKREFS
331
24A
102
}
  0
BLOCK_RECORD
  5
24D
330
1
100
AcDbSymbolTableRecord
100
AcDbBlockTableRecord
  2
*X78
340
0
102
{BLKREFS
331
25D
102
}
  0
BLOCK_RECORD
  5
25E
330
1
100
AcDbSymbolTableRecord
100
AcDbBlockTableRecord
  2
*X89
340
0
102
{BLKREFS
331
26A
102
}
  0
BLOCK_RECORD
  5
26B
330
1
100
AcDbSymbolTableRecord
100
AcDbBlockTableRecord
  2
*X910
340
0
102
{BLKREFS
331
278
102
}
  0
BLOCK_RECORD
  5
279
330
1
100
AcDbSymbolTableRecord
100
AcDbBlockTableRecord
  2
*X1011
340
0
102
{BLKREFS
331
286
102
}
  0
BLOCK_RECORD
  5
287
330
1
100
AcDbSymbolTableRecord
100
AcDbBlockTableRecord
  2
*X1112
340
0
102
{BLKREFS
331
293
102
}
  0
BLOCK_RECORD
  5
2DF
330
1
100
AcDbSymbolTableRecord
100
AcDbBlockTableRecord
  2
*X1213
340
0
102
{BLKREFS
331
2F0
102
}
  0
BLOCK_RECORD
  5
2F1
330
1
100
AcDbSymbolTableRecord
100
AcDbBlockTableRecord
  2
*X1314
340
0
102
{BLKREFS
331
304
102
}
  0
BLOCK_RECORD
  5
306
330
1
100
AcDbSymbolTableRecord
100
AcDbBlockTableRecord
  2
*D15
340
0
  0
BLOCK_RECORD
  5
313
330
1
100
AcDbSymbolTableRecord
100
AcDbBlockTableRecord
  2
*D16
340
0
  0
BLOCK_RECORD
  5
320
330
1
100
AcDbSymbolTableRecord
100
AcDbBlockTableRecord
  2
*D17
340
0
  0
BLOCK_RECORD
  5
32D
330
1
100
AcDbSymbolTableRecord
100
AcDbBlockTableRecord
  2
*D18
340
0
  0
BLOCK_RECORD
  5
33B
330
1
100
AcDbSymbolTableRecord
100
AcDbBlockTableRecord
  2
*D19
340
0
  0
BLOCK_RECORD
  5
348
330
1
100
AcDbSymbolTableRecord
100
AcDbBlockTableRecord
  2
*D20
340
0
  0
BLOCK_RECORD
  5
380
330
1
100
AcDbSymbolTableRecord
100
AcDbBlockTableRecord
  2
*X1421
340
0
102
{BLKREFS
331
3D2
102
}
  0
BLOCK_RECORD
  5
3D9
330
1
100
AcDbSymbolTableRecord
100
AcDbBlockTableRecord
  2
*D22
340
0
  0
BLOCK_RECORD
  5
405
330
1
100
AcDbSymbolTableRecord
100
AcDbBlockTableRecord
  2
KLON1
340
0
102
{BLKREFS
331
40F
102
}
  0
BLOCK_RECORD
  5
42F
330
1
100
AcDbSymbolTableRecord
100
AcDbBlockTableRecord
  2
KLON2
340
0
102
{BLKREFS
331
439
102
}
  0
ENDTAB
  0
ENDSEC
  0
SECTION
  2
BLOCKS
  0
BLOCK
  5
20
330
1F
100
AcDbEntity
  8
0
100
AcDbBlockBegin
  2
*Model_Space
 70
     0
 71
     0
 10
0.0
 20
0.0
 30
0.0
  3
*Model_Space
  1

  0
ENDBLK
  5
21
330
1F
100
AcDbEntity
  8
0
100
AcDbBlockEnd
  0
BLOCK
  5
1C
330
1B
100
AcDbEntity
 67
     1
  8
0
100
AcDbBlockBegin
  2
*Paper_Space
 70
     0
 71
     0
 10
0.0
 20
0.0
 30
0.0
  3
*Paper_Space
  1

  0
ENDBLK
  5
1D
330
1B
100
AcDbEntity
 67
     1
  8
0
100
AcDbBlockEnd
  0
BLOCK
  5
24
330
23
100
AcDbEntity
  8
0
100
AcDbBlockBegin
  2
*Paper_Space0
 70
     0
 71
     0
 10
0.0
 20
0.0
 30
0.0
  3
*Paper_Space0
  1

  0
ENDBLK
  5
25
330
23
100
AcDbEntity
  8
0
100
AcDbBlockEnd
  0
BLOCK
  5
43
330
39
100
AcDbEntity
  8
0
100
AcDbBlockBegin
  2
*D1
 70
     1
 71
     0
 10
0.0
 20
0.0
 30
0.0
  3
*D1
  1

  0
LINE
  5
3A
330
39
100
AcDbEntity
  8
LC-002-003-----0
 62
     2
370
    -2
100
AcDbLine
 10
535.631085
 20
228.116383
 30
0.0
 11
705.477942
 21
228.116383
 31
0.0
  0
LINE
  5
3B
330
39
100
AcDbEntity
  8
LC-002-003-----0
 62
     2
370
    -2
100
AcDbLine
 10
535.631085
 20
338.116383
 30
0.0
 11
705.477942
 21
338.116383
 31
0.0
  0
LINE
  5
3C
330
39
100
AcDbEntity
  8
LC-002-003-----0
 62
     2
370
    -2
100
AcDbLine
 10
701.877942
 20
256.116383
 30
0.0
 11
701.877942
 21
310.116383
 31
0.0
  0
SOLID
  5
3D
330
39
100
AcDbEntity
  8
LC-002-003-----0
 62
     2
100
AcDbTrace
 10
697.211275
 20
256.116383
 30
0.0
 11
706.544608
 21
256.116383
 31
0.0
 12
701.877942
 22
228.116383
 32
0.0
 13
701.877942
 23
228.116383
 33
0.0
  0
SOLID
  5
3E
330
39
100
AcDbEntity
  8
LC-002-003-----0
 62
     2
100
AcDbTrace
 10
706.544608
 20
310.116383
 30
0.0
 11
697.211275
 21
310.116383
 31
0.0
 12
701.877942
 22
338.116383
 32
0.0
 13
701.877942
 23
338.116383
 33
0.0
  0
MTEXT
  5
3F
330
39
100
AcDbEntity
  8
LC-002-003-----0
 62
     2
100
AcDbMText
 10
732.677334
 20
282.535915
 30
0.0
 40
28.0
 41
0.0
 71
     5
 72
     1
  1
\A1;DN100
  7
LCTX15-400-0-0pDIN-Schrift
 11
6.123031769111886E-17
 21
1.0
 31
0.0
 73
     1
 44
1.0
  0
POINT
  5
40
330
39
100
AcDbEntity
  8
Defpoints
 62
     0
100
AcDbPoint
 10
535.631085
 20
228.116383
 30
0.0
  0
POINT
  5
41
330
39
100
AcDbEntity
  8
Defpoints
 62
     0
100
AcDbPoint
 10
535.631085
 20
338.116383
 30
0.0
  0
POINT
  5
42
330
39
100
AcDbEntity
  8
Defpoints
 62
     0
100
AcDbPoint
 10
701.877942
 20
338.116383
 30
0.0
  0
ENDBLK
  5
44
330
39
100
AcDbEntity
  8
0
100
AcDbBlockEnd
  0
BLOCK
  5
88
330
87
100
AcDbEntity
  8
0
100
AcDbBlockBegin
  2
*X12
 70
     1
 71
     0
 10
0.0
 20
0.0
 30
0.0
  3
*X12
  1

  4
*X1
  0
LINE
  5
8B
330
87
100
AcDbEntity
  8
LC-006-005-----0
 62
     7
370
    25
100
AcDbLine
 10
499.428441
 20
324.065959
 30
0.0
 11
500.631085
 21
325.268603
 31
0.0
  0
LINE
  5
8C
330
87
100
AcDbEntity
  8
LC-006-005-----0
 62
     7
370
    25
100
AcDbLine
 10
496.600014
 20
324.065959
 30
0.0
 11
498.829421
 21
326.295366
 31
0.0
  0
LINE
  5
8D
330
87
100
AcDbEntity
  8
LC-006-005-----0
 62
     7
370
    25
100
AcDbLine
 10
493.771587
 20
324.065959
 30
0.0
 11
496.322087
 21
326.616459
 31
0.0
  0
LINE
  5
8E
330
87
100
AcDbEntity
  8
LC-006-005-----0
 62
     7
370
    25
100
AcDbLine
 10
490.94316
 20
324.065959
 30
0.0
 11
493.49366
 21
326.616459
 31
0.0
  0
LINE
  5
8F
330
87
100
AcDbEntity
  8
LC-006-005-----0
 62
     7
370
    25
100
AcDbLine
 10
488.114733
 20
324.065959
 30
0.0
 11
490.665233
 21
326.616459
 31
0.0
  0
LINE
  5
90
330
87
100
AcDbEntity
  8
LC-006-005-----0
 62
     7
370
    25
100
AcDbLine
 10
485.286305
 20
324.065959
 30
0.0
 11
487.836805
 21
326.616459
 31
0.0
  0
LINE
  5
91
330
87
100
AcDbEntity
  8
LC-006-005-----0
 62
     7
370
    25
100
AcDbLine
 10
482.457878
 20
324.065959
 30
0.0
 11
485.008378
 21
326.616459
 31
0.0
  0
LINE
  5
92
330
87
100
AcDbEntity
  8
LC-006-005-----0
 62
     7
370
    25
100
AcDbLine
 10
479.629451
 20
324.065959
 30
0.0
 11
482.179951
 21
326.616459
 31
0.0
  0
LINE
  5
93
330
87
100
AcDbEntity
  8
LC-006-005-----0
 62
     7
370
    25
100
AcDbLine
 10
476.801024
 20
324.065959
 30
0.0
 11
479.351524
 21
326.616459
 31
0.0
  0
LINE
  5
94
330
87
100
AcDbEntity
  8
LC-006-005-----0
 62
     7
370
    25
100
AcDbLine
 10
473.972597
 20
324.065959
 30
0.0
 11
476.523097
 21
326.616459
 31
0.0
  0
LINE
  5
95
330
87
100
AcDbEntity
  8
LC-006-005-----0
 62
     7
370
    25
100
AcDbLine
 10
471.14417
 20
324.065959
 30
0.0
 11
473.69467
 21
326.616459
 31
0.0
  0
LINE
  5
96
330
87
100
AcDbEntity
  8
LC-006-005-----0
 62
     7
370
    25
100
AcDbLine
 10
468.315743
 20
324.065959
 30
0.0
 11
470.866243
 21
326.616459
 31
0.0
  0
LINE
  5
97
330
87
100
AcDbEntity
  8
LC-006-005-----0
 62
     7
370
    25
100
AcDbLine
 10
512.288147
 20
368.038364
 30
0.0
 11
512.650629
 21
368.400845
 31
0.0
  0
LINE
  5
98
330
87
100
AcDbEntity
  8
LC-006-005-----0
 62
     7
370
    25
100
AcDbLine
 10
465.487316
 20
324.065959
 30
0.0
 11
468.037816
 21
326.616459
 31
0.0
  0
LINE
  5
99
330
87
100
AcDbEntity
  8
LC-006-005-----0
 62
     7
370
    25
100
AcDbLine
 10
509.246022
 20
367.824665
 30
0.0
 11
512.478466
 21
371.05711
 31
0.0
  0
LINE
  5
9A
330
87
100
AcDbEntity
  8
LC-006-005-----0
 62
     7
370
    25
100
AcDbLine
 10
462.658888
 20
324.065959
 30
0.0
 11
465.209388
 21
326.616459
 31
0.0
  0
LINE
  5
9B
330
87
100
AcDbEntity
  8
LC-006-005-----0
 62
     7
370
    25
100
AcDbLine
 10
506.203896
 20
367.610967
 30
0.0
 11
509.43634
 21
370.843411
 31
0.0
  0
LINE
  5
9C
330
87
100
AcDbEntity
  8
LC-006-005-----0
 62
     7
370
    25
100
AcDbLine
 10
459.830461
 20
324.065959
 30
0.0
 11
462.380961
 21
326.616459
 31
0.0
  0
LINE
  5
9D
330
87
100
AcDbEntity
  8
LC-006-005-----0
 62
     7
370
    25
100
AcDbLine
 10
503.161771
 20
367.397269
 30
0.0
 11
506.394215
 21
370.629713
 31
0.0
  0
LINE
  5
9E
330
87
100
AcDbEntity
  8
LC-006-005-----0
 62
     7
370
    25
100
AcDbLine
 10
457.002034
 20
324.065959
 30
0.0
 11
459.552534
 21
326.616459
 31
0.0
  0
LINE
  5
9F
330
87
100
AcDbEntity
  8
LC-006-005-----0
 62
     7
370
    25
100
AcDbLine
 10
500.119646
 20
367.183571
 30
0.0
 11
503.35209
 21
370.416015
 31
0.0
  0
LINE
  5
A0
330
87
100
AcDbEntity
  8
LC-006-005-----0
 62
     7
370
    25
100
AcDbLine
 10
454.173607
 20
324.065959
 30
0.0
 11
456.724107
 21
326.616459
 31
0.0
  0
LINE
  5
A1
330
87
100
AcDbEntity
  8
LC-006-005-----0
 62
     7
370
    25
100
AcDbLine
 10
497.077521
 20
366.969873
 30
0.0
 11
500.309965
 21
370.202317
 31
0.0
  0
LINE
  5
A2
330
87
100
AcDbEntity
  8
LC-006-005-----0
 62
     7
370
    25
100
AcDbLine
 10
451.34518
 20
324.065959
 30
0.0
 11
453.89568
 21
326.616459
 31
0.0
  0
LINE
  5
A3
330
87
100
AcDbEntity
  8
LC-006-005-----0
 62
     7
370
    25
100
AcDbLine
 10
494.035395
 20
366.756175
 30
0.0
 11
497.267839
 21
369.988619
 31
0.0
  0
LINE
  5
A4
330
87
100
AcDbEntity
  8
LC-006-005-----0
 62
     7
370
    25
100
AcDbLine
 10
448.516753
 20
324.065959
 30
0.0
 11
451.067253
 21
326.616459
 31
0.0
  0
LINE
  5
A5
330
87
100
AcDbEntity
  8
LC-006-005-----0
 62
     7
370
    25
100
AcDbLine
 10
490.99327
 20
366.542476
 30
0.0
 11
494.225714
 21
369.774921
 31
0.0
  0
LINE
  5
A6
330
87
100
AcDbEntity
  8
LC-006-005-----0
 62
     7
370
    25
100
AcDbLine
 10
445.688326
 20
324.065959
 30
0.0
 11
448.238826
 21
326.616459
 31
0.0
  0
LINE
  5
A7
330
87
100
AcDbEntity
  8
LC-006-005-----0
 62
     7
370
    25
100
AcDbLine
 10
487.951145
 20
366.328778
 30
0.0
 11
491.183589
 21
369.561222
 31
0.0
  0
LINE
  5
A8
330
87
100
AcDbEntity
  8
LC-006-005-----0
 62
     7
370
    25
100
AcDbLine
 10
442.859899
 20
324.065959
 30
0.0
 11
445.410399
 21
326.616459
 31
0.0
  0
LINE
  5
A9
330
87
100
AcDbEntity
  8
LC-006-005-----0
 62
     7
370
    25
100
AcDbLine
 10
484.909019
 20
366.11508
 30
0.0
 11
488.141463
 21
369.347524
 31
0.0
  0
LINE
  5
AA
330
87
100
AcDbEntity
  8
LC-006-005-----0
 62
     7
370
    25
100
AcDbLine
 10
440.031471
 20
324.065959
 30
0.0
 11
442.581971
 21
326.616459
 31
0.0
  0
LINE
  5
AB
330
87
100
AcDbEntity
  8
LC-006-005-----0
 62
     7
370
    25
100
AcDbLine
 10
481.866894
 20
365.901382
 30
0.0
 11
485.099338
 21
369.133826
 31
0.0
  0
LINE
  5
AC
330
87
100
AcDbEntity
  8
LC-006-005-----0
 62
     7
370
    25
100
AcDbLine
 10
437.203044
 20
324.065959
 30
0.0
 11
439.753544
 21
326.616459
 31
0.0
  0
LINE
  5
AD
330
87
100
AcDbEntity
  8
LC-006-005-----0
 62
     7
370
    25
100
AcDbLine
 10
478.260853
 20
365.123768
 30
0.0
 11
482.057213
 21
368.920128
 31
0.0
  0
LINE
  5
AE
330
87
100
AcDbEntity
  8
LC-006-005-----0
 62
     7
370
    25
100
AcDbLine
 10
434.374617
 20
324.065959
 30
0.0
 11
436.925117
 21
326.616459
 31
0.0
  0
LINE
  5
AF
330
87
100
AcDbEntity
  8
LC-006-005-----0
 62
     7
370
    25
100
AcDbLine
 10
442.875439
 20
332.566781
 30
0.0
 11
446.777743
 21
336.469085
 31
0.0
  0
LINE
  5
B0
330
87
100
AcDbEntity
  8
LC-006-005-----0
 62
     7
370
    25
100
AcDbLine
 10
473.875406
 20
363.566748
 30
0.0
 11
479.015088
 21
368.70643
 31
0.0
  0
LINE
  5
B1
330
87
100
AcDbEntity
  8
LC-006-005-----0
 62
     7
370
    25
100
AcDbLine
 10
432.635516
 20
325.155285
 30
0.0
 11
435.135566
 21
327.655336
 31
0.0
  0
LINE
  5
B2
330
87
100
AcDbEntity
  8
LC-006-005-----0
 62
     7
370
    25
100
AcDbLine
 10
440.04702
 20
332.566789
 30
0.0
 11
449.243758
 21
341.763527
 31
0.0
  0
LINE
  5
B3
330
87
100
AcDbEntity
  8
LC-006-005-----0
 62
     7
370
    25
100
AcDbLine
 10
470.551285
 20
363.071054
 30
0.0
 11
475.972962
 21
368.492731
 31
0.0
  0
LINE
  5
B4
330
87
100
AcDbEntity
  8
LC-006-005-----0
 62
     7
370
    25
100
AcDbLine
 10
432.635535
 20
327.983731
 30
0.0
 11
435.13557
 21
330.483767
 31
0.0
  0
LINE
  5
B5
330
87
100
AcDbEntity
  8
LC-006-005-----0
 62
     7
370
    25
100
AcDbLine
 10
437.218601
 20
332.566798
 30
0.0
 11
451.340343
 21
346.688539
 31
0.0
  0
LINE
  5
B6
330
87
100
AcDbEntity
  8
LC-006-005-----0
 62
     7
370
    25
100
AcDbLine
 10
467.510214
 20
362.85841
 30
0.0
 11
472.789028
 21
368.137225
 31
0.0
  0
LINE
  5
B7
330
87
100
AcDbEntity
  8
LC-006-005-----0
 62
     7
370
    25
100
AcDbLine
 10
432.635553
 20
330.812177
 30
0.0
 11
437.389162
 21
335.565785
 31
0.0
  0
LINE
  5
B8
330
87
100
AcDbEntity
  8
LC-006-005-----0
 62
     7
370
    25
100
AcDbLine
 10
439.502807
 20
337.67943
 30
0.0
 11
446.297161
 21
344.473784
 31
0.0
  0
LINE
  5
B9
330
87
100
AcDbEntity
  8
LC-006-005-----0
 62
     7
370
    25
100
AcDbLine
 10
448.817508
 20
346.994131
 30
0.0
 11
451.340372
 21
349.516996
 31
0.0
  0
LINE
  5
BA
330
87
100
AcDbEntity
  8
LC-006-005-----0
 62
     7
370
    25
100
AcDbLine
 10
464.469143
 20
362.645766
 30
0.0
 11
468.08478
 21
366.261403
 31
0.0
  0
LINE
  5
BB
330
87
100
AcDbEntity
  8
LC-006-005-----0
 62
     7
370
    25
100
AcDbLine
 10
432.635572
 20
333.640623
 30
0.0
 11
434.560769
 21
335.56582
 31
0.0
  0
LINE
  5
BC
330
87
100
AcDbEntity
  8
LC-006-005-----0
 62
     7
370
    25
100
AcDbLine
 10
439.502814
 20
340.507865
 30
0.0
 11
443.261097
 21
344.266148
 31
0.0
  0
LINE
  5
BD
330
87
100
AcDbEntity
  8
LC-006-005-----0
 62
     7
370
    25
100
AcDbLine
 10
449.025154
 20
350.030204
 30
0.0
 11
456.337196
 21
357.342247
 31
0.0
  0
LINE
  5
BE
330
87
100
AcDbEntity
  8
LC-006-005-----0
 62
     7
370
    25
100
AcDbLine
 10
461.428071
 20
362.433122
 30
0.0
 11
464.692875
 21
365.697926
 31
0.0
  0
LINE
  5
BF
330
87
100
AcDbEntity
  8
LC-006-005-----0
 62
     7
370
    25
100
AcDbLine
 10
438.370391
 20
342.203869
 30
0.0
 11
439.286614
 21
343.120092
 31
0.0
  0
LINE
  5
C0
330
87
100
AcDbEntity
  8
LC-006-005-----0
 62
     7
370
    25
100
AcDbLine
 10
439.502822
 20
343.3363
 30
0.0
 11
440.432677
 21
344.266155
 31
0.0
  0
LINE
  5
C1
330
87
100
AcDbEntity
  8
LC-006-005-----0
 62
     7
370
    25
100
AcDbLine
 10
449.025161
 20
352.858639
 30
0.0
 11
452.354974
 21
356.188452
 31
0.0
  0
LINE
  5
C2
330
87
100
AcDbEntity
  8
LC-006-005-----0
 62
     7
370
    25
100
AcDbLine
 10
453.884499
 20
357.717977
 30
0.0
 11
456.337216
 21
360.170694
 31
0.0
  0
LINE
  5
C3
330
87
100
AcDbEntity
  8
LC-006-005-----0
 62
     7
370
    25
100
AcDbLine
 10
458.387
 20
362.220478
 30
0.0
 11
461.64281
 21
365.476288
 31
0.0
  0
LINE
  5
C4
330
87
100
AcDbEntity
  8
LC-006-005-----0
 62
     7
370
    25
100
AcDbLine
 10
449.025169
 20
355.687073
 30
0.0
 11
450.743116
 21
357.405021
 31
0.0
  0
LINE
  5
C5
330
87
100
AcDbEntity
  8
LC-006-005-----0
 62
     7
370
    25
100
AcDbLine
 10
453.884506
 20
360.546411
 30
0.0
 11
458.592745
 21
365.254649
 31
0.0
  0
LINE
  5
C6
330
87
100
AcDbEntity
  8
LC-006-005-----0
 62
     7
370
    25
100
AcDbLine
 10
449.025176
 20
358.515508
 30
0.0
 11
450.743124
 21
360.233456
 31
0.0
  0
LINE
  5
C7
330
87
100
AcDbEntity
  8
LC-006-005-----0
 62
     7
370
    25
100
AcDbLine
 10
453.884514
 20
363.374846
 30
0.0
 11
455.542679
 21
365.033011
 31
0.0
  0
LINE
  5
C8
330
87
100
AcDbEntity
  8
LC-006-005-----0
 62
     7
370
    25
100
AcDbLine
 10
449.025184
 20
361.343943
 30
0.0
 11
449.736545
 21
362.055304
 31
0.0
  0
ENDBLK
  5
89
330
87
100
AcDbEntity
  8
0
100
AcDbBlockEnd
  0
BLOCK
  5
F0
330
EF
100
AcDbEntity
  8
0
100
AcDbBlockBegin
  2
*X23
 70
     1
 71
     0
 10
0.0
 20
0.0
 30
0.0
  3
*X23
  1

  4
*X2
  0
LINE
  5
F2
330
EF
100
AcDbEntity
  8
LC-006-005-----0
 62
     7
370
    25
100
AcDbLine
 10
497.71152
 20
251.63836
 30
0.0
 11
500.239968
 21
254.166808
 31
0.0
  0
LINE
  5
F3
330
EF
100
AcDbEntity
  8
LC-006-005-----0
 62
     7
370
    25
100
AcDbLine
 10
494.86154
 20
251.616808
 30
0.0
 11
497.41154
 21
254.166808
 31
0.0
  0
LINE
  5
F4
330
EF
100
AcDbEntity
  8
LC-006-005-----0
 62
     7
370
    25
100
AcDbLine
 10
492.033113
 20
251.616808
 30
0.0
 11
494.583113
 21
254.166808
 31
0.0
  0
LINE
  5
F5
330
EF
100
AcDbEntity
  8
LC-006-005-----0
 62
     7
370
    25
100
AcDbLine
 10
489.204686
 20
251.616808
 30
0.0
 11
491.754686
 21
254.166808
 31
0.0
  0
LINE
  5
F6
330
EF
100
AcDbEntity
  8
LC-006-005-----0
 62
     7
370
    25
100
AcDbLine
 10
486.376259
 20
251.616808
 30
0.0
 11
488.926259
 21
254.166808
 31
0.0
  0
LINE
  5
F7
330
EF
100
AcDbEntity
  8
LC-006-005-----0
 62
     7
370
    25
100
AcDbLine
 10
483.547832
 20
251.616808
 30
0.0
 11
486.097832
 21
254.166808
 31
0.0
  0
LINE
  5
F8
330
EF
100
AcDbEntity
  8
LC-006-005-----0
 62
     7
370
    25
100
AcDbLine
 10
480.719405
 20
251.616808
 30
0.0
 11
483.269405
 21
254.166808
 31
0.0
  0
LINE
  5
F9
330
EF
100
AcDbEntity
  8
LC-006-005-----0
 62
     7
370
    25
100
AcDbLine
 10
477.890978
 20
251.616808
 30
0.0
 11
480.440978
 21
254.166808
 31
0.0
  0
LINE
  5
FA
330
EF
100
AcDbEntity
  8
LC-006-005-----0
 62
     7
370
    25
100
AcDbLine
 10
475.062551
 20
251.616808
 30
0.0
 11
477.612551
 21
254.166808
 31
0.0
  0
LINE
  5
FB
330
EF
100
AcDbEntity
  8
LC-006-005-----0
 62
     7
370
    25
100
AcDbLine
 10
472.234123
 20
251.616808
 30
0.0
 11
474.784123
 21
254.166808
 31
0.0
  0
LINE
  5
FC
330
EF
100
AcDbEntity
  8
LC-006-005-----0
 62
     7
370
    25
100
AcDbLine
 10
469.405696
 20
251.616808
 30
0.0
 11
471.955696
 21
254.166808
 31
0.0
  0
LINE
  5
FD
330
EF
100
AcDbEntity
  8
LC-006-005-----0
 62
     7
370
    25
100
AcDbLine
 10
466.577269
 20
251.616808
 30
0.0
 11
469.127269
 21
254.166808
 31
0.0
  0
LINE
  5
FE
330
EF
100
AcDbEntity
  8
LC-006-005-----0
 62
     7
370
    25
100
AcDbLine
 10
463.748842
 20
251.616808
 30
0.0
 11
466.298842
 21
254.166808
 31
0.0
  0
LINE
  5
FF
330
EF
100
AcDbEntity
  8
LC-006-005-----0
 62
     7
370
    25
100
AcDbLine
 10
460.920415
 20
251.616808
 30
0.0
 11
463.470415
 21
254.166808
 31
0.0
  0
LINE
  5
100
330
EF
100
AcDbEntity
  8
LC-006-005-----0
 62
     7
370
    25
100
AcDbLine
 10
458.091988
 20
251.616808
 30
0.0
 11
460.641988
 21
254.166808
 31
0.0
  0
LINE
  5
101
330
EF
100
AcDbEntity
  8
LC-006-005-----0
 62
     7
370
    25
100
AcDbLine
 10
422.59282
 20
218.946067
 30
0.0
 11
432.258613
 21
228.61186
 31
0.0
  0
LINE
  5
102
330
EF
100
AcDbEntity
  8
LC-006-005-----0
 62
     7
370
    25
100
AcDbLine
 10
455.263561
 20
251.616808
 30
0.0
 11
457.813561
 21
254.166808
 31
0.0
  0
LINE
  5
103
330
EF
100
AcDbEntity
  8
LC-006-005-----0
 62
     7
370
    25
100
AcDbLine
 10
418.333697
 20
217.515371
 30
0.0
 11
422.536779
 21
221.718453
 31
0.0
  0
LINE
  5
104
330
EF
100
AcDbEntity
  8
LC-006-005-----0
 62
     7
370
    25
100
AcDbLine
 10
429.486227
 20
228.667901
 30
0.0
 11
433.689309
 21
232.870983
 31
0.0
  0
LINE
  5
105
330
EF
100
AcDbEntity
  8
LC-006-005-----0
 62
     7
370
    25
100
AcDbLine
 10
452.435134
 20
251.616808
 30
0.0
 11
454.985134
 21
254.166808
 31
0.0
  0
LINE
  5
106
330
EF
100
AcDbEntity
  8
LC-006-005-----0
 62
     7
370
    25
100
AcDbLine
 10
415.082011
 20
217.092112
 30
0.0
 11
417.9893
 21
219.999401
 31
0.0
  0
LINE
  5
107
330
EF
100
AcDbEntity
  8
LC-006-005-----0
 62
     7
370
    25
100
AcDbLine
 10
431.205279
 20
233.21538
 30
0.0
 11
434.112568
 21
236.122669
 31
0.0
  0
LINE
  5
108
330
EF
100
AcDbEntity
  8
LC-006-005-----0
 62
     7
370
    25
100
AcDbLine
 10
449.606706
 20
251.616808
 30
0.0
 11
452.156706
 21
254.166808
 31
0.0
  0
LINE
  5
109
330
EF
100
AcDbEntity
  8
LC-006-005-----0
 62
     7
370
    25
100
AcDbLine
 10
412.231153
 20
217.069681
 30
0.0
 11
414.741669
 21
219.580198
 31
0.0
  0
LINE
  5
10A
330
EF
100
AcDbEntity
  8
LC-006-005-----0
 62
     7
370
    25
100
AcDbLine
 10
431.624482
 20
236.463011
 30
0.0
 11
434.134944
 21
238.973473
 31
0.0
  0
LINE
  5
10B
330
EF
100
AcDbEntity
  8
LC-006-005-----0
 62
     7
370
    25
100
AcDbLine
 10
446.778279
 20
251.616808
 30
0.0
 11
449.328279
 21
254.166808
 31
0.0
  0
LINE
  5
10C
330
EF
100
AcDbEntity
  8
LC-006-005-----0
 62
     7
370
    25
100
AcDbLine
 10
409.40273
 20
217.069685
 30
0.0
 11
411.902726
 21
219.569682
 31
0.0
  0
LINE
  5
10D
330
EF
100
AcDbEntity
  8
LC-006-005-----0
 62
     7
370
    25
100
AcDbLine
 10
431.634946
 20
239.301902
 30
0.0
 11
434.134963
 21
241.801919
 31
0.0
  0
LINE
  5
10E
330
EF
100
AcDbEntity
  8
LC-006-005-----0
 62
     7
370
    25
100
AcDbLine
 10
443.949852
 20
251.616808
 30
0.0
 11
446.499852
 21
254.166808
 31
0.0
  0
LINE
  5
10F
330
EF
100
AcDbEntity
  8
LC-006-005-----0
 62
     7
370
    25
100
AcDbLine
 10
406.574306
 20
217.069689
 30
0.0
 11
409.074303
 21
219.569686
 31
0.0
  0
LINE
  5
110
330
EF
100
AcDbEntity
  8
LC-006-005-----0
 62
     7
370
    25
100
AcDbLine
 10
431.634965
 20
242.130348
 30
0.0
 11
434.134982
 21
244.630365
 31
0.0
  0
LINE
  5
111
330
EF
100
AcDbEntity
  8
LC-006-005-----0
 62
     7
370
    25
100
AcDbLine
 10
441.121425
 20
251.616808
 30
0.0
 11
443.671425
 21
254.166808
 31
0.0
  0
LINE
  5
112
330
EF
100
AcDbEntity
  8
LC-006-005-----0
 62
     7
370
    25
100
AcDbLine
 10
403.745883
 20
217.069693
 30
0.0
 11
406.24588
 21
219.569689
 31
0.0
  0
LINE
  5
113
330
EF
100
AcDbEntity
  8
LC-006-005-----0
 62
     7
370
    25
100
AcDbLine
 10
431.634984
 20
244.958794
 30
0.0
 11
434.135001
 21
247.45881
 31
0.0
  0
LINE
  5
114
330
EF
100
AcDbEntity
  8
LC-006-005-----0
 62
     7
370
    25
100
AcDbLine
 10
438.292998
 20
251.616808
 30
0.0
 11
440.842998
 21
254.166808
 31
0.0
  0
LINE
  5
115
330
EF
100
AcDbEntity
  8
LC-006-005-----0
 62
     7
370
    25
100
AcDbLine
 10
400.917459
 20
217.069696
 30
0.0
 11
404.635423
 21
220.787659
 31
0.0
  0
LINE
  5
116
330
EF
100
AcDbEntity
  8
LC-006-005-----0
 62
     7
370
    25
100
AcDbLine
 10
431.635003
 20
247.78724
 30
0.0
 11
434.13502
 21
250.287256
 31
0.0
  0
LINE
  5
117
330
EF
100
AcDbEntity
  8
LC-006-005-----0
 62
     7
370
    25
100
AcDbLine
 10
435.464571
 20
251.616808
 30
0.0
 11
438.014571
 21
254.166808
 31
0.0
  0
LINE
  5
118
330
EF
100
AcDbEntity
  8
LC-006-005-----0
 62
     7
370
    25
100
AcDbLine
 10
398.089036
 20
217.0697
 30
0.0
 11
400.589033
 21
219.569697
 31
0.0
  0
LINE
  5
119
330
EF
100
AcDbEntity
  8
LC-006-005-----0
 62
     7
370
    25
100
AcDbLine
 10
402.635423
 20
221.616087
 30
0.0
 11
404.635426
 21
223.61609
 31
0.0
  0
LINE
  5
11A
330
EF
100
AcDbEntity
  8
LC-006-005-----0
 62
     7
370
    25
100
AcDbLine
 10
431.635021
 20
250.615685
 30
0.0
 11
435.186144
 21
254.166808
 31
0.0
  0
LINE
  5
11B
330
EF
100
AcDbEntity
  8
LC-006-005-----0
 62
     7
370
    25
100
AcDbLine
 10
395.260613
 20
217.069704
 30
0.0
 11
397.760609
 21
219.569701
 31
0.0
  0
LINE
  5
11C
330
EF
100
AcDbEntity
  8
LC-006-005-----0
 62
     7
370
    25
100
AcDbLine
 10
402.635427
 20
224.444518
 30
0.0
 11
404.635429
 21
226.44452
 31
0.0
  0
LINE
  5
11D
330
EF
100
AcDbEntity
  8
LC-006-005-----0
 62
     7
370
    25
100
AcDbLine
 10
431.63504
 20
253.444131
 30
0.0
 11
432.357717
 21
254.166808
 31
0.0
  0
LINE
  5
11E
330
EF
100
AcDbEntity
  8
LC-006-005-----0
 62
     7
370
    25
100
AcDbLine
 10
392.432189
 20
217.069708
 30
0.0
 11
394.932186
 21
219.569704
 31
0.0
  0
LINE
  5
11F
330
EF
100
AcDbEntity
  8
LC-006-005-----0
 62
     7
370
    25
100
AcDbLine
 10
402.63543
 20
227.272948
 30
0.0
 11
404.635432
 21
229.272951
 31
0.0
  0
LINE
  5
120
330
EF
100
AcDbEntity
  8
LC-006-005-----0
 62
     7
370
    25
100
AcDbLine
 10
389.603766
 20
217.069711
 30
0.0
 11
392.103763
 21
219.569708
 31
0.0
  0
LINE
  5
121
330
EF
100
AcDbEntity
  8
LC-006-005-----0
 62
     7
370
    25
100
AcDbLine
 10
402.635433
 20
230.101379
 30
0.0
 11
404.635435
 21
232.101381
 31
0.0
  0
LINE
  5
122
330
EF
100
AcDbEntity
  8
LC-006-005-----0
 62
     7
370
    25
100
AcDbLine
 10
386.775343
 20
217.069715
 30
0.0
 11
389.275339
 21
219.569712
 31
0.0
  0
LINE
  5
123
330
EF
100
AcDbEntity
  8
LC-006-005-----0
 62
     7
370
    25
100
AcDbLine
 10
402.635436
 20
232.929809
 30
0.0
 11
404.635439
 21
234.929811
 31
0.0
  0
LINE
  5
124
330
EF
100
AcDbEntity
  8
LC-006-005-----0
 62
     7
370
    25
100
AcDbLine
 10
383.946919
 20
217.069719
 30
0.0
 11
386.446916
 21
219.569716
 31
0.0
  0
LINE
  5
125
330
EF
100
AcDbEntity
  8
LC-006-005-----0
 62
     7
370
    25
100
AcDbLine
 10
402.63544
 20
235.758239
 30
0.0
 11
404.635442
 21
237.758242
 31
0.0
  0
LINE
  5
126
330
EF
100
AcDbEntity
  8
LC-006-005-----0
 62
     7
370
    25
100
AcDbLine
 10
381.118496
 20
217.069723
 30
0.0
 11
383.618493
 21
219.569719
 31
0.0
  0
LINE
  5
127
330
EF
100
AcDbEntity
  8
LC-006-005-----0
 62
     7
370
    25
100
AcDbLine
 10
402.635443
 20
238.58667
 30
0.0
 11
404.635445
 21
240.586672
 31
0.0
  0
LINE
  5
128
330
EF
100
AcDbEntity
  8
LC-006-005-----0
 62
     7
370
    25
100
AcDbLine
 10
378.290072
 20
217.069726
 30
0.0
 11
380.790069
 21
219.569723
 31
0.0
  0
LINE
  5
129
330
EF
100
AcDbEntity
  8
LC-006-005-----0
 62
     7
370
    25
100
AcDbLine
 10
402.635446
 20
241.4151
 30
0.0
 11
404.635448
 21
243.415102
 31
0.0
  0
LINE
  5
12A
330
EF
100
AcDbEntity
  8
LC-006-005-----0
 62
     7
370
    25
100
AcDbLine
 10
375.461649
 20
217.06973
 30
0.0
 11
377.961646
 21
219.569727
 31
0.0
  0
LINE
  5
12B
330
EF
100
AcDbEntity
  8
LC-006-005-----0
 62
     7
370
    25
100
AcDbLine
 10
402.635449
 20
244.24353
 30
0.0
 11
404.635452
 21
246.243533
 31
0.0
  0
LINE
  5
12C
330
EF
100
AcDbEntity
  8
LC-006-005-----0
 62
     7
370
    25
100
AcDbLine
 10
372.633226
 20
217.069734
 30
0.0
 11
375.133222
 21
219.569731
 31
0.0
  0
LINE
  5
12D
330
EF
100
AcDbEntity
  8
LC-006-005-----0
 62
     7
370
    25
100
AcDbLine
 10
402.635453
 20
247.071961
 30
0.0
 11
404.635455
 21
249.071963
 31
0.0
  0
LINE
  5
12E
330
EF
100
AcDbEntity
  8
LC-006-005-----0
 62
     7
370
    25
100
AcDbLine
 10
369.804802
 20
217.069738
 30
0.0
 11
372.304799
 21
219.569734
 31
0.0
  0
LINE
  5
12F
330
EF
100
AcDbEntity
  8
LC-006-005-----0
 62
     7
370
    25
100
AcDbLine
 10
402.635456
 20
249.900391
 30
0.0
 11
404.635458
 21
251.900393
 31
0.0
  0
LINE
  5
130
330
EF
100
AcDbEntity
  8
LC-006-005-----0
 62
     7
370
    25
100
AcDbLine
 10
366.976379
 20
217.069741
 30
0.0
 11
369.476376
 21
219.569738
 31
0.0
  0
LINE
  5
131
330
EF
100
AcDbEntity
  8
LC-006-005-----0
 62
     7
370
    25
100
AcDbLine
 10
402.635459
 20
252.728822
 30
0.0
 11
404.635461
 21
254.728824
 31
0.0
  0
LINE
  5
132
330
EF
100
AcDbEntity
  8
LC-006-005-----0
 62
     7
370
    25
100
AcDbLine
 10
364.147956
 20
217.069745
 30
0.0
 11
366.647952
 21
219.569742
 31
0.0
  0
LINE
  5
133
330
EF
100
AcDbEntity
  8
LC-006-005-----0
 62
     7
370
    25
100
AcDbLine
 10
402.635462
 20
255.557252
 30
0.0
 11
404.635465
 21
257.557254
 31
0.0
  0
LINE
  5
134
330
EF
100
AcDbEntity
  8
LC-006-005-----0
 62
     7
370
    25
100
AcDbLine
 10
361.319532
 20
217.069749
 30
0.0
 11
363.819529
 21
219.569746
 31
0.0
  0
LINE
  5
135
330
EF
100
AcDbEntity
  8
LC-006-005-----0
 62
     7
370
    25
100
AcDbLine
 10
402.635466
 20
258.385682
 30
0.0
 11
404.635468
 21
260.385685
 31
0.0
  0
LINE
  5
136
330
EF
100
AcDbEntity
  8
LC-006-005-----0
 62
     7
370
    25
100
AcDbLine
 10
358.491109
 20
217.069753
 30
0.0
 11
360.991106
 21
219.569749
 31
0.0
  0
LINE
  5
137
330
EF
100
AcDbEntity
  8
LC-006-005-----0
 62
     7
370
    25
100
AcDbLine
 10
402.635469
 20
261.214113
 30
0.0
 11
404.635471
 21
263.214115
 31
0.0
  0
LINE
  5
138
330
EF
100
AcDbEntity
  8
LC-006-005-----0
 62
     7
370
    25
100
AcDbLine
 10
355.662686
 20
217.069756
 30
0.0
 11
358.162682
 21
219.569753
 31
0.0
  0
LINE
  5
139
330
EF
100
AcDbEntity
  8
LC-006-005-----0
 62
     7
370
    25
100
AcDbLine
 10
402.635472
 20
264.042543
 30
0.0
 11
404.635474
 21
266.042545
 31
0.0
  0
LINE
  5
13A
330
EF
100
AcDbEntity
  8
LC-006-005-----0
 62
     7
370
    25
100
AcDbLine
 10
352.834262
 20
217.06976
 30
0.0
 11
355.334259
 21
219.569757
 31
0.0
  0
LINE
  5
13B
330
EF
100
AcDbEntity
  8
LC-006-005-----0
 62
     7
370
    25
100
AcDbLine
 10
402.635475
 20
266.870973
 30
0.0
 11
404.635478
 21
268.870976
 31
0.0
  0
LINE
  5
13C
330
EF
100
AcDbEntity
  8
LC-006-005-----0
 62
     7
370
    25
100
AcDbLine
 10
350.005839
 20
217.069764
 30
0.0
 11
352.505835
 21
219.569761
 31
0.0
  0
LINE
  5
13D
330
EF
100
AcDbEntity
  8
LC-006-005-----0
 62
     7
370
    25
100
AcDbLine
 10
402.635479
 20
269.699404
 30
0.0
 11
404.635481
 21
271.699406
 31
0.0
  0
LINE
  5
13E
330
EF
100
AcDbEntity
  8
LC-006-005-----0
 62
     7
370
    25
100
AcDbLine
 10
347.177415
 20
217.069768
 30
0.0
 11
349.677412
 21
219.569764
 31
0.0
  0
LINE
  5
13F
330
EF
100
AcDbEntity
  8
LC-006-005-----0
 62
     7
370
    25
100
AcDbLine
 10
402.635482
 20
272.527834
 30
0.0
 11
404.635484
 21
274.527836
 31
0.0
  0
LINE
  5
140
330
EF
100
AcDbEntity
  8
LC-006-005-----0
 62
     7
370
    25
100
AcDbLine
 10
344.348992
 20
217.069771
 30
0.0
 11
346.848989
 21
219.569768
 31
0.0
  0
LINE
  5
141
330
EF
100
AcDbEntity
  8
LC-006-005-----0
 62
     7
370
    25
100
AcDbLine
 10
402.635485
 20
275.356265
 30
0.0
 11
404.635487
 21
277.356267
 31
0.0
  0
LINE
  5
142
330
EF
100
AcDbEntity
  8
LC-006-005-----0
 62
     7
370
    25
100
AcDbLine
 10
341.520569
 20
217.069775
 30
0.0
 11
344.020565
 21
219.569772
 31
0.0
  0
LINE
  5
143
330
EF
100
AcDbEntity
  8
LC-006-005-----0
 62
     7
370
    25
100
AcDbLine
 10
402.635488
 20
278.184695
 30
0.0
 11
404.635491
 21
280.184697
 31
0.0
  0
LINE
  5
144
330
EF
100
AcDbEntity
  8
LC-006-005-----0
 62
     7
370
    25
100
AcDbLine
 10
338.692145
 20
217.069779
 30
0.0
 11
341.192142
 21
219.569776
 31
0.0
  0
LINE
  5
145
330
EF
100
AcDbEntity
  8
LC-006-005-----0
 62
     7
370
    25
100
AcDbLine
 10
402.635492
 20
281.013125
 30
0.0
 11
404.635494
 21
283.013128
 31
0.0
  0
LINE
  5
146
330
EF
100
AcDbEntity
  8
LC-006-005-----0
 62
     7
370
    25
100
AcDbLine
 10
335.863722
 20
217.069783
 30
0.0
 11
338.363719
 21
219.569779
 31
0.0
  0
LINE
  5
147
330
EF
100
AcDbEntity
  8
LC-006-005-----0
 62
     7
370
    25
100
AcDbLine
 10
402.635495
 20
283.841556
 30
0.0
 11
404.635497
 21
285.841558
 31
0.0
  0
LINE
  5
148
330
EF
100
AcDbEntity
  8
LC-006-005-----0
 62
     7
370
    25
100
AcDbLine
 10
333.035299
 20
217.069786
 30
0.0
 11
335.535295
 21
219.569783
 31
0.0
  0
LINE
  5
149
330
EF
100
AcDbEntity
  8
LC-006-005-----0
 62
     7
370
    25
100
AcDbLine
 10
402.635498
 20
286.669986
 30
0.0
 11
404.6355
 21
288.669988
 31
0.0
  0
LINE
  5
14A
330
EF
100
AcDbEntity
  8
LC-006-005-----0
 62
     7
370
    25
100
AcDbLine
 10
330.206875
 20
217.06979
 30
0.0
 11
332.706872
 21
219.569787
 31
0.0
  0
LINE
  5
14B
330
EF
100
AcDbEntity
  8
LC-006-005-----0
 62
     7
370
    25
100
AcDbLine
 10
402.635501
 20
289.498416
 30
0.0
 11
404.635504
 21
291.498419
 31
0.0
  0
LINE
  5
14C
330
EF
100
AcDbEntity
  8
LC-006-005-----0
 62
     7
370
    25
100
AcDbLine
 10
327.378452
 20
217.069794
 30
0.0
 11
329.878448
 21
219.569791
 31
0.0
  0
LINE
  5
14D
330
EF
100
AcDbEntity
  8
LC-006-005-----0
 62
     7
370
    25
100
AcDbLine
 10
402.635505
 20
292.326847
 30
0.0
 11
404.635507
 21
294.326849
 31
0.0
  0
LINE
  5
14E
330
EF
100
AcDbEntity
  8
LC-006-005-----0
 62
     7
370
    25
100
AcDbLine
 10
324.550028
 20
217.069798
 30
0.0
 11
327.050025
 21
219.569794
 31
0.0
  0
LINE
  5
14F
330
EF
100
AcDbEntity
  8
LC-006-005-----0
 62
     7
370
    25
100
AcDbLine
 10
402.635508
 20
295.155277
 30
0.0
 11
404.549922
 21
297.069692
 31
0.0
  0
LINE
  5
150
330
EF
100
AcDbEntity
  8
LC-006-005-----0
 62
     7
370
    25
100
AcDbLine
 10
321.721605
 20
217.069801
 30
0.0
 11
324.221602
 21
219.569798
 31
0.0
  0
LINE
  5
151
330
EF
100
AcDbEntity
  8
LC-006-005-----0
 62
     7
370
    25
100
AcDbLine
 10
318.893182
 20
217.069805
 30
0.0
 11
321.393178
 21
219.569802
 31
0.0
  0
LINE
  5
152
330
EF
100
AcDbEntity
  8
LC-006-005-----0
 62
     7
370
    25
100
AcDbLine
 10
316.064758
 20
217.069809
 30
0.0
 11
318.564755
 21
219.569806
 31
0.0
  0
LINE
  5
153
330
EF
100
AcDbEntity
  8
LC-006-005-----0
 62
     7
370
    25
100
AcDbLine
 10
313.236335
 20
217.069813
 30
0.0
 11
315.736332
 21
219.569809
 31
0.0
  0
LINE
  5
154
330
EF
100
AcDbEntity
  8
LC-006-005-----0
 62
     7
370
    25
100
AcDbLine
 10
310.420367
 20
217.082272
 30
0.0
 11
312.907908
 21
219.569813
 31
0.0
  0
LINE
  5
155
330
EF
100
AcDbEntity
  8
LC-006-005-----0
 62
     7
370
    25
100
AcDbLine
 10
307.84969
 20
217.340022
 30
0.0
 11
310.109064
 21
219.599396
 31
0.0
  0
LINE
  5
156
330
EF
100
AcDbEntity
  8
LC-006-005-----0
 62
     7
370
    25
100
AcDbLine
 10
305.545444
 20
217.864203
 30
0.0
 11
307.608287
 21
219.927046
 31
0.0
  0
LINE
  5
157
330
EF
100
AcDbEntity
  8
LC-006-005-----0
 62
     7
370
    25
100
AcDbLine
 10
303.45309
 20
218.600276
 30
0.0
 11
305.389583
 21
220.536769
 31
0.0
  0
LINE
  5
158
330
EF
100
AcDbEntity
  8
LC-006-005-----0
 62
     7
370
    25
100
AcDbLine
 10
301.540822
 20
219.516435
 30
0.0
 11
303.394699
 21
221.370312
 31
0.0
  0
LINE
  5
159
330
EF
100
AcDbEntity
  8
LC-006-005-----0
 62
     7
370
    25
100
AcDbLine
 10
299.789278
 20
220.593319
 30
0.0
 11
301.591381
 21
222.395421
 31
0.0
  0
LINE
  5
15A
330
EF
100
AcDbEntity
  8
LC-006-005-----0
 62
     7
370
    25
100
AcDbLine
 10
298.186914
 20
221.819382
 30
0.0
 11
299.961465
 21
223.593933
 31
0.0
  0
LINE
  5
15B
330
EF
100
AcDbEntity
  8
LC-006-005-----0
 62
     7
370
    25
100
AcDbLine
 10
296.727774
 20
223.188669
 30
0.0
 11
298.495879
 21
224.956773
 31
0.0
  0
LINE
  5
15C
330
EF
100
AcDbEntity
  8
LC-006-005-----0
 62
     7
370
    25
100
AcDbLine
 10
295.410482
 20
224.699804
 30
0.0
 11
297.192556
 21
226.481877
 31
0.0
  0
LINE
  5
15D
330
EF
100
AcDbEntity
  8
LC-006-005-----0
 62
     7
370
    25
100
AcDbLine
 10
294.238026
 20
226.355775
 30
0.0
 11
296.056
 21
228.173749
 31
0.0
  0
LINE
  5
15E
330
EF
100
AcDbEntity
  8
LC-006-005-----0
 62
     7
370
    25
100
AcDbLine
 10
293.218241
 20
228.164417
 30
0.0
 11
295.098256
 21
230.044432
 31
0.0
  0
LINE
  5
15F
330
EF
100
AcDbEntity
  8
LC-006-005-----0
 62
     7
370
    25
100
AcDbLine
 10
292.365181
 20
230.139784
 30
0.0
 11
294.341831
 21
232.116434
 31
0.0
  0
LINE
  5
160
330
EF
100
AcDbEntity
  8
LC-006-005-----0
 62
     7
370
    25
100
AcDbLine
 10
291.702032
 20
232.305062
 30
0.0
 11
293.826492
 21
234.429522
 31
0.0
  0
LINE
  5
161
330
EF
100
AcDbEntity
  8
LC-006-005-----0
 62
     7
370
    25
100
AcDbLine
 10
291.267224
 20
234.698681
 30
0.0
 11
293.626174
 21
237.057631
 31
0.0
  0
LINE
  5
162
330
EF
100
AcDbEntity
  8
LC-006-005-----0
 62
     7
370
    25
100
AcDbLine
 10
291.126156
 20
237.386041
 30
0.0
 11
293.62617
 21
239.886054
 31
0.0
  0
LINE
  5
163
330
EF
100
AcDbEntity
  8
LC-006-005-----0
 62
     7
370
    25
100
AcDbLine
 10
291.12616
 20
240.214472
 30
0.0
 11
293.62617
 21
242.714481
 31
0.0
  0
LINE
  5
164
330
EF
100
AcDbEntity
  8
LC-006-005-----0
 62
     7
370
    25
100
AcDbLine
 10
291.126164
 20
243.042902
 30
0.0
 11
293.62617
 21
245.542908
 31
0.0
  0
LINE
  5
165
330
EF
100
AcDbEntity
  8
LC-006-005-----0
 62
     7
370
    25
100
AcDbLine
 10
291.126167
 20
245.871333
 30
0.0
 11
293.62617
 21
248.371336
 31
0.0
  0
LINE
  5
166
330
EF
100
AcDbEntity
  8
LC-006-005-----0
 62
     7
370
    25
100
AcDbLine
 10
291.126171
 20
248.699764
 30
0.0
 11
293.62617
 21
251.199763
 31
0.0
  0
LINE
  5
167
330
EF
100
AcDbEntity
  8
LC-006-005-----0
 62
     7
370
    25
100
AcDbLine
 10
291.126175
 20
251.528195
 30
0.0
 11
293.62617
 21
254.02819
 31
0.0
  0
LINE
  5
168
330
EF
100
AcDbEntity
  8
LC-006-005-----0
 62
     7
370
    25
100
AcDbLine
 10
291.126179
 20
254.356626
 30
0.0
 11
293.62617
 21
256.856617
 31
0.0
  0
LINE
  5
169
330
EF
100
AcDbEntity
  8
LC-006-005-----0
 62
     7
370
    25
100
AcDbLine
 10
291.126182
 20
257.185057
 30
0.0
 11
293.62617
 21
259.685044
 31
0.0
  0
LINE
  5
16A
330
EF
100
AcDbEntity
  8
LC-006-005-----0
 62
     7
370
    25
100
AcDbLine
 10
291.126186
 20
260.013488
 30
0.0
 11
293.62617
 21
262.513471
 31
0.0
  0
LINE
  5
16B
330
EF
100
AcDbEntity
  8
LC-006-005-----0
 62
     7
370
    25
100
AcDbLine
 10
291.12619
 20
262.841919
 30
0.0
 11
293.62617
 21
265.341898
 31
0.0
  0
LINE
  5
16C
330
EF
100
AcDbEntity
  8
LC-006-005-----0
 62
     7
370
    25
100
AcDbLine
 10
291.126194
 20
265.670349
 30
0.0
 11
293.62617
 21
268.170325
 31
0.0
  0
LINE
  5
16D
330
EF
100
AcDbEntity
  8
LC-006-005-----0
 62
     7
370
    25
100
AcDbLine
 10
291.126197
 20
268.49878
 30
0.0
 11
293.62617
 21
270.998753
 31
0.0
  0
LINE
  5
16E
330
EF
100
AcDbEntity
  8
LC-006-005-----0
 62
     7
370
    25
100
AcDbLine
 10
291.126201
 20
271.327211
 30
0.0
 11
293.62617
 21
273.82718
 31
0.0
  0
LINE
  5
16F
330
EF
100
AcDbEntity
  8
LC-006-005-----0
 62
     7
370
    25
100
AcDbLine
 10
291.126205
 20
274.155642
 30
0.0
 11
293.62617
 21
276.655607
 31
0.0
  0
LINE
  5
170
330
EF
100
AcDbEntity
  8
LC-006-005-----0
 62
     7
370
    25
100
AcDbLine
 10
291.126209
 20
276.984073
 30
0.0
 11
293.62617
 21
279.484034
 31
0.0
  0
LINE
  5
171
330
EF
100
AcDbEntity
  8
LC-006-005-----0
 62
     7
370
    25
100
AcDbLine
 10
291.126212
 20
279.812504
 30
0.0
 11
293.62617
 21
282.312461
 31
0.0
  0
LINE
  5
172
330
EF
100
AcDbEntity
  8
LC-006-005-----0
 62
     7
370
    25
100
AcDbLine
 10
291.126216
 20
282.640935
 30
0.0
 11
293.62617
 21
285.140888
 31
0.0
  0
LINE
  5
173
330
EF
100
AcDbEntity
  8
LC-006-005-----0
 62
     7
370
    25
100
AcDbLine
 10
291.12622
 20
285.469366
 30
0.0
 11
293.62617
 21
287.969315
 31
0.0
  0
LINE
  5
174
330
EF
100
AcDbEntity
  8
LC-006-005-----0
 62
     7
370
    25
100
AcDbLine
 10
291.126224
 20
288.297796
 30
0.0
 11
293.62617
 21
290.797742
 31
0.0
  0
LINE
  5
175
330
EF
100
AcDbEntity
  8
LC-006-005-----0
 62
     7
370
    25
100
AcDbLine
 10
291.126227
 20
291.126227
 30
0.0
 11
293.62617
 21
293.62617
 31
0.0
  0
LINE
  5
176
330
EF
100
AcDbEntity
  8
LC-006-005-----0
 62
     7
370
    25
100
AcDbLine
 10
291.126231
 20
293.954658
 30
0.0
 11
293.62617
 21
296.454597
 31
0.0
  0
LINE
  5
177
330
EF
100
AcDbEntity
  8
LC-006-005-----0
 62
     7
370
    25
100
AcDbLine
 10
291.126235
 20
296.783089
 30
0.0
 11
293.62617
 21
299.283024
 31
0.0
  0
LINE
  5
178
330
EF
100
AcDbEntity
  8
LC-006-005-----0
 62
     7
370
    25
100
AcDbLine
 10
291.126239
 20
299.61152
 30
0.0
 11
293.62617
 21
302.111451
 31
0.0
  0
LINE
  5
179
330
EF
100
AcDbEntity
  8
LC-006-005-----0
 62
     7
370
    25
100
AcDbLine
 10
291.126242
 20
302.439951
 30
0.0
 11
293.62617
 21
304.939878
 31
0.0
  0
LINE
  5
17A
330
EF
100
AcDbEntity
  8
LC-006-005-----0
 62
     7
370
    25
100
AcDbLine
 10
291.126246
 20
305.268382
 30
0.0
 11
293.62617
 21
307.768305
 31
0.0
  0
LINE
  5
17B
330
EF
100
AcDbEntity
  8
LC-006-005-----0
 62
     7
370
    25
100
AcDbLine
 10
291.12625
 20
308.096813
 30
0.0
 11
293.62617
 21
310.596732
 31
0.0
  0
LINE
  5
17C
330
EF
100
AcDbEntity
  8
LC-006-005-----0
 62
     7
370
    25
100
AcDbLine
 10
291.126254
 20
310.925243
 30
0.0
 11
293.62617
 21
313.425159
 31
0.0
  0
LINE
  5
17D
330
EF
100
AcDbEntity
  8
LC-006-005-----0
 62
     7
370
    25
100
AcDbLine
 10
291.126257
 20
313.753674
 30
0.0
 11
293.62617
 21
316.253587
 31
0.0
  0
LINE
  5
17E
330
EF
100
AcDbEntity
  8
LC-006-005-----0
 62
     7
370
    25
100
AcDbLine
 10
291.126261
 20
316.582105
 30
0.0
 11
293.62617
 21
319.082014
 31
0.0
  0
LINE
  5
17F
330
EF
100
AcDbEntity
  8
LC-006-005-----0
 62
     7
370
    25
100
AcDbLine
 10
291.126265
 20
319.410536
 30
0.0
 11
293.62617
 21
321.910441
 31
0.0
  0
LINE
  5
180
330
EF
100
AcDbEntity
  8
LC-006-005-----0
 62
     7
370
    25
100
AcDbLine
 10
291.126269
 20
322.238967
 30
0.0
 11
293.62617
 21
324.738868
 31
0.0
  0
LINE
  5
181
330
EF
100
AcDbEntity
  8
LC-006-005-----0
 62
     7
370
    25
100
AcDbLine
 10
290.175072
 20
324.116198
 30
0.0
 11
292.675082
 21
326.616208
 31
0.0
  0
LINE
  5
182
330
EF
100
AcDbEntity
  8
LC-006-005-----0
 62
     7
370
    25
100
AcDbLine
 10
290.126275
 20
326.895827
 30
0.0
 11
292.626295
 21
329.395848
 31
0.0
  0
LINE
  5
183
330
EF
100
AcDbEntity
  8
LC-006-005-----0
 62
     7
370
    25
100
AcDbLine
 10
290.126279
 20
329.724258
 30
0.0
 11
292.626284
 21
332.224263
 31
0.0
  0
LINE
  5
184
330
EF
100
AcDbEntity
  8
LC-006-005-----0
 62
     7
370
    25
100
AcDbLine
 10
290.126282
 20
332.552689
 30
0.0
 11
292.412079
 21
334.838486
 31
0.0
  0
LINE
  5
185
330
EF
100
AcDbEntity
  8
LC-006-005-----0
 62
     7
370
    25
100
AcDbLine
 10
287.31216
 20
332.566994
 30
0.0
 11
290.311166
 21
335.566
 31
0.0
  0
LINE
  5
186
330
EF
100
AcDbEntity
  8
LC-006-005-----0
 62
     7
370
    25
100
AcDbLine
 10
284.483733
 20
332.566994
 30
0.0
 11
287.499584
 21
335.582845
 31
0.0
  0
LINE
  5
187
330
EF
100
AcDbEntity
  8
LC-006-005-----0
 62
     7
370
    25
100
AcDbLine
 10
281.699297
 20
332.610985
 30
0.0
 11
285.904661
 21
336.816349
 31
0.0
  0
LINE
  5
188
330
EF
100
AcDbEntity
  8
LC-006-005-----0
 62
     7
370
    25
100
AcDbLine
 10
279.905951
 20
333.646067
 30
0.0
 11
285.759054
 21
339.499169
 31
0.0
  0
LINE
  5
189
330
EF
100
AcDbEntity
  8
LC-006-005-----0
 62
     7
370
    25
100
AcDbLine
 10
278.934277
 20
335.50282
 30
0.0
 11
286.386987
 21
342.95553
 31
0.0
  0
LINE
  5
18A
330
EF
100
AcDbEntity
  8
LC-006-005-----0
 62
     7
370
    25
100
AcDbLine
 10
278.035501
 20
337.432471
 30
0.0
 11
284.869392
 21
344.266362
 31
0.0
  0
LINE
  5
18B
330
EF
100
AcDbEntity
  8
LC-006-005-----0
 62
     7
370
    25
100
AcDbLine
 10
277.136726
 20
339.362122
 30
0.0
 11
282.040965
 21
344.266362
 31
0.0
  0
LINE
  5
18C
330
EF
100
AcDbEntity
  8
LC-006-005-----0
 62
     7
370
    25
100
AcDbLine
 10
276.23795
 20
341.291774
 30
0.0
 11
279.319196
 21
344.37302
 31
0.0
  0
LINE
  5
18D
330
EF
100
AcDbEntity
  8
LC-006-005-----0
 62
     7
370
    25
100
AcDbLine
 10
275.339174
 20
343.221425
 30
0.0
 11
277.482958
 21
345.365209
 31
0.0
  0
LINE
  5
18E
330
EF
100
AcDbEntity
  8
LC-006-005-----0
 62
     7
370
    25
100
AcDbLine
 10
274.440398
 20
345.151076
 30
0.0
 11
276.405633
 21
347.116311
 31
0.0
  0
LINE
  5
18F
330
EF
100
AcDbEntity
  8
LC-006-005-----0
 62
     7
370
    25
100
AcDbLine
 10
273.921536
 20
347.460641
 30
0.0
 11
276.23674
 21
349.775845
 31
0.0
  0
LINE
  5
190
330
EF
100
AcDbEntity
  8
LC-006-005-----0
 62
     7
370
    25
100
AcDbLine
 10
273.921514
 20
350.289047
 30
0.0
 11
276.23674
 21
352.604273
 31
0.0
  0
LINE
  5
191
330
EF
100
AcDbEntity
  8
LC-006-005-----0
 62
     7
370
    25
100
AcDbLine
 10
273.44649
 20
352.642449
 30
0.0
 11
276.23674
 21
355.4327
 31
0.0
  0
LINE
  5
192
330
EF
100
AcDbEntity
  8
LC-006-005-----0
 62
     7
370
    25
100
AcDbLine
 10
271.521442
 20
353.545829
 30
0.0
 11
274.082126
 21
356.106513
 31
0.0
  0
LINE
  5
193
330
EF
100
AcDbEntity
  8
LC-006-005-----0
 62
     7
370
    25
100
AcDbLine
 10
274.518797
 20
356.543184
 30
0.0
 11
276.23674
 21
358.261127
 31
0.0
  0
LINE
  5
194
330
EF
100
AcDbEntity
  8
LC-006-005-----0
 62
     7
370
    25
100
AcDbLine
 10
269.863391
 20
354.716205
 30
0.0
 11
271.689976
 21
356.54279
 31
0.0
  0
LINE
  5
195
330
EF
100
AcDbEntity
  8
LC-006-005-----0
 62
     7
370
    25
100
AcDbLine
 10
274.518797
 20
359.371611
 30
0.0
 11
276.23674
 21
361.089554
 31
0.0
  0
LINE
  5
196
330
EF
100
AcDbEntity
  8
LC-006-005-----0
 62
     7
370
    25
100
AcDbLine
 10
268.975211
 20
356.656452
 30
0.0
 11
271.377415
 21
359.058656
 31
0.0
  0
LINE
  5
197
330
EF
100
AcDbEntity
  8
LC-006-005-----0
 62
     7
370
    25
100
AcDbLine
 10
268.924708
 20
359.434376
 30
0.0
 11
271.377415
 21
361.887083
 31
0.0
  0
LINE
  5
198
330
EF
100
AcDbEntity
  8
LC-006-005-----0
 62
     7
370
    25
100
AcDbLine
 10
268.570553
 20
361.908648
 30
0.0
 11
271.377415
 21
364.71551
 31
0.0
  0
LINE
  5
199
330
EF
100
AcDbEntity
  8
LC-006-005-----0
 62
     7
370
    25
100
AcDbLine
 10
266.107849
 20
362.274371
 30
0.0
 11
268.924491
 21
365.091013
 31
0.0
  0
LINE
  5
19A
330
EF
100
AcDbEntity
  8
LC-006-005-----0
 62
     7
370
    25
100
AcDbLine
 10
263.464278
 20
362.459227
 30
0.0
 11
266.287679
 21
365.282628
 31
0.0
  0
LINE
  5
19B
330
EF
100
AcDbEntity
  8
LC-006-005-----0
 62
     7
370
    25
100
AcDbLine
 10
260.820707
 20
362.644084
 30
0.0
 11
263.650867
 21
365.474244
 31
0.0
  0
LINE
  5
19C
330
EF
100
AcDbEntity
  8
LC-006-005-----0
 62
     7
370
    25
100
AcDbLine
 10
258.177136
 20
362.82894
 30
0.0
 11
261.014055
 21
365.665859
 31
0.0
  0
LINE
  5
19D
330
EF
100
AcDbEntity
  8
LC-006-005-----0
 62
     7
370
    25
100
AcDbLine
 10
255.533566
 20
363.013796
 30
0.0
 11
258.463341
 21
365.943572
 31
0.0
  0
LINE
  5
19E
330
EF
100
AcDbEntity
  8
LC-006-005-----0
 62
     7
370
    25
100
AcDbLine
 10
252.889995
 20
363.198653
 30
0.0
 11
256.235838
 21
366.544496
 31
0.0
  0
LINE
  5
19F
330
EF
100
AcDbEntity
  8
LC-006-005-----0
 62
     7
370
    25
100
AcDbLine
 10
250.680595
 20
363.81768
 30
0.0
 11
254.18075
 21
367.317835
 31
0.0
  0
LINE
  5
1A0
330
EF
100
AcDbEntity
  8
LC-006-005-----0
 62
     7
370
    25
100
AcDbLine
 10
248.593265
 20
364.558777
 30
0.0
 11
252.277135
 21
368.242647
 31
0.0
  0
LINE
  5
1A1
330
EF
100
AcDbEntity
  8
LC-006-005-----0
 62
     7
370
    25
100
AcDbLine
 10
246.505935
 20
365.299874
 30
0.0
 11
249.672174
 21
368.466113
 31
0.0
  0
LINE
  5
1A2
330
EF
100
AcDbEntity
  8
LC-006-005-----0
 62
     7
370
    25
100
AcDbLine
 10
244.221289
 20
365.843655
 30
0.0
 11
247.029399
 21
368.651766
 31
0.0
  0
LINE
  5
1A3
330
EF
100
AcDbEntity
  8
LC-006-005-----0
 62
     7
370
    25
100
AcDbLine
 10
241.578514
 20
366.029308
 30
0.0
 11
244.386624
 21
368.837418
 31
0.0
  0
LINE
  5
1A4
330
EF
100
AcDbEntity
  8
LC-006-005-----0
 62
     7
370
    25
100
AcDbLine
 10
238.935739
 20
366.21496
 30
0.0
 11
241.74385
 21
369.02307
 31
0.0
  0
LINE
  5
1A5
330
EF
100
AcDbEntity
  8
LC-006-005-----0
 62
     7
370
    25
100
AcDbLine
 10
236.292964
 20
366.400612
 30
0.0
 11
239.101075
 21
369.208723
 31
0.0
  0
LINE
  5
1A6
330
EF
100
AcDbEntity
  8
LC-006-005-----0
 62
     7
370
    25
100
AcDbLine
 10
233.65019
 20
366.586265
 30
0.0
 11
236.4583
 21
369.394375
 31
0.0
  0
LINE
  5
1A7
330
EF
100
AcDbEntity
  8
LC-006-005-----0
 62
     7
370
    25
100
AcDbLine
 10
231.007415
 20
366.771917
 30
0.0
 11
233.815525
 21
369.580027
 31
0.0
  0
LINE
  5
1A8
330
EF
100
AcDbEntity
  8
LC-006-005-----0
 62
     7
370
    25
100
AcDbLine
 10
228.36464
 20
366.957569
 30
0.0
 11
231.17275
 21
369.765679
 31
0.0
  0
LINE
  5
1A9
330
EF
100
AcDbEntity
  8
LC-006-005-----0
 62
     7
370
    25
100
AcDbLine
 10
225.721865
 20
367.143221
 30
0.0
 11
228.529976
 21
369.951332
 31
0.0
  0
LINE
  5
1AA
330
EF
100
AcDbEntity
  8
LC-006-005-----0
 62
     7
370
    25
100
AcDbLine
 10
223.07909
 20
367.328874
 30
0.0
 11
225.887201
 21
370.136984
 31
0.0
  0
LINE
  5
1AB
330
EF
100
AcDbEntity
  8
LC-006-005-----0
 62
     7
370
    25
100
AcDbLine
 10
220.436316
 20
367.514526
 30
0.0
 11
223.244426
 21
370.322636
 31
0.0
  0
LINE
  5
1AC
330
EF
100
AcDbEntity
  8
LC-006-005-----0
 62
     7
370
    25
100
AcDbLine
 10
217.793541
 20
367.700178
 30
0.0
 11
220.601651
 21
370.508289
 31
0.0
  0
LINE
  5
1AD
330
EF
100
AcDbEntity
  8
LC-006-005-----0
 62
     7
370
    25
100
AcDbLine
 10
215.150766
 20
367.885831
 30
0.0
 11
217.958876
 21
370.693941
 31
0.0
  0
LINE
  5
1AE
330
EF
100
AcDbEntity
  8
LC-006-005-----0
 62
     7
370
    25
100
AcDbLine
 10
212.611314
 20
368.174805
 30
0.0
 11
215.316101
 21
370.879593
 31
0.0
  0
ENDBLK
  5
F1
330
EF
100
AcDbEntity
  8
0
100
AcDbBlockEnd
  0
BLOCK
  5
1E8
330
1E7
100
AcDbEntity
  8
0
100
AcDbBlockBegin
  2
*X34
 70
     1
 71
     0
 10
0.0
 20
0.0
 30
0.0
  3
*X34
  1

  4
*X3
  0
LINE
  5
1EA
330
1E7
100
AcDbEntity
  8
LC-006-005-----0
 62
     7
370
    25
100
AcDbLine
 10
429.332647
 20
328.922981
 30
0.0
 11
431.621025
 21
331.211356
 31
0.0
  0
LINE
  5
1EB
330
1E7
100
AcDbEntity
  8
LC-006-005-----0
 62
     7
370
    25
100
AcDbLine
 10
428.153475
 20
329.158023
 30
0.0
 11
431.385985
 21
332.390529
 31
0.0
  0
LINE
  5
1EC
330
1E7
100
AcDbEntity
  8
LC-006-005-----0
 62
     7
370
    25
100
AcDbLine
 10
427.355172
 20
329.773934
 30
0.0
 11
430.770075
 21
333.188833
 31
0.0
  0
LINE
  5
1ED
330
1E7
100
AcDbEntity
  8
LC-006-005-----0
 62
     7
370
    25
100
AcDbLine
 10
426.866054
 20
330.699029
 30
0.0
 11
429.84498
 21
333.677952
 31
0.0
  0
LINE
  5
1EE
330
1E7
100
AcDbEntity
  8
LC-006-005-----0
 62
     7
370
    25
100
AcDbLine
 10
426.926186
 20
332.173373
 30
0.0
 11
428.370636
 21
333.617822
 31
0.0
  0
ENDBLK
  5
1E9
330
1E7
100
AcDbEntity
  8
0
100
AcDbBlockEnd
  0
BLOCK
  5
1F2
330
1F1
100
AcDbEntity
  8
0
100
AcDbBlockBegin
  2
*X45
 70
     1
 71
     0
 10
0.0
 20
0.0
 30
0.0
  3
*X45
  1

  4
*X4
  0
LINE
  5
1F4
330
1F1
100
AcDbEntity
  8
LC-006-005-----0
 62
     7
370
    25
100
AcDbLine
 10
296.419571
 20
328.946068
 30
0.0
 11
298.456124
 21
330.982619
 31
0.0
  0
LINE
  5
1F5
330
1F1
100
AcDbEntity
  8
LC-006-005-----0
 62
     7
370
    25
100
AcDbLine
 10
295.154302
 20
329.095013
 30
0.0
 11
298.307181
 21
332.247888
 31
0.0
  0
LINE
  5
1F6
330
1F1
100
AcDbEntity
  8
LC-006-005-----0
 62
     7
370
    25
100
AcDbLine
 10
294.310907
 20
329.665833
 30
0.0
 11
297.736363
 21
333.091283
 31
0.0
  0
LINE
  5
1F7
330
1F1
100
AcDbEntity
  8
LC-006-005-----0
 62
     7
370
    25
100
AcDbLine
 10
293.77325
 20
330.542389
 30
0.0
 11
296.859807
 21
333.628942
 31
0.0
  0
LINE
  5
1F8
330
1F1
100
AcDbEntity
  8
LC-006-005-----0
 62
     7
370
    25
100
AcDbLine
 10
293.69839
 20
331.881741
 30
0.0
 11
295.520455
 21
333.703804
 31
0.0
  0
ENDBLK
  5
1F3
330
1F1
100
AcDbEntity
  8
0
100
AcDbBlockEnd
  0
BLOCK
  5
1FB
330
1FA
100
AcDbEntity
  8
0
100
AcDbBlockBegin
  2
*X56
 70
     1
 71
     0
 10
0.0
 20
0.0
 30
0.0
  3
*X56
  1

  4
*X5
  0
LINE
  5
1FD
330
1FA
100
AcDbEntity
  8
LC-006-005-----0
 62
     7
370
    25
100
AcDbLine
 10
316.635096
 20
237.439136
 30
0.0
 11
318.135098
 21
238.939138
 31
0.0
  0
LINE
  5
1FE
330
1FA
100
AcDbEntity
  8
LC-006-005-----0
 62
     7
370
    25
100
AcDbLine
 10
316.635099
 20
240.267567
 30
0.0
 11
318.135101
 21
241.767568
 31
0.0
  0
LINE
  5
1FF
330
1FA
100
AcDbEntity
  8
LC-006-005-----0
 62
     7
370
    25
100
AcDbLine
 10
316.635102
 20
243.095997
 30
0.0
 11
318.135104
 21
244.595999
 31
0.0
  0
LINE
  5
200
330
1FA
100
AcDbEntity
  8
LC-006-005-----0
 62
     7
370
    25
100
AcDbLine
 10
316.635106
 20
245.924427
 30
0.0
 11
318.135107
 21
247.424429
 31
0.0
  0
LINE
  5
201
330
1FA
100
AcDbEntity
  8
LC-006-005-----0
 62
     7
370
    25
100
AcDbLine
 10
316.635109
 20
248.752858
 30
0.0
 11
318.135111
 21
250.25286
 31
0.0
  0
LINE
  5
202
330
1FA
100
AcDbEntity
  8
LC-006-005-----0
 62
     7
370
    25
100
AcDbLine
 10
316.635112
 20
251.581288
 30
0.0
 11
318.135114
 21
253.08129
 31
0.0
  0
LINE
  5
203
330
1FA
100
AcDbEntity
  8
LC-006-005-----0
 62
     7
370
    25
100
AcDbLine
 10
316.635115
 20
254.409719
 30
0.0
 11
318.135117
 21
255.90972
 31
0.0
  0
LINE
  5
204
330
1FA
100
AcDbEntity
  8
LC-006-005-----0
 62
     7
370
    25
100
AcDbLine
 10
316.635119
 20
257.238149
 30
0.0
 11
318.13512
 21
258.738151
 31
0.0
  0
LINE
  5
205
330
1FA
100
AcDbEntity
  8
LC-006-005-----0
 62
     7
370
    25
100
AcDbLine
 10
316.635122
 20
260.066579
 30
0.0
 11
318.135124
 21
261.566581
 31
0.0
  0
LINE
  5
206
330
1FA
100
AcDbEntity
  8
LC-006-005-----0
 62
     7
370
    25
100
AcDbLine
 10
316.635125
 20
262.89501
 30
0.0
 11
318.135127
 21
264.395012
 31
0.0
  0
LINE
  5
207
330
1FA
100
AcDbEntity
  8
LC-006-005-----0
 62
     7
370
    25
100
AcDbLine
 10
316.635128
 20
265.72344
 30
0.0
 11
318.13513
 21
267.223442
 31
0.0
  0
LINE
  5
208
330
1FA
100
AcDbEntity
  8
LC-006-005-----0
 62
     7
370
    25
100
AcDbLine
 10
316.635132
 20
268.55187
 30
0.0
 11
318.135133
 21
270.051872
 31
0.0
  0
LINE
  5
209
330
1FA
100
AcDbEntity
  8
LC-006-005-----0
 62
     7
370
    25
100
AcDbLine
 10
316.635135
 20
271.380301
 30
0.0
 11
318.135137
 21
272.880303
 31
0.0
  0
LINE
  5
20A
330
1FA
100
AcDbEntity
  8
LC-006-005-----0
 62
     7
370
    25
100
AcDbLine
 10
316.635138
 20
274.208731
 30
0.0
 11
318.13514
 21
275.708733
 31
0.0
  0
LINE
  5
20B
330
1FA
100
AcDbEntity
  8
LC-006-005-----0
 62
     7
370
    25
100
AcDbLine
 10
316.635141
 20
277.037162
 30
0.0
 11
318.135143
 21
278.537163
 31
0.0
  0
LINE
  5
20C
330
1FA
100
AcDbEntity
  8
LC-006-005-----0
 62
     7
370
    25
100
AcDbLine
 10
316.635145
 20
279.865592
 30
0.0
 11
318.135146
 21
281.365594
 31
0.0
  0
LINE
  5
20D
330
1FA
100
AcDbEntity
  8
LC-006-005-----0
 62
     7
370
    25
100
AcDbLine
 10
316.635148
 20
282.694022
 30
0.0
 11
318.13515
 21
284.194024
 31
0.0
  0
LINE
  5
20E
330
1FA
100
AcDbEntity
  8
LC-006-005-----0
 62
     7
370
    25
100
AcDbLine
 10
316.635151
 20
285.522453
 30
0.0
 11
318.135153
 21
287.022455
 31
0.0
  0
LINE
  5
20F
330
1FA
100
AcDbEntity
  8
LC-006-005-----0
 62
     7
370
    25
100
AcDbLine
 10
316.635154
 20
288.350883
 30
0.0
 11
318.135156
 21
289.850885
 31
0.0
  0
LINE
  5
210
330
1FA
100
AcDbEntity
  8
LC-006-005-----0
 62
     7
370
    25
100
AcDbLine
 10
316.635158
 20
291.179314
 30
0.0
 11
318.13516
 21
292.679315
 31
0.0
  0
LINE
  5
211
330
1FA
100
AcDbEntity
  8
LC-006-005-----0
 62
     7
370
    25
100
AcDbLine
 10
316.635161
 20
294.007744
 30
0.0
 11
318.135163
 21
295.507746
 31
0.0
  0
LINE
  5
212
330
1FA
100
AcDbEntity
  8
LC-006-005-----0
 62
     7
370
    25
100
AcDbLine
 10
316.635164
 20
296.836174
 30
0.0
 11
318.135166
 21
298.336176
 31
0.0
  0
LINE
  5
213
330
1FA
100
AcDbEntity
  8
LC-006-005-----0
 62
     7
370
    25
100
AcDbLine
 10
316.635167
 20
299.664605
 30
0.0
 11
318.135169
 21
301.164607
 31
0.0
  0
LINE
  5
214
330
1FA
100
AcDbEntity
  8
LC-006-005-----0
 62
     7
370
    25
100
AcDbLine
 10
316.635171
 20
302.493035
 30
0.0
 11
318.135173
 21
303.993037
 31
0.0
  0
LINE
  5
215
330
1FA
100
AcDbEntity
  8
LC-006-005-----0
 62
     7
370
    25
100
AcDbLine
 10
316.635174
 20
305.321465
 30
0.0
 11
318.135176
 21
306.821467
 31
0.0
  0
LINE
  5
216
330
1FA
100
AcDbEntity
  8
LC-006-005-----0
 62
     7
370
    25
100
AcDbLine
 10
316.635177
 20
308.149896
 30
0.0
 11
318.135179
 21
309.649898
 31
0.0
  0
LINE
  5
217
330
1FA
100
AcDbEntity
  8
LC-006-005-----0
 62
     7
370
    25
100
AcDbLine
 10
316.63518
 20
310.978326
 30
0.0
 11
318.135182
 21
312.478328
 31
0.0
  0
LINE
  5
218
330
1FA
100
AcDbEntity
  8
LC-006-005-----0
 62
     7
370
    25
100
AcDbLine
 10
316.635184
 20
313.806757
 30
0.0
 11
318.135186
 21
315.306759
 31
0.0
  0
LINE
  5
219
330
1FA
100
AcDbEntity
  8
LC-006-005-----0
 62
     7
370
    25
100
AcDbLine
 10
316.635187
 20
316.635187
 30
0.0
 11
318.135189
 21
318.135189
 31
0.0
  0
LINE
  5
21A
330
1FA
100
AcDbEntity
  8
LC-006-005-----0
 62
     7
370
    25
100
AcDbLine
 10
316.63519
 20
319.463617
 30
0.0
 11
318.135192
 21
320.963619
 31
0.0
  0
LINE
  5
21B
330
1FA
100
AcDbEntity
  8
LC-006-005-----0
 62
     7
370
    25
100
AcDbLine
 10
316.635193
 20
322.292048
 30
0.0
 11
318.135195
 21
323.79205
 31
0.0
  0
LINE
  5
21C
330
1FA
100
AcDbEntity
  8
LC-006-005-----0
 62
     7
370
    25
100
AcDbLine
 10
316.635197
 20
325.120478
 30
0.0
 11
318.135199
 21
326.62048
 31
0.0
  0
LINE
  5
21D
330
1FA
100
AcDbEntity
  8
LC-006-005-----0
 62
     7
370
    25
100
AcDbLine
 10
315.757613
 20
327.071321
 30
0.0
 11
317.253978
 21
328.567687
 31
0.0
  0
LINE
  5
21E
330
1FA
100
AcDbEntity
  8
LC-006-005-----0
 62
     7
370
    25
100
AcDbLine
 10
312.92919
 20
327.071325
 30
0.0
 11
314.425555
 21
328.567691
 31
0.0
  0
LINE
  5
21F
330
1FA
100
AcDbEntity
  8
LC-006-005-----0
 62
     7
370
    25
100
AcDbLine
 10
310.100766
 20
327.071329
 30
0.0
 11
311.597132
 21
328.567694
 31
0.0
  0
LINE
  5
220
330
1FA
100
AcDbEntity
  8
LC-006-005-----0
 62
     7
370
    25
100
AcDbLine
 10
307.272343
 20
327.071333
 30
0.0
 11
308.768708
 21
328.567698
 31
0.0
  0
LINE
  5
221
330
1FA
100
AcDbEntity
  8
LC-006-005-----0
 62
     7
370
    25
100
AcDbLine
 10
304.443919
 20
327.071336
 30
0.0
 11
305.940285
 21
328.567702
 31
0.0
  0
LINE
  5
222
330
1FA
100
AcDbEntity
  8
LC-006-005-----0
 62
     7
370
    25
100
AcDbLine
 10
301.615496
 20
327.07134
 30
0.0
 11
303.111861
 21
328.567706
 31
0.0
  0
LINE
  5
223
330
1FA
100
AcDbEntity
  8
LC-006-005-----0
 62
     7
370
    25
100
AcDbLine
 10
298.787073
 20
327.071344
 30
0.0
 11
300.283438
 21
328.567709
 31
0.0
  0
LINE
  5
224
330
1FA
100
AcDbEntity
  8
LC-006-005-----0
 62
     7
370
    25
100
AcDbLine
 10
295.958649
 20
327.071348
 30
0.0
 11
297.458647
 21
328.571346
 31
0.0
  0
LINE
  5
225
330
1FA
100
AcDbEntity
  8
LC-006-005-----0
 62
     7
370
    25
100
AcDbLine
 10
298.626366
 20
329.739064
 30
0.0
 11
300.126368
 21
331.239066
 31
0.0
  0
LINE
  5
226
330
1FA
100
AcDbEntity
  8
LC-006-005-----0
 62
     7
370
    25
100
AcDbLine
 10
293.626363
 20
327.567488
 30
0.0
 11
294.630224
 21
328.571349
 31
0.0
  0
LINE
  5
227
330
1FA
100
AcDbEntity
  8
LC-006-005-----0
 62
     7
370
    25
100
AcDbLine
 10
298.626369
 20
332.567495
 30
0.0
 11
300.126371
 21
334.067497
 31
0.0
  0
LINE
  5
228
330
1FA
100
AcDbEntity
  8
LC-006-005-----0
 62
     7
370
    25
100
AcDbLine
 10
297.301793
 20
334.071346
 30
0.0
 11
298.801791
 21
335.571344
 31
0.0
  0
LINE
  5
229
330
1FA
100
AcDbEntity
  8
LC-006-005-----0
 62
     7
370
    25
100
AcDbLine
 10
294.47337
 20
334.07135
 30
0.0
 11
295.973368
 21
335.571348
 31
0.0
  0
ENDBLK
  5
1FC
330
1FA
100
AcDbEntity
  8
0
100
AcDbBlockEnd
  0
BLOCK
  5
22C
330
22B
100
AcDbEntity
  8
0
100
AcDbBlockBegin
  2
*X67
 70
     1
 71
     0
 10
0.0
 20
0.0
 30
0.0
  3
*X67
  1

  4
*X6
  0
LINE
  5
22E
330
22B
100
AcDbEntity
  8
LC-006-005-----0
 62
     7
370
    25
100
AcDbLine
 10
365.38476
 20
238.10554
 30
0.0
 11
367.234852
 21
239.955632
 31
0.0
  0
LINE
  5
22F
330
22B
100
AcDbEntity
  8
LC-006-005-----0
 62
     7
370
    25
100
AcDbLine
 10
365.993235
 20
241.542441
 30
0.0
 11
367.843327
 21
243.392533
 31
0.0
  0
LINE
  5
230
330
22B
100
AcDbEntity
  8
LC-006-005-----0
 62
     7
370
    25
100
AcDbLine
 10
366.60171
 20
244.979343
 30
0.0
 11
368.451802
 21
246.829435
 31
0.0
  0
LINE
  5
231
330
22B
100
AcDbEntity
  8
LC-006-005-----0
 62
     7
370
    25
100
AcDbLine
 10
367.210184
 20
248.416245
 30
0.0
 11
369.060276
 21
250.266337
 31
0.0
  0
LINE
  5
232
330
22B
100
AcDbEntity
  8
LC-006-005-----0
 62
     7
370
    25
100
AcDbLine
 10
367.818659
 20
251.853147
 30
0.0
 11
369.668751
 21
253.703239
 31
0.0
  0
LINE
  5
233
330
22B
100
AcDbEntity
  8
LC-006-005-----0
 62
     7
370
    25
100
AcDbLine
 10
368.427134
 20
255.290049
 30
0.0
 11
370.277226
 21
257.140141
 31
0.0
  0
LINE
  5
234
330
22B
100
AcDbEntity
  8
LC-006-005-----0
 62
     7
370
    25
100
AcDbLine
 10
369.035608
 20
258.726951
 30
0.0
 11
370.885701
 21
260.577043
 31
0.0
  0
LINE
  5
235
330
22B
100
AcDbEntity
  8
LC-006-005-----0
 62
     7
370
    25
100
AcDbLine
 10
369.644083
 20
262.163852
 30
0.0
 11
371.494175
 21
264.013944
 31
0.0
  0
LINE
  5
236
330
22B
100
AcDbEntity
  8
LC-006-005-----0
 62
     7
370
    25
100
AcDbLine
 10
370.252558
 20
265.600754
 30
0.0
 11
372.10265
 21
267.450846
 31
0.0
  0
LINE
  5
237
330
22B
100
AcDbEntity
  8
LC-006-005-----0
 62
     7
370
    25
100
AcDbLine
 10
370.861033
 20
269.037656
 30
0.0
 11
372.711125
 21
270.887748
 31
0.0
  0
LINE
  5
238
330
22B
100
AcDbEntity
  8
LC-006-005-----0
 62
     7
370
    25
100
AcDbLine
 10
371.469507
 20
272.474558
 30
0.0
 11
373.319599
 21
274.32465
 31
0.0
  0
LINE
  5
239
330
22B
100
AcDbEntity
  8
LC-006-005-----0
 62
     7
370
    25
100
AcDbLine
 10
372.077982
 20
275.91146
 30
0.0
 11
373.928074
 21
277.761552
 31
0.0
  0
LINE
  5
23A
330
22B
100
AcDbEntity
  8
LC-006-005-----0
 62
     7
370
    25
100
AcDbLine
 10
372.686457
 20
279.348362
 30
0.0
 11
374.536549
 21
281.198454
 31
0.0
  0
LINE
  5
23B
330
22B
100
AcDbEntity
  8
LC-006-005-----0
 62
     7
370
    25
100
AcDbLine
 10
373.294932
 20
282.785264
 30
0.0
 11
375.145024
 21
284.635356
 31
0.0
  0
LINE
  5
23C
330
22B
100
AcDbEntity
  8
LC-006-005-----0
 62
     7
370
    25
100
AcDbLine
 10
373.903406
 20
286.222165
 30
0.0
 11
375.753498
 21
288.072257
 31
0.0
  0
LINE
  5
23D
330
22B
100
AcDbEntity
  8
LC-006-005-----0
 62
     7
370
    25
100
AcDbLine
 10
374.511881
 20
289.659067
 30
0.0
 11
376.361973
 21
291.509159
 31
0.0
  0
LINE
  5
23E
330
22B
100
AcDbEntity
  8
LC-006-005-----0
 62
     7
370
    25
100
AcDbLine
 10
375.120356
 20
293.095969
 30
0.0
 11
376.970448
 21
294.946061
 31
0.0
  0
LINE
  5
23F
330
22B
100
AcDbEntity
  8
LC-006-005-----0
 62
     7
370
    25
100
AcDbLine
 10
375.72883
 20
296.532871
 30
0.0
 11
377.578922
 21
298.382963
 31
0.0
  0
LINE
  5
240
330
22B
100
AcDbEntity
  8
LC-006-005-----0
 62
     7
370
    25
100
AcDbLine
 10
376.337305
 20
299.969773
 30
0.0
 11
378.187397
 21
301.819865
 31
0.0
  0
LINE
  5
241
330
22B
100
AcDbEntity
  8
LC-006-005-----0
 62
     7
370
    25
100
AcDbLine
 10
376.94578
 20
303.406675
 30
0.0
 11
378.795872
 21
305.256767
 31
0.0
  0
LINE
  5
242
330
22B
100
AcDbEntity
  8
LC-006-005-----0
 62
     7
370
    25
100
AcDbLine
 10
377.554255
 20
306.843577
 30
0.0
 11
379.404347
 21
308.693669
 31
0.0
  0
LINE
  5
243
330
22B
100
AcDbEntity
  8
LC-006-005-----0
 62
     7
370
    25
100
AcDbLine
 10
378.162729
 20
310.280478
 30
0.0
 11
380.012821
 21
312.13057
 31
0.0
  0
LINE
  5
244
330
22B
100
AcDbEntity
  8
LC-006-005-----0
 62
     7
370
    25
100
AcDbLine
 10
378.635643
 20
313.581819
 30
0.0
 11
380.103567
 21
315.049743
 31
0.0
  0
LINE
  5
245
330
22B
100
AcDbEntity
  8
LC-006-005-----0
 62
     7
370
    25
100
AcDbLine
 10
378.635647
 20
316.41025
 30
0.0
 11
380.103571
 21
317.878174
 31
0.0
  0
LINE
  5
246
330
22B
100
AcDbEntity
  8
LC-006-005-----0
 62
     7
370
    25
100
AcDbLine
 10
378.63565
 20
319.238681
 30
0.0
 11
380.103574
 21
320.706605
 31
0.0
  0
LINE
  5
247
330
22B
100
AcDbEntity
  8
LC-006-005-----0
 62
     7
370
    25
100
AcDbLine
 10
378.635654
 20
322.067112
 30
0.0
 11
380.103578
 21
323.535036
 31
0.0
  0
LINE
  5
248
330
22B
100
AcDbEntity
  8
LC-006-005-----0
 62
     7
370
    25
100
AcDbLine
 10
383.636141
 20
327.067599
 30
0.0
 11
384.135661
 21
327.567119
 31
0.0
  0
LINE
  5
249
330
22B
100
AcDbEntity
  8
LC-006-005-----0
 62
     7
370
    25
100
AcDbLine
 10
378.635658
 20
324.895542
 30
0.0
 11
382.307716
 21
328.5676
 31
0.0
  0
ENDBLK
  5
22D
330
22B
100
AcDbEntity
  8
0
100
AcDbBlockEnd
  0
BLOCK
  5
24E
330
24D
100
AcDbEntity
  8
0
100
AcDbBlockBegin
  2
*X78
 70
     1
 71
     0
 10
0.0
 20
0.0
 30
0.0
  3
*X78
  1

  4
*X7
  0
LINE
  5
250
330
24D
100
AcDbEntity
  8
LC-006-005-----0
 62
     7
370
    25
100
AcDbLine
 10
400.143652
 20
326.604547
 30
0.0
 11
401.635662
 21
328.096557
 31
0.0
  0
LINE
  5
251
330
24D
100
AcDbEntity
  8
LC-006-005-----0
 62
     7
370
    25
100
AcDbLine
 10
397.555806
 20
326.845128
 30
0.0
 11
399.364027
 21
328.653349
 31
0.0
  0
LINE
  5
252
330
24D
100
AcDbEntity
  8
LC-006-005-----0
 62
     7
370
    25
100
AcDbLine
 10
395.155139
 20
327.272888
 30
0.0
 11
396.834831
 21
328.95258
 31
0.0
  0
LINE
  5
253
330
24D
100
AcDbEntity
  8
LC-006-005-----0
 62
     7
370
    25
100
AcDbLine
 10
392.912131
 20
327.858307
 30
0.0
 11
394.482891
 21
329.429067
 31
0.0
  0
LINE
  5
254
330
24D
100
AcDbEntity
  8
LC-006-005-----0
 62
     7
370
    25
100
AcDbLine
 10
385.792993
 20
323.567596
 30
0.0
 11
386.635657
 21
324.41026
 31
0.0
  0
LINE
  5
255
330
24D
100
AcDbEntity
  8
LC-006-005-----0
 62
     7
370
    25
100
AcDbLine
 10
390.806638
 20
328.581242
 30
0.0
 11
392.281934
 21
330.056537
 31
0.0
  0
LINE
  5
256
330
24D
100
AcDbEntity
  8
LC-006-005-----0
 62
     7
370
    25
100
AcDbLine
 10
384.135658
 20
324.738688
 30
0.0
 11
386.635661
 21
327.238691
 31
0.0
  0
LINE
  5
257
330
24D
100
AcDbEntity
  8
LC-006-005-----0
 62
     7
370
    25
100
AcDbLine
 10
388.824423
 20
329.427454
 30
0.0
 11
390.213817
 21
330.816848
 31
0.0
  0
LINE
  5
258
330
24D
100
AcDbEntity
  8
LC-006-005-----0
 62
     7
370
    25
100
AcDbLine
 10
384.135661
 20
327.567119
 30
0.0
 11
386.635665
 21
330.067122
 31
0.0
  0
LINE
  5
259
330
24D
100
AcDbEntity
  8
LC-006-005-----0
 62
     7
370
    25
100
AcDbLine
 10
386.955233
 20
330.386691
 30
0.0
 11
388.265624
 21
331.697082
 31
0.0
  0
LINE
  5
25A
330
24D
100
AcDbEntity
  8
LC-006-005-----0
 62
     7
370
    25
100
AcDbLine
 10
383.807714
 20
330.067598
 30
0.0
 11
386.307711
 21
332.567595
 31
0.0
  0
LINE
  5
25B
330
24D
100
AcDbEntity
  8
LC-006-005-----0
 62
     7
370
    25
100
AcDbLine
 10
380.97929
 20
330.067602
 30
0.0
 11
383.479287
 21
332.567599
 31
0.0
  0
LINE
  5
25C
330
24D
100
AcDbEntity
  8
LC-006-005-----0
 62
     7
370
    25
100
AcDbLine
 10
380.135667
 20
332.052406
 30
0.0
 11
380.650864
 21
332.567603
 31
0.0
  0
ENDBLK
  5
24F
330
24D
100
AcDbEntity
  8
0
100
AcDbBlockEnd
  0
BLOCK
  5
25F
330
25E
100
AcDbEntity
  8
0
100
AcDbBlockBegin
  2
*X89
 70
     1
 71
     0
 10
0.0
 20
0.0
 30
0.0
  3
*X89
  1

  4
*X8
  0
LINE
  5
261
330
25E
100
AcDbEntity
  8
LC-006-005-----0
 62
     7
370
    25
100
AcDbLine
 10
416.90565
 20
323.567555
 30
0.0
 11
419.135659
 21
325.797564
 31
0.0
  0
LINE
  5
262
330
25E
100
AcDbEntity
  8
LC-006-005-----0
 62
     7
370
    25
100
AcDbLine
 10
416.635659
 20
326.125991
 30
0.0
 11
419.135663
 21
328.625995
 31
0.0
  0
LINE
  5
263
330
25E
100
AcDbEntity
  8
LC-006-005-----0
 62
     7
370
    25
100
AcDbLine
 10
420.577218
 20
330.06755
 30
0.0
 11
423.077214
 21
332.567546
 31
0.0
  0
LINE
  5
264
330
25E
100
AcDbEntity
  8
LC-006-005-----0
 62
     7
370
    25
100
AcDbLine
 10
416.635663
 20
328.954422
 30
0.0
 11
420.248791
 21
332.56755
 31
0.0
  0
LINE
  5
265
330
25E
100
AcDbEntity
  8
LC-006-005-----0
 62
     7
370
    25
100
AcDbLine
 10
414.136552
 20
329.283738
 30
0.0
 11
417.420368
 21
332.567554
 31
0.0
  0
LINE
  5
266
330
25E
100
AcDbEntity
  8
LC-006-005-----0
 62
     7
370
    25
100
AcDbLine
 10
409.688108
 20
327.663721
 30
0.0
 11
412.695671
 21
330.671284
 31
0.0
  0
LINE
  5
267
330
25E
100
AcDbEntity
  8
LC-006-005-----0
 62
     7
370
    25
100
AcDbLine
 10
406.095482
 20
326.899522
 30
0.0
 11
408.573246
 21
329.377287
 31
0.0
  0
LINE
  5
268
330
25E
100
AcDbEntity
  8
LC-006-005-----0
 62
     7
370
    25
100
AcDbLine
 10
402.964424
 20
326.596892
 30
0.0
 11
405.13957
 21
328.772038
 31
0.0
  0
LINE
  5
269
330
25E
100
AcDbEntity
  8
LC-006-005-----0
 62
     7
370
    25
100
AcDbLine
 10
401.635662
 20
328.096557
 30
0.0
 11
402.110421
 21
328.571315
 31
0.0
  0
ENDBLK
  5
260
330
25E
100
AcDbEntity
  8
0
100
AcDbBlockEnd
  0
BLOCK
  5
26C
330
26B
100
AcDbEntity
  8
0
100
AcDbBlockBegin
  2
*X910
 70
     1
 71
     0
 10
0.0
 20
0.0
 30
0.0
  3
*X910
  1

  4
*X9
  0
LINE
  5
26E
330
26B
100
AcDbEntity
  8
LC-006-005-----0
 62
     7
370
    25
100
AcDbLine
 10
384.00477
 20
328.567598
 30
0.0
 11
384.135663
 21
328.698491
 31
0.0
  0
LINE
  5
26F
330
26B
100
AcDbEntity
  8
LC-006-005-----0
 62
     7
370
    25
100
AcDbLine
 10
383.439085
 20
328.567599
 30
0.0
 11
384.135664
 21
329.264177
 31
0.0
  0
LINE
  5
270
330
26B
100
AcDbEntity
  8
LC-006-005-----0
 62
     7
370
    25
100
AcDbLine
 10
382.8734
 20
328.5676
 30
0.0
 11
384.135664
 21
329.829864
 31
0.0
  0
LINE
  5
271
330
26B
100
AcDbEntity
  8
LC-006-005-----0
 62
     7
370
    25
100
AcDbLine
 10
382.307716
 20
328.5676
 30
0.0
 11
383.807714
 21
330.067598
 31
0.0
  0
LINE
  5
272
330
26B
100
AcDbEntity
  8
LC-006-005-----0
 62
     7
370
    25
100
AcDbLine
 10
381.742031
 20
328.567601
 30
0.0
 11
383.242029
 21
330.067599
 31
0.0
  0
LINE
  5
273
330
26B
100
AcDbEntity
  8
LC-006-005-----0
 62
     7
370
    25
100
AcDbLine
 10
381.176346
 20
328.567602
 30
0.0
 11
382.676344
 21
330.0676
 31
0.0
  0
LINE
  5
274
330
26B
100
AcDbEntity
  8
LC-006-005-----0
 62
     7
370
    25
100
AcDbLine
 10
380.610662
 20
328.567603
 30
0.0
 11
382.11066
 21
330.067601
 31
0.0
  0
LINE
  5
275
330
26B
100
AcDbEntity
  8
LC-006-005-----0
 62
     7
370
    25
100
AcDbLine
 10
380.135663
 20
328.658289
 30
0.0
 11
381.544975
 21
330.067601
 31
0.0
  0
LINE
  5
276
330
26B
100
AcDbEntity
  8
LC-006-005-----0
 62
     7
370
    25
100
AcDbLine
 10
380.135664
 20
329.223975
 30
0.0
 11
380.97929
 21
330.067602
 31
0.0
  0
LINE
  5
277
330
26B
100
AcDbEntity
  8
LC-006-005-----0
 62
     7
370
    25
100
AcDbLine
 10
380.135664
 20
329.789661
 30
0.0
 11
380.413606
 21
330.067603
 31
0.0
  0
ENDBLK
  5
26D
330
26B
100
AcDbEntity
  8
0
100
AcDbBlockEnd
  0
BLOCK
  5
27A
330
279
100
AcDbEntity
  8
0
100
AcDbBlockBegin
  2
*X1011
 70
     1
 71
     0
 10
0.0
 20
0.0
 30
0.0
  3
*X1011
  1

  4
*X10
  0
LINE
  5
27C
330
279
100
AcDbEntity
  8
LC-006-005-----0
 62
     7
370
    25
100
AcDbLine
 10
423.037012
 20
328.567546
 30
0.0
 11
423.135663
 21
328.666197
 31
0.0
  0
LINE
  5
27D
330
279
100
AcDbEntity
  8
LC-006-005-----0
 62
     7
370
    25
100
AcDbLine
 10
422.471328
 20
328.567547
 30
0.0
 11
423.135664
 21
329.231883
 31
0.0
  0
LINE
  5
27E
330
279
100
AcDbEntity
  8
LC-006-005-----0
 62
     7
370
    25
100
AcDbLine
 10
421.905643
 20
328.567548
 30
0.0
 11
423.135664
 21
329.797569
 31
0.0
  0
LINE
  5
27F
330
279
100
AcDbEntity
  8
LC-006-005-----0
 62
     7
370
    25
100
AcDbLine
 10
421.339958
 20
328.567549
 30
0.0
 11
422.839956
 21
330.067547
 31
0.0
  0
LINE
  5
280
330
279
100
AcDbEntity
  8
LC-006-005-----0
 62
     7
370
    25
100
AcDbLine
 10
420.774274
 20
328.567549
 30
0.0
 11
422.274272
 21
330.067547
 31
0.0
  0
LINE
  5
281
330
279
100
AcDbEntity
  8
LC-006-005-----0
 62
     7
370
    25
100
AcDbLine
 10
420.208589
 20
328.56755
 30
0.0
 11
421.708587
 21
330.067548
 31
0.0
  0
LINE
  5
282
330
279
100
AcDbEntity
  8
LC-006-005-----0
 62
     7
370
    25
100
AcDbLine
 10
419.642904
 20
328.567551
 30
0.0
 11
421.142902
 21
330.067549
 31
0.0
  0
LINE
  5
283
330
279
100
AcDbEntity
  8
LC-006-005-----0
 62
     7
370
    25
100
AcDbLine
 10
419.135663
 20
328.625995
 30
0.0
 11
420.577218
 21
330.06755
 31
0.0
  0
LINE
  5
284
330
279
100
AcDbEntity
  8
LC-006-005-----0
 62
     7
370
    25
100
AcDbLine
 10
419.135664
 20
329.191681
 30
0.0
 11
420.011533
 21
330.06755
 31
0.0
  0
LINE
  5
285
330
279
100
AcDbEntity
  8
LC-006-005-----0
 62
     7
370
    25
100
AcDbLine
 10
419.135664
 20
329.757367
 30
0.0
 11
419.445848
 21
330.067551
 31
0.0
  0
ENDBLK
  5
27B
330
279
100
AcDbEntity
  8
0
100
AcDbBlockEnd
  0
BLOCK
  5
288
330
287
100
AcDbEntity
  8
0
100
AcDbBlockBegin
  2
*X1112
 70
     1
 71
     0
 10
0.0
 20
0.0
 30
0.0
  3
*X1112
  1

  4
*X11
  0
LINE
  5
28A
330
287
100
AcDbEntity
  8
LC-006-005-----0
 62
     7
370
    25
100
AcDbLine
 10
428.890915
 20
327.067539
 30
0.0
 11
430.390913
 21
328.567537
 31
0.0
  0
LINE
  5
28B
330
287
100
AcDbEntity
  8
LC-006-005-----0
 62
     7
370
    25
100
AcDbLine
 10
426.062492
 20
327.067542
 30
0.0
 11
427.56249
 21
328.56754
 31
0.0
  0
LINE
  5
28C
330
287
100
AcDbEntity
  8
LC-006-005-----0
 62
     7
370
    25
100
AcDbLine
 10
423.234068
 20
327.067546
 30
0.0
 11
424.734066
 21
328.567544
 31
0.0
  0
LINE
  5
28D
330
287
100
AcDbEntity
  8
LC-006-005-----0
 62
     7
370
    25
100
AcDbLine
 10
425.135663
 20
328.969141
 30
0.0
 11
426.635665
 21
330.469143
 31
0.0
  0
LINE
  5
28E
330
287
100
AcDbEntity
  8
LC-006-005-----0
 62
     7
370
    25
100
AcDbLine
 10
430.234059
 20
334.067537
 30
0.0
 11
431.635672
 21
335.46915
 31
0.0
  0
LINE
  5
28F
330
287
100
AcDbEntity
  8
LC-006-005-----0
 62
     7
370
    25
100
AcDbLine
 10
420.405645
 20
327.06755
 30
0.0
 11
421.905643
 21
328.567548
 31
0.0
  0
LINE
  5
290
330
287
100
AcDbEntity
  8
LC-006-005-----0
 62
     7
370
    25
100
AcDbLine
 10
425.135667
 20
331.797572
 30
0.0
 11
426.635669
 21
333.297574
 31
0.0
  0
LINE
  5
291
330
287
100
AcDbEntity
  8
LC-006-005-----0
 62
     7
370
    25
100
AcDbLine
 10
427.405636
 20
334.067541
 30
0.0
 11
428.905634
 21
335.567539
 31
0.0
  0
LINE
  5
292
330
287
100
AcDbEntity
  8
LC-006-005-----0
 62
     7
370
    25
100
AcDbLine
 10
425.135671
 20
334.626003
 30
0.0
 11
426.07721
 21
335.567542
 31
0.0
  0
ENDBLK
  5
289
330
287
100
AcDbEntity
  8
0
100
AcDbBlockEnd
  0
BLOCK
  5
2E0
330
2DF
100
AcDbEntity
  8
0
100
AcDbBlockBegin
  2
*X1213
 70
     1
 71
     0
 10
0.0
 20
0.0
 30
0.0
  3
*X1213
  1

  4
*X12
  0
LINE
  5
2E2
330
2DF
100
AcDbEntity
  8
LC-006-005-----0
 62
     7
370
    25
100
AcDbLine
 10
438.274648
 20
344.936553
 30
0.0
 11
441.630987
 21
348.292892
 31
0.0
  0
LINE
  5
2E3
330
2DF
100
AcDbEntity
  8
LC-006-005-----0
 62
     7
370
    25
100
AcDbLine
 10
451.866447
 20
358.528352
 30
0.0
 11
453.732067
 21
360.393972
 31
0.0
  0
LINE
  5
2E4
330
2DF
100
AcDbEntity
  8
LC-006-005-----0
 62
     7
370
    25
100
AcDbLine
 10
435.446221
 20
344.936553
 30
0.0
 11
441.630987
 21
351.121319
 31
0.0
  0
LINE
  5
2E5
330
2DF
100
AcDbEntity
  8
LC-006-005-----0
 62
     7
370
    25
100
AcDbLine
 10
451.630772
 20
361.121104
 30
0.0
 11
454.203503
 21
363.693835
 31
0.0
  0
LINE
  5
2E6
330
2DF
100
AcDbEntity
  8
LC-006-005-----0
 62
     7
370
    25
100
AcDbLine
 10
432.617794
 20
344.936553
 30
0.0
 11
441.630987
 21
353.949746
 31
0.0
  0
LINE
  5
2E7
330
2DF
100
AcDbEntity
  8
LC-006-005-----0
 62
     7
370
    25
100
AcDbLine
 10
449.790273
 20
362.109032
 30
0.0
 11
452.484798
 21
364.803557
 31
0.0
  0
LINE
  5
2E8
330
2DF
100
AcDbEntity
  8
LC-006-005-----0
 62
     7
370
    25
100
AcDbLine
 10
432.130987
 20
347.278173
 30
0.0
 11
432.789367
 21
347.936553
 31
0.0
  0
LINE
  5
2E9
330
2DF
100
AcDbEntity
  8
LC-006-005-----0
 62
     7
370
    25
100
AcDbLine
 10
434.880987
 20
350.028173
 30
0.0
 11
441.630987
 21
356.778173
 31
0.0
  0
LINE
  5
2EA
330
2DF
100
AcDbEntity
  8
LC-006-005-----0
 62
     7
370
    25
100
AcDbLine
 10
446.749193
 20
361.896379
 30
0.0
 11
449.443717
 21
364.590904
 31
0.0
  0
LINE
  5
2EB
330
2DF
100
AcDbEntity
  8
LC-006-005-----0
 62
     7
370
    25
100
AcDbLine
 10
434.880987
 20
352.8566
 30
0.0
 11
441.630987
 21
359.6066
 31
0.0
  0
LINE
  5
2EC
330
2DF
100
AcDbEntity
  8
LC-006-005-----0
 62
     7
370
    25
100
AcDbLine
 10
443.708113
 20
361.683726
 30
0.0
 11
446.402637
 21
364.378251
 31
0.0
  0
LINE
  5
2ED
330
2DF
100
AcDbEntity
  8
LC-006-005-----0
 62
     7
370
    25
100
AcDbLine
 10
434.880987
 20
355.685027
 30
0.0
 11
443.361557
 21
364.165598
 31
0.0
  0
LINE
  5
2EE
330
2DF
100
AcDbEntity
  8
LC-006-005-----0
 62
     7
370
    25
100
AcDbLine
 10
434.880987
 20
358.513455
 30
0.0
 11
440.320477
 21
363.952944
 31
0.0
  0
LINE
  5
2EF
330
2DF
100
AcDbEntity
  8
LC-006-005-----0
 62
     7
370
    25
100
AcDbLine
 10
434.880987
 20
361.341882
 30
0.0
 11
437.279397
 21
363.740291
 31
0.0
  0
ENDBLK
  5
2E1
330
2DF
100
AcDbEntity
  8
0
100
AcDbBlockEnd
  0
BLOCK
  5
2F2
330
2F1
100
AcDbEntity
  8
0
100
AcDbBlockBegin
  2
*X1314
 70
     1
 71
     0
 10
0.0
 20
0.0
 30
0.0
  3
*X1314
  1

  4
*X13
  0
LINE
  5
2F4
330
2F1
100
AcDbEntity
  8
LC-006-005-----0
 62
     7
370
    25
100
AcDbLine
 10
291.196438
 20
344.936553
 30
0.0
 11
293.130987
 21
346.871102
 31
0.0
  0
LINE
  5
2F5
330
2F1
100
AcDbEntity
  8
LC-006-005-----0
 62
     7
370
    25
100
AcDbLine
 10
288.368011
 20
344.936553
 30
0.0
 11
291.368011
 21
347.936553
 31
0.0
  0
LINE
  5
2F6
330
2F1
100
AcDbEntity
  8
LC-006-005-----0
 62
     7
370
    25
100
AcDbLine
 10
285.539584
 20
344.936553
 30
0.0
 11
290.380987
 21
349.777957
 31
0.0
  0
LINE
  5
2F7
330
2F1
100
AcDbEntity
  8
LC-006-005-----0
 62
     7
370
    25
100
AcDbLine
 10
283.63397
 20
345.859367
 30
0.0
 11
290.380987
 21
352.606384
 31
0.0
  0
LINE
  5
2F8
330
2F1
100
AcDbEntity
  8
LC-006-005-----0
 62
     7
370
    25
100
AcDbLine
 10
283.630987
 20
348.684811
 30
0.0
 11
290.380987
 21
355.434811
 31
0.0
  0
LINE
  5
2F9
330
2F1
100
AcDbEntity
  8
LC-006-005-----0
 62
     7
370
    25
100
AcDbLine
 10
283.630987
 20
351.513238
 30
0.0
 11
290.380987
 21
358.263238
 31
0.0
  0
LINE
  5
2FA
330
2F1
100
AcDbEntity
  8
LC-006-005-----0
 62
     7
370
    25
100
AcDbLine
 10
283.630987
 20
354.341665
 30
0.0
 11
290.380987
 21
361.091665
 31
0.0
  0
LINE
  5
2FB
330
2F1
100
AcDbEntity
  8
LC-006-005-----0
 62
     7
370
    25
100
AcDbLine
 10
283.630987
 20
357.170092
 30
0.0
 11
289.858453
 21
363.397558
 31
0.0
  0
LINE
  5
2FC
330
2F1
100
AcDbEntity
  8
LC-006-005-----0
 62
     7
370
    25
100
AcDbLine
 10
283.630987
 20
359.998519
 30
0.0
 11
287.412615
 21
363.780147
 31
0.0
  0
LINE
  5
2FD
330
2F1
100
AcDbEntity
  8
LC-006-005-----0
 62
     7
370
    25
100
AcDbLine
 10
282.42673
 20
361.622689
 30
0.0
 11
284.769044
 21
363.965004
 31
0.0
  0
LINE
  5
2FE
330
2F1
100
AcDbEntity
  8
LC-006-005-----0
 62
     7
370
    25
100
AcDbLine
 10
279.783159
 20
361.807546
 30
0.0
 11
282.125473
 21
364.14986
 31
0.0
  0
LINE
  5
2FF
330
2F1
100
AcDbEntity
  8
LC-006-005-----0
 62
     7
370
    25
100
AcDbLine
 10
277.139589
 20
361.992402
 30
0.0
 11
279.481903
 21
364.334717
 31
0.0
  0
LINE
  5
300
330
2F1
100
AcDbEntity
  8
LC-006-005-----0
 62
     7
370
    25
100
AcDbLine
 10
271.677767
 20
359.359008
 30
0.0
 11
273.631202
 21
361.312442
 31
0.0
  0
LINE
  5
301
330
2F1
100
AcDbEntity
  8
LC-006-005-----0
 62
     7
370
    25
100
AcDbLine
 10
274.496018
 20
362.177259
 30
0.0
 11
276.838332
 21
364.519573
 31
0.0
  0
LINE
  5
302
330
2F1
100
AcDbEntity
  8
LC-006-005-----0
 62
     7
370
    25
100
AcDbLine
 10
271.324196
 20
361.833864
 30
0.0
 11
274.194761
 21
364.704429
 31
0.0
  0
LINE
  5
303
330
2F1
100
AcDbEntity
  8
LC-006-005-----0
 62
     7
370
    25
100
AcDbLine
 10
270.970625
 20
364.30872
 30
0.0
 11
271.551191
 21
364.889286
 31
0.0
  0
ENDBLK
  5
2F3
330
2F1
100
AcDbEntity
  8
0
100
AcDbBlockEnd
  0
BLOCK
  5
310
330
306
100
AcDbEntity
  8
0
100
AcDbBlockBegin
  2
*D15
 70
     1
 71
     0
 10
0.0
 20
0.0
 30
0.0
  3
*D15
  1

  0
LINE
  5
307
330
306
100
AcDbEntity
  8
LC-002-003-----0
 62
     2
370
    -2
100
AcDbLine
 10
212.821402
 20
371.054843
 30
0.0
 11
212.817436
 21
453.845049
 31
0.0
  0
LINE
  5
308
330
306
100
AcDbEntity
  8
LC-002-003-----0
 62
     2
370
    -2
100
AcDbLine
 10
512.650636
 20
371.069204
 30
0.0
 11
512.646671
 21
453.859409
 31
0.0
  0
LINE
  5
309
330
306
100
AcDbEntity
  8
LC-002-003-----0
 62
     2
370
    -2
100
AcDbLine
 10
240.817609
 20
450.24639
 30
0.0
 11
484.646843
 21
450.258068
 31
0.0
  0
SOLID
  5
30A
330
306
100
AcDbEntity
  8
LC-002-003-----0
 62
     2
100
AcDbTrace
 10
240.817385
 20
454.913057
 30
0.0
 11
240.817832
 21
445.579723
 31
0.0
 12
212.817609
 22
450.245049
 32
0.0
 13
212.817609
 23
450.245049
 33
0.0
  0
SOLID
  5
30B
330
306
100
AcDbEntity
  8
LC-002-003-----0
 62
     2
100
AcDbTrace
 10
484.647067
 20
445.591402
 30
0.0
 11
484.64662
 21
454.924735
 31
0.0
 12
512.646843
 22
450.259409
 32
0.0
 13
512.646843
 23
450.259409
 33
0.0
  0
MTEXT
  5
30C
330
306
100
AcDbEntity
  8
LC-002-003-----0
 62
     2
100
AcDbMText
 10
357.945323
 20
481.052
 30
0.0
 40
28.0
 41
0.0
 71
     5
 72
     1
  1
\A1;%%c300
  7
LCTX15-400-0-0pDIN-Schrift
 11
0.9999999988530246
 21
4.789520643785563E-5
 31
0.0
 73
     1
 44
1.0
  0
POINT
  5
30D
330
306
100
AcDbEntity
  8
Defpoints
 62
     0
100
AcDbPoint
 10
212.821402
 20
371.054843
 30
0.0
  0
POINT
  5
30E
330
306
100
AcDbEntity
  8
Defpoints
 62
     0
100
AcDbPoint
 10
512.650636
 20
371.069204
 30
0.0
  0
POINT
  5
30F
330
306
100
AcDbEntity
  8
Defpoints
 62
     0
100
AcDbPoint
 10
512.646843
 20
450.259409
 30
0.0
  0
ENDBLK
  5
311
330
306
100
AcDbEntity
  8
0
100
AcDbBlockEnd
  0
BLOCK
  5
31D
330
313
100
AcDbEntity
  8
0
100
AcDbBlockBegin
  2
*D16
 70
     1
 71
     0
 10
0.0
 20
0.0
 30
0.0
  3
*D16
  1

  0
LINE
  5
314
330
313
100
AcDbEntity
  8
LC-002-003-----0
 62
     2
370
    -2
100
AcDbLine
 10
212.611314
 20
368.064225
 30
0.0
 11
192.4
 21
368.064225
 31
0.0
  0
LINE
  5
315
330
313
100
AcDbEntity
  8
LC-002-003-----0
 62
     2
370
    -2
100
AcDbLine
 10
311.126143
 20
217.069814
 30
0.0
 11
192.4
 21
217.069814
 31
0.0
  0
LINE
  5
316
330
313
100
AcDbEntity
  8
LC-002-003-----0
 62
     2
370
    -2
100
AcDbLine
 10
196.0
 20
340.064225
 30
0.0
 11
196.0
 21
245.069814
 31
0.0
  0
SOLID
  5
317
330
313
100
AcDbEntity
  8
LC-002-003-----0
 62
     2
100
AcDbTrace
 10
200.666667
 20
340.064225
 30
0.0
 11
191.333333
 21
340.064225
 31
0.0
 12
196.0
 22
368.064225
 32
0.0
 13
196.0
 23
368.064225
 33
0.0
  0
SOLID
  5
318
330
313
100
AcDbEntity
  8
LC-002-003-----0
 62
     2
100
AcDbTrace
 10
191.333333
 20
245.069814
 30
0.0
 11
200.666667
 21
245.069814
 31
0.0
 12
196.0
 22
217.069814
 32
0.0
 13
196.0
 23
217.069814
 33
0.0
  0
MTEXT
  5
319
330
313
100
AcDbEntity
  8
LC-002-003-----0
 62
     2
100
AcDbMText
 10
165.2
 20
292.567019
 30
0.0
 40
28.0
 41
0.0
 71
     5
 72
     1
  1
\A1;150
  7
LCTX15-400-0-0pDIN-Schrift
 11
6.123031769111886E-17
 21
1.0
 31
0.0
 73
     1
 44
1.0
  0
POINT
  5
31A
330
313
100
AcDbEntity
  8
Defpoints
 62
     0
100
AcDbPoint
 10
212.611314
 20
368.064225
 30
0.0
  0
POINT
  5
31B
330
313
100
AcDbEntity
  8
Defpoints
 62
     0
100
AcDbPoint
 10
311.126143
 20
217.069814
 30
0.0
  0
POINT
  5
31C
330
313
100
AcDbEntity
  8
Defpoints
 62
     0
100
AcDbPoint
 10
196.0
 20
217.069814
 30
0.0
  0
ENDBLK
  5
31E
330
313
100
AcDbEntity
  8
0
100
AcDbBlockEnd
  0
BLOCK
  5
32A
330
320
100
AcDbEntity
  8
0
100
AcDbBlockBegin
  2
*D17
 70
     1
 71
     0
 10
0.0
 20
0.0
 30
0.0
  3
*D17
  1

  0
LINE
  5
321
330
320
100
AcDbEntity
  8
LC-002-003-----0
 62
     2
370
    -2
100
AcDbLine
 10
512.650628
 20
368.063827
 30
0.0
 11
592.830196
 21
368.063827
 31
0.0
  0
LINE
  5
322
330
320
100
AcDbEntity
  8
LC-002-003-----0
 62
     2
370
    -2
100
AcDbLine
 10
500.631085
 20
289.116383
 30
0.0
 11
592.830196
 21
289.116383
 31
0.0
  0
LINE
  5
323
330
320
100
AcDbEntity
  8
LC-002-003-----0
 62
     2
370
    -2
100
AcDbLine
 10
589.230196
 20
340.063827
 30
0.0
 11
589.230196
 21
317.116383
 31
0.0
  0
SOLID
  5
324
330
320
100
AcDbEntity
  8
LC-002-003-----0
 62
     2
100
AcDbTrace
 10
593.896863
 20
340.063827
 30
0.0
 11
584.56353
 21
340.063827
 31
0.0
 12
589.230196
 22
368.063827
 32
0.0
 13
589.230196
 23
368.063827
 33
0.0
  0
SOLID
  5
325
330
320
100
AcDbEntity
  8
LC-002-003-----0
 62
     2
100
AcDbTrace
 10
584.56353
 20
317.116383
 30
0.0
 11
593.896863
 21
317.116383
 31
0.0
 12
589.230196
 22
289.116383
 32
0.0
 13
589.230196
 23
289.116383
 33
0.0
  0
MTEXT
  5
326
330
320
100
AcDbEntity
  8
LC-002-003-----0
 62
     2
100
AcDbMText
 10
558.430196
 20
324.899442
 30
0.0
 40
28.0
 41
0.0
 71
     5
 72
     1
  1
\A1;80
  7
LCTX15-400-0-0pDIN-Schrift
 11
6.123031769111886E-17
 21
1.0
 31
0.0
 73
     1
 44
1.0
  0
POINT
  5
327
330
320
100
AcDbEntity
  8
Defpoints
 62
     0
100
AcDbPoint
 10
512.650628
 20
368.063827
 30
0.0
  0
POINT
  5
328
330
320
100
AcDbEntity
  8
Defpoints
 62
     0
100
AcDbPoint
 10
500.631085
 20
289.116383
 30
0.0
  0
POINT
  5
329
330
320
100
AcDbEntity
  8
Defpoints
 62
     0
100
AcDbPoint
 10
589.230196
 20
289.116383
 30
0.0
  0
ENDBLK
  5
32B
330
320
100
AcDbEntity
  8
0
100
AcDbBlockEnd
  0
BLOCK
  5
338
330
32D
100
AcDbEntity
  8
0
100
AcDbBlockBegin
  2
*D18
 70
     1
 71
     0
 10
0.0
 20
0.0
 30
0.0
  3
*D18
  1

  0
LINE
  5
32E
330
32D
100
AcDbEntity
  8
LC-002-003-----0
 62
     2
370
    -2
100
AcDbLine
 10
395.63551
 20
297.069703
 30
0.0
 11
342.822632
 21
297.069703
 31
0.0
  0
LINE
  5
32F
330
32D
100
AcDbEntity
  8
LC-002-003-----0
 62
     2
370
    -2
100
AcDbLine
 10
371.744358
 20
236.567962
 30
0.0
 11
342.822632
 21
236.567962
 31
0.0
  0
LINE
  5
330
330
32D
100
AcDbEntity
  8
LC-002-003-----0
 62
     2
370
    -2
100
AcDbLine
 10
346.422632
 20
325.069703
 30
0.0
 11
346.422632
 21
353.069703
 31
0.0
  0
LINE
  5
331
330
32D
100
AcDbEntity
  8
LC-002-003-----0
 62
     2
370
    -2
100
AcDbLine
 10
346.422632
 20
208.567962
 30
0.0
 11
346.422632
 21
154.383808
 31
0.0
  0
SOLID
  5
332
330
32D
100
AcDbEntity
  8
LC-002-003-----0
 62
     2
100
AcDbTrace
 10
341.755965
 20
325.069703
 30
0.0
 11
351.089298
 21
325.069703
 31
0.0
 12
346.422632
 22
297.069703
 32
0.0
 13
346.422632
 23
297.069703
 33
0.0
  0
SOLID
  5
333
330
32D
100
AcDbEntity
  8
LC-002-003-----0
 62
     2
100
AcDbTrace
 10
351.089298
 20
208.567962
 30
0.0
 11
341.755965
 21
208.567962
 31
0.0
 12
346.422632
 22
236.567962
 32
0.0
 13
346.422632
 23
236.567962
 33
0.0
  0
MTEXT
  5
334
330
32D
100
AcDbEntity
  8
LC-002-003-----0
 62
     2
100
AcDbMText
 10
315.622632
 20
176.418
 30
0.0
 40
28.0
 41
0.0
 71
     5
 72
     1
  1
\A1;60
  7
LCTX15-400-0-0pDIN-Schrift
 11
6.123031769111886E-17
 21
1.0
 31
0.0
 73
     1
 44
1.0
  0
POINT
  5
335
330
32D
100
AcDbEntity
  8
Defpoints
 62
     0
100
AcDbPoint
 10
395.63551
 20
297.069703
 30
0.0
  0
POINT
  5
336
330
32D
100
AcDbEntity
  8
Defpoints
 62
     0
100
AcDbPoint
 10
371.744358
 20
236.567962
 30
0.0
  0
POINT
  5
337
330
32D
100
AcDbEntity
  8
Defpoints
 62
     0
100
AcDbPoint
 10
346.422632
 20
236.567962
 30
0.0
  0
ENDBLK
  5
339
330
32D
100
AcDbEntity
  8
0
100
AcDbBlockEnd
  0
BLOCK
  5
345
330
33B
100
AcDbEntity
  8
0
100
AcDbBlockBegin
  2
*D19
 70
     1
 71
     0
 10
0.0
 20
0.0
 30
0.0
  3
*D19
  1

  0
LINE
  5
33C
330
33B
100
AcDbEntity
  8
LC-002-003-----0
 62
     2
370
    -2
100
AcDbLine
 10
268.924717
 20
357.289787
 30
0.0
 11
268.924758
 21
395.599619
 31
0.0
  0
LINE
  5
33D
330
33B
100
AcDbEntity
  8
LC-002-003-----0
 62
     2
370
    -2
100
AcDbLine
 10
456.337196
 20
357.289539
 30
0.0
 11
456.337236
 21
395.599419
 31
0.0
  0
LINE
  5
33E
330
33B
100
AcDbEntity
  8
LC-002-003-----0
 62
     2
370
    -2
100
AcDbLine
 10
296.924754
 20
391.999589
 30
0.0
 11
428.337233
 21
391.999449
 31
0.0
  0
SOLID
  5
33F
330
33B
100
AcDbEntity
  8
LC-002-003-----0
 62
     2
100
AcDbTrace
 10
296.924759
 20
396.666256
 30
0.0
 11
296.924749
 21
387.332922
 31
0.0
 12
268.924754
 22
391.999619
 32
0.0
 13
268.924754
 23
391.999619
 33
0.0
  0
SOLID
  5
340
330
33B
100
AcDbEntity
  8
LC-002-003-----0
 62
     2
100
AcDbTrace
 10
428.337228
 20
387.332782
 30
0.0
 11
428.337238
 21
396.666116
 31
0.0
 12
456.337233
 22
391.999419
 32
0.0
 13
456.337233
 23
391.999419
 33
0.0
  0
MTEXT
  5
341
330
33B
100
AcDbEntity
  8
LC-002-003-----0
 62
     2
100
AcDbMText
 10
362.631035
 20
422.799519
 30
0.0
 40
28.0
 41
0.0
 71
     5
 72
     1
  1
\A1;%%c190
  7
LCTX15-400-0-0pDIN-Schrift
 11
0.9999999999994326
 21
-1.065264436018092E-6
 31
0.0
 73
     1
 44
1.0
  0
POINT
  5
342
330
33B
100
AcDbEntity
  8
Defpoints
 62
     0
100
AcDbPoint
 10
268.924717
 20
357.289787
 30
0.0
  0
POINT
  5
343
330
33B
100
AcDbEntity
  8
Defpoints
 62
     0
100
AcDbPoint
 10
456.337196
 20
357.289539
 30
0.0
  0
POINT
  5
344
330
33B
100
AcDbEntity
  8
Defpoints
 62
     0
100
AcDbPoint
 10
456.337233
 20
391.999419
 30
0.0
  0
ENDBLK
  5
346
330
33B
100
AcDbEntity
  8
0
100
AcDbBlockEnd
  0
BLOCK
  5
352
330
348
100
AcDbEntity
  8
0
100
AcDbBlockBegin
  2
*D20
 70
     1
 71
     0
 10
0.0
 20
0.0
 30
0.0
  3
*D20
  1

  0
LINE
  5
349
330
348
100
AcDbEntity
  8
LC-002-003-----0
 62
     2
370
    -2
100
AcDbLine
 10
497.631085
 20
251.616808
 30
0.0
 11
640.552886
 21
251.616808
 31
0.0
  0
LINE
  5
34A
330
348
100
AcDbEntity
  8
LC-002-003-----0
 62
     2
370
    -2
100
AcDbLine
 10
567.591849
 20
326.616459
 30
0.0
 11
640.552886
 21
326.616459
 31
0.0
  0
LINE
  5
34B
330
348
100
AcDbEntity
  8
LC-002-003-----0
 62
     2
370
    -2
100
AcDbLine
 10
636.952886
 20
279.616808
 30
0.0
 11
636.952886
 21
298.616459
 31
0.0
  0
SOLID
  5
34C
330
348
100
AcDbEntity
  8
LC-002-003-----0
 62
     2
100
AcDbTrace
 10
632.28622
 20
279.616808
 30
0.0
 11
641.619553
 21
279.616808
 31
0.0
 12
636.952886
 22
251.616808
 32
0.0
 13
636.952886
 23
251.616808
 33
0.0
  0
SOLID
  5
34D
330
348
100
AcDbEntity
  8
LC-002-003-----0
 62
     2
100
AcDbTrace
 10
641.619553
 20
298.616459
 30
0.0
 11
632.28622
 21
298.616459
 31
0.0
 12
636.952886
 22
326.616459
 32
0.0
 13
636.952886
 23
326.616459
 33
0.0
  0
MTEXT
  5
34E
330
348
100
AcDbEntity
  8
LC-002-003-----0
 62
     2
100
AcDbMText
 10
606.152886
 20
285.302884
 30
0.0
 40
28.0
 41
0.0
 71
     5
 72
     1
  1
\A1;DN70
  7
LCTX15-400-0-0pDIN-Schrift
 11
6.123031769111886E-17
 21
1.0
 31
0.0
 73
     1
 44
1.0
  0
POINT
  5
34F
330
348
100
AcDbEntity
  8
Defpoints
 62
     0
100
AcDbPoint
 10
497.631085
 20
251.616808
 30
0.0
  0
POINT
  5
350
330
348
100
AcDbEntity
  8
Defpoints
 62
     0
100
AcDbPoint
 10
567.591849
 20
326.616459
 30
0.0
  0
POINT
  5
351
330
348
100
AcDbEntity
  8
Defpoints
 62
     0
100
AcDbPoint
 10
636.952886
 20
326.616459
 30
0.0
  0
ENDBLK
  5
353
330
348
100
AcDbEntity
  8
0
100
AcDbBlockEnd
  0
BLOCK
  5
381
330
380
100
AcDbEntity
  8
0
100
AcDbBlockBegin
  2
*X1421
 70
     1
 71
     0
 10
0.0
 20
0.0
 30
0.0
  3
*X1421
  1

  4
*X14
  0
LINE
  5
383
330
380
100
AcDbEntity
  8
LC-006-005-----0
 62
     7
370
    25
100
AcDbLine
 10
534.324957
 20
335.416383
 30
0.0
 11
532.171753
 21
337.569588
 31
0.0
  0
LINE
  5
384
330
380
100
AcDbEntity
  8
LC-006-005-----0
 62
     7
370
    25
100
AcDbLine
 10
530.789423
 20
335.416383
 30
0.0
 11
528.089423
 21
338.116383
 31
0.0
  0
LINE
  5
385
330
380
100
AcDbEntity
  8
LC-006-005-----0
 62
     7
370
    25
100
AcDbLine
 10
527.25389
 20
335.416383
 30
0.0
 11
524.55389
 21
338.116383
 31
0.0
  0
LINE
  5
386
330
380
100
AcDbEntity
  8
LC-006-005-----0
 62
     7
370
    25
100
AcDbLine
 10
523.718356
 20
335.416383
 30
0.0
 11
521.018356
 21
338.116383
 31
0.0
  0
LINE
  5
387
330
380
100
AcDbEntity
  8
LC-006-005-----0
 62
     7
370
    25
100
AcDbLine
 10
520.182822
 20
335.416383
 30
0.0
 11
517.482822
 21
338.116383
 31
0.0
  0
LINE
  5
388
330
380
100
AcDbEntity
  8
LC-006-005-----0
 62
     7
370
    25
100
AcDbLine
 10
516.647288
 20
335.416383
 30
0.0
 11
513.947288
 21
338.116383
 31
0.0
  0
LINE
  5
389
330
380
100
AcDbEntity
  8
LC-006-005-----0
 62
     7
370
    25
100
AcDbLine
 10
513.111754
 20
335.416383
 30
0.0
 11
510.411754
 21
338.116383
 31
0.0
  0
LINE
  5
38A
330
380
100
AcDbEntity
  8
LC-006-005-----0
 62
     7
370
    25
100
AcDbLine
 10
509.57622
 20
335.416383
 30
0.0
 11
506.87622
 21
338.116383
 31
0.0
  0
LINE
  5
38B
330
380
100
AcDbEntity
  8
LC-006-005-----0
 62
     7
370
    25
100
AcDbLine
 10
506.040686
 20
335.416383
 30
0.0
 11
503.340686
 21
338.116383
 31
0.0
  0
LINE
  5
38C
330
380
100
AcDbEntity
  8
LC-006-005-----0
 62
     7
370
    25
100
AcDbLine
 10
502.505152
 20
335.416383
 30
0.0
 11
499.805152
 21
338.116383
 31
0.0
  0
LINE
  5
38D
330
380
100
AcDbEntity
  8
LC-006-005-----0
 62
     7
370
    25
100
AcDbLine
 10
498.969618
 20
335.416383
 30
0.0
 11
496.269618
 21
338.116383
 31
0.0
  0
LINE
  5
38E
330
380
100
AcDbEntity
  8
LC-006-005-----0
 62
     7
370
    25
100
AcDbLine
 10
495.434084
 20
335.416383
 30
0.0
 11
492.734084
 21
338.116383
 31
0.0
  0
LINE
  5
38F
330
380
100
AcDbEntity
  8
LC-006-005-----0
 62
     7
370
    25
100
AcDbLine
 10
500.631085
 20
326.683849
 30
0.0
 11
498.49855
 21
328.816383
 31
0.0
  0
LINE
  5
390
330
380
100
AcDbEntity
  8
LC-006-005-----0
 62
     7
370
    25
100
AcDbLine
 10
491.89855
 20
335.416383
 30
0.0
 11
489.19855
 21
338.116383
 31
0.0
  0
LINE
  5
391
330
380
100
AcDbEntity
  8
LC-006-005-----0
 62
     7
370
    25
100
AcDbLine
 10
496.963017
 20
326.816383
 30
0.0
 11
494.963017
 21
328.816383
 31
0.0
  0
LINE
  5
392
330
380
100
AcDbEntity
  8
LC-006-005-----0
 62
     7
370
    25
100
AcDbLine
 10
488.363017
 20
335.416383
 30
0.0
 11
485.663017
 21
338.116383
 31
0.0
  0
LINE
  5
393
330
380
100
AcDbEntity
  8
LC-006-005-----0
 62
     7
370
    25
100
AcDbLine
 10
493.427483
 20
326.816383
 30
0.0
 11
491.427483
 21
328.816383
 31
0.0
  0
LINE
  5
394
330
380
100
AcDbEntity
  8
LC-006-005-----0
 62
     7
370
    25
100
AcDbLine
 10
484.827483
 20
335.416383
 30
0.0
 11
482.127483
 21
338.116383
 31
0.0
  0
LINE
  5
395
330
380
100
AcDbEntity
  8
LC-006-005-----0
 62
     7
370
    25
100
AcDbLine
 10
489.891949
 20
326.816383
 30
0.0
 11
487.891949
 21
328.816383
 31
0.0
  0
LINE
  5
396
330
380
100
AcDbEntity
  8
LC-006-005-----0
 62
     7
370
    25
100
AcDbLine
 10
481.291949
 20
335.416383
 30
0.0
 11
478.591949
 21
338.116383
 31
0.0
  0
LINE
  5
397
330
380
100
AcDbEntity
  8
LC-006-005-----0
 62
     7
370
    25
100
AcDbLine
 10
486.356415
 20
326.816383
 30
0.0
 11
484.356415
 21
328.816383
 31
0.0
  0
LINE
  5
398
330
380
100
AcDbEntity
  8
LC-006-005-----0
 62
     7
370
    25
100
AcDbLine
 10
477.756415
 20
335.416383
 30
0.0
 11
475.056415
 21
338.116383
 31
0.0
  0
LINE
  5
399
330
380
100
AcDbEntity
  8
LC-006-005-----0
 62
     7
370
    25
100
AcDbLine
 10
482.820881
 20
326.816383
 30
0.0
 11
480.820881
 21
328.816383
 31
0.0
  0
LINE
  5
39A
330
380
100
AcDbEntity
  8
LC-006-005-----0
 62
     7
370
    25
100
AcDbLine
 10
474.220881
 20
335.416383
 30
0.0
 11
471.520881
 21
338.116383
 31
0.0
  0
LINE
  5
39B
330
380
100
AcDbEntity
  8
LC-006-005-----0
 62
     7
370
    25
100
AcDbLine
 10
479.285347
 20
326.816383
 30
0.0
 11
477.285347
 21
328.816383
 31
0.0
  0
LINE
  5
39C
330
380
100
AcDbEntity
  8
LC-006-005-----0
 62
     7
370
    25
100
AcDbLine
 10
470.685347
 20
335.416383
 30
0.0
 11
467.985347
 21
338.116383
 31
0.0
  0
LINE
  5
39D
330
380
100
AcDbEntity
  8
LC-006-005-----0
 62
     7
370
    25
100
AcDbLine
 10
475.749813
 20
326.816383
 30
0.0
 11
473.749813
 21
328.816383
 31
0.0
  0
LINE
  5
39E
330
380
100
AcDbEntity
  8
LC-006-005-----0
 62
     7
370
    25
100
AcDbLine
 10
467.149813
 20
335.416383
 30
0.0
 11
464.449813
 21
338.116383
 31
0.0
  0
LINE
  5
39F
330
380
100
AcDbEntity
  8
LC-006-005-----0
 62
     7
370
    25
100
AcDbLine
 10
472.214279
 20
326.816383
 30
0.0
 11
470.214279
 21
328.816383
 31
0.0
  0
LINE
  5
3A0
330
380
100
AcDbEntity
  8
LC-006-005-----0
 62
     7
370
    25
100
AcDbLine
 10
463.631085
 20
335.399578
 30
0.0
 11
461.221516
 21
337.809147
 31
0.0
  0
LINE
  5
3A1
330
380
100
AcDbEntity
  8
LC-006-005-----0
 62
     7
370
    25
100
AcDbLine
 10
468.678745
 20
326.816383
 30
0.0
 11
466.678745
 21
328.816383
 31
0.0
  0
LINE
  5
3A2
330
380
100
AcDbEntity
  8
LC-006-005-----0
 62
     7
370
    25
100
AcDbLine
 10
463.631085
 20
331.864044
 30
0.0
 11
460.631085
 21
334.864044
 31
0.0
  0
LINE
  5
3A3
330
380
100
AcDbEntity
  8
LC-006-005-----0
 62
     7
370
    25
100
AcDbLine
 10
465.143211
 20
326.816383
 30
0.0
 11
461.731085
 21
330.22851
 31
0.0
  0
LINE
  5
3A4
330
380
100
AcDbEntity
  8
LC-006-005-----0
 62
     7
370
    25
100
AcDbLine
 10
460.593211
 20
331.366383
 30
0.0
 11
458.843211
 21
333.116383
 31
0.0
  0
LINE
  5
3A5
330
380
100
AcDbEntity
  8
LC-006-005-----0
 62
     7
370
    25
100
AcDbLine
 10
457.057678
 20
331.366383
 30
0.0
 11
455.307678
 21
333.116383
 31
0.0
  0
LINE
  5
3A6
330
380
100
AcDbEntity
  8
LC-006-005-----0
 62
     7
370
    25
100
AcDbLine
 10
453.522144
 20
331.366383
 30
0.0
 11
452.005075
 21
332.883452
 31
0.0
  0
LINE
  5
3A7
330
380
100
AcDbEntity
  8
LC-006-005-----0
 62
     7
370
    25
100
AcDbLine
 10
452.043525
 20
329.309468
 30
0.0
 11
450.579423
 21
330.77357
 31
0.0
  0
LINE
  5
3A8
330
380
100
AcDbEntity
  8
LC-006-005-----0
 62
     7
370
    25
100
AcDbLine
 10
450.74943
 20
327.06803
 30
0.0
 11
448.993659
 21
328.8238
 31
0.0
  0
LINE
  5
3A9
330
380
100
AcDbEntity
  8
LC-006-005-----0
 62
     7
370
    25
100
AcDbLine
 10
447.465542
 20
326.816383
 30
0.0
 11
445.631085
 21
328.65084
 31
0.0
  0
LINE
  5
3AA
330
380
100
AcDbEntity
  8
LC-006-005-----0
 62
     7
370
    25
100
AcDbLine
 10
534.411899
 20
229.263424
 30
0.0
 11
532.85894
 21
230.816383
 31
0.0
  0
LINE
  5
3AB
330
380
100
AcDbEntity
  8
LC-006-005-----0
 62
     7
370
    25
100
AcDbLine
 10
531.623512
 20
228.516278
 30
0.0
 11
529.323406
 21
230.816383
 31
0.0
  0
LINE
  5
3AC
330
380
100
AcDbEntity
  8
LC-006-005-----0
 62
     7
370
    25
100
AcDbLine
 10
528.487872
 20
228.116383
 30
0.0
 11
525.787872
 21
230.816383
 31
0.0
  0
LINE
  5
3AD
330
380
100
AcDbEntity
  8
LC-006-005-----0
 62
     7
370
    25
100
AcDbLine
 10
524.952338
 20
228.116383
 30
0.0
 11
522.252338
 21
230.816383
 31
0.0
  0
LINE
  5
3AE
330
380
100
AcDbEntity
  8
LC-006-005-----0
 62
     7
370
    25
100
AcDbLine
 10
521.416805
 20
228.116383
 30
0.0
 11
518.716805
 21
230.816383
 31
0.0
  0
LINE
  5
3AF
330
380
100
AcDbEntity
  8
LC-006-005-----0
 62
     7
370
    25
100
AcDbLine
 10
500.116805
 20
249.416383
 30
0.0
 11
498.01416
 21
251.519028
 31
0.0
  0
LINE
  5
3B0
330
380
100
AcDbEntity
  8
LC-006-005-----0
 62
     7
370
    25
100
AcDbLine
 10
517.881271
 20
228.116383
 30
0.0
 11
515.181271
 21
230.816383
 31
0.0
  0
LINE
  5
3B1
330
380
100
AcDbEntity
  8
LC-006-005-----0
 62
     7
370
    25
100
AcDbLine
 10
496.581271
 20
249.416383
 30
0.0
 11
494.581271
 21
251.416383
 31
0.0
  0
LINE
  5
3B2
330
380
100
AcDbEntity
  8
LC-006-005-----0
 62
     7
370
    25
100
AcDbLine
 10
514.345737
 20
228.116383
 30
0.0
 11
511.645737
 21
230.816383
 31
0.0
  0
LINE
  5
3B3
330
380
100
AcDbEntity
  8
LC-006-005-----0
 62
     7
370
    25
100
AcDbLine
 10
493.045737
 20
249.416383
 30
0.0
 11
491.045737
 21
251.416383
 31
0.0
  0
LINE
  5
3B4
330
380
100
AcDbEntity
  8
LC-006-005-----0
 62
     7
370
    25
100
AcDbLine
 10
510.810203
 20
228.116383
 30
0.0
 11
508.110203
 21
230.816383
 31
0.0
  0
LINE
  5
3B5
330
380
100
AcDbEntity
  8
LC-006-005-----0
 62
     7
370
    25
100
AcDbLine
 10
489.510203
 20
249.416383
 30
0.0
 11
487.510203
 21
251.416383
 31
0.0
  0
LINE
  5
3B6
330
380
100
AcDbEntity
  8
LC-006-005-----0
 62
     7
370
    25
100
AcDbLine
 10
507.274669
 20
228.116383
 30
0.0
 11
504.574669
 21
230.816383
 31
0.0
  0
LINE
  5
3B7
330
380
100
AcDbEntity
  8
LC-006-005-----0
 62
     7
370
    25
100
AcDbLine
 10
485.974669
 20
249.416383
 30
0.0
 11
483.974669
 21
251.416383
 31
0.0
  0
LINE
  5
3B8
330
380
100
AcDbEntity
  8
LC-006-005-----0
 62
     7
370
    25
100
AcDbLine
 10
503.739135
 20
228.116383
 30
0.0
 11
501.039135
 21
230.816383
 31
0.0
  0
LINE
  5
3B9
330
380
100
AcDbEntity
  8
LC-006-005-----0
 62
     7
370
    25
100
AcDbLine
 10
482.439135
 20
249.416383
 30
0.0
 11
480.439135
 21
251.416383
 31
0.0
  0
LINE
  5
3BA
330
380
100
AcDbEntity
  8
LC-006-005-----0
 62
     7
370
    25
100
AcDbLine
 10
500.203601
 20
228.116383
 30
0.0
 11
497.503601
 21
230.816383
 31
0.0
  0
LINE
  5
3BB
330
380
100
AcDbEntity
  8
LC-006-005-----0
 62
     7
370
    25
100
AcDbLine
 10
478.903601
 20
249.416383
 30
0.0
 11
476.903601
 21
251.416383
 31
0.0
  0
LINE
  5
3BC
330
380
100
AcDbEntity
  8
LC-006-005-----0
 62
     7
370
    25
100
AcDbLine
 10
496.668067
 20
228.116383
 30
0.0
 11
493.968067
 21
230.816383
 31
0.0
  0
LINE
  5
3BD
330
380
100
AcDbEntity
  8
LC-006-005-----0
 62
     7
370
    25
100
AcDbLine
 10
475.368067
 20
249.416383
 30
0.0
 11
473.368067
 21
251.416383
 31
0.0
  0
LINE
  5
3BE
330
380
100
AcDbEntity
  8
LC-006-005-----0
 62
     7
370
    25
100
AcDbLine
 10
493.132533
 20
228.116383
 30
0.0
 11
490.432533
 21
230.816383
 31
0.0
  0
LINE
  5
3BF
330
380
100
AcDbEntity
  8
LC-006-005-----0
 62
     7
370
    25
100
AcDbLine
 10
471.832533
 20
249.416383
 30
0.0
 11
469.832533
 21
251.416383
 31
0.0
  0
LINE
  5
3C0
330
380
100
AcDbEntity
  8
LC-006-005-----0
 62
     7
370
    25
100
AcDbLine
 10
489.596999
 20
228.116383
 30
0.0
 11
486.896999
 21
230.816383
 31
0.0
  0
LINE
  5
3C1
330
380
100
AcDbEntity
  8
LC-006-005-----0
 62
     7
370
    25
100
AcDbLine
 10
468.296999
 20
249.416383
 30
0.0
 11
466.296999
 21
251.416383
 31
0.0
  0
LINE
  5
3C2
330
380
100
AcDbEntity
  8
LC-006-005-----0
 62
     7
370
    25
100
AcDbLine
 10
486.061466
 20
228.116383
 30
0.0
 11
483.361466
 21
230.816383
 31
0.0
  0
LINE
  5
3C3
330
380
100
AcDbEntity
  8
LC-006-005-----0
 62
     7
370
    25
100
AcDbLine
 10
464.761466
 20
249.416383
 30
0.0
 11
462.761466
 21
251.416383
 31
0.0
  0
LINE
  5
3C4
330
380
100
AcDbEntity
  8
LC-006-005-----0
 62
     7
370
    25
100
AcDbLine
 10
482.525932
 20
228.116383
 30
0.0
 11
479.825932
 21
230.816383
 31
0.0
  0
LINE
  5
3C5
330
380
100
AcDbEntity
  8
LC-006-005-----0
 62
     7
370
    25
100
AcDbLine
 10
463.631085
 20
247.01123
 30
0.0
 11
461.731085
 21
248.91123
 31
0.0
  0
LINE
  5
3C6
330
380
100
AcDbEntity
  8
LC-006-005-----0
 62
     7
370
    25
100
AcDbLine
 10
478.990398
 20
228.116383
 30
0.0
 11
476.290398
 21
230.816383
 31
0.0
  0
LINE
  5
3C7
330
380
100
AcDbEntity
  8
LC-006-005-----0
 62
     7
370
    25
100
AcDbLine
 10
463.631085
 20
243.475696
 30
0.0
 11
460.240398
 21
246.866383
 31
0.0
  0
LINE
  5
3C8
330
380
100
AcDbEntity
  8
LC-006-005-----0
 62
     7
370
    25
100
AcDbLine
 10
475.454864
 20
228.116383
 30
0.0
 11
472.754864
 21
230.816383
 31
0.0
  0
LINE
  5
3C9
330
380
100
AcDbEntity
  8
LC-006-005-----0
 62
     7
370
    25
100
AcDbLine
 10
463.631085
 20
239.940162
 30
0.0
 11
460.631085
 21
242.940162
 31
0.0
  0
LINE
  5
3CA
330
380
100
AcDbEntity
  8
LC-006-005-----0
 62
     7
370
    25
100
AcDbLine
 10
458.454864
 20
245.116383
 30
0.0
 11
456.704864
 21
246.866383
 31
0.0
  0
LINE
  5
3CB
330
380
100
AcDbEntity
  8
LC-006-005-----0
 62
     7
370
    25
100
AcDbLine
 10
471.91933
 20
228.116383
 30
0.0
 11
469.21933
 21
230.816383
 31
0.0
  0
LINE
  5
3CC
330
380
100
AcDbEntity
  8
LC-006-005-----0
 62
     7
370
    25
100
AcDbLine
 10
463.631085
 20
236.404628
 30
0.0
 11
460.631085
 21
239.404628
 31
0.0
  0
LINE
  5
3CD
330
380
100
AcDbEntity
  8
LC-006-005-----0
 62
     7
370
    25
100
AcDbLine
 10
454.91933
 20
245.116383
 30
0.0
 11
448.61933
 21
251.416383
 31
0.0
  0
LINE
  5
3CE
330
380
100
AcDbEntity
  8
LC-006-005-----0
 62
     7
370
    25
100
AcDbLine
 10
468.383796
 20
228.116383
 30
0.0
 11
465.683796
 21
230.816383
 31
0.0
  0
LINE
  5
3CF
330
380
100
AcDbEntity
  8
LC-006-005-----0
 62
     7
370
    25
100
AcDbLine
 10
463.631085
 20
232.869094
 30
0.0
 11
460.631085
 21
235.869094
 31
0.0
  0
LINE
  5
3D0
330
380
100
AcDbEntity
  8
LC-006-005-----0
 62
     7
370
    25
100
AcDbLine
 10
447.083796
 20
249.416383
 30
0.0
 11
445.631085
 21
250.869094
 31
0.0
  0
LINE
  5
3D1
330
380
100
AcDbEntity
  8
LC-006-005-----0
 62
     7
370
    25
100
AcDbLine
 10
464.848262
 20
228.116383
 30
0.0
 11
460.631085
 21
232.33356
 31
0.0
  0
ENDBLK
  5
382
330
380
100
AcDbEntity
  8
0
100
AcDbBlockEnd
  0
BLOCK
  5
3E3
330
3D9
100
AcDbEntity
  8
0
100
AcDbBlockBegin
  2
*D22
 70
     1
 71
     0
 10
0.0
 20
0.0
 30
0.0
  3
*D22
  1

  0
LINE
  5
3DA
330
3D9
100
AcDbEntity
  8
LC-002-003-----0
 62
     2
370
    -2
100
AcDbLine
 10
362.631179
 20
219.571259
 30
0.0
 11
362.631179
 21
163.314
 31
0.0
  0
LINE
  5
3DB
330
3D9
100
AcDbEntity
  8
LC-002-003-----0
 62
     2
370
    -2
100
AcDbLine
 10
534.631085
 20
230.816383
 30
0.0
 11
534.631085
 21
163.314
 31
0.0
  0
LINE
  5
3DC
330
3D9
100
AcDbEntity
  8
LC-002-003-----0
 62
     2
370
    -2
100
AcDbLine
 10
390.631179
 20
166.914
 30
0.0
 11
506.631085
 21
166.914
 31
0.0
  0
SOLID
  5
3DD
330
3D9
100
AcDbEntity
  8
LC-002-003-----0
 62
     2
100
AcDbTrace
 10
390.631179
 20
171.580667
 30
0.0
 11
390.631179
 21
162.247333
 31
0.0
 12
362.631179
 22
166.914
 32
0.0
 13
362.631179
 23
166.914
 33
0.0
  0
SOLID
  5
3DE
330
3D9
100
AcDbEntity
  8
LC-002-003-----0
 62
     2
100
AcDbTrace
 10
506.631085
 20
162.247333
 30
0.0
 11
506.631085
 21
171.580667
 31
0.0
 12
534.631085
 22
166.914
 32
0.0
 13
534.631085
 23
166.914
 33
0.0
  0
MTEXT
  5
3DF
330
3D9
100
AcDbEntity
  8
LC-002-003-----0
 62
     2
100
AcDbMText
 10
435.070063
 20
197.714
 30
0.0
 40
28.0
 41
0.0
 71
     5
 72
     1
  1
\A1;172
  7
LCTX15-400-0-0pDIN-Schrift
 73
     1
 44
1.0
  0
POINT
  5
3E0
330
3D9
100
AcDbEntity
  8
Defpoints
 62
     0
100
AcDbPoint
 10
362.631179
 20
219.571259
 30
0.0
  0
POINT
  5
3E1
330
3D9
100
AcDbEntity
  8
Defpoints
 62
     0
100
AcDbPoint
 10
534.631085
 20
230.816383
 30
0.0
  0
POINT
  5
3E2
330
3D9
100
AcDbEntity
  8
Defpoints
 62
     0
100
AcDbPoint
 10
534.631085
 20
166.914
 30
0.0
  0
ENDBLK
  5
3E4
330
3D9
100
AcDbEntity
  8
0
100
AcDbBlockEnd
  0
BLOCK
  5
406
330
405
100
AcDbEntity
  8
0
100
AcDbBlockBegin
  2
KLON1
 70
     0
 71
     0
 10
0.0
 20
0.0
 30
0.0
  3
KLON1
  1

  4
KLON1
  0
LINE
  5
408
330
405
100
AcDbEntity
  8
LC-009-100-D00-0
 62
     7
370
    25
100
AcDbLine
 10
458.429714
 20
325.942016
 30
0.0
 11
459.002987
 21
326.51529
 31
0.0
  0
LINE
  5
409
330
405
100
AcDbEntity
  8
LC-009-100-D00-0
 62
     7
370
    25
100
AcDbLine
 10
460.12241
 20
327.634712
 30
0.0
 11
461.338428
 21
328.85073
 31
0.0
  0
LINE
  5
40A
330
405
100
AcDbEntity
  8
LC-009-100-D00-0
 62
     7
370
    25
100
AcDbLine
 10
457.228793
 20
326.635368
 30
0.0
 11
461.137422
 21
330.543998
 31
0.0
  0
LINE
  5
40B
330
405
100
AcDbEntity
  8
LC-009-100-D00-0
 62
     7
370
    25
100
AcDbLine
 10
456.027872
 20
327.32872
 30
0.0
 11
459.639297
 21
330.940145
 31
0.0
  0
LINE
  5
40C
330
405
100
AcDbEntity
  8
LC-009-100-D00-0
 62
     7
370
    25
100
AcDbLine
 10
459.901349
 20
331.202197
 30
0.0
 11
460.040738
 21
331.341586
 31
0.0
  0
LINE
  5
40D
330
405
100
AcDbEntity
  8
LC-009-100-D00-0
 62
     7
370
    25
100
AcDbLine
 10
454.936067
 20
328.131188
 30
0.0
 11
457.920308
 21
331.115429
 31
0.0
  0
LINE
  5
40E
330
405
100
AcDbEntity
  8
LC-009-100-D00-0
 62
     7
370
    25
100
AcDbLine
 10
455.258977
 20
330.348371
 30
0.0
 11
455.83007
 21
330.919464
 31
0.0
  0
ENDBLK
  5
407
330
405
100
AcDbEntity
  8
0
100
AcDbBlockEnd
  0
BLOCK
  5
430
330
42F
100
AcDbEntity
  8
0
100
AcDbBlockBegin
  2
KLON2
 70
     0
 71
     0
 10
0.0
 20
0.0
 30
0.0
  3
KLON2
  1

  4
KLON2
  0
LINE
  5
432
330
42F
100
AcDbEntity
  8
LC-009-100-D00-0
 62
     7
370
    25
100
AcDbLine
 10
458.429714
 20
252.291251
 30
0.0
 11
459.002987
 21
251.717977
 31
0.0
  0
LINE
  5
433
330
42F
100
AcDbEntity
  8
LC-009-100-D00-0
 62
     7
370
    25
100
AcDbLine
 10
460.12241
 20
250.598555
 30
0.0
 11
461.338428
 21
249.382537
 31
0.0
  0
LINE
  5
434
330
42F
100
AcDbEntity
  8
LC-009-100-D00-0
 62
     7
370
    25
100
AcDbLine
 10
457.228793
 20
251.597899
 30
0.0
 11
461.137422
 21
247.689269
 31
0.0
  0
LINE
  5
435
330
42F
100
AcDbEntity
  8
LC-009-100-D00-0
 62
     7
370
    25
100
AcDbLine
 10
456.027872
 20
250.904547
 30
0.0
 11
459.639297
 21
247.293122
 31
0.0
  0
LINE
  5
436
330
42F
100
AcDbEntity
  8
LC-009-100-D00-0
 62
     7
370
    25
100
AcDbLine
 10
459.901349
 20
247.03107
 30
0.0
 11
460.040738
 21
246.891681
 31
0.0
  0
LINE
  5
437
330
42F
100
AcDbEntity
  8
LC-009-100-D00-0
 62
     7
370
    25
100
AcDbLine
 10
454.936067
 20
250.102079
 30
0.0
 11
457.920308
 21
247.117838
 31
0.0
  0
LINE
  5
438
330
42F
100
AcDbEntity
  8
LC-009-100-D00-0
 62
     7
370
    25
100
AcDbLine
 10
455.258977
 20
247.884896
 30
0.0
 11
455.83007
 21
247.313803
 31
0.0
  0
ENDBLK
  5
431
330
42F
100
AcDbEntity
  8
0
100
AcDbBlockEnd
  0
ENDSEC
  0
SECTION
  2
ENTITIES
  0
LINE
  5
32
330
1F
100
AcDbEntity
  8
LC-001-002-----0
 62
     7
370
    25
100
AcDbLine
 10
500.631085
 20
289.116633
 30
0.0
 11
424.637211
 21
289.116633
 31
0.0
  0
LINE
  5
33
102
{ACAD_REACTORS
330
43E
102
}
330
1F
100
AcDbEntity
  8
LC-001-002-----0
 62
     7
370
    25
100
AcDbLine
 10
362.631182
 20
217.069747
 30
0.0
 11
362.630975
 21
371.069602
 31
0.0
  0
DIMENSION
  5
37
330
1F
100
AcDbEntity
  8
LC-002-003-----0
 62
     7
370
    25
100
AcDbDimension
  2
*D1
 10
701.877942
 20
338.116383
 30
0.0
 11
732.677334
 21
282.535915
 31
0.0
 70
   160
  1
DN100
 71
     5
 42
110.0
 53
90.0
  3
LC-DIM-L-0140-02-02
100
AcDbAlignedDimension
 13
535.631085
 23
228.116383
 33
0.0
 14
535.631085
 24
338.116383
 34
0.0
 50
90.0
100
AcDbRotatedDimension
  0
LINE
  5
45
102
{ACAD_REACTORS
330
43D
102
}
330
1F
100
AcDbEntity
  8
LC-001-002-----0
  6
ByBlock
 62
     7
370
    50
100
AcDbLine
 10
212.611314
 20
371.069602
 30
0.0
 11
362.630975
 21
371.069602
 31
0.0
  0
LINE
  5
46
102
{ACAD_REACTORS
330
43D
102
}
330
1F
100
AcDbEntity
  8
LC-001-002-----0
  6
ByBlock
 62
     7
370
    50
100
AcDbLine
 10
252.187302
 20
368.291693
 30
0.0
 11
362.630971
 21
368.291693
 31
0.0
  0
ARC
  5
48
102
{ACAD_REACTORS
330
43D
102
}
330
1F
100
AcDbEntity
  8
LC-003-020-RND-0
 62
     7
370
    50
100
AcDbCircle
 10
434.135575
 20
334.065825
 30
0.0
 40
1.500000000000006
100
AcDbArc
 50
89.999468
 51
179.99962
  0
LINE
  5
49
102
{ACAD_REACTORS
330
43D
102
}
330
1F
100
AcDbEntity
  8
LC-001-002-----0
  6
ByBlock
 62
     7
370
    50
100
AcDbLine
 10
473.074641
 20
368.2914
 30
0.0
 11
473.069907
 21
368.2914
 31
0.0
  0
LINE
  5
4A
102
{ACAD_REACTORS
330
43D
102
}
330
1F
100
AcDbEntity
  8
LC-001-002-----0
  6
ByBlock
 62
     7
370
    50
100
AcDbLine
 10
500.631085
 20
324.065959
 30
0.0
 11
500.631085
 21
254.166808
 31
0.0
  0
LINE
  5
4B
102
{ACAD_REACTORS
330
43D
102
}
330
1F
100
AcDbEntity
  8
LC-001-002-----0
  6
ByBlock
 62
     7
370
    50
100
AcDbLine
 10
293.62617
 20
237.069843
 30
0.0
 11
293.62617
 21
326.616211
 31
0.0
  0
LINE
  5
4C
102
{ACAD_REACTORS
330
43D
102
}
330
1F
100
AcDbEntity
  8
LC-001-002-----0
  6
ByBlock
 62
     7
370
    50
100
AcDbLine
 10
290.126282
 20
332.566993
 30
0.0
 11
290.126271
 21
324.116197
 31
0.0
  0
LINE
  5
4D
102
{ACAD_REACTORS
330
43D
102
}
330
1F
100
AcDbEntity
  8
LC-001-002-----0
  6
ByBlock
 62
     7
370
    50
100
AcDbLine
 10
282.20964
 20
332.566994
 30
0.0
 11
290.126282
 21
332.566994
 31
0.0
  0
LINE
  5
4F
102
{ACAD_REACTORS
330
43D
102
}
330
1F
100
AcDbEntity
  8
LC-004-020-----0
 62
     7
370
    50
100
AcDbLine
 10
291.126271
 20
324.116201
 30
0.0
 11
291.126156
 21
237.069814
 31
0.0
  0
LINE
  5
50
102
{ACAD_REACTORS
330
43D
102
}
330
1F
100
AcDbEntity
  8
LC-004-020-----0
 62
     7
370
    50
100
AcDbLine
 10
287.758406
 20
335.565983
 30
0.0
 11
291.131545
 21
335.566005
 31
0.0
  0
ARC
  5
52
102
{ACAD_REACTORS
330
43D
102
}
330
1F
100
AcDbEntity
  8
LC-005-002-RND-0
 62
     7
370
    50
100
AcDbCircle
 10
287.758406
 20
337.565374
 30
0.0
 40
1.999352000000386
100
AcDbArc
 50
180.0
 51
270.0
  0
LINE
  5
53
102
{ACAD_REACTORS
330
43D
102
}
330
1F
100
AcDbEntity
  8
LC-001-002-----0
  6
ByBlock
 62
     7
370
    50
100
AcDbLine
 10
435.135565
 20
326.616459
 30
0.0
 11
435.135573
 21
332.566699
 31
0.0
  0
LINE
  5
54
102
{ACAD_REACTORS
330
43D
102
}
330
1F
100
AcDbEntity
  8
LC-001-002-----0
  6
ByBlock
 62
     7
370
    50
100
AcDbLine
 10
439.502824
 20
344.266158
 30
0.0
 11
362.630939
 21
344.266362
 31
0.0
  0
ARC
  5
55
102
{ACAD_REACTORS
330
43D
102
}
330
1F
100
AcDbEntity
  8
LC-004-020-----0
 62
     7
370
    50
100
AcDbCircle
 10
311.12617
 20
237.069814
 30
0.0
 40
20.00000000000165
100
AcDbArc
 50
179.999905
 51
269.999924
  0
ARC
  5
56
102
{ACAD_REACTORS
330
43D
102
}
330
1F
100
AcDbEntity
  8
LC-004-020-----0
 62
     7
370
    50
100
AcDbCircle
 10
414.135001
 20
237.069679
 30
0.0
 40
20.00000000000078
100
AcDbArc
 50
269.999924
 51
359.999468
  0
ARC
  5
57
102
{ACAD_REACTORS
330
43D
102
}
330
1F
100
AcDbEntity
  8
LC-004-020-----0
 62
     7
370
    50
100
AcDbCircle
 10
311.12617
 20
237.069814
 30
0.0
 40
17.50000000000142
100
AcDbArc
 50
179.999905
 51
269.999924
  0
ARC
  5
58
102
{ACAD_REACTORS
330
43D
102
}
330
1F
100
AcDbEntity
  8
LC-004-020-----0
 62
     7
370
    50
100
AcDbCircle
 10
414.135001
 20
237.069679
 30
0.0
 40
17.50000000000063
100
AcDbArc
 50
269.999924
 51
359.999468
  0
LINE
  5
59
102
{ACAD_REACTORS
330
43D
102
}
330
1F
100
AcDbEntity
  8
LC-001-002-----0
  6
ByBlock
 62
     7
370
    50
100
AcDbLine
 10
291.126274
 20
324.116201
 30
0.0
 11
290.126274
 21
324.116197
 31
0.0
  0
LINE
  5
5A
102
{ACAD_REACTORS
330
43D
102
}
330
1F
100
AcDbEntity
  8
LC-004-020-----0
 62
     7
370
    50
100
AcDbLine
 10
404.63551
 20
297.06607
 30
0.0
 11
404.635421
 21
219.56607
 31
0.0
  0
LINE
  5
5B
102
{ACAD_REACTORS
330
43D
102
}
330
1F
100
AcDbEntity
  8
LC-004-020-----0
 62
     7
370
    50
100
AcDbLine
 10
402.635421
 20
219.569694
 30
0.0
 11
402.63551
 21
297.069694
 31
0.0
  0
LINE
  5
5C
102
{ACAD_REACTORS
330
43D
102
}
330
1F
100
AcDbEntity
  8
LC-004-020-----0
 62
     7
370
    50
100
AcDbLine
 10
402.63551
 20
297.069694
 30
0.0
 11
404.63551
 21
297.069691
 31
0.0
  0
LINE
  5
5D
102
{ACAD_REACTORS
330
43D
102
}
330
1F
100
AcDbEntity
  8
LC-004-020-----0
 62
     7
370
    50
100
AcDbLine
 10
402.63551
 20
297.069694
 30
0.0
 11
395.63551
 21
297.069703
 31
0.0
  0
LINE
  5
5E
102
{ACAD_REACTORS
330
43D
102
}
330
1F
100
AcDbEntity
  8
LC-004-020-----0
 62
     7
370
    50
100
AcDbLine
 10
395.63551
 20
297.069703
 30
0.0
 11
395.635421
 21
219.569703
 31
0.0
  0
LINE
  5
5F
102
{ACAD_REACTORS
330
43D
102
}
330
1F
100
AcDbEntity
  8
LC-004-020-----0
 62
     7
370
    50
100
AcDbLine
 10
404.635421
 20
219.569691
 30
0.0
 11
414.134978
 21
219.569679
 31
0.0
  0
LINE
  5
60
102
{ACAD_REACTORS
330
43D
102
}
330
1F
100
AcDbEntity
  8
LC-001-002-----0
  6
ByBlock
 62
     7
370
    50
100
AcDbLine
 10
473.074641
 20
368.2914
 30
0.0
 11
362.630971
 21
368.291693
 31
0.0
  0
LINE
  5
61
102
{ACAD_REACTORS
330
43D
102
}
330
1F
100
AcDbEntity
  8
LC-004-020-----0
 62
     7
370
    50
100
AcDbLine
 10
432.635575
 20
334.065835
 30
0.0
 11
432.635526
 21
326.616022
 31
0.0
  0
ARC
  5
62
102
{ACAD_REACTORS
330
43D
102
}
330
1F
100
AcDbEntity
  8
LC-005-002-RND-0
 62
     7
370
    50
100
AcDbCircle
 10
287.758406
 20
337.565374
 30
0.0
 40
1.999352000000386
100
AcDbArc
 50
180.0
 51
270.0
  0
LINE
  5
63
102
{ACAD_REACTORS
330
43D
102
}
330
1F
100
AcDbEntity
  8
LC-001-002-----0
  6
ByBlock
 62
     7
370
    50
100
AcDbLine
 10
285.759054
 20
340.84172
 30
0.0
 11
285.759054
 21
337.565374
 31
0.0
  0
ARC
  5
64
102
{ACAD_REACTORS
330
43D
102
}
330
1F
100
AcDbEntity
  8
LC-001-002-----0
  6
ByBlock
 62
     7
370
    50
100
AcDbCircle
 10
285.762157
 20
341.990971
 30
0.0
 40
1.149254920722569
100
AcDbArc
 50
270.0
 51
90.0
  0
LINE
  5
65
102
{ACAD_REACTORS
330
43D
102
}
330
1F
100
AcDbEntity
  8
LC-001-002-----0
  6
ByBlock
 62
     7
370
    50
100
AcDbLine
 10
285.759054
 20
344.266362
 30
0.0
 11
285.759054
 21
343.140222
 31
0.0
  0
LINE
  5
66
102
{ACAD_REACTORS
330
43D
102
}
330
1F
100
AcDbEntity
  8
LC-001-002-----0
  6
ByBlock
 62
     7
370
    50
100
AcDbLine
 10
280.23674
 20
344.266362
 30
0.0
 11
285.762157
 21
344.266362
 31
0.0
  0
ARC
  5
67
102
{ACAD_REACTORS
330
43D
102
}
330
1F
100
AcDbEntity
  8
LC-005-002-RND-0
 62
     7
370
    50
100
AcDbCircle
 10
280.23674
 20
348.266362
 30
0.0
 40
4.0
100
AcDbArc
 50
180.0
 51
270.0
  0
ARC
  5
68
102
{ACAD_REACTORS
330
43D
102
}
330
1F
100
AcDbEntity
  8
LC-005-002-RND-0
 62
     7
370
    50
100
AcDbCircle
 10
282.20964
 20
335.566272
 30
0.0
 40
2.999028000000654
100
AcDbArc
 50
202.352488
 51
270.0
  0
LINE
  5
69
102
{ACAD_REACTORS
330
43D
102
}
330
1F
100
AcDbEntity
  8
LC-001-002-----0
  6
ByBlock
 62
     7
370
    50
100
AcDbLine
 10
273.921545
 20
346.265043
 30
0.0
 11
279.435954
 21
334.425731
 31
0.0
  0
LINE
  5
6A
102
{ACAD_REACTORS
330
43D
102
}
330
1F
100
AcDbEntity
  8
LC-001-002-----0
  6
ByBlock
 62
     7
370
    50
100
AcDbLine
 10
245.160106
 20
365.777704
 30
0.0
 11
212.611314
 21
368.064225
 31
0.0
  0
LINE
  5
6B
102
{ACAD_REACTORS
330
43D
102
}
330
1F
100
AcDbEntity
  8
LC-001-002-----0
  6
ByBlock
 62
     7
370
    50
100
AcDbLine
 10
252.192035
 20
368.289096
 30
0.0
 11
212.821402
 21
371.054843
 31
0.0
  0
LINE
  5
6C
102
{ACAD_REACTORS
330
43D
102
}
330
1F
100
AcDbEntity
  8
LC-001-002-----0
  6
ByBlock
 62
     7
370
    50
100
AcDbLine
 10
212.611314
 20
368.064225
 30
0.0
 11
212.611314
 21
371.069602
 31
0.0
  0
LINE
  5
6D
102
{ACAD_REACTORS
330
43D
102
}
330
1F
100
AcDbEntity
  8
LC-001-002-----0
  6
ByBlock
 62
     7
370
    50
100
AcDbLine
 10
245.160106
 20
365.777704
 30
0.0
 11
252.30985
 21
363.23922
 31
0.0
  0
ARC
  5
6E
102
{ACAD_REACTORS
330
43D
102
}
330
1F
100
AcDbEntity
  8
LC-001-002-----0
  6
ByBlock
 62
     7
370
    50
100
AcDbCircle
 10
263.426976
 20
388.771672
 30
0.0
 40
23.3615037640487
100
AcDbArc
 50
241.254699
 51
259.532639
  0
LINE
  5
6F
102
{ACAD_REACTORS
330
43D
102
}
330
1F
100
AcDbEntity
  8
LC-001-002-----0
  6
ByBlock
 62
     7
370
    50
100
AcDbLine
 10
271.377415
 20
364.91276
 30
0.0
 11
259.182766
 21
365.798938
 31
0.0
  0
LINE
  5
70
102
{ACAD_REACTORS
330
43D
102
}
330
1F
100
AcDbEntity
  8
LC-001-002-----0
  6
ByBlock
 62
     7
370
    50
100
AcDbLine
 10
252.30985
 20
363.23922
 30
0.0
 11
267.995059
 21
362.142405
 31
0.0
  0
ARC
  5
71
102
{ACAD_REACTORS
330
43D
102
}
330
1F
100
AcDbEntity
  8
LC-001-002-----0
  6
ByBlock
 62
     7
370
    50
100
AcDbCircle
 10
267.925348
 20
361.145487
 30
0.0
 40
0.9993521049763463
100
AcDbArc
 50
0.000252
 51
86.000003
  0
LINE
  5
72
102
{ACAD_REACTORS
330
43D
102
}
330
1F
100
AcDbEntity
  8
LC-001-002-----0
  6
ByBlock
 62
     7
370
    50
100
AcDbLine
 10
268.9247
 20
361.145491
 30
0.0
 11
268.924717
 21
357.289787
 31
0.0
  0
ARC
  5
73
102
{ACAD_REACTORS
330
43D
102
}
330
1F
100
AcDbEntity
  8
LC-001-002-----0
  6
ByBlock
 62
     7
370
    50
100
AcDbCircle
 10
272.922126
 20
357.289805
 30
0.0
 40
3.997408419905613
100
AcDbArc
 50
180.000252
 51
257.709593
  0
ARC
  5
74
102
{ACAD_REACTORS
330
43D
102
}
330
1F
100
AcDbEntity
  8
LC-001-002-----0
  6
ByBlock
 62
     7
370
    50
100
AcDbCircle
 10
271.922802
 20
351.34893
 30
0.0
 40
1.998704209952776
100
AcDbArc
 50
0.000267
 51
85.829086
  0
LINE
  5
75
102
{ACAD_REACTORS
330
43D
102
}
330
1F
100
AcDbEntity
  8
LC-001-002-----0
  6
ByBlock
 62
     7
370
    50
100
AcDbLine
 10
273.921506
 20
351.348939
 30
0.0
 11
273.921545
 21
346.265043
 31
0.0
  0
LINE
  5
76
102
{ACAD_REACTORS
330
43D
102
}
330
1F
100
AcDbEntity
  8
LC-001-002-----0
  6
ByBlock
 62
     7
370
    50
100
AcDbLine
 10
271.377415
 20
364.91276
 30
0.0
 11
271.377415
 21
357.289787
 31
0.0
  0
ARC
  5
77
102
{ACAD_REACTORS
330
43D
102
}
330
1F
100
AcDbEntity
  8
LC-005-002-RND-0
 62
     7
370
    50
100
AcDbCircle
 10
272.457265
 20
357.302621
 30
0.0
 40
1.079850015200464
100
AcDbArc
 50
180.0
 51
266.000003
  0
LINE
  5
78
102
{ACAD_REACTORS
330
43D
102
}
330
1F
100
AcDbEntity
  8
LC-001-002-----0
  6
ByBlock
 62
     7
370
    50
100
AcDbLine
 10
272.381939
 20
356.225401
 30
0.0
 11
274.518797
 21
356.075978
 31
0.0
  0
LINE
  5
79
102
{ACAD_REACTORS
330
43D
102
}
330
1F
100
AcDbEntity
  8
LC-001-002-----0
  6
ByBlock
 62
     7
370
    50
100
AcDbLine
 10
274.518797
 20
356.075978
 30
0.0
 11
274.518797
 21
362.055536
 31
0.0
  0
LINE
  5
7A
102
{ACAD_REACTORS
330
43D
102
}
330
1F
100
AcDbEntity
  8
LC-001-002-----0
  6
ByBlock
 62
     7
370
    50
100
AcDbLine
 10
276.23674
 20
362.055536
 30
0.0
 11
274.518797
 21
362.055536
 31
0.0
  0
LINE
  5
7B
102
{ACAD_REACTORS
330
43D
102
}
330
1F
100
AcDbEntity
  8
LC-001-002-----0
  6
ByBlock
 62
     7
370
    50
100
AcDbLine
 10
276.23674
 20
362.055536
 30
0.0
 11
276.23674
 21
348.266362
 31
0.0
  0
LINE
  5
7C
102
{ACAD_REACTORS
330
43D
102
}
330
1F
100
AcDbEntity
  8
LC-001-002-----0
  6
ByBlock
 62
     7
370
    50
100
AcDbLine
 10
497.631085
 20
326.616459
 30
0.0
 11
500.631085
 21
325.812612
 31
0.0
  0
LINE
  5
7D
102
{ACAD_REACTORS
330
43D
102
}
330
1F
100
AcDbEntity
  8
LC-001-002-----0
  6
ByBlock
 62
     7
370
    50
100
AcDbLine
 10
285.762157
 20
344.266362
 30
0.0
 11
362.630939
 21
344.266362
 31
0.0
  0
LINE
  5
7E
102
{ACAD_REACTORS
330
43D
102
}
330
1F
100
AcDbEntity
  8
LC-001-002-----0
  6
ByBlock
 62
     7
370
    50
100
AcDbLine
 10
445.025138
 20
344.266143
 30
0.0
 11
439.502824
 21
344.266158
 31
0.0
  0
ARC
  5
7F
102
{ACAD_REACTORS
330
43D
102
}
330
1F
100
AcDbEntity
  8
LC-005-002-RND-0
 62
     7
370
    50
100
AcDbCircle
 10
443.048015
 20
335.56678
 30
0.0
 40
2.999999999999989
100
AcDbArc
 50
269.999848
 51
335.025107
  0
LINE
  5
80
102
{ACAD_REACTORS
330
43D
102
}
330
1F
100
AcDbEntity
  8
LC-001-002-----0
  6
ByBlock
 62
     7
370
    50
100
AcDbLine
 10
443.048007
 20
332.56678
 30
0.0
 11
435.135565
 21
332.566804
 31
0.0
  0
LINE
  5
81
102
{ACAD_REACTORS
330
43D
102
}
330
1F
100
AcDbEntity
  8
LC-004-020-----0
 62
     7
370
    50
100
AcDbLine
 10
437.503449
 20
335.565784
 30
0.0
 11
434.135589
 21
335.565825
 31
0.0
  0
ARC
  5
82
102
{ACAD_REACTORS
330
43D
102
}
330
1F
100
AcDbEntity
  8
LC-005-002-RND-0
 62
     7
370
    50
100
AcDbCircle
 10
445.025149
 20
348.266143
 30
0.0
 40
3.999999999999986
100
AcDbArc
 50
269.999848
 51
359.999848
  0
ARC
  5
83
102
{ACAD_REACTORS
330
43D
102
}
330
1F
100
AcDbEntity
  8
LC-005-002-RND-0
 62
     7
370
    50
100
AcDbCircle
 10
437.503455
 20
337.565175
 30
0.0
 40
1.999352000000263
100
AcDbArc
 50
269.999848
 51
359.999848
  0
LINE
  5
84
102
{ACAD_REACTORS
330
43D
102
}
330
1F
100
AcDbEntity
  8
LC-001-002-----0
  6
ByBlock
 62
     7
370
    50
100
AcDbLine
 10
439.502815
 20
340.841516
 30
0.0
 11
439.502807
 21
337.56517
 31
0.0
  0
ARC
  5
85
102
{ACAD_REACTORS
330
43D
102
}
330
1F
100
AcDbEntity
  8
LC-001-002-----0
  6
ByBlock
 62
     7
370
    50
100
AcDbCircle
 10
439.499716
 20
341.990767
 30
0.0
 40
1.149254920722864
100
AcDbArc
 50
89.999848
 51
269.999848
  0
LINE
  5
86
102
{ACAD_REACTORS
330
43D
102
}
330
1F
100
AcDbEntity
  8
LC-001-002-----0
  6
ByBlock
 62
     7
370
    50
100
AcDbLine
 10
439.502824
 20
344.266158
 30
0.0
 11
439.502821
 21
343.140018
 31
0.0
  0
INSERT
  5
C9
102
{ACAD_REACTORS
330
43D
102
}
330
1F
100
AcDbEntity
  8
LC-006-005-----0
 62
     7
370
    25
100
AcDbBlockReference
  2
*X12
 10
0.0
 20
0.0
 30
0.0
  0
LINE
  5
CA
102
{ACAD_REACTORS
330
43D
102
}
330
1F
100
AcDbEntity
  8
LC-001-002-----0
  6
ByBlock
 62
     7
370
    50
100
AcDbLine
 10
451.340339
 20
346.264807
 30
0.0
 11
445.767494
 21
334.300117
 31
0.0
  0
LINE
  5
CB
102
{ACAD_REACTORS
330
43D
102
}
330
1F
100
AcDbEntity
  8
LC-001-002-----0
  6
ByBlock
 62
     7
370
    50
100
AcDbLine
 10
480.10183
 20
365.777393
 30
0.0
 11
512.650628
 21
368.063827
 31
0.0
  0
LINE
  5
CC
102
{ACAD_REACTORS
330
43D
102
}
330
1F
100
AcDbEntity
  8
LC-001-002-----0
  6
ByBlock
 62
     7
370
    50
100
AcDbLine
 10
473.069907
 20
368.288802
 30
0.0
 11
512.650636
 21
371.069204
 31
0.0
  0
LINE
  5
CD
102
{ACAD_REACTORS
330
43D
102
}
330
1F
100
AcDbEntity
  8
LC-001-002-----0
  6
ByBlock
 62
     7
370
    50
100
AcDbLine
 10
512.650628
 20
368.063827
 30
0.0
 11
512.650636
 21
371.069204
 31
0.0
  0
LINE
  5
CE
102
{ACAD_REACTORS
330
43D
102
}
330
1F
100
AcDbEntity
  8
LC-001-002-----0
  6
ByBlock
 62
     7
370
    50
100
AcDbLine
 10
480.10183
 20
365.777393
 30
0.0
 11
472.952079
 21
363.238928
 31
0.0
  0
ARC
  5
CF
102
{ACAD_REACTORS
330
43D
102
}
330
1F
100
AcDbEntity
  8
LC-001-002-----0
  6
ByBlock
 62
     7
370
    50
100
AcDbCircle
 10
461.83502
 20
388.771409
 30
0.0
 40
23.36150376404896
100
AcDbArc
 50
280.467209
 51
298.758391
  0
LINE
  5
D0
102
{ACAD_REACTORS
330
43D
102
}
330
1F
100
AcDbEntity
  8
LC-001-002-----0
  6
ByBlock
 62
     7
370
    50
100
AcDbLine
 10
453.884518
 20
364.912518
 30
0.0
 11
466.079169
 21
365.798663
 31
0.0
  0
LINE
  5
D1
102
{ACAD_REACTORS
330
43D
102
}
330
1F
100
AcDbEntity
  8
LC-001-002-----0
  6
ByBlock
 62
     7
370
    50
100
AcDbLine
 10
472.952079
 20
363.238928
 30
0.0
 11
457.266866
 21
362.142154
 31
0.0
  0
ARC
  5
D2
102
{ACAD_REACTORS
330
43D
102
}
330
1F
100
AcDbEntity
  8
LC-001-002-----0
  6
ByBlock
 62
     7
370
    50
100
AcDbCircle
 10
457.336575
 20
361.145236
 30
0.0
 40
0.9993521049761769
100
AcDbArc
 50
93.999845
 51
179.999596
  0
LINE
  5
D3
102
{ACAD_REACTORS
330
43D
102
}
330
1F
100
AcDbEntity
  8
LC-001-002-----0
  6
ByBlock
 62
     7
370
    50
100
AcDbLine
 10
456.337223
 20
361.145243
 30
0.0
 11
456.337196
 21
357.289539
 31
0.0
  0
ARC
  5
D4
102
{ACAD_REACTORS
330
43D
102
}
330
1F
100
AcDbEntity
  8
LC-001-002-----0
  6
ByBlock
 62
     7
370
    50
100
AcDbCircle
 10
452.339787
 20
357.289567
 30
0.0
 40
3.997408419905932
100
AcDbArc
 50
282.290255
 51
359.999596
  0
ARC
  5
D5
102
{ACAD_REACTORS
330
43D
102
}
330
1F
100
AcDbEntity
  8
LC-001-002-----0
  6
ByBlock
 62
     7
370
    50
100
AcDbCircle
 10
453.339095
 20
351.348689
 30
0.0
 40
1.998704209953123
100
AcDbArc
 50
94.170762
 51
179.999581
  0
LINE
  5
D7
102
{ACAD_REACTORS
330
43D
102
}
330
1F
100
AcDbEntity
  8
LC-007-001-----0
 62
     7
370
    50
100
AcDbLine
 10
431.63501
 20
254.166808
 30
0.0
 11
500.631085
 21
254.166808
 31
0.0
  0
LINE
  5
D8
102
{ACAD_REACTORS
330
43D
102
}
330
1F
100
AcDbEntity
  8
LC-001-002-----0
  6
ByBlock
 62
     7
370
    50
100
AcDbLine
 10
497.631085
 20
251.616808
 30
0.0
 11
500.631085
 21
252.420655
 31
0.0
  0
LINE
  5
D9
102
{ACAD_REACTORS
330
43D
102
}
330
1F
100
AcDbEntity
  8
LC-001-002-----0
  6
ByBlock
 62
     7
370
    50
100
AcDbLine
 10
434.135024
 20
251.616808
 30
0.0
 11
497.631085
 21
251.616808
 31
0.0
  0
LINE
  5
DA
102
{ACAD_REACTORS
330
43D
102
}
330
1F
100
AcDbEntity
  8
LC-001-002-----0
  6
ByBlock
 62
     7
370
    50
100
AcDbLine
 10
451.340391
 20
351.348704
 30
0.0
 11
451.340339
 21
346.264807
 31
0.0
  0
LINE
  5
DB
102
{ACAD_REACTORS
330
43D
102
}
330
1F
100
AcDbEntity
  8
LC-001-002-----0
  6
ByBlock
 62
     7
370
    50
100
AcDbLine
 10
435.135565
 20
326.616459
 30
0.0
 11
497.631085
 21
326.616459
 31
0.0
  0
LINE
  5
DC
102
{ACAD_REACTORS
330
43D
102
}
330
1F
100
AcDbEntity
  8
LC-007-001-----0
 62
     7
370
    50
100
AcDbLine
 10
431.635509
 20
324.065959
 30
0.0
 11
500.631085
 21
324.065959
 31
0.0
  0
LINE
  5
DD
102
{ACAD_REACTORS
330
43D
102
}
330
1F
100
AcDbEntity
  8
LC-004-020-----0
 62
     7
370
    50
100
AcDbLine
 10
431.635045
 20
254.166808
 30
0.0
 11
431.634932
 21
237.069516
 31
0.0
  0
LINE
  5
DE
102
{ACAD_REACTORS
330
43D
102
}
330
1F
100
AcDbEntity
  8
LC-004-020-----0
 62
     7
370
    50
100
AcDbLine
 10
434.134932
 20
237.069493
 30
0.0
 11
434.135028
 21
251.616808
 31
0.0
  0
LINE
  5
DF
102
{ACAD_REACTORS
330
43D
102
}
330
1F
100
AcDbEntity
  8
LC-001-002-----0
  6
ByBlock
 62
     7
370
    50
100
AcDbLine
 10
512.650636
 20
371.069204
 30
0.0
 11
362.630975
 21
371.069602
 31
0.0
  0
LINE
  5
E0
102
{ACAD_REACTORS
330
43D
102
}
330
1F
100
AcDbEntity
  8
LC-001-002-----0
  6
ByBlock
 62
     7
370
    50
100
AcDbLine
 10
293.62617
 20
326.616211
 30
0.0
 11
292.626306
 21
326.616207
 31
0.0
  0
LINE
  5
E1
102
{ACAD_REACTORS
330
43D
102
}
330
1F
100
AcDbEntity
  8
LC-001-002-----0
  6
ByBlock
 62
     7
370
    50
100
AcDbLine
 10
500.631085
 20
325.812612
 30
0.0
 11
500.631085
 21
324.065959
 31
0.0
  0
ELLIPSE
  5
E2
102
{ACAD_REACTORS
330
43D
102
}
330
1F
100
AcDbEntity
  8
LC-001-002-----0
  6
ByBlock
 62
     7
370
    50
100
AcDbEllipse
 10
431.635044
 20
289.116383
 30
0.0
 11
-3.382270176285491E-5
 21
-34.94957577995371
 31
0.0
210
0.0
220
0.0
230
1.0
 40
0.200227
 41
6.283123781345879
 42
9.424782888542261
  0
LINE
  5
E3
102
{ACAD_REACTORS
330
43D
102
}
330
1F
100
AcDbEntity
  8
LC-001-002-----0
  6
ByBlock
 62
     7
370
    50
100
AcDbLine
 10
453.884518
 20
364.912518
 30
0.0
 11
453.884498
 21
357.289545
 31
0.0
  0
ARC
  5
E4
102
{ACAD_REACTORS
330
43D
102
}
330
1F
100
AcDbEntity
  8
LC-005-002-RND-0
 62
     7
370
    50
100
AcDbCircle
 10
452.804648
 20
357.302381
 30
0.0
 40
1.079850015200113
100
AcDbArc
 50
273.999845
 51
359.999848
  0
LINE
  5
E5
102
{ACAD_REACTORS
330
43D
102
}
330
1F
100
AcDbEntity
  8
LC-001-002-----0
  6
ByBlock
 62
     7
370
    50
100
AcDbLine
 10
452.879971
 20
356.225162
 30
0.0
 11
450.743113
 21
356.075744
 31
0.0
  0
LINE
  5
E6
102
{ACAD_REACTORS
330
43D
102
}
330
1F
100
AcDbEntity
  8
LC-001-002-----0
  6
ByBlock
 62
     7
370
    50
100
AcDbLine
 10
450.743113
 20
356.075744
 30
0.0
 11
450.743129
 21
362.055302
 31
0.0
  0
LINE
  5
E7
102
{ACAD_REACTORS
330
43D
102
}
330
1F
100
AcDbEntity
  8
LC-001-002-----0
  6
ByBlock
 62
     7
370
    50
100
AcDbLine
 10
449.025185
 20
362.055306
 30
0.0
 11
450.743129
 21
362.055302
 31
0.0
  0
LINE
  5
E8
102
{ACAD_REACTORS
330
43D
102
}
330
1F
100
AcDbEntity
  8
LC-001-002-----0
  6
ByBlock
 62
     7
370
    50
100
AcDbLine
 10
449.025185
 20
362.055306
 30
0.0
 11
449.025149
 21
348.266132
 31
0.0
  0
LINE
  5
E9
102
{ACAD_REACTORS
330
43D
102
}
330
1F
100
AcDbEntity
  8
LC-001-002-----0
  6
ByBlock
 62
     7
370
    50
100
AcDbLine
 10
431.635525
 20
326.616028
 30
0.0
 11
431.635509
 21
324.065959
 31
0.0
  0
LINE
  5
EA
102
{ACAD_REACTORS
330
43D
102
}
330
1F
100
AcDbEntity
  8
LC-001-002-----0
  6
ByBlock
 62
     7
370
    50
100
AcDbLine
 10
419.13566
 20
326.616111
 30
0.0
 11
432.635526
 21
326.616022
 31
0.0
  0
LINE
  5
EB
102
{ACAD_REACTORS
330
43D
102
}
330
1F
100
AcDbEntity
  8
LC-004-020-----0
 62
     7
370
    50
100
AcDbLine
 10
292.626276
 20
334.06602
 30
0.0
 11
292.626306
 21
326.616207
 31
0.0
  0
ARC
  5
EC
102
{ACAD_REACTORS
330
43D
102
}
330
1F
100
AcDbEntity
  8
LC-003-020-RND-0
 62
     7
370
    50
100
AcDbCircle
 10
291.126276
 20
334.066014
 30
0.0
 40
1.500000000000002
100
AcDbArc
 50
0.000228
 51
90.00038
  0
LINE
  5
ED
102
{ACAD_REACTORS
330
43D
102
}
330
1F
100
AcDbEntity
  8
LC-001-002-----0
  6
ByBlock
 62
     7
370
    50
100
AcDbLine
 10
316.635198
 20
326.616303
 30
0.0
 11
293.62617
 21
326.616211
 31
0.0
  0
LINE
  5
EE
102
{ACAD_REACTORS
330
43D
102
}
330
1F
100
AcDbEntity
  8
LC-001-002-----0
  6
ByBlock
 62
     7
370
    50
100
AcDbLine
 10
500.631085
 20
254.166808
 30
0.0
 11
500.631085
 21
252.420655
 31
0.0
  0
INSERT
  5
1AF
102
{ACAD_REACTORS
330
43D
102
}
330
1F
100
AcDbEntity
  8
LC-006-005-----0
 62
     7
370
    25
100
AcDbBlockReference
  2
*X23
 10
0.0
 20
0.0
 30
0.0
  0
LINE
  5
1B0
102
{ACAD_REACTORS
330
43F
102
}
330
1F
100
AcDbEntity
  8
LC-004-020-----0
 62
     7
370
    50
100
AcDbLine
 10
310.62623
 20
217.071328
 30
0.0
 11
414.134975
 21
217.071191
 31
0.0
  0
LINE
  5
1B1
102
{ACAD_REACTORS
330
43F
102
}
330
1F
100
AcDbEntity
  8
LC-004-020-----0
 62
     7
370
    50
100
AcDbLine
 10
310.626233
 20
219.571328
 30
0.0
 11
402.635421
 21
219.571206
 31
0.0
  0
LINE
  5
1B2
102
{ACAD_REACTORS
330
43F
102
}
330
1F
100
AcDbEntity
  8
LC-004-020-----0
 62
     7
370
    50
100
AcDbLine
 10
402.135597
 20
297.071207
 30
0.0
 11
404.135597
 21
297.071204
 31
0.0
  0
LINE
  5
1B3
102
{ACAD_REACTORS
330
43F
102
}
330
1F
100
AcDbEntity
  8
LC-004-020-----0
 62
     7
370
    50
100
AcDbLine
 10
293.626373
 20
335.571351
 30
0.0
 11
293.626371
 21
334.071351
 31
0.0
  0
LINE
  5
1B4
102
{ACAD_REACTORS
330
43F
102
}
330
1F
100
AcDbEntity
  8
LC-004-020-----0
 62
     7
370
    50
100
AcDbLine
 10
293.626362
 20
327.071351
 30
0.0
 11
313.626362
 21
327.071324
 31
0.0
  0
LINE
  5
1B5
102
{ACAD_REACTORS
330
43F
102
}
330
1F
100
AcDbEntity
  8
LC-004-020-----0
 62
     7
370
    50
100
AcDbLine
 10
298.626371
 20
334.071344
 30
0.0
 11
293.626371
 21
334.071351
 31
0.0
  0
LINE
  5
1B6
102
{ACAD_REACTORS
330
43F
102
}
330
1F
100
AcDbEntity
  8
LC-004-020-----0
 62
     7
370
    50
100
AcDbLine
 10
293.626373
 20
335.571351
 30
0.0
 11
300.126373
 21
335.571342
 31
0.0
  0
LINE
  5
1B7
102
{ACAD_REACTORS
330
43F
102
}
330
1F
100
AcDbEntity
  8
LC-004-020-----0
 62
     7
370
    50
100
AcDbLine
 10
293.626364
 20
328.571351
 30
0.0
 11
293.626362
 21
327.071351
 31
0.0
  0
LINE
  5
1B8
102
{ACAD_REACTORS
330
43F
102
}
330
1F
100
AcDbEntity
  8
LC-004-020-----0
 62
     7
370
    50
100
AcDbLine
 10
300.126373
 20
335.571342
 30
0.0
 11
300.126364
 21
328.567709
 31
0.0
  0
LINE
  5
1B9
102
{ACAD_REACTORS
330
43F
102
}
330
1F
100
AcDbEntity
  8
LC-004-020-----0
 62
     7
370
    50
100
AcDbLine
 10
431.635672
 20
335.567535
 30
0.0
 11
431.63567
 21
334.067535
 31
0.0
  0
LINE
  5
1BA
102
{ACAD_REACTORS
330
43F
102
}
330
1F
100
AcDbEntity
  8
LC-004-020-----0
 62
     7
370
    50
100
AcDbLine
 10
431.635663
 20
328.567535
 30
0.0
 11
426.635663
 21
328.567542
 31
0.0
  0
LINE
  5
1BB
102
{ACAD_REACTORS
330
43F
102
}
330
1F
100
AcDbEntity
  8
LC-004-020-----0
 62
     7
370
    50
100
AcDbLine
 10
426.635663
 20
328.567542
 30
0.0
 11
426.63567
 21
334.067542
 31
0.0
  0
LINE
  5
1BC
102
{ACAD_REACTORS
330
43F
102
}
330
1F
100
AcDbEntity
  8
LC-004-020-----0
 62
     7
370
    50
100
AcDbLine
 10
426.63567
 20
334.067542
 30
0.0
 11
431.63567
 21
334.067535
 31
0.0
  0
LINE
  5
1BD
102
{ACAD_REACTORS
330
43F
102
}
330
1F
100
AcDbEntity
  8
LC-004-020-----0
 62
     7
370
    50
100
AcDbLine
 10
431.635672
 20
335.567535
 30
0.0
 11
425.135672
 21
335.567544
 31
0.0
  0
LINE
  5
1BE
102
{ACAD_REACTORS
330
43F
102
}
330
1F
100
AcDbEntity
  8
LC-004-020-----0
 62
     7
370
    50
100
AcDbLine
 10
431.635663
 20
328.567535
 30
0.0
 11
431.635661
 21
327.067535
 31
0.0
  0
LINE
  5
1BF
102
{ACAD_REACTORS
330
43F
102
}
330
1F
100
AcDbEntity
  8
LC-004-020-----0
 62
     7
370
    50
100
AcDbLine
 10
425.135672
 20
335.567544
 30
0.0
 11
425.135663
 21
328.567544
 31
0.0
  0
LINE
  5
1C0
102
{ACAD_REACTORS
330
43F
102
}
330
1F
100
AcDbEntity
  8
LC-004-020-----0
 62
     7
370
    50
100
AcDbLine
 10
425.135663
 20
328.567544
 30
0.0
 11
419.135663
 21
328.567552
 31
0.0
  0
LINE
  5
1C1
102
{ACAD_REACTORS
330
43F
102
}
330
1F
100
AcDbEntity
  8
LC-004-020-----0
 62
     7
370
    50
100
AcDbLine
 10
300.126373
 20
335.571342
 30
0.0
 11
425.135672
 21
335.571176
 31
0.0
  0
CIRCLE
  5
1C2
102
{ACAD_REACTORS
330
43F
102
}
330
1F
100
AcDbEntity
  8
LC-004-020-----0
 62
     7
370
    50
100
AcDbCircle
 10
429.201845
 20
331.342161
 30
0.0
 40
2.422713426575315
  0
LINE
  5
1C3
102
{ACAD_REACTORS
330
43F
102
}
330
1F
100
AcDbEntity
  8
LC-004-020-----0
 62
     7
370
    50
100
AcDbLine
 10
316.635199
 20
327.07132
 30
0.0
 11
313.626362
 21
327.071324
 31
0.0
  0
LINE
  5
1C4
102
{ACAD_REACTORS
330
43F
102
}
330
1F
100
AcDbEntity
  8
LC-004-020-----0
 62
     7
370
    50
100
AcDbLine
 10
316.635199
 20
327.07132
 30
0.0
 11
316.635095
 21
236.568322
 31
0.0
  0
LINE
  5
1C5
102
{ACAD_REACTORS
330
43F
102
}
330
1F
100
AcDbEntity
  8
LC-004-020-----0
 62
     7
370
    50
100
AcDbLine
 10
316.635095
 20
236.568035
 30
0.0
 11
316.635199
 21
327.07132
 31
0.0
  0
LINE
  5
1C6
102
{ACAD_REACTORS
330
43F
102
}
330
1F
100
AcDbEntity
  8
LC-004-020-----0
 62
     7
370
    50
100
AcDbLine
 10
318.135095
 20
236.568033
 30
0.0
 11
318.135201
 21
328.567686
 31
0.0
  0
LINE
  5
1C7
102
{ACAD_REACTORS
330
43F
102
}
330
1F
100
AcDbEntity
  8
LC-004-020-----0
 62
     7
370
    50
100
AcDbLine
 10
380.135663
 20
328.567603
 30
0.0
 11
380.135668
 21
332.567603
 31
0.0
  0
LINE
  5
1C8
102
{ACAD_REACTORS
330
43F
102
}
330
1F
100
AcDbEntity
  8
LC-004-020-----0
 62
     7
370
    50
100
AcDbLine
 10
380.135668
 20
332.567603
 30
0.0
 11
386.635668
 21
332.567595
 31
0.0
  0
LINE
  5
1C9
102
{ACAD_REACTORS
330
43F
102
}
330
1F
100
AcDbEntity
  8
LC-004-020-----0
 62
     7
370
    50
100
AcDbLine
 10
423.135668
 20
332.567546
 30
0.0
 11
423.135663
 21
328.567546
 31
0.0
  0
LINE
  5
1CA
102
{ACAD_REACTORS
330
43F
102
}
330
1F
100
AcDbEntity
  8
LC-004-020-----0
 62
     7
370
    50
100
AcDbLine
 10
378.63566
 20
326.567605
 30
0.0
 11
378.635642
 21
312.951673
 31
0.0
  0
ARC
  5
1CB
102
{ACAD_REACTORS
330
43F
102
}
330
1F
100
AcDbEntity
  8
LC-004-020-----0
 62
     7
370
    50
100
AcDbCircle
 10
380.63566
 20
326.567603
 30
0.0
 40
2.000000000000055
100
AcDbArc
 50
89.999924
 51
179.999924
  0
LINE
  5
1CC
102
{ACAD_REACTORS
330
43F
102
}
330
1F
100
AcDbEntity
  8
LC-004-020-----0
 62
     7
370
    50
100
AcDbLine
 10
384.135663
 20
328.567598
 30
0.0
 11
318.135201
 21
328.567686
 31
0.0
  0
LINE
  5
1CD
102
{ACAD_REACTORS
330
43F
102
}
330
1F
100
AcDbEntity
  8
LC-004-020-----0
 62
     7
370
    50
100
AcDbLine
 10
371.744358
 20
236.567962
 30
0.0
 11
387.509131
 21
323.567594
 31
0.0
  0
LINE
  5
1CE
102
{ACAD_REACTORS
330
43F
102
}
330
1F
100
AcDbEntity
  8
LC-004-020-----0
 62
     7
370
    50
100
AcDbLine
 10
327.885125
 20
328.567673
 30
0.0
 11
327.885034
 21
250.421246
 31
0.0
  0
LINE
  5
1CF
102
{ACAD_REACTORS
330
43F
102
}
330
1F
100
AcDbEntity
  8
LC-004-020-----0
 62
     7
370
    50
100
AcDbLine
 10
365.112546
 20
236.567971
 30
0.0
 11
378.635642
 21
312.951673
 31
0.0
  0
LINE
  5
1D0
102
{ACAD_REACTORS
330
43F
102
}
330
1F
100
AcDbEntity
  8
LC-004-020-----0
 62
     7
370
    50
100
AcDbLine
 10
380.103581
 20
325.567603
 30
0.0
 11
380.103564
 21
312.643118
 31
0.0
  0
ARC
  5
1D1
102
{ACAD_REACTORS
330
43F
102
}
330
1F
100
AcDbEntity
  8
LC-004-020-----0
 62
     7
370
    50
100
AcDbCircle
 10
381.603581
 20
325.567601
 30
0.0
 40
1.500000000000013
100
AcDbArc
 50
89.999924
 51
179.999924
  0
LINE
  5
1D2
102
{ACAD_REACTORS
330
43F
102
}
330
1F
100
AcDbEntity
  8
LC-004-020-----0
 62
     7
370
    50
100
AcDbLine
 10
431.635661
 20
327.067535
 30
0.0
 11
419.135661
 21
327.067552
 31
0.0
  0
LINE
  5
1D3
102
{ACAD_REACTORS
330
43F
102
}
330
1F
100
AcDbEntity
  8
LC-004-020-----0
 62
     7
370
    50
100
AcDbLine
 10
384.135665
 20
330.067598
 30
0.0
 11
384.135659
 21
325.567598
 31
0.0
  0
LINE
  5
1D4
102
{ACAD_REACTORS
330
43F
102
}
330
1F
100
AcDbEntity
  8
LC-004-020-----0
 62
     7
370
    50
100
AcDbLine
 10
419.135659
 20
325.567552
 30
0.0
 11
419.135665
 21
330.067552
 31
0.0
  0
LINE
  5
1D5
102
{ACAD_REACTORS
330
43F
102
}
330
1F
100
AcDbEntity
  8
LC-004-020-----0
 62
     7
370
    50
100
AcDbLine
 10
384.135659
 20
325.567598
 30
0.0
 11
384.135656
 21
323.567598
 31
0.0
  0
LINE
  5
1D6
102
{ACAD_REACTORS
330
43F
102
}
330
1F
100
AcDbEntity
  8
LC-004-020-----0
 62
     7
370
    50
100
AcDbLine
 10
384.135656
 20
323.567598
 30
0.0
 11
386.635656
 21
323.567595
 31
0.0
  0
LINE
  5
1D7
102
{ACAD_REACTORS
330
43F
102
}
330
1F
100
AcDbEntity
  8
LC-004-020-----0
 62
     7
370
    50
100
AcDbLine
 10
419.135656
 20
323.567552
 30
0.0
 11
419.135659
 21
325.567552
 31
0.0
  0
LINE
  5
1D8
102
{ACAD_REACTORS
330
43F
102
}
330
1F
100
AcDbEntity
  8
LC-004-020-----0
 62
     7
370
    50
100
AcDbLine
 10
416.635656
 20
323.567555
 30
0.0
 11
416.635665
 21
330.567555
 31
0.0
  0
LINE
  5
1D9
102
{ACAD_REACTORS
330
43F
102
}
330
1F
100
AcDbEntity
  8
LC-004-020-----0
 62
     7
370
    50
100
AcDbLine
 10
386.635665
 20
330.567525
 30
0.0
 11
386.635656
 21
323.567595
 31
0.0
  0
LINE
  5
1DA
102
{ACAD_REACTORS
330
43F
102
}
330
1F
100
AcDbEntity
  8
LC-004-020-----0
 62
     7
370
    50
100
AcDbLine
 10
384.135661
 20
327.067598
 30
0.0
 11
381.603583
 21
327.067601
 31
0.0
  0
LINE
  5
1DB
102
{ACAD_REACTORS
330
43F
102
}
330
1F
100
AcDbEntity
  8
LC-004-020-----0
 62
     7
370
    50
100
AcDbLine
 10
380.135665
 20
330.067603
 30
0.0
 11
384.135665
 21
330.067598
 31
0.0
  0
LINE
  5
1DC
102
{ACAD_REACTORS
330
43F
102
}
330
1F
100
AcDbEntity
  8
LC-004-020-----0
 62
     7
370
    50
100
AcDbLine
 10
423.135665
 20
330.067546
 30
0.0
 11
419.135665
 21
330.067552
 31
0.0
  0
LINE
  5
1DD
102
{ACAD_REACTORS
330
43F
102
}
330
1F
100
AcDbEntity
  8
LC-004-020-----0
  6
DASHDOT
 62
     7
370
    25
100
AcDbLine
 10
401.635656
 20
323.567575
 30
0.0
 11
401.635668
 21
332.567575
 31
0.0
  0
ARC
  5
1DE
102
{ACAD_REACTORS
330
43F
102
}
330
1F
100
AcDbEntity
  8
LC-004-020-----0
 62
     7
370
    50
100
AcDbCircle
 10
401.6357
 20
356.692575
 30
0.0
 40
30.1250000000014
100
AcDbArc
 50
240.137415
 51
299.862454
  0
ARC
  5
1DF
102
{ACAD_REACTORS
330
43F
102
}
330
1F
100
AcDbEntity
  8
LC-004-020-----0
 62
     7
370
    50
100
AcDbCircle
 10
401.635703
 20
358.692575
 30
0.0
 40
30.12500000000196
100
AcDbArc
 50
240.137415
 51
299.862454
  0
LINE
  5
1E0
102
{ACAD_REACTORS
330
43F
102
}
330
1F
100
AcDbEntity
  8
LC-004-020-----0
 62
     7
370
    50
100
AcDbLine
 10
318.135095
 20
236.568033
 30
0.0
 11
316.635095
 21
236.568035
 31
0.0
  0
LINE
  5
1E1
102
{ACAD_REACTORS
330
43F
102
}
330
1F
100
AcDbEntity
  8
LC-004-020-----0
 62
     7
370
    50
100
AcDbLine
 10
318.135201
 20
328.567686
 30
0.0
 11
300.126364
 21
328.567709
 31
0.0
  0
LINE
  5
1E2
102
{ACAD_REACTORS
330
43F
102
}
330
1F
100
AcDbEntity
  8
LC-004-020-----0
 62
     7
370
    50
100
AcDbLine
 10
293.626364
 20
328.571351
 30
0.0
 11
298.626364
 21
328.571344
 31
0.0
  0
LINE
  5
1E3
102
{ACAD_REACTORS
330
43F
102
}
330
1F
100
AcDbEntity
  8
LC-004-020-----0
 62
     7
370
    50
100
AcDbLine
 10
298.626364
 20
328.571344
 30
0.0
 11
298.626371
 21
334.071344
 31
0.0
  0
LINE
  5
1E4
102
{ACAD_REACTORS
330
43F
102
}
330
1F
100
AcDbEntity
  8
LC-004-020-----0
 62
     7
370
    50
100
AcDbLine
 10
371.744358
 20
236.567962
 30
0.0
 11
318.135095
 21
236.568033
 31
0.0
  0
LINE
  5
1E5
102
{ACAD_REACTORS
330
43F
102
}
330
1F
100
AcDbEntity
  8
LC-004-020-----0
 62
     7
370
    50
100
AcDbLine
 10
327.885034
 20
250.421246
 30
0.0
 11
327.885018
 21
236.56802
 31
0.0
  0
LINE
  5
1E6
330
1F
100
AcDbEntity
  8
LC-004-020-----0
 62
     7
370
    50
100
AcDbLine
 10
366.635095
 20
236.567969
 30
0.0
 11
380.103564
 21
312.643118
 31
0.0
  0
INSERT
  5
1EF
330
1F
100
AcDbEntity
  8
LC-006-005-----0
 62
     7
370
    25
100
AcDbBlockReference
  2
*X34
 10
0.0
 20
0.0
 30
0.0
  0
CIRCLE
  5
1F0
330
1F
100
AcDbEntity
  8
LC-004-020-----0
 62
     7
370
    50
100
AcDbCircle
 10
296.060211
 20
331.341982
 30
0.0
 40
2.422713426575272
  0
INSERT
  5
1F9
330
1F
100
AcDbEntity
  8
LC-006-005-----0
 62
     7
370
    25
100
AcDbBlockReference
  2
*X45
 10
0.0
 20
0.0
 30
0.0
  0
INSERT
  5
22A
330
1F
100
AcDbEntity
  8
LC-006-005-----0
 62
     7
370
    25
100
AcDbBlockReference
  2
*X56
 10
0.0
 20
0.0
 30
0.0
  0
INSERT
  5
24A
330
1F
100
AcDbEntity
  8
LC-006-005-----0
 62
     7
370
    25
100
AcDbBlockReference
  2
*X67
 10
0.0
 20
0.0
 30
0.0
  0
LINE
  5
24B
102
{ACAD_REACTORS
330
43F
102
}
330
1F
100
AcDbEntity
  8
LC-004-020-----0
 62
     7
370
    50
100
AcDbLine
 10
386.635816
 20
332.567595
 30
0.0
 11
423.135668
 21
332.567546
 31
0.0
  0
LINE
  5
24C
102
{ACAD_REACTORS
330
43F
102
}
330
1F
100
AcDbEntity
  8
LC-004-020-----0
 62
     7
370
    50
100
AcDbLine
 10
386.635656
 20
323.567595
 30
0.0
 11
419.135656
 21
323.567552
 31
0.0
  0
INSERT
  5
25D
330
1F
100
AcDbEntity
  8
LC-006-005-----0
 62
     7
370
    25
100
AcDbBlockReference
  2
*X78
 10
0.0
 20
0.0
 30
0.0
  0
INSERT
  5
26A
330
1F
100
AcDbEntity
  8
LC-006-005-----0
 62
     7
370
    25
100
AcDbBlockReference
  2
*X89
 10
0.0
 20
0.0
 30
0.0
  0
INSERT
  5
278
330
1F
100
AcDbEntity
  8
LC-006-005-----0
 62
     7
370
    25
100
AcDbBlockReference
  2
*X910
 10
0.0
 20
0.0
 30
0.0
  0
INSERT
  5
286
330
1F
100
AcDbEntity
  8
LC-006-005-----0
 62
     7
370
    25
100
AcDbBlockReference
  2
*X1011
 10
0.0
 20
0.0
 30
0.0
  0
INSERT
  5
293
330
1F
100
AcDbEntity
  8
LC-006-005-----0
 62
     7
370
    25
100
AcDbBlockReference
  2
*X1112
 10
0.0
 20
0.0
 30
0.0
  0
LINE
  5
294
102
{ACAD_REACTORS
330
43C
102
}
330
1F
100
AcDbEntity
  8
LC-001-002-----0
  6
ByBlock
 62
     7
370
    50
100
AcDbLine
 10
454.380987
 20
364.936151
 30
0.0
 11
435.630987
 21
363.625023
 31
0.0
  0
LINE
  5
295
102
{ACAD_REACTORS
330
43C
102
}
330
1F
100
AcDbEntity
  8
LC-001-002-----0
  6
ByBlock
 62
     7
370
    50
100
AcDbLine
 10
273.631202
 20
362.237733
 30
0.0
 11
283.630987
 21
361.53848
 31
0.0
  0
LINE
  5
296
102
{ACAD_REACTORS
330
43C
102
}
330
1F
100
AcDbEntity
  8
LC-001-002-----0
  6
ByBlock
 62
     7
370
    50
100
AcDbLine
 10
454.380987
 20
364.936151
 30
0.0
 11
362.630987
 21
364.936151
 31
0.0
  0
LINE
  5
297
102
{ACAD_REACTORS
330
43C
102
}
330
1F
100
AcDbEntity
  8
LC-001-002-----0
  6
ByBlock
 62
     7
370
    50
100
AcDbLine
 10
431.877647
 20
344.936553
 30
0.0
 11
431.877647
 21
347.936553
 31
0.0
  0
LINE
  5
298
102
{ACAD_REACTORS
330
43C
102
}
330
1F
100
AcDbEntity
  8
LC-001-002-----0
  6
ByBlock
 62
     7
370
    50
100
AcDbLine
 10
426.218266
 20
344.936553
 30
0.0
 11
426.218266
 21
347.936553
 31
0.0
  0
LINE
  5
299
102
{ACAD_REACTORS
330
43C
102
}
330
1F
100
AcDbEntity
  8
LC-001-002-----0
  6
ByBlock
 62
     7
370
    50
100
AcDbLine
 10
419.398841
 20
344.936553
 30
0.0
 11
419.398841
 21
347.936553
 31
0.0
  0
LINE
  5
29A
102
{ACAD_REACTORS
330
43C
102
}
330
1F
100
AcDbEntity
  8
LC-001-002-----0
  6
ByBlock
 62
     7
370
    50
100
AcDbLine
 10
403.673247
 20
344.936553
 30
0.0
 11
403.673247
 21
347.936553
 31
0.0
  0
LINE
  5
29B
102
{ACAD_REACTORS
330
43C
102
}
330
1F
100
AcDbEntity
  8
LC-001-002-----0
  6
ByBlock
 62
     7
370
    50
100
AcDbLine
 10
425.448918
 20
363.625023
 30
0.0
 11
424.698918
 21
362.875023
 31
0.0
  0
LINE
  5
29C
102
{ACAD_REACTORS
330
43C
102
}
330
1F
100
AcDbEntity
  8
LC-001-002-----0
  6
ByBlock
 62
     7
370
    50
100
AcDbLine
 10
424.698918
 20
362.875023
 30
0.0
 11
424.698918
 21
347.936553
 31
0.0
  0
LINE
  5
29D
102
{ACAD_REACTORS
330
43C
102
}
330
1F
100
AcDbEntity
  8
LC-001-002-----0
  6
ByBlock
 62
     7
370
    50
100
AcDbLine
 10
270.880987
 20
364.936151
 30
0.0
 11
362.630987
 21
364.936151
 31
0.0
  0
LINE
  5
29E
102
{ACAD_REACTORS
330
43C
102
}
330
1F
100
AcDbEntity
  8
LC-001-002-----0
  6
ByBlock
 62
     7
370
    50
100
AcDbLine
 10
424.698918
 20
362.875023
 30
0.0
 11
430.243225
 21
362.875023
 31
0.0
  0
LINE
  5
29F
102
{ACAD_REACTORS
330
43C
102
}
330
1F
100
AcDbEntity
  8
LC-001-002-----0
  6
ByBlock
 62
     7
370
    50
100
AcDbLine
 10
430.243225
 20
362.875023
 30
0.0
 11
430.243225
 21
347.936553
 31
0.0
  0
LINE
  5
2A0
102
{ACAD_REACTORS
330
43C
102
}
330
1F
100
AcDbEntity
  8
LC-001-002-----0
  6
ByBlock
 62
     7
370
    50
100
AcDbLine
 10
435.630987
 20
363.625023
 30
0.0
 11
434.880987
 21
362.875023
 31
0.0
  0
LINE
  5
2A1
102
{ACAD_REACTORS
330
43C
102
}
330
1F
100
AcDbEntity
  8
LC-001-002-----0
  6
ByBlock
 62
     7
370
    50
100
AcDbLine
 10
429.897348
 20
363.625023
 30
0.0
 11
430.243225
 21
362.875023
 31
0.0
  0
LINE
  5
2A2
102
{ACAD_REACTORS
330
43C
102
}
330
1F
100
AcDbEntity
  8
LC-001-002-----0
  6
ByBlock
 62
     7
370
    50
100
AcDbLine
 10
406.940692
 20
344.936553
 30
0.0
 11
406.940692
 21
347.936553
 31
0.0
  0
LINE
  5
2A3
102
{ACAD_REACTORS
330
43C
102
}
330
1F
100
AcDbEntity
  8
LC-001-002-----0
  6
ByBlock
 62
     7
370
    50
100
AcDbLine
 10
391.307847
 20
344.936553
 30
0.0
 11
391.307847
 21
347.936553
 31
0.0
  0
LINE
  5
2A4
102
{ACAD_REACTORS
330
43C
102
}
330
1F
100
AcDbEntity
  8
LC-001-002-----0
  6
ByBlock
 62
     7
370
    50
100
AcDbLine
 10
432.130987
 20
344.936553
 30
0.0
 11
432.130987
 21
347.936553
 31
0.0
  0
LINE
  5
2A5
102
{ACAD_REACTORS
330
43C
102
}
330
1F
100
AcDbEntity
  8
LC-001-002-----0
  6
ByBlock
 62
     7
370
    50
100
AcDbLine
 10
434.880987
 20
347.936553
 30
0.0
 11
434.880987
 21
362.875023
 31
0.0
  0
LINE
  5
2A6
102
{ACAD_REACTORS
330
43C
102
}
330
1F
100
AcDbEntity
  8
LC-001-002-----0
  6
ByBlock
 62
     7
370
    50
100
AcDbLine
 10
370.130987
 20
344.936553
 30
0.0
 11
370.130987
 21
347.936553
 31
0.0
  0
LINE
  5
2A7
102
{ACAD_REACTORS
330
43C
102
}
330
1F
100
AcDbEntity
  8
LC-001-002-----0
  6
ByBlock
 62
     7
370
    50
100
AcDbLine
 10
397.630987
 20
363.625023
 30
0.0
 11
396.880987
 21
362.875023
 31
0.0
  0
LINE
  5
2A8
102
{ACAD_REACTORS
330
43C
102
}
330
1F
100
AcDbEntity
  8
LC-001-002-----0
  6
ByBlock
 62
     7
370
    50
100
AcDbLine
 10
396.880987
 20
362.875023
 30
0.0
 11
396.880987
 21
347.936553
 31
0.0
  0
LINE
  5
2A9
102
{ACAD_REACTORS
330
43C
102
}
330
1F
100
AcDbEntity
  8
LC-001-002-----0
  6
ByBlock
 62
     7
370
    50
100
AcDbLine
 10
293.384327
 20
344.936553
 30
0.0
 11
293.384327
 21
347.936553
 31
0.0
  0
LINE
  5
2AA
102
{ACAD_REACTORS
330
43C
102
}
330
1F
100
AcDbEntity
  8
LC-001-002-----0
  6
ByBlock
 62
     7
370
    50
100
AcDbLine
 10
299.043708
 20
344.936553
 30
0.0
 11
299.043708
 21
347.936553
 31
0.0
  0
LINE
  5
2AB
102
{ACAD_REACTORS
330
43C
102
}
330
1F
100
AcDbEntity
  8
LC-001-002-----0
  6
ByBlock
 62
     7
370
    50
100
AcDbLine
 10
403.198952
 20
363.625023
 30
0.0
 11
403.831335
 21
362.875023
 31
0.0
  0
LINE
  5
2AC
102
{ACAD_REACTORS
330
43C
102
}
330
1F
100
AcDbEntity
  8
LC-001-002-----0
  6
ByBlock
 62
     7
370
    50
100
AcDbLine
 10
403.831335
 20
362.875023
 30
0.0
 11
403.831335
 21
347.936553
 31
0.0
  0
LINE
  5
2AD
102
{ACAD_REACTORS
330
43C
102
}
330
1F
100
AcDbEntity
  8
LC-001-002-----0
  6
ByBlock
 62
     7
370
    50
100
AcDbLine
 10
403.831335
 20
362.875023
 30
0.0
 11
396.880987
 21
362.875023
 31
0.0
  0
LINE
  5
2AE
102
{ACAD_REACTORS
330
43C
102
}
330
1F
100
AcDbEntity
  8
LC-001-002-----0
  6
ByBlock
 62
     7
370
    50
100
AcDbLine
 10
305.863132
 20
344.936553
 30
0.0
 11
305.863132
 21
347.936553
 31
0.0
  0
LINE
  5
2AF
102
{ACAD_REACTORS
330
43C
102
}
330
1F
100
AcDbEntity
  8
LC-001-002-----0
  6
ByBlock
 62
     7
370
    50
100
AcDbLine
 10
321.588727
 20
344.936553
 30
0.0
 11
321.588727
 21
347.936553
 31
0.0
  0
LINE
  5
2B0
102
{ACAD_REACTORS
330
43C
102
}
330
1F
100
AcDbEntity
  8
LC-001-002-----0
  6
ByBlock
 62
     7
370
    50
100
AcDbLine
 10
299.813056
 20
363.625023
 30
0.0
 11
300.563056
 21
362.875023
 31
0.0
  0
LINE
  5
2B1
102
{ACAD_REACTORS
330
43C
102
}
330
1F
100
AcDbEntity
  8
LC-001-002-----0
  6
ByBlock
 62
     7
370
    50
100
AcDbLine
 10
300.563056
 20
362.875023
 30
0.0
 11
300.563056
 21
347.936553
 31
0.0
  0
LINE
  5
2B2
102
{ACAD_REACTORS
330
43C
102
}
330
1F
100
AcDbEntity
  8
LC-001-002-----0
  6
ByBlock
 62
     7
370
    50
100
AcDbLine
 10
300.563056
 20
362.875023
 30
0.0
 11
295.018749
 21
362.875023
 31
0.0
  0
LINE
  5
2B3
102
{ACAD_REACTORS
330
43C
102
}
330
1F
100
AcDbEntity
  8
LC-001-002-----0
  6
ByBlock
 62
     7
370
    50
100
AcDbLine
 10
295.018749
 20
362.875023
 30
0.0
 11
295.018749
 21
347.936553
 31
0.0
  0
LINE
  5
2B4
102
{ACAD_REACTORS
330
43C
102
}
330
1F
100
AcDbEntity
  8
LC-001-002-----0
  6
ByBlock
 62
     7
370
    50
100
AcDbLine
 10
289.630987
 20
363.625023
 30
0.0
 11
290.380987
 21
362.875023
 31
0.0
  0
LINE
  5
2B5
102
{ACAD_REACTORS
330
43C
102
}
330
1F
100
AcDbEntity
  8
LC-001-002-----0
  6
ByBlock
 62
     7
370
    50
100
AcDbLine
 10
295.364626
 20
363.625023
 30
0.0
 11
295.018749
 21
362.875023
 31
0.0
  0
LINE
  5
2B6
102
{ACAD_REACTORS
330
43C
102
}
330
1F
100
AcDbEntity
  8
LC-001-002-----0
  6
ByBlock
 62
     7
370
    50
100
AcDbLine
 10
318.321282
 20
344.936553
 30
0.0
 11
318.321282
 21
347.936553
 31
0.0
  0
LINE
  5
2B7
102
{ACAD_REACTORS
330
43C
102
}
330
1F
100
AcDbEntity
  8
LC-001-002-----0
  6
ByBlock
 62
     7
370
    50
100
AcDbLine
 10
333.954127
 20
344.936553
 30
0.0
 11
333.954127
 21
347.936553
 31
0.0
  0
LINE
  5
2B8
102
{ACAD_REACTORS
330
43C
102
}
330
1F
100
AcDbEntity
  8
LC-001-002-----0
  6
ByBlock
 62
     7
370
    50
100
AcDbLine
 10
293.130987
 20
344.936553
 30
0.0
 11
293.130987
 21
347.936553
 31
0.0
  0
LINE
  5
2B9
102
{ACAD_REACTORS
330
43C
102
}
330
1F
100
AcDbEntity
  8
LC-001-002-----0
  6
ByBlock
 62
     7
370
    50
100
AcDbLine
 10
290.380987
 20
347.936553
 30
0.0
 11
290.380987
 21
362.875023
 31
0.0
  0
LINE
  5
2BA
102
{ACAD_REACTORS
330
43C
102
}
330
1F
100
AcDbEntity
  8
LC-001-002-----0
  6
ByBlock
 62
     7
370
    50
100
AcDbLine
 10
355.130987
 20
344.936553
 30
0.0
 11
355.130987
 21
347.936553
 31
0.0
  0
LINE
  5
2BB
102
{ACAD_REACTORS
330
43C
102
}
330
1F
100
AcDbEntity
  8
LC-001-002-----0
  6
ByBlock
 62
     7
370
    50
100
AcDbLine
 10
327.630987
 20
363.625023
 30
0.0
 11
328.380987
 21
362.875023
 31
0.0
  0
LINE
  5
2BC
102
{ACAD_REACTORS
330
43C
102
}
330
1F
100
AcDbEntity
  8
LC-001-002-----0
  6
ByBlock
 62
     7
370
    50
100
AcDbLine
 10
328.380987
 20
362.875023
 30
0.0
 11
328.380987
 21
347.936553
 31
0.0
  0
LINE
  5
2BD
102
{ACAD_REACTORS
330
43C
102
}
330
1F
100
AcDbEntity
  8
LC-001-002-----0
  6
ByBlock
 62
     7
370
    50
100
AcDbLine
 10
322.063022
 20
363.625023
 30
0.0
 11
321.430638
 21
362.875023
 31
0.0
  0
LINE
  5
2BE
102
{ACAD_REACTORS
330
43C
102
}
330
1F
100
AcDbEntity
  8
LC-001-002-----0
  6
ByBlock
 62
     7
370
    50
100
AcDbLine
 10
321.430638
 20
362.875023
 30
0.0
 11
321.430638
 21
347.936553
 31
0.0
  0
LINE
  5
2BF
102
{ACAD_REACTORS
330
43C
102
}
330
1F
100
AcDbEntity
  8
LC-001-002-----0
  6
ByBlock
 62
     7
370
    50
100
AcDbLine
 10
321.430638
 20
362.875023
 30
0.0
 11
328.380987
 21
362.875023
 31
0.0
  0
LINE
  5
2C0
102
{ACAD_REACTORS
330
43C
102
}
330
1F
100
AcDbEntity
  8
LC-001-002-----0
  6
ByBlock
 62
     7
370
    50
100
AcDbLine
 10
359.631571
 20
363.625023
 30
0.0
 11
358.882128
 21
362.875023
 31
0.0
  0
LINE
  5
2C1
102
{ACAD_REACTORS
330
43C
102
}
330
1F
100
AcDbEntity
  8
LC-001-002-----0
  6
ByBlock
 62
     7
370
    50
100
AcDbLine
 10
358.882128
 20
362.875023
 30
0.0
 11
358.882128
 21
347.936553
 31
0.0
  0
LINE
  5
2C2
102
{ACAD_REACTORS
330
43C
102
}
330
1F
100
AcDbEntity
  8
LC-001-002-----0
  6
ByBlock
 62
     7
370
    50
100
AcDbLine
 10
358.882128
 20
362.875023
 30
0.0
 11
362.630987
 21
362.875023
 31
0.0
  0
ARC
  5
2C3
102
{ACAD_REACTORS
330
43C
102
}
330
1F
100
AcDbEntity
  8
LC-005-002-RND-0
 62
     7
370
    50
100
AcDbCircle
 10
440.630987
 20
345.936553
 30
0.0
 40
1.0
100
AcDbArc
 50
270.0
 51
0.0
  0
LINE
  5
2C4
102
{ACAD_REACTORS
330
43C
102
}
330
1F
100
AcDbEntity
  8
LC-001-002-----0
  6
ByBlock
 62
     7
370
    50
100
AcDbLine
 10
270.880987
 20
364.936151
 30
0.0
 11
271.880987
 21
357.936553
 31
0.0
  0
LINE
  5
2C5
102
{ACAD_REACTORS
330
43C
102
}
330
1F
100
AcDbEntity
  8
LC-001-002-----0
  6
ByBlock
 62
     7
370
    50
100
AcDbLine
 10
273.053851
 20
357.936553
 30
0.0
 11
271.880987
 21
357.936553
 31
0.0
  0
LINE
  5
2C6
102
{ACAD_REACTORS
330
43C
102
}
330
1F
100
AcDbEntity
  8
LC-001-002-----0
  6
ByBlock
 62
     7
370
    50
100
AcDbLine
 10
273.631202
 20
358.936553
 30
0.0
 11
273.053851
 21
357.936553
 31
0.0
  0
LINE
  5
2C7
102
{ACAD_REACTORS
330
43C
102
}
330
1F
100
AcDbEntity
  8
LC-001-002-----0
  6
ByBlock
 62
     7
370
    50
100
AcDbLine
 10
362.630987
 20
347.936553
 30
0.0
 11
355.130987
 21
347.936553
 31
0.0
  0
LINE
  5
2C8
102
{ACAD_REACTORS
330
43C
102
}
330
1F
100
AcDbEntity
  8
LC-001-002-----0
  6
ByBlock
 62
     7
370
    50
100
AcDbLine
 10
365.630403
 20
363.625023
 30
0.0
 11
366.379846
 21
362.875023
 31
0.0
  0
LINE
  5
2C9
102
{ACAD_REACTORS
330
43C
102
}
330
1F
100
AcDbEntity
  8
LC-001-002-----0
  6
ByBlock
 62
     7
370
    50
100
AcDbLine
 10
366.379846
 20
362.875023
 30
0.0
 11
366.379846
 21
347.936553
 31
0.0
  0
LINE
  5
2CA
102
{ACAD_REACTORS
330
43C
102
}
330
1F
100
AcDbEntity
  8
LC-001-002-----0
  6
ByBlock
 62
     7
370
    50
100
AcDbLine
 10
273.631202
 20
358.936553
 30
0.0
 11
273.631202
 21
362.237733
 31
0.0
  0
LINE
  5
2CB
102
{ACAD_REACTORS
330
43C
102
}
330
1F
100
AcDbEntity
  8
LC-001-002-----0
  6
ByBlock
 62
     7
370
    50
100
AcDbLine
 10
366.379846
 20
362.875023
 30
0.0
 11
362.630987
 21
362.875023
 31
0.0
  0
ARC
  5
2CC
102
{ACAD_REACTORS
330
43C
102
}
330
1F
100
AcDbEntity
  8
LC-005-002-RND-0
 62
     7
370
    50
100
AcDbCircle
 10
284.630987
 20
345.936553
 30
0.0
 40
1.0
100
AcDbArc
 50
180.0
 51
270.0
  0
LINE
  5
2CD
102
{ACAD_REACTORS
330
43C
102
}
330
1F
100
AcDbEntity
  8
LC-001-002-----0
  6
ByBlock
 62
     7
370
    50
100
AcDbLine
 10
284.630987
 20
344.936553
 30
0.0
 11
362.630987
 21
344.936553
 31
0.0
  0
LINE
  5
2CE
102
{ACAD_REACTORS
330
43C
102
}
330
1F
100
AcDbEntity
  8
LC-001-002-----0
  6
ByBlock
 62
     7
370
    50
100
AcDbLine
 10
451.630772
 20
358.936553
 30
0.0
 11
452.208123
 21
357.936553
 31
0.0
  0
LINE
  5
2CF
102
{ACAD_REACTORS
330
43C
102
}
330
1F
100
AcDbEntity
  8
LC-001-002-----0
  6
ByBlock
 62
     7
370
    50
100
AcDbLine
 10
283.630987
 20
345.936553
 30
0.0
 11
283.630987
 21
361.53848
 31
0.0
  0
LINE
  5
2D0
102
{ACAD_REACTORS
330
43C
102
}
330
1F
100
AcDbEntity
  8
LC-001-002-----0
  6
ByBlock
 62
     7
370
    50
100
AcDbLine
 10
362.630987
 20
347.936553
 30
0.0
 11
370.130987
 21
347.936553
 31
0.0
  0
LINE
  5
2D1
102
{ACAD_REACTORS
330
43C
102
}
330
1F
100
AcDbEntity
  8
LC-001-002-----0
  6
ByBlock
 62
     7
370
    50
100
AcDbLine
 10
451.630772
 20
358.936553
 30
0.0
 11
451.630772
 21
362.237733
 31
0.0
  0
LINE
  5
2D2
102
{ACAD_REACTORS
330
43C
102
}
330
1F
100
AcDbEntity
  8
LC-001-002-----0
  6
ByBlock
 62
     7
370
    50
100
AcDbLine
 10
440.630987
 20
344.936553
 30
0.0
 11
432.130987
 21
344.936553
 31
0.0
  0
LINE
  5
2D3
102
{ACAD_REACTORS
330
43C
102
}
330
1F
100
AcDbEntity
  8
LC-001-002-----0
  6
ByBlock
 62
     7
370
    50
100
AcDbLine
 10
441.630987
 20
345.936553
 30
0.0
 11
441.630987
 21
361.53848
 31
0.0
  0
LINE
  5
2D4
102
{ACAD_REACTORS
330
43C
102
}
330
1F
100
AcDbEntity
  8
LC-001-002-----0
  6
ByBlock
 62
     7
370
    50
100
AcDbLine
 10
452.208123
 20
357.936553
 30
0.0
 11
453.380987
 21
357.936553
 31
0.0
  0
LINE
  5
2D5
102
{ACAD_REACTORS
330
43C
102
}
330
1F
100
AcDbEntity
  8
LC-001-002-----0
  6
ByBlock
 62
     7
370
    50
100
AcDbLine
 10
432.130987
 20
344.936553
 30
0.0
 11
362.630987
 21
344.936553
 31
0.0
  0
LINE
  5
2D6
102
{ACAD_REACTORS
330
43C
102
}
330
1F
100
AcDbEntity
  8
LC-001-002-----0
  6
ByBlock
 62
     7
370
    50
100
AcDbLine
 10
432.130987
 20
347.936553
 30
0.0
 11
434.880987
 21
347.936553
 31
0.0
  0
LINE
  5
2D7
102
{ACAD_REACTORS
330
43C
102
}
330
1F
100
AcDbEntity
  8
LC-001-002-----0
  6
ByBlock
 62
     7
370
    50
100
AcDbLine
 10
419.398841
 20
347.936553
 30
0.0
 11
432.130987
 21
347.936553
 31
0.0
  0
LINE
  5
2D8
102
{ACAD_REACTORS
330
43C
102
}
330
1F
100
AcDbEntity
  8
LC-001-002-----0
  6
ByBlock
 62
     7
370
    50
100
AcDbLine
 10
391.307847
 20
347.936553
 30
0.0
 11
406.940692
 21
347.936553
 31
0.0
  0
LINE
  5
2D9
102
{ACAD_REACTORS
330
43C
102
}
330
1F
100
AcDbEntity
  8
LC-001-002-----0
  6
ByBlock
 62
     7
370
    50
100
AcDbLine
 10
333.954127
 20
347.936553
 30
0.0
 11
318.321282
 21
347.936553
 31
0.0
  0
LINE
  5
2DA
102
{ACAD_REACTORS
330
43C
102
}
330
1F
100
AcDbEntity
  8
LC-001-002-----0
  6
ByBlock
 62
     7
370
    50
100
AcDbLine
 10
451.630772
 20
362.237733
 30
0.0
 11
441.630987
 21
361.53848
 31
0.0
  0
LINE
  5
2DB
102
{ACAD_REACTORS
330
43C
102
}
330
1F
100
AcDbEntity
  8
LC-001-002-----0
  6
ByBlock
 62
     7
370
    50
100
AcDbLine
 10
305.863132
 20
347.936553
 30
0.0
 11
290.380987
 21
347.936553
 31
0.0
  0
LINE
  5
2DC
102
{ACAD_REACTORS
330
43C
102
}
330
1F
100
AcDbEntity
  8
LC-001-002-----0
  6
ByBlock
 62
     7
370
    50
100
AcDbLine
 10
435.630987
 20
363.625023
 30
0.0
 11
289.630987
 21
363.625023
 31
0.0
  0
LINE
  5
2DD
102
{ACAD_REACTORS
330
43C
102
}
330
1F
100
AcDbEntity
  8
LC-001-002-----0
  6
ByBlock
 62
     7
370
    50
100
AcDbLine
 10
454.380987
 20
364.936151
 30
0.0
 11
453.380987
 21
357.936553
 31
0.0
  0
LINE
  5
2DE
102
{ACAD_REACTORS
330
43C
102
}
330
1F
100
AcDbEntity
  8
LC-001-002-----0
  6
ByBlock
 62
     7
370
    50
100
AcDbLine
 10
270.880987
 20
364.936151
 30
0.0
 11
289.630987
 21
363.625023
 31
0.0
  0
INSERT
  5
2F0
102
{ACAD_REACTORS
330
43C
102
}
330
1F
100
AcDbEntity
  8
LC-006-005-----0
 62
     7
370
    25
100
AcDbBlockReference
  2
*X1213
 10
0.0
 20
0.0
 30
0.0
  0
INSERT
  5
304
102
{ACAD_REACTORS
330
43C
102
}
330
1F
100
AcDbEntity
  8
LC-006-005-----0
 62
     7
370
    25
100
AcDbBlockReference
  2
*X1314
 10
0.0
 20
0.0
 30
0.0
  0
DIMENSION
  5
305
330
1F
100
AcDbEntity
  8
LC-002-003-----0
 62
     7
370
    25
100
AcDbDimension
  2
*D15
 10
512.646843
 20
450.259409
 30
0.0
 11
357.945323
 21
481.052
 31
0.0
 70
   160
  1
%%c300
 71
     5
 42
299.829235
 53
0.002744
  3
LC-DIM-L-0140-02-02
100
AcDbAlignedDimension
 13
212.821402
 23
371.054843
 33
0.0
 14
512.650636
 24
371.069204
 34
0.0
 50
0.002744
100
AcDbRotatedDimension
  0
DIMENSION
  5
312
330
1F
100
AcDbEntity
  8
LC-002-003-----0
 62
     7
370
    25
100
AcDbDimension
  2
*D16
 10
196.0
 20
217.069814
 30
0.0
 11
165.2
 21
292.567019
 31
0.0
 70
   160
  1
150
 71
     5
 42
150.994411
 53
90.0
  3
LC-DIM-L-0140-02-02
100
AcDbAlignedDimension
 13
212.611314
 23
368.064225
 33
0.0
 14
311.126143
 24
217.069814
 34
0.0
 50
90.0
100
AcDbRotatedDimension
  0
DIMENSION
  5
31F
330
1F
100
AcDbEntity
  8
LC-002-003-----0
 62
     7
370
    25
100
AcDbDimension
  2
*D17
 10
589.230196
 20
289.116383
 30
0.0
 11
558.430196
 21
324.899442
 31
0.0
 70
   160
  1
80
 71
     5
 42
78.947443
 53
90.0
  3
LC-DIM-L-0140-02-02
100
AcDbAlignedDimension
 13
512.650628
 23
368.063827
 33
0.0
 14
500.631085
 24
289.116383
 34
0.0
 50
90.0
100
AcDbRotatedDimension
  0
DIMENSION
  5
32C
330
1F
100
AcDbEntity
  8
LC-002-003-----0
 62
     7
370
    25
100
AcDbDimension
  2
*D18
 10
346.422632
 20
236.567962
 30
0.0
 11
315.622632
 21
176.418
 31
0.0
 70
   160
  1
60
 71
     5
 42
60.501741
 53
90.0
  3
LC-DIM-L-0140-02-02
100
AcDbAlignedDimension
 13
395.63551
 23
297.069703
 33
0.0
 14
371.744358
 24
236.567962
 34
0.0
 50
90.0
100
AcDbRotatedDimension
  0
DIMENSION
  5
33A
330
1F
100
AcDbEntity
  8
LC-002-003-----0
 62
     7
370
    25
100
AcDbDimension
  2
*D19
 10
456.337233
 20
391.999419
 30
0.0
 11
362.631035
 21
422.799519
 31
0.0
 70
   160
  1
%%c190
 71
     5
 42
187.412478
 53
359.999939
  3
LC-DIM-L-0140-02-02
100
AcDbAlignedDimension
 13
268.924717
 23
357.289787
 33
0.0
 14
456.337196
 24
357.289539
 34
0.0
 50
359.999939
100
AcDbRotatedDimension
  0
DIMENSION
  5
347
330
1F
100
AcDbEntity
  8
LC-002-003-----0
 62
     7
370
    25
100
AcDbDimension
  2
*D20
 10
636.952886
 20
326.616459
 30
0.0
 11
606.152886
 21
285.302884
 31
0.0
 70
   160
  1
DN70
 71
     5
 42
74.999652
 53
90.0
  3
LC-DIM-L-0140-02-02
100
AcDbAlignedDimension
 13
497.631085
 23
251.616808
 33
0.0
 14
567.591849
 24
326.616459
 34
0.0
 50
90.0
100
AcDbRotatedDimension
  0
LINE
  5
354
102
{ACAD_REACTORS
330
43B
102
}
330
1F
100
AcDbEntity
  8
LC-001-002-----0
  6
ByBlock
 62
     7
370
    50
100
AcDbLine
 10
462.131085
 20
228.116383
 30
0.0
 11
530.131085
 21
228.116383
 31
0.0
  0
LINE
  5
355
102
{ACAD_REACTORS
330
43B
102
}
330
1F
100
AcDbEntity
  8
LC-001-002-----0
  6
ByBlock
 62
     7
370
    50
100
AcDbLine
 10
463.631085
 20
230.816383
 30
0.0
 11
534.631085
 21
230.816383
 31
0.0
  0
LINE
  5
356
102
{ACAD_REACTORS
330
43B
102
}
330
1F
100
AcDbEntity
  8
LC-001-002-----0
  6
ByBlock
 62
     7
370
    50
100
AcDbLine
 10
460.631085
 20
229.616383
 30
0.0
 11
460.631085
 21
244.616383
 31
0.0
  0
LINE
  5
357
102
{ACAD_REACTORS
330
43B
102
}
330
1F
100
AcDbEntity
  8
LC-001-002-----0
  6
ByBlock
 62
     7
370
    50
100
AcDbLine
 10
462.131085
 20
338.116383
 30
0.0
 11
530.131085
 21
338.116383
 31
0.0
  0
LINE
  5
358
102
{ACAD_REACTORS
330
43B
102
}
330
1F
100
AcDbEntity
  8
LC-001-002-----0
  6
ByBlock
 62
     7
370
    50
100
AcDbLine
 10
534.631085
 20
229.322155
 30
0.0
 11
534.631085
 21
336.910612
 31
0.0
  0
LINE
  5
359
102
{ACAD_REACTORS
330
43B
102
}
330
1F
100
AcDbEntity
  8
LC-001-002-----0
  6
ByBlock
 62
     7
370
    50
100
AcDbLine
 10
530.131085
 20
228.116383
 30
0.0
 11
534.631085
 21
229.322155
 31
0.0
  0
LINE
  5
35A
102
{ACAD_REACTORS
330
43B
102
}
330
1F
100
AcDbEntity
  8
LC-001-002-----0
  6
ByBlock
 62
     7
370
    50
100
AcDbLine
 10
530.131085
 20
338.116383
 30
0.0
 11
534.631085
 21
336.910612
 31
0.0
  0
LINE
  5
35B
102
{ACAD_REACTORS
330
43B
102
}
330
1F
100
AcDbEntity
  8
LC-001-002-----0
  6
ByBlock
 62
     7
370
    50
100
AcDbLine
 10
463.631085
 20
335.416383
 30
0.0
 11
534.631085
 21
335.416383
 31
0.0
  0
LINE
  5
35C
102
{ACAD_REACTORS
330
43B
102
}
330
1F
100
AcDbEntity
  8
LC-001-002-----0
  6
ByBlock
 62
     7
370
    50
100
AcDbLine
 10
463.631085
 20
230.816383
 30
0.0
 11
463.631085
 21
249.416383
 31
0.0
  0
LINE
  5
35D
102
{ACAD_REACTORS
330
43B
102
}
330
1F
100
AcDbEntity
  8
LC-001-002-----0
  6
ByBlock
 62
     7
370
    50
100
AcDbLine
 10
445.631085
 20
249.416383
 30
0.0
 11
445.631085
 21
251.416383
 31
0.0
  0
LINE
  5
35E
102
{ACAD_REACTORS
330
43B
102
}
330
1F
100
AcDbEntity
  8
LC-001-002-----0
  6
ByBlock
 62
     7
370
    50
100
AcDbLine
 10
453.664098
 20
333.116383
 30
0.0
 11
460.131085
 21
333.116383
 31
0.0
  0
LINE
  5
35F
102
{ACAD_REACTORS
330
43B
102
}
330
1F
100
AcDbEntity
  8
LC-001-002-----0
  6
ByBlock
 62
     7
370
    50
100
AcDbLine
 10
453.664098
 20
245.116383
 30
0.0
 11
460.131085
 21
245.116383
 31
0.0
  0
LINE
  5
360
102
{ACAD_REACTORS
330
43B
102
}
330
1F
100
AcDbEntity
  8
LC-001-002-----0
  6
ByBlock
 62
     7
370
    50
100
AcDbLine
 10
497.631085
 20
251.416383
 30
0.0
 11
461.731085
 21
251.416383
 31
0.0
  0
LINE
  5
361
102
{ACAD_REACTORS
330
43B
102
}
330
1F
100
AcDbEntity
  8
LC-001-002-----0
  6
ByBlock
 62
     7
370
    50
100
AcDbLine
 10
497.631085
 20
326.816383
 30
0.0
 11
461.731085
 21
326.816383
 31
0.0
  0
LINE
  5
362
102
{ACAD_REACTORS
330
43B
102
}
330
1F
100
AcDbEntity
  8
LC-001-002-----0
  6
ByBlock
 62
     7
370
    50
100
AcDbLine
 10
500.631085
 20
249.416383
 30
0.0
 11
500.631085
 21
328.816383
 31
0.0
  0
LINE
  5
363
102
{ACAD_REACTORS
330
43B
102
}
330
1F
100
AcDbEntity
  8
LC-001-002-----0
  6
ByBlock
 62
     7
370
    50
100
AcDbLine
 10
500.631085
 20
249.416383
 30
0.0
 11
463.631085
 21
249.416383
 31
0.0
  0
LINE
  5
364
102
{ACAD_REACTORS
330
43B
102
}
330
1F
100
AcDbEntity
  8
LC-001-002-----0
  6
ByBlock
 62
     7
370
    50
100
AcDbLine
 10
500.631085
 20
328.816383
 30
0.0
 11
463.631085
 21
328.816383
 31
0.0
  0
LINE
  5
365
102
{ACAD_REACTORS
330
43B
102
}
330
1F
100
AcDbEntity
  8
LC-001-002-----0
  6
ByBlock
 62
     7
370
    50
100
AcDbLine
 10
463.631085
 20
328.816383
 30
0.0
 11
463.631085
 21
335.416383
 31
0.0
  0
LINE
  5
366
102
{ACAD_REACTORS
330
43B
102
}
330
1F
100
AcDbEntity
  8
LC-001-002-----0
  6
ByBlock
 62
     7
370
    50
100
AcDbLine
 10
460.631085
 20
333.616383
 30
0.0
 11
460.631085
 21
336.616383
 31
0.0
  0
LINE
  5
367
102
{ACAD_REACTORS
330
43B
102
}
330
1F
100
AcDbEntity
  8
LC-001-002-----0
  6
ByBlock
 62
     7
370
    50
100
AcDbLine
 10
448.872091
 20
249.416383
 30
0.0
 11
445.631085
 21
249.416383
 31
0.0
  0
LINE
  5
368
102
{ACAD_REACTORS
330
43B
102
}
330
1F
100
AcDbEntity
  8
LC-001-002-----0
  6
ByBlock
 62
     7
370
    50
100
AcDbLine
 10
448.872091
 20
328.816383
 30
0.0
 11
445.631085
 21
328.816383
 31
0.0
  0
LINE
  5
369
102
{ACAD_REACTORS
330
43B
102
}
330
1F
100
AcDbEntity
  8
LC-001-002-----0
  6
ByBlock
 62
     7
370
    50
100
AcDbLine
 10
461.731085
 20
246.866383
 30
0.0
 11
453.231085
 21
246.866383
 31
0.0
  0
LINE
  5
36A
102
{ACAD_REACTORS
330
43B
102
}
330
1F
100
AcDbEntity
  8
LC-001-002-----0
  6
ByBlock
 62
     7
370
    50
100
AcDbLine
 10
461.731085
 20
331.366383
 30
0.0
 11
453.231085
 21
331.366383
 31
0.0
  0
LINE
  5
36B
102
{ACAD_REACTORS
330
43B
102
}
330
1F
100
AcDbEntity
  8
LC-001-002-----0
  6
ByBlock
 62
     7
370
    50
100
AcDbLine
 10
450.604141
 20
251.416383
 30
0.0
 11
445.631085
 21
251.416383
 31
0.0
  0
LINE
  5
36C
102
{ACAD_REACTORS
330
43B
102
}
330
1F
100
AcDbEntity
  8
LC-001-002-----0
  6
ByBlock
 62
     7
370
    50
100
AcDbLine
 10
450.604141
 20
326.816383
 30
0.0
 11
445.631085
 21
326.816383
 31
0.0
  0
LINE
  5
36D
102
{ACAD_REACTORS
330
43B
102
}
330
1F
100
AcDbEntity
  8
LC-001-002-----0
  6
ByBlock
 62
     7
370
    50
100
AcDbLine
 10
450.604141
 20
251.416383
 30
0.0
 11
453.231085
 21
246.866383
 31
0.0
  0
LINE
  5
36E
102
{ACAD_REACTORS
330
43B
102
}
330
1F
100
AcDbEntity
  8
LC-001-002-----0
  6
ByBlock
 62
     7
370
    50
100
AcDbLine
 10
450.604141
 20
326.816383
 30
0.0
 11
453.231085
 21
331.366383
 31
0.0
  0
LINE
  5
36F
102
{ACAD_REACTORS
330
43B
102
}
330
1F
100
AcDbEntity
  8
LC-001-002-----0
  6
ByBlock
 62
     7
370
    50
100
AcDbLine
 10
449.738116
 20
248.916383
 30
0.0
 11
451.066022
 21
246.616383
 31
0.0
  0
LINE
  5
370
102
{ACAD_REACTORS
330
43B
102
}
330
1F
100
AcDbEntity
  8
LC-001-002-----0
  6
ByBlock
 62
     7
370
    50
100
AcDbLine
 10
449.738116
 20
329.316383
 30
0.0
 11
451.066022
 21
331.616383
 31
0.0
  0
LINE
  5
371
102
{ACAD_REACTORS
330
43B
102
}
330
1F
100
AcDbEntity
  8
LC-001-002-----0
  6
ByBlock
 62
     7
370
    50
100
AcDbLine
 10
497.631085
 20
251.416383
 30
0.0
 11
500.631085
 21
252.220231
 31
0.0
  0
LINE
  5
372
102
{ACAD_REACTORS
330
43B
102
}
330
1F
100
AcDbEntity
  8
LC-001-002-----0
  6
ByBlock
 62
     7
370
    50
100
AcDbLine
 10
497.631085
 20
326.816383
 30
0.0
 11
500.631085
 21
326.012536
 31
0.0
  0
ARC
  5
373
102
{ACAD_REACTORS
330
43B
102
}
330
1F
100
AcDbEntity
  8
LC-005-002-RND-0
 62
     7
370
    50
100
AcDbCircle
 10
460.131085
 20
244.616383
 30
0.0
 40
0.5
100
AcDbArc
 50
0.0
 51
90.0
  0
ARC
  5
374
102
{ACAD_REACTORS
330
43B
102
}
330
1F
100
AcDbEntity
  8
LC-005-002-RND-0
 62
     7
370
    50
100
AcDbCircle
 10
460.131085
 20
333.616383
 30
0.0
 40
0.5
100
AcDbArc
 50
270.0
 51
0.0
  0
ARC
  5
375
102
{ACAD_REACTORS
330
43B
102
}
330
1F
100
AcDbEntity
  8
LC-005-002-RND-0
 62
     7
370
    50
100
AcDbCircle
 10
448.872091
 20
248.416383
 30
0.0
 40
0.9999999999999836
100
AcDbArc
 50
30.0
 51
90.0
  0
ARC
  5
376
102
{ACAD_REACTORS
330
43B
102
}
330
1F
100
AcDbEntity
  8
LC-005-002-RND-0
 62
     7
370
    50
100
AcDbCircle
 10
448.872091
 20
329.816383
 30
0.0
 40
1.0
100
AcDbArc
 50
270.0
 51
330.0
  0
ARC
  5
377
102
{ACAD_REACTORS
330
43B
102
}
330
1F
100
AcDbEntity
  8
LC-005-002-RND-0
 62
     7
370
    50
100
AcDbCircle
 10
448.872091
 20
248.416383
 30
0.0
 40
0.9999999999999836
100
AcDbArc
 50
30.0
 51
90.0
  0
ARC
  5
378
102
{ACAD_REACTORS
330
43B
102
}
330
1F
100
AcDbEntity
  8
LC-005-002-RND-0
 62
     7
370
    50
100
AcDbCircle
 10
453.664098
 20
248.116383
 30
0.0
 40
2.999999999999965
100
AcDbArc
 50
210.0
 51
270.0
  0
ARC
  5
379
102
{ACAD_REACTORS
330
43B
102
}
330
1F
100
AcDbEntity
  8
LC-005-002-RND-0
 62
     7
370
    50
100
AcDbCircle
 10
453.664098
 20
330.116383
 30
0.0
 40
3.0
100
AcDbArc
 50
90.0
 51
150.0
  0
ARC
  5
37A
102
{ACAD_REACTORS
330
43B
102
}
330
1F
100
AcDbEntity
  8
LC-005-002-RND-0
 62
     7
370
    50
100
AcDbCircle
 10
462.131085
 20
229.616383
 30
0.0
 40
1.5
100
AcDbArc
 50
180.0
 51
270.0
  0
ARC
  5
37B
102
{ACAD_REACTORS
330
43B
102
}
330
1F
100
AcDbEntity
  8
LC-005-002-RND-0
 62
     7
370
    50
100
AcDbCircle
 10
462.131085
 20
336.616383
 30
0.0
 40
1.5
100
AcDbArc
 50
90.0
 51
180.0
  0
LINE
  5
37C
102
{ACAD_REACTORS
330
43B
102
}
330
1F
100
AcDbEntity
  8
LC-001-002-----0
  6
ByBlock
 62
     7
370
    50
100
AcDbLine
 10
461.731085
 20
246.866383
 30
0.0
 11
461.731085
 21
251.416383
 31
0.0
  0
LINE
  5
37F
102
{ACAD_REACTORS
330
43B
102
}
330
1F
100
AcDbEntity
  8
LC-008-006-MLN-0
 62
     7
370
    25
100
AcDbLine
 10
544.631085
 20
283.116383
 30
0.0
 11
490.631085
 21
283.116383
 31
0.0
  0
INSERT
  5
3D2
102
{ACAD_REACTORS
330
43B
102
}
330
1F
100
AcDbEntity
  8
LC-006-005-----0
 62
     7
370
    25
100
AcDbBlockReference
  2
*X1421
 10
0.0
 20
0.0
 30
0.0
  0
LINE
  5
3D3
102
{ACAD_REACTORS
330
43B
102
}
330
1F
100
AcDbEntity
  8
LC-001-002-----0
  6
ByBlock
 62
     7
370
    25
100
AcDbLine
 10
451.066022
 20
331.616383
 30
0.0
 11
451.932047
 21
333.116383
 31
0.0
  0
LINE
  5
3D4
102
{ACAD_REACTORS
330
43B
102
}
330
1F
100
AcDbEntity
  8
LC-001-002-----0
  6
ByBlock
 62
     7
370
    25
100
AcDbLine
 10
449.449441
 20
328.816383
 30
0.0
 11
448.872091
 21
328.816383
 31
0.0
  0
LINE
  5
3D5
102
{ACAD_REACTORS
330
43B
102
}
330
1F
100
AcDbEntity
  8
LC-001-002-----0
  6
ByBlock
 62
     7
370
    25
100
AcDbLine
 10
449.449441
 20
328.816383
 30
0.0
 11
449.738116
 21
329.316383
 31
0.0
  0
LINE
  5
3D6
102
{ACAD_REACTORS
330
43B
102
}
330
1F
100
AcDbEntity
  8
LC-001-002-----0
  6
ByBlock
 62
     7
370
    50
100
AcDbLine
 10
445.631085
 20
326.816383
 30
0.0
 11
445.631085
 21
328.816383
 31
0.0
  0
LINE
  5
3D7
102
{ACAD_REACTORS
330
43B
102
}
330
1F
100
AcDbEntity
  8
LC-001-002-----0
  6
ByBlock
 62
     7
370
    50
100
AcDbLine
 10
461.731085
 20
326.816383
 30
0.0
 11
461.731085
 21
331.366383
 31
0.0
  0
DIMENSION
  5
3D8
330
1F
100
AcDbEntity
  8
LC-002-003-----0
 62
     7
370
    25
100
AcDbDimension
  2
*D22
 10
534.631085
 20
166.914
 30
0.0
 11
435.070063
 21
197.714
 31
0.0
 70
   160
 71
     5
 42
171.999906
  3
LC-DIM-L-0140-02-02
100
AcDbAlignedDimension
 13
362.631179
 23
219.571259
 33
0.0
 14
534.631085
 24
230.816383
 34
0.0
100
AcDbRotatedDimension
  0
LINE
  5
3E6
102
{ACAD_REACTORS
330
43A
102
}
330
1F
100
AcDbEntity
  8
LC-009-100-D00-0
 62
     7
370
    50
100
AcDbLine
 10
458.583989
 20
325.852945
 30
0.0
 11
455.542548
 21
327.608922
 31
0.0
  0
ARC
  5
3E7
102
{ACAD_REACTORS
330
43A
102
}
330
1F
100
AcDbEntity
  8
LC-009-100-D00-0
 62
     7
370
    50
100
AcDbCircle
 10
456.022803
 20
328.779888
 30
0.0
 40
1.265625000000102
100
AcDbArc
 50
167.699734
 51
247.699734
  0
LINE
  5
3E8
102
{ACAD_REACTORS
330
43A
102
}
330
1F
100
AcDbEntity
  8
LC-009-100-D00-0
 62
     7
370
    50
100
AcDbLine
 10
454.786231
 20
329.049511
 30
0.0
 11
455.292506
 21
330.440491
 31
0.0
  0
ARC
  5
3E9
102
{ACAD_REACTORS
330
43A
102
}
330
1F
100
AcDbEntity
  8
LC-009-100-D00-0
 62
     7
370
    50
100
AcDbCircle
 10
456.006085
 20
330.18077
 30
0.0
 40
0.759375000000091
100
AcDbArc
 50
90.0
 51
160.0
  0
LINE
  5
3EA
102
{ACAD_REACTORS
330
43A
102
}
330
1F
100
AcDbEntity
  8
LC-009-100-D00-0
 62
     7
370
    50
100
AcDbLine
 10
456.006085
 20
330.940145
 30
0.0
 11
456.232267
 21
330.940145
 31
0.0
  0
LINE
  5
3EB
102
{ACAD_REACTORS
330
43A
102
}
330
1F
100
AcDbEntity
  8
LC-009-100-D00-0
 62
     7
370
    50
100
AcDbLine
 10
456.232267
 20
330.940145
 30
0.0
 11
456.450768
 21
331.396999
 31
0.0
  0
ARC
  5
3EC
102
{ACAD_REACTORS
330
43A
102
}
330
1F
100
AcDbEntity
  8
LC-009-100-D00-0
 62
     7
370
    50
100
AcDbCircle
 10
456.527579
 20
331.360262
 30
0.0
 40
0.085144671124813
100
AcDbArc
 50
25.560506
 51
154.439494
  0
LINE
  5
3ED
102
{ACAD_REACTORS
330
43A
102
}
330
1F
100
AcDbEntity
  8
LC-009-100-D00-0
 62
     7
370
    50
100
AcDbLine
 10
456.604391
 20
331.396999
 30
0.0
 11
456.822892
 21
330.940145
 31
0.0
  0
LINE
  5
3EE
102
{ACAD_REACTORS
330
43A
102
}
330
1F
100
AcDbEntity
  8
LC-009-100-D00-0
 62
     7
370
    50
100
AcDbLine
 10
456.822892
 20
330.940145
 30
0.0
 11
457.413517
 21
330.940145
 31
0.0
  0
LINE
  5
3EF
102
{ACAD_REACTORS
330
43A
102
}
330
1F
100
AcDbEntity
  8
LC-009-100-D00-0
 62
     7
370
    50
100
AcDbLine
 10
457.413517
 20
330.940145
 30
0.0
 11
457.632712
 21
331.398451
 31
0.0
  0
ARC
  5
3F0
102
{ACAD_REACTORS
330
43A
102
}
330
1F
100
AcDbEntity
  8
LC-009-100-D00-0
 62
     7
370
    50
100
AcDbCircle
 10
457.708829
 20
331.362046
 30
0.0
 40
0.0843749999999833
100
AcDbArc
 50
25.560506
 51
154.439494
  0
LINE
  5
3F1
102
{ACAD_REACTORS
330
43A
102
}
330
1F
100
AcDbEntity
  8
LC-009-100-D00-0
 62
     7
370
    50
100
AcDbLine
 10
457.784947
 20
331.398451
 30
0.0
 11
458.004142
 21
330.940145
 31
0.0
  0
LINE
  5
3F2
102
{ACAD_REACTORS
330
43A
102
}
330
1F
100
AcDbEntity
  8
LC-009-100-D00-0
 62
     7
370
    50
100
AcDbLine
 10
458.004142
 20
330.940145
 30
0.0
 11
458.594767
 21
330.940145
 31
0.0
  0
LINE
  5
3F3
102
{ACAD_REACTORS
330
43A
102
}
330
1F
100
AcDbEntity
  8
LC-009-100-D00-0
 62
     7
370
    50
100
AcDbLine
 10
458.594767
 20
330.940145
 30
0.0
 11
458.813962
 21
331.398451
 31
0.0
  0
ARC
  5
3F4
102
{ACAD_REACTORS
330
43A
102
}
330
1F
100
AcDbEntity
  8
LC-009-100-D00-0
 62
     7
370
    50
100
AcDbCircle
 10
458.890079
 20
331.362046
 30
0.0
 40
0.0843750000000324
100
AcDbArc
 50
25.560506
 51
154.439494
  0
LINE
  5
3F5
102
{ACAD_REACTORS
330
43A
102
}
330
1F
100
AcDbEntity
  8
LC-009-100-D00-0
 62
     7
370
    50
100
AcDbLine
 10
458.966197
 20
331.398451
 30
0.0
 11
459.185392
 21
330.940145
 31
0.0
  0
LINE
  5
3F6
102
{ACAD_REACTORS
330
43A
102
}
330
1F
100
AcDbEntity
  8
LC-009-100-D00-0
 62
     7
370
    50
100
AcDbLine
 10
459.185392
 20
330.940145
 30
0.0
 11
459.776017
 21
330.940145
 31
0.0
  0
LINE
  5
3F7
102
{ACAD_REACTORS
330
43A
102
}
330
1F
100
AcDbEntity
  8
LC-009-100-D00-0
 62
     7
370
    50
100
AcDbLine
 10
459.776017
 20
330.940145
 30
0.0
 11
459.94606
 21
331.295682
 31
0.0
  0
ARC
  5
3F8
102
{ACAD_REACTORS
330
43A
102
}
330
1F
100
AcDbEntity
  8
LC-009-100-D00-0
 62
     7
370
    50
100
AcDbCircle
 10
460.022178
 20
331.259277
 30
0.0
 40
0.0843750000000324
100
AcDbArc
 50
25.560506
 51
154.439494
  0
LINE
  5
3F9
102
{ACAD_REACTORS
330
43A
102
}
330
1F
100
AcDbEntity
  8
LC-009-100-D00-0
 62
     7
370
    50
100
AcDbLine
 10
460.098295
 20
331.295682
 30
0.0
 11
460.268339
 21
330.940145
 31
0.0
  0
LINE
  5
3FA
102
{ACAD_REACTORS
330
43A
102
}
330
1F
100
AcDbEntity
  8
LC-009-100-D00-0
 62
     7
370
    50
100
AcDbLine
 10
460.268339
 20
330.940145
 30
0.0
 11
460.470552
 21
330.940145
 31
0.0
  0
ARC
  5
3FB
102
{ACAD_REACTORS
330
43A
102
}
330
1F
100
AcDbEntity
  8
LC-009-100-D00-0
 62
     7
370
    50
100
AcDbCircle
 10
460.470552
 20
330.18077
 30
0.0
 40
0.75937500000002
100
AcDbArc
 50
10.0
 51
90.0
  0
LINE
  5
3FC
102
{ACAD_REACTORS
330
43A
102
}
330
1F
100
AcDbEntity
  8
LC-009-100-D00-0
 62
     7
370
    50
100
AcDbLine
 10
461.21839
 20
330.312634
 30
0.0
 11
461.338428
 21
329.631869
 31
0.0
  0
LINE
  5
3FD
102
{ACAD_REACTORS
330
43A
102
}
330
1F
100
AcDbEntity
  8
LC-009-100-D00-0
 62
     7
370
    50
100
AcDbLine
 10
461.338428
 20
329.631869
 30
0.0
 11
461.338428
 21
327.822512
 31
0.0
  0
ARC
  5
3FE
102
{ACAD_REACTORS
330
43A
102
}
330
1F
100
AcDbEntity
  8
LC-009-100-D00-0
 62
     7
370
    50
100
AcDbCircle
 10
461.000928
 20
327.822512
 30
0.0
 40
0.3375000000000777
100
AcDbArc
 50
260.0
 51
0.0
  0
LINE
  5
3FF
102
{ACAD_REACTORS
330
43A
102
}
330
1F
100
AcDbEntity
  8
LC-009-100-D00-0
 62
     7
370
    50
100
AcDbLine
 10
460.942321
 20
327.49014
 30
0.0
 11
459.376945
 21
327.766158
 31
0.0
  0
ARC
  5
400
102
{ACAD_REACTORS
330
43A
102
}
330
1F
100
AcDbEntity
  8
LC-009-100-D00-0
 62
     7
370
    50
100
AcDbCircle
 10
459.345412
 20
327.515005
 30
0.0
 40
0.2531250000000273
100
AcDbArc
 50
82.843677
 51
160.0
  0
LINE
  5
401
102
{ACAD_REACTORS
330
43A
102
}
330
1F
100
AcDbEntity
  8
LC-009-100-D00-0
 62
     7
370
    50
100
AcDbLine
 10
459.107552
 20
327.601579
 30
0.0
 11
458.906452
 21
327.049062
 31
0.0
  0
ARC
  5
402
102
{ACAD_REACTORS
330
43A
102
}
330
1F
100
AcDbEntity
  8
LC-009-100-D00-0
 62
     7
370
    50
100
AcDbCircle
 10
459.144312
 20
326.962488
 30
0.0
 40
0.2531249999999795
100
AcDbArc
 50
160.0
 51
190.241215
  0
LINE
  5
403
102
{ACAD_REACTORS
330
43A
102
}
330
1F
100
AcDbEntity
  8
LC-009-100-D00-0
 62
     7
370
    50
100
AcDbLine
 10
458.89522
 20
326.917484
 30
0.0
 11
459.078739
 21
326.23258
 31
0.0
  0
ARC
  5
404
102
{ACAD_REACTORS
330
43A
102
}
330
1F
100
AcDbEntity
  8
LC-009-100-D00-0
 62
     7
370
    50
100
AcDbCircle
 10
458.752739
 20
326.145229
 30
0.0
 40
0.3375000000001713
100
AcDbArc
 50
240.0
 51
15.0
  0
INSERT
  5
40F
102
{ACAD_REACTORS
330
43A
102
}
330
1F
100
AcDbEntity
  8
LC-009-100-D00-0
 62
     7
370
    25
100
AcDbBlockReference
  2
KLON1
 10
0.0
 20
0.0
 30
0.0
  0
LINE
  5
410
102
{ACAD_REACTORS
330
440
102
}
330
1F
100
AcDbEntity
  8
LC-009-100-D00-0
 62
     7
370
    50
100
AcDbLine
 10
458.583989
 20
252.380322
 30
0.0
 11
455.542548
 21
250.624345
 31
0.0
  0
ARC
  5
411
102
{ACAD_REACTORS
330
440
102
}
330
1F
100
AcDbEntity
  8
LC-009-100-D00-0
 62
     7
370
    50
100
AcDbCircle
 10
456.022803
 20
249.453379
 30
0.0
 40
1.265625000000096
100
AcDbArc
 50
112.300266
 51
192.300266
  0
LINE
  5
412
102
{ACAD_REACTORS
330
440
102
}
330
1F
100
AcDbEntity
  8
LC-009-100-D00-0
 62
     7
370
    50
100
AcDbLine
 10
454.786231
 20
249.183756
 30
0.0
 11
455.292506
 21
247.792776
 31
0.0
  0
ARC
  5
413
102
{ACAD_REACTORS
330
440
102
}
330
1F
100
AcDbEntity
  8
LC-009-100-D00-0
 62
     7
370
    50
100
AcDbCircle
 10
456.006085
 20
248.052497
 30
0.0
 40
0.7593750000000938
100
AcDbArc
 50
200.0
 51
270.0
  0
LINE
  5
414
102
{ACAD_REACTORS
330
440
102
}
330
1F
100
AcDbEntity
  8
LC-009-100-D00-0
 62
     7
370
    50
100
AcDbLine
 10
456.006085
 20
247.293122
 30
0.0
 11
456.232267
 21
247.293122
 31
0.0
  0
LINE
  5
415
102
{ACAD_REACTORS
330
440
102
}
330
1F
100
AcDbEntity
  8
LC-009-100-D00-0
 62
     7
370
    50
100
AcDbLine
 10
456.232267
 20
247.293122
 30
0.0
 11
456.450768
 21
246.836268
 31
0.0
  0
ARC
  5
416
102
{ACAD_REACTORS
330
440
102
}
330
1F
100
AcDbEntity
  8
LC-009-100-D00-0
 62
     7
370
    50
100
AcDbCircle
 10
456.527579
 20
246.873005
 30
0.0
 40
0.085144671124813
100
AcDbArc
 50
205.560506
 51
334.439494
  0
LINE
  5
417
102
{ACAD_REACTORS
330
440
102
}
330
1F
100
AcDbEntity
  8
LC-009-100-D00-0
 62
     7
370
    50
100
AcDbLine
 10
456.604391
 20
246.836268
 30
0.0
 11
456.822892
 21
247.293122
 31
0.0
  0
LINE
  5
418
102
{ACAD_REACTORS
330
440
102
}
330
1F
100
AcDbEntity
  8
LC-009-100-D00-0
 62
     7
370
    50
100
AcDbLine
 10
456.822892
 20
247.293122
 30
0.0
 11
457.413517
 21
247.293122
 31
0.0
  0
LINE
  5
419
102
{ACAD_REACTORS
330
440
102
}
330
1F
100
AcDbEntity
  8
LC-009-100-D00-0
 62
     7
370
    50
100
AcDbLine
 10
457.413517
 20
247.293122
 30
0.0
 11
457.632712
 21
246.834816
 31
0.0
  0
ARC
  5
41A
102
{ACAD_REACTORS
330
440
102
}
330
1F
100
AcDbEntity
  8
LC-009-100-D00-0
 62
     7
370
    50
100
AcDbCircle
 10
457.708829
 20
246.871221
 30
0.0
 40
0.0843749999999566
100
AcDbArc
 50
205.560506
 51
334.439494
  0
LINE
  5
41B
102
{ACAD_REACTORS
330
440
102
}
330
1F
100
AcDbEntity
  8
LC-009-100-D00-0
 62
     7
370
    50
100
AcDbLine
 10
457.784947
 20
246.834816
 30
0.0
 11
458.004142
 21
247.293122
 31
0.0
  0
LINE
  5
41C
102
{ACAD_REACTORS
330
440
102
}
330
1F
100
AcDbEntity
  8
LC-009-100-D00-0
 62
     7
370
    50
100
AcDbLine
 10
458.004142
 20
247.293122
 30
0.0
 11
458.594767
 21
247.293122
 31
0.0
  0
LINE
  5
41D
102
{ACAD_REACTORS
330
440
102
}
330
1F
100
AcDbEntity
  8
LC-009-100-D00-0
 62
     7
370
    50
100
AcDbLine
 10
458.594767
 20
247.293122
 30
0.0
 11
458.813962
 21
246.834816
 31
0.0
  0
ARC
  5
41E
102
{ACAD_REACTORS
330
440
102
}
330
1F
100
AcDbEntity
  8
LC-009-100-D00-0
 62
     7
370
    50
100
AcDbCircle
 10
458.890079
 20
246.871221
 30
0.0
 40
0.0843750000000513
100
AcDbArc
 50
205.560506
 51
334.439494
  0
LINE
  5
41F
102
{ACAD_REACTORS
330
440
102
}
330
1F
100
AcDbEntity
  8
LC-009-100-D00-0
 62
     7
370
    50
100
AcDbLine
 10
458.966197
 20
246.834816
 30
0.0
 11
459.185392
 21
247.293122
 31
0.0
  0
LINE
  5
420
102
{ACAD_REACTORS
330
440
102
}
330
1F
100
AcDbEntity
  8
LC-009-100-D00-0
 62
     7
370
    50
100
AcDbLine
 10
459.185392
 20
247.293122
 30
0.0
 11
459.776017
 21
247.293122
 31
0.0
  0
LINE
  5
421
102
{ACAD_REACTORS
330
440
102
}
330
1F
100
AcDbEntity
  8
LC-009-100-D00-0
 62
     7
370
    50
100
AcDbLine
 10
459.776017
 20
247.293122
 30
0.0
 11
459.94606
 21
246.937585
 31
0.0
  0
ARC
  5
422
102
{ACAD_REACTORS
330
440
102
}
330
1F
100
AcDbEntity
  8
LC-009-100-D00-0
 62
     7
370
    50
100
AcDbCircle
 10
460.022178
 20
246.97399
 30
0.0
 40
0.0843750000000369
100
AcDbArc
 50
205.560506
 51
334.439494
  0
LINE
  5
423
102
{ACAD_REACTORS
330
440
102
}
330
1F
100
AcDbEntity
  8
LC-009-100-D00-0
 62
     7
370
    50
100
AcDbLine
 10
460.098295
 20
246.937585
 30
0.0
 11
460.268339
 21
247.293122
 31
0.0
  0
LINE
  5
424
102
{ACAD_REACTORS
330
440
102
}
330
1F
100
AcDbEntity
  8
LC-009-100-D00-0
 62
     7
370
    50
100
AcDbLine
 10
460.268339
 20
247.293122
 30
0.0
 11
460.470552
 21
247.293122
 31
0.0
  0
ARC
  5
425
102
{ACAD_REACTORS
330
440
102
}
330
1F
100
AcDbEntity
  8
LC-009-100-D00-0
 62
     7
370
    50
100
AcDbCircle
 10
460.470552
 20
248.052497
 30
0.0
 40
0.7593750000000341
100
AcDbArc
 50
270.0
 51
350.0
  0
LINE
  5
426
102
{ACAD_REACTORS
330
440
102
}
330
1F
100
AcDbEntity
  8
LC-009-100-D00-0
 62
     7
370
    50
100
AcDbLine
 10
461.21839
 20
247.920633
 30
0.0
 11
461.338428
 21
248.601398
 31
0.0
  0
LINE
  5
427
102
{ACAD_REACTORS
330
440
102
}
330
1F
100
AcDbEntity
  8
LC-009-100-D00-0
 62
     7
370
    50
100
AcDbLine
 10
461.338428
 20
248.601398
 30
0.0
 11
461.338428
 21
250.410755
 31
0.0
  0
ARC
  5
428
102
{ACAD_REACTORS
330
440
102
}
330
1F
100
AcDbEntity
  8
LC-009-100-D00-0
 62
     7
370
    50
100
AcDbCircle
 10
461.000928
 20
250.410755
 30
0.0
 40
0.337500000000091
100
AcDbArc
 50
0.0
 51
100.0
  0
LINE
  5
429
102
{ACAD_REACTORS
330
440
102
}
330
1F
100
AcDbEntity
  8
LC-009-100-D00-0
 62
     7
370
    50
100
AcDbLine
 10
460.942321
 20
250.743127
 30
0.0
 11
459.376945
 21
250.467109
 31
0.0
  0
ARC
  5
42A
102
{ACAD_REACTORS
330
440
102
}
330
1F
100
AcDbEntity
  8
LC-009-100-D00-0
 62
     7
370
    50
100
AcDbCircle
 10
459.345412
 20
250.718262
 30
0.0
 40
0.2531250000000184
100
AcDbArc
 50
200.0
 51
277.156323
  0
LINE
  5
42B
102
{ACAD_REACTORS
330
440
102
}
330
1F
100
AcDbEntity
  8
LC-009-100-D00-0
 62
     7
370
    50
100
AcDbLine
 10
459.107552
 20
250.631688
 30
0.0
 11
458.906452
 21
251.184205
 31
0.0
  0
ARC
  5
42C
102
{ACAD_REACTORS
330
440
102
}
330
1F
100
AcDbEntity
  8
LC-009-100-D00-0
 62
     7
370
    50
100
AcDbCircle
 10
459.144312
 20
251.270779
 30
0.0
 40
0.2531250000000031
100
AcDbArc
 50
169.758785
 51
200.0
  0
LINE
  5
42D
102
{ACAD_REACTORS
330
440
102
}
330
1F
100
AcDbEntity
  8
LC-009-100-D00-0
 62
     7
370
    50
100
AcDbLine
 10
458.89522
 20
251.315783
 30
0.0
 11
459.078739
 21
252.000687
 31
0.0
  0
ARC
  5
42E
102
{ACAD_REACTORS
330
440
102
}
330
1F
100
AcDbEntity
  8
LC-009-100-D00-0
 62
     7
370
    50
100
AcDbCircle
 10
458.752739
 20
252.088038
 30
0.0
 40
0.3375000000001837
100
AcDbArc
 50
345.0
 51
120.0
  0
INSERT
  5
439
102
{ACAD_REACTORS
330
440
102
}
330
1F
100
AcDbEntity
  8
LC-009-100-D00-0
 62
     7
370
    25
100
AcDbBlockReference
  2
KLON2
 10
0.0
 20
0.0
 30
0.0
  0
ENDSEC
  0
SECTION
  2
OBJECTS
  0
DICTIONARY
  5
C
330
0
100
AcDbDictionary
281
     1
  3
ACAD_GROUP
350
D
  3
ACAD_LAYOUT
350
1A
  3
ACAD_MLINESTYLE
350
17
  3
ACAD_PLOTSETTINGS
350
19
  3
ACAD_PLOTSTYLENAME
350
E
  0
DICTIONARY
  5
D
102
{ACAD_REACTORS
330
C
102
}
330
C
100
AcDbDictionary
281
     1
  3
LCGROUP11
350
43B
  3
LCGROUP112
350
43E
  3
LCGROUP12
350
43A
  3
LCGROUP372
350
43D
  3
LCGROUP428
350
43F
  3
LCGROUP607
350
43C
  3
LCGROUP801
350
440
  0
DICTIONARY
  5
1A
102
{ACAD_REACTORS
330
C
102
}
330
C
100
AcDbDictionary
281
     1
  3
Layout1
350
1E
  3
Layout2
350
26
  3
Model
350
22
  0
DICTIONARY
  5
17
102
{ACAD_REACTORS
330
C
102
}
330
C
100
AcDbDictionary
281
     1
  3
Standard
350
18
  0
DICTIONARY
  5
19
102
{ACAD_REACTORS
330
C
102
}
330
C
100
AcDbDictionary
281
     1
  0
ACDBDICTIONARYWDFLT
  5
E
102
{ACAD_REACTORS
330
C
102
}
330
C
100
AcDbDictionary
281
     1
  3
Normal
350
F
100
AcDbDictionaryWithDefault
340
F
  0
GROUP
  5
43B
102
{ACAD_REACTORS
330
D
102
}
330
D
100
AcDbGroup
300
Adapter
 70
     1
 71
     1
340
354
340
355
340
356
340
357
340
358
340
359
340
35A
340
35B
340
35C
340
35D
340
35E
340
35F
340
360
340
361
340
362
340
363
340
364
340
365
340
366
340
367
340
368
340
369
340
36A
340
36B
340
36C
340
36D
340
36E
340
36F
340
370
340
371
340
372
340
373
340
374
340
375
340
376
340
377
340
378
340
379
340
37A
340
37B
340
37C
340
37F
340
3D2
340
3D3
340
3D4
340
3D5
340
3D6
340
3D7
  0
GROUP
  5
43E
102
{ACAD_REACTORS
330
D
102
}
330
D
100
AcDbGroup
300
GRP112
 70
     1
 71
     1
340
33
  0
GROUP
  5
43A
102
{ACAD_REACTORS
330
D
102
}
330
D
100
AcDbGroup
300
Dichtung
 70
     1
 71
     1
340
3E6
340
3E7
340
3E8
340
3E9
340
3EA
340
3EB
340
3EC
340
3ED
340
3EE
340
3EF
340
3F0
340
3F1
340
3F2
340
3F3
340
3F4
340
3F5
340
3F6
340
3F7
340
3F8
340
3F9
340
3FA
340
3FB
340
3FC
340
3FD
340
3FE
340
3FF
340
400
340
401
340
402
340
403
340
404
340
40F
  0
GROUP
  5
43D
102
{ACAD_REACTORS
330
D
102
}
330
D
100
AcDbGroup
300
GRP372
 70
     1
 71
     1
340
45
340
46
340
48
340
49
340
4A
340
4B
340
4C
340
4D
340
4F
340
50
340
52
340
53
340
54
340
55
340
56
340
57
340
58
340
59
340
5A
340
5B
340
5C
340
5D
340
5E
340
5F
340
60
340
61
340
62
340
63
340
64
340
65
340
66
340
67
340
68
340
69
340
6A
340
6B
340
6C
340
6D
340
6E
340
6F
340
70
340
71
340
72
340
73
340
74
340
75
340
76
340
77
340
78
340
79
340
7A
340
7B
340
7C
340
7D
340
7E
340
7F
340
80
340
81
340
82
340
83
340
84
340
85
340
86
340
C9
340
CA
340
CB
340
CC
340
CD
340
CE
340
CF
340
D0
340
D1
340
D2
340
D3
340
D4
340
D5
340
D7
340
D8
340
D9
340
DA
340
DB
340
DC
340
DD
340
DE
340
DF
340
E0
340
E1
340
E2
340
E3
340
E4
340
E5
340
E6
340
E7
340
E8
340
E9
340
EA
340
EB
340
EC
340
ED
340
EE
340
1AF
  0
GROUP
  5
43F
102
{ACAD_REACTORS
330
D
102
}
330
D
100
AcDbGroup
300
GRP428
 70
     1
 71
     1
340
1B0
340
1B1
340
1B2
340
1B3
340
1B4
340
1B5
340
1B6
340
1B7
340
1B8
340
1B9
340
1BA
340
1BB
340
1BC
340
1BD
340
1BE
340
1BF
340
1C0
340
1C1
340
1C2
340
1C3
340
1C4
340
1C5
340
1C6
340
1C7
340
1C8
340
1C9
340
1CA
340
1CB
340
1CC
340
1CD
340
1CE
340
1CF
340
1D0
340
1D1
340
1D2
340
1D3
340
1D4
340
1D5
340
1D6
340
1D7
340
1D8
340
1D9
340
1DA
340
1DB
340
1DC
340
1DD
340
1DE
340
1DF
340
1E0
340
1E1
340
1E2
340
1E3
340
1E4
340
1E5
340
24B
340
24C
  0
GROUP
  5
43C
102
{ACAD_REACTORS
330
D
102
}
330
D
100
AcDbGroup
300
GRP607
 70
     1
 71
     1
340
294
340
295
340
296
340
297
340
298
340
299
340
29A
340
29B
340
29C
340
29D
340
29E
340
29F
340
2A0
340
2A1
340
2A2
340
2A3
340
2A4
340
2A5
340
2A6
340
2A7
340
2A8
340
2A9
340
2AA
340
2AB
340
2AC
340
2AD
340
2AE
340
2AF
340
2B0
340
2B1
340
2B2
340
2B3
340
2B4
340
2B5
340
2B6
340
2B7
340
2B8
340
2B9
340
2BA
340
2BB
340
2BC
340
2BD
340
2BE
340
2BF
340
2C0
340
2C1
340
2C2
340
2C3
340
2C4
340
2C5
340
2C6
340
2C7
340
2C8
340
2C9
340
2CA
340
2CB
340
2CC
340
2CD
340
2CE
340
2CF
340
2D0
340
2D1
340
2D2
340
2D3
340
2D4
340
2D5
340
2D6
340
2D7
340
2D8
340
2D9
340
2DA
340
2DB
340
2DC
340
2DD
340
2DE
340
2F0
340
304
  0
GROUP
  5
440
102
{ACAD_REACTORS
330
D
102
}
330
D
100
AcDbGroup
300
Dichtung
 70
     1
 71
     1
340
410
340
411
340
412
340
413
340
414
340
415
340
416
340
417
340
418
340
419
340
41A
340
41B
340
41C
340
41D
340
41E
340
41F
340
420
340
421
340
422
340
423
340
424
340
425
340
426
340
427
340
428
340
429
340
42A
340
42B
340
42C
340
42D
340
42E
340
439
  0
LAYOUT
  5
1E
102
{ACAD_REACTORS
330
1A
102
}
330
1A
100
AcDbPlotSettings
  1

  2

  4

  6

 40
0.0
 41
0.0
 42
0.0
 43
0.0
 44
0.0
 45
0.0
 46
0.0
 47
0.0
 48
0.0
 49
0.0
140
0.0
141
0.0
142
1.0
143
1.0
 70
   688
 72
     0
 73
     0
 74
     5
  7

 75
    16
147
1.0
148
0.0
149
0.0
100
AcDbLayout
  1
Layout1
 70
     1
 71
     1
 10
0.0
 20
0.0
 11
840.0
 21
594.0
 12
0.0
 22
0.0
 32
0.0
 14
0.0
 24
0.0
 34
0.0
 15
840.0
 25
594.0
 35
0.0
146
0.0
 13
0.0
 23
0.0
 33
0.0
 16
1.0
 26
0.0
 36
0.0
 17
0.0
 27
1.0
 37
0.0
 76
     0
330
1B
  0
LAYOUT
  5
26
102
{ACAD_REACTORS
330
1A
102
}
330
1A
100
AcDbPlotSettings
  1

  2

  4

  6

 40
0.0
 41
0.0
 42
0.0
 43
0.0
 44
0.0
 45
0.0
 46
0.0
 47
0.0
 48
0.0
 49
0.0
140
0.0
141
0.0
142
1.0
143
1.0
 70
   688
 72
     0
 73
     0
 74
     5
  7

 75
    16
147
1.0
148
0.0
149
0.0
100
AcDbLayout
  1
Layout2
 70
     1
 71
     2
 10
0.0
 20
0.0
 11
0.0
 21
0.0
 12
0.0
 22
0.0
 32
0.0
 14
0.0
 24
0.0
 34
0.0
 15
0.0
 25
0.0
 35
0.0
146
0.0
 13
0.0
 23
0.0
 33
0.0
 16
1.0
 26
0.0
 36
0.0
 17
0.0
 27
1.0
 37
0.0
 76
     0
330
23
  0
LAYOUT
  5
22
102
{ACAD_REACTORS
330
1A
102
}
330
1A
100
AcDbPlotSettings
  1

  2

  4

  6

 40
0.0
 41
0.0
 42
0.0
 43
0.0
 44
0.0
 45
0.0
 46
0.0
 47
0.0
 48
0.0
 49
0.0
140
0.0
141
0.0
142
1.0
143
1.0
 70
  1776
 72
     0
 73
     0
 74
     0
  7

 75
     0
147
1.0
148
0.0
149
0.0
100
AcDbLayout
  1
Model
 70
     1
 71
     0
 10
0.0
 20
0.0
 11
840.0
 21
594.0
 12
0.0
 22
0.0
 32
0.0
 14
0.0
 24
0.0
 34
0.0
 15
840.0
 25
594.0
 35
0.0
146
0.0
 13
0.0
 23
0.0
 33
0.0
 16
1.0
 26
0.0
 36
0.0
 17
0.0
 27
1.0
 37
0.0
 76
     0
330
1F
  0
MLINESTYLE
  5
18
102
{ACAD_REACTORS
330
17
102
}
330
17
100
AcDbMlineStyle
  2
Standard
 70
     0
  3

 62
   256
 51
90.0
 52
90.0
 71
     2
 49
0.5
 62
   256
  6
BYLAYER
 49
-0.5
 62
   256
  6
BYLAYER
  0
ACDBPLACEHOLDER
  5
F
102
{ACAD_REACTORS
330
E
102
}
330
E
  0
ENDSEC
  0
EOF
