  0
SECTION
  2
HEADER
  9
$ACADVER
  1
AC1009
  9
$INSBASE
 10
0.0
 20
0.0
 30
0.0
  9
$EXTMIN
 10
0.0
 20
0.0
 30
0.0
  9
$EXTMAX
 10
840.0
 20
594.0
 30
0.0
  9
$LIMMIN
 10
0.0
 20
0.0
  9
$LIMMAX
 10
840.0
 20
594.0
  9
$ORTHOMODE
 70
     0
  9
$REGENMODE
 70
     1
  9
$FILLMODE
 70
     1
  9
$QTEXTMODE
 70
     0
  9
$MIRRTEXT
 70
     1
  9
$DRAGMODE
 70
     2
  9
$LTSCALE
 40
2.0
  9
$OSMODE
 70
     0
  9
$ATTMODE
 70
     1
  9
$TEXTSIZE
 40
0.2
  9
$TRACEWID
 40
0.05
  9
$TEXTSTYLE
  7
STANDARD
  9
$CLAYER
  8
0
  9
$CELTYPE
  6
BYLAYER
  9
$CECOLOR
 62
     7
  9
$DIMSCALE
 40
2.0
  9
$DIMASZ
 40
3.5
  9
$DIMEXO
 40
0.0625
  9
$DIMDLI
 40
0.38
  9
$DIMRND
 40
0.0
  9
$DIMDLE
 40
0.0
  9
$DIMEXE
 40
0.18
  9
$DIMTP
 40
0.0
  9
$DIMTM
 40
0.0
  9
$DIMTXT
 40
3.5
  9
$DIMCEN
 40
0.09
  9
$DIMTSZ
 40
0.0
  9
$DIMTOL
 70
     0
  9
$DIMLIM
 70
     0
  9
$DIMTIH
 70
     1
  9
$DIMTOH
 70
     1
  9
$DIMSE1
 70
     0
  9
$DIMSE2
 70
     0
  9
$DIMTAD
 70
     1
  9
$DIMZIN
 70
     0
  9
$DIMBLK
  1

  9
$DIMASO
 70
     1
  9
$DIMSHO
 70
     1
  9
$DIMPOST
  1

  9
$DIMAPOST
  1

  9
$DIMALT
 70
     0
  9
$DIMALTD
 70
     2
  9
$DIMALTF
 40
25.4
  9
$DIMLFAC
 40
1.0
  9
$DIMTOFL
 70
     0
  9
$DIMTVP
 40
0.0
  9
$DIMTIX
 70
     0
  9
$DIMSOXD
 70
     0
  9
$DIMSAH
 70
     0
  9
$DIMBLK1
  1

  9
$DIMBLK2
  1

  9
$DIMSTYLE
  2
STANDARD
  9
$DIMCLRD
 70
     0
  9
$DIMCLRE
 70
     0
  9
$DIMCLRT
 70
     0
  9
$DIMTFAC
 40
1.0
  9
$DIMGAP
 40
0.09
  9
$LUNITS
 70
     2
  9
$LUPREC
 70
     2
  9
$AXISMODE
 70
     0
  9
$AXISUNIT
 10
0.0
 20
0.0
  9
$SKETCHINC
 40
0.1
  9
$FILLETRAD
 40
0.0
  9
$AUNITS
 70
     0
  9
$AUPREC
 70
     0
  9
$MENU
  1
acad
  9
$ELEVATION
 40
0.0
  9
$PELEVATION
 40
0.0
  9
$THICKNESS
 40
0.0
  9
$LIMCHECK
 70
     0
  9
$BLIPMODE
 70
     1
  9
$CHAMFERA
 40
0.0
  9
$CHAMFERB
 40
0.0
  9
$SKPOLY
 70
     0
  9
$TDCREATE
 40
0.000000000
  9
$TDUPDATE
 40
0.000000000
  9
$TDINDWG
 40
0.0000000000
  9
$TDUSRTIMER
 40
0.0000000000
  9
$USRTIMER
 70
     1
  9
$ANGBASE
 50
0.0
  9
$ANGDIR
 70
     0
  9
$PDMODE
 70
     0
  9
$PDSIZE
 40
0.0
  9
$PLINEWID
 40
0.0
  9
$COORDS
 70
     0
  9
$SPLFRAME
 70
     0
  9
$SPLINETYPE
 70
     6
  9
$SPLINESEGS
 70
     8
  9
$ATTDIA
 70
     0
  9
$ATTREQ
 70
     1
  9
$HANDLING
 70
     1
  9
$HANDSEED
  5
291
  9
$SURFTAB1
 70
     6
  9
$SURFTAB2
 70
     6
  9
$SURFTYPE
 70
     6
  9
$SURFU
 70
     6
  9
$SURFV
 70
     6
  9
$UCSNAME
  2

  9
$UCSORG
 10
0.0
 20
0.0
 30
0.0
  9
$UCSXDIR
 10
1.0
 20
0.0
 30
0.0
  9
$UCSYDIR
 10
0.0
 20
1.0
 30
0.0
  9
$PUCSNAME
  2

  9
$PUCSORG
 10
0.0
 20
0.0
 30
0.0
  9
$PUCSXDIR
 10
1.0
 20
0.0
 30
0.0
  9
$PUCSYDIR
 10
0.0
 20
1.0
 30
0.0
  9
$USERI1
 70
     0
  9
$USERI2
 70
     0
  9
$USERI3
 70
     0
  9
$USERI4
 70
     0
  9
$USERI5
 70
     0
  9
$USERR1
 40
0.0
  9
$USERR2
 40
0.0
  9
$USERR3
 40
0.0
  9
$USERR4
 40
0.0
  9
$USERR5
 40
0.0
  9
$WORLDVIEW
 70
     1
  9
$SHADEDGE
 70
     3
  9
$SHADEDIF
 70
    70
  9
$TILEMODE
 70
     1
  9
$MAXACTVP
 70
    16
  9
$PINSBASE
 10
0.0
 20
0.0
 30
0.0
  9
$PLIMCHECK
 70
     0
  9
$PEXTMIN
 10
1.000000E+20
 20
1.000000E+20
 30
1.000000E+20
  9
$PEXTMAX
 10
-1.000000E+20
 20
-1.000000E+20
 30
-1.000000E+20
  9
$PLIMMIN
 10
0.0
 20
0.0
  9
$PLIMMAX
 10
840.0
 20
594.0
  9
$UNITMODE
 70
     0
  9
$VISRETAIN
 70
     0
  9
$PLINEGEN
 70
     1
  9
$PSLTSCALE
 70
     0
  9
$TREEDEPTH
 70
  3020
  9
$DWGCODEPAGE
  3
dos850
  0
ENDSEC
  0
SECTION
  2
TABLES
  0
TABLE
  2
VPORT
 70
     1
  0
VPORT
  2
*ACTIVE
 70
     0
 10
0.0
 20
0.0
 11
1.0
 21
1.0
 12
420.0
 22
297.0
 13
0.0
 23
0.0
 14
1.0
 24
1.0
 15
0.0
 25
0.0
 16
0.0
 26
0.0
 36
1.0
 17
0.0
 27
0.0
 37
0.0
 40
594.0
 41
1.604229
 42
50.0
 43
0.0
 44
0.0
 50
0.0
 51
0.0
 71
     0
 72
   100
 73
     1
 74
     1
 75
     0
 76
     0
 77
     0
 78
     0
  0
ENDTAB
  0
TABLE
  2
LTYPE
 70
     2
  0
LTYPE
  2
CONTINUOUS
 70
    64
  3
Solid line
 72
    65
 73
     0
 40
0.0
  0
LTYPE
  2
DASHDOT
 70
    64
  3
__ . __ . __ . __ . __
 72
    65
 73
     4
 40
7.5
 49
5.0
 49
-1.25
 49
0.0
 49
-1.25
  0
ENDTAB
  0
TABLE
  2
LAYER
 70
    11
  0
LAYER
  2
0
 70
     0
 62
     7
  6
CONTINUOUS
  0
LAYER
  2
LC-INFO-1-2-MM-A3-0
 70
     1
 62
    -1
  6
CONTINUOUS
  0
LAYER
  2
LC-007-003-MTH-0
 70
     0
 62
     2
  6
CONTINUOUS
  0
LAYER
  2
LC-008-003-MTG-0
 70
     0
 62
     2
  6
CONTINUOUS
  0
LAYER
  2
LC-006-003-----0
 70
     0
 62
     2
  6
CONTINUOUS
  0
LAYER
  2
LC-005-005-----0
 70
     0
 62
     2
  6
CONTINUOUS
  0
LAYER
  2
LC-004-000-----0
 70
     0
 62
     7
  6
CONTINUOUS
  0
LAYER
  2
LC-002-002-----0
 70
     0
 62
     1
  6
CONTINUOUS
  0
LAYER
  2
LC-003-001-----0
 70
     0
 62
     1
  6
CONTINUOUS
  0
LAYER
  2
LC-009-002-RND-0
 70
     0
 62
     1
  6
CONTINUOUS
  0
LAYER
  2
LC-000
 70
     0
 62
     7
  6
CONTINUOUS
  0
ENDTAB
  0
TABLE
  2
STYLE
 70
     5
  0
STYLE
  2
STANDARD
 70
     0
 40
0.0
 41
1.0
 50
0.0
 71
     0
 42
0.0
  3
txt
  4

  0
STYLE
  2
LC-STANDARD
 70
    64
 40
0.0
 41
1.0
 50
0.0
 71
     0
 42
3.5
  3
MONOTXT
  4

  0
STYLE
  2
LC-TXTSTYLE-0-400-0-0-DIN2
 70
    64
 40
0.0
 41
1.0
 50
0.0
 71
     0
 42
3.5
  3
MONOTXT
  4

  0
STYLE
  2
LC-TXTSTYLE-150-400-0-0-A3
 70
    64
 40
0.0
 41
1.0
 50
15.0
 71
     0
 42
3.5
  3
MONOTXT
  4

  0
STYLE
  2
LC-TXTSTYLE-150-400-0-0-D4
 70
    64
 40
0.0
 41
1.0
 50
15.0
 71
     0
 42
3.5
  3
LC-STANDARD
  4

  0
ENDTAB
  0
TABLE
  2
VIEW
 70
     0
  0
ENDTAB
  0
TABLE
  2
UCS
 70
     0
  0
ENDTAB
  0
TABLE
  2
APPID
 70
     1
  0
APPID
  2
ACAD
 70
     0
  0
ENDTAB
  0
TABLE
  2
DIMSTYLE
 70
     3
  0
DIMSTYLE
  2
STANDARD
 70
     0
  3

  4

  5

  6

  7

 40
1.0
 41
0.18
 42
0.0625
 43
0.38
 44
0.18
 45
0.0
 46
0.0
 47
0.0
 48
0.0
 71
     0
 72
     0
 73
     1
 74
     1
 75
     0
 76
     0
 77
     0
 78
     0
140
0.18
141
0.09
142
0.0
143
25.4
144
1.0
145
0.0
146
1.0
147
0.09
170
     0
171
     2
172
     0
173
     0
174
     0
175
     0
176
     0
177
     0
178
     0
  0
DIMSTYLE
  2
LC-STANDARD
 70
     0
  3

  4

  5

  6

  7

 40
1.0
 41
3.5
 42
0.0
 43
7.5
 44
1.8
 45
0.0
 46
0.0
 47
0.0
 48
0.0
 71
     0
 72
     0
 73
     0
 74
     0
 75
     0
 76
     0
 77
     1
 78
     8
140
3.5
141
0.0
142
0.0
143
25.4
144
1.0
145
0.0
146
0.71
147
1.5
170
     0
171
     2
172
     1
173
     0
174
     0
175
     0
176
     0
177
     0
178
     3
  0
DIMSTYLE
  2
LC-DIM-L-0140-02-02
 70
     0
  3

  4

  5

  6

  7

 40
2.0
 41
3.5
 42
0.0
 43
7.5
 44
1.8
 45
0.0
 46
0.0
 47
0.0
 48
0.0
 71
     0
 72
     0
 73
     0
 74
     0
 75
     0
 76
     0
 77
     1
 78
     8
140
14.0
141
0.0
142
0.0
143
25.4
144
1.0
145
0.0
146
0.71
147
1.5
170
     0
171
     2
172
     0
173
     0
174
     0
175
     0
176
     2
177
     2
178
     8
  0
ENDTAB
  0
ENDSEC
  0
SECTION
  2
BLOCKS
  0
BLOCK
  8
0
  5
24
  2
BLK1
 70
    64
 10
0.0
 20
0.0
 30
0.0
  3
BLK1
  0
ENDBLK
  8
0
  5
25
  0
BLOCK
  8
0
  5
27
  2
BLK2
 70
    64
 10
0.0
 20
0.0
 30
0.0
  3
BLK2
  0
ENDBLK
  8
0
  5
28
  0
BLOCK
  8
0
  5
2A
  2
*D2
 70
    65
 10
0.0
 20
0.0
 30
0.0
  3
*D2
  0
LINE
  8
LC-007-003-MTH-0
  6
CONTINUOUS
  5
2C
 10
183.568257
 20
408.550513
 30
0.0
 11
183.568257
 21
450.8
 31
0.0
  0
LINE
  8
LC-007-003-MTH-0
  6
CONTINUOUS
  5
2D
 10
485.071743
 20
408.550513
 30
0.0
 11
485.071743
 21
450.8
 31
0.0
  0
LINE
  8
LC-008-003-MTG-0
  6
CONTINUOUS
  5
2F
 10
183.568257
 20
434.0
 30
0.0
 11
485.071743
 21
434.0
 31
0.0
  0
LINE
  8
LC-006-003-----0
  6
CONTINUOUS
  5
31
 10
211.328713
 20
437.654733
 30
0.0
 11
183.568257
 21
434.0
 31
0.0
  0
LINE
  8
LC-006-003-----0
  6
CONTINUOUS
  5
32
 10
183.568257
 20
434.0
 30
0.0
 11
211.328713
 21
430.345267
 31
0.0
  0
LINE
  8
LC-006-003-----0
  6
CONTINUOUS
  5
33
 10
211.328713
 20
430.345267
 30
0.0
 11
211.328713
 21
437.654733
 31
0.0
  0
LINE
  8
LC-006-003-----0
  6
CONTINUOUS
  5
34
 10
211.390995
 20
436.704503
 30
0.0
 11
190.848257
 21
434.0
 31
0.0
  0
LINE
  8
LC-006-003-----0
  6
CONTINUOUS
  5
35
 10
190.848257
 20
434.0
 30
0.0
 11
211.390995
 21
431.295497
 31
0.0
  0
LINE
  8
LC-006-003-----0
  6
CONTINUOUS
  5
36
 10
211.453276
 20
435.754272
 30
0.0
 11
198.128257
 21
434.0
 31
0.0
  0
LINE
  8
LC-006-003-----0
  6
CONTINUOUS
  5
37
 10
198.128257
 20
434.0
 30
0.0
 11
211.453276
 21
432.245728
 31
0.0
  0
LINE
  8
LC-006-003-----0
  6
CONTINUOUS
  5
38
 10
211.515557
 20
434.804041
 30
0.0
 11
205.408257
 21
434.0
 31
0.0
  0
LINE
  8
LC-006-003-----0
  6
CONTINUOUS
  5
39
 10
205.408257
 20
434.0
 30
0.0
 11
211.515557
 21
433.195959
 31
0.0
  0
LINE
  8
LC-006-003-----0
  6
CONTINUOUS
  5
3A
 10
457.311287
 20
430.345267
 30
0.0
 11
485.071743
 21
434.0
 31
0.0
  0
LINE
  8
LC-006-003-----0
  6
CONTINUOUS
  5
3B
 10
485.071743
 20
434.0
 30
0.0
 11
457.311287
 21
437.654733
 31
0.0
  0
LINE
  8
LC-006-003-----0
  6
CONTINUOUS
  5
3C
 10
457.311287
 20
437.654733
 30
0.0
 11
457.311287
 21
430.345267
 31
0.0
  0
LINE
  8
LC-006-003-----0
  6
CONTINUOUS
  5
3D
 10
457.249005
 20
431.295497
 30
0.0
 11
477.791743
 21
434.0
 31
0.0
  0
LINE
  8
LC-006-003-----0
  6
CONTINUOUS
  5
3E
 10
477.791743
 20
434.0
 30
0.0
 11
457.249005
 21
436.704503
 31
0.0
  0
LINE
  8
LC-006-003-----0
  6
CONTINUOUS
  5
3F
 10
457.186724
 20
432.245728
 30
0.0
 11
470.511743
 21
434.0
 31
0.0
  0
LINE
  8
LC-006-003-----0
  6
CONTINUOUS
  5
40
 10
470.511743
 20
434.0
 30
0.0
 11
457.186724
 21
435.754272
 31
0.0
  0
LINE
  8
LC-006-003-----0
  6
CONTINUOUS
  5
41
 10
457.124443
 20
433.195959
 30
0.0
 11
463.231743
 21
434.0
 31
0.0
  0
LINE
  8
LC-006-003-----0
  6
CONTINUOUS
  5
42
 10
463.231743
 20
434.0
 30
0.0
 11
457.124443
 21
434.804041
 31
0.0
  0
TEXT
  8
LC-006-003-----0
  6
CONTINUOUS
 62
     8
  5
44
 10
300.570522
 20
441.827554
 30
0.0
 40
28.0
  1
Ø300
 41
0.9
 51
15.0
  7
LC-TXTSTYLE-150-400-0-0-D0
 72
     1
 11
338.66816
 21
441.827554
 31
0.0
  0
ENDBLK
  8
0
  5
45
  0
BLOCK
  8
0
  5
47
  2
*D3
 70
    65
 10
0.0
 20
0.0
 30
0.0
  3
*D3
  0
LINE
  8
LC-007-003-MTH-0
  6
CONTINUOUS
  5
48
 10
274.92
 20
186.463716
 30
0.0
 11
179.2
 21
186.463716
 31
0.0
  0
LINE
  8
LC-007-003-MTH-0
  6
CONTINUOUS
  5
49
 10
260.397699
 20
366.463716
 30
0.0
 11
179.2
 21
366.463716
 31
0.0
  0
LINE
  8
LC-008-003-MTG-0
  6
CONTINUOUS
  5
4A
 10
196.0
 20
186.463716
 30
0.0
 11
196.0
 21
366.463716
 31
0.0
  0
LINE
  8
LC-006-003-----0
  6
CONTINUOUS
  5
4B
 10
192.345267
 20
214.224172
 30
0.0
 11
196.0
 21
186.463716
 31
0.0
  0
LINE
  8
LC-006-003-----0
  6
CONTINUOUS
  5
4C
 10
196.0
 20
186.463716
 30
0.0
 11
199.654733
 21
214.224172
 31
0.0
  0
LINE
  8
LC-006-003-----0
  6
CONTINUOUS
  5
4D
 10
199.654733
 20
214.224172
 30
0.0
 11
192.345267
 21
214.224172
 31
0.0
  0
LINE
  8
LC-006-003-----0
  6
CONTINUOUS
  5
4E
 10
193.295497
 20
214.286454
 30
0.0
 11
196.0
 21
193.743716
 31
0.0
  0
LINE
  8
LC-006-003-----0
  6
CONTINUOUS
  5
4F
 10
196.0
 20
193.743716
 30
0.0
 11
198.704503
 21
214.286454
 31
0.0
  0
LINE
  8
LC-006-003-----0
  6
CONTINUOUS
  5
50
 10
194.245728
 20
214.348735
 30
0.0
 11
196.0
 21
201.023716
 31
0.0
  0
LINE
  8
LC-006-003-----0
  6
CONTINUOUS
  5
51
 10
196.0
 20
201.023716
 30
0.0
 11
197.754272
 21
214.348735
 31
0.0
  0
LINE
  8
LC-006-003-----0
  6
CONTINUOUS
  5
52
 10
195.195959
 20
214.411016
 30
0.0
 11
196.0
 21
208.303716
 31
0.0
  0
LINE
  8
LC-006-003-----0
  6
CONTINUOUS
  5
53
 10
196.0
 20
208.303716
 30
0.0
 11
196.804041
 21
214.411016
 31
0.0
  0
LINE
  8
LC-006-003-----0
  6
CONTINUOUS
  5
54
 10
199.654733
 20
338.70326
 30
0.0
 11
196.0
 21
366.463716
 31
0.0
  0
LINE
  8
LC-006-003-----0
  6
CONTINUOUS
  5
55
 10
196.0
 20
366.463716
 30
0.0
 11
192.345267
 21
338.70326
 31
0.0
  0
LINE
  8
LC-006-003-----0
  6
CONTINUOUS
  5
56
 10
192.345267
 20
338.70326
 30
0.0
 11
199.654733
 21
338.70326
 31
0.0
  0
LINE
  8
LC-006-003-----0
  6
CONTINUOUS
  5
57
 10
198.704503
 20
338.640979
 30
0.0
 11
196.0
 21
359.183716
 31
0.0
  0
LINE
  8
LC-006-003-----0
  6
CONTINUOUS
  5
58
 10
196.0
 20
359.183716
 30
0.0
 11
193.295497
 21
338.640979
 31
0.0
  0
LINE
  8
LC-006-003-----0
  6
CONTINUOUS
  5
59
 10
197.754272
 20
338.578697
 30
0.0
 11
196.0
 21
351.903716
 31
0.0
  0
LINE
  8
LC-006-003-----0
  6
CONTINUOUS
  5
5A
 10
196.0
 20
351.903716
 30
0.0
 11
194.245728
 21
338.578697
 31
0.0
  0
LINE
  8
LC-006-003-----0
  6
CONTINUOUS
  5
5B
 10
196.804041
 20
338.516416
 30
0.0
 11
196.0
 21
344.623716
 31
0.0
  0
LINE
  8
LC-006-003-----0
  6
CONTINUOUS
  5
5C
 10
196.0
 20
344.623716
 30
0.0
 11
195.195959
 21
338.516416
 31
0.0
  0
TEXT
  8
LC-006-003-----0
  6
CONTINUOUS
 62
     8
  5
5D
 10
188.172446
 20
251.048096
 30
0.0
 40
28.0
  1
180
 50
90.0
 51
15.0
  7
LC-TXTSTYLE-150-400-0-0-D0
 72
     1
 11
188.172446
 21
280.811876
 31
0.0
  0
ENDBLK
  8
0
  5
5E
  0
BLOCK
  8
0
  5
60
  2
*X4
 70
    65
 10
403.72
 20
186.463716
 30
0.0
  3
*X4
  0
LINE
  8
LC-005-005-----0
  6
CONTINUOUS
  5
62
 10
404.252605
 20
186.463716
 30
0.0
 11
405.929605
 21
188.140716
 31
0.0
  0
LINE
  8
LC-005-005-----0
  6
CONTINUOUS
  5
63
 10
403.72
 20
188.759539
 30
0.0
 11
406.82
 21
191.859539
 31
0.0
  0
LINE
  8
LC-005-005-----0
  6
CONTINUOUS
  5
64
 10
403.72
 20
191.587966
 30
0.0
 11
406.82
 21
194.687966
 31
0.0
  0
LINE
  8
LC-005-005-----0
  6
CONTINUOUS
  5
65
 10
403.72
 20
194.416393
 30
0.0
 11
406.82
 21
197.516393
 31
0.0
  0
LINE
  8
LC-005-005-----0
  6
CONTINUOUS
  5
66
 10
403.72
 20
197.24482
 30
0.0
 11
406.82
 21
200.34482
 31
0.0
  0
LINE
  8
LC-005-005-----0
  6
CONTINUOUS
  5
67
 10
403.72
 20
200.073247
 30
0.0
 11
406.82
 21
203.173247
 31
0.0
  0
LINE
  8
LC-005-005-----0
  6
CONTINUOUS
  5
68
 10
403.72
 20
202.901674
 30
0.0
 11
406.82
 21
206.001674
 31
0.0
  0
LINE
  8
LC-005-005-----0
  6
CONTINUOUS
  5
69
 10
403.72
 20
205.730101
 30
0.0
 11
406.82
 21
208.830101
 31
0.0
  0
LINE
  8
LC-005-005-----0
  6
CONTINUOUS
  5
6A
 10
403.72
 20
208.558528
 30
0.0
 11
406.82
 21
211.658528
 31
0.0
  0
LINE
  8
LC-005-005-----0
  6
CONTINUOUS
  5
6B
 10
403.72
 20
211.386956
 30
0.0
 11
406.82
 21
214.486956
 31
0.0
  0
LINE
  8
LC-005-005-----0
  6
CONTINUOUS
  5
6C
 10
403.72
 20
214.215383
 30
0.0
 11
406.82
 21
217.315383
 31
0.0
  0
LINE
  8
LC-005-005-----0
  6
CONTINUOUS
  5
6D
 10
403.72
 20
217.04381
 30
0.0
 11
406.82
 21
220.14381
 31
0.0
  0
LINE
  8
LC-005-005-----0
  6
CONTINUOUS
  5
6E
 10
403.72
 20
219.872237
 30
0.0
 11
406.82
 21
222.972237
 31
0.0
  0
LINE
  8
LC-005-005-----0
  6
CONTINUOUS
  5
6F
 10
403.72
 20
222.700664
 30
0.0
 11
406.82
 21
225.800664
 31
0.0
  0
LINE
  8
LC-005-005-----0
  6
CONTINUOUS
  5
70
 10
403.72
 20
225.529091
 30
0.0
 11
406.82
 21
228.629091
 31
0.0
  0
LINE
  8
LC-005-005-----0
  6
CONTINUOUS
  5
71
 10
403.72
 20
228.357518
 30
0.0
 11
406.82
 21
231.457518
 31
0.0
  0
LINE
  8
LC-005-005-----0
  6
CONTINUOUS
  5
72
 10
403.72
 20
231.185945
 30
0.0
 11
406.82
 21
234.285945
 31
0.0
  0
LINE
  8
LC-005-005-----0
  6
CONTINUOUS
  5
73
 10
403.72
 20
234.014373
 30
0.0
 11
406.82
 21
237.114373
 31
0.0
  0
LINE
  8
LC-005-005-----0
  6
CONTINUOUS
  5
74
 10
403.72
 20
236.8428
 30
0.0
 11
406.82
 21
239.9428
 31
0.0
  0
LINE
  8
LC-005-005-----0
  6
CONTINUOUS
  5
75
 10
403.72
 20
239.671227
 30
0.0
 11
406.82
 21
242.771227
 31
0.0
  0
LINE
  8
LC-005-005-----0
  6
CONTINUOUS
  5
76
 10
403.72
 20
242.499654
 30
0.0
 11
406.82
 21
245.599654
 31
0.0
  0
LINE
  8
LC-005-005-----0
  6
CONTINUOUS
  5
77
 10
403.72
 20
245.328081
 30
0.0
 11
406.82
 21
248.428081
 31
0.0
  0
LINE
  8
LC-005-005-----0
  6
CONTINUOUS
  5
78
 10
403.72
 20
248.156508
 30
0.0
 11
406.82
 21
251.256508
 31
0.0
  0
LINE
  8
LC-005-005-----0
  6
CONTINUOUS
  5
79
 10
403.72
 20
250.984935
 30
0.0
 11
406.82
 21
254.084935
 31
0.0
  0
LINE
  8
LC-005-005-----0
  6
CONTINUOUS
  5
7A
 10
403.72
 20
253.813362
 30
0.0
 11
406.82
 21
256.913362
 31
0.0
  0
LINE
  8
LC-005-005-----0
  6
CONTINUOUS
  5
7B
 10
403.72
 20
256.64179
 30
0.0
 11
406.82
 21
259.74179
 31
0.0
  0
LINE
  8
LC-005-005-----0
  6
CONTINUOUS
  5
7C
 10
403.72
 20
259.470217
 30
0.0
 11
406.82
 21
262.570217
 31
0.0
  0
LINE
  8
LC-005-005-----0
  6
CONTINUOUS
  5
7D
 10
403.72
 20
262.298644
 30
0.0
 11
406.82
 21
265.398644
 31
0.0
  0
LINE
  8
LC-005-005-----0
  6
CONTINUOUS
  5
7E
 10
403.72
 20
265.127071
 30
0.0
 11
406.82
 21
268.227071
 31
0.0
  0
LINE
  8
LC-005-005-----0
  6
CONTINUOUS
  5
7F
 10
403.72
 20
267.955498
 30
0.0
 11
406.82
 21
271.055498
 31
0.0
  0
LINE
  8
LC-005-005-----0
  6
CONTINUOUS
  5
80
 10
403.72
 20
270.783925
 30
0.0
 11
406.82
 21
273.883925
 31
0.0
  0
LINE
  8
LC-005-005-----0
  6
CONTINUOUS
  5
81
 10
403.72
 20
273.612352
 30
0.0
 11
406.82
 21
276.712352
 31
0.0
  0
LINE
  8
LC-005-005-----0
  6
CONTINUOUS
  5
82
 10
403.72
 20
276.440779
 30
0.0
 11
406.82
 21
279.540779
 31
0.0
  0
LINE
  8
LC-005-005-----0
  6
CONTINUOUS
  5
83
 10
403.72
 20
279.269207
 30
0.0
 11
406.82
 21
282.369207
 31
0.0
  0
LINE
  8
LC-005-005-----0
  6
CONTINUOUS
  5
84
 10
403.72
 20
282.097634
 30
0.0
 11
406.82
 21
285.197634
 31
0.0
  0
LINE
  8
LC-005-005-----0
  6
CONTINUOUS
  5
85
 10
403.72
 20
284.926061
 30
0.0
 11
406.82
 21
288.026061
 31
0.0
  0
LINE
  8
LC-005-005-----0
  6
CONTINUOUS
  5
86
 10
403.72
 20
287.754488
 30
0.0
 11
406.82
 21
290.854488
 31
0.0
  0
LINE
  8
LC-005-005-----0
  6
CONTINUOUS
  5
87
 10
403.72
 20
290.582915
 30
0.0
 11
406.82
 21
293.682915
 31
0.0
  0
LINE
  8
LC-005-005-----0
  6
CONTINUOUS
  5
88
 10
403.72
 20
293.411342
 30
0.0
 11
406.82
 21
296.511342
 31
0.0
  0
LINE
  8
LC-005-005-----0
  6
CONTINUOUS
  5
89
 10
403.72
 20
296.239769
 30
0.0
 11
406.82
 21
299.339769
 31
0.0
  0
LINE
  8
LC-005-005-----0
  6
CONTINUOUS
  5
8A
 10
403.72
 20
299.068196
 30
0.0
 11
406.82
 21
302.168196
 31
0.0
  0
LINE
  8
LC-005-005-----0
  6
CONTINUOUS
  5
8B
 10
403.72
 20
301.896624
 30
0.0
 11
406.82
 21
304.996624
 31
0.0
  0
LINE
  8
LC-005-005-----0
  6
CONTINUOUS
  5
8C
 10
403.72
 20
304.725051
 30
0.0
 11
406.82
 21
307.825051
 31
0.0
  0
LINE
  8
LC-005-005-----0
  6
CONTINUOUS
  5
8D
 10
403.72
 20
307.553478
 30
0.0
 11
406.82
 21
310.653478
 31
0.0
  0
LINE
  8
LC-005-005-----0
  6
CONTINUOUS
  5
8E
 10
403.72
 20
310.381905
 30
0.0
 11
406.82
 21
313.481905
 31
0.0
  0
LINE
  8
LC-005-005-----0
  6
CONTINUOUS
  5
8F
 10
403.72
 20
313.210332
 30
0.0
 11
406.82
 21
316.310332
 31
0.0
  0
LINE
  8
LC-005-005-----0
  6
CONTINUOUS
  5
90
 10
403.72
 20
316.038759
 30
0.0
 11
406.82
 21
319.138759
 31
0.0
  0
LINE
  8
LC-005-005-----0
  6
CONTINUOUS
  5
91
 10
403.72
 20
318.867186
 30
0.0
 11
406.82
 21
321.967186
 31
0.0
  0
LINE
  8
LC-005-005-----0
  6
CONTINUOUS
  5
92
 10
403.72
 20
321.695613
 30
0.0
 11
406.82
 21
324.795613
 31
0.0
  0
LINE
  8
LC-005-005-----0
  6
CONTINUOUS
  5
93
 10
403.72
 20
324.524041
 30
0.0
 11
406.82
 21
327.624041
 31
0.0
  0
LINE
  8
LC-005-005-----0
  6
CONTINUOUS
  5
94
 10
484.71414
 20
405.518181
 30
0.0
 11
485.071743
 21
405.875783
 31
0.0
  0
LINE
  8
LC-005-005-----0
  6
CONTINUOUS
  5
95
 10
403.72
 20
327.352468
 30
0.0
 11
406.82
 21
330.452468
 31
0.0
  0
LINE
  8
LC-005-005-----0
  6
CONTINUOUS
  5
96
 10
481.67306
 20
405.305528
 30
0.0
 11
484.906489
 21
408.538957
 31
0.0
  0
LINE
  8
LC-005-005-----0
  6
CONTINUOUS
  5
97
 10
403.72
 20
330.180895
 30
0.0
 11
406.82
 21
333.280895
 31
0.0
  0
LINE
  8
LC-005-005-----0
  6
CONTINUOUS
  5
98
 10
478.63198
 20
405.092875
 30
0.0
 11
481.865409
 21
408.326304
 31
0.0
  0
LINE
  8
LC-005-005-----0
  6
CONTINUOUS
  5
99
 10
403.72
 20
333.009322
 30
0.0
 11
406.82
 21
336.109322
 31
0.0
  0
LINE
  8
LC-005-005-----0
  6
CONTINUOUS
  5
9A
 10
475.5909
 20
404.880222
 30
0.0
 11
478.824329
 21
408.113651
 31
0.0
  0
LINE
  8
LC-005-005-----0
  6
CONTINUOUS
  5
9B
 10
403.72
 20
335.837749
 30
0.0
 11
406.82
 21
338.937749
 31
0.0
  0
LINE
  8
LC-005-005-----0
  6
CONTINUOUS
  5
9C
 10
472.54982
 20
404.667569
 30
0.0
 11
475.783249
 21
407.900998
 31
0.0
  0
LINE
  8
LC-005-005-----0
  6
CONTINUOUS
  5
9D
 10
403.72
 20
338.666176
 30
0.0
 11
406.82
 21
341.766176
 31
0.0
  0
LINE
  8
LC-005-005-----0
  6
CONTINUOUS
  5
9E
 10
469.50874
 20
404.454917
 30
0.0
 11
472.742169
 21
407.688345
 31
0.0
  0
LINE
  8
LC-005-005-----0
  6
CONTINUOUS
  5
9F
 10
403.72
 20
341.494603
 30
0.0
 11
406.82
 21
344.594603
 31
0.0
  0
LINE
  8
LC-005-005-----0
  6
CONTINUOUS
  5
A0
 10
466.46766
 20
404.242264
 30
0.0
 11
469.701089
 21
407.475693
 31
0.0
  0
LINE
  8
LC-005-005-----0
  6
CONTINUOUS
  5
A1
 10
403.72
 20
344.32303
 30
0.0
 11
406.82
 21
347.42303
 31
0.0
  0
LINE
  8
LC-005-005-----0
  6
CONTINUOUS
  5
A2
 10
463.426581
 20
404.029611
 30
0.0
 11
466.660009
 21
407.26304
 31
0.0
  0
LINE
  8
LC-005-005-----0
  6
CONTINUOUS
  5
A3
 10
403.72
 20
347.151458
 30
0.0
 11
406.82
 21
350.251458
 31
0.0
  0
LINE
  8
LC-005-005-----0
  6
CONTINUOUS
  5
A4
 10
460.385501
 20
403.816958
 30
0.0
 11
463.618929
 21
407.050387
 31
0.0
  0
LINE
  8
LC-005-005-----0
  6
CONTINUOUS
  5
A5
 10
403.72
 20
349.979885
 30
0.0
 11
406.82
 21
353.079885
 31
0.0
  0
LINE
  8
LC-005-005-----0
  6
CONTINUOUS
  5
A6
 10
457.344421
 20
403.604305
 30
0.0
 11
460.577849
 21
406.837734
 31
0.0
  0
LINE
  8
LC-005-005-----0
  6
CONTINUOUS
  5
A7
 10
403.72
 20
352.808312
 30
0.0
 11
406.82
 21
355.908312
 31
0.0
  0
LINE
  8
LC-005-005-----0
  6
CONTINUOUS
  5
A8
 10
454.303341
 20
403.391652
 30
0.0
 11
457.536769
 21
406.625081
 31
0.0
  0
LINE
  8
LC-005-005-----0
  6
CONTINUOUS
  5
A9
 10
403.72
 20
355.636739
 30
0.0
 11
406.82
 21
358.736739
 31
0.0
  0
LINE
  8
LC-005-005-----0
  6
CONTINUOUS
  5
AA
 10
450.780623
 20
402.697362
 30
0.0
 11
454.495689
 21
406.412428
 31
0.0
  0
LINE
  8
LC-005-005-----0
  6
CONTINUOUS
  5
AB
 10
403.72
 20
358.465166
 30
0.0
 11
406.82
 21
361.565166
 31
0.0
  0
LINE
  8
LC-005-005-----0
  6
CONTINUOUS
  5
AC
 10
424.041731
 20
378.786897
 30
0.0
 11
425.044884
 21
379.79005
 31
0.0
  0
LINE
  8
LC-005-005-----0
  6
CONTINUOUS
  5
AD
 10
446.395156
 20
401.140322
 30
0.0
 11
451.45461
 21
406.199776
 31
0.0
  0
LINE
  8
LC-005-005-----0
  6
CONTINUOUS
  5
AE
 10
403.72
 20
361.293593
 30
0.0
 11
406.82
 21
364.393593
 31
0.0
  0
LINE
  8
LC-005-005-----0
  6
CONTINUOUS
  5
AF
 10
408.890123
 20
366.463716
 30
0.0
 11
414.267301
 21
371.840894
 31
0.0
  0
LINE
  8
LC-005-005-----0
  6
CONTINUOUS
  5
B0
 10
421.213304
 20
378.786897
 30
0.0
 11
425.045001
 21
382.618594
 31
0.0
  0
LINE
  8
LC-005-005-----0
  6
CONTINUOUS
  5
B1
 10
443.026914
 20
400.600507
 30
0.0
 11
448.41353
 21
405.987123
 31
0.0
  0
LINE
  8
LC-005-005-----0
  6
CONTINUOUS
  5
B2
 10
403.72
 20
364.12202
 30
0.0
 11
409.061696
 21
369.463716
 31
0.0
  0
LINE
  8
LC-005-005-----0
  6
CONTINUOUS
  5
B3
 10
411.2673
 20
371.66932
 30
0.0
 11
414.267315
 21
374.669335
 31
0.0
  0
LINE
  8
LC-005-005-----0
  6
CONTINUOUS
  5
B4
 10
418.384877
 20
378.786897
 30
0.0
 11
421.384495
 21
381.786516
 31
0.0
  0
LINE
  8
LC-005-005-----0
  6
CONTINUOUS
  5
B5
 10
422.044951
 20
382.446972
 30
0.0
 11
425.045117
 21
385.447137
 31
0.0
  0
LINE
  8
LC-005-005-----0
  6
CONTINUOUS
  5
B6
 10
429.351607
 20
389.753627
 30
0.0
 11
430.282233
 21
390.684253
 31
0.0
  0
LINE
  8
LC-005-005-----0
  6
CONTINUOUS
  5
B7
 10
439.985834
 20
400.387854
 30
0.0
 11
445.37245
 21
405.77447
 31
0.0
  0
LINE
  8
LC-005-005-----0
  6
CONTINUOUS
  5
B8
 10
411.267314
 20
374.497761
 30
0.0
 11
414.267329
 21
377.497776
 31
0.0
  0
LINE
  8
LC-005-005-----0
  6
CONTINUOUS
  5
B9
 10
415.55645
 20
378.786897
 30
0.0
 11
418.556068
 21
381.786516
 31
0.0
  0
LINE
  8
LC-005-005-----0
  6
CONTINUOUS
  5
BA
 10
422.045068
 20
385.275515
 30
0.0
 11
425.045233
 21
388.275681
 31
0.0
  0
LINE
  8
LC-005-005-----0
  6
CONTINUOUS
  5
BB
 10
426.523244
 20
389.753691
 30
0.0
 11
430.282297
 21
393.512744
 31
0.0
  0
LINE
  8
LC-005-005-----0
  6
CONTINUOUS
  5
BC
 10
436.944754
 20
400.175201
 30
0.0
 11
440.581176
 21
403.811623
 31
0.0
  0
LINE
  8
LC-005-005-----0
  6
CONTINUOUS
  5
BD
 10
411.267328
 20
377.326202
 30
0.0
 11
415.727641
 21
381.786516
 31
0.0
  0
LINE
  8
LC-005-005-----0
  6
CONTINUOUS
  5
BE
 10
422.045184
 20
388.104059
 30
0.0
 11
430.282361
 21
396.341235
 31
0.0
  0
LINE
  8
LC-005-005-----0
  6
CONTINUOUS
  5
BF
 10
433.903674
 20
399.962548
 30
0.0
 11
437.137103
 21
403.195977
 31
0.0
  0
LINE
  8
LC-005-005-----0
  6
CONTINUOUS
  5
C0
 10
410.629252
 20
379.516554
 30
0.0
 11
412.899214
 21
381.786516
 31
0.0
  0
LINE
  8
LC-005-005-----0
  6
CONTINUOUS
  5
C1
 10
422.0453
 20
390.932602
 30
0.0
 11
424.657361
 21
393.544663
 31
0.0
  0
LINE
  8
LC-005-005-----0
  6
CONTINUOUS
  5
C2
 10
427.284391
 20
396.171692
 30
0.0
 11
430.282425
 21
399.169727
 31
0.0
  0
LINE
  8
LC-005-005-----0
  6
CONTINUOUS
  5
C3
 10
430.862594
 20
399.749896
 30
0.0
 11
434.096023
 21
402.983324
 31
0.0
  0
LINE
  8
LC-005-005-----0
  6
CONTINUOUS
  5
C4
 10
422.045417
 20
393.761145
 30
0.0
 11
424.461042
 21
396.176771
 31
0.0
  0
LINE
  8
LC-005-005-----0
  6
CONTINUOUS
  5
C5
 10
427.283547
 20
398.999276
 30
0.0
 11
431.054943
 21
402.770672
 31
0.0
  0
LINE
  8
LC-005-005-----0
  6
CONTINUOUS
  5
C6
 10
422.045533
 20
396.589689
 30
0.0
 11
424.264723
 21
398.808879
 31
0.0
  0
LINE
  8
LC-005-005-----0
  6
CONTINUOUS
  5
C7
 10
427.282703
 20
401.826859
 30
0.0
 11
428.013863
 21
402.558019
 31
0.0
  0
LINE
  8
LC-005-005-----0
  6
CONTINUOUS
  5
C8
 10
422.045649
 20
399.418232
 30
0.0
 11
422.259752
 21
399.632335
 31
0.0
  0
ENDBLK
  8
0
  5
C9
  0
BLOCK
  8
0
  5
CB
  2
*D5
 70
    65
 10
0.0
 20
0.0
 30
0.0
  3
*D5
  0
LINE
  8
LC-007-003-MTH-0
  6
CONTINUOUS
  5
CC
 10
261.82
 20
191.463716
 30
0.0
 11
261.82
 21
100.8
 31
0.0
  0
LINE
  8
LC-007-003-MTH-0
  6
CONTINUOUS
  5
CD
 10
406.82
 20
191.463716
 30
0.0
 11
406.82
 21
100.8
 31
0.0
  0
LINE
  8
LC-008-003-MTG-0
  6
CONTINUOUS
  5
CE
 10
261.82
 20
117.6
 30
0.0
 11
406.82
 21
117.6
 31
0.0
  0
LINE
  8
LC-006-003-----0
  6
CONTINUOUS
  5
CF
 10
289.580456
 20
121.254733
 30
0.0
 11
261.82
 21
117.6
 31
0.0
  0
LINE
  8
LC-006-003-----0
  6
CONTINUOUS
  5
D0
 10
261.82
 20
117.6
 30
0.0
 11
289.580456
 21
113.945267
 31
0.0
  0
LINE
  8
LC-006-003-----0
  6
CONTINUOUS
  5
D1
 10
289.580456
 20
113.945267
 30
0.0
 11
289.580456
 21
121.254733
 31
0.0
  0
LINE
  8
LC-006-003-----0
  6
CONTINUOUS
  5
D2
 10
289.642738
 20
120.304503
 30
0.0
 11
269.1
 21
117.6
 31
0.0
  0
LINE
  8
LC-006-003-----0
  6
CONTINUOUS
  5
D3
 10
269.1
 20
117.6
 30
0.0
 11
289.642738
 21
114.895497
 31
0.0
  0
LINE
  8
LC-006-003-----0
  6
CONTINUOUS
  5
D4
 10
289.705019
 20
119.354272
 30
0.0
 11
276.38
 21
117.6
 31
0.0
  0
LINE
  8
LC-006-003-----0
  6
CONTINUOUS
  5
D5
 10
276.38
 20
117.6
 30
0.0
 11
289.705019
 21
115.845728
 31
0.0
  0
LINE
  8
LC-006-003-----0
  6
CONTINUOUS
  5
D6
 10
289.7673
 20
118.404041
 30
0.0
 11
283.66
 21
117.6
 31
0.0
  0
LINE
  8
LC-006-003-----0
  6
CONTINUOUS
  5
D7
 10
283.66
 20
117.6
 30
0.0
 11
289.7673
 21
116.795959
 31
0.0
  0
LINE
  8
LC-006-003-----0
  6
CONTINUOUS
  5
D8
 10
379.059544
 20
113.945267
 30
0.0
 11
406.82
 21
117.6
 31
0.0
  0
LINE
  8
LC-006-003-----0
  6
CONTINUOUS
  5
D9
 10
406.82
 20
117.6
 30
0.0
 11
379.059544
 21
121.254733
 31
0.0
  0
LINE
  8
LC-006-003-----0
  6
CONTINUOUS
  5
DA
 10
379.059544
 20
121.254733
 30
0.0
 11
379.059544
 21
113.945267
 31
0.0
  0
LINE
  8
LC-006-003-----0
  6
CONTINUOUS
  5
DB
 10
378.997262
 20
114.895497
 30
0.0
 11
399.54
 21
117.6
 31
0.0
  0
LINE
  8
LC-006-003-----0
  6
CONTINUOUS
  5
DC
 10
399.54
 20
117.6
 30
0.0
 11
378.997262
 21
120.304503
 31
0.0
  0
LINE
  8
LC-006-003-----0
  6
CONTINUOUS
  5
DD
 10
378.934981
 20
115.845728
 30
0.0
 11
392.26
 21
117.6
 31
0.0
  0
LINE
  8
LC-006-003-----0
  6
CONTINUOUS
  5
DE
 10
392.26
 20
117.6
 30
0.0
 11
378.934981
 21
119.354272
 31
0.0
  0
LINE
  8
LC-006-003-----0
  6
CONTINUOUS
  5
DF
 10
378.8727
 20
116.795959
 30
0.0
 11
384.98
 21
117.6
 31
0.0
  0
LINE
  8
LC-006-003-----0
  6
CONTINUOUS
  5
E0
 10
384.98
 20
117.6
 30
0.0
 11
378.8727
 21
118.404041
 31
0.0
  0
TEXT
  8
LC-006-003-----0
  6
CONTINUOUS
 62
     8
  5
E1
 10
300.570522
 20
125.427554
 30
0.0
 40
28.0
  1
Ø145
 51
15.0
  7
LC-TXTSTYLE-150-400-0-0-D0
 72
     1
 11
338.66816
 21
125.427554
 31
0.0
  0
ENDBLK
  8
0
  5
E2
  0
BLOCK
  8
0
  5
E4
  2
*X6
 70
    65
 10
183.568257
 20
186.463716
 30
0.0
  3
*X6
  0
LINE
  8
LC-005-005-----0
  6
CONTINUOUS
  5
E5
 10
263.090326
 20
186.722794
 30
0.0
 11
264.92
 21
188.552468
 31
0.0
  0
LINE
  8
LC-005-005-----0
  6
CONTINUOUS
  5
E6
 10
262.492609
 20
188.953504
 30
0.0
 11
264.92
 21
191.380895
 31
0.0
  0
LINE
  8
LC-005-005-----0
  6
CONTINUOUS
  5
E7
 10
261.894892
 20
191.184214
 30
0.0
 11
264.92
 21
194.209322
 31
0.0
  0
LINE
  8
LC-005-005-----0
  6
CONTINUOUS
  5
E8
 10
261.82
 20
193.937749
 30
0.0
 11
264.92
 21
197.037749
 31
0.0
  0
LINE
  8
LC-005-005-----0
  6
CONTINUOUS
  5
E9
 10
261.82
 20
196.766176
 30
0.0
 11
264.92
 21
199.866176
 31
0.0
  0
LINE
  8
LC-005-005-----0
  6
CONTINUOUS
  5
EA
 10
261.82
 20
199.594603
 30
0.0
 11
264.92
 21
202.694603
 31
0.0
  0
LINE
  8
LC-005-005-----0
  6
CONTINUOUS
  5
EB
 10
261.82
 20
202.42303
 30
0.0
 11
264.92
 21
205.52303
 31
0.0
  0
LINE
  8
LC-005-005-----0
  6
CONTINUOUS
  5
EC
 10
261.82
 20
205.251458
 30
0.0
 11
264.92
 21
208.351458
 31
0.0
  0
LINE
  8
LC-005-005-----0
  6
CONTINUOUS
  5
ED
 10
261.82
 20
208.079885
 30
0.0
 11
264.92
 21
211.179885
 31
0.0
  0
LINE
  8
LC-005-005-----0
  6
CONTINUOUS
  5
EE
 10
261.82
 20
210.908312
 30
0.0
 11
264.92
 21
214.008312
 31
0.0
  0
LINE
  8
LC-005-005-----0
  6
CONTINUOUS
  5
EF
 10
261.82
 20
213.736739
 30
0.0
 11
264.92
 21
216.836739
 31
0.0
  0
LINE
  8
LC-005-005-----0
  6
CONTINUOUS
  5
F0
 10
261.82
 20
216.565166
 30
0.0
 11
264.92
 21
219.665166
 31
0.0
  0
LINE
  8
LC-005-005-----0
  6
CONTINUOUS
  5
F1
 10
261.82
 20
219.393593
 30
0.0
 11
264.92
 21
222.493593
 31
0.0
  0
LINE
  8
LC-005-005-----0
  6
CONTINUOUS
  5
F2
 10
261.82
 20
222.22202
 30
0.0
 11
264.92
 21
225.32202
 31
0.0
  0
LINE
  8
LC-005-005-----0
  6
CONTINUOUS
  5
F3
 10
261.82
 20
225.050447
 30
0.0
 11
264.92
 21
228.150447
 31
0.0
  0
LINE
  8
LC-005-005-----0
  6
CONTINUOUS
  5
F4
 10
261.82
 20
227.878875
 30
0.0
 11
264.92
 21
230.978875
 31
0.0
  0
LINE
  8
LC-005-005-----0
  6
CONTINUOUS
  5
F5
 10
261.82
 20
230.707302
 30
0.0
 11
264.92
 21
233.807302
 31
0.0
  0
LINE
  8
LC-005-005-----0
  6
CONTINUOUS
  5
F6
 10
261.82
 20
233.535729
 30
0.0
 11
264.92
 21
236.635729
 31
0.0
  0
LINE
  8
LC-005-005-----0
  6
CONTINUOUS
  5
F7
 10
261.82
 20
236.364156
 30
0.0
 11
264.92
 21
239.464156
 31
0.0
  0
LINE
  8
LC-005-005-----0
  6
CONTINUOUS
  5
F8
 10
261.82
 20
239.192583
 30
0.0
 11
264.92
 21
242.292583
 31
0.0
  0
LINE
  8
LC-005-005-----0
  6
CONTINUOUS
  5
F9
 10
261.82
 20
242.02101
 30
0.0
 11
264.92
 21
245.12101
 31
0.0
  0
LINE
  8
LC-005-005-----0
  6
CONTINUOUS
  5
FA
 10
261.82
 20
244.849437
 30
0.0
 11
264.92
 21
247.949437
 31
0.0
  0
LINE
  8
LC-005-005-----0
  6
CONTINUOUS
  5
FB
 10
261.82
 20
247.677864
 30
0.0
 11
264.92
 21
250.777864
 31
0.0
  0
LINE
  8
LC-005-005-----0
  6
CONTINUOUS
  5
FC
 10
261.82
 20
250.506292
 30
0.0
 11
264.92
 21
253.606292
 31
0.0
  0
LINE
  8
LC-005-005-----0
  6
CONTINUOUS
  5
FD
 10
261.82
 20
253.334719
 30
0.0
 11
264.92
 21
256.434719
 31
0.0
  0
LINE
  8
LC-005-005-----0
  6
CONTINUOUS
  5
FE
 10
261.82
 20
256.163146
 30
0.0
 11
264.92
 21
259.263146
 31
0.0
  0
LINE
  8
LC-005-005-----0
  6
CONTINUOUS
  5
FF
 10
261.82
 20
258.991573
 30
0.0
 11
264.92
 21
262.091573
 31
0.0
  0
LINE
  8
LC-005-005-----0
  6
CONTINUOUS
  5
100
 10
261.82
 20
261.82
 30
0.0
 11
264.92
 21
264.92
 31
0.0
  0
LINE
  8
LC-005-005-----0
  6
CONTINUOUS
  5
101
 10
261.82
 20
264.648427
 30
0.0
 11
264.92
 21
267.748427
 31
0.0
  0
LINE
  8
LC-005-005-----0
  6
CONTINUOUS
  5
102
 10
261.82
 20
267.476854
 30
0.0
 11
264.92
 21
270.576854
 31
0.0
  0
LINE
  8
LC-005-005-----0
  6
CONTINUOUS
  5
103
 10
261.82
 20
270.305281
 30
0.0
 11
264.92
 21
273.405281
 31
0.0
  0
LINE
  8
LC-005-005-----0
  6
CONTINUOUS
  5
104
 10
261.82
 20
273.133708
 30
0.0
 11
264.92
 21
276.233708
 31
0.0
  0
LINE
  8
LC-005-005-----0
  6
CONTINUOUS
  5
105
 10
261.82
 20
275.962136
 30
0.0
 11
264.92
 21
279.062136
 31
0.0
  0
LINE
  8
LC-005-005-----0
  6
CONTINUOUS
  5
106
 10
261.82
 20
278.790563
 30
0.0
 11
264.92
 21
281.890563
 31
0.0
  0
LINE
  8
LC-005-005-----0
  6
CONTINUOUS
  5
107
 10
261.82
 20
281.61899
 30
0.0
 11
264.92
 21
284.71899
 31
0.0
  0
LINE
  8
LC-005-005-----0
  6
CONTINUOUS
  5
108
 10
261.82
 20
284.447417
 30
0.0
 11
264.92
 21
287.547417
 31
0.0
  0
LINE
  8
LC-005-005-----0
  6
CONTINUOUS
  5
109
 10
261.82
 20
287.275844
 30
0.0
 11
264.92
 21
290.375844
 31
0.0
  0
LINE
  8
LC-005-005-----0
  6
CONTINUOUS
  5
10A
 10
261.82
 20
290.104271
 30
0.0
 11
264.92
 21
293.204271
 31
0.0
  0
LINE
  8
LC-005-005-----0
  6
CONTINUOUS
  5
10B
 10
261.82
 20
292.932698
 30
0.0
 11
264.92
 21
296.032698
 31
0.0
  0
LINE
  8
LC-005-005-----0
  6
CONTINUOUS
  5
10C
 10
261.82
 20
295.761125
 30
0.0
 11
264.92
 21
298.861125
 31
0.0
  0
LINE
  8
LC-005-005-----0
  6
CONTINUOUS
  5
10D
 10
261.82
 20
298.589553
 30
0.0
 11
264.92
 21
301.689553
 31
0.0
  0
LINE
  8
LC-005-005-----0
  6
CONTINUOUS
  5
10E
 10
261.82
 20
301.41798
 30
0.0
 11
264.92
 21
304.51798
 31
0.0
  0
LINE
  8
LC-005-005-----0
  6
CONTINUOUS
  5
10F
 10
261.82
 20
304.246407
 30
0.0
 11
264.92
 21
307.346407
 31
0.0
  0
LINE
  8
LC-005-005-----0
  6
CONTINUOUS
  5
110
 10
261.82
 20
307.074834
 30
0.0
 11
264.92
 21
310.174834
 31
0.0
  0
LINE
  8
LC-005-005-----0
  6
CONTINUOUS
  5
111
 10
261.82
 20
309.903261
 30
0.0
 11
264.92
 21
313.003261
 31
0.0
  0
LINE
  8
LC-005-005-----0
  6
CONTINUOUS
  5
112
 10
261.82
 20
312.731688
 30
0.0
 11
264.92
 21
315.831688
 31
0.0
  0
LINE
  8
LC-005-005-----0
  6
CONTINUOUS
  5
113
 10
261.82
 20
315.560115
 30
0.0
 11
264.92
 21
318.660115
 31
0.0
  0
LINE
  8
LC-005-005-----0
  6
CONTINUOUS
  5
114
 10
261.82
 20
318.388542
 30
0.0
 11
264.92
 21
321.488542
 31
0.0
  0
LINE
  8
LC-005-005-----0
  6
CONTINUOUS
  5
115
 10
261.82
 20
321.21697
 30
0.0
 11
264.92
 21
324.31697
 31
0.0
  0
LINE
  8
LC-005-005-----0
  6
CONTINUOUS
  5
116
 10
261.82
 20
324.045397
 30
0.0
 11
264.92
 21
327.145397
 31
0.0
  0
LINE
  8
LC-005-005-----0
  6
CONTINUOUS
  5
117
 10
261.82
 20
326.873824
 30
0.0
 11
264.92
 21
329.973824
 31
0.0
  0
LINE
  8
LC-005-005-----0
  6
CONTINUOUS
  5
118
 10
261.82
 20
329.702251
 30
0.0
 11
264.92
 21
332.802251
 31
0.0
  0
LINE
  8
LC-005-005-----0
  6
CONTINUOUS
  5
119
 10
261.82
 20
332.530678
 30
0.0
 11
264.92
 21
335.630678
 31
0.0
  0
LINE
  8
LC-005-005-----0
  6
CONTINUOUS
  5
11A
 10
261.82
 20
335.359105
 30
0.0
 11
264.92
 21
338.459105
 31
0.0
  0
LINE
  8
LC-005-005-----0
  6
CONTINUOUS
  5
11B
 10
261.82
 20
338.187532
 30
0.0
 11
264.92
 21
341.287532
 31
0.0
  0
LINE
  8
LC-005-005-----0
  6
CONTINUOUS
  5
11C
 10
261.82
 20
341.015959
 30
0.0
 11
264.92
 21
344.115959
 31
0.0
  0
LINE
  8
LC-005-005-----0
  6
CONTINUOUS
  5
11D
 10
261.82
 20
343.844387
 30
0.0
 11
264.92
 21
346.944387
 31
0.0
  0
LINE
  8
LC-005-005-----0
  6
CONTINUOUS
  5
11E
 10
261.82
 20
346.672814
 30
0.0
 11
264.92
 21
349.772814
 31
0.0
  0
LINE
  8
LC-005-005-----0
  6
CONTINUOUS
  5
11F
 10
261.82
 20
349.501241
 30
0.0
 11
264.92
 21
352.601241
 31
0.0
  0
LINE
  8
LC-005-005-----0
  6
CONTINUOUS
  5
120
 10
261.82
 20
352.329668
 30
0.0
 11
264.92
 21
355.429668
 31
0.0
  0
LINE
  8
LC-005-005-----0
  6
CONTINUOUS
  5
121
 10
261.82
 20
355.158095
 30
0.0
 11
264.92
 21
358.258095
 31
0.0
  0
LINE
  8
LC-005-005-----0
  6
CONTINUOUS
  5
122
 10
261.82
 20
357.986522
 30
0.0
 11
264.92
 21
361.086522
 31
0.0
  0
LINE
  8
LC-005-005-----0
  6
CONTINUOUS
  5
123
 10
261.82
 20
360.814949
 30
0.0
 11
264.92
 21
363.914949
 31
0.0
  0
LINE
  8
LC-005-005-----0
  6
CONTINUOUS
  5
124
 10
261.82
 20
363.643376
 30
0.0
 11
264.543594
 21
366.366971
 31
0.0
  0
LINE
  8
LC-005-005-----0
  6
CONTINUOUS
  5
125
 10
261.230164
 20
365.881968
 30
0.0
 11
263.401077
 21
368.052881
 31
0.0
  0
LINE
  8
LC-005-005-----0
  6
CONTINUOUS
  5
126
 10
258.997577
 20
366.477808
 30
0.0
 11
261.667986
 21
369.148217
 31
0.0
  0
LINE
  8
LC-005-005-----0
  6
CONTINUOUS
  5
127
 10
256.842505
 20
367.151163
 30
0.0
 11
259.16579
 21
369.474448
 31
0.0
  0
LINE
  8
LC-005-005-----0
  6
CONTINUOUS
  5
128
 10
255.353034
 20
368.490119
 30
0.0
 11
257.535728
 21
370.672812
 31
0.0
  0
LINE
  8
LC-005-005-----0
  6
CONTINUOUS
  5
129
 10
254.477908
 20
370.44342
 30
0.0
 11
257.372692
 21
373.338204
 31
0.0
  0
LINE
  8
LC-005-005-----0
  6
CONTINUOUS
  5
12A
 10
254.372693
 20
373.166632
 30
0.0
 11
257.372678
 21
376.166617
 31
0.0
  0
LINE
  8
LC-005-005-----0
  6
CONTINUOUS
  5
12B
 10
254.372679
 20
375.995045
 30
0.0
 11
257.372664
 21
378.995031
 31
0.0
  0
LINE
  8
LC-005-005-----0
  6
CONTINUOUS
  5
12C
 10
257.730285
 20
379.352651
 30
0.0
 11
258.306522
 21
379.928889
 31
0.0
  0
LINE
  8
LC-005-005-----0
  6
CONTINUOUS
  5
12D
 10
254.336104
 20
378.786897
 30
0.0
 11
257.335722
 21
381.786516
 31
0.0
  0
LINE
  8
LC-005-005-----0
  6
CONTINUOUS
  5
12E
 10
251.507676
 20
378.786897
 30
0.0
 11
254.507295
 21
381.786516
 31
0.0
  0
LINE
  8
LC-005-005-----0
  6
CONTINUOUS
  5
12F
 10
248.679249
 20
378.786897
 30
0.0
 11
251.678868
 21
381.786516
 31
0.0
  0
LINE
  8
LC-005-005-----0
  6
CONTINUOUS
  5
130
 10
245.850822
 20
378.786897
 30
0.0
 11
248.850441
 21
381.786516
 31
0.0
  0
LINE
  8
LC-005-005-----0
  6
CONTINUOUS
  5
131
 10
243.595133
 20
379.359635
 30
0.0
 11
246.595052
 21
382.359554
 31
0.0
  0
LINE
  8
LC-005-005-----0
  6
CONTINUOUS
  5
132
 10
243.595017
 20
382.187946
 30
0.0
 11
246.594936
 21
385.187865
 31
0.0
  0
LINE
  8
LC-005-005-----0
  6
CONTINUOUS
  5
133
 10
243.594901
 20
385.016257
 30
0.0
 11
246.59482
 21
388.016176
 31
0.0
  0
LINE
  8
LC-005-005-----0
  6
CONTINUOUS
  5
134
 10
243.594784
 20
387.844568
 30
0.0
 11
246.594703
 21
390.844487
 31
0.0
  0
LINE
  8
LC-005-005-----0
  6
CONTINUOUS
  5
135
 10
242.675493
 20
389.753704
 30
0.0
 11
246.594587
 21
393.672797
 31
0.0
  0
LINE
  8
LC-005-005-----0
  6
CONTINUOUS
  5
136
 10
239.847002
 20
389.75364
 30
0.0
 11
242.917458
 21
392.824096
 31
0.0
  0
LINE
  8
LC-005-005-----0
  6
CONTINUOUS
  5
137
 10
244.010414
 20
393.917051
 30
0.0
 11
246.594471
 21
396.501108
 31
0.0
  0
LINE
  8
LC-005-005-----0
  6
CONTINUOUS
  5
138
 10
238.357758
 20
391.092823
 30
0.0
 11
241.354988
 21
394.090053
 31
0.0
  0
LINE
  8
LC-005-005-----0
  6
CONTINUOUS
  5
139
 10
244.238379
 20
396.973443
 30
0.0
 11
246.594354
 21
399.329419
 31
0.0
  0
LINE
  8
LC-005-005-----0
  6
CONTINUOUS
  5
13A
 10
238.357694
 20
393.921186
 30
0.0
 11
241.355832
 21
396.919324
 31
0.0
  0
LINE
  8
LC-005-005-----0
  6
CONTINUOUS
  5
13B
 10
238.35763
 20
396.749549
 30
0.0
 11
241.356677
 21
399.748596
 31
0.0
  0
LINE
  8
LC-005-005-----0
  6
CONTINUOUS
  5
13C
 10
238.357566
 20
399.577912
 30
0.0
 11
241.291169
 21
402.511515
 31
0.0
  0
LINE
  8
LC-005-005-----0
  6
CONTINUOUS
  5
13D
 10
235.836821
 20
399.885594
 30
0.0
 11
238.647598
 21
402.696371
 31
0.0
  0
LINE
  8
LC-005-005-----0
  6
CONTINUOUS
  5
13E
 10
233.19325
 20
400.070451
 30
0.0
 11
236.004027
 21
402.881228
 31
0.0
  0
LINE
  8
LC-005-005-----0
  6
CONTINUOUS
  5
13F
 10
230.549679
 20
400.255307
 30
0.0
 11
233.360457
 21
403.066084
 31
0.0
  0
LINE
  8
LC-005-005-----0
  6
CONTINUOUS
  5
140
 10
227.906109
 20
400.440163
 30
0.0
 11
230.716886
 21
403.25094
 31
0.0
  0
LINE
  8
LC-005-005-----0
  6
CONTINUOUS
  5
141
 10
225.262538
 20
400.62502
 30
0.0
 11
228.363155
 21
403.725636
 31
0.0
  0
LINE
  8
LC-005-005-----0
  6
CONTINUOUS
  5
142
 10
222.764804
 20
400.955713
 30
0.0
 11
226.232658
 21
404.423567
 31
0.0
  0
LINE
  8
LC-005-005-----0
  6
CONTINUOUS
  5
143
 10
220.677474
 20
401.69681
 30
0.0
 11
224.261987
 21
405.281323
 31
0.0
  0
LINE
  8
LC-005-005-----0
  6
CONTINUOUS
  5
144
 10
218.590144
 20
402.437907
 30
0.0
 11
222.01434
 21
405.862103
 31
0.0
  0
LINE
  8
LC-005-005-----0
  6
CONTINUOUS
  5
145
 10
216.502813
 20
403.179004
 30
0.0
 11
219.370769
 21
406.046959
 31
0.0
  0
LINE
  8
LC-005-005-----0
  6
CONTINUOUS
  5
146
 10
213.916421
 20
403.421038
 30
0.0
 11
216.727198
 21
406.231815
 31
0.0
  0
LINE
  8
LC-005-005-----0
  6
CONTINUOUS
  5
147
 10
211.27285
 20
403.605895
 30
0.0
 11
214.083627
 21
406.416672
 31
0.0
  0
LINE
  8
LC-005-005-----0
  6
CONTINUOUS
  5
148
 10
208.629279
 20
403.790751
 30
0.0
 11
211.440056
 21
406.601528
 31
0.0
  0
LINE
  8
LC-005-005-----0
  6
CONTINUOUS
  5
149
 10
205.985709
 20
403.975607
 30
0.0
 11
208.796486
 21
406.786384
 31
0.0
  0
LINE
  8
LC-005-005-----0
  6
CONTINUOUS
  5
14A
 10
203.342138
 20
404.160464
 30
0.0
 11
206.152915
 21
406.971241
 31
0.0
  0
LINE
  8
LC-005-005-----0
  6
CONTINUOUS
  5
14B
 10
200.698567
 20
404.34532
 30
0.0
 11
203.509344
 21
407.156097
 31
0.0
  0
LINE
  8
LC-005-005-----0
  6
CONTINUOUS
  5
14C
 10
198.054996
 20
404.530176
 30
0.0
 11
200.865773
 21
407.340953
 31
0.0
  0
LINE
  8
LC-005-005-----0
  6
CONTINUOUS
  5
14D
 10
195.411425
 20
404.715033
 30
0.0
 11
198.222202
 21
407.52581
 31
0.0
  0
LINE
  8
LC-005-005-----0
  6
CONTINUOUS
  5
14E
 10
192.767854
 20
404.899889
 30
0.0
 11
195.578632
 21
407.710666
 31
0.0
  0
LINE
  8
LC-005-005-----0
  6
CONTINUOUS
  5
14F
 10
190.124284
 20
405.084745
 30
0.0
 11
192.935061
 21
407.895522
 31
0.0
  0
LINE
  8
LC-005-005-----0
  6
CONTINUOUS
  5
150
 10
187.480713
 20
405.269601
 30
0.0
 11
190.29149
 21
408.080379
 31
0.0
  0
LINE
  8
LC-005-005-----0
  6
CONTINUOUS
  5
151
 10
184.837142
 20
405.454458
 30
0.0
 11
187.647919
 21
408.265235
 31
0.0
  0
LINE
  8
LC-005-005-----0
  6
CONTINUOUS
  5
152
 10
183.568257
 20
407.014
 30
0.0
 11
185.004348
 21
408.450091
 31
0.0
  0
ENDBLK
  8
0
  5
153
  0
BLOCK
  8
0
  5
155
  2
*D7
 70
    65
 10
0.0
 20
0.0
 30
0.0
  3
*D7
  0
LINE
  8
LC-007-003-MTH-0
  6
CONTINUOUS
  5
156
 10
264.92
 20
186.463716
 30
0.0
 11
140.0
 21
186.463716
 31
0.0
  0
LINE
  8
LC-007-003-MTH-0
  6
CONTINUOUS
  5
157
 10
183.568257
 20
405.543187
 30
0.0
 11
140.0
 21
405.543187
 31
0.0
  0
LINE
  8
LC-008-003-MTG-0
  6
CONTINUOUS
  5
158
 10
156.8
 20
186.463716
 30
0.0
 11
156.8
 21
405.543187
 31
0.0
  0
LINE
  8
LC-006-003-----0
  6
CONTINUOUS
  5
159
 10
153.145267
 20
214.224172
 30
0.0
 11
156.8
 21
186.463716
 31
0.0
  0
LINE
  8
LC-006-003-----0
  6
CONTINUOUS
  5
15A
 10
156.8
 20
186.463716
 30
0.0
 11
160.454733
 21
214.224172
 31
0.0
  0
LINE
  8
LC-006-003-----0
  6
CONTINUOUS
  5
15B
 10
160.454733
 20
214.224172
 30
0.0
 11
153.145267
 21
214.224172
 31
0.0
  0
LINE
  8
LC-006-003-----0
  6
CONTINUOUS
  5
15C
 10
154.095497
 20
214.286454
 30
0.0
 11
156.8
 21
193.743716
 31
0.0
  0
LINE
  8
LC-006-003-----0
  6
CONTINUOUS
  5
15D
 10
156.8
 20
193.743716
 30
0.0
 11
159.504503
 21
214.286454
 31
0.0
  0
LINE
  8
LC-006-003-----0
  6
CONTINUOUS
  5
15E
 10
155.045728
 20
214.348735
 30
0.0
 11
156.8
 21
201.023716
 31
0.0
  0
LINE
  8
LC-006-003-----0
  6
CONTINUOUS
  5
15F
 10
156.8
 20
201.023716
 30
0.0
 11
158.554272
 21
214.348735
 31
0.0
  0
LINE
  8
LC-006-003-----0
  6
CONTINUOUS
  5
160
 10
155.995959
 20
214.411016
 30
0.0
 11
156.8
 21
208.303716
 31
0.0
  0
LINE
  8
LC-006-003-----0
  6
CONTINUOUS
  5
161
 10
156.8
 20
208.303716
 30
0.0
 11
157.604041
 21
214.411016
 31
0.0
  0
LINE
  8
LC-006-003-----0
  6
CONTINUOUS
  5
162
 10
160.454733
 20
377.782731
 30
0.0
 11
156.8
 21
405.543187
 31
0.0
  0
LINE
  8
LC-006-003-----0
  6
CONTINUOUS
  5
163
 10
156.8
 20
405.543187
 30
0.0
 11
153.145267
 21
377.782731
 31
0.0
  0
LINE
  8
LC-006-003-----0
  6
CONTINUOUS
  5
164
 10
153.145267
 20
377.782731
 30
0.0
 11
160.454733
 21
377.782731
 31
0.0
  0
LINE
  8
LC-006-003-----0
  6
CONTINUOUS
  5
165
 10
159.504503
 20
377.720449
 30
0.0
 11
156.8
 21
398.263187
 31
0.0
  0
LINE
  8
LC-006-003-----0
  6
CONTINUOUS
  5
166
 10
156.8
 20
398.263187
 30
0.0
 11
154.095497
 21
377.720449
 31
0.0
  0
LINE
  8
LC-006-003-----0
  6
CONTINUOUS
  5
167
 10
158.554272
 20
377.658168
 30
0.0
 11
156.8
 21
390.983187
 31
0.0
  0
LINE
  8
LC-006-003-----0
  6
CONTINUOUS
  5
168
 10
156.8
 20
390.983187
 30
0.0
 11
155.045728
 21
377.658168
 31
0.0
  0
LINE
  8
LC-006-003-----0
  6
CONTINUOUS
  5
169
 10
157.604041
 20
377.595886
 30
0.0
 11
156.8
 21
383.703187
 31
0.0
  0
LINE
  8
LC-006-003-----0
  6
CONTINUOUS
  5
16A
 10
156.8
 20
383.703187
 30
0.0
 11
155.995959
 21
377.595886
 31
0.0
  0
TEXT
  8
LC-006-003-----0
  6
CONTINUOUS
 62
     8
  5
16B
 10
148.972446
 20
270.587832
 30
0.0
 40
28.0
  1
220
 50
90.0
 51
15.0
  7
LC-TXTSTYLE-150-400-0-0-D0
 72
     1
 11
148.972446
 21
300.351611
 31
0.0
  0
ENDBLK
  8
0
  5
16C
  0
BLOCK
  8
0
  5
16E
  2
*X8
 70
    65
 10
255.519019
 20
83.084432
 30
0.0
  3
*X8
  0
LINE
  8
LC-005-005-----0
  6
CONTINUOUS
  5
16F
 10
261.919222
 20
83.728313
 30
0.0
 11
262.829544
 21
84.638635
 31
0.0
  0
LINE
  8
LC-005-005-----0
  6
CONTINUOUS
  5
170
 10
258.447342
 20
83.08486
 30
0.0
 11
261.930062
 21
86.56758
 31
0.0
  0
LINE
  8
LC-005-005-----0
  6
CONTINUOUS
  5
171
 10
256.020434
 20
83.48638
 30
0.0
 11
261.03058
 21
88.496525
 31
0.0
  0
LINE
  8
LC-005-005-----0
  6
CONTINUOUS
  5
172
 10
262.340609
 20
89.806554
 30
0.0
 11
263.097563
 21
90.563508
 31
0.0
  0
LINE
  8
LC-005-005-----0
  6
CONTINUOUS
  5
173
 10
256.019936
 20
86.314308
 30
0.0
 11
260.131098
 21
90.425471
 31
0.0
  0
LINE
  8
LC-005-005-----0
  6
CONTINUOUS
  5
174
 10
260.924362
 20
91.218734
 30
0.0
 11
262.198081
 21
92.492454
 31
0.0
  0
LINE
  8
LC-005-005-----0
  6
CONTINUOUS
  5
175
 10
256.003038
 20
89.125837
 30
0.0
 11
261.298599
 21
94.421399
 31
0.0
  0
LINE
  8
LC-005-005-----0
  6
CONTINUOUS
  5
176
 10
262.525668
 20
95.648467
 30
0.0
 11
263.206684
 21
96.329484
 31
0.0
  0
LINE
  8
LC-005-005-----0
  6
CONTINUOUS
  5
177
 10
255.522175
 20
91.473401
 30
0.0
 11
260.399117
 21
96.350344
 31
0.0
  0
LINE
  8
LC-005-005-----0
  6
CONTINUOUS
  5
178
 10
261.07985
 20
97.031077
 30
0.0
 11
262.307202
 21
98.258429
 31
0.0
  0
LINE
  8
LC-005-005-----0
  6
CONTINUOUS
  5
179
 10
256.360278
 20
95.139932
 30
0.0
 11
261.40772
 21
100.187374
 31
0.0
  0
LINE
  8
LC-005-005-----0
  6
CONTINUOUS
  5
17A
 10
255.558314
 20
97.166395
 30
0.0
 11
259.977007
 21
101.585088
 31
0.0
  0
ENDBLK
  8
0
  5
17B
  0
BLOCK
  8
0
  5
17D
  2
*X9
 70
    65
 10
399.015665
 20
83.084432
 30
0.0
  3
*X9
  0
LINE
  8
LC-005-005-----0
  6
CONTINUOUS
  5
17E
 10
411.182214
 20
83.084667
 30
0.0
 11
412.514414
 21
84.416867
 31
0.0
  0
LINE
  8
LC-005-005-----0
  6
CONTINUOUS
  5
17F
 10
408.514207
 20
83.245088
 30
0.0
 11
412.514913
 21
87.245793
 31
0.0
  0
LINE
  8
LC-005-005-----0
  6
CONTINUOUS
  5
180
 10
405.567333
 20
83.126641
 30
0.0
 11
412.909447
 21
90.468755
 31
0.0
  0
LINE
  8
LC-005-005-----0
  6
CONTINUOUS
  5
181
 10
406.975766
 20
87.363501
 30
0.0
 11
412.842628
 21
93.230363
 31
0.0
  0
LINE
  8
LC-005-005-----0
  6
CONTINUOUS
  5
182
 10
408.107458
 20
91.32362
 30
0.0
 11
412.549907
 21
95.766069
 31
0.0
  0
LINE
  8
LC-005-005-----0
  6
CONTINUOUS
  5
183
 10
406.23939
 20
92.283979
 30
0.0
 11
412.866021
 21
98.91061
 31
0.0
  0
LINE
  8
LC-005-005-----0
  6
CONTINUOUS
  5
184
 10
408.052157
 20
96.925173
 30
0.0
 11
411.877781
 21
100.750797
 31
0.0
  0
LINE
  8
LC-005-005-----0
  6
CONTINUOUS
  5
185
 10
405.939582
 20
97.641025
 30
0.0
 11
409.883411
 21
101.584855
 31
0.0
  0
ENDBLK
  8
0
  5
186
  0
BLOCK
  8
0
  5
188
  2
BLK3
 70
    64
 10
0.0
 20
0.0
 30
0.0
  3
BLK3
  0
ENDBLK
  8
0
  5
189
  0
BLOCK
  8
0
  5
18B
  2
*X11
 70
    65
 10
404.693464
 20
382.465968
 30
0.0
  3
*X11
  0
LINE
  8
LC-005-005-----0
  6
CONTINUOUS
  5
18C
 10
404.693464
 20
384.437704
 30
0.0
 11
406.6652
 21
382.465968
 31
0.0
  0
LINE
  8
LC-005-005-----0
  6
CONTINUOUS
  5
18D
 10
406.493627
 20
385.465968
 30
0.0
 11
409.493627
 21
382.465968
 31
0.0
  0
LINE
  8
LC-005-005-----0
  6
CONTINUOUS
  5
18E
 10
407.443464
 20
387.344558
 30
0.0
 11
412.322054
 21
382.465968
 31
0.0
  0
LINE
  8
LC-005-005-----0
  6
CONTINUOUS
  5
18F
 10
407.443464
 20
390.172985
 30
0.0
 11
414.192578
 21
383.423872
 31
0.0
  0
LINE
  8
LC-005-005-----0
  6
CONTINUOUS
  5
190
 10
407.443464
 20
393.001412
 30
0.0
 11
414.193464
 21
386.251412
 31
0.0
  0
LINE
  8
LC-005-005-----0
  6
CONTINUOUS
  5
191
 10
407.443464
 20
395.829839
 30
0.0
 11
414.193464
 21
389.079839
 31
0.0
  0
LINE
  8
LC-005-005-----0
  6
CONTINUOUS
  5
192
 10
407.443464
 20
398.658267
 30
0.0
 11
414.193464
 21
391.908267
 31
0.0
  0
LINE
  8
LC-005-005-----0
  6
CONTINUOUS
  5
193
 10
407.984592
 20
400.945566
 30
0.0
 11
414.193464
 21
394.736694
 31
0.0
  0
LINE
  8
LC-005-005-----0
  6
CONTINUOUS
  5
194
 10
410.446593
 20
401.311992
 30
0.0
 11
414.193464
 21
397.565121
 31
0.0
  0
LINE
  8
LC-005-005-----0
  6
CONTINUOUS
  5
195
 10
413.090164
 20
401.496848
 30
0.0
 11
415.432478
 21
399.154534
 31
0.0
  0
LINE
  8
LC-005-005-----0
  6
CONTINUOUS
  5
196
 10
415.733734
 20
401.681705
 30
0.0
 11
418.076048
 21
399.339391
 31
0.0
  0
LINE
  8
LC-005-005-----0
  6
CONTINUOUS
  5
197
 10
418.377305
 20
401.866561
 30
0.0
 11
420.719619
 21
399.524247
 31
0.0
  0
LINE
  8
LC-005-005-----0
  6
CONTINUOUS
  5
198
 10
424.760629
 20
395.483237
 30
0.0
 11
424.777899
 21
395.465968
 31
0.0
  0
LINE
  8
LC-005-005-----0
  6
CONTINUOUS
  5
199
 10
421.020876
 20
402.051418
 30
0.0
 11
423.36319
 21
399.709104
 31
0.0
  0
LINE
  8
LC-005-005-----0
  6
CONTINUOUS
  5
19A
 10
424.193249
 20
398.879044
 30
0.0
 11
426.151332
 21
396.920961
 31
0.0
  0
LINE
  8
LC-005-005-----0
  6
CONTINUOUS
  5
19B
 10
423.664446
 20
402.236274
 30
0.0
 11
426.504903
 21
399.395817
 31
0.0
  0
LINE
  8
LC-005-005-----0
  6
CONTINUOUS
  5
19C
 10
426.308017
 20
402.421131
 30
0.0
 11
426.858474
 21
401.870673
 31
0.0
  0
ENDBLK
  8
0
  5
19D
  0
BLOCK
  8
0
  5
19F
  2
*X12
 70
    65
 10
241.69719
 20
382.474971
 30
0.0
  3
*X12
  0
LINE
  8
LC-005-005-----0
  6
CONTINUOUS
  5
1A0
 10
242.521784
 20
396.702747
 30
0.0
 11
243.749559
 21
395.474971
 31
0.0
  0
LINE
  8
LC-005-005-----0
  6
CONTINUOUS
  5
1A1
 10
254.44719
 20
384.77734
 30
0.0
 11
256.749559
 21
382.474971
 31
0.0
  0
LINE
  8
LC-005-005-----0
  6
CONTINUOUS
  5
1A2
 10
242.050348
 20
400.00261
 30
0.0
 11
244.447405
 21
397.605552
 31
0.0
  0
LINE
  8
LC-005-005-----0
  6
CONTINUOUS
  5
1A3
 10
254.44719
 20
387.605767
 30
0.0
 11
259.577986
 21
382.474971
 31
0.0
  0
LINE
  8
LC-005-005-----0
  6
CONTINUOUS
  5
1A4
 10
242.460168
 20
402.421216
 30
0.0
 11
245.154693
 21
399.726692
 31
0.0
  0
LINE
  8
LC-005-005-----0
  6
CONTINUOUS
  5
1A5
 10
254.44719
 20
390.434194
 30
0.0
 11
262.406414
 21
382.474971
 31
0.0
  0
LINE
  8
LC-005-005-----0
  6
CONTINUOUS
  5
1A6
 10
245.501249
 20
402.208563
 30
0.0
 11
248.195773
 21
399.514039
 31
0.0
  0
LINE
  8
LC-005-005-----0
  6
CONTINUOUS
  5
1A7
 10
254.44719
 20
393.262621
 30
0.0
 11
261.19719
 21
386.512621
 31
0.0
  0
LINE
  8
LC-005-005-----0
  6
CONTINUOUS
  5
1A8
 10
262.234841
 20
385.474971
 30
0.0
 11
263.94719
 21
383.762621
 31
0.0
  0
LINE
  8
LC-005-005-----0
  6
CONTINUOUS
  5
1A9
 10
248.542329
 20
401.99591
 30
0.0
 11
251.236853
 21
399.301386
 31
0.0
  0
LINE
  8
LC-005-005-----0
  6
CONTINUOUS
  5
1AA
 10
254.44719
 20
396.091048
 30
0.0
 11
261.19719
 21
389.341048
 31
0.0
  0
LINE
  8
LC-005-005-----0
  6
CONTINUOUS
  5
1AB
 10
251.583409
 20
401.783257
 30
0.0
 11
254.277933
 21
399.088733
 31
0.0
  0
LINE
  8
LC-005-005-----0
  6
CONTINUOUS
  5
1AC
 10
254.44719
 20
398.919476
 30
0.0
 11
261.19719
 21
392.169476
 31
0.0
  0
LINE
  8
LC-005-005-----0
  6
CONTINUOUS
  5
1AD
 10
254.624489
 20
401.570604
 30
0.0
 11
261.19719
 21
394.997903
 31
0.0
  0
LINE
  8
LC-005-005-----0
  6
CONTINUOUS
  5
1AE
 10
257.665569
 20
401.357951
 30
0.0
 11
261.19719
 21
397.82633
 31
0.0
  0
ENDBLK
  8
0
  5
1AF
  0
BLOCK
  8
0
  5
1B1
  2
BLK4
 70
    64
 10
0.0
 20
0.0
 30
0.0
  3
BLK4
  0
ENDBLK
  8
0
  5
1B2
  0
ENDSEC
  0
SECTION
  2
ENTITIES
  0
VIEWPORT
  8
LC-000
  5
289
 67
     1
 68
     1
 10
420.0
 20
297.0
 30
0.0
 40
840.0
 41
594.0
 69
     1
1001
ACAD
1000
MVIEW
1002
{
1070
    16
1010
0.0
1020
0.0
1030
0.0
1010
0.0
1020
0.0
1030
1.0
1040
0.0
1040
594.0
1040
420.0
1040
297.0
1040
50.0
1040
0.0
1040
0.0
1070
     0
1070
   100
1070
     1
1070
     1
1070
     0
1070
     0
1070
     0
1070
     0
1040
0.0
1040
0.0
1040
0.0
1040
1.0
1040
1.0
1040
0.0
1040
0.0
1070
     0
1002
{
1002
}
1002
}
  0
VIEWPORT
  8
0
  5
28A
 67
     1
 68
     1
 10
0.0
 20
0.0
 30
0.0
 40
0.0
 41
0.0
 69
     1
1001
ACAD
1000
MVIEW
1002
{
1070
    16
1010
0.0
1020
0.0
1030
0.0
1010
0.0
1020
0.0
1030
1.0
1040
0.0
1040
594.0
1040
0.0
1040
0.0
1040
50.0
1040
0.0
1040
0.0
1070
     0
1070
   100
1070
     0
1070
     1
1070
     0
1070
     0
1070
     0
1070
     0
1040
0.0
1040
0.0
1040
0.0
1040
0.5
1040
0.5
1040
0.5
1040
0.5
1070
     0
1002
{
1002
}
1002
}
  0
INSERT
  8
0
  5
1B4
  2
BLK1
 10
0.0
 20
0.0
 30
0.0
  0
INSERT
  8
0
  5
1B5
  2
BLK2
 10
0.0
 20
0.0
 30
0.0
  0
DIMENSION
  8
0
  5
1B6
  2
*D2
 10
334.32
 20
434.0
 30
0.0
 11
334.32
 21
434.0
 31
0.0
  1
%%c300
 13
183.568257
 23
408.550513
 33
0.0
 14
485.071743
 24
408.550513
 34
0.0
  3
LC-DIM-L-0140-02-02
  0
DIMENSION
  8
0
  5
1B7
  2
*D3
 10
196.0
 20
276.463716
 30
0.0
 11
196.0
 21
276.463716
 31
0.0
 13
260.397699
 23
366.463716
 33
0.0
 14
274.92
 24
186.463716
 34
0.0
 50
90.0
  3
LC-DIM-L-0140-02-02
  0
INSERT
  8
0
  5
1B8
  2
*X4
 10
403.72
 20
186.463716
 30
0.0
  0
DIMENSION
  8
0
  5
1B9
  2
*D5
 10
334.32
 20
117.6
 30
0.0
 11
334.32
 21
117.6
 31
0.0
  1
%%c<>
 13
261.82
 23
191.463716
 33
0.0
 14
406.82
 24
191.463716
 34
0.0
  3
LC-DIM-L-0140-02-02
  0
INSERT
  8
0
  5
1BA
  2
*X6
 10
183.568257
 20
186.463716
 30
0.0
  0
DIMENSION
  8
0
  5
1BB
  2
*D7
 10
156.8
 20
296.003451
 30
0.0
 11
156.8
 21
296.003451
 31
0.0
  1
220
 13
183.568257
 23
405.543187
 33
0.0
 14
264.92
 24
186.463716
 34
0.0
 50
90.0
  3
LC-DIM-L-0140-02-02
  0
INSERT
  8
0
  5
1BC
  2
*X8
 10
255.519019
 20
83.084432
 30
0.0
  0
INSERT
  8
0
  5
1BD
  2
*X9
 10
399.015665
 20
83.084432
 30
0.0
  0
INSERT
  8
0
  5
1BE
  2
BLK3
 10
0.0
 20
0.0
 30
0.0
  0
INSERT
  8
0
  5
1BF
  2
*X11
 10
404.693464
 20
382.465968
 30
0.0
  0
INSERT
  8
0
  5
1C0
  2
*X12
 10
241.69719
 20
382.474971
 30
0.0
  0
INSERT
  8
0
  5
1C1
  2
BLK4
 10
0.0
 20
0.0
 30
0.0
  0
ARC
  8
LC-002-002-----0
  6
CONTINUOUS
  5
1C3
 10
234.566962
 20
426.264059
 30
0.0
 40
23.376649
 50
241.241457
 51
259.532639
  0
LINE
  8
LC-003-001-----0
  6
CONTINUOUS
  5
1C5
 10
223.32
 20
400.758593
 30
0.0
 11
238.357563
 21
399.707065
 31
0.0
  0
LINE
  8
LC-002-002-----0
  6
CONTINUOUS
  5
1C6
 10
216.288248
 20
403.255184
 30
0.0
 11
223.32
 21
400.758593
 31
0.0
  0
LINE
  8
LC-002-002-----0
  6
CONTINUOUS
  5
1C7
 10
183.568257
 20
405.543187
 30
0.0
 11
216.288248
 21
403.255184
 31
0.0
  0
LINE
  8
LC-002-002-----0
  6
CONTINUOUS
  5
1C8
 10
183.568257
 20
408.550513
 30
0.0
 11
183.568257
 21
405.543187
 31
0.0
  0
LINE
  8
LC-002-002-----0
  6
CONTINUOUS
  5
1C9
 10
485.071743
 20
408.550513
 30
0.0
 11
445.32
 21
405.770802
 31
0.0
  0
ARC
  8
LC-002-002-----0
  6
CONTINUOUS
  5
1CA
 10
434.073038
 20
426.264059
 30
0.0
 40
23.376649
 50
280.467361
 51
298.758543
  0
LINE
  8
LC-002-002-----0
  6
CONTINUOUS
  5
1CB
 10
452.351752
 20
403.255184
 30
0.0
 11
445.32
 21
400.758593
 31
0.0
  0
LINE
  8
LC-002-002-----0
  6
CONTINUOUS
  5
1CC
 10
485.071743
 20
405.543187
 30
0.0
 11
452.351752
 21
403.255184
 31
0.0
  0
LINE
  8
LC-002-002-----0
  6
CONTINUOUS
  5
1CD
 10
485.071743
 20
408.550513
 30
0.0
 11
485.071743
 21
405.543187
 31
0.0
  0
ARC
  8
LC-002-002-----0
  6
CONTINUOUS
  5
1CE
 10
408.82
 20
364.463716
 30
0.0
 40
2.0
 50
90.0
 51
180.0
  0
LINE
  8
LC-002-002-----0
  6
CONTINUOUS
  5
1CF
 10
406.82
 20
364.463716
 30
0.0
 11
406.82
 21
346.463716
 31
0.0
  0
LINE
  8
LC-002-002-----0
  6
CONTINUOUS
  5
1D0
 10
263.159746
 20
186.463716
 30
0.0
 11
405.480254
 21
186.463716
 31
0.0
  0
LINE
  8
LC-002-002-----0
  6
CONTINUOUS
  5
1D1
 10
403.72
 20
346.463716
 30
0.0
 11
403.72
 21
186.463716
 31
0.0
  0
LINE
  8
LC-002-002-----0
  6
CONTINUOUS
  5
1D2
 10
406.82
 20
346.463716
 30
0.0
 11
406.82
 21
191.463716
 31
0.0
  0
LINE
  8
LC-002-002-----0
  6
CONTINUOUS
  5
1D3
 10
406.82
 20
191.463716
 30
0.0
 11
405.480254
 21
186.463716
 31
0.0
  0
LINE
  8
LC-002-002-----0
  6
DASHDOT
 62
     2
  5
1D5
 10
334.32
 20
265.261852
 30
0.0
 11
334.32
 21
186.463716
 31
0.0
  0
LINE
  8
LC-002-002-----0
  6
CONTINUOUS
  5
1D6
 10
438.282789
 20
403.276091
 30
0.0
 11
427.2825
 21
402.506877
 31
0.0
  0
LINE
  8
LC-002-002-----0
  6
CONTINUOUS
  5
1D7
 10
414.281626
 20
378.786897
 30
0.0
 11
425.045017
 21
378.786897
 31
0.0
  0
LINE
  8
LC-002-002-----0
  6
CONTINUOUS
  5
1D8
 10
424.193249
 20
399.767147
 30
0.0
 11
424.716352
 21
392.753759
 31
0.0
  0
LINE
  8
LC-002-002-----0
  6
CONTINUOUS
  5
1D9
 10
426.349295
 20
392.867909
 30
0.0
 11
424.716352
 21
392.753759
 31
0.0
  0
ARC
  8
LC-002-002-----0
  6
CONTINUOUS
  5
1DA
 10
426.279148
 20
393.871389
 30
0.0
 40
1.005929
 50
273.998698
 51
359.998449
  0
LINE
  8
LC-003-001-----0
  6
CONTINUOUS
  5
1DB
 10
445.282789
 20
400.758253
 30
0.0
 11
430.282288
 21
399.709317
 31
0.0
  0
LINE
  8
LC-002-002-----0
  6
CONTINUOUS
  5
1DC
 10
411.26735
 20
381.786516
 30
0.0
 11
422.044968
 21
381.786516
 31
0.0
  0
LINE
  8
LC-002-002-----0
  6
CONTINUOUS
  5
1DD
 10
430.282437
 20
399.707179
 30
0.0
 11
430.282212
 21
389.753606
 31
0.0
  0
LINE
  8
LC-002-002-----0
  6
CONTINUOUS
  5
1DE
 10
427.2825
 20
402.504792
 30
0.0
 11
427.282305
 21
393.871362
 31
0.0
  0
LINE
  8
LC-002-002-----0
  6
CONTINUOUS
  5
1DF
 10
427.2825
 20
402.504792
 30
0.0
 11
427.282305
 21
393.871366
 31
0.0
  0
LINE
  8
LC-002-002-----0
  6
CONTINUOUS
  5
1E0
 10
430.282212
 20
389.753606
 30
0.0
 11
425.045294
 21
389.753725
 31
0.0
  0
LINE
  8
LC-002-002-----0
  6
CONTINUOUS
  5
1E1
 10
425.045294
 20
389.753725
 30
0.0
 11
425.044843
 21
378.786897
 31
0.0
  0
LINE
  8
LC-002-002-----0
  6
CONTINUOUS
  5
1E2
 10
410.267345
 20
380.78652
 30
0.0
 11
410.267342
 21
380.28652
 31
0.0
  0
ARC
  8
LC-002-002-----0
  6
CONTINUOUS
  5
1E3
 10
408.72
 20
364.463716
 30
0.0
 40
5.0
 50
90.0
 51
180.0
  0
LINE
  8
LC-002-002-----0
  6
CONTINUOUS
  5
1E4
 10
403.72
 20
364.463716
 30
0.0
 11
403.72
 21
346.463716
 31
0.0
  0
LINE
  8
LC-002-002-----0
  6
CONTINUOUS
  5
1E5
 10
414.267335
 20
378.786897
 30
0.0
 11
414.267299
 21
371.463692
 31
0.0
  0
ARC
  8
LC-002-002-----0
  6
CONTINUOUS
  5
1E6
 10
409.267299
 20
371.463716
 30
0.0
 40
5.0
 50
270.0
 51
359.99972
  0
LINE
  8
LC-002-002-----0
  6
CONTINUOUS
  5
1E7
 10
334.32
 20
369.463716
 30
0.0
 11
409.267299
 21
369.463716
 31
0.0
  0
ARC
  8
LC-002-002-----0
  6
CONTINUOUS
  5
1E8
 10
409.267299
 20
371.463716
 30
0.0
 40
2.0
 50
270.0
 51
359.99972
  0
LINE
  8
LC-002-002-----0
  6
CONTINUOUS
  5
1E9
 10
411.267337
 20
379.286516
 30
0.0
 11
411.267299
 21
371.463706
 31
0.0
  0
LINE
  8
LC-002-002-----0
  6
CONTINUOUS
  5
1EA
 10
254.358374
 20
378.786897
 30
0.0
 11
243.594983
 21
378.786897
 31
0.0
  0
LINE
  8
LC-002-002-----0
  6
CONTINUOUS
  5
1EB
 10
242.290705
 20
392.867909
 30
0.0
 11
243.923648
 21
392.753759
 31
0.0
  0
ARC
  8
LC-002-002-----0
  6
CONTINUOUS
  5
1EC
 10
242.360852
 20
393.871389
 30
0.0
 40
1.005929
 50
180.001551
 51
266.001302
  0
LINE
  8
LC-002-002-----0
  6
CONTINUOUS
  5
1ED
 10
238.357563
 20
399.707179
 30
0.0
 11
238.357788
 21
389.753606
 31
0.0
  0
LINE
  8
LC-002-002-----0
  6
CONTINUOUS
  5
1EE
 10
241.3575
 20
402.504792
 30
0.0
 11
241.357695
 21
393.871362
 31
0.0
  0
LINE
  8
LC-002-002-----0
  6
CONTINUOUS
  5
1EF
 10
241.3575
 20
402.504792
 30
0.0
 11
241.357695
 21
393.871366
 31
0.0
  0
LINE
  8
LC-002-002-----0
  6
CONTINUOUS
  5
1F0
 10
238.357788
 20
389.753606
 30
0.0
 11
243.594706
 21
389.753725
 31
0.0
  0
LINE
  8
LC-002-002-----0
  6
CONTINUOUS
  5
1F1
 10
243.594706
 20
389.753725
 30
0.0
 11
243.595157
 21
378.786897
 31
0.0
  0
LINE
  8
LC-002-002-----0
  6
CONTINUOUS
  5
1F2
 10
246.594343
 20
399.617369
 30
0.0
 11
246.595076
 21
381.786897
 31
0.0
  0
LINE
  8
LC-002-002-----0
  6
CONTINUOUS
  5
1F3
 10
254.358374
 20
378.786897
 30
0.0
 11
243.594983
 21
378.786897
 31
0.0
  0
LINE
  8
LC-005-005-----0
  6
CONTINUOUS
  5
1F4
 10
183.568257
 20
408.428214
 30
0.0
 11
183.682563
 21
408.542519
 31
0.0
  0
LINE
  8
LC-002-002-----0
  6
CONTINUOUS
  5
1F5
 10
257.372655
 20
381.786516
 30
0.0
 11
246.595032
 21
381.786516
 31
0.0
  0
ARC
  8
LC-002-002-----0
  6
CONTINUOUS
  5
1F6
 10
257.372655
 20
380.786516
 30
0.0
 40
1.0
 50
0.00028
 51
90.00028
  0
LINE
  8
LC-002-002-----0
  6
CONTINUOUS
  5
1F7
 10
258.372655
 20
380.78652
 30
0.0
 11
258.372658
 21
380.28652
 31
0.0
  0
ARC
  8
LC-002-002-----0
  6
CONTINUOUS
  5
1F8
 10
257.372658
 20
380.286516
 30
0.0
 40
1.0
 50
270.00028
 51
0.00028
  0
LINE
  8
LC-002-002-----0
  6
CONTINUOUS
  5
1F9
 10
254.372665
 20
378.786897
 30
0.0
 11
254.372701
 21
371.463692
 31
0.0
  0
LINE
  8
LC-002-002-----0
  6
CONTINUOUS
  5
1FA
 10
334.32
 20
369.463716
 30
0.0
 11
259.372701
 21
369.463716
 31
0.0
  0
ARC
  8
LC-002-002-----0
  6
CONTINUOUS
  5
1FB
 10
259.372701
 20
371.463716
 30
0.0
 40
2.0
 50
180.00028
 51
270.0
  0
LINE
  8
LC-002-002-----0
  6
CONTINUOUS
  5
1FC
 10
257.372663
 20
379.286516
 30
0.0
 11
257.372701
 21
371.463706
 31
0.0
  0
ARC
  8
LC-002-002-----0
  6
CONTINUOUS
  5
1FD
 10
259.372701
 20
371.463716
 30
0.0
 40
5.0
 50
180.00028
 51
270.0
  0
LINE
  8
LC-002-002-----0
  6
CONTINUOUS
  5
1FE
 10
408.82
 20
366.463716
 30
0.0
 11
409.267299
 21
366.463716
 31
0.0
  0
ARC
  8
LC-002-002-----0
  6
CONTINUOUS
  5
1FF
 10
411.267345
 20
380.786516
 30
0.0
 40
1.0
 50
89.99972
 51
179.99972
  0
ARC
  8
LC-002-002-----0
  6
CONTINUOUS
  5
200
 10
411.267342
 20
380.286516
 30
0.0
 40
1.0
 50
179.99972
 51
269.99972
  0
LINE
  8
LC-002-002-----0
  6
CONTINUOUS
  5
201
 10
261.82
 20
346.463716
 30
0.0
 11
261.82
 21
191.463716
 31
0.0
  0
LINE
  8
LC-002-002-----0
  6
CONTINUOUS
  5
202
 10
264.92
 20
346.463716
 30
0.0
 11
264.92
 21
186.463716
 31
0.0
  0
LINE
  8
LC-002-002-----0
  6
CONTINUOUS
  5
203
 10
261.82
 20
364.463716
 30
0.0
 11
261.82
 21
346.463716
 31
0.0
  0
LINE
  8
LC-002-002-----0
  6
CONTINUOUS
  5
204
 10
264.92
 20
364.463716
 30
0.0
 11
264.92
 21
346.463716
 31
0.0
  0
LINE
  8
LC-002-002-----0
  6
CONTINUOUS
  5
205
 10
261.82
 20
191.463716
 30
0.0
 11
263.159746
 21
186.463716
 31
0.0
  0
ARC
  8
LC-002-002-----0
  6
CONTINUOUS
  5
206
 10
259.92
 20
364.463716
 30
0.0
 40
5.0
 50
0.0
 51
90.0
  0
ARC
  8
LC-002-002-----0
  6
CONTINUOUS
  5
207
 10
259.82
 20
364.463716
 30
0.0
 40
2.0
 50
0.0
 51
90.0
  0
LINE
  8
LC-002-002-----0
  6
CONTINUOUS
  5
208
 10
259.372701
 20
366.463716
 30
0.0
 11
259.82
 21
366.463716
 31
0.0
  0
LINE
  8
LC-002-002-----0
  6
CONTINUOUS
  5
209
 10
230.32
 20
403.276431
 30
0.0
 11
241.357487
 21
402.504616
 31
0.0
  0
LINE
  8
LC-002-002-----0
  6
CONTINUOUS
  5
20A
 10
183.568257
 20
408.550513
 30
0.0
 11
223.32
 21
405.770802
 31
0.0
  0
LINE
  8
LC-002-002-----0
  6
CONTINUOUS
  5
20B
 10
422.045657
 20
399.617369
 30
0.0
 11
422.044924
 21
381.786897
 31
0.0
  0
LINE
  8
LC-002-002-----0
  6
CONTINUOUS
  5
20C
 10
246.594542
 20
399.620119
 30
0.0
 11
244.447405
 21
399.77615
 31
0.0
  0
LINE
  8
LC-002-002-----0
  6
CONTINUOUS
  5
20D
 10
244.447422
 20
399.776149
 30
0.0
 11
243.923648
 21
392.753759
 31
0.0
  0
LINE
  8
LC-002-002-----0
  6
CONTINUOUS
  5
20E
 10
183.682563
 20
408.542519
 30
0.0
 11
485.071743
 21
408.542519
 31
0.0
  0
LINE
  8
LC-002-002-----0
  6
DASHDOT
 62
     2
  5
20F
 10
334.32
 20
408.542519
 30
0.0
 11
334.32
 21
265.261852
 31
0.0
  0
LINE
  8
LC-002-002-----0
  6
CONTINUOUS
 62
     2
  5
210
 10
262.769019
 20
95.585251
 30
0.0
 11
405.265665
 21
95.585251
 31
0.0
  0
LINE
  8
LC-002-002-----0
  6
CONTINUOUS
 62
     2
  5
211
 10
262.769019
 20
89.585251
 30
0.0
 11
405.765665
 21
89.585251
 31
0.0
  0
LINE
  8
LC-002-002-----0
  6
CONTINUOUS
  5
212
 10
260.020505
 20
83.085138
 30
0.0
 11
256.020505
 21
83.084432
 31
0.0
  0
ARC
  8
LC-002-002-----0
  6
CONTINUOUS
  5
213
 10
262.769019
 20
83.585623
 30
0.0
 40
0.5
 50
225.0
 51
23.726263
  0
ARC
  8
LC-009-002-RND-0
  6
CONTINUOUS
  5
215
 10
260.520276
 20
84.385184
 30
0.0
 40
0.5
 50
90.010108
 51
180.010108
  0
ARC
  8
LC-009-002-RND-0
  6
CONTINUOUS
  5
216
 10
260.555238
 20
84.38519
 30
0.0
 40
0.5
 50
45.0
 51
90.010108
  0
ARC
  8
LC-002-002-----0
  6
CONTINUOUS
  5
217
 10
262.769019
 20
90.085251
 30
0.0
 40
0.5
 50
225.0
 51
23.726263
  0
LINE
  8
LC-002-002-----0
  6
CONTINUOUS
  5
218
 10
260.908791
 20
84.738744
 30
0.0
 11
262.415466
 21
83.232069
 31
0.0
  0
LINE
  8
LC-002-002-----0
  6
CONTINUOUS
  5
219
 10
260.55515
 20
84.88519
 30
0.0
 11
260.520188
 21
84.885184
 31
0.0
  0
ARC
  8
LC-002-002-----0
  6
CONTINUOUS
  5
21A
 10
262.769019
 20
96.085251
 30
0.0
 40
0.5
 50
225.0
 51
23.726263
  0
ARC
  8
LC-002-002-----0
  6
CONTINUOUS
  5
21B
 10
262.519019
 20
91.683568
 30
0.0
 40
7.0
 50
150.932725
 51
201.796223
  0
LINE
  8
LC-002-002-----0
  6
CONTINUOUS
  5
21C
 10
260.867582
 20
101.585246
 30
0.0
 11
257.648329
 21
101.584678
 31
0.0
  0
LINE
  8
LC-002-002-----0
  6
CONTINUOUS
  5
21D
 10
256.019447
 20
89.084422
 30
0.0
 11
256.020505
 21
83.08439
 31
0.0
  0
LINE
  8
LC-002-002-----0
  6
CONTINUOUS
  5
21E
 10
260.867624
 20
101.58515
 30
0.0
 11
407.772376
 21
101.58515
 31
0.0
  0
LINE
  8
LC-002-002-----0
  6
DASHDOT
 62
     2
  5
21F
 10
334.267342
 20
101.58515
 30
0.0
 11
334.267342
 21
83.085138
 31
0.0
  0
LINE
  8
LC-002-002-----0
  6
CONTINUOUS
  5
220
 10
260.020505
 20
83.085138
 30
0.0
 11
408.514179
 21
83.085138
 31
0.0
  0
LINE
  8
LC-002-002-----0
  6
CONTINUOUS
  5
221
 10
263.226763
 20
90.286437
 30
0.0
 11
260.392713
 21
96.364077
 31
0.0
  0
ARC
  8
LC-002-002-----0
  6
CONTINUOUS
  5
222
 10
260.852079
 20
96.578283
 30
0.0
 40
0.506855
 50
45.0
 51
205.0
  0
LINE
  8
LC-002-002-----0
  6
CONTINUOUS
  5
223
 10
261.21048
 20
96.936684
 30
0.0
 11
262.415466
 21
95.731698
 31
0.0
  0
LINE
  8
LC-002-002-----0
  6
CONTINUOUS
  5
224
 10
263.226758
 20
96.286435
 30
0.0
 11
260.755891
 21
101.585226
 31
0.0
  0
ARC
  8
LC-002-002-----0
  6
CONTINUOUS
  5
225
 10
260.019019
 20
97.759782
 30
0.0
 40
4.5
 50
121.790849
 51
216.478736
  0
LINE
  8
LC-002-002-----0
  6
CONTINUOUS
  5
226
 10
408.514179
 20
83.085138
 30
0.0
 11
412.514179
 21
83.084432
 31
0.0
  0
LINE
  8
LC-002-002-----0
  6
CONTINUOUS
  5
227
 10
408.514408
 20
84.385096
 30
0.0
 11
408.514179
 21
83.085096
 31
0.0
  0
LINE
  8
LC-002-002-----0
  6
CONTINUOUS
  5
228
 10
405.307926
 20
83.786806
 30
0.0
 11
408.463555
 21
90.554075
 31
0.0
  0
LINE
  8
LC-002-002-----0
  6
CONTINUOUS
  5
229
 10
405.307921
 20
90.286437
 30
0.0
 11
408.141971
 21
96.364077
 31
0.0
  0
ARC
  8
LC-002-002-----0
  6
CONTINUOUS
  5
22A
 10
405.765665
 20
83.585623
 30
0.0
 40
0.5
 50
156.273737
 51
315.0
  0
ARC
  8
LC-009-002-RND-0
  6
CONTINUOUS
  5
22B
 10
408.014408
 20
84.385184
 30
0.0
 40
0.5
 50
359.989892
 51
89.989892
  0
ARC
  8
LC-002-002-----0
  6
CONTINUOUS
  5
22C
 10
407.960714
 20
90.788554
 30
0.0
 40
0.554824
 50
335.0
 51
135.0
  0
ARC
  8
LC-009-002-RND-0
  6
CONTINUOUS
  5
22D
 10
407.979446
 20
84.38519
 30
0.0
 40
0.5
 50
89.989892
 51
135.0
  0
ARC
  8
LC-002-002-----0
  6
CONTINUOUS
  5
22E
 10
408.515665
 20
97.759782
 30
0.0
 40
4.5
 50
323.521264
 51
58.209151
  0
LINE
  8
LC-002-002-----0
  6
CONTINUOUS
  5
22F
 10
407.568394
 20
91.180874
 30
0.0
 11
406.119218
 21
89.731698
 31
0.0
  0
ARC
  8
LC-002-002-----0
  6
CONTINUOUS
  5
230
 10
405.765665
 20
90.085251
 30
0.0
 40
0.5
 50
156.273737
 51
315.0
  0
LINE
  8
LC-002-002-----0
  6
CONTINUOUS
  5
231
 10
407.625893
 20
84.738744
 30
0.0
 11
406.119218
 21
83.232069
 31
0.0
  0
ARC
  8
LC-002-002-----0
  6
CONTINUOUS
  5
232
 10
407.682605
 20
96.578283
 30
0.0
 40
0.506855
 50
335.0
 51
135.0
  0
LINE
  8
LC-002-002-----0
  6
CONTINUOUS
  5
233
 10
407.979534
 20
84.88519
 30
0.0
 11
408.014496
 21
84.885184
 31
0.0
  0
ARC
  8
LC-002-002-----0
  6
CONTINUOUS
  5
234
 10
405.765665
 20
96.085251
 30
0.0
 40
0.5
 50
156.273737
 51
315.0
  0
LINE
  8
LC-002-002-----0
  6
CONTINUOUS
  5
235
 10
405.307926
 20
96.286435
 30
0.0
 11
407.778793
 21
101.585226
 31
0.0
  0
LINE
  8
LC-002-002-----0
  6
CONTINUOUS
  5
236
 10
407.324204
 20
96.936684
 30
0.0
 11
406.119218
 21
95.731698
 31
0.0
  0
ARC
  8
LC-002-002-----0
  6
CONTINUOUS
  5
237
 10
406.015665
 20
91.683568
 30
0.0
 40
7.0
 50
338.203777
 51
29.067275
  0
LINE
  8
LC-002-002-----0
  6
CONTINUOUS
  5
238
 10
407.667102
 20
101.585246
 30
0.0
 11
410.886355
 21
101.584678
 31
0.0
  0
LINE
  8
LC-002-002-----0
  6
CONTINUOUS
  5
239
 10
412.515237
 20
89.084422
 30
0.0
 11
412.514179
 21
83.08439
 31
0.0
  0
LINE
  8
LC-002-002-----0
  6
CONTINUOUS
  5
23A
 10
260.96629
 20
91.180874
 30
0.0
 11
262.415466
 21
89.731698
 31
0.0
  0
LINE
  8
LC-002-002-----0
  6
CONTINUOUS
  5
23B
 10
260.020276
 20
84.385184
 30
0.0
 11
260.020505
 21
83.085096
 31
0.0
  0
ARC
  8
LC-002-002-----0
  6
CONTINUOUS
  5
23C
 10
260.57397
 20
90.788554
 30
0.0
 40
0.554824
 50
45.0
 51
205.0
  0
LINE
  8
LC-002-002-----0
  6
CONTINUOUS
  5
23D
 10
263.226758
 20
83.786806
 30
0.0
 11
260.071129
 21
90.554075
 31
0.0
  0
LINE
  8
LC-002-002-----0
  6
CONTINUOUS
  5
23E
 10
422.045657
 20
399.617369
 30
0.0
 11
424.193249
 21
399.767147
 31
0.0
  0
LINE
  8
LC-002-002-----0
  6
CONTINUOUS
  5
23F
 10
426.943464
 20
402.465565
 30
0.0
 11
408.193464
 21
401.154438
 31
0.0
  0
LINE
  8
LC-002-002-----0
  6
CONTINUOUS
  5
240
 10
244.447405
 20
399.77615
 30
0.0
 11
254.44719
 21
399.076897
 31
0.0
  0
LINE
  8
LC-002-002-----0
  6
CONTINUOUS
  5
241
 10
426.943464
 20
402.465565
 30
0.0
 11
334.32
 21
402.465565
 31
0.0
  0
LINE
  8
LC-002-002-----0
  6
CONTINUOUS
  5
242
 10
404.440124
 20
382.465968
 30
0.0
 11
404.440124
 21
385.465968
 31
0.0
  0
LINE
  8
LC-002-002-----0
  6
CONTINUOUS
  5
243
 10
398.780743
 20
382.465968
 30
0.0
 11
398.780743
 21
385.465968
 31
0.0
  0
LINE
  8
LC-002-002-----0
  6
CONTINUOUS
  5
244
 10
398.011395
 20
401.154438
 30
0.0
 11
397.261395
 21
400.404438
 31
0.0
  0
LINE
  8
LC-002-002-----0
  6
CONTINUOUS
  5
245
 10
397.261395
 20
400.404438
 30
0.0
 11
397.261395
 21
385.465968
 31
0.0
  0
LINE
  8
LC-002-002-----0
  6
CONTINUOUS
  5
246
 10
241.69719
 20
402.474569
 30
0.0
 11
334.32
 21
402.474569
 31
0.0
  0
LINE
  8
LC-002-002-----0
  6
CONTINUOUS
  5
247
 10
397.261395
 20
400.404438
 30
0.0
 11
402.805702
 21
400.404438
 31
0.0
  0
LINE
  8
LC-002-002-----0
  6
CONTINUOUS
  5
248
 10
402.805702
 20
400.404438
 30
0.0
 11
402.805702
 21
385.465968
 31
0.0
  0
LINE
  8
LC-002-002-----0
  6
CONTINUOUS
  5
249
 10
408.193464
 20
401.154438
 30
0.0
 11
407.443464
 21
400.404438
 31
0.0
  0
LINE
  8
LC-002-002-----0
  6
CONTINUOUS
  5
24A
 10
402.459825
 20
401.154438
 30
0.0
 11
402.805702
 21
400.404438
 31
0.0
  0
LINE
  8
LC-002-002-----0
  6
CONTINUOUS
  5
24B
 10
404.693464
 20
382.465968
 30
0.0
 11
404.693464
 21
385.465968
 31
0.0
  0
LINE
  8
LC-002-002-----0
  6
CONTINUOUS
  5
24C
 10
407.443464
 20
385.465968
 30
0.0
 11
407.443464
 21
400.404438
 31
0.0
  0
LINE
  8
LC-002-002-----0
  6
CONTINUOUS
  5
24D
 10
264.20053
 20
382.474971
 30
0.0
 11
264.20053
 21
385.474971
 31
0.0
  0
LINE
  8
LC-002-002-----0
  6
CONTINUOUS
  5
24E
 10
269.859911
 20
382.474971
 30
0.0
 11
269.859911
 21
385.474971
 31
0.0
  0
LINE
  8
LC-002-002-----0
  6
CONTINUOUS
  5
24F
 10
276.679336
 20
382.474971
 30
0.0
 11
276.679336
 21
385.474971
 31
0.0
  0
LINE
  8
LC-002-002-----0
  6
CONTINUOUS
  5
250
 10
292.40493
 20
382.474971
 30
0.0
 11
292.40493
 21
385.474971
 31
0.0
  0
LINE
  8
LC-002-002-----0
  6
CONTINUOUS
  5
251
 10
270.62926
 20
401.163441
 30
0.0
 11
271.37926
 21
400.413441
 31
0.0
  0
LINE
  8
LC-002-002-----0
  6
CONTINUOUS
  5
252
 10
271.37926
 20
400.413441
 30
0.0
 11
271.37926
 21
385.474971
 31
0.0
  0
LINE
  8
LC-002-002-----0
  6
CONTINUOUS
  5
253
 10
271.37926
 20
400.413441
 30
0.0
 11
265.834952
 21
400.413441
 31
0.0
  0
LINE
  8
LC-002-002-----0
  6
CONTINUOUS
  5
254
 10
265.834952
 20
400.413441
 30
0.0
 11
265.834952
 21
385.474971
 31
0.0
  0
LINE
  8
LC-002-002-----0
  6
CONTINUOUS
  5
255
 10
260.44719
 20
401.163441
 30
0.0
 11
261.19719
 21
400.413441
 31
0.0
  0
LINE
  8
LC-002-002-----0
  6
CONTINUOUS
  5
256
 10
266.18083
 20
401.163441
 30
0.0
 11
265.834952
 21
400.413441
 31
0.0
  0
LINE
  8
LC-002-002-----0
  6
CONTINUOUS
  5
257
 10
289.137485
 20
382.474971
 30
0.0
 11
289.137485
 21
385.474971
 31
0.0
  0
LINE
  8
LC-002-002-----0
  6
CONTINUOUS
  5
258
 10
304.77033
 20
382.474971
 30
0.0
 11
304.77033
 21
385.474971
 31
0.0
  0
LINE
  8
LC-002-002-----0
  6
CONTINUOUS
  5
259
 10
263.94719
 20
382.474971
 30
0.0
 11
263.94719
 21
385.474971
 31
0.0
  0
LINE
  8
LC-002-002-----0
  6
CONTINUOUS
  5
25A
 10
261.19719
 20
385.474971
 30
0.0
 11
261.19719
 21
400.413441
 31
0.0
  0
LINE
  8
LC-002-002-----0
  6
CONTINUOUS
  5
25B
 10
298.44719
 20
401.163441
 30
0.0
 11
299.19719
 21
400.413441
 31
0.0
  0
LINE
  8
LC-002-002-----0
  6
CONTINUOUS
  5
25C
 10
299.19719
 20
400.413441
 30
0.0
 11
299.19719
 21
385.474971
 31
0.0
  0
LINE
  8
LC-002-002-----0
  6
CONTINUOUS
  5
25D
 10
292.879225
 20
401.163441
 30
0.0
 11
292.246842
 21
400.413441
 31
0.0
  0
LINE
  8
LC-002-002-----0
  6
CONTINUOUS
  5
25E
 10
292.246842
 20
400.413441
 30
0.0
 11
292.246842
 21
385.474971
 31
0.0
  0
LINE
  8
LC-002-002-----0
  6
CONTINUOUS
  5
25F
 10
292.246842
 20
400.413441
 30
0.0
 11
299.19719
 21
400.413441
 31
0.0
  0
ARC
  8
LC-009-002-RND-0
  6
CONTINUOUS
  5
260
 10
413.193464
 20
383.465968
 30
0.0
 40
1.0
 50
270.0
 51
0.0
  0
LINE
  8
LC-002-002-----0
  6
CONTINUOUS
  5
261
 10
241.69719
 20
402.474569
 30
0.0
 11
242.69719
 21
395.474971
 31
0.0
  0
LINE
  8
LC-002-002-----0
  6
CONTINUOUS
  5
262
 10
243.870055
 20
395.474971
 30
0.0
 11
242.69719
 21
395.474971
 31
0.0
  0
LINE
  8
LC-002-002-----0
  6
CONTINUOUS
  5
263
 10
244.447405
 20
396.474971
 30
0.0
 11
243.870055
 21
395.474971
 31
0.0
  0
LINE
  8
LC-002-002-----0
  6
CONTINUOUS
  5
264
 10
244.447405
 20
396.474971
 30
0.0
 11
244.447405
 21
399.77615
 31
0.0
  0
ARC
  8
LC-009-002-RND-0
  6
CONTINUOUS
  5
265
 10
255.44719
 20
383.474971
 30
0.0
 40
1.0
 50
180.0
 51
270.0
  0
LINE
  8
LC-002-002-----0
  6
CONTINUOUS
  5
266
 10
255.44719
 20
382.474971
 30
0.0
 11
334.32
 21
382.474971
 31
0.0
  0
LINE
  8
LC-002-002-----0
  6
CONTINUOUS
  5
267
 10
424.193249
 20
396.465968
 30
0.0
 11
424.7706
 21
395.465968
 31
0.0
  0
LINE
  8
LC-002-002-----0
  6
CONTINUOUS
  5
268
 10
254.44719
 20
383.474971
 30
0.0
 11
254.44719
 21
399.076897
 31
0.0
  0
LINE
  8
LC-002-002-----0
  6
CONTINUOUS
  5
269
 10
424.193249
 20
396.465968
 30
0.0
 11
424.193249
 21
399.767147
 31
0.0
  0
LINE
  8
LC-002-002-----0
  6
CONTINUOUS
  5
26A
 10
413.193464
 20
382.465968
 30
0.0
 11
404.693464
 21
382.465968
 31
0.0
  0
LINE
  8
LC-002-002-----0
  6
CONTINUOUS
  5
26B
 10
414.193464
 20
383.465968
 30
0.0
 11
414.193464
 21
399.067894
 31
0.0
  0
LINE
  8
LC-002-002-----0
  6
CONTINUOUS
  5
26C
 10
424.3676
 20
395.465968
 30
0.0
 11
425.943464
 21
395.465968
 31
0.0
  0
LINE
  8
LC-002-002-----0
  6
CONTINUOUS
  5
26D
 10
404.693464
 20
382.465968
 30
0.0
 11
334.32
 21
382.465968
 31
0.0
  0
LINE
  8
LC-002-002-----0
  6
CONTINUOUS
  5
26E
 10
404.693464
 20
385.465968
 30
0.0
 11
407.443464
 21
385.465968
 31
0.0
  0
LINE
  8
LC-002-002-----0
  6
CONTINUOUS
  5
26F
 10
391.961319
 20
385.465968
 30
0.0
 11
404.693464
 21
385.465968
 31
0.0
  0
LINE
  8
LC-002-002-----0
  6
CONTINUOUS
  5
270
 10
304.77033
 20
385.474971
 30
0.0
 11
289.137485
 21
385.474971
 31
0.0
  0
LINE
  8
LC-002-002-----0
  6
CONTINUOUS
  5
271
 10
424.193249
 20
399.767147
 30
0.0
 11
414.193464
 21
399.067894
 31
0.0
  0
LINE
  8
LC-002-002-----0
  6
CONTINUOUS
  5
272
 10
276.679336
 20
385.474971
 30
0.0
 11
261.19719
 21
385.474971
 31
0.0
  0
LINE
  8
LC-002-002-----0
  6
CONTINUOUS
  5
273
 10
408.193464
 20
401.163441
 30
0.0
 11
260.44719
 21
401.163441
 31
0.0
  0
LINE
  8
LC-002-002-----0
  6
CONTINUOUS
  5
274
 10
426.943464
 20
402.465565
 30
0.0
 11
425.943464
 21
395.465968
 31
0.0
  0
LINE
  8
LC-002-002-----0
  6
CONTINUOUS
  5
275
 10
241.69719
 20
402.474569
 30
0.0
 11
260.44719
 21
401.163441
 31
0.0
  0
LINE
  8
LC-002-002-----0
  6
CONTINUOUS
  5
276
 10
330.57
 20
400.413441
 30
0.0
 11
331.32
 21
401.163441
 31
0.0
  0
LINE
  8
LC-002-002-----0
  6
CONTINUOUS
  5
277
 10
337.32
 20
401.163441
 30
0.0
 11
338.07
 21
400.413441
 31
0.0
  0
LINE
  8
LC-002-002-----0
  6
CONTINUOUS
  5
278
 10
338.07
 20
400.413441
 30
0.0
 11
338.07
 21
385.474971
 31
0.0
  0
LINE
  8
LC-002-002-----0
  6
CONTINUOUS
  5
279
 10
330.57
 20
400.413441
 30
0.0
 11
330.57
 21
385.474971
 31
0.0
  0
LINE
  8
LC-002-002-----0
  6
CONTINUOUS
  5
27A
 10
330.57
 20
400.413441
 30
0.0
 11
338.07
 21
400.413441
 31
0.0
  0
LINE
  8
LC-002-002-----0
  6
CONTINUOUS
  5
27B
 10
370.193464
 20
401.154438
 30
0.0
 11
369.443464
 21
400.404438
 31
0.0
  0
LINE
  8
LC-002-002-----0
  6
CONTINUOUS
  5
27C
 10
375.761429
 20
401.154438
 30
0.0
 11
376.393813
 21
400.404438
 31
0.0
  0
LINE
  8
LC-002-002-----0
  6
CONTINUOUS
  5
27D
 10
376.393813
 20
400.404438
 30
0.0
 11
369.443464
 21
400.404438
 31
0.0
  0
LINE
  8
LC-002-002-----0
  6
CONTINUOUS
  5
27E
 10
376.393813
 20
400.404438
 30
0.0
 11
376.393813
 21
385.465968
 31
0.0
  0
LINE
  8
LC-002-002-----0
  6
CONTINUOUS
  5
27F
 10
369.443464
 20
400.404438
 30
0.0
 11
369.443464
 21
385.465968
 31
0.0
  0
LINE
  8
LC-002-002-----0
  6
CONTINUOUS
  5
280
 10
363.870324
 20
385.465968
 30
0.0
 11
379.503169
 21
385.465968
 31
0.0
  0
LINE
  8
LC-002-002-----0
  6
CONTINUOUS
  5
281
 10
363.870324
 20
382.465968
 30
0.0
 11
363.870324
 21
385.465968
 31
0.0
  0
LINE
  8
LC-002-002-----0
  6
CONTINUOUS
  5
282
 10
379.503169
 20
382.465968
 30
0.0
 11
379.503169
 21
385.465968
 31
0.0
  0
LINE
  8
LC-002-002-----0
  6
CONTINUOUS
  5
283
 10
376.235724
 20
382.465968
 30
0.0
 11
376.235724
 21
385.465968
 31
0.0
  0
LINE
  8
LC-002-002-----0
  6
CONTINUOUS
  5
284
 10
391.961319
 20
382.465968
 30
0.0
 11
391.961319
 21
385.465968
 31
0.0
  0
LINE
  8
LC-002-002-----0
  6
CONTINUOUS
  5
285
 10
326.82
 20
385.474971
 30
0.0
 11
341.82
 21
385.474971
 31
0.0
  0
LINE
  8
LC-002-002-----0
  6
CONTINUOUS
  5
286
 10
326.82
 20
385.474971
 30
0.0
 11
326.82
 21
382.474971
 31
0.0
  0
LINE
  8
LC-002-002-----0
  6
CONTINUOUS
  5
287
 10
341.82
 20
385.474971
 30
0.0
 11
341.82
 21
382.474971
 31
0.0
  0
ENDSEC
  0
EOF
