  0
SECTION
  2
HEADER
  9
$ACADVER
  1
AC1015
  9
$ACADMAINTVER
 70
     6
  9
$DWGCODEPAGE
  3
ANSI_1252
  9
$INSBASE
 10
0.0
 20
0.0
 30
0.0
  9
$EXTMIN
 10
-860.239913
 20
-616.451724
 30
0.0
  9
$EXTMAX
 10
1239.760087
 20
868.548276
 30
0.0
  9
$LIMMIN
 10
-860.239913
 20
-616.451724
  9
$LIMMAX
 10
1239.760087
 20
868.548276
  9
$ORTHOMODE
 70
     0
  9
$REGENMODE
 70
     1
  9
$FILLMODE
 70
     1
  9
$QTEXTMODE
 70
     0
  9
$MIRRTEXT
 70
     1
  9
$LTSCALE
 40
5.0
  9
$ATTMODE
 70
     1
  9
$TEXTSIZE
 40
2.5
  9
$TRACEWID
 40
1.0
  9
$TEXTSTYLE
  7
Standard
  9
$CLAYER
  8
0
  9
$CELTYPE
  6
ByLayer
  9
$CECOLOR
 62
     7
  9
$CELTSCALE
 40
1.0
  9
$DISPSILH
 70
     0
  9
$DIMSCALE
 40
5.0
  9
$DIMASZ
 40
3.5
  9
$DIMEXO
 40
0.625
  9
$DIMDLI
 40
3.75
  9
$DIMRND
 40
0.0
  9
$DIMDLE
 40
0.0
  9
$DIMEXE
 40
1.25
  9
$DIMTP
 40
0.0
  9
$DIMTM
 40
0.0
  9
$DIMTXT
 40
3.5
  9
$DIMCEN
 40
2.5
  9
$DIMTSZ
 40
0.0
  9
$DIMTOL
 70
     0
  9
$DIMLIM
 70
     0
  9
$DIMTIH
 70
     0
  9
$DIMTOH
 70
     0
  9
$DIMSE1
 70
     0
  9
$DIMSE2
 70
     0
  9
$DIMTAD
 70
     1
  9
$DIMZIN
 70
     8
  9
$DIMBLK
  1

  9
$DIMASO
 70
     1
  9
$DIMSHO
 70
     1
  9
$DIMPOST
  1

  9
$DIMAPOST
  1

  9
$DIMALT
 70
     0
  9
$DIMALTD
 70
     3
  9
$DIMALTF
 40
0.03937
  9
$DIMLFAC
 40
1.0
  9
$DIMTOFL
 70
     1
  9
$DIMTVP
 40
0.0
  9
$DIMTIX
 70
     0
  9
$DIMSOXD
 70
     0
  9
$DIMSAH
 70
     0
  9
$DIMBLK1
  1

  9
$DIMBLK2
  1

  9
$DIMSTYLE
  2
ISO-25
  9
$DIMCLRD
 70
     0
  9
$DIMCLRE
 70
     0
  9
$DIMCLRT
 70
     0
  9
$DIMTFAC
 40
1.0
  9
$DIMGAP
 40
0.625
  9
$DIMJUST
 70
     0
  9
$DIMSD1
 70
     0
  9
$DIMSD2
 70
     0
  9
$DIMTOLJ
 70
     0
  9
$DIMTZIN
 70
     8
  9
$DIMALTZ
 70
     0
  9
$DIMALTTZ
 70
     0
  9
$DIMUPT
 70
     0
  9
$DIMDEC
 70
     2
  9
$DIMTDEC
 70
     2
  9
$DIMALTU
 70
     2
  9
$DIMALTTD
 70
     3
  9
$DIMTXSTY
  7
Standard
  9
$DIMAUNIT
 70
     0
  9
$DIMADEC
 70
     0
  9
$DIMALTRND
 40
0.0
  9
$DIMAZIN
 70
     0
  9
$DIMDSEP
 70
    44
  9
$DIMATFIT
 70
     3
  9
$DIMFRAC
 70
     0
  9
$DIMLDRBLK
  1

  9
$DIMLUNIT
 70
     2
  9
$DIMLWD
 70
    -2
  9
$DIMLWE
 70
    -2
  9
$DIMTMOVE
 70
     0
  9
$LUNITS
 70
     2
  9
$LUPREC
 70
     4
  9
$SKETCHINC
 40
1.0
  9
$FILLETRAD
 40
10.0
  9
$AUNITS
 70
     0
  9
$AUPREC
 70
     0
  9
$MENU
  1
.
  9
$ELEVATION
 40
0.0
  9
$PELEVATION
 40
0.0
  9
$THICKNESS
 40
0.0
  9
$LIMCHECK
 70
     0
  9
$CHAMFERA
 40
10.0
  9
$CHAMFERB
 40
10.0
  9
$CHAMFERC
 40
20.0
  9
$CHAMFERD
 40
0.0
  9
$SKPOLY
 70
     0
  9
$TDCREATE
 40
2455421.48391353
  9
$TDUCREATE
 40
2455421.400580197
  9
$TDUPDATE
 40
2455421.483913542
  9
$TDUUPDATE
 40
2455421.400580208
  9
$TDINDWG
 40
0.0000000116
  9
$TDUSRTIMER
 40
0.0000000116
  9
$USRTIMER
 70
     1
  9
$ANGBASE
 50
0.0
  9
$ANGDIR
 70
     0
  9
$PDMODE
 70
     0
  9
$PDSIZE
 40
0.0
  9
$PLINEWID
 40
0.0
  9
$SPLFRAME
 70
     0
  9
$SPLINETYPE
 70
     6
  9
$SPLINESEGS
 70
     8
  9
$HANDSEED
  5
6F6
  9
$SURFTAB1
 70
     6
  9
$SURFTAB2
 70
     6
  9
$SURFTYPE
 70
     6
  9
$SURFU
 70
     6
  9
$SURFV
 70
     6
  9
$UCSBASE
  2

  9
$UCSNAME
  2

  9
$UCSORG
 10
0.0
 20
0.0
 30
0.0
  9
$UCSXDIR
 10
1.0
 20
0.0
 30
0.0
  9
$UCSYDIR
 10
0.0
 20
1.0
 30
0.0
  9
$UCSORTHOREF
  2

  9
$UCSORTHOVIEW
 70
     0
  9
$UCSORGTOP
 10
0.0
 20
0.0
 30
0.0
  9
$UCSORGBOTTOM
 10
0.0
 20
0.0
 30
0.0
  9
$UCSORGLEFT
 10
0.0
 20
0.0
 30
0.0
  9
$UCSORGRIGHT
 10
0.0
 20
0.0
 30
0.0
  9
$UCSORGFRONT
 10
0.0
 20
0.0
 30
0.0
  9
$UCSORGBACK
 10
0.0
 20
0.0
 30
0.0
  9
$PUCSBASE
  2

  9
$PUCSNAME
  2

  9
$PUCSORG
 10
0.0
 20
0.0
 30
0.0
  9
$PUCSXDIR
 10
1.0
 20
0.0
 30
0.0
  9
$PUCSYDIR
 10
0.0
 20
1.0
 30
0.0
  9
$PUCSORTHOREF
  2

  9
$PUCSORTHOVIEW
 70
     0
  9
$PUCSORGTOP
 10
0.0
 20
0.0
 30
0.0
  9
$PUCSORGBOTTOM
 10
0.0
 20
0.0
 30
0.0
  9
$PUCSORGLEFT
 10
0.0
 20
0.0
 30
0.0
  9
$PUCSORGRIGHT
 10
0.0
 20
0.0
 30
0.0
  9
$PUCSORGFRONT
 10
0.0
 20
0.0
 30
0.0
  9
$PUCSORGBACK
 10
0.0
 20
0.0
 30
0.0
  9
$USERI1
 70
     0
  9
$USERI2
 70
     0
  9
$USERI3
 70
     0
  9
$USERI4
 70
     0
  9
$USERI5
 70
     0
  9
$USERR1
 40
0.0
  9
$USERR2
 40
0.0
  9
$USERR3
 40
0.0
  9
$USERR4
 40
0.0
  9
$USERR5
 40
0.0
  9
$WORLDVIEW
 70
     1
  9
$SHADEDGE
 70
     3
  9
$SHADEDIF
 70
    70
  9
$TILEMODE
 70
     1
  9
$MAXACTVP
 70
    64
  9
$PINSBASE
 10
0.0
 20
0.0
 30
0.0
  9
$PLIMCHECK
 70
     0
  9
$PEXTMIN
 10
-860.239913
 20
-616.451724
 30
0.0
  9
$PEXTMAX
 10
1239.760087
 20
868.548276
 30
0.0
  9
$PLIMMIN
 10
-860.239913
 20
-616.451724
  9
$PLIMMAX
 10
1239.760087
 20
868.548276
  9
$UNITMODE
 70
     0
  9
$VISRETAIN
 70
     1
  9
$PLINEGEN
 70
     0
  9
$PSLTSCALE
 70
     1
  9
$TREEDEPTH
 70
  3020
  9
$CMLSTYLE
  2
Standard
  9
$CMLJUST
 70
     0
  9
$CMLSCALE
 40
20.0
  9
$PROXYGRAPHICS
 70
     1
  9
$MEASUREMENT
 70
     1
  9
$CELWEIGHT
370
    -1
  9
$ENDCAPS
280
     0
  9
$JOINSTYLE
280
     0
  9
$LWDISPLAY
290
     0
  9
$INSUNITS
 70
     4
  9
$HYPERLINKBASE
  1

  9
$STYLESHEET
  1

  9
$XEDIT
290
     1
  9
$CEPSNTYPE
380
     0
  9
$PSTYLEMODE
290
     1
  9
$FINGERPRINTGUID
  2
{FAEB1C30-E019-11D5-929B-00C0DF256EC4}
  9
$VERSIONGUID
  2
{FAEB1C32-E019-11D5-929B-00C0DF256EC4}
  9
$EXTNAMES
290
     1
  9
$PSVPSCALE
 40
0.0
  9
$OLESTARTUP
290
     0
  0
ENDSEC
  0
SECTION
  2
CLASSES
  0
CLASS
  1
ACDBDICTIONARYWDFLT
  2
AcDbDictionaryWithDefault
  3
ObjectDBX Classes
 90
        0
280
     0
281
     0
  0
CLASS
  1
ACDBPLACEHOLDER
  2
AcDbPlaceHolder
  3
ObjectDBX Classes
 90
        0
280
     0
281
     0
  0
CLASS
  1
LAYOUT
  2
AcDbLayout
  3
ObjectDBX Classes
 90
        0
280
     0
281
     0
  0
ENDSEC
  0
SECTION
  2
TABLES
  0
TABLE
  2
VPORT
  5
8
330
0
100
AcDbSymbolTable
 70
     2
  0
VPORT
  5
29
330
8
100
AcDbSymbolTableRecord
100
AcDbViewportTableRecord
  2
*ACTIVE
 70
     0
 10
0.0
 20
0.0
 11
1.0
 21
1.0
 12
189.760087
 22
126.048276
 13
0.0
 23
0.0
 14
1.0
 24
1.0
 15
0.0
 25
0.0
 16
0.0
 26
0.0
 36
1.0
 17
0.0
 27
0.0
 37
0.0
 40
1485.0
 41
1.414141
 42
50.0
 43
0.0
 44
0.0
 50
0.0
 51
0.0
 71
    16
 72
   100
 73
     1
 74
     0
 75
     0
 76
     0
 77
     0
 78
     0
281
     0
 65
     0
110
0.0
120
0.0
130
0.0
111
1.0
121
0.0
131
0.0
112
0.0
122
1.0
132
0.0
 79
     0
146
0.0
  0
ENDTAB
  0
TABLE
  2
LTYPE
  5
5
330
0
100
AcDbSymbolTable
 70
     3
  0
LTYPE
  5
14
330
5
100
AcDbSymbolTableRecord
100
AcDbLinetypeTableRecord
  2
ByBlock
 70
     0
  3

 72
    65
 73
     0
 40
0.0
  0
LTYPE
  5
15
330
5
100
AcDbSymbolTableRecord
100
AcDbLinetypeTableRecord
  2
ByLayer
 70
     0
  3

 72
    65
 73
     0
 40
0.0
  0
LTYPE
  5
16
330
5
100
AcDbSymbolTableRecord
100
AcDbLinetypeTableRecord
  2
Continuous
 70
     0
  3
Solid line
 72
    65
 73
     0
 40
0.0
  0
LTYPE
  5
2A
330
5
100
AcDbSymbolTableRecord
100
AcDbLinetypeTableRecord
  2
DASHED
 70
     0
  3
__ __ __ __ __
 72
    65
 73
     2
 40
6.25
 49
5.0
 74
     4
 75
     0
340
0
 46
1.0
 50
0.0
 44
0.0
 45
0.0
 49
-1.25
 74
     4
 75
     0
340
0
 46
1.0
 50
0.0
 44
0.0
 45
0.0
  0
LTYPE
  5
E5
330
5
100
AcDbSymbolTableRecord
100
AcDbLinetypeTableRecord
  2
DASHDOT
 70
     0
  3
__ . __ . __ . __ . __
 72
    65
 73
     4
 40
7.5
 49
5.0
 74
     4
 75
     0
340
0
 46
1.0
 50
0.0
 44
0.0
 45
0.0
 49
-1.25
 74
     4
 75
     0
340
0
 46
1.0
 50
0.0
 44
0.0
 45
0.0
 49
0.0
 74
     4
 75
     0
340
0
 46
1.0
 50
0.0
 44
0.0
 45
0.0
 49
-1.25
 74
     4
 75
     0
340
0
 46
1.0
 50
0.0
 44
0.0
 45
0.0
  0
ENDTAB
  0
TABLE
  2
LAYER
  5
2
330
0
100
AcDbSymbolTable
 70
     7
  0
LAYER
  5
10
330
2
100
AcDbSymbolTableRecord
100
AcDbLayerTableRecord
  2
0
 70
     0
 62
     7
  6
Continuous
370
    -3
390
F
  0
LAYER
  5
2B
330
2
100
AcDbSymbolTableRecord
100
AcDbLayerTableRecord
  2
LC-INFO-1-5-mm-A3-0
 70
     1
 62
     7
  6
ByBlock
370
    -3
390
F
  0
LAYER
  5
2C
330
2
100
AcDbSymbolTableRecord
100
AcDbLayerTableRecord
  2
LC-CUT-HIDDEN
 70
     0
 62
     7
  6
DASHED
370
    -3
390
F
  0
LAYER
  5
2D
330
2
100
AcDbSymbolTableRecord
100
AcDbLayerTableRecord
  2
LC-VIEWPORT
 70
     0
 62
     7
  6
ByBlock
370
    -3
390
F
  0
LAYER
  5
2E
330
2
100
AcDbSymbolTableRecord
100
AcDbLayerTableRecord
  2
LC-3D-HIDDEN
 70
     0
 62
     9
  6
DASHED
370
    -3
390
F
  0
LAYER
  5
30
330
2
100
AcDbSymbolTableRecord
100
AcDbLayerTableRecord
  2
LC-001-100-D00-0
 70
     0
 62
     1
  6
ByBlock
370
    -3
390
F
  0
LAYER
  5
D7
330
2
100
AcDbSymbolTableRecord
100
AcDbLayerTableRecord
  2
Defpoints
 70
     0
 62
     7
  6
Continuous
290
     0
370
    -3
390
F
  0
ENDTAB
  0
TABLE
  2
STYLE
  5
3
330
0
100
AcDbSymbolTable
 70
     3
  0
STYLE
  5
11
330
3
100
AcDbSymbolTableRecord
100
AcDbTextStyleTableRecord
  2
Standard
 70
     0
 40
0.0
 41
1.0
 50
0.0
 71
     0
 42
2.5
  3
txt
  4

  0
STYLE
  5
2F
330
3
100
AcDbSymbolTableRecord
100
AcDbTextStyleTableRecord
  2
LCTX15-400-0-0-Arial
 70
     0
 40
0.0
 41
0.8
 50
0.0
 71
     0
 42
3.5
  3

  4

1001
ACAD
1000
Arial
1071
 16777218
  0
STYLE
  5
D4
330
3
100
AcDbSymbolTableRecord
100
AcDbTextStyleTableRecord
  2
LCTX15-400-0-0pDIN-Schrift
 70
     0
 40
2.5
 41
0.8
 50
15.0
 71
     0
 42
3.5
  3
STANDARD
  4

  0
ENDTAB
  0
TABLE
  2
VIEW
  5
6
330
0
100
AcDbSymbolTable
 70
     0
  0
ENDTAB
  0
TABLE
  2
UCS
  5
7
330
0
100
AcDbSymbolTable
 70
     0
  0
ENDTAB
  0
TABLE
  2
APPID
  5
9
330
0
100
AcDbSymbolTable
 70
     1
  0
APPID
  5
12
330
9
100
AcDbSymbolTableRecord
100
AcDbRegAppTableRecord
  2
ACAD
 70
     0
  0
ENDTAB
  0
TABLE
  2
DIMSTYLE
  5
A
330
0
100
AcDbSymbolTable
 70
     2
100
AcDbDimStyleTable
  0
DIMSTYLE
105
27
330
A
100
AcDbSymbolTableRecord
100
AcDbDimStyleTableRecord
  2
ISO-25
 70
     0
 41
2.5
 42
0.625
 43
3.75
 44
1.25
 73
     0
 74
     0
 77
     1
 78
     8
140
2.5
141
2.5
143
0.03937
147
0.625
171
     3
172
     1
271
     2
272
     2
274
     3
278
    44
283
     0
284
     8
340
11
  0
DIMSTYLE
105
D5
102
{ACAD_REACTORS
330
D6
330
211
330
21F
330
22D
330
5D2
330
5E0
330
5EF
330
5FC
330
60A
330
617
330
624
330
632
102
}
330
A
100
AcDbSymbolTableRecord
100
AcDbDimStyleTableRecord
  2
LC-DIM-L-0100-02-02
 70
     0
 40
5.0
 41
10.0
 42
0.0
 43
7.5
 44
1.8
 73
     0
 74
     0
 77
     1
 78
     8
 79
     2
140
10.0
141
0.0
146
0.71
147
1.5
176
     2
177
     2
178
     2
179
     2
271
     2
278
    44
289
     1
340
D4
  0
ENDTAB
  0
TABLE
  2
BLOCK_RECORD
  5
1
330
0
100
AcDbSymbolTable
 70
    50
  0
BLOCK_RECORD
  5
1F
330
1
100
AcDbSymbolTableRecord
100
AcDbBlockTableRecord
  2
*Model_Space
340
22
  0
BLOCK_RECORD
  5
1B
330
1
100
AcDbSymbolTableRecord
100
AcDbBlockTableRecord
  2
*Paper_Space
340
1E
  0
BLOCK_RECORD
  5
23
330
1
100
AcDbSymbolTableRecord
100
AcDbBlockTableRecord
  2
*Paper_Space0
340
26
  0
BLOCK_RECORD
  5
D8
330
1
100
AcDbSymbolTableRecord
100
AcDbBlockTableRecord
  2
*D1
340
0
  0
BLOCK_RECORD
  5
107
330
1
100
AcDbSymbolTableRecord
100
AcDbBlockTableRecord
  2
KLON1
340
0
102
{BLKREFS
331
10E
102
}
  0
BLOCK_RECORD
  5
110
330
1
100
AcDbSymbolTableRecord
100
AcDbBlockTableRecord
  2
KLON2
340
0
102
{BLKREFS
331
115
102
}
  0
BLOCK_RECORD
  5
116
330
1
100
AcDbSymbolTableRecord
100
AcDbBlockTableRecord
  2
KLON3
340
0
102
{BLKREFS
331
11B
102
}
  0
BLOCK_RECORD
  5
11C
330
1
100
AcDbSymbolTableRecord
100
AcDbBlockTableRecord
  2
KLON4
340
0
102
{BLKREFS
331
121
102
}
  0
BLOCK_RECORD
  5
122
330
1
100
AcDbSymbolTableRecord
100
AcDbBlockTableRecord
  2
KLON5
340
0
102
{BLKREFS
331
127
102
}
  0
BLOCK_RECORD
  5
129
330
1
100
AcDbSymbolTableRecord
100
AcDbBlockTableRecord
  2
KLON6
340
0
102
{BLKREFS
331
130
102
}
  0
BLOCK_RECORD
  5
140
330
1
100
AcDbSymbolTableRecord
100
AcDbBlockTableRecord
  2
KLON7
340
0
102
{BLKREFS
331
145
102
}
  0
BLOCK_RECORD
  5
146
330
1
100
AcDbSymbolTableRecord
100
AcDbBlockTableRecord
  2
KLON8
340
0
102
{BLKREFS
331
14B
102
}
  0
BLOCK_RECORD
  5
14D
330
1
100
AcDbSymbolTableRecord
100
AcDbBlockTableRecord
  2
KLON9
340
0
102
{BLKREFS
331
153
102
}
  0
BLOCK_RECORD
  5
154
330
1
100
AcDbSymbolTableRecord
100
AcDbBlockTableRecord
  2
KLON10
340
0
102
{BLKREFS
331
159
102
}
  0
BLOCK_RECORD
  5
15A
330
1
100
AcDbSymbolTableRecord
100
AcDbBlockTableRecord
  2
KLON11
340
0
102
{BLKREFS
331
160
102
}
  0
BLOCK_RECORD
  5
161
330
1
100
AcDbSymbolTableRecord
100
AcDbBlockTableRecord
  2
KLON12
340
0
102
{BLKREFS
331
167
102
}
  0
BLOCK_RECORD
  5
168
330
1
100
AcDbSymbolTableRecord
100
AcDbBlockTableRecord
  2
KLON13
340
0
102
{BLKREFS
331
16E
102
}
  0
BLOCK_RECORD
  5
16F
330
1
100
AcDbSymbolTableRecord
100
AcDbBlockTableRecord
  2
KLON14
340
0
102
{BLKREFS
331
174
102
}
  0
BLOCK_RECORD
  5
212
330
1
100
AcDbSymbolTableRecord
100
AcDbBlockTableRecord
  2
*D16
340
0
  0
BLOCK_RECORD
  5
220
330
1
100
AcDbSymbolTableRecord
100
AcDbBlockTableRecord
  2
*D17
340
0
  0
BLOCK_RECORD
  5
22E
330
1
100
AcDbSymbolTableRecord
100
AcDbBlockTableRecord
  2
*D18
340
0
  0
BLOCK_RECORD
  5
41B
330
1
100
AcDbSymbolTableRecord
100
AcDbBlockTableRecord
  2
KLON15
340
0
102
{BLKREFS
331
42B
102
}
  0
BLOCK_RECORD
  5
42C
330
1
100
AcDbSymbolTableRecord
100
AcDbBlockTableRecord
  2
KLON16
340
0
102
{BLKREFS
331
43F
102
}
  0
BLOCK_RECORD
  5
443
330
1
100
AcDbSymbolTableRecord
100
AcDbBlockTableRecord
  2
KLON17
340
0
102
{BLKREFS
331
448
102
}
  0
BLOCK_RECORD
  5
571
330
1
100
AcDbSymbolTableRecord
100
AcDbBlockTableRecord
  2
KLON18
340
0
102
{BLKREFS
331
57A
102
}
  0
BLOCK_RECORD
  5
57B
330
1
100
AcDbSymbolTableRecord
100
AcDbBlockTableRecord
  2
KLON19
340
0
102
{BLKREFS
331
584
102
}
  0
BLOCK_RECORD
  5
59F
330
1
100
AcDbSymbolTableRecord
100
AcDbBlockTableRecord
  2
KLON20
340
0
102
{BLKREFS
331
5A7
102
}
  0
BLOCK_RECORD
  5
5A8
330
1
100
AcDbSymbolTableRecord
100
AcDbBlockTableRecord
  2
KLON21
340
0
102
{BLKREFS
331
5B4
102
}
  0
BLOCK_RECORD
  5
5B5
330
1
100
AcDbSymbolTableRecord
100
AcDbBlockTableRecord
  2
KLON22
340
0
102
{BLKREFS
331
5C1
102
}
  0
BLOCK_RECORD
  5
5D3
330
1
100
AcDbSymbolTableRecord
100
AcDbBlockTableRecord
  2
*D27
340
0
  0
BLOCK_RECORD
  5
5E1
330
1
100
AcDbSymbolTableRecord
100
AcDbBlockTableRecord
  2
*D28
340
0
  0
BLOCK_RECORD
  5
5F0
330
1
100
AcDbSymbolTableRecord
100
AcDbBlockTableRecord
  2
*D29
340
0
  0
BLOCK_RECORD
  5
5FD
330
1
100
AcDbSymbolTableRecord
100
AcDbBlockTableRecord
  2
*D30
340
0
  0
BLOCK_RECORD
  5
60B
330
1
100
AcDbSymbolTableRecord
100
AcDbBlockTableRecord
  2
*D31
340
0
  0
BLOCK_RECORD
  5
618
330
1
100
AcDbSymbolTableRecord
100
AcDbBlockTableRecord
  2
*D32
340
0
  0
BLOCK_RECORD
  5
625
330
1
100
AcDbSymbolTableRecord
100
AcDbBlockTableRecord
  2
*D33
340
0
  0
BLOCK_RECORD
  5
633
330
1
100
AcDbSymbolTableRecord
100
AcDbBlockTableRecord
  2
*D34
340
0
  0
BLOCK_RECORD
  5
641
330
1
100
AcDbSymbolTableRecord
100
AcDbBlockTableRecord
  2
KLON23
340
0
102
{BLKREFS
331
648
102
}
  0
BLOCK_RECORD
  5
649
330
1
100
AcDbSymbolTableRecord
100
AcDbBlockTableRecord
  2
KLON24
340
0
102
{BLKREFS
331
64F
102
}
  0
BLOCK_RECORD
  5
650
330
1
100
AcDbSymbolTableRecord
100
AcDbBlockTableRecord
  2
KLON25
340
0
102
{BLKREFS
331
65C
102
}
  0
BLOCK_RECORD
  5
65D
330
1
100
AcDbSymbolTableRecord
100
AcDbBlockTableRecord
  2
KLON26
340
0
102
{BLKREFS
331
664
102
}
  0
BLOCK_RECORD
  5
665
330
1
100
AcDbSymbolTableRecord
100
AcDbBlockTableRecord
  2
KLON27
340
0
102
{BLKREFS
331
66C
102
}
  0
BLOCK_RECORD
  5
66D
330
1
100
AcDbSymbolTableRecord
100
AcDbBlockTableRecord
  2
KLON28
340
0
102
{BLKREFS
331
67C
102
}
  0
BLOCK_RECORD
  5
67D
330
1
100
AcDbSymbolTableRecord
100
AcDbBlockTableRecord
  2
KLON29
340
0
102
{BLKREFS
331
683
102
}
  0
BLOCK_RECORD
  5
687
330
1
100
AcDbSymbolTableRecord
100
AcDbBlockTableRecord
  2
KLON30
340
0
102
{BLKREFS
331
6A0
102
}
  0
BLOCK_RECORD
  5
6A1
330
1
100
AcDbSymbolTableRecord
100
AcDbBlockTableRecord
  2
KLON31
340
0
102
{BLKREFS
331
6BC
102
}
  0
BLOCK_RECORD
  5
6C0
330
1
100
AcDbSymbolTableRecord
100
AcDbBlockTableRecord
  2
KLON32
340
0
102
{BLKREFS
331
6C5
102
}
  0
BLOCK_RECORD
  5
6C8
330
1
100
AcDbSymbolTableRecord
100
AcDbBlockTableRecord
  2
KLON33
340
0
102
{BLKREFS
331
6CD
102
}
  0
BLOCK_RECORD
  5
6CF
330
1
100
AcDbSymbolTableRecord
100
AcDbBlockTableRecord
  2
KLON34
340
0
102
{BLKREFS
331
6D5
102
}
  0
BLOCK_RECORD
  5
6D9
330
1
100
AcDbSymbolTableRecord
100
AcDbBlockTableRecord
  2
KLON35
340
0
102
{BLKREFS
331
6DF
102
}
  0
BLOCK_RECORD
  5
6E0
330
1
100
AcDbSymbolTableRecord
100
AcDbBlockTableRecord
  2
KLON36
340
0
102
{BLKREFS
331
6E5
102
}
  0
BLOCK_RECORD
  5
6E7
330
1
100
AcDbSymbolTableRecord
100
AcDbBlockTableRecord
  2
KLON37
340
0
102
{BLKREFS
331
6EC
102
}
  0
ENDTAB
  0
ENDSEC
  0
SECTION
  2
BLOCKS
  0
BLOCK
  5
20
330
1F
100
AcDbEntity
  8
0
100
AcDbBlockBegin
  2
*Model_Space
 70
     0
 71
     0
 10
0.0
 20
0.0
 30
0.0
  3
*Model_Space
  1

  0
ENDBLK
  5
21
330
1F
100
AcDbEntity
  8
0
100
AcDbBlockEnd
  0
BLOCK
  5
1C
330
1B
100
AcDbEntity
 67
     1
  8
0
100
AcDbBlockBegin
  2
*Paper_Space
 70
     0
 71
     0
 10
0.0
 20
0.0
 30
0.0
  3
*Paper_Space
  1

  0
ENDBLK
  5
1D
330
1B
100
AcDbEntity
 67
     1
  8
0
100
AcDbBlockEnd
  0
BLOCK
  5
24
330
23
100
AcDbEntity
  8
0
100
AcDbBlockBegin
  2
*Paper_Space0
 70
     0
 71
     0
 10
0.0
 20
0.0
 30
0.0
  3
*Paper_Space0
  1

  0
ENDBLK
  5
25
330
23
100
AcDbEntity
  8
0
100
AcDbBlockEnd
  0
BLOCK
  5
E3
330
D8
100
AcDbEntity
  8
0
100
AcDbBlockBegin
  2
*D1
 70
     1
 71
     0
 10
0.0
 20
0.0
 30
0.0
  3
*D1
  1

  0
LINE
  5
D9
330
D8
100
AcDbEntity
  8
LC-001-100-D00-0
 62
     2
370
    -2
100
AcDbLine
 10
711.84389
 20
413.600124
 30
0.0
 11
711.84389
 21
298.218276
 31
0.0
  0
LINE
  5
DA
330
D8
100
AcDbEntity
  8
LC-001-100-D00-0
 62
     2
370
    -2
100
AcDbLine
 10
792.84389
 20
413.600124
 30
0.0
 11
792.84389
 21
298.218276
 31
0.0
  0
LINE
  5
DB
330
D8
100
AcDbEntity
  8
LC-001-100-D00-0
 62
     2
370
    -2
100
AcDbLine
 10
661.84389
 20
307.218276
 30
0.0
 11
611.84389
 21
307.218276
 31
0.0
  0
LINE
  5
DC
330
D8
100
AcDbEntity
  8
LC-001-100-D00-0
 62
     2
370
    -2
100
AcDbLine
 10
842.84389
 20
307.218276
 30
0.0
 11
876.475785
 21
307.218276
 31
0.0
  0
SOLID
  5
DD
330
D8
100
AcDbEntity
  8
LC-001-100-D00-0
 62
     2
100
AcDbTrace
 10
661.84389
 20
298.884943
 30
0.0
 11
661.84389
 21
315.551609
 31
0.0
 12
711.84389
 22
307.218276
 32
0.0
 13
711.84389
 23
307.218276
 33
0.0
  0
SOLID
  5
DE
330
D8
100
AcDbEntity
  8
LC-001-100-D00-0
 62
     2
100
AcDbTrace
 10
842.84389
 20
315.551609
 30
0.0
 11
842.84389
 21
298.884943
 31
0.0
 12
792.84389
 22
307.218276
 32
0.0
 13
792.84389
 23
307.218276
 33
0.0
  0
MTEXT
  5
DF
330
D8
100
AcDbEntity
  8
LC-001-100-D00-0
 62
     2
100
AcDbMText
 10
836.886337
 20
362.218276
 30
0.0
 40
50.0
 41
0.0
 71
     5
 72
     1
  1
\A1;81
  7
LCTX15-400-0-0pDIN-Schrift
 73
     1
 44
1.0
  0
POINT
  5
E0
330
D8
100
AcDbEntity
  8
Defpoints
 62
     0
100
AcDbPoint
 10
711.84389
 20
413.600124
 30
0.0
  0
POINT
  5
E1
330
D8
100
AcDbEntity
  8
Defpoints
 62
     0
100
AcDbPoint
 10
792.84389
 20
413.600124
 30
0.0
  0
POINT
  5
E2
330
D8
100
AcDbEntity
  8
Defpoints
 62
     0
100
AcDbPoint
 10
792.84389
 20
307.218276
 30
0.0
  0
ENDBLK
  5
E4
330
D8
100
AcDbEntity
  8
0
100
AcDbBlockEnd
  0
BLOCK
  5
108
330
107
100
AcDbEntity
  8
0
100
AcDbBlockBegin
  2
KLON1
 70
     0
 71
     0
 10
0.0
 20
0.0
 30
0.0
  3
KLON1
  1

  4
KLON1
  0
LINE
  5
10A
330
107
100
AcDbEntity
  8
LC-001-100-D00-0
 62
     7
370
    15
100
AcDbLine
 10
302.880407
 20
148.800945
 30
0.0
 11
302.893073
 21
148.720064
 31
0.0
  0
LINE
  5
10B
330
107
100
AcDbEntity
  8
LC-001-100-D00-0
 62
     7
370
    15
100
AcDbLine
 10
302.893073
 20
148.720064
 30
0.0
 11
302.901865
 21
148.663855
 31
0.0
  0
LINE
  5
10C
330
107
100
AcDbEntity
  8
LC-001-100-D00-0
 62
     7
370
    15
100
AcDbLine
 10
302.901865
 20
148.663855
 30
0.0
 11
302.904368
 21
148.647756
 31
0.0
  0
LINE
  5
10D
330
107
100
AcDbEntity
  8
LC-001-100-D00-0
 62
     7
370
    15
100
AcDbLine
 10
302.904368
 20
148.647756
 30
0.0
 11
302.906604
 21
148.633471
 31
0.0
  0
ENDBLK
  5
109
330
107
100
AcDbEntity
  8
0
100
AcDbBlockEnd
  0
BLOCK
  5
111
330
110
100
AcDbEntity
  8
0
100
AcDbBlockBegin
  2
KLON2
 70
     0
 71
     0
 10
0.0
 20
0.0
 30
0.0
  3
KLON2
  1

  4
KLON2
  0
LINE
  5
113
330
110
100
AcDbEntity
  8
LC-001-100-D00-0
 62
     7
370
    15
100
AcDbLine
 10
302.880407
 20
159.963637
 30
0.0
 11
302.890987
 21
159.969547
 31
0.0
  0
LINE
  5
114
330
110
100
AcDbEntity
  8
LC-001-100-D00-0
 62
     7
370
    15
100
AcDbLine
 10
302.890987
 20
159.969547
 30
0.0
 11
302.906604
 21
159.978275
 31
0.0
  0
ENDBLK
  5
112
330
110
100
AcDbEntity
  8
0
100
AcDbBlockEnd
  0
BLOCK
  5
117
330
116
100
AcDbEntity
  8
0
100
AcDbBlockBegin
  2
KLON3
 70
     0
 71
     0
 10
0.0
 20
0.0
 30
0.0
  3
KLON3
  1

  4
KLON3
  0
LINE
  5
119
330
116
100
AcDbEntity
  8
LC-001-100-D00-0
 62
     7
370
    15
100
AcDbLine
 10
302.880407
 20
112.978277
 30
0.0
 11
302.887828
 21
112.940104
 31
0.0
  0
LINE
  5
11A
330
116
100
AcDbEntity
  8
LC-001-100-D00-0
 62
     7
370
    15
100
AcDbLine
 10
302.887828
 20
112.940104
 30
0.0
 11
302.906604
 21
112.907619
 31
0.0
  0
ENDBLK
  5
118
330
116
100
AcDbEntity
  8
0
100
AcDbBlockEnd
  0
BLOCK
  5
11D
330
11C
100
AcDbEntity
  8
0
100
AcDbBlockBegin
  2
KLON4
 70
     0
 71
     0
 10
0.0
 20
0.0
 30
0.0
  3
KLON4
  1

  4
KLON4
  0
LINE
  5
11F
330
11C
100
AcDbEntity
  8
LC-001-100-D00-0
 62
     7
370
    15
100
AcDbLine
 10
-581.067204
 20
112.978277
 30
0.0
 11
-581.074624
 21
112.940104
 31
0.0
  0
LINE
  5
120
330
11C
100
AcDbEntity
  8
LC-001-100-D00-0
 62
     7
370
    15
100
AcDbLine
 10
-581.074624
 20
112.940104
 30
0.0
 11
-581.0934
 21
112.907619
 31
0.0
  0
ENDBLK
  5
11E
330
11C
100
AcDbEntity
  8
0
100
AcDbBlockEnd
  0
BLOCK
  5
123
330
122
100
AcDbEntity
  8
0
100
AcDbBlockBegin
  2
KLON5
 70
     0
 71
     0
 10
0.0
 20
0.0
 30
0.0
  3
KLON5
  1

  4
KLON5
  0
LINE
  5
125
330
122
100
AcDbEntity
  8
LC-001-100-D00-0
 62
     7
370
    15
100
AcDbLine
 10
-581.067204
 20
159.963637
 30
0.0
 11
-581.077783
 21
159.969547
 31
0.0
  0
LINE
  5
126
330
122
100
AcDbEntity
  8
LC-001-100-D00-0
 62
     7
370
    15
100
AcDbLine
 10
-581.077783
 20
159.969547
 30
0.0
 11
-581.0934
 21
159.978275
 31
0.0
  0
ENDBLK
  5
124
330
122
100
AcDbEntity
  8
0
100
AcDbBlockEnd
  0
BLOCK
  5
12A
330
129
100
AcDbEntity
  8
0
100
AcDbBlockBegin
  2
KLON6
 70
     0
 71
     0
 10
0.0
 20
0.0
 30
0.0
  3
KLON6
  1

  4
KLON6
  0
LINE
  5
12C
330
129
100
AcDbEntity
  8
LC-001-100-D00-0
 62
     7
370
    15
100
AcDbLine
 10
-581.067204
 20
148.800945
 30
0.0
 11
-581.07987
 21
148.720064
 31
0.0
  0
LINE
  5
12D
330
129
100
AcDbEntity
  8
LC-001-100-D00-0
 62
     7
370
    15
100
AcDbLine
 10
-581.07987
 20
148.720064
 30
0.0
 11
-581.088661
 21
148.663855
 31
0.0
  0
LINE
  5
12E
330
129
100
AcDbEntity
  8
LC-001-100-D00-0
 62
     7
370
    15
100
AcDbLine
 10
-581.088661
 20
148.663855
 30
0.0
 11
-581.091165
 21
148.647756
 31
0.0
  0
LINE
  5
12F
330
129
100
AcDbEntity
  8
LC-001-100-D00-0
 62
     7
370
    15
100
AcDbLine
 10
-581.091165
 20
148.647756
 30
0.0
 11
-581.0934
 21
148.633471
 31
0.0
  0
ENDBLK
  5
12B
330
129
100
AcDbEntity
  8
0
100
AcDbBlockEnd
  0
BLOCK
  5
141
330
140
100
AcDbEntity
  8
0
100
AcDbBlockBegin
  2
KLON7
 70
     0
 71
     0
 10
0.0
 20
0.0
 30
0.0
  3
KLON7
  1

  4
KLON7
  0
LINE
  5
143
330
140
100
AcDbEntity
  8
LC-001-100-D00-0
 62
     7
370
    15
100
AcDbLine
 10
302.851886
 20
124.144867
 30
0.0
 11
302.868039
 21
124.150952
 31
0.0
  0
LINE
  5
144
330
140
100
AcDbEntity
  8
LC-001-100-D00-0
 62
     7
370
    15
100
AcDbLine
 10
302.868039
 20
124.150952
 30
0.0
 11
302.880407
 21
124.155607
 31
0.0
  0
ENDBLK
  5
142
330
140
100
AcDbEntity
  8
0
100
AcDbBlockEnd
  0
BLOCK
  5
147
330
146
100
AcDbEntity
  8
0
100
AcDbBlockBegin
  2
KLON8
 70
     0
 71
     0
 10
0.0
 20
0.0
 30
0.0
  3
KLON8
  1

  4
KLON8
  0
LINE
  5
149
330
146
100
AcDbEntity
  8
LC-001-100-D00-0
 62
     7
370
    15
100
AcDbLine
 10
-581.038683
 20
124.144867
 30
0.0
 11
-581.054836
 21
124.150952
 31
0.0
  0
LINE
  5
14A
330
146
100
AcDbEntity
  8
LC-001-100-D00-0
 62
     7
370
    15
100
AcDbLine
 10
-581.054836
 20
124.150952
 30
0.0
 11
-581.067204
 21
124.155607
 31
0.0
  0
ENDBLK
  5
148
330
146
100
AcDbEntity
  8
0
100
AcDbBlockEnd
  0
BLOCK
  5
14E
330
14D
100
AcDbEntity
  8
0
100
AcDbBlockBegin
  2
KLON9
 70
     0
 71
     0
 10
0.0
 20
0.0
 30
0.0
  3
KLON9
  1

  4
KLON9
  0
LINE
  5
150
330
14D
100
AcDbEntity
  8
LC-001-100-D00-0
 62
     7
370
    15
100
AcDbLine
 10
165.893526
 20
130.619059
 30
0.0
 11
165.90494
 21
131.032533
 31
0.0
  0
LINE
  5
151
330
14D
100
AcDbEntity
  8
LC-001-100-D00-0
 62
     7
370
    15
100
AcDbLine
 10
165.90494
 20
131.032533
 30
0.0
 11
165.916623
 21
131.455791
 31
0.0
  0
LINE
  5
152
330
14D
100
AcDbEntity
  8
LC-001-100-D00-0
 62
     7
370
    15
100
AcDbLine
 10
165.916623
 20
131.455791
 30
0.0
 11
165.928424
 21
131.88397
 31
0.0
  0
ENDBLK
  5
14F
330
14D
100
AcDbEntity
  8
0
100
AcDbBlockEnd
  0
BLOCK
  5
155
330
154
100
AcDbEntity
  8
0
100
AcDbBlockBegin
  2
KLON10
 70
     0
 71
     0
 10
0.0
 20
0.0
 30
0.0
  3
KLON10
  1

  4
KLON10
  0
LINE
  5
157
330
154
100
AcDbEntity
  8
LC-001-100-D00-0
 62
     7
370
    15
100
AcDbLine
 10
302.851886
 20
148.811685
 30
0.0
 11
302.868039
 21
148.805601
 31
0.0
  0
LINE
  5
158
330
154
100
AcDbEntity
  8
LC-001-100-D00-0
 62
     7
370
    15
100
AcDbLine
 10
302.868039
 20
148.805601
 30
0.0
 11
302.880407
 21
148.800945
 31
0.0
  0
ENDBLK
  5
156
330
154
100
AcDbEntity
  8
0
100
AcDbBlockEnd
  0
BLOCK
  5
15B
330
15A
100
AcDbEntity
  8
0
100
AcDbBlockBegin
  2
KLON11
 70
     0
 71
     0
 10
0.0
 20
0.0
 30
0.0
  3
KLON11
  1

  4
KLON11
  0
LINE
  5
15D
330
15A
100
AcDbEntity
  8
LC-001-100-D00-0
 62
     7
370
    15
100
AcDbLine
 10
165.928424
 20
141.072582
 30
0.0
 11
165.916623
 21
141.500761
 31
0.0
  0
LINE
  5
15E
330
15A
100
AcDbEntity
  8
LC-001-100-D00-0
 62
     7
370
    15
100
AcDbLine
 10
165.916623
 20
141.500761
 30
0.0
 11
165.90494
 21
141.924019
 31
0.0
  0
LINE
  5
15F
330
15A
100
AcDbEntity
  8
LC-001-100-D00-0
 62
     7
370
    15
100
AcDbLine
 10
165.90494
 20
141.924019
 30
0.0
 11
165.893526
 21
142.337493
 31
0.0
  0
ENDBLK
  5
15C
330
15A
100
AcDbEntity
  8
0
100
AcDbBlockEnd
  0
BLOCK
  5
162
330
161
100
AcDbEntity
  8
0
100
AcDbBlockBegin
  2
KLON12
 70
     0
 71
     0
 10
0.0
 20
0.0
 30
0.0
  3
KLON12
  1

  4
KLON12
  0
LINE
  5
164
330
161
100
AcDbEntity
  8
LC-001-100-D00-0
 62
     7
370
    15
100
AcDbLine
 10
-444.080322
 20
130.619059
 30
0.0
 11
-444.091736
 21
131.032533
 31
0.0
  0
LINE
  5
165
330
161
100
AcDbEntity
  8
LC-001-100-D00-0
 62
     7
370
    15
100
AcDbLine
 10
-444.091736
 20
131.032533
 30
0.0
 11
-444.103419
 21
131.455791
 31
0.0
  0
LINE
  5
166
330
161
100
AcDbEntity
  8
LC-001-100-D00-0
 62
     7
370
    15
100
AcDbLine
 10
-444.103419
 20
131.455791
 30
0.0
 11
-444.115221
 21
131.88397
 31
0.0
  0
ENDBLK
  5
163
330
161
100
AcDbEntity
  8
0
100
AcDbBlockEnd
  0
BLOCK
  5
169
330
168
100
AcDbEntity
  8
0
100
AcDbBlockBegin
  2
KLON13
 70
     0
 71
     0
 10
0.0
 20
0.0
 30
0.0
  3
KLON13
  1

  4
KLON13
  0
LINE
  5
16B
330
168
100
AcDbEntity
  8
LC-001-100-D00-0
 62
     7
370
    15
100
AcDbLine
 10
-444.115221
 20
141.072582
 30
0.0
 11
-444.103419
 21
141.500761
 31
0.0
  0
LINE
  5
16C
330
168
100
AcDbEntity
  8
LC-001-100-D00-0
 62
     7
370
    15
100
AcDbLine
 10
-444.103419
 20
141.500761
 30
0.0
 11
-444.091736
 21
141.924019
 31
0.0
  0
LINE
  5
16D
330
168
100
AcDbEntity
  8
LC-001-100-D00-0
 62
     7
370
    15
100
AcDbLine
 10
-444.091736
 20
141.924019
 30
0.0
 11
-444.080322
 21
142.337493
 31
0.0
  0
ENDBLK
  5
16A
330
168
100
AcDbEntity
  8
0
100
AcDbBlockEnd
  0
BLOCK
  5
170
330
16F
100
AcDbEntity
  8
0
100
AcDbBlockBegin
  2
KLON14
 70
     0
 71
     0
 10
0.0
 20
0.0
 30
0.0
  3
KLON14
  1

  4
KLON14
  0
LINE
  5
172
330
16F
100
AcDbEntity
  8
LC-001-100-D00-0
 62
     7
370
    15
100
AcDbLine
 10
-581.038683
 20
148.811685
 30
0.0
 11
-581.054836
 21
148.805601
 31
0.0
  0
LINE
  5
173
330
16F
100
AcDbEntity
  8
LC-001-100-D00-0
 62
     7
370
    15
100
AcDbLine
 10
-581.054836
 20
148.805601
 30
0.0
 11
-581.067204
 21
148.800945
 31
0.0
  0
ENDBLK
  5
171
330
16F
100
AcDbEntity
  8
0
100
AcDbBlockEnd
  0
BLOCK
  5
21D
330
212
100
AcDbEntity
  8
0
100
AcDbBlockBegin
  2
*D16
 70
     1
 71
     0
 10
0.0
 20
0.0
 30
0.0
  3
*D16
  1

  0
LINE
  5
213
330
212
100
AcDbEntity
  8
LC-001-100-D00-0
 62
     2
370
    -2
100
AcDbLine
 10
355.906602
 20
182.478276
 30
0.0
 11
458.053824
 21
182.478276
 31
0.0
  0
LINE
  5
214
330
212
100
AcDbEntity
  8
LC-001-100-D00-0
 62
     2
370
    -2
100
AcDbLine
 10
355.906602
 20
180.978276
 30
0.0
 11
458.053824
 21
180.978276
 31
0.0
  0
LINE
  5
215
330
212
100
AcDbEntity
  8
LC-001-100-D00-0
 62
     2
370
    -2
100
AcDbLine
 10
449.053824
 20
232.478276
 30
0.0
 11
449.053824
 21
282.478276
 31
0.0
  0
LINE
  5
216
330
212
100
AcDbEntity
  8
LC-001-100-D00-0
 62
     2
370
    -2
100
AcDbLine
 10
449.053824
 20
130.978276
 30
0.0
 11
449.053824
 21
97.288594
 31
0.0
  0
SOLID
  5
217
330
212
100
AcDbEntity
  8
LC-001-100-D00-0
 62
     2
100
AcDbTrace
 10
440.720491
 20
232.478276
 30
0.0
 11
457.387157
 21
232.478276
 31
0.0
 12
449.053824
 22
182.478276
 32
0.0
 13
449.053824
 23
182.478276
 33
0.0
  0
SOLID
  5
218
330
212
100
AcDbEntity
  8
LC-001-100-D00-0
 62
     2
100
AcDbTrace
 10
457.387157
 20
130.978276
 30
0.0
 11
440.720491
 21
130.978276
 31
0.0
 12
449.053824
 22
180.978276
 32
0.0
 13
449.053824
 23
180.978276
 33
0.0
  0
MTEXT
  5
219
330
212
100
AcDbEntity
  8
LC-001-100-D00-0
 62
     2
100
AcDbMText
 10
394.053824
 20
143.868276
 30
0.0
 40
50.0
 41
0.0
 71
     5
 72
     1
  1
\A1;1,5
  7
LCTX15-400-0-0pDIN-Schrift
 11
6.123031769111886E-17
 21
1.0
 31
0.0
 73
     1
 44
1.0
  0
POINT
  5
21A
330
212
100
AcDbEntity
  8
Defpoints
 62
     0
100
AcDbPoint
 10
355.906602
 20
182.478276
 30
0.0
  0
POINT
  5
21B
330
212
100
AcDbEntity
  8
Defpoints
 62
     0
100
AcDbPoint
 10
355.906602
 20
180.978276
 30
0.0
  0
POINT
  5
21C
330
212
100
AcDbEntity
  8
Defpoints
 62
     0
100
AcDbPoint
 10
449.053824
 20
180.978276
 30
0.0
  0
ENDBLK
  5
21E
330
212
100
AcDbEntity
  8
0
100
AcDbBlockEnd
  0
BLOCK
  5
22B
330
220
100
AcDbEntity
  8
0
100
AcDbBlockBegin
  2
*D17
 70
     1
 71
     0
 10
0.0
 20
0.0
 30
0.0
  3
*D17
  1

  0
LINE
  5
221
330
220
100
AcDbEntity
  8
LC-001-100-D00-0
 62
     2
370
    -2
100
AcDbLine
 10
355.906602
 20
180.978276
 30
0.0
 11
542.268884
 21
180.978276
 31
0.0
  0
LINE
  5
222
330
220
100
AcDbEntity
  8
LC-001-100-D00-0
 62
     2
370
    -2
100
AcDbLine
 10
308.406602
 20
162.478276
 30
0.0
 11
542.268884
 21
162.478276
 31
0.0
  0
LINE
  5
223
330
220
100
AcDbEntity
  8
LC-001-100-D00-0
 62
     2
370
    -2
100
AcDbLine
 10
533.268884
 20
230.978276
 30
0.0
 11
533.268884
 21
280.978276
 31
0.0
  0
LINE
  5
224
330
220
100
AcDbEntity
  8
LC-001-100-D00-0
 62
     2
370
    -2
100
AcDbLine
 10
533.268884
 20
112.478276
 30
0.0
 11
533.268884
 21
50.025975
 31
0.0
  0
SOLID
  5
225
330
220
100
AcDbEntity
  8
LC-001-100-D00-0
 62
     2
100
AcDbTrace
 10
524.935551
 20
230.978276
 30
0.0
 11
541.602217
 21
230.978276
 31
0.0
 12
533.268884
 22
180.978276
 32
0.0
 13
533.268884
 23
180.978276
 33
0.0
  0
SOLID
  5
226
330
220
100
AcDbEntity
  8
LC-001-100-D00-0
 62
     2
100
AcDbTrace
 10
541.602217
 20
112.478276
 30
0.0
 11
524.935551
 21
112.478276
 31
0.0
 12
533.268884
 22
162.478276
 32
0.0
 13
533.268884
 23
162.478276
 33
0.0
  0
MTEXT
  5
227
330
220
100
AcDbEntity
  8
LC-001-100-D00-0
 62
     2
100
AcDbMText
 10
478.268884
 20
115.653276
 30
0.0
 40
50.0
 41
0.0
 71
     5
 72
     1
  1
\A1;18,5
  7
LCTX15-400-0-0pDIN-Schrift
 11
6.123031769111886E-17
 21
1.0
 31
0.0
 73
     1
 44
1.0
  0
POINT
  5
228
330
220
100
AcDbEntity
  8
Defpoints
 62
     0
100
AcDbPoint
 10
355.906602
 20
180.978276
 30
0.0
  0
POINT
  5
229
330
220
100
AcDbEntity
  8
Defpoints
 62
     0
100
AcDbPoint
 10
308.406602
 20
162.478276
 30
0.0
  0
POINT
  5
22A
330
220
100
AcDbEntity
  8
Defpoints
 62
     0
100
AcDbPoint
 10
533.268884
 20
162.478276
 30
0.0
  0
ENDBLK
  5
22C
330
220
100
AcDbEntity
  8
0
100
AcDbBlockEnd
  0
BLOCK
  5
238
330
22E
100
AcDbEntity
  8
0
100
AcDbBlockBegin
  2
*D18
 70
     1
 71
     0
 10
0.0
 20
0.0
 30
0.0
  3
*D18
  1

  0
LINE
  5
22F
330
22E
100
AcDbEntity
  8
LC-001-100-D00-0
 62
     2
370
    -2
100
AcDbLine
 10
355.906602
 20
182.478276
 30
0.0
 11
637.564873
 21
182.478276
 31
0.0
  0
LINE
  5
230
330
22E
100
AcDbEntity
  8
LC-001-100-D00-0
 62
     2
370
    -2
100
AcDbLine
 10
355.906602
 20
58.978276
 30
0.0
 11
637.564873
 21
58.978276
 31
0.0
  0
LINE
  5
231
330
22E
100
AcDbEntity
  8
LC-001-100-D00-0
 62
     2
370
    -2
100
AcDbLine
 10
628.564873
 20
132.478276
 30
0.0
 11
628.564873
 21
108.978276
 31
0.0
  0
SOLID
  5
232
330
22E
100
AcDbEntity
  8
LC-001-100-D00-0
 62
     2
100
AcDbTrace
 10
636.898206
 20
132.478276
 30
0.0
 11
620.231539
 21
132.478276
 31
0.0
 12
628.564873
 22
182.478276
 32
0.0
 13
628.564873
 23
182.478276
 33
0.0
  0
SOLID
  5
233
330
22E
100
AcDbEntity
  8
LC-001-100-D00-0
 62
     2
100
AcDbTrace
 10
620.231539
 20
108.978276
 30
0.0
 11
636.898206
 21
108.978276
 31
0.0
 12
628.564873
 22
58.978276
 32
0.0
 13
628.564873
 23
58.978276
 33
0.0
  0
MTEXT
  5
234
330
22E
100
AcDbEntity
  8
LC-001-100-D00-0
 62
     2
100
AcDbMText
 10
573.564873
 20
118.623276
 30
0.0
 40
50.0
 41
0.0
 71
     5
 72
     1
  1
\A1;123,5
  7
LCTX15-400-0-0pDIN-Schrift
 11
6.123031769111886E-17
 21
1.0
 31
0.0
 73
     1
 44
1.0
  0
POINT
  5
235
330
22E
100
AcDbEntity
  8
Defpoints
 62
     0
100
AcDbPoint
 10
355.906602
 20
182.478276
 30
0.0
  0
POINT
  5
236
330
22E
100
AcDbEntity
  8
Defpoints
 62
     0
100
AcDbPoint
 10
355.906602
 20
58.978276
 30
0.0
  0
POINT
  5
237
330
22E
100
AcDbEntity
  8
Defpoints
 62
     0
100
AcDbPoint
 10
628.564873
 20
58.978276
 30
0.0
  0
ENDBLK
  5
239
330
22E
100
AcDbEntity
  8
0
100
AcDbBlockEnd
  0
BLOCK
  5
41C
330
41B
100
AcDbEntity
  8
0
100
AcDbBlockBegin
  2
KLON15
 70
     0
 71
     0
 10
0.0
 20
0.0
 30
0.0
  3
KLON15
  1

  4
KLON15
  0
LINE
  5
41E
330
41B
100
AcDbEntity
  8
LC-001-100-D00-0
 62
     7
370
    15
100
AcDbLine
 10
-65.093397
 20
404.100124
 30
0.0
 11
-65.096124
 21
404.100154
 31
0.0
  0
LINE
  5
41F
330
41B
100
AcDbEntity
  8
LC-001-100-D00-0
 62
     7
370
    15
100
AcDbLine
 10
-65.096124
 20
404.100154
 30
0.0
 11
-65.100706
 21
404.100348
 31
0.0
  0
LINE
  5
420
330
41B
100
AcDbEntity
  8
LC-001-100-D00-0
 62
     7
370
    15
100
AcDbLine
 10
-65.100706
 20
404.100348
 30
0.0
 11
-65.10958
 21
404.101182
 31
0.0
  0
LINE
  5
421
330
41B
100
AcDbEntity
  8
LC-001-100-D00-0
 62
     7
370
    15
100
AcDbLine
 10
-65.10958
 20
404.101182
 30
0.0
 11
-65.11186
 21
404.101488
 31
0.0
  0
LINE
  5
422
330
41B
100
AcDbEntity
  8
LC-001-100-D00-0
 62
     7
370
    15
100
AcDbLine
 10
-65.11186
 20
404.101488
 30
0.0
 11
-65.112433
 21
404.10157
 31
0.0
  0
LINE
  5
423
330
41B
100
AcDbEntity
  8
LC-001-100-D00-0
 62
     7
370
    15
100
AcDbLine
 10
-65.112433
 20
404.10157
 30
0.0
 11
-65.112575
 21
404.101592
 31
0.0
  0
LINE
  5
424
330
41B
100
AcDbEntity
  8
LC-001-100-D00-0
 62
     7
370
    15
100
AcDbLine
 10
-65.112575
 20
404.101592
 30
0.0
 11
-65.231754
 21
404.150863
 31
0.0
  0
LINE
  5
425
330
41B
100
AcDbEntity
  8
LC-001-100-D00-0
 62
     7
370
    15
100
AcDbLine
 10
-65.231754
 20
404.150863
 30
0.0
 11
-66.072359
 21
404.963758
 31
0.0
  0
LINE
  5
426
330
41B
100
AcDbEntity
  8
LC-001-100-D00-0
 62
     7
370
    15
100
AcDbLine
 10
-66.072359
 20
404.963758
 30
0.0
 11
-67.161038
 21
406.28909
 31
0.0
  0
LINE
  5
427
330
41B
100
AcDbEntity
  8
LC-001-100-D00-0
 62
     7
370
    15
100
AcDbLine
 10
-67.161038
 20
406.28909
 30
0.0
 11
-68.5869
 21
408.192244
 31
0.0
  0
LINE
  5
428
330
41B
100
AcDbEntity
  8
LC-001-100-D00-0
 62
     7
370
    15
100
AcDbLine
 10
-68.5869
 20
408.192244
 30
0.0
 11
-70.639244
 21
411.157903
 31
0.0
  0
LINE
  5
429
330
41B
100
AcDbEntity
  8
LC-001-100-D00-0
 62
     7
370
    15
100
AcDbLine
 10
-70.639244
 20
411.157903
 30
0.0
 11
-73.009915
 21
414.799233
 31
0.0
  0
LINE
  5
42A
330
41B
100
AcDbEntity
  8
LC-001-100-D00-0
 62
     7
370
    15
100
AcDbLine
 10
-73.009915
 20
414.799233
 30
0.0
 11
-73.118105
 21
414.965619
 31
0.0
  0
ENDBLK
  5
41D
330
41B
100
AcDbEntity
  8
0
100
AcDbBlockEnd
  0
BLOCK
  5
42D
330
42C
100
AcDbEntity
  8
0
100
AcDbBlockBegin
  2
KLON16
 70
     0
 71
     0
 10
0.0
 20
0.0
 30
0.0
  3
KLON16
  1

  4
KLON16
  0
LINE
  5
42F
330
42C
100
AcDbEntity
  8
LC-001-100-D00-0
 62
     7
370
    15
100
AcDbLine
 10
-73.118105
 20
414.965619
 30
0.0
 11
-73.859713
 21
417.344165
 31
0.0
  0
LINE
  5
430
330
42C
100
AcDbEntity
  8
LC-001-100-D00-0
 62
     7
370
    15
100
AcDbLine
 10
-73.859713
 20
417.344165
 30
0.0
 11
-74.49445
 21
419.924591
 31
0.0
  0
LINE
  5
431
330
42C
100
AcDbEntity
  8
LC-001-100-D00-0
 62
     7
370
    15
100
AcDbLine
 10
-74.49445
 20
419.924591
 30
0.0
 11
-75.013659
 21
423.056774
 31
0.0
  0
LINE
  5
432
330
42C
100
AcDbEntity
  8
LC-001-100-D00-0
 62
     7
370
    15
100
AcDbLine
 10
-75.013659
 20
423.056774
 30
0.0
 11
-75.250498
 21
426.393651
 31
0.0
  0
LINE
  5
433
330
42C
100
AcDbEntity
  8
LC-001-100-D00-0
 62
     7
370
    15
100
AcDbLine
 10
-75.250498
 20
426.393651
 30
0.0
 11
-75.159579
 21
429.66342
 31
0.0
  0
LINE
  5
434
330
42C
100
AcDbEntity
  8
LC-001-100-D00-0
 62
     7
370
    15
100
AcDbLine
 10
-75.159579
 20
429.66342
 30
0.0
 11
-74.747763
 21
432.954796
 31
0.0
  0
LINE
  5
435
330
42C
100
AcDbEntity
  8
LC-001-100-D00-0
 62
     7
370
    15
100
AcDbLine
 10
-74.747763
 20
432.954796
 30
0.0
 11
-74.103869
 21
435.947586
 31
0.0
  0
LINE
  5
436
330
42C
100
AcDbEntity
  8
LC-001-100-D00-0
 62
     7
370
    15
100
AcDbLine
 10
-74.103869
 20
435.947586
 30
0.0
 11
-73.265239
 21
438.797512
 31
0.0
  0
LINE
  5
437
330
42C
100
AcDbEntity
  8
LC-001-100-D00-0
 62
     7
370
    15
100
AcDbLine
 10
-73.265239
 20
438.797512
 30
0.0
 11
-72.197578
 21
441.708539
 31
0.0
  0
LINE
  5
438
330
42C
100
AcDbEntity
  8
LC-001-100-D00-0
 62
     7
370
    15
100
AcDbLine
 10
-72.197578
 20
441.708539
 30
0.0
 11
-71.073703
 21
444.318642
 31
0.0
  0
LINE
  5
439
330
42C
100
AcDbEntity
  8
LC-001-100-D00-0
 62
     7
370
    15
100
AcDbLine
 10
-71.073703
 20
444.318642
 30
0.0
 11
-69.925285
 21
446.695354
 31
0.0
  0
LINE
  5
43A
330
42C
100
AcDbEntity
  8
LC-001-100-D00-0
 62
     7
370
    15
100
AcDbLine
 10
-69.925285
 20
446.695354
 30
0.0
 11
-68.953468
 21
448.549465
 31
0.0
  0
LINE
  5
43B
330
42C
100
AcDbEntity
  8
LC-001-100-D00-0
 62
     7
370
    15
100
AcDbLine
 10
-68.953468
 20
448.549465
 30
0.0
 11
-68.41123
 21
449.535736
 31
0.0
  0
LINE
  5
43C
330
42C
100
AcDbEntity
  8
LC-001-100-D00-0
 62
     7
370
    15
100
AcDbLine
 10
-68.41123
 20
449.535736
 30
0.0
 11
-68.124532
 21
450.045262
 31
0.0
  0
LINE
  5
43D
330
42C
100
AcDbEntity
  8
LC-001-100-D00-0
 62
     7
370
    15
100
AcDbLine
 10
-68.124532
 20
450.045262
 30
0.0
 11
-68.093671
 21
450.09964
 31
0.0
  0
LINE
  5
43E
330
42C
100
AcDbEntity
  8
LC-001-100-D00-0
 62
     7
370
    15
100
AcDbLine
 10
-68.093671
 20
450.09964
 30
0.0
 11
-68.093396
 21
450.100124
 31
0.0
  0
ENDBLK
  5
42E
330
42C
100
AcDbEntity
  8
0
100
AcDbBlockEnd
  0
BLOCK
  5
444
330
443
100
AcDbEntity
  8
0
100
AcDbBlockBegin
  2
KLON17
 70
     0
 71
     0
 10
0.0
 20
0.0
 30
0.0
  3
KLON17
  1

  4
KLON17
  0
LINE
  5
446
330
443
100
AcDbEntity
  8
LC-001-100-D00-0
 62
     7
370
    15
100
AcDbLine
 10
-73.775946
 20
413.600121
 30
0.0
 11
-73.769166
 21
413.614404
 31
0.0
  0
LINE
  5
447
330
443
100
AcDbEntity
  8
LC-001-100-D00-0
 62
     7
370
    15
100
AcDbLine
 10
-73.769166
 20
413.614404
 30
0.0
 11
-73.118105
 21
414.965619
 31
0.0
  0
ENDBLK
  5
445
330
443
100
AcDbEntity
  8
0
100
AcDbBlockEnd
  0
BLOCK
  5
572
330
571
100
AcDbEntity
  8
0
100
AcDbBlockBegin
  2
KLON18
 70
     0
 71
     0
 10
0.0
 20
0.0
 30
0.0
  3
KLON18
  1

  4
KLON18
  0
LINE
  5
574
330
571
100
AcDbEntity
  8
LC-001-100-D00-0
 62
     7
370
    15
100
AcDbLine
 10
293.814273
 20
462.268288
 30
0.0
 11
296.370597
 21
462.361584
 31
0.0
  0
LINE
  5
575
330
571
100
AcDbEntity
  8
LC-001-100-D00-0
 62
     7
370
    15
100
AcDbLine
 10
296.370597
 20
462.361584
 30
0.0
 11
298.516394
 21
462.439897
 31
0.0
  0
LINE
  5
576
330
571
100
AcDbEntity
  8
LC-001-100-D00-0
 62
     7
370
    15
100
AcDbLine
 10
298.516394
 20
462.439897
 30
0.0
 11
300.246538
 21
462.503041
 31
0.0
  0
LINE
  5
577
330
571
100
AcDbEntity
  8
LC-001-100-D00-0
 62
     7
370
    15
100
AcDbLine
 10
300.246538
 20
462.503041
 30
0.0
 11
301.556856
 21
462.550862
 31
0.0
  0
LINE
  5
578
330
571
100
AcDbEntity
  8
LC-001-100-D00-0
 62
     7
370
    15
100
AcDbLine
 10
301.556856
 20
462.550862
 30
0.0
 11
302.44425
 21
462.58325
 31
0.0
  0
LINE
  5
579
330
571
100
AcDbEntity
  8
LC-001-100-D00-0
 62
     7
370
    15
100
AcDbLine
 10
302.44425
 20
462.58325
 30
0.0
 11
302.906604
 21
462.600124
 31
0.0
  0
ENDBLK
  5
573
330
571
100
AcDbEntity
  8
0
100
AcDbBlockEnd
  0
BLOCK
  5
57C
330
57B
100
AcDbEntity
  8
0
100
AcDbBlockBegin
  2
KLON19
 70
     0
 71
     0
 10
0.0
 20
0.0
 30
0.0
  3
KLON19
  1

  4
KLON19
  0
LINE
  5
57E
330
57B
100
AcDbEntity
  8
LC-001-100-D00-0
 62
     7
370
    15
100
AcDbLine
 10
-572.001069
 20
462.268288
 30
0.0
 11
-574.557393
 21
462.361584
 31
0.0
  0
LINE
  5
57F
330
57B
100
AcDbEntity
  8
LC-001-100-D00-0
 62
     7
370
    15
100
AcDbLine
 10
-574.557393
 20
462.361584
 30
0.0
 11
-576.70319
 21
462.439897
 31
0.0
  0
LINE
  5
580
330
57B
100
AcDbEntity
  8
LC-001-100-D00-0
 62
     7
370
    15
100
AcDbLine
 10
-576.70319
 20
462.439897
 30
0.0
 11
-578.433334
 21
462.503041
 31
0.0
  0
LINE
  5
581
330
57B
100
AcDbEntity
  8
LC-001-100-D00-0
 62
     7
370
    15
100
AcDbLine
 10
-578.433334
 20
462.503041
 30
0.0
 11
-579.743653
 21
462.550862
 31
0.0
  0
LINE
  5
582
330
57B
100
AcDbEntity
  8
LC-001-100-D00-0
 62
     7
370
    15
100
AcDbLine
 10
-579.743653
 20
462.550862
 30
0.0
 11
-580.631047
 21
462.58325
 31
0.0
  0
LINE
  5
583
330
57B
100
AcDbEntity
  8
LC-001-100-D00-0
 62
     7
370
    15
100
AcDbLine
 10
-580.631047
 20
462.58325
 30
0.0
 11
-581.0934
 21
462.600124
 31
0.0
  0
ENDBLK
  5
57D
330
57B
100
AcDbEntity
  8
0
100
AcDbBlockEnd
  0
BLOCK
  5
5A0
330
59F
100
AcDbEntity
  8
0
100
AcDbBlockBegin
  2
KLON20
 70
     0
 71
     0
 10
0.0
 20
0.0
 30
0.0
  3
KLON20
  1

  4
KLON20
  0
LINE
  5
5A2
330
59F
100
AcDbEntity
  8
LC-001-100-D00-0
 62
     7
370
    15
100
AcDbLine
 10
-185.213014
 20
450.600122
 30
0.0
 11
-185.199483
 21
450.441417
 31
0.0
  0
LINE
  5
5A3
330
59F
100
AcDbEntity
  8
LC-001-100-D00-0
 62
     7
370
    15
100
AcDbLine
 10
-185.199483
 20
450.441417
 30
0.0
 11
-185.03756
 21
449.856997
 31
0.0
  0
LINE
  5
5A4
330
59F
100
AcDbEntity
  8
LC-001-100-D00-0
 62
     7
370
    15
100
AcDbLine
 10
-185.03756
 20
449.856997
 30
0.0
 11
-184.787693
 21
449.410692
 31
0.0
  0
LINE
  5
5A5
330
59F
100
AcDbEntity
  8
LC-001-100-D00-0
 62
     7
370
    15
100
AcDbLine
 10
-184.787693
 20
449.410692
 30
0.0
 11
-184.476393
 21
449.151941
 31
0.0
  0
LINE
  5
5A6
330
59F
100
AcDbEntity
  8
LC-001-100-D00-0
 62
     7
370
    15
100
AcDbLine
 10
-184.476393
 20
449.151941
 30
0.0
 11
-184.3389
 21
449.108184
 31
0.0
  0
ENDBLK
  5
5A1
330
59F
100
AcDbEntity
  8
0
100
AcDbBlockEnd
  0
BLOCK
  5
5A9
330
5A8
100
AcDbEntity
  8
0
100
AcDbBlockBegin
  2
KLON21
 70
     0
 71
     0
 10
0.0
 20
0.0
 30
0.0
  3
KLON21
  1

  4
KLON21
  0
LINE
  5
5AB
330
5A8
100
AcDbEntity
  8
LC-001-100-D00-0
 62
     7
370
    15
100
AcDbLine
 10
302.879245
 20
464.100123
 30
0.0
 11
302.87856
 21
464.138104
 31
0.0
  0
LINE
  5
5AC
330
5A8
100
AcDbEntity
  8
LC-001-100-D00-0
 62
     7
370
    15
100
AcDbLine
 10
302.87856
 20
464.138104
 30
0.0
 11
302.876503
 21
464.250891
 31
0.0
  0
LINE
  5
5AD
330
5A8
100
AcDbEntity
  8
LC-001-100-D00-0
 62
     7
370
    15
100
AcDbLine
 10
302.876503
 20
464.250891
 30
0.0
 11
302.873136
 21
464.43506
 31
0.0
  0
LINE
  5
5AE
330
5A8
100
AcDbEntity
  8
LC-001-100-D00-0
 62
     7
370
    15
100
AcDbLine
 10
302.873136
 20
464.43506
 30
0.0
 11
302.868576
 21
464.685012
 31
0.0
  0
LINE
  5
5AF
330
5A8
100
AcDbEntity
  8
LC-001-100-D00-0
 62
     7
370
    15
100
AcDbLine
 10
302.868576
 20
464.685012
 30
0.0
 11
302.862943
 21
464.993155
 31
0.0
  0
LINE
  5
5B0
330
5A8
100
AcDbEntity
  8
LC-001-100-D00-0
 62
     7
370
    15
100
AcDbLine
 10
302.862943
 20
464.993155
 30
0.0
 11
302.856446
 21
465.350124
 31
0.0
  0
LINE
  5
5B1
330
5A8
100
AcDbEntity
  8
LC-001-100-D00-0
 62
     7
370
    15
100
AcDbLine
 10
302.856446
 20
465.350124
 30
0.0
 11
302.849234
 21
465.745073
 31
0.0
  0
LINE
  5
5B2
330
5A8
100
AcDbEntity
  8
LC-001-100-D00-0
 62
     7
370
    15
100
AcDbLine
 10
302.849234
 20
465.745073
 30
0.0
 11
302.841545
 21
466.166003
 31
0.0
  0
LINE
  5
5B3
330
5A8
100
AcDbEntity
  8
LC-001-100-D00-0
 62
     7
370
    15
100
AcDbLine
 10
302.841545
 20
466.166003
 30
0.0
 11
302.833647
 21
466.600124
 31
0.0
  0
ENDBLK
  5
5AA
330
5A8
100
AcDbEntity
  8
0
100
AcDbBlockEnd
  0
BLOCK
  5
5B6
330
5B5
100
AcDbEntity
  8
0
100
AcDbBlockBegin
  2
KLON22
 70
     0
 71
     0
 10
0.0
 20
0.0
 30
0.0
  3
KLON22
  1

  4
KLON22
  0
LINE
  5
5B8
330
5B5
100
AcDbEntity
  8
LC-001-100-D00-0
 62
     7
370
    15
100
AcDbLine
 10
-581.066041
 20
464.100123
 30
0.0
 11
-581.065356
 21
464.138104
 31
0.0
  0
LINE
  5
5B9
330
5B5
100
AcDbEntity
  8
LC-001-100-D00-0
 62
     7
370
    15
100
AcDbLine
 10
-581.065356
 20
464.138104
 30
0.0
 11
-581.063299
 21
464.250891
 31
0.0
  0
LINE
  5
5BA
330
5B5
100
AcDbEntity
  8
LC-001-100-D00-0
 62
     7
370
    15
100
AcDbLine
 10
-581.063299
 20
464.250891
 30
0.0
 11
-581.059932
 21
464.43506
 31
0.0
  0
LINE
  5
5BB
330
5B5
100
AcDbEntity
  8
LC-001-100-D00-0
 62
     7
370
    15
100
AcDbLine
 10
-581.059932
 20
464.43506
 30
0.0
 11
-581.055372
 21
464.685012
 31
0.0
  0
LINE
  5
5BC
330
5B5
100
AcDbEntity
  8
LC-001-100-D00-0
 62
     7
370
    15
100
AcDbLine
 10
-581.055372
 20
464.685012
 30
0.0
 11
-581.049739
 21
464.993155
 31
0.0
  0
LINE
  5
5BD
330
5B5
100
AcDbEntity
  8
LC-001-100-D00-0
 62
     7
370
    15
100
AcDbLine
 10
-581.049739
 20
464.993155
 30
0.0
 11
-581.043243
 21
465.350124
 31
0.0
  0
LINE
  5
5BE
330
5B5
100
AcDbEntity
  8
LC-001-100-D00-0
 62
     7
370
    15
100
AcDbLine
 10
-581.043243
 20
465.350124
 30
0.0
 11
-581.03603
 21
465.745073
 31
0.0
  0
LINE
  5
5BF
330
5B5
100
AcDbEntity
  8
LC-001-100-D00-0
 62
     7
370
    15
100
AcDbLine
 10
-581.03603
 20
465.745073
 30
0.0
 11
-581.028341
 21
466.166003
 31
0.0
  0
LINE
  5
5C0
330
5B5
100
AcDbEntity
  8
LC-001-100-D00-0
 62
     7
370
    15
100
AcDbLine
 10
-581.028341
 20
466.166003
 30
0.0
 11
-581.020444
 21
466.600124
 31
0.0
  0
ENDBLK
  5
5B7
330
5B5
100
AcDbEntity
  8
0
100
AcDbBlockEnd
  0
BLOCK
  5
5DE
330
5D3
100
AcDbEntity
  8
0
100
AcDbBlockBegin
  2
*D27
 70
     1
 71
     0
 10
0.0
 20
0.0
 30
0.0
  3
*D27
  1

  0
LINE
  5
5D4
330
5D3
100
AcDbEntity
  8
LC-001-100-D00-0
 62
     2
370
    -2
100
AcDbLine
 10
-639.093398
 20
484.600124
 30
0.0
 11
-690.200928
 21
484.600124
 31
0.0
  0
LINE
  5
5D5
330
5D3
100
AcDbEntity
  8
LC-001-100-D00-0
 62
     2
370
    -2
100
AcDbLine
 10
-634.093398
 20
529.600124
 30
0.0
 11
-690.200928
 21
529.600124
 31
0.0
  0
LINE
  5
5D6
330
5D3
100
AcDbEntity
  8
LC-001-100-D00-0
 62
     2
370
    -2
100
AcDbLine
 10
-681.200928
 20
579.600124
 30
0.0
 11
-681.200928
 21
629.600124
 31
0.0
  0
LINE
  5
5D7
330
5D3
100
AcDbEntity
  8
LC-001-100-D00-0
 62
     2
370
    -2
100
AcDbLine
 10
-681.200928
 20
434.600124
 30
0.0
 11
-681.200928
 21
389.520846
 31
0.0
  0
SOLID
  5
5D8
330
5D3
100
AcDbEntity
  8
LC-001-100-D00-0
 62
     2
100
AcDbTrace
 10
-672.867595
 20
434.600124
 30
0.0
 11
-689.534261
 21
434.600124
 31
0.0
 12
-681.200928
 22
484.600124
 32
0.0
 13
-681.200928
 23
484.600124
 33
0.0
  0
SOLID
  5
5D9
330
5D3
100
AcDbEntity
  8
LC-001-100-D00-0
 62
     2
100
AcDbTrace
 10
-689.534261
 20
579.600124
 30
0.0
 11
-672.867595
 21
579.600124
 31
0.0
 12
-681.200928
 22
529.600124
 32
0.0
 13
-681.200928
 23
529.600124
 33
0.0
  0
MTEXT
  5
5DA
330
5D3
100
AcDbEntity
  8
LC-001-100-D00-0
 62
     2
100
AcDbMText
 10
-736.200928
 20
431.958276
 30
0.0
 40
50.0
 41
0.0
 71
     5
 72
     1
  1
\A1;46
  7
LCTX15-400-0-0pDIN-Schrift
 11
6.123031769111886E-17
 21
1.0
 31
0.0
 73
     1
 44
1.0
  0
POINT
  5
5DB
330
5D3
100
AcDbEntity
  8
Defpoints
 62
     0
100
AcDbPoint
 10
-639.093398
 20
484.600124
 30
0.0
  0
POINT
  5
5DC
330
5D3
100
AcDbEntity
  8
Defpoints
 62
     0
100
AcDbPoint
 10
-634.093398
 20
529.600124
 30
0.0
  0
POINT
  5
5DD
330
5D3
100
AcDbEntity
  8
Defpoints
 62
     0
100
AcDbPoint
 10
-681.200928
 20
529.600124
 30
0.0
  0
ENDBLK
  5
5DF
330
5D3
100
AcDbEntity
  8
0
100
AcDbBlockEnd
  0
BLOCK
  5
5ED
330
5E1
100
AcDbEntity
  8
0
100
AcDbBlockBegin
  2
*D28
 70
     1
 71
     0
 10
0.0
 20
0.0
 30
0.0
  3
*D28
  1

  0
LINE
  5
5E2
330
5E1
100
AcDbEntity
  8
LC-001-100-D00-0
 62
     2
370
    -2
100
AcDbLine
 10
-168.093398
 20
413.100124
 30
0.0
 11
-287.976968
 21
413.100124
 31
0.0
  0
LINE
  5
5E3
330
5E1
100
AcDbEntity
  8
LC-001-100-D00-0
 62
     2
370
    -2
100
AcDbLine
 10
-178.586277
 20
443.100124
 30
0.0
 11
-287.976968
 21
443.100124
 31
0.0
  0
LINE
  5
5E4
330
5E1
100
AcDbEntity
  8
LC-001-100-D00-0
 62
     2
370
    -2
100
AcDbLine
 10
-278.976968
 20
363.100124
 30
0.0
 11
-278.976968
 21
313.100124
 31
0.0
  0
LINE
  5
5E5
330
5E1
100
AcDbEntity
  8
LC-001-100-D00-0
 62
     2
370
    -2
100
AcDbLine
 10
-278.976968
 20
493.100124
 30
0.0
 11
-278.976968
 21
543.100124
 31
0.0
  0
LINE
  5
5E6
330
5E1
100
AcDbEntity
  8
LC-001-100-D00-0
 62
     2
370
    -2
100
AcDbLine
 10
-278.976968
 20
413.100124
 30
0.0
 11
-278.976968
 21
443.100124
 31
0.0
  0
SOLID
  5
5E7
330
5E1
100
AcDbEntity
  8
LC-001-100-D00-0
 62
     2
100
AcDbTrace
 10
-270.643634
 20
363.100124
 30
0.0
 11
-287.310301
 21
363.100124
 31
0.0
 12
-278.976968
 22
413.100124
 32
0.0
 13
-278.976968
 23
413.100124
 33
0.0
  0
SOLID
  5
5E8
330
5E1
100
AcDbEntity
  8
LC-001-100-D00-0
 62
     2
100
AcDbTrace
 10
-287.310301
 20
493.100124
 30
0.0
 11
-270.643634
 21
493.100124
 31
0.0
 12
-278.976968
 22
443.100124
 32
0.0
 13
-278.976968
 23
443.100124
 33
0.0
  0
MTEXT
  5
5E9
330
5E1
100
AcDbEntity
  8
LC-001-100-D00-0
 62
     2
100
AcDbMText
 10
-333.976968
 20
427.941872
 30
0.0
 40
50.0
 41
0.0
 71
     5
 72
     1
  1
\A1;30
  7
LCTX15-400-0-0pDIN-Schrift
 11
6.123031769111886E-17
 21
1.0
 31
0.0
 73
     1
 44
1.0
  0
POINT
  5
5EA
330
5E1
100
AcDbEntity
  8
Defpoints
 62
     0
100
AcDbPoint
 10
-168.093398
 20
413.100124
 30
0.0
  0
POINT
  5
5EB
330
5E1
100
AcDbEntity
  8
Defpoints
 62
     0
100
AcDbPoint
 10
-178.586277
 20
443.100124
 30
0.0
  0
POINT
  5
5EC
330
5E1
100
AcDbEntity
  8
Defpoints
 62
     0
100
AcDbPoint
 10
-278.976968
 20
443.100124
 30
0.0
  0
ENDBLK
  5
5EE
330
5E1
100
AcDbEntity
  8
0
100
AcDbBlockEnd
  0
BLOCK
  5
5FA
330
5F0
100
AcDbEntity
  8
0
100
AcDbBlockBegin
  2
*D29
 70
     1
 71
     0
 10
0.0
 20
0.0
 30
0.0
  3
*D29
  1

  0
LINE
  5
5F1
330
5F0
100
AcDbEntity
  8
LC-001-100-D00-0
 62
     2
370
    -2
100
AcDbLine
 10
-213.093398
 20
413.600124
 30
0.0
 11
-213.093398
 21
283.368276
 31
0.0
  0
LINE
  5
5F2
330
5F0
100
AcDbEntity
  8
LC-001-100-D00-0
 62
     2
370
    -2
100
AcDbLine
 10
70.406399
 20
403.037946
 30
0.0
 11
70.406399
 21
283.368276
 31
0.0
  0
LINE
  5
5F3
330
5F0
100
AcDbEntity
  8
LC-001-100-D00-0
 62
     2
370
    -2
100
AcDbLine
 10
-163.093398
 20
292.368276
 30
0.0
 11
20.406399
 21
292.368276
 31
0.0
  0
SOLID
  5
5F4
330
5F0
100
AcDbEntity
  8
LC-001-100-D00-0
 62
     2
100
AcDbTrace
 10
-163.093398
 20
300.701609
 30
0.0
 11
-163.093398
 21
284.034943
 31
0.0
 12
-213.093398
 22
292.368276
 32
0.0
 13
-213.093398
 23
292.368276
 33
0.0
  0
SOLID
  5
5F5
330
5F0
100
AcDbEntity
  8
LC-001-100-D00-0
 62
     2
100
AcDbTrace
 10
20.406399
 20
284.034943
 30
0.0
 11
20.406399
 21
300.701609
 31
0.0
 12
70.406399
 22
292.368276
 32
0.0
 13
70.406399
 23
292.368276
 33
0.0
  0
MTEXT
  5
5F6
330
5F0
100
AcDbEntity
  8
LC-001-100-D00-0
 62
     2
100
AcDbMText
 10
-71.749836
 20
347.368276
 30
0.0
 40
50.0
 41
0.0
 71
     5
 72
     1
  1
\A1;284
  7
LCTX15-400-0-0pDIN-Schrift
 73
     1
 44
1.0
  0
POINT
  5
5F7
330
5F0
100
AcDbEntity
  8
Defpoints
 62
     0
100
AcDbPoint
 10
-213.093398
 20
413.600124
 30
0.0
  0
POINT
  5
5F8
330
5F0
100
AcDbEntity
  8
Defpoints
 62
     0
100
AcDbPoint
 10
70.406399
 20
403.037946
 30
0.0
  0
POINT
  5
5F9
330
5F0
100
AcDbEntity
  8
Defpoints
 62
     0
100
AcDbPoint
 10
70.406399
 20
292.368276
 30
0.0
  0
ENDBLK
  5
5FB
330
5F0
100
AcDbEntity
  8
0
100
AcDbBlockEnd
  0
BLOCK
  5
608
330
5FD
100
AcDbEntity
  8
0
100
AcDbBlockBegin
  2
*D30
 70
     1
 71
     0
 10
0.0
 20
0.0
 30
0.0
  3
*D30
  1

  0
LINE
  5
5FE
330
5FD
100
AcDbEntity
  8
LC-001-100-D00-0
 62
     2
370
    -2
100
AcDbLine
 10
66.906399
 20
452.100124
 30
0.0
 11
462.486196
 21
452.100124
 31
0.0
  0
LINE
  5
5FF
330
5FD
100
AcDbEntity
  8
LC-001-100-D00-0
 62
     2
370
    -2
100
AcDbLine
 10
66.906399
 20
402.100124
 30
0.0
 11
462.486196
 21
402.100124
 31
0.0
  0
LINE
  5
600
330
5FD
100
AcDbEntity
  8
LC-001-100-D00-0
 62
     2
370
    -2
100
AcDbLine
 10
453.486196
 20
352.100124
 30
0.0
 11
453.486196
 21
302.100124
 31
0.0
  0
LINE
  5
601
330
5FD
100
AcDbEntity
  8
LC-001-100-D00-0
 62
     2
370
    -2
100
AcDbLine
 10
453.486196
 20
502.100124
 30
0.0
 11
453.486196
 21
538.584629
 31
0.0
  0
SOLID
  5
602
330
5FD
100
AcDbEntity
  8
LC-001-100-D00-0
 62
     2
100
AcDbTrace
 10
445.152862
 20
502.100124
 30
0.0
 11
461.819529
 21
502.100124
 31
0.0
 12
453.486196
 22
452.100124
 32
0.0
 13
453.486196
 23
452.100124
 33
0.0
  0
SOLID
  5
603
330
5FD
100
AcDbEntity
  8
LC-001-100-D00-0
 62
     2
100
AcDbTrace
 10
461.819529
 20
352.100124
 30
0.0
 11
445.152862
 21
352.100124
 31
0.0
 12
453.486196
 22
402.100124
 32
0.0
 13
453.486196
 23
402.100124
 33
0.0
  0
MTEXT
  5
604
330
5FD
100
AcDbEntity
  8
LC-001-100-D00-0
 62
     2
100
AcDbMText
 10
398.486196
 20
454.233276
 30
0.0
 40
50.0
 41
0.0
 71
     5
 72
     1
  1
\A1;DN50
  7
LCTX15-400-0-0pDIN-Schrift
 11
6.123031769111886E-17
 21
1.0
 31
0.0
 73
     1
 44
1.0
  0
POINT
  5
605
330
5FD
100
AcDbEntity
  8
Defpoints
 62
     0
100
AcDbPoint
 10
66.906399
 20
452.100124
 30
0.0
  0
POINT
  5
606
330
5FD
100
AcDbEntity
  8
Defpoints
 62
     0
100
AcDbPoint
 10
66.906399
 20
402.100124
 30
0.0
  0
POINT
  5
607
330
5FD
100
AcDbEntity
  8
Defpoints
 62
     0
100
AcDbPoint
 10
453.486196
 20
402.100124
 30
0.0
  0
ENDBLK
  5
609
330
5FD
100
AcDbEntity
  8
0
100
AcDbBlockEnd
  0
BLOCK
  5
615
330
60B
100
AcDbEntity
  8
0
100
AcDbBlockBegin
  2
*D31
 70
     1
 71
     0
 10
0.0
 20
0.0
 30
0.0
  3
*D31
  1

  0
LINE
  5
60C
330
60B
100
AcDbEntity
  8
LC-001-100-D00-0
 62
     2
370
    -2
100
AcDbLine
 10
-639.093398
 20
524.600124
 30
0.0
 11
-639.093398
 21
639.948276
 31
0.0
  0
LINE
  5
60D
330
60B
100
AcDbEntity
  8
LC-001-100-D00-0
 62
     2
370
    -2
100
AcDbLine
 10
360.906602
 20
524.600124
 30
0.0
 11
360.906602
 21
639.948276
 31
0.0
  0
LINE
  5
60E
330
60B
100
AcDbEntity
  8
LC-001-100-D00-0
 62
     2
370
    -2
100
AcDbLine
 10
-589.093398
 20
630.948276
 30
0.0
 11
310.906602
 21
630.948276
 31
0.0
  0
SOLID
  5
60F
330
60B
100
AcDbEntity
  8
LC-001-100-D00-0
 62
     2
100
AcDbTrace
 10
-589.093398
 20
639.281609
 30
0.0
 11
-589.093398
 21
622.614943
 31
0.0
 12
-639.093398
 22
630.948276
 32
0.0
 13
-639.093398
 23
630.948276
 33
0.0
  0
SOLID
  5
610
330
60B
100
AcDbEntity
  8
LC-001-100-D00-0
 62
     2
100
AcDbTrace
 10
310.906602
 20
622.614943
 30
0.0
 11
310.906602
 21
639.281609
 31
0.0
 12
360.906602
 22
630.948276
 32
0.0
 13
360.906602
 23
630.948276
 33
0.0
  0
MTEXT
  5
611
330
60B
100
AcDbEntity
  8
LC-001-100-D00-0
 62
     2
100
AcDbMText
 10
-155.964896
 20
685.948276
 30
0.0
 40
50.0
 41
0.0
 71
     5
 72
     1
  1
\A1;1000
  7
LCTX15-400-0-0pDIN-Schrift
 73
     1
 44
1.0
  0
POINT
  5
612
330
60B
100
AcDbEntity
  8
Defpoints
 62
     0
100
AcDbPoint
 10
-639.093398
 20
524.600124
 30
0.0
  0
POINT
  5
613
330
60B
100
AcDbEntity
  8
Defpoints
 62
     0
100
AcDbPoint
 10
360.906602
 20
524.600124
 30
0.0
  0
POINT
  5
614
330
60B
100
AcDbEntity
  8
Defpoints
 62
     0
100
AcDbPoint
 10
360.906602
 20
630.948276
 30
0.0
  0
ENDBLK
  5
616
330
60B
100
AcDbEntity
  8
0
100
AcDbBlockEnd
  0
BLOCK
  5
622
330
618
100
AcDbEntity
  8
0
100
AcDbBlockBegin
  2
*D32
 70
     1
 71
     0
 10
0.0
 20
0.0
 30
0.0
  3
*D32
  1

  0
LINE
  5
619
330
618
100
AcDbEntity
  8
LC-001-100-D00-0
 62
     2
370
    -2
100
AcDbLine
 10
-589.093398
 20
481.600124
 30
0.0
 11
-589.093398
 21
561.522716
 31
0.0
  0
LINE
  5
61A
330
618
100
AcDbEntity
  8
LC-001-100-D00-0
 62
     2
370
    -2
100
AcDbLine
 10
310.906602
 20
481.600124
 30
0.0
 11
310.906602
 21
561.522716
 31
0.0
  0
LINE
  5
61B
330
618
100
AcDbEntity
  8
LC-001-100-D00-0
 62
     2
370
    -2
100
AcDbLine
 10
-539.093398
 20
552.522716
 30
0.0
 11
260.906602
 21
552.522716
 31
0.0
  0
SOLID
  5
61C
330
618
100
AcDbEntity
  8
LC-001-100-D00-0
 62
     2
100
AcDbTrace
 10
-539.093398
 20
560.85605
 30
0.0
 11
-539.093398
 21
544.189383
 31
0.0
 12
-589.093398
 22
552.522716
 32
0.0
 13
-589.093398
 23
552.522716
 33
0.0
  0
SOLID
  5
61D
330
618
100
AcDbEntity
  8
LC-001-100-D00-0
 62
     2
100
AcDbTrace
 10
260.906602
 20
544.189383
 30
0.0
 11
260.906602
 21
560.85605
 31
0.0
 12
310.906602
 22
552.522716
 32
0.0
 13
310.906602
 23
552.522716
 33
0.0
  0
MTEXT
  5
61E
330
618
100
AcDbEntity
  8
LC-001-100-D00-0
 62
     2
100
AcDbMText
 10
-145.860438
 20
607.522716
 30
0.0
 40
50.0
 41
0.0
 71
     5
 72
     1
  1
\A1;900
  7
LCTX15-400-0-0pDIN-Schrift
 73
     1
 44
1.0
  0
POINT
  5
61F
330
618
100
AcDbEntity
  8
Defpoints
 62
     0
100
AcDbPoint
 10
-589.093398
 20
481.600124
 30
0.0
  0
POINT
  5
620
330
618
100
AcDbEntity
  8
Defpoints
 62
     0
100
AcDbPoint
 10
310.906602
 20
481.600124
 30
0.0
  0
POINT
  5
621
330
618
100
AcDbEntity
  8
Defpoints
 62
     0
100
AcDbPoint
 10
310.906602
 20
552.522716
 30
0.0
  0
ENDBLK
  5
623
330
618
100
AcDbEntity
  8
0
100
AcDbBlockEnd
  0
BLOCK
  5
630
330
625
100
AcDbEntity
  8
0
100
AcDbBlockBegin
  2
*D33
 70
     1
 71
     0
 10
0.0
 20
0.0
 30
0.0
  3
*D33
  1

  0
LINE
  5
626
330
625
100
AcDbEntity
  8
LC-001-100-D00-0
 62
     2
370
    -2
100
AcDbLine
 10
76.906399
 20
427.100124
 30
0.0
 11
555.565999
 21
427.100124
 31
0.0
  0
LINE
  5
627
330
625
100
AcDbEntity
  8
LC-001-100-D00-0
 62
     2
370
    -2
100
AcDbLine
 10
360.906602
 20
484.600124
 30
0.0
 11
555.565999
 21
484.600124
 31
0.0
  0
LINE
  5
628
330
625
100
AcDbEntity
  8
LC-001-100-D00-0
 62
     2
370
    -2
100
AcDbLine
 10
546.565999
 20
377.100124
 30
0.0
 11
546.565999
 21
327.100124
 31
0.0
  0
LINE
  5
629
330
625
100
AcDbEntity
  8
LC-001-100-D00-0
 62
     2
370
    -2
100
AcDbLine
 10
546.565999
 20
534.600124
 30
0.0
 11
546.565999
 21
557.388676
 31
0.0
  0
SOLID
  5
62A
330
625
100
AcDbEntity
  8
LC-001-100-D00-0
 62
     2
100
AcDbTrace
 10
554.899332
 20
377.100124
 30
0.0
 11
538.232665
 21
377.100124
 31
0.0
 12
546.565999
 22
427.100124
 32
0.0
 13
546.565999
 23
427.100124
 33
0.0
  0
SOLID
  5
62B
330
625
100
AcDbEntity
  8
LC-001-100-D00-0
 62
     2
100
AcDbTrace
 10
538.232665
 20
534.600124
 30
0.0
 11
554.899332
 21
534.600124
 31
0.0
 12
546.565999
 22
484.600124
 32
0.0
 13
546.565999
 23
484.600124
 33
0.0
  0
MTEXT
  5
62C
330
625
100
AcDbEntity
  8
LC-001-100-D00-0
 62
     2
100
AcDbMText
 10
491.565999
 20
485.418276
 30
0.0
 40
50.0
 41
0.0
 71
     5
 72
     1
  1
\A1;57,5
  7
LCTX15-400-0-0pDIN-Schrift
 11
6.123031769111886E-17
 21
1.0
 31
0.0
 73
     1
 44
1.0
  0
POINT
  5
62D
330
625
100
AcDbEntity
  8
Defpoints
 62
     0
100
AcDbPoint
 10
76.906399
 20
427.100124
 30
0.0
  0
POINT
  5
62E
330
625
100
AcDbEntity
  8
Defpoints
 62
     0
100
AcDbPoint
 10
360.906602
 20
484.600124
 30
0.0
  0
POINT
  5
62F
330
625
100
AcDbEntity
  8
Defpoints
 62
     0
100
AcDbPoint
 10
546.565999
 20
484.600124
 30
0.0
  0
ENDBLK
  5
631
330
625
100
AcDbEntity
  8
0
100
AcDbBlockEnd
  0
BLOCK
  5
63F
330
633
100
AcDbEntity
  8
0
100
AcDbBlockBegin
  2
*D34
 70
     1
 71
     0
 10
0.0
 20
0.0
 30
0.0
  3
*D34
  1

  0
LINE
  5
634
330
633
100
AcDbEntity
  8
LC-001-100-D00-0
 62
     2
370
    -2
100
AcDbLine
 10
360.906602
 20
484.600124
 30
0.0
 11
653.078173
 21
484.600124
 31
0.0
  0
LINE
  5
635
330
633
100
AcDbEntity
  8
LC-001-100-D00-0
 62
     2
370
    -2
100
AcDbLine
 10
-85.075518
 20
394.600124
 30
0.0
 11
653.078173
 21
394.600124
 31
0.0
  0
LINE
  5
636
330
633
100
AcDbEntity
  8
LC-001-100-D00-0
 62
     2
370
    -2
100
AcDbLine
 10
644.078173
 20
534.600124
 30
0.0
 11
644.078173
 21
584.600124
 31
0.0
  0
LINE
  5
637
330
633
100
AcDbEntity
  8
LC-001-100-D00-0
 62
     2
370
    -2
100
AcDbLine
 10
644.078173
 20
344.600124
 30
0.0
 11
644.078173
 21
294.600124
 31
0.0
  0
LINE
  5
638
330
633
100
AcDbEntity
  8
LC-001-100-D00-0
 62
     2
370
    -2
100
AcDbLine
 10
644.078173
 20
484.600124
 30
0.0
 11
644.078173
 21
394.600124
 31
0.0
  0
SOLID
  5
639
330
633
100
AcDbEntity
  8
LC-001-100-D00-0
 62
     2
100
AcDbTrace
 10
635.74484
 20
534.600124
 30
0.0
 11
652.411507
 21
534.600124
 31
0.0
 12
644.078173
 22
484.600124
 32
0.0
 13
644.078173
 23
484.600124
 33
0.0
  0
SOLID
  5
63A
330
633
100
AcDbEntity
  8
LC-001-100-D00-0
 62
     2
100
AcDbTrace
 10
652.411507
 20
344.600124
 30
0.0
 11
635.74484
 21
344.600124
 31
0.0
 12
644.078173
 22
394.600124
 32
0.0
 13
644.078173
 23
394.600124
 33
0.0
  0
MTEXT
  5
63B
330
633
100
AcDbEntity
  8
LC-001-100-D00-0
 62
     2
100
AcDbMText
 10
589.078173
 20
408.198276
 30
0.0
 40
50.0
 41
0.0
 71
     5
 72
     1
  1
\A1;90
  7
LCTX15-400-0-0pDIN-Schrift
 11
6.123031769111886E-17
 21
1.0
 31
0.0
 73
     1
 44
1.0
  0
POINT
  5
63C
330
633
100
AcDbEntity
  8
Defpoints
 62
     0
100
AcDbPoint
 10
360.906602
 20
484.600124
 30
0.0
  0
POINT
  5
63D
330
633
100
AcDbEntity
  8
Defpoints
 62
     0
100
AcDbPoint
 10
-85.075518
 20
394.600124
 30
0.0
  0
POINT
  5
63E
330
633
100
AcDbEntity
  8
Defpoints
 62
     0
100
AcDbPoint
 10
644.078173
 20
394.600124
 30
0.0
  0
ENDBLK
  5
640
330
633
100
AcDbEntity
  8
0
100
AcDbBlockEnd
  0
BLOCK
  5
642
330
641
100
AcDbEntity
  8
0
100
AcDbBlockBegin
  2
KLON23
 70
     0
 71
     0
 10
0.0
 20
0.0
 30
0.0
  3
KLON23
  1

  4
KLON23
  0
LINE
  5
644
330
641
100
AcDbEntity
  8
LC-001-100-D00-0
 62
     7
370
    25
100
AcDbLine
 10
-111.593398
 20
431.961325
 30
0.0
 11
-110.093398
 21
433.461325
 31
0.0
  0
LINE
  5
645
330
641
100
AcDbEntity
  8
LC-001-100-D00-0
 62
     7
370
    25
100
AcDbLine
 10
-90.954601
 20
452.600124
 30
0.0
 11
-86.593398
 21
456.961327
 31
0.0
  0
LINE
  5
646
330
641
100
AcDbEntity
  8
LC-001-100-D00-0
 62
     7
370
    25
100
AcDbLine
 10
-86.454601
 20
457.100124
 30
0.0
 11
-84.954601
 21
458.600124
 31
0.0
  0
LINE
  5
647
330
641
100
AcDbEntity
  8
LC-001-100-D00-0
 62
     7
370
    25
100
AcDbLine
 10
-111.593398
 20
454.411966
 30
0.0
 11
-107.405241
 21
458.600124
 31
0.0
  0
ENDBLK
  5
643
330
641
100
AcDbEntity
  8
0
100
AcDbBlockEnd
  0
BLOCK
  5
64A
330
649
100
AcDbEntity
  8
0
100
AcDbBlockBegin
  2
KLON24
 70
     0
 71
     0
 10
0.0
 20
0.0
 30
0.0
  3
KLON24
  1

  4
KLON24
  0
LINE
  5
64C
330
649
100
AcDbEntity
  8
LC-001-100-D00-0
 62
     7
370
    25
100
AcDbLine
 10
-168.093398
 20
420.362603
 30
0.0
 11
-166.593398
 21
421.862603
 31
0.0
  0
LINE
  5
64D
330
649
100
AcDbEntity
  8
LC-001-100-D00-0
 62
     7
370
    25
100
AcDbLine
 10
-168.095622
 20
442.81102
 30
0.0
 11
-166.593398
 21
444.313244
 31
0.0
  0
LINE
  5
64E
330
649
100
AcDbEntity
  8
LC-001-100-D00-0
 62
     7
370
    25
100
AcDbLine
 10
-180.757159
 20
452.600124
 30
0.0
 11
-174.757159
 21
458.600124
 31
0.0
  0
ENDBLK
  5
64B
330
649
100
AcDbEntity
  8
0
100
AcDbBlockEnd
  0
BLOCK
  5
651
330
650
100
AcDbEntity
  8
0
100
AcDbBlockBegin
  2
KLON25
 70
     0
 71
     0
 10
0.0
 20
0.0
 30
0.0
  3
KLON25
  1

  4
KLON25
  0
LINE
  5
653
330
650
100
AcDbEntity
  8
LC-001-100-D00-0
 62
     7
370
    25
100
AcDbLine
 10
-101.167544
 20
397.485897
 30
0.0
 11
-98.479171
 21
400.17427
 31
0.0
  0
LINE
  5
654
330
650
100
AcDbEntity
  8
LC-001-100-D00-0
 62
     7
370
    25
100
AcDbLine
 10
-124.003957
 20
397.100124
 30
0.0
 11
-122.503957
 21
398.600124
 31
0.0
  0
LINE
  5
655
330
650
100
AcDbEntity
  8
LC-001-100-D00-0
 62
     7
370
    25
100
AcDbLine
 10
-99.593398
 20
421.510685
 30
0.0
 11
-98.093398
 21
423.010685
 31
0.0
  0
LINE
  5
656
330
650
100
AcDbEntity
  8
LC-001-100-D00-0
 62
     7
370
    25
100
AcDbLine
 10
-146.454597
 20
397.100124
 30
0.0
 11
-144.954597
 21
398.600124
 31
0.0
  0
LINE
  5
657
330
650
100
AcDbEntity
  8
LC-001-100-D00-0
 62
     7
370
    25
100
AcDbLine
 10
-99.593398
 20
443.961326
 30
0.0
 11
-97.635296
 21
445.919428
 31
0.0
  0
LINE
  5
658
330
650
100
AcDbEntity
  8
LC-001-100-D00-0
 62
     7
370
    25
100
AcDbLine
 10
-168.905236
 20
397.100124
 30
0.0
 11
-167.405236
 21
398.600124
 31
0.0
  0
LINE
  5
659
330
650
100
AcDbEntity
  8
LC-001-100-D00-0
 62
     7
370
    25
100
AcDbLine
 10
-180.093398
 20
408.362602
 30
0.0
 11
-178.593398
 21
409.862602
 31
0.0
  0
LINE
  5
65A
330
650
100
AcDbEntity
  8
LC-001-100-D00-0
 62
     7
370
    25
100
AcDbLine
 10
-180.093398
 20
430.813243
 30
0.0
 11
-178.593398
 21
432.313243
 31
0.0
  0
LINE
  5
65B
330
650
100
AcDbEntity
  8
LC-001-100-D00-0
 62
     7
370
    25
100
AcDbLine
 10
-185.95048
 20
447.406802
 30
0.0
 11
-184.519908
 21
448.837374
 31
0.0
  0
ENDBLK
  5
652
330
650
100
AcDbEntity
  8
0
100
AcDbBlockEnd
  0
BLOCK
  5
65E
330
65D
100
AcDbEntity
  8
0
100
AcDbBlockBegin
  2
KLON26
 70
     0
 71
     0
 10
0.0
 20
0.0
 30
0.0
  3
KLON26
  1

  4
KLON26
  0
LINE
  5
660
330
65D
100
AcDbEntity
  8
LC-001-100-D00-0
 62
     7
370
    25
100
AcDbLine
 10
40.999236
 20
449.850124
 30
0.0
 11
43.249236
 21
452.100124
 31
0.0
  0
LINE
  5
661
330
65D
100
AcDbEntity
  8
LC-001-100-D00-0
 62
     7
370
    25
100
AcDbLine
 10
63.449876
 20
449.850124
 30
0.0
 11
65.699876
 21
452.100124
 31
0.0
  0
LINE
  5
662
330
65D
100
AcDbEntity
  8
LC-001-100-D00-0
 62
     7
370
    25
100
AcDbLine
 10
-42.833599
 20
455.819846
 30
0.0
 11
-39.553321
 21
459.100124
 31
0.0
  0
LINE
  5
663
330
65D
100
AcDbEntity
  8
LC-001-100-D00-0
 62
     7
370
    25
100
AcDbLine
 10
-22.778569
 20
453.424255
 30
0.0
 11
-20.925799
 21
455.277025
 31
0.0
  0
ENDBLK
  5
65F
330
65D
100
AcDbEntity
  8
0
100
AcDbBlockEnd
  0
BLOCK
  5
666
330
665
100
AcDbEntity
  8
0
100
AcDbBlockBegin
  2
KLON27
 70
     0
 71
     0
 10
0.0
 20
0.0
 30
0.0
  3
KLON27
  1

  4
KLON27
  0
LINE
  5
668
330
665
100
AcDbEntity
  8
LC-001-100-D00-0
 62
     7
370
    25
100
AcDbLine
 10
-6.75076
 20
402.100124
 30
0.0
 11
-4.50076
 21
404.350124
 31
0.0
  0
LINE
  5
669
330
665
100
AcDbEntity
  8
LC-001-100-D00-0
 62
     7
370
    25
100
AcDbLine
 10
15.69988
 20
402.100124
 30
0.0
 11
17.94988
 21
404.350124
 31
0.0
  0
LINE
  5
66A
330
665
100
AcDbEntity
  8
LC-001-100-D00-0
 62
     7
370
    25
100
AcDbLine
 10
38.15052
 20
402.100124
 30
0.0
 11
40.40052
 21
404.350124
 31
0.0
  0
LINE
  5
66B
330
665
100
AcDbEntity
  8
LC-001-100-D00-0
 62
     7
370
    25
100
AcDbLine
 10
60.60114
 20
402.100124
 30
0.0
 11
62.85114
 21
404.350124
 31
0.0
  0
ENDBLK
  5
667
330
665
100
AcDbEntity
  8
0
100
AcDbBlockEnd
  0
BLOCK
  5
66E
330
66D
100
AcDbEntity
  8
0
100
AcDbBlockBegin
  2
KLON28
 70
     0
 71
     0
 10
0.0
 20
0.0
 30
0.0
  3
KLON28
  1

  4
KLON28
  0
LINE
  5
670
330
66D
100
AcDbEntity
  8
LC-001-100-D00-0
 62
     7
370
    25
100
AcDbLine
 10
-33.750122
 20
397.551401
 30
0.0
 11
-30.095413
 21
401.206111
 31
0.0
  0
LINE
  5
671
330
66D
100
AcDbEntity
  8
LC-001-100-D00-0
 62
     7
370
    25
100
AcDbLine
 10
-29.3514
 20
401.950124
 30
0.0
 11
-27.2014
 21
404.100124
 31
0.0
  0
LINE
  5
672
330
66D
100
AcDbEntity
  8
LC-001-100-D00-0
 62
     7
370
    25
100
AcDbLine
 10
-54.093398
 20
399.658764
 30
0.0
 11
-49.652039
 21
404.100124
 31
0.0
  0
LINE
  5
673
330
66D
100
AcDbEntity
  8
LC-001-100-D00-0
 62
     7
370
    25
100
AcDbLine
 10
-75.102679
 20
401.100124
 30
0.0
 11
-72.102679
 21
404.100124
 31
0.0
  0
LINE
  5
674
330
66D
100
AcDbEntity
  8
LC-001-100-D00-0
 62
     7
370
    25
100
AcDbLine
 10
-104.053318
 20
394.600124
 30
0.0
 11
-101.053318
 21
397.600124
 31
0.0
  0
LINE
  5
675
330
66D
100
AcDbEntity
  8
LC-001-100-D00-0
 62
     7
370
    25
100
AcDbLine
 10
-126.503957
 20
394.600124
 30
0.0
 11
-123.503957
 21
397.600124
 31
0.0
  0
LINE
  5
676
330
66D
100
AcDbEntity
  8
LC-001-100-D00-0
 62
     7
370
    25
100
AcDbLine
 10
-148.954597
 20
394.600124
 30
0.0
 11
-145.954597
 21
397.600124
 31
0.0
  0
LINE
  5
677
330
66D
100
AcDbEntity
  8
LC-001-100-D00-0
 62
     7
370
    25
100
AcDbLine
 10
-171.405236
 20
394.600124
 30
0.0
 11
-168.405236
 21
397.600124
 31
0.0
  0
LINE
  5
678
330
66D
100
AcDbEntity
  8
LC-001-100-D00-0
 62
     7
370
    25
100
AcDbLine
 10
-193.819914
 20
394.636085
 30
0.0
 11
-190.855876
 21
397.600124
 31
0.0
  0
LINE
  5
679
330
66D
100
AcDbEntity
  8
LC-001-100-D00-0
 62
     7
370
    25
100
AcDbLine
 10
-207.634662
 20
403.271977
 30
0.0
 11
-205.463336
 21
405.443304
 31
0.0
  0
LINE
  5
67A
330
66D
100
AcDbEntity
  8
LC-001-100-D00-0
 62
     7
370
    25
100
AcDbLine
 10
-213.093398
 20
420.263882
 30
0.0
 11
-210.093398
 21
423.263882
 31
0.0
  0
LINE
  5
67B
330
66D
100
AcDbEntity
  8
LC-001-100-D00-0
 62
     7
370
    25
100
AcDbLine
 10
-213.093398
 20
442.714523
 30
0.0
 11
-210.093398
 21
445.714523
 31
0.0
  0
ENDBLK
  5
66F
330
66D
100
AcDbEntity
  8
0
100
AcDbBlockEnd
  0
BLOCK
  5
67E
330
67D
100
AcDbEntity
  8
0
100
AcDbBlockBegin
  2
KLON29
 70
     0
 71
     0
 10
0.0
 20
0.0
 30
0.0
  3
KLON29
  1

  4
KLON29
  0
LINE
  5
680
330
67D
100
AcDbEntity
  8
LC-001-100-D00-0
 62
     7
370
    25
100
AcDbLine
 10
-26.068448
 20
450.134358
 30
0.0
 11
-22.701552
 21
453.501254
 31
0.0
  0
LINE
  5
681
330
67D
100
AcDbEntity
  8
LC-001-100-D00-0
 62
     7
370
    25
100
AcDbLine
 10
-48.553322
 20
450.100124
 30
0.0
 11
-42.604856
 21
456.04859
 31
0.0
  0
LINE
  5
682
330
67D
100
AcDbEntity
  8
LC-001-100-D00-0
 62
     7
370
    25
100
AcDbLine
 10
-68.093398
 20
453.010687
 30
0.0
 11
-67.253961
 21
453.850124
 31
0.0
  0
ENDBLK
  5
67F
330
67D
100
AcDbEntity
  8
0
100
AcDbBlockEnd
  0
BLOCK
  5
688
330
687
100
AcDbEntity
  8
0
100
AcDbBlockBegin
  2
KLON30
 70
     0
 71
     0
 10
0.0
 20
0.0
 30
0.0
  3
KLON30
  1

  4
KLON30
  0
LINE
  5
68A
330
687
100
AcDbEntity
  8
LC-001-100-D00-0
 62
     7
370
    25
100
AcDbLine
 10
343.656908
 20
483.100124
 30
0.0
 11
345.156908
 21
484.600124
 31
0.0
  0
LINE
  5
68B
330
687
100
AcDbEntity
  8
LC-001-100-D00-0
 62
     7
370
    25
100
AcDbLine
 10
300.70627
 20
462.600124
 30
0.0
 11
302.20627
 21
464.100124
 31
0.0
  0
LINE
  5
68C
330
687
100
AcDbEntity
  8
LC-001-100-D00-0
 62
     7
370
    25
100
AcDbLine
 10
310.906602
 20
472.800457
 30
0.0
 11
312.406602
 21
474.300457
 31
0.0
  0
LINE
  5
68D
330
687
100
AcDbEntity
  8
LC-001-100-D00-0
 62
     7
370
    25
100
AcDbLine
 10
321.206268
 20
483.100124
 30
0.0
 11
322.706268
 21
484.600124
 31
0.0
  0
LINE
  5
68E
330
687
100
AcDbEntity
  8
LC-001-100-D00-0
 62
     7
370
    25
100
AcDbLine
 10
278.25563
 20
462.600124
 30
0.0
 11
284.906602
 21
469.251096
 31
0.0
  0
LINE
  5
68F
330
687
100
AcDbEntity
  8
LC-001-100-D00-0
 62
     7
370
    25
100
AcDbLine
 10
255.804991
 20
462.600124
 30
0.0
 11
257.304991
 21
464.100124
 31
0.0
  0
LINE
  5
690
330
687
100
AcDbEntity
  8
LC-001-100-D00-0
 62
     7
370
    25
100
AcDbLine
 10
233.354351
 20
462.600124
 30
0.0
 11
234.854351
 21
464.100124
 31
0.0
  0
LINE
  5
691
330
687
100
AcDbEntity
  8
LC-001-100-D00-0
 62
     7
370
    25
100
AcDbLine
 10
210.903712
 20
462.600124
 30
0.0
 11
212.403712
 21
464.100124
 31
0.0
  0
LINE
  5
692
330
687
100
AcDbEntity
  8
LC-001-100-D00-0
 62
     7
370
    25
100
AcDbLine
 10
188.453072
 20
462.600124
 30
0.0
 11
189.953072
 21
464.100124
 31
0.0
  0
LINE
  5
693
330
687
100
AcDbEntity
  8
LC-001-100-D00-0
 62
     7
370
    25
100
AcDbLine
 10
166.002433
 20
462.600124
 30
0.0
 11
167.502433
 21
464.100124
 31
0.0
  0
LINE
  5
694
330
687
100
AcDbEntity
  8
LC-001-100-D00-0
 62
     7
370
    25
100
AcDbLine
 10
143.551793
 20
462.600124
 30
0.0
 11
145.051793
 21
464.100124
 31
0.0
  0
LINE
  5
695
330
687
100
AcDbEntity
  8
LC-001-100-D00-0
 62
     7
370
    25
100
AcDbLine
 10
121.101154
 20
462.600124
 30
0.0
 11
124.445346
 21
465.944316
 31
0.0
  0
LINE
  5
696
330
687
100
AcDbEntity
  8
LC-001-100-D00-0
 62
     7
370
    25
100
AcDbLine
 10
98.650514
 20
462.600124
 30
0.0
 11
100.150514
 21
464.100124
 31
0.0
  0
LINE
  5
697
330
687
100
AcDbEntity
  8
LC-001-100-D00-0
 62
     7
370
    25
100
AcDbLine
 10
116.906602
 20
480.856212
 30
0.0
 11
120.150513
 21
484.100124
 31
0.0
  0
LINE
  5
698
330
687
100
AcDbEntity
  8
LC-001-100-D00-0
 62
     7
370
    25
100
AcDbLine
 10
76.199875
 20
462.600124
 30
0.0
 11
77.699875
 21
464.100124
 31
0.0
  0
LINE
  5
699
330
687
100
AcDbEntity
  8
LC-001-100-D00-0
 62
     7
370
    25
100
AcDbLine
 10
53.749235
 20
462.600124
 30
0.0
 11
55.249235
 21
464.100124
 31
0.0
  0
LINE
  5
69A
330
687
100
AcDbEntity
  8
LC-001-100-D00-0
 62
     7
370
    25
100
AcDbLine
 10
31.298596
 20
462.600124
 30
0.0
 11
32.798596
 21
464.100124
 31
0.0
  0
LINE
  5
69B
330
687
100
AcDbEntity
  8
LC-001-100-D00-0
 62
     7
370
    25
100
AcDbLine
 10
8.847956
 20
462.600124
 30
0.0
 11
10.347956
 21
464.100124
 31
0.0
  0
LINE
  5
69C
330
687
100
AcDbEntity
  8
LC-001-100-D00-0
 62
     7
370
    25
100
AcDbLine
 10
-13.602683
 20
462.600124
 30
0.0
 11
-12.102683
 21
464.100124
 31
0.0
  0
LINE
  5
69D
330
687
100
AcDbEntity
  8
LC-001-100-D00-0
 62
     7
370
    25
100
AcDbLine
 10
-36.053323
 20
462.600124
 30
0.0
 11
-34.553323
 21
464.100124
 31
0.0
  0
LINE
  5
69E
330
687
100
AcDbEntity
  8
LC-001-100-D00-0
 62
     7
370
    25
100
AcDbLine
 10
-63.288213
 20
457.815872
 30
0.0
 11
-61.166893
 21
459.937193
 31
0.0
  0
LINE
  5
69F
330
687
100
AcDbEntity
  8
LC-001-100-D00-0
 62
     7
370
    25
100
AcDbLine
 10
-43.093398
 20
478.010689
 30
0.0
 11
-37.003964
 21
484.100124
 31
0.0
  0
ENDBLK
  5
689
330
687
100
AcDbEntity
  8
0
100
AcDbBlockEnd
  0
BLOCK
  5
6A2
330
6A1
100
AcDbEntity
  8
0
100
AcDbBlockBegin
  2
KLON31
 70
     0
 71
     0
 10
0.0
 20
0.0
 30
0.0
  3
KLON31
  1

  4
KLON31
  0
LINE
  5
6A4
330
6A1
100
AcDbEntity
  8
LC-001-100-D00-0
 62
     7
370
    25
100
AcDbLine
 10
-198.207799
 20
457.600124
 30
0.0
 11
-196.714227
 21
459.093695
 31
0.0
  0
LINE
  5
6A5
330
6A1
100
AcDbEntity
  8
LC-001-100-D00-0
 62
     7
370
    25
100
AcDbLine
 10
-219.271082
 20
458.98748
 30
0.0
 11
-218.046337
 21
460.212225
 31
0.0
  0
LINE
  5
6A6
330
6A1
100
AcDbEntity
  8
LC-001-100-D00-0
 62
     7
370
    25
100
AcDbLine
 10
-238.109078
 20
462.600124
 30
0.0
 11
-235.161426
 21
465.547775
 31
0.0
  0
LINE
  5
6A7
330
6A1
100
AcDbEntity
  8
LC-001-100-D00-0
 62
     7
370
    25
100
AcDbLine
 10
-260.559717
 20
462.600124
 30
0.0
 11
-259.059718
 21
464.100124
 31
0.0
  0
LINE
  5
6A8
330
6A1
100
AcDbEntity
  8
LC-001-100-D00-0
 62
     7
370
    25
100
AcDbLine
 10
-243.093398
 20
480.066444
 30
0.0
 11
-239.059719
 21
484.100124
 31
0.0
  0
LINE
  5
6A9
330
6A1
100
AcDbEntity
  8
LC-001-100-D00-0
 62
     7
370
    25
100
AcDbLine
 10
-283.010357
 20
462.600124
 30
0.0
 11
-281.510357
 21
464.100124
 31
0.0
  0
LINE
  5
6AA
330
6A1
100
AcDbEntity
  8
LC-001-100-D00-0
 62
     7
370
    25
100
AcDbLine
 10
-305.460996
 20
462.600124
 30
0.0
 11
-303.960996
 21
464.100124
 31
0.0
  0
LINE
  5
6AB
330
6A1
100
AcDbEntity
  8
LC-001-100-D00-0
 62
     7
370
    25
100
AcDbLine
 10
-327.911636
 20
462.600124
 30
0.0
 11
-326.411636
 21
464.100124
 31
0.0
  0
LINE
  5
6AC
330
6A1
100
AcDbEntity
  8
LC-001-100-D00-0
 62
     7
370
    25
100
AcDbLine
 10
-350.362275
 20
462.600124
 30
0.0
 11
-348.862275
 21
464.100124
 31
0.0
  0
LINE
  5
6AD
330
6A1
100
AcDbEntity
  8
LC-001-100-D00-0
 62
     7
370
    25
100
AcDbLine
 10
-372.812915
 20
462.600124
 30
0.0
 11
-371.312915
 21
464.100124
 31
0.0
  0
LINE
  5
6AE
330
6A1
100
AcDbEntity
  8
LC-001-100-D00-0
 62
     7
370
    25
100
AcDbLine
 10
-395.263554
 20
462.600124
 30
0.0
 11
-393.763554
 21
464.100124
 31
0.0
  0
LINE
  5
6AF
330
6A1
100
AcDbEntity
  8
LC-001-100-D00-0
 62
     7
370
    25
100
AcDbLine
 10
-417.714194
 20
462.600124
 30
0.0
 11
-416.214194
 21
464.100124
 31
0.0
  0
LINE
  5
6B0
330
6A1
100
AcDbEntity
  8
LC-001-100-D00-0
 62
     7
370
    25
100
AcDbLine
 10
-403.093398
 20
477.22092
 30
0.0
 11
-396.214195
 21
484.100124
 31
0.0
  0
LINE
  5
6B1
330
6A1
100
AcDbEntity
  8
LC-001-100-D00-0
 62
     7
370
    25
100
AcDbLine
 10
-440.164833
 20
462.600124
 30
0.0
 11
-438.664833
 21
464.100124
 31
0.0
  0
LINE
  5
6B2
330
6A1
100
AcDbEntity
  8
LC-001-100-D00-0
 62
     7
370
    25
100
AcDbLine
 10
-462.615473
 20
462.600124
 30
0.0
 11
-461.115473
 21
464.100124
 31
0.0
  0
LINE
  5
6B3
330
6A1
100
AcDbEntity
  8
LC-001-100-D00-0
 62
     7
370
    25
100
AcDbLine
 10
-485.066112
 20
462.600124
 30
0.0
 11
-483.566112
 21
464.100124
 31
0.0
  0
LINE
  5
6B4
330
6A1
100
AcDbEntity
  8
LC-001-100-D00-0
 62
     7
370
    25
100
AcDbLine
 10
-507.516752
 20
462.600124
 30
0.0
 11
-506.016752
 21
464.100124
 31
0.0
  0
LINE
  5
6B5
330
6A1
100
AcDbEntity
  8
LC-001-100-D00-0
 62
     7
370
    25
100
AcDbLine
 10
-529.967391
 20
462.600124
 30
0.0
 11
-528.467391
 21
464.100124
 31
0.0
  0
LINE
  5
6B6
330
6A1
100
AcDbEntity
  8
LC-001-100-D00-0
 62
     7
370
    25
100
AcDbLine
 10
-552.418031
 20
462.600124
 30
0.0
 11
-550.918031
 21
464.100124
 31
0.0
  0
LINE
  5
6B7
330
6A1
100
AcDbEntity
  8
LC-001-100-D00-0
 62
     7
370
    25
100
AcDbLine
 10
-574.86867
 20
462.600124
 30
0.0
 11
-573.36867
 21
464.100124
 31
0.0
  0
LINE
  5
6B8
330
6A1
100
AcDbEntity
  8
LC-001-100-D00-0
 62
     7
370
    25
100
AcDbLine
 10
-563.093398
 20
474.375396
 30
0.0
 11
-555.093398
 21
482.375397
 31
0.0
  0
LINE
  5
6B9
330
6A1
100
AcDbEntity
  8
LC-001-100-D00-0
 62
     7
370
    25
100
AcDbLine
 10
-590.271466
 20
469.647968
 30
0.0
 11
-589.005038
 21
470.914396
 31
0.0
  0
LINE
  5
6BA
330
6A1
100
AcDbEntity
  8
LC-001-100-D00-0
 62
     7
370
    25
100
AcDbLine
 10
-599.269951
 20
483.100124
 30
0.0
 11
-597.769951
 21
484.600124
 31
0.0
  0
LINE
  5
6BB
330
6A1
100
AcDbEntity
  8
LC-001-100-D00-0
 62
     7
370
    25
100
AcDbLine
 10
-621.72059
 20
483.100124
 30
0.0
 11
-620.22059
 21
484.600124
 31
0.0
  0
ENDBLK
  5
6A3
330
6A1
100
AcDbEntity
  8
0
100
AcDbBlockEnd
  0
BLOCK
  5
6C1
330
6C0
100
AcDbEntity
  8
0
100
AcDbBlockBegin
  2
KLON32
 70
     0
 71
     0
 10
0.0
 20
0.0
 30
0.0
  3
KLON32
  1

  4
KLON32
  0
LINE
  5
6C3
330
6C0
100
AcDbEntity
  8
LC-001-100-D00-0
 62
     7
370
    25
100
AcDbLine
 10
126.250335
 20
467.749305
 30
0.0
 11
130.656602
 21
472.155572
 31
0.0
  0
LINE
  5
6C4
330
6C0
100
AcDbEntity
  8
LC-001-100-D00-0
 62
     7
370
    25
100
AcDbLine
 10
136.156602
 20
477.655573
 30
0.0
 11
139.156602
 21
480.655573
 31
0.0
  0
ENDBLK
  5
6C2
330
6C0
100
AcDbEntity
  8
0
100
AcDbBlockEnd
  0
BLOCK
  5
6C9
330
6C8
100
AcDbEntity
  8
0
100
AcDbBlockBegin
  2
KLON33
 70
     0
 71
     0
 10
0.0
 20
0.0
 30
0.0
  3
KLON33
  1

  4
KLON33
  0
LINE
  5
6CB
330
6C8
100
AcDbEntity
  8
LC-001-100-D00-0
 62
     7
370
    25
100
AcDbLine
 10
-32.742545
 20
465.910901
 30
0.0
 11
-29.343398
 21
469.310049
 31
0.0
  0
LINE
  5
6CC
330
6C8
100
AcDbEntity
  8
LC-001-100-D00-0
 62
     7
370
    25
100
AcDbLine
 10
-21.053324
 20
477.600124
 30
0.0
 11
-20.843398
 21
477.810049
 31
0.0
  0
ENDBLK
  5
6CA
330
6C8
100
AcDbEntity
  8
0
100
AcDbBlockEnd
  0
BLOCK
  5
6D0
330
6CF
100
AcDbEntity
  8
0
100
AcDbBlockBegin
  2
KLON34
 70
     0
 71
     0
 10
0.0
 20
0.0
 30
0.0
  3
KLON34
  1

  4
KLON34
  0
LINE
  5
6D2
330
6CF
100
AcDbEntity
  8
LC-001-100-D00-0
 62
     7
370
    25
100
AcDbLine
 10
-568.843398
 20
468.625396
 30
0.0
 11
-565.444251
 21
472.024543
 31
0.0
  0
LINE
  5
6D3
330
6CF
100
AcDbEntity
  8
LC-001-100-D00-0
 62
     7
370
    25
100
AcDbLine
 10
-563.868671
 20
473.600124
 30
0.0
 11
-562.993398
 21
474.475396
 31
0.0
  0
LINE
  5
6D4
330
6CF
100
AcDbEntity
  8
LC-001-100-D00-0
 62
     7
370
    25
100
AcDbLine
 10
-577.343398
 20
482.576037
 30
0.0
 11
-575.319311
 21
484.600124
 31
0.0
  0
ENDBLK
  5
6D1
330
6CF
100
AcDbEntity
  8
0
100
AcDbBlockEnd
  0
BLOCK
  5
6DA
330
6D9
100
AcDbEntity
  8
0
100
AcDbBlockBegin
  2
KLON35
 70
     0
 71
     0
 10
0.0
 20
0.0
 30
0.0
  3
KLON35
  1

  4
KLON35
  0
LINE
  5
6DC
330
6D9
100
AcDbEntity
  8
LC-001-100-D00-0
 62
     7
370
    25
100
AcDbLine
 10
286.106602
 20
470.451096
 30
0.0
 11
287.255629
 21
471.600124
 31
0.0
  0
LINE
  5
6DD
330
6D9
100
AcDbEntity
  8
LC-001-100-D00-0
 62
     7
370
    25
100
AcDbLine
 10
287.257455
 20
471.601949
 30
0.0
 11
290.656602
 21
475.001096
 31
0.0
  0
LINE
  5
6DE
330
6D9
100
AcDbEntity
  8
LC-001-100-D00-0
 62
     7
370
    25
100
AcDbLine
 10
296.156602
 20
480.501097
 30
0.0
 11
299.156602
 21
483.501097
 31
0.0
  0
ENDBLK
  5
6DB
330
6D9
100
AcDbEntity
  8
0
100
AcDbBlockEnd
  0
BLOCK
  5
6E1
330
6E0
100
AcDbEntity
  8
0
100
AcDbBlockBegin
  2
KLON36
 70
     0
 71
     0
 10
0.0
 20
0.0
 30
0.0
  3
KLON36
  1

  4
KLON36
  0
LINE
  5
6E3
330
6E0
100
AcDbEntity
  8
LC-001-100-D00-0
 62
     7
370
    50
100
AcDbLine
 10
284.306602
 20
468.651096
 30
0.0
 11
286.106602
 21
470.451096
 31
0.0
  0
LINE
  5
6E4
330
6E0
100
AcDbEntity
  8
LC-001-100-D00-0
 62
     7
370
    50
100
AcDbLine
 10
287.254961
 20
471.599455
 30
0.0
 11
287.257455
 21
471.601949
 31
0.0
  0
ENDBLK
  5
6E2
330
6E0
100
AcDbEntity
  8
0
100
AcDbBlockEnd
  0
BLOCK
  5
6E8
330
6E7
100
AcDbEntity
  8
0
100
AcDbBlockBegin
  2
KLON37
 70
     0
 71
     0
 10
0.0
 20
0.0
 30
0.0
  3
KLON37
  1

  4
KLON37
  0
LINE
  5
6EA
330
6E7
100
AcDbEntity
  8
LC-001-100-D00-0
 62
     7
370
    25
100
AcDbLine
 10
-233.109078
 20
467.600124
 30
0.0
 11
-229.343398
 21
471.365804
 31
0.0
  0
LINE
  5
6EB
330
6E7
100
AcDbEntity
  8
LC-001-100-D00-0
 62
     7
370
    25
100
AcDbLine
 10
-223.109079
 20
477.600124
 30
0.0
 11
-220.843398
 21
479.865805
 31
0.0
  0
ENDBLK
  5
6E9
330
6E7
100
AcDbEntity
  8
0
100
AcDbBlockEnd
  0
ENDSEC
  0
SECTION
  2
ENTITIES
  0
LINE
  5
31
330
1F
100
AcDbEntity
  8
LC-001-100-D00-0
 62
     7
370
    50
100
AcDbLine
 10
782.84389
 20
483.100124
 30
0.0
 11
782.84389
 21
481.700124
 31
0.0
  0
LINE
  5
32
330
1F
100
AcDbEntity
  8
LC-001-100-D00-0
 62
     7
370
    50
100
AcDbLine
 10
791.84389
 20
481.700124
 30
0.0
 11
791.843892
 21
483.100124
 31
0.0
  0
LINE
  5
33
330
1F
100
AcDbEntity
  8
LC-001-100-D00-0
 62
     7
370
    50
100
AcDbLine
 10
712.843888
 20
483.100124
 30
0.0
 11
712.84389
 21
481.700124
 31
0.0
  0
LINE
  5
34
330
1F
100
AcDbEntity
  8
LC-001-100-D00-0
 62
     7
370
    50
100
AcDbLine
 10
721.84389
 20
481.700124
 30
0.0
 11
721.84389
 21
483.100124
 31
0.0
  0
LINE
  5
35
330
1F
100
AcDbEntity
  8
LC-001-100-D00-0
 62
     7
370
    50
100
AcDbLine
 10
783.343889
 20
481.700124
 30
0.0
 11
783.34389
 21
468.100124
 31
0.0
  0
LINE
  5
36
330
1F
100
AcDbEntity
  8
LC-001-100-D00-0
 62
     7
370
    50
100
AcDbLine
 10
791.34389
 20
468.100124
 30
0.0
 11
791.343891
 21
481.700124
 31
0.0
  0
LINE
  5
37
330
1F
100
AcDbEntity
  8
LC-001-100-D00-0
 62
     7
370
    50
100
AcDbLine
 10
713.343889
 20
481.700124
 30
0.0
 11
713.34389
 21
468.100124
 31
0.0
  0
LINE
  5
38
330
1F
100
AcDbEntity
  8
LC-001-100-D00-0
 62
     7
370
    50
100
AcDbLine
 10
721.34389
 20
468.100124
 30
0.0
 11
721.34389
 21
481.700124
 31
0.0
  0
ARC
  5
39
330
1F
100
AcDbEntity
  8
LC-001-100-D00-0
 62
     7
370
    50
100
AcDbCircle
 10
807.84389
 20
357.600124
 30
0.0
 40
0.5000000000002274
100
AcDbArc
 50
90.0
 51
180.0
  0
ARC
  5
3A
330
1F
100
AcDbEntity
  8
LC-001-100-D00-0
 62
     7
370
    50
100
AcDbCircle
 10
825.84389
 20
357.600124
 30
0.0
 40
0.5000000000002274
100
AcDbArc
 50
0.0
 51
90.0
  0
LINE
  5
3B
330
1F
100
AcDbEntity
  8
LC-001-100-D00-0
 62
     7
370
    50
100
AcDbLine
 10
807.34389
 20
357.600124
 30
0.0
 11
807.34389
 21
350.100124
 31
0.0
  0
LINE
  5
3C
330
1F
100
AcDbEntity
  8
LC-001-100-D00-0
 62
     7
370
    50
100
AcDbLine
 10
826.34389
 20
350.100124
 30
0.0
 11
826.34389
 21
357.600124
 31
0.0
  0
LINE
  5
3D
330
1F
100
AcDbEntity
  8
LC-001-100-D00-0
 62
     7
370
    50
100
AcDbLine
 10
806.843889
 20
427.100123
 30
0.0
 11
806.84389
 21
373.100124
 31
0.0
  0
LINE
  5
3E
330
1F
100
AcDbEntity
  8
LC-001-100-D00-0
 62
     7
370
    50
100
AcDbLine
 10
826.84389
 20
373.100124
 30
0.0
 11
826.843892
 21
427.100123
 31
0.0
  0
LINE
  5
3F
330
1F
100
AcDbEntity
  8
LC-001-100-D00-0
 62
     7
370
    50
100
AcDbLine
 10
806.84389
 20
359.100124
 30
0.0
 11
807.84389
 21
358.100124
 31
0.0
  0
LINE
  5
40
330
1F
100
AcDbEntity
  8
LC-001-100-D00-0
 62
     7
370
    50
100
AcDbLine
 10
825.84389
 20
358.100124
 30
0.0
 11
826.84389
 21
359.100124
 31
0.0
  0
LINE
  5
41
330
1F
100
AcDbEntity
  8
LC-001-100-D00-0
 62
     7
370
    50
100
AcDbLine
 10
806.84389
 20
369.600124
 30
0.0
 11
806.84389
 21
359.100124
 31
0.0
  0
LINE
  5
42
330
1F
100
AcDbEntity
  8
LC-001-100-D00-0
 62
     7
370
    50
100
AcDbLine
 10
826.84389
 20
359.100124
 30
0.0
 11
826.84389
 21
369.600124
 31
0.0
  0
LINE
  5
43
330
1F
100
AcDbEntity
  8
LC-001-100-D00-0
 62
     7
370
    50
100
AcDbLine
 10
808.943891
 20
373.100121
 30
0.0
 11
808.943891
 21
369.600122
 31
0.0
  0
LINE
  5
44
330
1F
100
AcDbEntity
  8
LC-001-100-D00-0
 62
     7
370
    50
100
AcDbLine
 10
824.743894
 20
369.600122
 30
0.0
 11
824.743894
 21
373.100121
 31
0.0
  0
ARC
  5
45
330
1F
100
AcDbEntity
  8
LC-001-100-D00-0
 62
     7
370
    50
100
AcDbCircle
 10
791.74389
 20
458.700124
 30
0.0
 40
0.5999999999999091
100
AcDbArc
 50
270.0
 51
0.0
  0
ARC
  5
46
330
1F
100
AcDbEntity
  8
LC-001-100-D00-0
 62
     7
370
    50
100
AcDbCircle
 10
782.94389
 20
458.700124
 30
0.0
 40
0.5999999999999091
100
AcDbArc
 50
180.0
 51
270.0
  0
LINE
  5
47
330
1F
100
AcDbEntity
  8
LC-001-100-D00-0
 62
     7
370
    50
100
AcDbLine
 10
792.34389
 20
458.700124
 30
0.0
 11
792.343889
 21
462.100123
 31
0.0
  0
LINE
  5
48
330
1F
100
AcDbEntity
  8
LC-001-100-D00-0
 62
     7
370
    50
100
AcDbLine
 10
782.343889
 20
462.100123
 30
0.0
 11
782.34389
 21
458.700124
 31
0.0
  0
LINE
  5
49
330
1F
100
AcDbEntity
  8
LC-001-100-D00-0
 62
     7
370
    50
100
AcDbLine
 10
790.343889
 20
467.100124
 30
0.0
 11
790.343889
 21
468.100124
 31
0.0
  0
LINE
  5
4A
330
1F
100
AcDbEntity
  8
LC-001-100-D00-0
 62
     7
370
    50
100
AcDbLine
 10
784.343892
 20
468.100124
 30
0.0
 11
784.343892
 21
467.100124
 31
0.0
  0
ARC
  5
4B
330
1F
100
AcDbEntity
  8
LC-001-100-D00-0
 62
     7
370
    50
100
AcDbCircle
 10
721.74389
 20
458.700124
 30
0.0
 40
0.5999999999999091
100
AcDbArc
 50
270.0
 51
0.0
  0
ARC
  5
4C
330
1F
100
AcDbEntity
  8
LC-001-100-D00-0
 62
     7
370
    50
100
AcDbCircle
 10
712.94389
 20
458.700124
 30
0.0
 40
0.5999999999999091
100
AcDbArc
 50
180.0
 51
270.0
  0
LINE
  5
4D
330
1F
100
AcDbEntity
  8
LC-001-100-D00-0
 62
     7
370
    50
100
AcDbLine
 10
722.34389
 20
458.700124
 30
0.0
 11
722.343891
 21
462.100123
 31
0.0
  0
LINE
  5
4E
330
1F
100
AcDbEntity
  8
LC-001-100-D00-0
 62
     7
370
    50
100
AcDbLine
 10
712.343891
 20
462.100123
 30
0.0
 11
712.34389
 21
458.700124
 31
0.0
  0
LINE
  5
4F
330
1F
100
AcDbEntity
  8
LC-001-100-D00-0
 62
     7
370
    50
100
AcDbLine
 10
720.343888
 20
467.100124
 30
0.0
 11
720.343888
 21
468.100124
 31
0.0
  0
LINE
  5
50
330
1F
100
AcDbEntity
  8
LC-001-100-D00-0
 62
     7
370
    50
100
AcDbLine
 10
714.343891
 20
468.100124
 30
0.0
 11
714.343891
 21
467.100124
 31
0.0
  0
LINE
  5
51
330
1F
100
AcDbEntity
  8
LC-001-100-D00-0
 62
     7
370
    50
100
AcDbLine
 10
792.84389
 20
462.100124
 30
0.0
 11
792.84389
 21
464.100124
 31
0.0
  0
LINE
  5
52
330
1F
100
AcDbEntity
  8
LC-001-100-D00-0
 62
     7
370
    50
100
AcDbLine
 10
781.84389
 20
464.100123
 30
0.0
 11
781.84389
 21
462.100124
 31
0.0
  0
LINE
  5
53
330
1F
100
AcDbEntity
  8
LC-001-100-D00-0
 62
     7
370
    50
100
AcDbLine
 10
722.84389
 20
462.100124
 30
0.0
 11
722.84389
 21
464.100123
 31
0.0
  0
LINE
  5
54
330
1F
100
AcDbEntity
  8
LC-001-100-D00-0
 62
     7
370
    50
100
AcDbLine
 10
711.84389
 20
464.100124
 30
0.0
 11
711.84389
 21
462.100124
 31
0.0
  0
LINE
  5
55
330
1F
100
AcDbEntity
  8
LC-001-100-D00-0
 62
     7
370
    50
100
AcDbLine
 10
824.84389
 20
484.600124
 30
0.0
 11
829.84389
 21
484.600124
 31
0.0
  0
LINE
  5
56
330
1F
100
AcDbEntity
  8
LC-001-100-D00-0
 62
     7
370
    50
100
AcDbLine
 10
829.84389
 20
484.600124
 30
0.0
 11
829.84389
 21
483.100124
 31
0.0
  0
LINE
  5
57
330
1F
100
AcDbEntity
  8
LC-001-100-D00-0
 62
     7
370
    50
100
AcDbLine
 10
829.84389
 20
483.100124
 30
0.0
 11
824.84389
 21
483.100124
 31
0.0
  0
ARC
  5
58
330
1F
100
AcDbEntity
  8
LC-001-100-D00-0
 62
     7
370
    50
100
AcDbCircle
 10
709.34389
 20
486.100124
 30
0.0
 40
1.5
100
AcDbArc
 50
180.0
 51
270.0
  0
LINE
  5
59
330
1F
100
AcDbEntity
  8
LC-001-100-D00-0
 62
     7
370
    50
100
AcDbLine
 10
709.34389
 20
484.600124
 30
0.0
 11
824.84389
 21
484.600124
 31
0.0
  0
LINE
  5
5A
330
1F
100
AcDbEntity
  8
LC-001-100-D00-0
 62
     7
370
    50
100
AcDbLine
 10
708.84389
 20
483.100124
 30
0.0
 11
824.84389
 21
483.100124
 31
0.0
  0
ARC
  5
5B
330
1F
100
AcDbEntity
  8
LC-001-100-D00-0
 62
     7
370
    50
100
AcDbCircle
 10
708.84389
 20
485.600124
 30
0.0
 40
2.5
100
AcDbArc
 50
180.0
 51
270.0
  0
LINE
  5
5C
330
1F
100
AcDbEntity
  8
LC-001-100-D00-0
 62
     7
370
    50
100
AcDbLine
 10
706.34389
 20
485.600124
 30
0.0
 11
706.34389
 21
529.600124
 31
0.0
  0
LINE
  5
5D
330
1F
100
AcDbEntity
  8
LC-001-100-D00-0
 62
     7
370
    50
100
AcDbLine
 10
707.84389
 20
529.600124
 30
0.0
 11
707.84389
 21
486.100124
 31
0.0
  0
LINE
  5
5E
330
1F
100
AcDbEntity
  8
LC-001-100-D00-0
 62
     7
370
    50
100
AcDbLine
 10
706.34389
 20
534.600124
 30
0.0
 11
707.84389
 21
534.600124
 31
0.0
  0
LINE
  5
5F
330
1F
100
AcDbEntity
  8
LC-001-100-D00-0
 62
     7
370
    50
100
AcDbLine
 10
706.34389
 20
529.600124
 30
0.0
 11
706.34389
 21
534.600124
 31
0.0
  0
LINE
  5
60
330
1F
100
AcDbEntity
  8
LC-001-100-D00-0
 62
     7
370
    50
100
AcDbLine
 10
707.84389
 20
534.600124
 30
0.0
 11
707.84389
 21
529.600124
 31
0.0
  0
ARC
  5
61
330
1F
100
AcDbEntity
  8
LC-001-100-D00-0
 62
     7
370
    50
100
AcDbCircle
 10
781.34389
 20
481.600124
 30
0.0
 40
1.500000000000227
100
AcDbArc
 50
90.0
 51
180.0
  0
ARC
  5
62
330
1F
100
AcDbEntity
  8
LC-001-100-D00-0
 62
     7
370
    50
100
AcDbCircle
 10
723.34389
 20
481.600124
 30
0.0
 40
1.5
100
AcDbArc
 50
0.0
 51
90.0
  0
LINE
  5
63
330
1F
100
AcDbEntity
  8
LC-001-100-D00-0
 62
     7
370
    50
100
AcDbLine
 10
764.677299
 20
462.600124
 30
0.0
 11
775.84389
 21
462.600124
 31
0.0
  0
LINE
  5
64
330
1F
100
AcDbEntity
  8
LC-001-100-D00-0
 62
     7
370
    50
100
AcDbLine
 10
764.499085
 20
462.600124
 30
0.0
 11
764.677299
 21
462.600124
 31
0.0
  0
LINE
  5
65
330
1F
100
AcDbEntity
  8
LC-001-100-D00-0
 62
     7
370
    50
100
AcDbLine
 10
764.499085
 20
462.600124
 30
0.0
 11
740.188695
 21
462.600124
 31
0.0
  0
LINE
  5
66
330
1F
100
AcDbEntity
  8
LC-001-100-D00-0
 62
     7
370
    50
100
AcDbLine
 10
740.010481
 20
462.600124
 30
0.0
 11
740.188695
 21
462.600124
 31
0.0
  0
LINE
  5
67
330
1F
100
AcDbEntity
  8
LC-001-100-D00-0
 62
     7
370
    50
100
AcDbLine
 10
728.84389
 20
462.600124
 30
0.0
 11
740.010481
 21
462.600124
 31
0.0
  0
LINE
  5
68
330
1F
100
AcDbEntity
  8
LC-001-100-D00-0
 62
     7
370
    50
100
AcDbLine
 10
724.84389
 20
472.100124
 30
0.0
 11
724.84389
 21
481.600124
 31
0.0
  0
LINE
  5
69
330
1F
100
AcDbEntity
  8
LC-001-100-D00-0
 62
     7
370
    50
100
AcDbLine
 10
779.84389
 20
481.600124
 30
0.0
 11
779.84389
 21
472.100124
 31
0.0
  0
ARC
  5
6A
330
1F
100
AcDbEntity
  8
LC-001-100-D00-0
 62
     7
370
    50
100
AcDbCircle
 10
728.84389
 20
466.600124
 30
0.0
 40
3.999999999999773
100
AcDbArc
 50
180.0
 51
270.0
  0
LINE
  5
6B
330
1F
100
AcDbEntity
  8
LC-001-100-D00-0
 62
     7
370
    50
100
AcDbLine
 10
724.84389
 20
472.100124
 30
0.0
 11
724.84389
 21
466.600124
 31
0.0
  0
ARC
  5
6C
330
1F
100
AcDbEntity
  8
LC-001-100-D00-0
 62
     7
370
    50
100
AcDbCircle
 10
775.84389
 20
466.600124
 30
0.0
 40
4.000000000014552
100
AcDbArc
 50
270.0
 51
0.0
  0
LINE
  5
6D
330
1F
100
AcDbEntity
  8
LC-001-100-D00-0
 62
     7
370
    50
100
AcDbLine
 10
779.84389
 20
466.600124
 30
0.0
 11
779.84389
 21
472.100124
 31
0.0
  0
ARC
  5
6E
330
1F
100
AcDbEntity
  8
LC-001-100-D00-0
 62
     7
370
    50
100
AcDbCircle
 10
775.84389
 20
461.600124
 30
0.0
 40
4.000000000000227
100
AcDbArc
 50
270.0
 51
0.0
  0
LINE
  5
6F
330
1F
100
AcDbEntity
  8
LC-001-100-D00-0
 62
     7
370
    50
100
AcDbLine
 10
779.84389
 20
466.600124
 30
0.0
 11
779.84389
 21
461.600124
 31
0.0
  0
ARC
  5
70
330
1F
100
AcDbEntity
  8
LC-001-100-D00-0
 62
     7
370
    50
100
AcDbCircle
 10
728.84389
 20
461.600124
 30
0.0
 40
4.000000000046384
100
AcDbArc
 50
180.0
 51
270.0
  0
LINE
  5
71
330
1F
100
AcDbEntity
  8
LC-001-100-D00-0
 62
     7
370
    50
100
AcDbLine
 10
724.84389
 20
461.600124
 30
0.0
 11
724.84389
 21
466.600124
 31
0.0
  0
LINE
  5
72
330
1F
100
AcDbEntity
  8
LC-001-100-D00-0
 62
     7
370
    50
100
AcDbLine
 10
775.843889
 20
457.600123
 30
0.0
 11
772.994858
 21
457.600123
 31
0.0
  0
ARC
  5
73
330
1F
100
AcDbEntity
  8
LC-001-100-D00-0
 62
     7
370
    50
100
AcDbCircle
 10
747.749584
 20
460.100124
 30
0.0
 40
2.5
100
AcDbArc
 50
90.0
 51
108.434949
  0
LINE
  5
74
330
1F
100
AcDbEntity
  8
LC-001-100-D00-0
 62
     7
370
    50
100
AcDbLine
 10
746.959015
 20
462.471832
 30
0.0
 11
746.957931
 21
462.471471
 31
0.0
  0
LINE
  5
75
330
1F
100
AcDbEntity
  8
LC-001-100-D00-0
 62
     7
370
    50
100
AcDbLine
 10
757.729849
 20
462.471471
 30
0.0
 11
757.728765
 21
462.471832
 31
0.0
  0
ARC
  5
76
330
1F
100
AcDbEntity
  8
LC-001-100-D00-0
 62
     7
370
    50
100
AcDbCircle
 10
756.938196
 20
460.100124
 30
0.0
 40
2.500000000000133
100
AcDbArc
 50
71.565051
 51
90.0
  0
LINE
  5
77
330
1F
100
AcDbEntity
  8
LC-001-100-D00-0
 62
     7
370
    50
100
AcDbLine
 10
731.692922
 20
457.600123
 30
0.0
 11
728.843891
 21
457.600123
 31
0.0
  0
LINE
  5
78
330
1F
100
AcDbEntity
  8
LC-001-100-D00-0
 62
     7
370
    50
100
AcDbLine
 10
772.994858
 20
457.600123
 30
0.0
 11
772.993001
 21
457.600123
 31
0.0
  0
LINE
  5
79
330
1F
100
AcDbEntity
  8
LC-001-100-D00-0
 62
     7
370
    50
100
AcDbLine
 10
772.993001
 20
457.600123
 30
0.0
 11
771.72809
 21
457.80539
 31
0.0
  0
LINE
  5
7A
330
1F
100
AcDbEntity
  8
LC-001-100-D00-0
 62
     7
370
    50
100
AcDbLine
 10
771.72809
 20
457.80539
 30
0.0
 11
771.726009
 21
457.806083
 31
0.0
  0
LINE
  5
7B
330
1F
100
AcDbEntity
  8
LC-001-100-D00-0
 62
     7
370
    50
100
AcDbLine
 10
731.694779
 20
457.600123
 30
0.0
 11
732.95969
 21
457.80539
 31
0.0
  0
LINE
  5
7C
330
1F
100
AcDbEntity
  8
LC-001-100-D00-0
 62
     7
370
    50
100
AcDbLine
 10
731.694779
 20
457.600123
 30
0.0
 11
731.692922
 21
457.600123
 31
0.0
  0
LINE
  5
7D
330
1F
100
AcDbEntity
  8
LC-001-100-D00-0
 62
     7
370
    50
100
AcDbLine
 10
732.961771
 20
457.806083
 30
0.0
 11
732.95969
 21
457.80539
 31
0.0
  0
LINE
  5
7E
330
1F
100
AcDbEntity
  8
LC-001-100-D00-0
 62
     7
370
    50
100
AcDbLine
 10
771.726009
 20
457.806083
 30
0.0
 11
757.729849
 21
462.471471
 31
0.0
  0
LINE
  5
7F
330
1F
100
AcDbEntity
  8
LC-001-100-D00-0
 62
     7
370
    50
100
AcDbLine
 10
746.957931
 20
462.471471
 30
0.0
 11
732.961771
 21
457.806083
 31
0.0
  0
LINE
  5
80
330
1F
100
AcDbEntity
  8
LC-001-100-D00-0
 62
     7
370
    50
100
AcDbLine
 10
803.84389
 20
481.100124
 30
0.0
 11
829.84389
 21
481.100124
 31
0.0
  0
LINE
  5
81
330
1F
100
AcDbEntity
  8
LC-001-100-D00-0
 62
     7
370
    50
100
AcDbLine
 10
803.84389
 20
483.100124
 30
0.0
 11
803.84389
 21
481.100124
 31
0.0
  0
LINE
  5
82
330
1F
100
AcDbEntity
  8
LC-001-100-D00-0
 62
     7
370
    50
100
AcDbLine
 10
829.84389
 20
483.100124
 30
0.0
 11
829.84389
 21
481.100124
 31
0.0
  0
LINE
  5
83
330
1F
100
AcDbEntity
  8
LC-001-100-D00-0
 62
     7
370
    50
100
AcDbLine
 10
803.84389
 20
479.100124
 30
0.0
 11
803.84389
 21
481.100124
 31
0.0
  0
LINE
  5
84
330
1F
100
AcDbEntity
  8
LC-001-100-D00-0
 62
     7
370
    50
100
AcDbLine
 10
829.84389
 20
481.100124
 30
0.0
 11
829.84389
 21
479.100124
 31
0.0
  0
LINE
  5
85
330
1F
100
AcDbEntity
  8
LC-001-100-D00-0
 62
     7
370
    50
100
AcDbLine
 10
829.84389
 20
454.000124
 30
0.0
 11
827.403498
 21
454.000123
 31
0.0
  0
LINE
  5
86
330
1F
100
AcDbEntity
  8
LC-001-100-D00-0
 62
     7
370
    50
100
AcDbLine
 10
806.284283
 20
454.000123
 30
0.0
 11
803.84389
 21
454.000124
 31
0.0
  0
LINE
  5
87
330
1F
100
AcDbEntity
  8
LC-001-100-D00-0
 62
     7
370
    50
100
AcDbLine
 10
803.84389
 20
454.000124
 30
0.0
 11
803.84389
 21
458.000124
 31
0.0
  0
LINE
  5
88
330
1F
100
AcDbEntity
  8
LC-001-100-D00-0
 62
     7
370
    50
100
AcDbLine
 10
829.84389
 20
458.000124
 30
0.0
 11
829.84389
 21
454.000124
 31
0.0
  0
LINE
  5
89
330
1F
100
AcDbEntity
  8
LC-001-100-D00-0
 62
     7
370
    50
100
AcDbLine
 10
803.84389
 20
479.100124
 30
0.0
 11
803.84389
 21
458.000124
 31
0.0
  0
LINE
  5
8A
330
1F
100
AcDbEntity
  8
LC-001-100-D00-0
 62
     7
370
    50
100
AcDbLine
 10
829.84389
 20
479.100124
 30
0.0
 11
829.84389
 21
458.000124
 31
0.0
  0
LINE
  5
8B
330
1F
100
AcDbEntity
  8
LC-001-100-D00-0
 62
     7
370
    50
100
AcDbLine
 10
733.41403
 20
457.600123
 30
0.0
 11
731.694779
 21
457.600123
 31
0.0
  0
LINE
  5
8C
330
1F
100
AcDbEntity
  8
LC-001-100-D00-0
 62
     7
370
    50
100
AcDbLine
 10
772.993001
 20
457.600123
 30
0.0
 11
771.27375
 21
457.600123
 31
0.0
  0
LINE
  5
8D
330
1F
100
AcDbEntity
  8
LC-001-100-D00-0
 62
     7
370
    50
100
AcDbLine
 10
771.27375
 20
457.600123
 30
0.0
 11
733.41403
 21
457.600123
 31
0.0
  0
LINE
  5
8E
330
1F
100
AcDbEntity
  8
LC-001-100-D00-0
 62
     7
370
    50
100
AcDbLine
 10
791.84389
 20
481.700124
 30
0.0
 11
782.84389
 21
481.700124
 31
0.0
  0
LINE
  5
8F
330
1F
100
AcDbEntity
  8
LC-001-100-D00-0
 62
     7
370
    50
100
AcDbLine
 10
712.84389
 20
481.700124
 30
0.0
 11
721.84389
 21
481.700124
 31
0.0
  0
LINE
  5
90
330
1F
100
AcDbEntity
  8
LC-001-100-D00-0
 62
     7
370
    50
100
AcDbLine
 10
791.34389
 20
468.100124
 30
0.0
 11
783.34389
 21
468.100124
 31
0.0
  0
LINE
  5
91
330
1F
100
AcDbEntity
  8
LC-001-100-D00-0
 62
     7
370
    50
100
AcDbLine
 10
713.34389
 20
468.100124
 30
0.0
 11
721.34389
 21
468.100124
 31
0.0
  0
LINE
  5
92
330
1F
100
AcDbEntity
  8
LC-001-100-D00-0
 62
     7
370
    50
100
AcDbLine
 10
808.001966
 20
358.100128
 30
0.0
 11
825.711784
 21
358.100128
 31
0.0
  0
LINE
  5
93
330
1F
100
AcDbEntity
  8
LC-001-100-D00-0
 62
     7
370
    50
100
AcDbLine
 10
818.78161
 20
350.100124
 30
0.0
 11
807.34389
 21
350.100124
 31
0.0
  0
LINE
  5
94
330
1F
100
AcDbEntity
  8
LC-001-100-D00-0
 62
     7
370
    50
100
AcDbLine
 10
826.34389
 20
350.100124
 30
0.0
 11
818.78161
 21
350.100124
 31
0.0
  0
LINE
  5
95
330
1F
100
AcDbEntity
  8
LC-001-100-D00-0
 62
     7
370
    50
100
AcDbLine
 10
804.84389
 20
452.100124
 30
0.0
 11
804.843888
 21
454.000123
 31
0.0
  0
LINE
  5
96
330
1F
100
AcDbEntity
  8
LC-001-100-D00-0
 62
     7
370
    50
100
AcDbLine
 10
807.229031
 20
454.100124
 30
0.0
 11
810.84389
 21
454.100124
 31
0.0
  0
LINE
  5
97
330
1F
100
AcDbEntity
  8
LC-001-100-D00-0
 62
     7
370
    50
100
AcDbLine
 10
810.84389
 20
452.100124
 30
0.0
 11
804.84389
 21
452.100124
 31
0.0
  0
LINE
  5
98
330
1F
100
AcDbEntity
  8
LC-001-100-D00-0
 62
     7
370
    50
100
AcDbLine
 10
822.84389
 20
454.100124
 30
0.0
 11
810.84389
 21
454.100124
 31
0.0
  0
LINE
  5
99
330
1F
100
AcDbEntity
  8
LC-001-100-D00-0
 62
     7
370
    50
100
AcDbLine
 10
822.84389
 20
452.100124
 30
0.0
 11
810.84389
 21
452.100124
 31
0.0
  0
LINE
  5
9A
330
1F
100
AcDbEntity
  8
LC-001-100-D00-0
 62
     7
370
    50
100
AcDbLine
 10
828.843889
 20
454.000123
 30
0.0
 11
828.84389
 21
452.100124
 31
0.0
  0
LINE
  5
9B
330
1F
100
AcDbEntity
  8
LC-001-100-D00-0
 62
     7
370
    50
100
AcDbLine
 10
822.84389
 20
454.100124
 30
0.0
 11
826.458749
 21
454.100124
 31
0.0
  0
LINE
  5
9C
330
1F
100
AcDbEntity
  8
LC-001-100-D00-0
 62
     7
370
    50
100
AcDbLine
 10
828.84389
 20
452.100124
 30
0.0
 11
822.84389
 21
452.100124
 31
0.0
  0
LINE
  5
9D
330
1F
100
AcDbEntity
  8
LC-001-100-D00-0
 62
     7
370
    50
100
AcDbLine
 10
820.34389
 20
427.100124
 30
0.0
 11
813.34389
 21
427.100124
 31
0.0
  0
LINE
  5
9E
330
1F
100
AcDbEntity
  8
LC-001-100-D00-0
 62
     7
370
    50
100
AcDbLine
 10
825.34389
 20
427.100124
 30
0.0
 11
820.34389
 21
427.100124
 31
0.0
  0
LINE
  5
9F
330
1F
100
AcDbEntity
  8
LC-001-100-D00-0
 62
     7
370
    50
100
AcDbLine
 10
813.34389
 20
427.100124
 30
0.0
 11
808.34389
 21
427.100124
 31
0.0
  0
LINE
  5
A0
330
1F
100
AcDbEntity
  8
LC-001-100-D00-0
 62
     7
370
    50
100
AcDbLine
 10
804.84389
 20
427.100124
 30
0.0
 11
804.84389
 21
452.100124
 31
0.0
  0
LINE
  5
A1
330
1F
100
AcDbEntity
  8
LC-001-100-D00-0
 62
     7
370
    50
100
AcDbLine
 10
808.34389
 20
427.100124
 30
0.0
 11
804.84389
 21
427.100124
 31
0.0
  0
LINE
  5
A2
330
1F
100
AcDbEntity
  8
LC-001-100-D00-0
 62
     7
370
    50
100
AcDbLine
 10
828.84389
 20
452.100124
 30
0.0
 11
828.84389
 21
427.100124
 31
0.0
  0
LINE
  5
A3
330
1F
100
AcDbEntity
  8
LC-001-100-D00-0
 62
     7
370
    50
100
AcDbLine
 10
828.84389
 20
427.100124
 30
0.0
 11
825.34389
 21
427.100124
 31
0.0
  0
LINE
  5
A4
330
1F
100
AcDbEntity
  8
LC-001-100-D00-0
 62
     7
370
    50
100
AcDbLine
 10
806.84389
 20
373.100124
 30
0.0
 11
826.84389
 21
373.100124
 31
0.0
  0
LINE
  5
A5
330
1F
100
AcDbEntity
  8
LC-001-100-D00-0
 62
     7
370
    50
100
AcDbLine
 10
818.883595
 20
359.100124
 30
0.0
 11
826.84389
 21
359.100124
 31
0.0
  0
LINE
  5
A6
330
1F
100
AcDbEntity
  8
LC-001-100-D00-0
 62
     7
370
    50
100
AcDbLine
 10
806.84389
 20
359.100124
 30
0.0
 11
818.883595
 21
359.100124
 31
0.0
  0
LINE
  5
A7
330
1F
100
AcDbEntity
  8
LC-001-100-D00-0
 62
     7
370
    50
100
AcDbLine
 10
818.679624
 20
358.100124
 30
0.0
 11
807.84389
 21
358.100124
 31
0.0
  0
LINE
  5
A8
330
1F
100
AcDbEntity
  8
LC-001-100-D00-0
 62
     7
370
    50
100
AcDbLine
 10
825.84389
 20
358.100124
 30
0.0
 11
818.679624
 21
358.100124
 31
0.0
  0
LINE
  5
A9
330
1F
100
AcDbEntity
  8
LC-001-100-D00-0
 62
     7
370
    50
100
AcDbLine
 10
806.84389
 20
369.600124
 30
0.0
 11
826.84389
 21
369.600124
 31
0.0
  0
LINE
  5
AA
330
1F
100
AcDbEntity
  8
LC-001-100-D00-0
 62
     7
370
    50
100
AcDbLine
 10
787.34389
 20
458.100124
 30
0.0
 11
782.94389
 21
458.100124
 31
0.0
  0
LINE
  5
AB
330
1F
100
AcDbEntity
  8
LC-001-100-D00-0
 62
     7
370
    50
100
AcDbLine
 10
791.74389
 20
458.100124
 30
0.0
 11
787.34389
 21
458.100124
 31
0.0
  0
LINE
  5
AC
330
1F
100
AcDbEntity
  8
LC-001-100-D00-0
 62
     7
370
    50
100
AcDbLine
 10
717.34389
 20
458.100124
 30
0.0
 11
712.94389
 21
458.100124
 31
0.0
  0
LINE
  5
AD
330
1F
100
AcDbEntity
  8
LC-001-100-D00-0
 62
     7
370
    50
100
AcDbLine
 10
721.74389
 20
458.100124
 30
0.0
 11
717.34389
 21
458.100124
 31
0.0
  0
LINE
  5
AE
330
1F
100
AcDbEntity
  8
LC-001-100-D00-0
 62
     7
370
    50
100
AcDbLine
 10
716.84389
 20
464.100124
 30
0.0
 11
711.84389
 21
464.100124
 31
0.0
  0
LINE
  5
AF
330
1F
100
AcDbEntity
  8
LC-001-100-D00-0
 62
     7
370
    50
100
AcDbLine
 10
711.84389
 20
464.100124
 30
0.0
 11
711.84389
 21
467.100124
 31
0.0
  0
LINE
  5
B0
330
1F
100
AcDbEntity
  8
LC-001-100-D00-0
 62
     7
370
    50
100
AcDbLine
 10
711.84389
 20
467.100124
 30
0.0
 11
716.84389
 21
467.100124
 31
0.0
  0
LINE
  5
B1
330
1F
100
AcDbEntity
  8
LC-001-100-D00-0
 62
     7
370
    50
100
AcDbLine
 10
792.84389
 20
467.100124
 30
0.0
 11
792.84389
 21
464.100124
 31
0.0
  0
LINE
  5
B2
330
1F
100
AcDbEntity
  8
LC-001-100-D00-0
 62
     7
370
    50
100
AcDbLine
 10
792.84389
 20
464.100124
 30
0.0
 11
787.84389
 21
464.100124
 31
0.0
  0
LINE
  5
B3
330
1F
100
AcDbEntity
  8
LC-001-100-D00-0
 62
     7
370
    50
100
AcDbLine
 10
787.84389
 20
467.100124
 30
0.0
 11
792.84389
 21
467.100124
 31
0.0
  0
LINE
  5
B4
330
1F
100
AcDbEntity
  8
LC-001-100-D00-0
 62
     7
370
    50
100
AcDbLine
 10
779.84389
 20
467.100124
 30
0.0
 11
787.84389
 21
467.100124
 31
0.0
  0
LINE
  5
B5
330
1F
100
AcDbEntity
  8
LC-001-100-D00-0
 62
     7
370
    50
100
AcDbLine
 10
779.84389
 20
464.100123
 30
0.0
 11
787.84389
 21
464.100124
 31
0.0
  0
LINE
  5
B6
330
1F
100
AcDbEntity
  8
LC-001-100-D00-0
 62
     7
370
    50
100
AcDbLine
 10
716.84389
 20
464.100124
 30
0.0
 11
724.84389
 21
464.100123
 31
0.0
  0
LINE
  5
B7
330
1F
100
AcDbEntity
  8
LC-001-100-D00-0
 62
     7
370
    50
100
AcDbLine
 10
716.84389
 20
467.100124
 30
0.0
 11
724.84389
 21
467.100124
 31
0.0
  0
LINE
  5
B8
330
1F
100
AcDbEntity
  8
LC-001-100-D00-0
 62
     7
370
    50
100
AcDbLine
 10
790.290699
 20
453.850124
 30
0.0
 11
714.397081
 21
453.850124
 31
0.0
  0
LINE
  5
B9
330
1F
100
AcDbEntity
  8
LC-001-100-D00-0
 62
     7
370
    50
100
AcDbLine
 10
792.84389
 20
468.100124
 30
0.0
 11
792.84389
 21
467.100124
 31
0.0
  0
LINE
  5
BA
330
1F
100
AcDbEntity
  8
LC-001-100-D00-0
 62
     7
370
    50
100
AcDbLine
 10
711.84389
 20
467.100124
 30
0.0
 11
711.84389
 21
468.100124
 31
0.0
  0
LINE
  5
BB
330
1F
100
AcDbEntity
  8
LC-001-100-D00-0
 62
     7
370
    50
100
AcDbLine
 10
711.84389
 20
468.100124
 30
0.0
 11
711.84389
 21
483.100124
 31
0.0
  0
LINE
  5
BC
330
1F
100
AcDbEntity
  8
LC-001-100-D00-0
 62
     7
370
    50
100
AcDbLine
 10
792.84389
 20
462.100124
 30
0.0
 11
792.84389
 21
453.850124
 31
0.0
  0
LINE
  5
BD
330
1F
100
AcDbEntity
  8
LC-001-100-D00-0
 62
     7
370
    50
100
AcDbLine
 10
792.84389
 20
453.850124
 30
0.0
 11
790.290699
 21
453.850124
 31
0.0
  0
LINE
  5
BE
330
1F
100
AcDbEntity
  8
LC-001-100-D00-0
 62
     7
370
    50
100
AcDbLine
 10
792.84389
 20
483.100124
 30
0.0
 11
792.84389
 21
468.100124
 31
0.0
  0
LINE
  5
BF
330
1F
100
AcDbEntity
  8
LC-001-100-D00-0
 62
     7
370
    50
100
AcDbLine
 10
711.84389
 20
453.850124
 30
0.0
 11
711.84389
 21
462.100124
 31
0.0
  0
LINE
  5
C0
330
1F
100
AcDbEntity
  8
LC-001-100-D00-0
 62
     7
370
    50
100
AcDbLine
 10
714.397081
 20
453.850124
 30
0.0
 11
711.84389
 21
453.850124
 31
0.0
  0
LINE
  5
C1
330
1F
100
AcDbEntity
  8
LC-001-100-D00-0
 62
     7
370
    50
100
AcDbLine
 10
714.397081
 20
453.850124
 30
0.0
 11
790.290699
 21
453.850124
 31
0.0
  0
LINE
  5
C2
330
1F
100
AcDbEntity
  8
LC-001-100-D00-0
 62
     7
370
    50
100
AcDbLine
 10
779.386443
 20
401.100124
 30
0.0
 11
725.301337
 21
401.100124
 31
0.0
  0
LINE
  5
C3
330
1F
100
AcDbEntity
  8
LC-001-100-D00-0
 62
     7
370
    50
100
AcDbLine
 10
772.859487
 20
394.600124
 30
0.0
 11
731.828293
 21
394.600124
 31
0.0
  0
LINE
  5
C4
330
1F
100
AcDbEntity
  8
LC-001-100-D00-0
 62
     7
370
    50
100
AcDbLine
 10
792.84389
 20
453.850124
 30
0.0
 11
792.84389
 21
413.600124
 31
0.0
  0
LINE
  5
C5
330
1F
100
AcDbEntity
  8
LC-001-100-D00-0
 62
     7
370
    50
100
AcDbLine
 10
790.290699
 20
453.850124
 30
0.0
 11
792.84389
 21
453.850124
 31
0.0
  0
ARC
  5
C6
330
1F
100
AcDbEntity
  8
LC-001-100-D00-0
 62
     7
370
    50
100
AcDbCircle
 10
780.34389
 20
413.600124
 30
0.0
 40
12.50000000000023
100
AcDbArc
 50
270.0
 51
0.0
  0
LINE
  5
C7
330
1F
100
AcDbEntity
  8
LC-001-100-D00-0
 62
     7
370
    50
100
AcDbLine
 10
780.34389
 20
401.100124
 30
0.0
 11
779.386443
 21
401.100124
 31
0.0
  0
ARC
  5
C8
330
1F
100
AcDbEntity
  8
LC-001-100-D00-0
 62
     7
370
    50
100
AcDbCircle
 10
724.34389
 20
413.600124
 30
0.0
 40
12.5
100
AcDbArc
 50
180.0
 51
270.0
  0
LINE
  5
C9
330
1F
100
AcDbEntity
  8
LC-001-100-D00-0
 62
     7
370
    50
100
AcDbLine
 10
725.301337
 20
401.100124
 30
0.0
 11
724.34389
 21
401.100124
 31
0.0
  0
LINE
  5
CA
330
1F
100
AcDbEntity
  8
LC-001-100-D00-0
 62
     7
370
    50
100
AcDbLine
 10
711.84389
 20
413.600124
 30
0.0
 11
711.84389
 21
453.850124
 31
0.0
  0
LINE
  5
CB
330
1F
100
AcDbEntity
  8
LC-001-100-D00-0
 62
     7
370
    50
100
AcDbLine
 10
711.84389
 20
453.850124
 30
0.0
 11
714.397081
 21
453.850124
 31
0.0
  0
ARC
  5
CC
330
1F
100
AcDbEntity
  8
LC-001-100-D00-0
 62
     7
370
    50
100
AcDbCircle
 10
731.82601
 20
401.600124
 30
0.0
 40
6.999999999999882
100
AcDbArc
 50
184.096044
 51
270.0
  0
LINE
  5
CD
330
1F
100
AcDbEntity
  8
LC-001-100-D00-0
 62
     7
370
    50
100
AcDbLine
 10
731.828293
 20
394.600124
 30
0.0
 11
731.82601
 21
394.600124
 31
0.0
  0
ARC
  5
CE
330
1F
100
AcDbEntity
  8
LC-001-100-D00-0
 62
     7
370
    50
100
AcDbCircle
 10
772.86177
 20
401.600124
 30
0.0
 40
7.000000000000227
100
AcDbArc
 50
270.0
 51
355.903956
  0
LINE
  5
CF
330
1F
100
AcDbEntity
  8
LC-001-100-D00-0
 62
     7
370
    50
100
AcDbLine
 10
772.86177
 20
394.600124
 30
0.0
 11
772.859487
 21
394.600124
 31
0.0
  0
LINE
  5
D0
330
1F
100
AcDbEntity
  8
LC-001-100-D00-0
 62
     7
370
    50
100
AcDbLine
 10
787.34389
 20
462.100124
 30
0.0
 11
792.84389
 21
462.100124
 31
0.0
  0
LINE
  5
D1
330
1F
100
AcDbEntity
  8
LC-001-100-D00-0
 62
     7
370
    50
100
AcDbLine
 10
781.84389
 20
462.100124
 30
0.0
 11
787.34389
 21
462.100124
 31
0.0
  0
LINE
  5
D2
330
1F
100
AcDbEntity
  8
LC-001-100-D00-0
 62
     7
370
    50
100
AcDbLine
 10
717.34389
 20
462.100124
 30
0.0
 11
722.84389
 21
462.100124
 31
0.0
  0
LINE
  5
D3
330
1F
100
AcDbEntity
  8
LC-001-100-D00-0
 62
     7
370
    50
100
AcDbLine
 10
711.84389
 20
462.100124
 30
0.0
 11
717.34389
 21
462.100124
 31
0.0
  0
DIMENSION
  5
D6
330
1F
100
AcDbEntity
  8
LC-001-100-D00-0
 62
     7
370
    25
100
AcDbDimension
  2
*D1
 10
792.84389
 20
307.218276
 30
0.0
 11
836.886337
 21
362.218276
 31
0.0
 70
   160
  1
81
 71
     5
 42
81.0
  3
LC-DIM-L-0100-02-02
100
AcDbAlignedDimension
 13
711.84389
 23
413.600124
 33
0.0
 14
792.84389
 24
413.600124
 34
0.0
100
AcDbRotatedDimension
  0
LINE
  5
E6
330
1F
100
AcDbEntity
  8
LC-001-100-D00-0
  6
DASHDOT
 62
     7
370
    25
100
AcDbLine
 10
752.34389
 20
394.600124
 30
0.0
 11
752.34389
 21
484.600124
 31
0.0
  0
LINE
  5
E7
330
1F
100
AcDbEntity
  8
LC-001-100-D00-0
  6
DASHDOT
 62
     7
370
    25
100
AcDbLine
 10
816.84389
 20
363.100124
 30
0.0
 11
816.84389
 21
487.100124
 31
0.0
  0
LINE
  5
E8
330
1F
100
AcDbEntity
  8
LC-001-100-D00-0
 62
     7
370
    50
100
AcDbLine
 10
360.906602
 20
182.478276
 30
0.0
 11
360.906602
 21
180.978276
 31
0.0
  0
LINE
  5
E9
330
1F
100
AcDbEntity
  8
LC-001-100-D00-0
 62
     7
370
    50
100
AcDbLine
 10
360.906602
 20
180.978276
 30
0.0
 11
355.906602
 21
180.978276
 31
0.0
  0
LINE
  5
EA
330
1F
100
AcDbEntity
  8
LC-001-100-D00-0
 62
     7
370
    50
100
AcDbLine
 10
355.906602
 20
182.478276
 30
0.0
 11
360.906602
 21
182.478276
 31
0.0
  0
LINE
  5
EB
330
1F
100
AcDbEntity
  8
LC-001-100-D00-0
 62
     7
370
    50
100
AcDbLine
 10
-634.093398
 20
180.978276
 30
0.0
 11
355.906602
 21
180.978276
 31
0.0
  0
LINE
  5
EC
330
1F
100
AcDbEntity
  8
LC-001-100-D00-0
 62
     7
370
    50
100
AcDbLine
 10
-634.093398
 20
182.478276
 30
0.0
 11
355.906602
 21
182.478276
 31
0.0
  0
LINE
  5
ED
330
1F
100
AcDbEntity
  8
LC-001-100-D00-0
 62
     7
370
    50
100
AcDbLine
 10
-639.093398
 20
180.978276
 30
0.0
 11
-639.093398
 21
182.478276
 31
0.0
  0
LINE
  5
EE
330
1F
100
AcDbEntity
  8
LC-001-100-D00-0
 62
     7
370
    50
100
AcDbLine
 10
-634.093398
 20
180.978276
 30
0.0
 11
-639.093398
 21
180.978276
 31
0.0
  0
LINE
  5
EF
330
1F
100
AcDbEntity
  8
LC-001-100-D00-0
 62
     7
370
    50
100
AcDbLine
 10
-639.093398
 20
182.478276
 30
0.0
 11
-634.093398
 21
182.478276
 31
0.0
  0
LINE
  5
F0
330
1F
100
AcDbEntity
  8
LC-001-100-D00-0
 62
     7
370
    50
100
AcDbLine
 10
-639.093398
 20
179.478276
 30
0.0
 11
-639.093398
 21
180.978276
 31
0.0
  0
LINE
  5
F1
330
1F
100
AcDbEntity
  8
LC-001-100-D00-0
 62
     7
370
    50
100
AcDbLine
 10
360.906602
 20
180.978276
 30
0.0
 11
360.906602
 21
179.478276
 31
0.0
  0
ARC
  5
F2
330
1F
100
AcDbEntity
  8
LC-001-100-D00-0
 62
     7
370
    50
100
AcDbCircle
 10
308.406602
 20
112.978276
 30
0.0
 40
2.5
100
AcDbArc
 50
270.0
 51
0.0
  0
ARC
  5
F3
330
1F
100
AcDbEntity
  8
LC-001-100-D00-0
 62
     7
370
    50
100
AcDbCircle
 10
308.406602
 20
159.978276
 30
0.0
 40
2.5
100
AcDbArc
 50
0.0
 51
90.0
  0
LINE
  5
F4
330
1F
100
AcDbEntity
  8
LC-001-100-D00-0
 62
     7
370
    50
100
AcDbLine
 10
310.906602
 20
112.978276
 30
0.0
 11
310.906602
 21
159.978276
 31
0.0
  0
LINE
  5
F5
330
1F
100
AcDbEntity
  8
LC-001-100-D00-0
 62
     7
370
    50
100
AcDbLine
 10
308.406602
 20
110.478276
 30
0.0
 11
-586.593398
 21
110.478276
 31
0.0
  0
LINE
  5
F6
330
1F
100
AcDbEntity
  8
LC-001-100-D00-0
 62
     7
370
    50
100
AcDbLine
 10
-586.593398
 20
162.478276
 30
0.0
 11
308.406602
 21
162.478276
 31
0.0
  0
ARC
  5
F7
330
1F
100
AcDbEntity
  8
LC-001-100-D00-0
 62
     7
370
    50
100
AcDbCircle
 10
-586.593398
 20
159.978276
 30
0.0
 40
2.5
100
AcDbArc
 50
90.0
 51
180.0
  0
ARC
  5
F8
330
1F
100
AcDbEntity
  8
LC-001-100-D00-0
 62
     7
370
    50
100
AcDbCircle
 10
-586.593398
 20
112.978276
 30
0.0
 40
2.5
100
AcDbArc
 50
180.0
 51
270.0
  0
LINE
  5
F9
330
1F
100
AcDbEntity
  8
LC-001-100-D00-0
 62
     7
370
    50
100
AcDbLine
 10
-589.093398
 20
112.978276
 30
0.0
 11
-589.093398
 21
159.978276
 31
0.0
  0
ARC
  5
FA
330
1F
100
AcDbEntity
  8
LC-001-100-D00-0
 62
     7
370
    50
100
AcDbCircle
 10
355.906602
 20
63.978276
 30
0.0
 40
5.0
100
AcDbArc
 50
270.0
 51
0.0
  0
LINE
  5
FB
330
1F
100
AcDbEntity
  8
LC-001-100-D00-0
 62
     7
370
    50
100
AcDbLine
 10
-634.093398
 20
58.978276
 30
0.0
 11
355.906602
 21
58.978276
 31
0.0
  0
ARC
  5
FC
330
1F
100
AcDbEntity
  8
LC-001-100-D00-0
 62
     7
370
    50
100
AcDbCircle
 10
-634.093398
 20
63.978276
 30
0.0
 40
5.0
100
AcDbArc
 50
180.0
 51
270.0
  0
LINE
  5
FD
330
1F
100
AcDbEntity
  8
LC-001-100-D00-0
 62
     7
370
    50
100
AcDbLine
 10
-639.093398
 20
179.478276
 30
0.0
 11
-639.093398
 21
63.978276
 31
0.0
  0
LINE
  5
FE
330
1F
100
AcDbEntity
  8
LC-001-100-D00-0
 62
     7
370
    50
100
AcDbLine
 10
360.906602
 20
179.478276
 30
0.0
 11
360.906602
 21
63.978276
 31
0.0
  0
CIRCLE
  5
FF
330
1F
100
AcDbEntity
  8
LC-001-100-D00-0
 62
     7
370
    50
100
AcDbCircle
 10
280.906602
 20
136.478276
 30
0.0
 40
2.999999999999886
  0
CIRCLE
  5
100
330
1F
100
AcDbEntity
  8
LC-001-100-D00-0
 62
     7
370
    50
100
AcDbCircle
 10
120.906602
 20
136.478276
 30
0.0
 40
2.999999999999886
  0
CIRCLE
  5
101
330
1F
100
AcDbEntity
  8
LC-001-100-D00-0
 62
     7
370
    50
100
AcDbCircle
 10
-39.093398
 20
136.478276
 30
0.0
 40
3.000000000000114
  0
CIRCLE
  5
102
330
1F
100
AcDbEntity
  8
LC-001-100-D00-0
 62
     7
370
    50
100
AcDbCircle
 10
-239.093398
 20
136.478276
 30
0.0
 40
3.000000000000114
  0
CIRCLE
  5
103
330
1F
100
AcDbEntity
  8
LC-001-100-D00-0
 62
     7
370
    50
100
AcDbCircle
 10
-399.093398
 20
136.478276
 30
0.0
 40
2.999999999999886
  0
CIRCLE
  5
104
330
1F
100
AcDbEntity
  8
LC-001-100-D00-0
 62
     7
370
    50
100
AcDbCircle
 10
-559.093398
 20
136.478276
 30
0.0
 40
3.000000000000114
  0
LINE
  5
105
330
1F
100
AcDbEntity
  8
LC-001-100-D00-0
 62
     7
370
    50
100
AcDbLine
 10
302.880407
 20
124.155607
 30
0.0
 11
302.880407
 21
112.978277
 31
0.0
  0
ARC
  5
106
330
1F
100
AcDbEntity
  8
LC-001-100-D00-0
 62
     7
370
    50
100
AcDbCircle
 10
1066.066477
 20
4.864125
 30
0.0
 40
772.4528693663152
100
AcDbArc
 50
171.103568
 51
171.116141
  0
INSERT
  5
10E
330
1F
100
AcDbEntity
  8
LC-001-100-D00-0
 62
     7
370
    50
100
AcDbBlockReference
  2
KLON1
 10
0.0
 20
0.0
 30
0.0
  0
LINE
  5
10F
330
1F
100
AcDbEntity
  8
LC-001-100-D00-0
 62
     7
370
    50
100
AcDbLine
 10
302.880407
 20
159.963637
 30
0.0
 11
302.880407
 21
148.800945
 31
0.0
  0
INSERT
  5
115
330
1F
100
AcDbEntity
  8
LC-001-100-D00-0
 62
     7
370
    50
100
AcDbBlockReference
  2
KLON2
 10
0.0
 20
0.0
 30
0.0
  0
INSERT
  5
11B
330
1F
100
AcDbEntity
  8
LC-001-100-D00-0
 62
     7
370
    50
100
AcDbBlockReference
  2
KLON3
 10
0.0
 20
0.0
 30
0.0
  0
INSERT
  5
121
330
1F
100
AcDbEntity
  8
LC-001-100-D00-0
 62
     7
370
    50
100
AcDbBlockReference
  2
KLON4
 10
0.0
 20
0.0
 30
0.0
  0
INSERT
  5
127
330
1F
100
AcDbEntity
  8
LC-001-100-D00-0
 62
     7
370
    50
100
AcDbBlockReference
  2
KLON5
 10
0.0
 20
0.0
 30
0.0
  0
LINE
  5
128
330
1F
100
AcDbEntity
  8
LC-001-100-D00-0
 62
     7
370
    50
100
AcDbLine
 10
-581.067204
 20
159.963637
 30
0.0
 11
-581.067204
 21
148.800945
 31
0.0
  0
INSERT
  5
130
330
1F
100
AcDbEntity
  8
LC-001-100-D00-0
 62
     7
370
    50
100
AcDbBlockReference
  2
KLON6
 10
0.0
 20
0.0
 30
0.0
  0
ARC
  5
131
330
1F
100
AcDbEntity
  8
LC-001-100-D00-0
 62
     7
370
    50
100
AcDbCircle
 10
-1344.253308
 20
4.86412
 30
0.0
 40
772.4529036996158
100
AcDbArc
 50
8.883859
 51
8.896432
  0
LINE
  5
132
330
1F
100
AcDbEntity
  8
LC-001-100-D00-0
 62
     7
370
    50
100
AcDbLine
 10
-581.067204
 20
124.155607
 30
0.0
 11
-581.067204
 21
112.978277
 31
0.0
  0
ELLIPSE
  5
133
330
1F
100
AcDbEntity
  8
LC-001-100-D00-0
 62
     7
370
    50
100
AcDbEllipse
 10
302.833633
 20
112.978276
 30
0.0
 11
0.0
 21
-2.5
 31
0.0
210
0.0
220
0.0
230
1.0
 40
0.018242
 41
3.141592653591039
 42
4.712388980377113
  0
ELLIPSE
  5
134
330
1F
100
AcDbEntity
  8
LC-001-100-D00-0
 62
     7
370
    50
100
AcDbEllipse
 10
371.379239
 20
112.978276
 30
0.0
 11
68.49999999999949
 21
0.0
 31
0.0
210
0.0
220
0.0
230
1.0
 40
0.036496
 41
3.14159265359753
 42
3.169858841660805
  0
ELLIPSE
  5
135
330
1F
100
AcDbEntity
  8
LC-001-100-D00-0
 62
     7
370
    50
100
AcDbEllipse
 10
165.833633
 20
112.978276
 30
0.0
 11
0.0
 21
-2.500000005722046
 31
0.0
210
0.0
220
0.0
230
1.0
 40
0.018242
 41
3.14159265358917
 42
4.71238898038095
  0
ELLIPSE
  5
136
330
1F
100
AcDbEntity
  8
LC-001-100-D00-0
 62
     7
370
    50
100
AcDbEllipse
 10
-581.02043
 20
112.978276
 30
0.0
 11
0.0
 21
-2.500000030517578
 31
0.0
210
0.0
220
0.0
230
1.0
 40
0.018242
 41
1.570796326802269
 42
3.141592653592286
  0
ELLIPSE
  5
137
330
1F
100
AcDbEntity
  8
LC-001-100-D00-0
 62
     7
370
    50
100
AcDbEllipse
 10
-444.02043
 20
112.978276
 30
0.0
 11
0.0
 21
-2.5
 31
0.0
210
0.0
220
0.0
230
1.0
 40
0.018242
 41
1.570796326798569
 42
3.141592653588547
  0
ELLIPSE
  5
138
330
1F
100
AcDbEntity
  8
LC-001-100-D00-0
 62
     7
370
    50
100
AcDbEllipse
 10
-649.566035
 20
112.978276
 30
0.0
 11
68.50000000164557
 21
0.0
 31
0.0
210
0.0
220
0.0
230
1.0
 40
0.036496
 41
6.254919119109112
 42
6.283185307179262
  0
ELLIPSE
  5
139
330
1F
100
AcDbEntity
  8
LC-001-100-D00-0
 62
     7
370
    50
100
AcDbEllipse
 10
371.379239
 20
159.978276
 30
0.0
 11
68.49999999836633
 21
0.0
 31
0.0
210
0.0
220
0.0
230
1.0
 40
0.036496
 41
3.141592653589838
 42
3.147448628039637
  0
ELLIPSE
  5
13A
330
1F
100
AcDbEntity
  8
LC-001-100-D00-0
 62
     7
370
    50
100
AcDbEllipse
 10
302.833633
 20
159.978276
 30
0.0
 11
0.0
 21
-2.499999145507666
 31
0.0
210
0.0
220
0.0
230
1.0
 40
0.018242
 41
4.712388980384519
 42
6.283185334700605
  0
ELLIPSE
  5
13B
330
1F
100
AcDbEntity
  8
LC-001-100-D00-0
 62
     7
370
    50
100
AcDbEllipse
 10
-649.566035
 20
159.978276
 30
0.0
 11
68.499999999183
 21
0.0
 31
0.0
210
0.0
220
0.0
230
0.9999999999999999
 40
0.036496
 41
6.277329332730721
 42
6.283185307179677
  0
ELLIPSE
  5
13C
330
1F
100
AcDbEntity
  8
LC-001-100-D00-0
 62
     7
370
    50
100
AcDbEllipse
 10
-581.02043
 20
159.978276
 30
0.0
 11
0.0
 21
-2.499999938964843
 31
0.0
210
0.0
220
0.0
230
1.0
 40
0.018242
 41
6.28318527963614
 42
7.853981633974392
  0
ELLIPSE
  5
13D
330
1F
100
AcDbEntity
  8
LC-001-100-D00-0
 62
     7
370
    50
100
AcDbEllipse
 10
165.833633
 20
159.978276
 30
0.0
 11
0.0
 21
-2.5
 31
0.0
210
0.0
220
0.0
230
1.0
 40
0.018242
 41
4.712388980388248
 42
6.283185319785904
  0
ELLIPSE
  5
13E
330
1F
100
AcDbEntity
  8
LC-001-100-D00-0
 62
     7
370
    50
100
AcDbEllipse
 10
-444.02043
 20
159.978276
 30
0.0
 11
0.0
 21
-2.499999908447264
 31
0.0
210
0.0
220
0.0
230
1.0
 40
0.018242
 41
6.283185294559558
 42
7.853981633970674
  0
LINE
  5
13F
330
1F
100
AcDbEntity
  8
LC-001-100-D00-0
 62
     7
370
    50
100
AcDbLine
 10
165.87925
 20
112.978277
 30
0.0
 11
165.87925
 21
115.828793
 31
0.0
  0
INSERT
  5
145
330
1F
100
AcDbEntity
  8
LC-001-100-D00-0
 62
     7
370
    50
100
AcDbBlockReference
  2
KLON7
 10
0.0
 20
0.0
 30
0.0
  0
INSERT
  5
14B
330
1F
100
AcDbEntity
  8
LC-001-100-D00-0
 62
     7
370
    50
100
AcDbBlockReference
  2
KLON8
 10
0.0
 20
0.0
 30
0.0
  0
LINE
  5
14C
330
1F
100
AcDbEntity
  8
LC-001-100-D00-0
 62
     7
370
    50
100
AcDbLine
 10
-444.066047
 20
112.978277
 30
0.0
 11
-444.066047
 21
115.828793
 31
0.0
  0
INSERT
  5
153
330
1F
100
AcDbEntity
  8
LC-001-100-D00-0
 62
     7
370
    50
100
AcDbBlockReference
  2
KLON9
 10
0.0
 20
0.0
 30
0.0
  0
INSERT
  5
159
330
1F
100
AcDbEntity
  8
LC-001-100-D00-0
 62
     7
370
    50
100
AcDbBlockReference
  2
KLON10
 10
0.0
 20
0.0
 30
0.0
  0
INSERT
  5
160
330
1F
100
AcDbEntity
  8
LC-001-100-D00-0
 62
     7
370
    50
100
AcDbBlockReference
  2
KLON11
 10
0.0
 20
0.0
 30
0.0
  0
INSERT
  5
167
330
1F
100
AcDbEntity
  8
LC-001-100-D00-0
 62
     7
370
    50
100
AcDbBlockReference
  2
KLON12
 10
0.0
 20
0.0
 30
0.0
  0
INSERT
  5
16E
330
1F
100
AcDbEntity
  8
LC-001-100-D00-0
 62
     7
370
    50
100
AcDbBlockReference
  2
KLON13
 10
0.0
 20
0.0
 30
0.0
  0
INSERT
  5
174
330
1F
100
AcDbEntity
  8
LC-001-100-D00-0
 62
     7
370
    50
100
AcDbBlockReference
  2
KLON14
 10
0.0
 20
0.0
 30
0.0
  0
LINE
  5
175
330
1F
100
AcDbEntity
  8
LC-001-100-D00-0
 62
     7
370
    50
100
AcDbLine
 10
165.87925
 20
157.12776
 30
0.0
 11
165.87925
 21
159.978275
 31
0.0
  0
LINE
  5
176
330
1F
100
AcDbEntity
  8
LC-001-100-D00-0
 62
     7
370
    50
100
AcDbLine
 10
-444.066047
 20
157.12776
 30
0.0
 11
-444.066047
 21
159.978275
 31
0.0
  0
LINE
  5
177
330
1F
100
AcDbEntity
  8
LC-001-100-D00-0
 62
     7
370
    50
100
AcDbLine
 10
165.893526
 20
116.622598
 30
0.0
 11
165.893526
 21
130.617325
 31
0.0
  0
ELLIPSE
  5
178
330
1F
100
AcDbEntity
  8
LC-001-100-D00-0
 62
     7
370
    15
100
AcDbEllipse
 10
167.443631
 20
183.57791
 30
0.0
 11
28.6493302587004
 21
1.713494945318572
 31
0.0
210
0.0
220
0.0
230
1.0
 40
0.016531
 41
6.280994665937973
 42
6.282196627515569
  0
ELLIPSE
  5
179
330
1F
100
AcDbEntity
  8
LC-001-100-D00-0
 62
     7
370
    15
100
AcDbEllipse
 10
167.443631
 20
194.946233
 30
0.0
 11
28.64933022932911
 21
-1.713494943561954
 31
0.0
210
0.0
220
0.0
230
0.9999999999999999
 40
0.016531
 41
0.0009886796687278
 42
0.0021906412461671
  0
LINE
  5
17A
330
1F
100
AcDbEntity
  8
LC-001-100-D00-0
 62
     7
370
    50
100
AcDbLine
 10
165.893526
 20
142.339227
 30
0.0
 11
165.893526
 21
156.333954
 31
0.0
  0
ELLIPSE
  5
17B
330
1F
100
AcDbEntity
  8
LC-001-100-D00-0
 62
     7
370
    15
100
AcDbEllipse
 10
102.747556
 20
183.57791
 30
0.0
 11
28.64933029319465
 21
-1.713494947381647
 31
0.0
210
0.0
220
0.0
230
0.9999999999999999
 40
0.016531
 41
3.142581333258791
 42
3.143783294836303
  0
LINE
  5
17C
330
1F
100
AcDbEntity
  8
LC-001-100-D00-0
 62
     7
370
    50
100
AcDbLine
 10
-444.080322
 20
116.622598
 30
0.0
 11
-444.080322
 21
130.617325
 31
0.0
  0
ELLIPSE
  5
17D
330
1F
100
AcDbEntity
  8
LC-001-100-D00-0
 62
     7
370
    15
100
AcDbEllipse
 10
102.747556
 20
194.946233
 30
0.0
 11
28.64933025835888
 21
1.713494945298145
 31
0.0
210
0.0
220
0.0
230
0.9999999999999999
 40
0.016531
 41
3.139402012349031
 42
3.140603973926403
  0
LINE
  5
17E
330
1F
100
AcDbEntity
  8
LC-001-100-D00-0
 62
     7
370
    50
100
AcDbLine
 10
-444.080322
 20
142.339227
 30
0.0
 11
-444.080322
 21
156.333954
 31
0.0
  0
LINE
  5
17F
330
1F
100
AcDbEntity
  8
LC-001-100-D00-0
 62
     7
370
    50
100
AcDbLine
 10
165.87925
 20
115.829165
 30
0.0
 11
165.893407
 21
116.619735
 31
0.0
  0
LINE
  5
180
330
1F
100
AcDbEntity
  8
LC-001-100-D00-0
 62
     7
370
    50
100
AcDbLine
 10
165.87925
 20
157.127387
 30
0.0
 11
165.893407
 21
156.336817
 31
0.0
  0
LINE
  5
181
330
1F
100
AcDbEntity
  8
LC-001-100-D00-0
 62
     7
370
    50
100
AcDbLine
 10
-444.066047
 20
115.829165
 30
0.0
 11
-444.080203
 21
116.619735
 31
0.0
  0
LINE
  5
182
330
1F
100
AcDbEntity
  8
LC-001-100-D00-0
 62
     7
370
    50
100
AcDbLine
 10
-444.066047
 20
157.127387
 30
0.0
 11
-444.080203
 21
156.336817
 31
0.0
  0
ARC
  5
183
330
1F
100
AcDbEntity
  8
LC-001-100-D00-0
 62
     7
370
    50
100
AcDbCircle
 10
-108.593406
 20
136.478296
 30
0.0
 40
24.80002105913775
100
AcDbArc
 50
270.0
 51
300.592807
  0
ARC
  5
184
330
1F
100
AcDbEntity
  8
LC-001-100-D00-0
 62
     7
370
    50
100
AcDbCircle
 10
-169.59339
 20
136.478296
 30
0.0
 40
24.80002105913768
100
AcDbArc
 50
239.407193
 51
270.0
  0
ARC
  5
185
330
1F
100
AcDbEntity
  8
LC-001-100-D00-0
 62
     7
370
    50
100
AcDbCircle
 10
-108.593404
 20
136.478263
 30
0.0
 40
24.80001358063626
100
AcDbArc
 50
59.407188
 51
90.0
  0
ARC
  5
186
330
1F
100
AcDbEntity
  8
LC-001-100-D00-0
 62
     7
370
    50
100
AcDbCircle
 10
-169.593392
 20
136.478263
 30
0.0
 40
24.80001358063646
100
AcDbArc
 50
90.0
 51
120.592812
  0
LINE
  5
187
330
1F
100
AcDbEntity
  8
LC-001-100-D00-0
 62
     7
370
    50
100
AcDbLine
 10
-169.593398
 20
161.278277
 30
0.0
 11
-108.593398
 21
161.278277
 31
0.0
  0
LINE
  5
188
330
1F
100
AcDbEntity
  8
LC-001-100-D00-0
 62
     7
370
    50
100
AcDbLine
 10
-108.593398
 20
111.678275
 30
0.0
 11
-169.593398
 21
111.678275
 31
0.0
  0
LINE
  5
189
330
1F
100
AcDbEntity
  8
LC-001-100-D00-0
 62
     7
370
    50
100
AcDbLine
 10
-205.926231
 20
139.917179
 30
0.0
 11
-205.918088
 21
139.549287
 31
0.0
  0
LINE
  5
18A
330
1F
100
AcDbEntity
  8
LC-001-100-D00-0
 62
     7
370
    50
100
AcDbLine
 10
-207.037508
 20
140.710148
 30
0.0
 11
-205.926231
 21
139.917179
 31
0.0
  0
LINE
  5
18B
330
1F
100
AcDbEntity
  8
LC-001-100-D00-0
 62
     7
370
    50
100
AcDbLine
 10
-205.926231
 20
141.503117
 30
0.0
 11
-207.037508
 21
140.710148
 31
0.0
  0
LINE
  5
18C
330
1F
100
AcDbEntity
  8
LC-001-100-D00-0
 62
     7
370
    50
100
AcDbLine
 10
-205.926231
 20
141.876815
 30
0.0
 11
-205.926231
 21
141.503117
 31
0.0
  0
LINE
  5
18D
330
1F
100
AcDbEntity
  8
LC-001-100-D00-0
 62
     7
370
    50
100
AcDbLine
 10
-207.299731
 20
140.897347
 30
0.0
 11
-205.926231
 21
141.876815
 31
0.0
  0
LINE
  5
18E
330
1F
100
AcDbEntity
  8
LC-001-100-D00-0
 62
     7
370
    50
100
AcDbLine
 10
-208.483926
 20
141.742199
 30
0.0
 11
-207.299731
 21
140.897347
 31
0.0
  0
LINE
  5
18F
330
1F
100
AcDbEntity
  8
LC-001-100-D00-0
 62
     7
370
    50
100
AcDbLine
 10
-208.483926
 20
141.368501
 30
0.0
 11
-208.483926
 21
141.742199
 31
0.0
  0
LINE
  5
190
330
1F
100
AcDbEntity
  8
LC-001-100-D00-0
 62
     7
370
    50
100
AcDbLine
 10
-207.561246
 20
140.710148
 30
0.0
 11
-208.483926
 21
141.368501
 31
0.0
  0
LINE
  5
191
330
1F
100
AcDbEntity
  8
LC-001-100-D00-0
 62
     7
370
    50
100
AcDbLine
 10
-208.483926
 20
140.051795
 30
0.0
 11
-207.561246
 21
140.710148
 31
0.0
  0
LINE
  5
192
330
1F
100
AcDbEntity
  8
LC-001-100-D00-0
 62
     7
370
    50
100
AcDbLine
 10
-208.483926
 20
139.678097
 30
0.0
 11
-208.483926
 21
140.051795
 31
0.0
  0
LINE
  5
193
330
1F
100
AcDbEntity
  8
LC-001-100-D00-0
 62
     7
370
    50
100
AcDbLine
 10
-207.299731
 20
140.523649
 30
0.0
 11
-208.483926
 21
139.678097
 31
0.0
  0
LINE
  5
194
330
1F
100
AcDbEntity
  8
LC-001-100-D00-0
 62
     7
370
    50
100
AcDbLine
 10
-205.918088
 20
139.549287
 30
0.0
 11
-207.299731
 21
140.523649
 31
0.0
  0
LINE
  5
195
330
1F
100
AcDbEntity
  8
LC-001-100-D00-0
 62
     7
370
    50
100
AcDbLine
 10
-205.926231
 20
135.250512
 30
0.0
 11
-205.918088
 21
134.882621
 31
0.0
  0
LINE
  5
196
330
1F
100
AcDbEntity
  8
LC-001-100-D00-0
 62
     7
370
    50
100
AcDbLine
 10
-207.037508
 20
136.043481
 30
0.0
 11
-205.926231
 21
135.250512
 31
0.0
  0
LINE
  5
197
330
1F
100
AcDbEntity
  8
LC-001-100-D00-0
 62
     7
370
    50
100
AcDbLine
 10
-205.926231
 20
136.83645
 30
0.0
 11
-207.037508
 21
136.043481
 31
0.0
  0
LINE
  5
198
330
1F
100
AcDbEntity
  8
LC-001-100-D00-0
 62
     7
370
    50
100
AcDbLine
 10
-205.926231
 20
137.210148
 30
0.0
 11
-205.926231
 21
136.83645
 31
0.0
  0
LINE
  5
199
330
1F
100
AcDbEntity
  8
LC-001-100-D00-0
 62
     7
370
    50
100
AcDbLine
 10
-207.299731
 20
136.230681
 30
0.0
 11
-205.926231
 21
137.210148
 31
0.0
  0
LINE
  5
19A
330
1F
100
AcDbEntity
  8
LC-001-100-D00-0
 62
     7
370
    50
100
AcDbLine
 10
-208.483926
 20
137.075532
 30
0.0
 11
-207.299731
 21
136.230681
 31
0.0
  0
LINE
  5
19B
330
1F
100
AcDbEntity
  8
LC-001-100-D00-0
 62
     7
370
    50
100
AcDbLine
 10
-208.483926
 20
136.701835
 30
0.0
 11
-208.483926
 21
137.075532
 31
0.0
  0
LINE
  5
19C
330
1F
100
AcDbEntity
  8
LC-001-100-D00-0
 62
     7
370
    50
100
AcDbLine
 10
-207.561246
 20
136.043481
 30
0.0
 11
-208.483926
 21
136.701835
 31
0.0
  0
LINE
  5
19D
330
1F
100
AcDbEntity
  8
LC-001-100-D00-0
 62
     7
370
    50
100
AcDbLine
 10
-208.483926
 20
135.385128
 30
0.0
 11
-207.561246
 21
136.043481
 31
0.0
  0
LINE
  5
19E
330
1F
100
AcDbEntity
  8
LC-001-100-D00-0
 62
     7
370
    50
100
AcDbLine
 10
-208.483926
 20
135.01143
 30
0.0
 11
-208.483926
 21
135.385128
 31
0.0
  0
LINE
  5
19F
330
1F
100
AcDbEntity
  8
LC-001-100-D00-0
 62
     7
370
    50
100
AcDbLine
 10
-207.299731
 20
135.856983
 30
0.0
 11
-208.483926
 21
135.01143
 31
0.0
  0
LINE
  5
1A0
330
1F
100
AcDbEntity
  8
LC-001-100-D00-0
 62
     7
370
    50
100
AcDbLine
 10
-205.918088
 20
134.882621
 30
0.0
 11
-207.299731
 21
135.856983
 31
0.0
  0
LINE
  5
1A1
330
1F
100
AcDbEntity
  8
LC-001-100-D00-0
 62
     7
370
    50
100
AcDbLine
 10
-205.926231
 20
130.583846
 30
0.0
 11
-205.918088
 21
130.215954
 31
0.0
  0
LINE
  5
1A2
330
1F
100
AcDbEntity
  8
LC-001-100-D00-0
 62
     7
370
    50
100
AcDbLine
 10
-207.037508
 20
131.376815
 30
0.0
 11
-205.926231
 21
130.583846
 31
0.0
  0
LINE
  5
1A3
330
1F
100
AcDbEntity
  8
LC-001-100-D00-0
 62
     7
370
    50
100
AcDbLine
 10
-205.926231
 20
132.169783
 30
0.0
 11
-207.037508
 21
131.376815
 31
0.0
  0
LINE
  5
1A4
330
1F
100
AcDbEntity
  8
LC-001-100-D00-0
 62
     7
370
    50
100
AcDbLine
 10
-205.926231
 20
132.543481
 30
0.0
 11
-205.926231
 21
132.169783
 31
0.0
  0
LINE
  5
1A5
330
1F
100
AcDbEntity
  8
LC-001-100-D00-0
 62
     7
370
    50
100
AcDbLine
 10
-207.299731
 20
131.564014
 30
0.0
 11
-205.926231
 21
132.543481
 31
0.0
  0
LINE
  5
1A6
330
1F
100
AcDbEntity
  8
LC-001-100-D00-0
 62
     7
370
    50
100
AcDbLine
 10
-208.483926
 20
132.408866
 30
0.0
 11
-207.299731
 21
131.564014
 31
0.0
  0
LINE
  5
1A7
330
1F
100
AcDbEntity
  8
LC-001-100-D00-0
 62
     7
370
    50
100
AcDbLine
 10
-208.483926
 20
132.035168
 30
0.0
 11
-208.483926
 21
132.408866
 31
0.0
  0
LINE
  5
1A8
330
1F
100
AcDbEntity
  8
LC-001-100-D00-0
 62
     7
370
    50
100
AcDbLine
 10
-207.561246
 20
131.376815
 30
0.0
 11
-208.483926
 21
132.035168
 31
0.0
  0
LINE
  5
1A9
330
1F
100
AcDbEntity
  8
LC-001-100-D00-0
 62
     7
370
    50
100
AcDbLine
 10
-208.483926
 20
130.718461
 30
0.0
 11
-207.561246
 21
131.376815
 31
0.0
  0
LINE
  5
1AA
330
1F
100
AcDbEntity
  8
LC-001-100-D00-0
 62
     7
370
    50
100
AcDbLine
 10
-208.483926
 20
130.344763
 30
0.0
 11
-208.483926
 21
130.718461
 31
0.0
  0
LINE
  5
1AB
330
1F
100
AcDbEntity
  8
LC-001-100-D00-0
 62
     7
370
    50
100
AcDbLine
 10
-207.299731
 20
131.190316
 30
0.0
 11
-208.483926
 21
130.344763
 31
0.0
  0
LINE
  5
1AC
330
1F
100
AcDbEntity
  8
LC-001-100-D00-0
 62
     7
370
    50
100
AcDbLine
 10
-205.918088
 20
130.215954
 30
0.0
 11
-207.299731
 21
131.190316
 31
0.0
  0
LINE
  5
1AD
330
1F
100
AcDbEntity
  8
LC-001-100-D00-0
 62
     7
370
    50
100
AcDbLine
 10
-205.926231
 20
128.250512
 30
0.0
 11
-205.926231
 21
127.876815
 31
0.0
  0
LINE
  5
1AE
330
1F
100
AcDbEntity
  8
LC-001-100-D00-0
 62
     7
370
    50
100
AcDbLine
 10
-207.037508
 20
129.043481
 30
0.0
 11
-205.926231
 21
128.250512
 31
0.0
  0
LINE
  5
1AF
330
1F
100
AcDbEntity
  8
LC-001-100-D00-0
 62
     7
370
    50
100
AcDbLine
 10
-205.926231
 20
129.83645
 30
0.0
 11
-207.037508
 21
129.043481
 31
0.0
  0
LINE
  5
1B0
330
1F
100
AcDbEntity
  8
LC-001-100-D00-0
 62
     7
370
    50
100
AcDbLine
 10
-205.926231
 20
130.210148
 30
0.0
 11
-205.926231
 21
129.83645
 31
0.0
  0
LINE
  5
1B1
330
1F
100
AcDbEntity
  8
LC-001-100-D00-0
 62
     7
370
    50
100
AcDbLine
 10
-207.299731
 20
129.230681
 30
0.0
 11
-205.926231
 21
130.210148
 31
0.0
  0
LINE
  5
1B2
330
1F
100
AcDbEntity
  8
LC-001-100-D00-0
 62
     7
370
    50
100
AcDbLine
 10
-208.483926
 20
130.075533
 30
0.0
 11
-207.299731
 21
129.230681
 31
0.0
  0
LINE
  5
1B3
330
1F
100
AcDbEntity
  8
LC-001-100-D00-0
 62
     7
370
    50
100
AcDbLine
 10
-208.483926
 20
129.701835
 30
0.0
 11
-208.483926
 21
130.075533
 31
0.0
  0
LINE
  5
1B4
330
1F
100
AcDbEntity
  8
LC-001-100-D00-0
 62
     7
370
    50
100
AcDbLine
 10
-207.561246
 20
129.043481
 30
0.0
 11
-208.483926
 21
129.701835
 31
0.0
  0
LINE
  5
1B5
330
1F
100
AcDbEntity
  8
LC-001-100-D00-0
 62
     7
370
    50
100
AcDbLine
 10
-208.483926
 20
128.385128
 30
0.0
 11
-207.561246
 21
129.043481
 31
0.0
  0
LINE
  5
1B6
330
1F
100
AcDbEntity
  8
LC-001-100-D00-0
 62
     7
370
    50
100
AcDbLine
 10
-208.483926
 20
128.01143
 30
0.0
 11
-208.483926
 21
128.385128
 31
0.0
  0
LINE
  5
1B7
330
1F
100
AcDbEntity
  8
LC-001-100-D00-0
 62
     7
370
    50
100
AcDbLine
 10
-207.299731
 20
128.856983
 30
0.0
 11
-208.483926
 21
128.01143
 31
0.0
  0
LINE
  5
1B8
330
1F
100
AcDbEntity
  8
LC-001-100-D00-0
 62
     7
370
    50
100
AcDbLine
 10
-205.926231
 20
127.876815
 30
0.0
 11
-207.299731
 21
128.856983
 31
0.0
  0
LINE
  5
1B9
330
1F
100
AcDbEntity
  8
LC-001-100-D00-0
 62
     7
370
    50
100
AcDbLine
 10
-205.926231
 20
132.917179
 30
0.0
 11
-205.918088
 21
132.549287
 31
0.0
  0
LINE
  5
1BA
330
1F
100
AcDbEntity
  8
LC-001-100-D00-0
 62
     7
370
    50
100
AcDbLine
 10
-207.037508
 20
133.710148
 30
0.0
 11
-205.926231
 21
132.917179
 31
0.0
  0
LINE
  5
1BB
330
1F
100
AcDbEntity
  8
LC-001-100-D00-0
 62
     7
370
    50
100
AcDbLine
 10
-205.926231
 20
134.503117
 30
0.0
 11
-207.037508
 21
133.710148
 31
0.0
  0
LINE
  5
1BC
330
1F
100
AcDbEntity
  8
LC-001-100-D00-0
 62
     7
370
    50
100
AcDbLine
 10
-205.926231
 20
134.876815
 30
0.0
 11
-205.926231
 21
134.503117
 31
0.0
  0
LINE
  5
1BD
330
1F
100
AcDbEntity
  8
LC-001-100-D00-0
 62
     7
370
    50
100
AcDbLine
 10
-207.299731
 20
133.897348
 30
0.0
 11
-205.926231
 21
134.876815
 31
0.0
  0
LINE
  5
1BE
330
1F
100
AcDbEntity
  8
LC-001-100-D00-0
 62
     7
370
    50
100
AcDbLine
 10
-208.483926
 20
134.742199
 30
0.0
 11
-207.299731
 21
133.897348
 31
0.0
  0
LINE
  5
1BF
330
1F
100
AcDbEntity
  8
LC-001-100-D00-0
 62
     7
370
    50
100
AcDbLine
 10
-208.483926
 20
134.368501
 30
0.0
 11
-208.483926
 21
134.742199
 31
0.0
  0
LINE
  5
1C0
330
1F
100
AcDbEntity
  8
LC-001-100-D00-0
 62
     7
370
    50
100
AcDbLine
 10
-207.561246
 20
133.710148
 30
0.0
 11
-208.483926
 21
134.368501
 31
0.0
  0
LINE
  5
1C1
330
1F
100
AcDbEntity
  8
LC-001-100-D00-0
 62
     7
370
    50
100
AcDbLine
 10
-208.483926
 20
133.051795
 30
0.0
 11
-207.561246
 21
133.710148
 31
0.0
  0
LINE
  5
1C2
330
1F
100
AcDbEntity
  8
LC-001-100-D00-0
 62
     7
370
    50
100
AcDbLine
 10
-208.483926
 20
132.678097
 30
0.0
 11
-208.483926
 21
133.051795
 31
0.0
  0
LINE
  5
1C3
330
1F
100
AcDbEntity
  8
LC-001-100-D00-0
 62
     7
370
    50
100
AcDbLine
 10
-207.299731
 20
133.523649
 30
0.0
 11
-208.483926
 21
132.678097
 31
0.0
  0
LINE
  5
1C4
330
1F
100
AcDbEntity
  8
LC-001-100-D00-0
 62
     7
370
    50
100
AcDbLine
 10
-205.918088
 20
132.549287
 30
0.0
 11
-207.299731
 21
133.523649
 31
0.0
  0
LINE
  5
1C5
330
1F
100
AcDbEntity
  8
LC-001-100-D00-0
 62
     7
370
    50
100
AcDbLine
 10
-205.926231
 20
137.583846
 30
0.0
 11
-205.918088
 21
137.215954
 31
0.0
  0
LINE
  5
1C6
330
1F
100
AcDbEntity
  8
LC-001-100-D00-0
 62
     7
370
    50
100
AcDbLine
 10
-207.037508
 20
138.376815
 30
0.0
 11
-205.926231
 21
137.583846
 31
0.0
  0
LINE
  5
1C7
330
1F
100
AcDbEntity
  8
LC-001-100-D00-0
 62
     7
370
    50
100
AcDbLine
 10
-205.926231
 20
139.169783
 30
0.0
 11
-207.037508
 21
138.376815
 31
0.0
  0
LINE
  5
1C8
330
1F
100
AcDbEntity
  8
LC-001-100-D00-0
 62
     7
370
    50
100
AcDbLine
 10
-205.926231
 20
139.543481
 30
0.0
 11
-205.926231
 21
139.169783
 31
0.0
  0
LINE
  5
1C9
330
1F
100
AcDbEntity
  8
LC-001-100-D00-0
 62
     7
370
    50
100
AcDbLine
 10
-207.299731
 20
138.564014
 30
0.0
 11
-205.926231
 21
139.543481
 31
0.0
  0
LINE
  5
1CA
330
1F
100
AcDbEntity
  8
LC-001-100-D00-0
 62
     7
370
    50
100
AcDbLine
 10
-208.483926
 20
139.408866
 30
0.0
 11
-207.299731
 21
138.564014
 31
0.0
  0
LINE
  5
1CB
330
1F
100
AcDbEntity
  8
LC-001-100-D00-0
 62
     7
370
    50
100
AcDbLine
 10
-208.483926
 20
139.035168
 30
0.0
 11
-208.483926
 21
139.408866
 31
0.0
  0
LINE
  5
1CC
330
1F
100
AcDbEntity
  8
LC-001-100-D00-0
 62
     7
370
    50
100
AcDbLine
 10
-207.561246
 20
138.376815
 30
0.0
 11
-208.483926
 21
139.035168
 31
0.0
  0
LINE
  5
1CD
330
1F
100
AcDbEntity
  8
LC-001-100-D00-0
 62
     7
370
    50
100
AcDbLine
 10
-208.483926
 20
137.718461
 30
0.0
 11
-207.561246
 21
138.376815
 31
0.0
  0
LINE
  5
1CE
330
1F
100
AcDbEntity
  8
LC-001-100-D00-0
 62
     7
370
    50
100
AcDbLine
 10
-208.483926
 20
137.344763
 30
0.0
 11
-208.483926
 21
137.718461
 31
0.0
  0
LINE
  5
1CF
330
1F
100
AcDbEntity
  8
LC-001-100-D00-0
 62
     7
370
    50
100
AcDbLine
 10
-207.299731
 20
138.190316
 30
0.0
 11
-208.483926
 21
137.344763
 31
0.0
  0
LINE
  5
1D0
330
1F
100
AcDbEntity
  8
LC-001-100-D00-0
 62
     7
370
    50
100
AcDbLine
 10
-205.918088
 20
137.215954
 30
0.0
 11
-207.299731
 21
138.190316
 31
0.0
  0
ARC
  5
1D1
330
1F
100
AcDbEntity
  8
LC-001-100-D00-0
 62
     7
370
    50
100
AcDbCircle
 10
-108.593398
 20
136.478276
 30
0.0
 40
24.79999999999465
100
AcDbArc
 50
300.592814
 51
59.407186
  0
ARC
  5
1D2
330
1F
100
AcDbEntity
  8
LC-001-100-D00-0
 62
     7
370
    50
100
AcDbCircle
 10
-169.593398
 20
136.478276
 30
0.0
 40
24.79999999999471
100
AcDbArc
 50
120.592814
 51
239.407186
  0
LINE
  5
1D3
330
1F
100
AcDbEntity
  8
LC-001-100-D00-0
 62
     7
370
    50
100
AcDbLine
 10
139.156602
 20
149.728276
 30
0.0
 11
139.156602
 21
123.228276
 31
0.0
  0
ARC
  5
1D4
330
1F
100
AcDbEntity
  8
LC-001-100-D00-0
 62
     7
370
    50
100
AcDbCircle
 10
134.156602
 20
149.728276
 30
0.0
 40
5.0
100
AcDbArc
 50
0.0
 51
90.0
  0
ARC
  5
1D5
330
1F
100
AcDbEntity
  8
LC-001-100-D00-0
 62
     7
370
    50
100
AcDbCircle
 10
134.156602
 20
123.228276
 30
0.0
 40
5.0
100
AcDbArc
 50
270.0
 51
0.0
  0
CIRCLE
  5
1D6
330
1F
100
AcDbEntity
  8
LC-001-100-D00-0
 62
     7
370
    50
100
AcDbCircle
 10
120.906602
 20
136.478276
 30
0.0
 40
3.900000000000205
  0
LINE
  5
1D7
330
1F
100
AcDbEntity
  8
LC-001-100-D00-0
 62
     7
370
    50
100
AcDbLine
 10
134.156602
 20
118.228276
 30
0.0
 11
107.656602
 21
118.228276
 31
0.0
  0
LINE
  5
1D8
330
1F
100
AcDbEntity
  8
LC-001-100-D00-0
 62
     7
370
    50
100
AcDbLine
 10
107.656602
 20
154.728276
 30
0.0
 11
134.156602
 21
154.728276
 31
0.0
  0
ARC
  5
1D9
330
1F
100
AcDbEntity
  8
LC-001-100-D00-0
 62
     7
370
    50
100
AcDbCircle
 10
107.656602
 20
123.228276
 30
0.0
 40
5.0
100
AcDbArc
 50
180.0
 51
270.0
  0
ARC
  5
1DA
330
1F
100
AcDbEntity
  8
LC-001-100-D00-0
 62
     7
370
    50
100
AcDbCircle
 10
107.656602
 20
149.728276
 30
0.0
 40
5.0
100
AcDbArc
 50
90.0
 51
180.0
  0
LINE
  5
1DB
330
1F
100
AcDbEntity
  8
LC-001-100-D00-0
 62
     7
370
    50
100
AcDbLine
 10
102.656602
 20
123.228276
 30
0.0
 11
102.656602
 21
149.728276
 31
0.0
  0
ARC
  5
1DC
330
1F
100
AcDbEntity
  8
LC-001-100-D00-0
 62
     7
370
    50
100
AcDbCircle
 10
294.156602
 20
123.228276
 30
0.0
 40
5.0
100
AcDbArc
 50
270.0
 51
0.0
  0
ARC
  5
1DD
330
1F
100
AcDbEntity
  8
LC-001-100-D00-0
 62
     7
370
    50
100
AcDbCircle
 10
294.156602
 20
149.728276
 30
0.0
 40
5.0
100
AcDbArc
 50
0.0
 51
90.0
  0
LINE
  5
1DE
330
1F
100
AcDbEntity
  8
LC-001-100-D00-0
 62
     7
370
    50
100
AcDbLine
 10
299.156602
 20
149.728276
 30
0.0
 11
299.156602
 21
123.228276
 31
0.0
  0
CIRCLE
  5
1DF
330
1F
100
AcDbEntity
  8
LC-001-100-D00-0
 62
     7
370
    50
100
AcDbCircle
 10
280.906602
 20
136.478276
 30
0.0
 40
3.900000000000205
  0
LINE
  5
1E0
330
1F
100
AcDbEntity
  8
LC-001-100-D00-0
 62
     7
370
    50
100
AcDbLine
 10
294.156602
 20
118.228276
 30
0.0
 11
267.656602
 21
118.228276
 31
0.0
  0
LINE
  5
1E1
330
1F
100
AcDbEntity
  8
LC-001-100-D00-0
 62
     7
370
    50
100
AcDbLine
 10
267.656602
 20
154.728276
 30
0.0
 11
294.156602
 21
154.728276
 31
0.0
  0
ARC
  5
1E2
330
1F
100
AcDbEntity
  8
LC-001-100-D00-0
 62
     7
370
    50
100
AcDbCircle
 10
267.656602
 20
149.728276
 30
0.0
 40
5.0
100
AcDbArc
 50
90.0
 51
180.0
  0
ARC
  5
1E3
330
1F
100
AcDbEntity
  8
LC-001-100-D00-0
 62
     7
370
    50
100
AcDbCircle
 10
267.656602
 20
123.228276
 30
0.0
 40
5.0
100
AcDbArc
 50
180.0
 51
270.0
  0
LINE
  5
1E4
330
1F
100
AcDbEntity
  8
LC-001-100-D00-0
 62
     7
370
    50
100
AcDbLine
 10
262.656602
 20
123.228276
 30
0.0
 11
262.656602
 21
149.728276
 31
0.0
  0
LINE
  5
1E5
330
1F
100
AcDbEntity
  8
LC-001-100-D00-0
 62
     7
370
    50
100
AcDbLine
 10
-540.843398
 20
149.728276
 30
0.0
 11
-540.843398
 21
123.228276
 31
0.0
  0
ARC
  5
1E6
330
1F
100
AcDbEntity
  8
LC-001-100-D00-0
 62
     7
370
    50
100
AcDbCircle
 10
-545.843398
 20
123.228276
 30
0.0
 40
5.0
100
AcDbArc
 50
270.0
 51
0.0
  0
ARC
  5
1E7
330
1F
100
AcDbEntity
  8
LC-001-100-D00-0
 62
     7
370
    50
100
AcDbCircle
 10
-545.843398
 20
149.728276
 30
0.0
 40
5.0
100
AcDbArc
 50
0.0
 51
90.0
  0
CIRCLE
  5
1E8
330
1F
100
AcDbEntity
  8
LC-001-100-D00-0
 62
     7
370
    50
100
AcDbCircle
 10
-559.093398
 20
136.478276
 30
0.0
 40
3.900000000000205
  0
LINE
  5
1E9
330
1F
100
AcDbEntity
  8
LC-001-100-D00-0
 62
     7
370
    50
100
AcDbLine
 10
-572.343398
 20
154.728276
 30
0.0
 11
-545.843398
 21
154.728276
 31
0.0
  0
LINE
  5
1EA
330
1F
100
AcDbEntity
  8
LC-001-100-D00-0
 62
     7
370
    50
100
AcDbLine
 10
-545.843398
 20
118.228276
 30
0.0
 11
-572.343398
 21
118.228276
 31
0.0
  0
ARC
  5
1EB
330
1F
100
AcDbEntity
  8
LC-001-100-D00-0
 62
     7
370
    50
100
AcDbCircle
 10
-572.343398
 20
123.228276
 30
0.0
 40
5.0
100
AcDbArc
 50
180.0
 51
270.0
  0
ARC
  5
1EC
330
1F
100
AcDbEntity
  8
LC-001-100-D00-0
 62
     7
370
    50
100
AcDbCircle
 10
-572.343398
 20
149.728276
 30
0.0
 40
5.0
100
AcDbArc
 50
90.0
 51
180.0
  0
LINE
  5
1ED
330
1F
100
AcDbEntity
  8
LC-001-100-D00-0
 62
     7
370
    50
100
AcDbLine
 10
-577.343398
 20
123.228276
 30
0.0
 11
-577.343398
 21
149.728276
 31
0.0
  0
ARC
  5
1EE
330
1F
100
AcDbEntity
  8
LC-001-100-D00-0
 62
     7
370
    50
100
AcDbCircle
 10
-25.843398
 20
149.728276
 30
0.0
 40
5.0
100
AcDbArc
 50
0.0
 51
90.0
  0
ARC
  5
1EF
330
1F
100
AcDbEntity
  8
LC-001-100-D00-0
 62
     7
370
    50
100
AcDbCircle
 10
-25.843398
 20
123.228276
 30
0.0
 40
5.0
100
AcDbArc
 50
270.0
 51
0.0
  0
LINE
  5
1F0
330
1F
100
AcDbEntity
  8
LC-001-100-D00-0
 62
     7
370
    50
100
AcDbLine
 10
-20.843398
 20
149.728276
 30
0.0
 11
-20.843398
 21
123.228276
 31
0.0
  0
CIRCLE
  5
1F1
330
1F
100
AcDbEntity
  8
LC-001-100-D00-0
 62
     7
370
    50
100
AcDbCircle
 10
-39.093398
 20
136.478276
 30
0.0
 40
3.900000000000205
  0
LINE
  5
1F2
330
1F
100
AcDbEntity
  8
LC-001-100-D00-0
 62
     7
370
    50
100
AcDbLine
 10
-52.343398
 20
154.728276
 30
0.0
 11
-25.843398
 21
154.728276
 31
0.0
  0
LINE
  5
1F3
330
1F
100
AcDbEntity
  8
LC-001-100-D00-0
 62
     7
370
    50
100
AcDbLine
 10
-25.843398
 20
118.228276
 30
0.0
 11
-52.343398
 21
118.228276
 31
0.0
  0
ARC
  5
1F4
330
1F
100
AcDbEntity
  8
LC-001-100-D00-0
 62
     7
370
    50
100
AcDbCircle
 10
-52.343398
 20
123.228276
 30
0.0
 40
5.0
100
AcDbArc
 50
180.0
 51
270.0
  0
ARC
  5
1F5
330
1F
100
AcDbEntity
  8
LC-001-100-D00-0
 62
     7
370
    50
100
AcDbCircle
 10
-52.343398
 20
149.728276
 30
0.0
 40
5.0
100
AcDbArc
 50
90.0
 51
180.0
  0
LINE
  5
1F6
330
1F
100
AcDbEntity
  8
LC-001-100-D00-0
 62
     7
370
    50
100
AcDbLine
 10
-57.343398
 20
123.228276
 30
0.0
 11
-57.343398
 21
149.728276
 31
0.0
  0
ARC
  5
1F7
330
1F
100
AcDbEntity
  8
LC-001-100-D00-0
 62
     7
370
    50
100
AcDbCircle
 10
-385.843398
 20
149.728276
 30
0.0
 40
5.0
100
AcDbArc
 50
0.0
 51
90.0
  0
LINE
  5
1F8
330
1F
100
AcDbEntity
  8
LC-001-100-D00-0
 62
     7
370
    50
100
AcDbLine
 10
-380.843398
 20
149.728276
 30
0.0
 11
-380.843398
 21
123.228276
 31
0.0
  0
ARC
  5
1F9
330
1F
100
AcDbEntity
  8
LC-001-100-D00-0
 62
     7
370
    50
100
AcDbCircle
 10
-385.843398
 20
123.228276
 30
0.0
 40
5.0
100
AcDbArc
 50
270.0
 51
0.0
  0
CIRCLE
  5
1FA
330
1F
100
AcDbEntity
  8
LC-001-100-D00-0
 62
     7
370
    50
100
AcDbCircle
 10
-399.093398
 20
136.478276
 30
0.0
 40
3.900000000000205
  0
LINE
  5
1FB
330
1F
100
AcDbEntity
  8
LC-001-100-D00-0
 62
     7
370
    50
100
AcDbLine
 10
-385.843398
 20
118.228276
 30
0.0
 11
-412.343398
 21
118.228276
 31
0.0
  0
LINE
  5
1FC
330
1F
100
AcDbEntity
  8
LC-001-100-D00-0
 62
     7
370
    50
100
AcDbLine
 10
-412.343398
 20
154.728276
 30
0.0
 11
-385.843398
 21
154.728276
 31
0.0
  0
ARC
  5
1FD
330
1F
100
AcDbEntity
  8
LC-001-100-D00-0
 62
     7
370
    50
100
AcDbCircle
 10
-412.343398
 20
149.728276
 30
0.0
 40
5.0
100
AcDbArc
 50
90.0
 51
180.0
  0
ARC
  5
1FE
330
1F
100
AcDbEntity
  8
LC-001-100-D00-0
 62
     7
370
    50
100
AcDbCircle
 10
-412.343398
 20
123.228276
 30
0.0
 40
5.0
100
AcDbArc
 50
180.0
 51
270.0
  0
LINE
  5
1FF
330
1F
100
AcDbEntity
  8
LC-001-100-D00-0
 62
     7
370
    50
100
AcDbLine
 10
-417.343398
 20
123.228276
 30
0.0
 11
-417.343398
 21
149.728276
 31
0.0
  0
ARC
  5
200
330
1F
100
AcDbEntity
  8
LC-001-100-D00-0
 62
     7
370
    50
100
AcDbCircle
 10
-225.843398
 20
149.728276
 30
0.0
 40
5.0
100
AcDbArc
 50
0.0
 51
90.0
  0
ARC
  5
201
330
1F
100
AcDbEntity
  8
LC-001-100-D00-0
 62
     7
370
    50
100
AcDbCircle
 10
-225.843398
 20
123.228276
 30
0.0
 40
5.0
100
AcDbArc
 50
270.0
 51
0.0
  0
LINE
  5
202
330
1F
100
AcDbEntity
  8
LC-001-100-D00-0
 62
     7
370
    50
100
AcDbLine
 10
-220.843398
 20
149.728276
 30
0.0
 11
-220.843398
 21
123.228276
 31
0.0
  0
CIRCLE
  5
203
330
1F
100
AcDbEntity
  8
LC-001-100-D00-0
 62
     7
370
    50
100
AcDbCircle
 10
-239.093398
 20
136.478276
 30
0.0
 40
3.900000000000205
  0
LINE
  5
204
330
1F
100
AcDbEntity
  8
LC-001-100-D00-0
 62
     7
370
    50
100
AcDbLine
 10
-252.343398
 20
154.728276
 30
0.0
 11
-225.843398
 21
154.728276
 31
0.0
  0
LINE
  5
205
330
1F
100
AcDbEntity
  8
LC-001-100-D00-0
 62
     7
370
    50
100
AcDbLine
 10
-225.843398
 20
118.228276
 30
0.0
 11
-252.343398
 21
118.228276
 31
0.0
  0
ARC
  5
206
330
1F
100
AcDbEntity
  8
LC-001-100-D00-0
 62
     7
370
    50
100
AcDbCircle
 10
-252.343398
 20
149.728276
 30
0.0
 40
5.0
100
AcDbArc
 50
90.0
 51
180.0
  0
ARC
  5
207
330
1F
100
AcDbEntity
  8
LC-001-100-D00-0
 62
     7
370
    50
100
AcDbCircle
 10
-252.343398
 20
123.228276
 30
0.0
 40
5.0
100
AcDbArc
 50
180.0
 51
270.0
  0
LINE
  5
208
330
1F
100
AcDbEntity
  8
LC-001-100-D00-0
 62
     7
370
    50
100
AcDbLine
 10
-257.343398
 20
123.228276
 30
0.0
 11
-257.343398
 21
149.728276
 31
0.0
  0
LINE
  5
209
330
1F
100
AcDbEntity
  8
LC-001-100-D00-0
 62
     7
370
    50
100
AcDbLine
 10
-169.593398
 20
112.478276
 30
0.0
 11
-108.593398
 21
112.478276
 31
0.0
  0
ARC
  5
20A
330
1F
100
AcDbEntity
  8
LC-001-100-D00-0
 62
     7
370
    50
100
AcDbCircle
 10
-169.593398
 20
136.478276
 30
0.0
 40
24.0
100
AcDbArc
 50
90.0
 51
270.0
  0
LINE
  5
20B
330
1F
100
AcDbEntity
  8
LC-001-100-D00-0
 62
     7
370
    50
100
AcDbLine
 10
-108.593398
 20
160.478276
 30
0.0
 11
-169.593398
 21
160.478276
 31
0.0
  0
ARC
  5
20C
330
1F
100
AcDbEntity
  8
LC-001-100-D00-0
 62
     7
370
    50
100
AcDbCircle
 10
-108.593398
 20
136.478276
 30
0.0
 40
24.00000000000011
100
AcDbArc
 50
270.0
 51
90.0
  0
ARC
  5
20D
330
1F
100
AcDbEntity
  8
LC-001-100-D00-0
 62
     7
370
    50
100
AcDbCircle
 10
-127.593398
 20
136.478276
 30
0.0
 40
16.00000000000023
100
AcDbArc
 50
270.0
 51
90.0
  0
LINE
  5
20E
330
1F
100
AcDbEntity
  8
LC-001-100-D00-0
 62
     7
370
    50
100
AcDbLine
 10
-150.593398
 20
120.478276
 30
0.0
 11
-127.593398
 21
120.478276
 31
0.0
  0
LINE
  5
20F
330
1F
100
AcDbEntity
  8
LC-001-100-D00-0
 62
     7
370
    50
100
AcDbLine
 10
-127.593398
 20
152.478276
 30
0.0
 11
-150.593398
 21
152.478276
 31
0.0
  0
ARC
  5
210
330
1F
100
AcDbEntity
  8
LC-001-100-D00-0
 62
     7
370
    50
100
AcDbCircle
 10
-150.593398
 20
136.478276
 30
0.0
 40
16.00000000000023
100
AcDbArc
 50
90.0
 51
270.0
  0
DIMENSION
  5
211
330
1F
100
AcDbEntity
  8
LC-001-100-D00-0
 62
     7
370
    25
100
AcDbDimension
  2
*D16
 10
449.053824
 20
180.978276
 30
0.0
 11
394.053824
 21
143.868276
 31
0.0
 70
   160
  1
1,5
 71
     5
 42
1.5
 53
90.0
  3
LC-DIM-L-0100-02-02
100
AcDbAlignedDimension
 13
355.906602
 23
182.478276
 33
0.0
 14
355.906602
 24
180.978276
 34
0.0
 50
90.0
100
AcDbRotatedDimension
  0
DIMENSION
  5
21F
330
1F
100
AcDbEntity
  8
LC-001-100-D00-0
 62
     7
370
    25
100
AcDbDimension
  2
*D17
 10
533.268884
 20
162.478276
 30
0.0
 11
478.268884
 21
115.653276
 31
0.0
 70
   160
  1
18,5
 71
     5
 42
18.5
 53
90.0
  3
LC-DIM-L-0100-02-02
100
AcDbAlignedDimension
 13
355.906602
 23
180.978276
 33
0.0
 14
308.406602
 24
162.478276
 34
0.0
 50
90.0
100
AcDbRotatedDimension
  0
DIMENSION
  5
22D
330
1F
100
AcDbEntity
  8
LC-001-100-D00-0
 62
     7
370
    25
100
AcDbDimension
  2
*D18
 10
628.564873
 20
58.978276
 30
0.0
 11
573.564873
 21
118.623276
 31
0.0
 70
   160
  1
123,5
 71
     5
 42
123.5
 53
90.0
  3
LC-DIM-L-0100-02-02
100
AcDbAlignedDimension
 13
355.906602
 23
182.478276
 33
0.0
 14
355.906602
 24
58.978276
 34
0.0
 50
90.0
100
AcDbRotatedDimension
  0
LINE
  5
23A
330
1F
100
AcDbEntity
  8
LC-001-100-D00-0
  6
DASHDOT
 62
     7
370
    25
100
AcDbLine
 10
-139.093398
 20
192.478276
 30
0.0
 11
-139.093398
 21
53.978276
 31
0.0
  0
LINE
  5
23B
330
1F
100
AcDbEntity
  8
LC-001-100-D00-0
  6
DASHDOT
 62
     7
370
    25
100
AcDbLine
 10
318.406602
 20
136.478276
 30
0.0
 11
-596.593398
 21
136.478276
 31
0.0
  0
LINE
  5
23C
330
1F
100
AcDbEntity
  8
LC-001-100-D00-0
 62
     7
370
    50
100
AcDbLine
 10
-25.845602
 20
400.100124
 30
0.0
 11
-25.845602
 21
401.883045
 31
0.0
  0
LINE
  5
23D
330
1F
100
AcDbEntity
  8
LC-001-100-D00-0
 62
     7
370
    50
100
AcDbLine
 10
-25.845602
 20
452.317203
 30
0.0
 11
-25.845602
 21
454.100124
 31
0.0
  0
LINE
  5
23E
330
1F
100
AcDbEntity
  8
LC-001-100-D00-0
 62
     7
370
    50
100
AcDbLine
 10
-29.845602
 20
454.100124
 30
0.0
 11
-29.845602
 21
452.317203
 31
0.0
  0
LINE
  5
23F
330
1F
100
AcDbEntity
  8
LC-001-100-D00-0
 62
     7
370
    50
100
AcDbLine
 10
-29.845602
 20
401.883045
 30
0.0
 11
-29.845602
 21
400.100124
 31
0.0
  0
LINE
  5
240
330
1F
100
AcDbEntity
  8
LC-001-100-D00-0
 62
     7
370
    50
100
AcDbLine
 10
-99.378983
 20
450.600124
 30
0.0
 11
-99.378983
 21
449.100124
 31
0.0
  0
LINE
  5
241
330
1F
100
AcDbEntity
  8
LC-001-100-D00-0
 62
     7
370
    50
100
AcDbLine
 10
-178.807813
 20
449.100124
 30
0.0
 11
-178.807813
 21
450.600124
 31
0.0
  0
LINE
  5
242
330
1F
100
AcDbEntity
  8
LC-001-100-D00-0
 62
     7
370
    50
100
AcDbLine
 10
277.506591
 20
472.600123
 30
0.0
 11
276.506604
 21
473.600124
 31
0.0
  0
LINE
  5
243
330
1F
100
AcDbEntity
  8
LC-001-100-D00-0
 62
     7
370
    50
100
AcDbLine
 10
277.506591
 20
472.600123
 30
0.0
 11
277.506602
 21
466.600124
 31
0.0
  0
LINE
  5
244
330
1F
100
AcDbEntity
  8
LC-001-100-D00-0
 62
     7
370
    50
100
AcDbLine
 10
276.506602
 20
465.600124
 30
0.0
 11
277.506602
 21
466.600124
 31
0.0
  0
LINE
  5
245
330
1F
100
AcDbEntity
  8
LC-001-100-D00-0
 62
     7
370
    50
100
AcDbLine
 10
274.555744
 20
467.600123
 30
0.0
 11
274.555744
 21
465.600124
 31
0.0
  0
LINE
  5
246
330
1F
100
AcDbEntity
  8
LC-001-100-D00-0
 62
     7
370
    50
100
AcDbLine
 10
275.261893
 20
467.789334
 30
0.0
 11
274.555744
 21
467.600123
 31
0.0
  0
ARC
  5
247
330
1F
100
AcDbEntity
  8
LC-001-100-D00-0
 62
     7
370
    50
100
AcDbCircle
 10
275.106602
 20
468.36889
 30
0.0
 40
0.6000000000001474
100
AcDbArc
 50
285.0
 51
0.0
  0
LINE
  5
248
330
1F
100
AcDbEntity
  8
LC-001-100-D00-0
 62
     7
370
    50
100
AcDbLine
 10
275.706602
 20
470.831357
 30
0.0
 11
275.706602
 21
468.36889
 31
0.0
  0
ARC
  5
249
330
1F
100
AcDbEntity
  8
LC-001-100-D00-0
 62
     7
370
    50
100
AcDbCircle
 10
275.106602
 20
470.831357
 30
0.0
 40
0.6000000000003638
100
AcDbArc
 50
0.0
 51
75.0
  0
LINE
  5
24A
330
1F
100
AcDbEntity
  8
LC-001-100-D00-0
 62
     7
370
    50
100
AcDbLine
 10
274.555744
 20
471.600123
 30
0.0
 11
275.261893
 21
471.410913
 31
0.0
  0
LINE
  5
24B
330
1F
100
AcDbEntity
  8
LC-001-100-D00-0
 62
     7
370
    50
100
AcDbLine
 10
274.555744
 20
473.600124
 30
0.0
 11
274.555744
 21
471.600123
 31
0.0
  0
LINE
  5
24C
330
1F
100
AcDbEntity
  8
LC-001-100-D00-0
 62
     7
370
    50
100
AcDbLine
 10
274.555744
 20
465.600124
 30
0.0
 11
276.506602
 21
465.600124
 31
0.0
  0
LINE
  5
24D
330
1F
100
AcDbEntity
  8
LC-001-100-D00-0
 62
     7
370
    50
100
AcDbLine
 10
274.555744
 20
473.600124
 30
0.0
 11
276.506604
 21
473.600124
 31
0.0
  0
LINE
  5
24E
330
1F
100
AcDbEntity
  8
LC-001-100-D00-0
 62
     7
370
    50
100
AcDbLine
 10
286.106602
 20
468.36889
 30
0.0
 11
286.106602
 21
470.831357
 31
0.0
  0
ARC
  5
24F
330
1F
100
AcDbEntity
  8
LC-001-100-D00-0
 62
     7
370
    50
100
AcDbCircle
 10
286.706602
 20
468.36889
 30
0.0
 40
0.5999999999999091
100
AcDbArc
 50
180.0
 51
255.0
  0
LINE
  5
250
330
1F
100
AcDbEntity
  8
LC-001-100-D00-0
 62
     7
370
    50
100
AcDbLine
 10
287.257464
 20
467.600123
 30
0.0
 11
286.55131
 21
467.789334
 31
0.0
  0
LINE
  5
251
330
1F
100
AcDbEntity
  8
LC-001-100-D00-0
 62
     7
370
    50
100
AcDbLine
 10
287.257464
 20
467.600123
 30
0.0
 11
287.257464
 21
465.600124
 31
0.0
  0
LINE
  5
252
330
1F
100
AcDbEntity
  8
LC-001-100-D00-0
 62
     7
370
    50
100
AcDbLine
 10
284.306602
 20
466.600124
 30
0.0
 11
285.306602
 21
465.600124
 31
0.0
  0
LINE
  5
253
330
1F
100
AcDbEntity
  8
LC-001-100-D00-0
 62
     7
370
    50
100
AcDbLine
 10
284.306602
 20
466.600124
 30
0.0
 11
284.306616
 21
472.600123
 31
0.0
  0
LINE
  5
254
330
1F
100
AcDbEntity
  8
LC-001-100-D00-0
 62
     7
370
    50
100
AcDbLine
 10
285.306604
 20
473.600124
 30
0.0
 11
284.306616
 21
472.600123
 31
0.0
  0
LINE
  5
255
330
1F
100
AcDbEntity
  8
LC-001-100-D00-0
 62
     7
370
    50
100
AcDbLine
 10
287.257464
 20
473.600124
 30
0.0
 11
287.257464
 21
471.600123
 31
0.0
  0
LINE
  5
256
330
1F
100
AcDbEntity
  8
LC-001-100-D00-0
 62
     7
370
    50
100
AcDbLine
 10
286.55131
 20
471.410913
 30
0.0
 11
287.257464
 21
471.600123
 31
0.0
  0
ARC
  5
257
330
1F
100
AcDbEntity
  8
LC-001-100-D00-0
 62
     7
370
    50
100
AcDbCircle
 10
286.706602
 20
470.831357
 30
0.0
 40
0.6000000000003082
100
AcDbArc
 50
105.0
 51
180.0
  0
LINE
  5
258
330
1F
100
AcDbEntity
  8
LC-001-100-D00-0
 62
     7
370
    50
100
AcDbLine
 10
285.306602
 20
465.600124
 30
0.0
 11
287.257464
 21
465.600124
 31
0.0
  0
LINE
  5
259
330
1F
100
AcDbEntity
  8
LC-001-100-D00-0
 62
     7
370
    50
100
AcDbLine
 10
285.306604
 20
473.600124
 30
0.0
 11
287.257464
 21
473.600124
 31
0.0
  0
LINE
  5
25A
330
1F
100
AcDbEntity
  8
LC-001-100-D00-0
 62
     7
370
    50
100
AcDbLine
 10
277.506602
 20
466.600124
 30
0.0
 11
277.664441
 21
466.600124
 31
0.0
  0
LINE
  5
25B
330
1F
100
AcDbEntity
  8
LC-001-100-D00-0
 62
     7
370
    50
100
AcDbLine
 10
284.148762
 20
466.600124
 30
0.0
 11
284.306602
 21
466.600124
 31
0.0
  0
LINE
  5
25C
330
1F
100
AcDbEntity
  8
LC-001-100-D00-0
 62
     7
370
    50
100
AcDbLine
 10
285.306602
 20
465.600124
 30
0.0
 11
284.77082
 21
465.600124
 31
0.0
  0
LINE
  5
25D
330
1F
100
AcDbEntity
  8
LC-001-100-D00-0
 62
     7
370
    50
100
AcDbLine
 10
277.042384
 20
465.600124
 30
0.0
 11
276.506602
 21
465.600124
 31
0.0
  0
LINE
  5
25E
330
1F
100
AcDbEntity
  8
LC-001-100-D00-0
 62
     7
370
    50
100
AcDbLine
 10
287.257464
 20
473.600124
 30
0.0
 11
284.80661
 21
473.600124
 31
0.0
  0
LINE
  5
25F
330
1F
100
AcDbEntity
  8
LC-001-100-D00-0
 62
     7
370
    50
100
AcDbLine
 10
284.80661
 20
473.600124
 30
0.0
 11
284.806602
 21
484.600124
 31
0.0
  0
LINE
  5
260
330
1F
100
AcDbEntity
  8
LC-001-100-D00-0
 62
     7
370
    50
100
AcDbLine
 10
284.806602
 20
484.600124
 30
0.0
 11
298.156602
 21
484.600124
 31
0.0
  0
ARC
  5
261
330
1F
100
AcDbEntity
  8
LC-001-100-D00-0
 62
     7
370
    50
100
AcDbCircle
 10
298.156602
 20
483.600124
 30
0.0
 40
1.0
100
AcDbArc
 50
0.0
 51
90.0
  0
LINE
  5
262
330
1F
100
AcDbEntity
  8
LC-001-100-D00-0
 62
     7
370
    50
100
AcDbLine
 10
299.156602
 20
483.600124
 30
0.0
 11
299.156607
 21
477.600123
 31
0.0
  0
LINE
  5
263
330
1F
100
AcDbEntity
  8
LC-001-100-D00-0
 62
     7
370
    50
100
AcDbLine
 10
296.156602
 20
477.600124
 30
0.0
 11
299.156607
 21
477.600123
 31
0.0
  0
LINE
  5
264
330
1F
100
AcDbEntity
  8
LC-001-100-D00-0
 62
     7
370
    50
100
AcDbLine
 10
296.156602
 20
477.600124
 30
0.0
 11
296.156616
 21
481.600124
 31
0.0
  0
LINE
  5
265
330
1F
100
AcDbEntity
  8
LC-001-100-D00-0
 62
     7
370
    50
100
AcDbLine
 10
291.656602
 20
481.600124
 30
0.0
 11
296.156616
 21
481.600124
 31
0.0
  0
ARC
  5
266
330
1F
100
AcDbEntity
  8
LC-001-100-D00-0
 62
     7
370
    50
100
AcDbCircle
 10
291.656602
 20
480.600124
 30
0.0
 40
1.0
100
AcDbArc
 50
90.0
 51
180.0
  0
LINE
  5
267
330
1F
100
AcDbEntity
  8
LC-001-100-D00-0
 62
     7
370
    50
100
AcDbLine
 10
290.656602
 20
466.600124
 30
0.0
 11
290.656602
 21
480.600124
 31
0.0
  0
ARC
  5
268
330
1F
100
AcDbEntity
  8
LC-001-100-D00-0
 62
     7
370
    50
100
AcDbCircle
 10
289.656602
 20
466.600124
 30
0.0
 40
1.000000000000227
100
AcDbArc
 50
270.0
 51
0.0
  0
LINE
  5
269
330
1F
100
AcDbEntity
  8
LC-001-100-D00-0
 62
     7
370
    50
100
AcDbLine
 10
289.656602
 20
465.600124
 30
0.0
 11
287.257464
 21
465.600124
 31
0.0
  0
LINE
  5
26A
330
1F
100
AcDbEntity
  8
LC-001-100-D00-0
 62
     7
370
    50
100
AcDbLine
 10
287.257464
 20
467.600123
 30
0.0
 11
287.257464
 21
465.600124
 31
0.0
  0
LINE
  5
26B
330
1F
100
AcDbEntity
  8
LC-001-100-D00-0
 62
     7
370
    50
100
AcDbLine
 10
286.606602
 20
467.600124
 30
0.0
 11
287.257464
 21
467.600123
 31
0.0
  0
ARC
  5
26C
330
1F
100
AcDbEntity
  8
LC-001-100-D00-0
 62
     7
370
    50
100
AcDbCircle
 10
286.606602
 20
468.100124
 30
0.0
 40
0.5
100
AcDbArc
 50
180.0
 51
270.0
  0
LINE
  5
26D
330
1F
100
AcDbEntity
  8
LC-001-100-D00-0
 62
     7
370
    50
100
AcDbLine
 10
286.106602
 20
471.100124
 30
0.0
 11
286.106602
 21
468.100124
 31
0.0
  0
ARC
  5
26E
330
1F
100
AcDbEntity
  8
LC-001-100-D00-0
 62
     7
370
    50
100
AcDbCircle
 10
286.606602
 20
471.100124
 30
0.0
 40
0.5000000000002274
100
AcDbArc
 50
90.0
 51
180.0
  0
LINE
  5
26F
330
1F
100
AcDbEntity
  8
LC-001-100-D00-0
 62
     7
370
    50
100
AcDbLine
 10
287.257464
 20
471.600123
 30
0.0
 11
286.606602
 21
471.600124
 31
0.0
  0
LINE
  5
270
330
1F
100
AcDbEntity
  8
LC-001-100-D00-0
 62
     7
370
    50
100
AcDbLine
 10
287.257464
 20
473.600124
 30
0.0
 11
287.257464
 21
471.600123
 31
0.0
  0
ARC
  5
271
330
1F
100
AcDbEntity
  8
LC-001-100-D00-0
 62
     7
370
    50
100
AcDbCircle
 10
270.156602
 20
480.600124
 30
0.0
 40
1.0
100
AcDbArc
 50
0.0
 51
90.0
  0
ARC
  5
272
330
1F
100
AcDbEntity
  8
LC-001-100-D00-0
 62
     7
370
    50
100
AcDbCircle
 10
272.156602
 20
466.600124
 30
0.0
 40
1.000000000000227
100
AcDbArc
 50
180.0
 51
270.0
  0
LINE
  5
273
330
1F
100
AcDbEntity
  8
LC-001-100-D00-0
 62
     7
370
    50
100
AcDbLine
 10
271.156602
 20
480.600124
 30
0.0
 11
271.156602
 21
466.600124
 31
0.0
  0
LINE
  5
274
330
1F
100
AcDbEntity
  8
LC-001-100-D00-0
 62
     7
370
    50
100
AcDbLine
 10
275.706602
 20
468.100124
 30
0.0
 11
275.706602
 21
471.100124
 31
0.0
  0
LINE
  5
275
330
1F
100
AcDbEntity
  8
LC-001-100-D00-0
 62
     7
370
    50
100
AcDbLine
 10
277.006602
 20
484.600124
 30
0.0
 11
277.006597
 21
473.600124
 31
0.0
  0
LINE
  5
276
330
1F
100
AcDbEntity
  8
LC-001-100-D00-0
 62
     7
370
    50
100
AcDbLine
 10
277.006602
 20
484.600124
 30
0.0
 11
284.806602
 21
484.600124
 31
0.0
  0
LINE
  5
277
330
1F
100
AcDbEntity
  8
LC-001-100-D00-0
 62
     7
370
    50
100
AcDbLine
 10
274.555744
 20
467.600123
 30
0.0
 11
274.555744
 21
465.600124
 31
0.0
  0
LINE
  5
278
330
1F
100
AcDbEntity
  8
LC-001-100-D00-0
 62
     7
370
    50
100
AcDbLine
 10
274.555744
 20
473.600124
 30
0.0
 11
274.555744
 21
471.600123
 31
0.0
  0
ARC
  5
279
330
1F
100
AcDbEntity
  8
LC-001-100-D00-0
 62
     7
370
    50
100
AcDbCircle
 10
275.206602
 20
468.100124
 30
0.0
 40
0.5
100
AcDbArc
 50
270.0
 51
0.0
  0
LINE
  5
27A
330
1F
100
AcDbEntity
  8
LC-001-100-D00-0
 62
     7
370
    50
100
AcDbLine
 10
274.555744
 20
467.600123
 30
0.0
 11
275.206602
 21
467.600124
 31
0.0
  0
LINE
  5
27B
330
1F
100
AcDbEntity
  8
LC-001-100-D00-0
 62
     7
370
    50
100
AcDbLine
 10
265.656591
 20
481.600124
 30
0.0
 11
265.656602
 21
477.600124
 31
0.0
  0
LINE
  5
27C
330
1F
100
AcDbEntity
  8
LC-001-100-D00-0
 62
     7
370
    50
100
AcDbLine
 10
262.6566
 20
477.600123
 30
0.0
 11
262.656602
 21
483.600124
 31
0.0
  0
ARC
  5
27D
330
1F
100
AcDbEntity
  8
LC-001-100-D00-0
 62
     7
370
    50
100
AcDbCircle
 10
263.656602
 20
483.600124
 30
0.0
 40
0.9999999999997726
100
AcDbArc
 50
90.0
 51
180.0
  0
LINE
  5
27E
330
1F
100
AcDbEntity
  8
LC-001-100-D00-0
 62
     7
370
    50
100
AcDbLine
 10
275.206602
 20
471.600124
 30
0.0
 11
274.555744
 21
471.600123
 31
0.0
  0
ARC
  5
27F
330
1F
100
AcDbEntity
  8
LC-001-100-D00-0
 62
     7
370
    50
100
AcDbCircle
 10
275.206602
 20
471.100124
 30
0.0
 40
0.5000000000004548
100
AcDbArc
 50
0.0
 51
90.0
  0
LINE
  5
280
330
1F
100
AcDbEntity
  8
LC-001-100-D00-0
 62
     7
370
    50
100
AcDbLine
 10
277.006597
 20
473.600124
 30
0.0
 11
274.555744
 21
473.600124
 31
0.0
  0
LINE
  5
281
330
1F
100
AcDbEntity
  8
LC-001-100-D00-0
 62
     7
370
    50
100
AcDbLine
 10
262.6566
 20
477.600123
 30
0.0
 11
265.656602
 21
477.600124
 31
0.0
  0
LINE
  5
282
330
1F
100
AcDbEntity
  8
LC-001-100-D00-0
 62
     7
370
    50
100
AcDbLine
 10
274.555744
 20
465.600124
 30
0.0
 11
272.156602
 21
465.600124
 31
0.0
  0
LINE
  5
283
330
1F
100
AcDbEntity
  8
LC-001-100-D00-0
 62
     7
370
    50
100
AcDbLine
 10
265.656591
 20
481.600124
 30
0.0
 11
270.156602
 21
481.600124
 31
0.0
  0
LINE
  5
284
330
1F
100
AcDbEntity
  8
LC-001-100-D00-0
 62
     7
370
    50
100
AcDbLine
 10
263.656602
 20
484.600124
 30
0.0
 11
277.006602
 21
484.600124
 31
0.0
  0
LINE
  5
285
330
1F
100
AcDbEntity
  8
LC-001-100-D00-0
 62
     7
370
    50
100
AcDbLine
 10
294.156602
 20
477.600124
 30
0.0
 11
296.156602
 21
477.600124
 31
0.0
  0
LINE
  5
286
330
1F
100
AcDbEntity
  8
LC-001-100-D00-0
 62
     7
370
    50
100
AcDbLine
 10
265.656602
 20
477.600124
 30
0.0
 11
267.656602
 21
477.600124
 31
0.0
  0
LINE
  5
287
330
1F
100
AcDbEntity
  8
LC-001-100-D00-0
 62
     7
370
    50
100
AcDbLine
 10
267.656602
 20
477.600124
 30
0.0
 11
271.15661
 21
477.600123
 31
0.0
  0
LINE
  5
288
330
1F
100
AcDbEntity
  8
LC-001-100-D00-0
 62
     7
370
    50
100
AcDbLine
 10
290.656597
 20
477.600123
 30
0.0
 11
294.156602
 21
477.600124
 31
0.0
  0
LINE
  5
289
330
1F
100
AcDbEntity
  8
LC-001-100-D00-0
 62
     7
370
    50
100
AcDbLine
 10
-562.493413
 20
472.600123
 30
0.0
 11
-563.4934
 21
473.600124
 31
0.0
  0
LINE
  5
28A
330
1F
100
AcDbEntity
  8
LC-001-100-D00-0
 62
     7
370
    50
100
AcDbLine
 10
-562.493413
 20
472.600123
 30
0.0
 11
-562.493398
 21
466.600124
 31
0.0
  0
LINE
  5
28B
330
1F
100
AcDbEntity
  8
LC-001-100-D00-0
 62
     7
370
    50
100
AcDbLine
 10
-563.493398
 20
465.600124
 30
0.0
 11
-562.493398
 21
466.600124
 31
0.0
  0
LINE
  5
28C
330
1F
100
AcDbEntity
  8
LC-001-100-D00-0
 62
     7
370
    50
100
AcDbLine
 10
-565.44426
 20
467.600123
 30
0.0
 11
-565.44426
 21
465.600124
 31
0.0
  0
LINE
  5
28D
330
1F
100
AcDbEntity
  8
LC-001-100-D00-0
 62
     7
370
    50
100
AcDbLine
 10
-564.738107
 20
467.789334
 30
0.0
 11
-565.44426
 21
467.600123
 31
0.0
  0
ARC
  5
28E
330
1F
100
AcDbEntity
  8
LC-001-100-D00-0
 62
     7
370
    50
100
AcDbCircle
 10
-564.893398
 20
468.36889
 30
0.0
 40
0.600000000000118
100
AcDbArc
 50
285.0
 51
0.0
  0
LINE
  5
28F
330
1F
100
AcDbEntity
  8
LC-001-100-D00-0
 62
     7
370
    50
100
AcDbLine
 10
-564.293398
 20
470.831357
 30
0.0
 11
-564.293398
 21
468.36889
 31
0.0
  0
ARC
  5
290
330
1F
100
AcDbEntity
  8
LC-001-100-D00-0
 62
     7
370
    50
100
AcDbCircle
 10
-564.893398
 20
470.831357
 30
0.0
 40
0.6000000000002501
100
AcDbArc
 50
0.0
 51
75.0
  0
LINE
  5
291
330
1F
100
AcDbEntity
  8
LC-001-100-D00-0
 62
     7
370
    50
100
AcDbLine
 10
-565.44426
 20
471.600123
 30
0.0
 11
-564.738107
 21
471.410913
 31
0.0
  0
LINE
  5
292
330
1F
100
AcDbEntity
  8
LC-001-100-D00-0
 62
     7
370
    50
100
AcDbLine
 10
-565.44426
 20
473.600124
 30
0.0
 11
-565.44426
 21
471.600123
 31
0.0
  0
LINE
  5
293
330
1F
100
AcDbEntity
  8
LC-001-100-D00-0
 62
     7
370
    50
100
AcDbLine
 10
-565.44426
 20
465.600124
 30
0.0
 11
-563.493398
 21
465.600124
 31
0.0
  0
LINE
  5
294
330
1F
100
AcDbEntity
  8
LC-001-100-D00-0
 62
     7
370
    50
100
AcDbLine
 10
-565.44426
 20
473.600124
 30
0.0
 11
-563.4934
 21
473.600124
 31
0.0
  0
LINE
  5
295
330
1F
100
AcDbEntity
  8
LC-001-100-D00-0
 62
     7
370
    50
100
AcDbLine
 10
-553.893398
 20
468.36889
 30
0.0
 11
-553.893398
 21
470.831357
 31
0.0
  0
ARC
  5
296
330
1F
100
AcDbEntity
  8
LC-001-100-D00-0
 62
     7
370
    50
100
AcDbCircle
 10
-553.293398
 20
468.36889
 30
0.0
 40
0.6000000000001364
100
AcDbArc
 50
180.0
 51
255.0
  0
LINE
  5
297
330
1F
100
AcDbEntity
  8
LC-001-100-D00-0
 62
     7
370
    50
100
AcDbLine
 10
-552.74254
 20
467.600123
 30
0.0
 11
-553.44869
 21
467.789334
 31
0.0
  0
LINE
  5
298
330
1F
100
AcDbEntity
  8
LC-001-100-D00-0
 62
     7
370
    50
100
AcDbLine
 10
-552.74254
 20
467.600123
 30
0.0
 11
-552.74254
 21
465.600124
 31
0.0
  0
LINE
  5
299
330
1F
100
AcDbEntity
  8
LC-001-100-D00-0
 62
     7
370
    50
100
AcDbLine
 10
-555.693398
 20
466.600124
 30
0.0
 11
-554.693398
 21
465.600124
 31
0.0
  0
LINE
  5
29A
330
1F
100
AcDbEntity
  8
LC-001-100-D00-0
 62
     7
370
    50
100
AcDbLine
 10
-555.693398
 20
466.600124
 30
0.0
 11
-555.693387
 21
472.600123
 31
0.0
  0
LINE
  5
29B
330
1F
100
AcDbEntity
  8
LC-001-100-D00-0
 62
     7
370
    50
100
AcDbLine
 10
-554.6934
 20
473.600124
 30
0.0
 11
-555.693387
 21
472.600123
 31
0.0
  0
LINE
  5
29C
330
1F
100
AcDbEntity
  8
LC-001-100-D00-0
 62
     7
370
    50
100
AcDbLine
 10
-552.74254
 20
473.600124
 30
0.0
 11
-552.74254
 21
471.600123
 31
0.0
  0
LINE
  5
29D
330
1F
100
AcDbEntity
  8
LC-001-100-D00-0
 62
     7
370
    50
100
AcDbLine
 10
-553.44869
 20
471.410913
 30
0.0
 11
-552.74254
 21
471.600123
 31
0.0
  0
ARC
  5
29E
330
1F
100
AcDbEntity
  8
LC-001-100-D00-0
 62
     7
370
    50
100
AcDbCircle
 10
-553.293398
 20
470.831357
 30
0.0
 40
0.600000000000367
100
AcDbArc
 50
105.0
 51
180.0
  0
LINE
  5
29F
330
1F
100
AcDbEntity
  8
LC-001-100-D00-0
 62
     7
370
    50
100
AcDbLine
 10
-554.693398
 20
465.600124
 30
0.0
 11
-552.74254
 21
465.600124
 31
0.0
  0
LINE
  5
2A0
330
1F
100
AcDbEntity
  8
LC-001-100-D00-0
 62
     7
370
    50
100
AcDbLine
 10
-554.6934
 20
473.600124
 30
0.0
 11
-552.74254
 21
473.600124
 31
0.0
  0
LINE
  5
2A1
330
1F
100
AcDbEntity
  8
LC-001-100-D00-0
 62
     7
370
    50
100
AcDbLine
 10
-562.493398
 20
466.600124
 30
0.0
 11
-562.335559
 21
466.600124
 31
0.0
  0
LINE
  5
2A2
330
1F
100
AcDbEntity
  8
LC-001-100-D00-0
 62
     7
370
    50
100
AcDbLine
 10
-555.851238
 20
466.600124
 30
0.0
 11
-555.693398
 21
466.600124
 31
0.0
  0
LINE
  5
2A3
330
1F
100
AcDbEntity
  8
LC-001-100-D00-0
 62
     7
370
    50
100
AcDbLine
 10
-554.693398
 20
465.600124
 30
0.0
 11
-555.22918
 21
465.600124
 31
0.0
  0
LINE
  5
2A4
330
1F
100
AcDbEntity
  8
LC-001-100-D00-0
 62
     7
370
    50
100
AcDbLine
 10
-562.957616
 20
465.600124
 30
0.0
 11
-563.493398
 21
465.600124
 31
0.0
  0
LINE
  5
2A5
330
1F
100
AcDbEntity
  8
LC-001-100-D00-0
 62
     7
370
    50
100
AcDbLine
 10
-552.74254
 20
473.600124
 30
0.0
 11
-555.193394
 21
473.600124
 31
0.0
  0
LINE
  5
2A6
330
1F
100
AcDbEntity
  8
LC-001-100-D00-0
 62
     7
370
    50
100
AcDbLine
 10
-555.193394
 20
473.600124
 30
0.0
 11
-555.193398
 21
484.600124
 31
0.0
  0
LINE
  5
2A7
330
1F
100
AcDbEntity
  8
LC-001-100-D00-0
 62
     7
370
    50
100
AcDbLine
 10
-555.193398
 20
484.600124
 30
0.0
 11
-541.843398
 21
484.600124
 31
0.0
  0
ARC
  5
2A8
330
1F
100
AcDbEntity
  8
LC-001-100-D00-0
 62
     7
370
    50
100
AcDbCircle
 10
-541.843398
 20
483.600124
 30
0.0
 40
0.9999999999998863
100
AcDbArc
 50
0.0
 51
90.0
  0
LINE
  5
2A9
330
1F
100
AcDbEntity
  8
LC-001-100-D00-0
 62
     7
370
    50
100
AcDbLine
 10
-540.843398
 20
483.600124
 30
0.0
 11
-540.843396
 21
477.600123
 31
0.0
  0
LINE
  5
2AA
330
1F
100
AcDbEntity
  8
LC-001-100-D00-0
 62
     7
370
    50
100
AcDbLine
 10
-543.843398
 20
477.600124
 30
0.0
 11
-540.843396
 21
477.600123
 31
0.0
  0
LINE
  5
2AB
330
1F
100
AcDbEntity
  8
LC-001-100-D00-0
 62
     7
370
    50
100
AcDbLine
 10
-543.843398
 20
477.600124
 30
0.0
 11
-543.843388
 21
481.600124
 31
0.0
  0
LINE
  5
2AC
330
1F
100
AcDbEntity
  8
LC-001-100-D00-0
 62
     7
370
    50
100
AcDbLine
 10
-548.343398
 20
481.600124
 30
0.0
 11
-543.843388
 21
481.600124
 31
0.0
  0
ARC
  5
2AD
330
1F
100
AcDbEntity
  8
LC-001-100-D00-0
 62
     7
370
    50
100
AcDbCircle
 10
-548.343398
 20
480.600124
 30
0.0
 40
1.000000000000227
100
AcDbArc
 50
90.0
 51
180.0
  0
LINE
  5
2AE
330
1F
100
AcDbEntity
  8
LC-001-100-D00-0
 62
     7
370
    50
100
AcDbLine
 10
-549.343398
 20
466.600124
 30
0.0
 11
-549.343398
 21
480.600124
 31
0.0
  0
ARC
  5
2AF
330
1F
100
AcDbEntity
  8
LC-001-100-D00-0
 62
     7
370
    50
100
AcDbCircle
 10
-550.343398
 20
466.600124
 30
0.0
 40
1.000000000000227
100
AcDbArc
 50
270.0
 51
0.0
  0
LINE
  5
2B0
330
1F
100
AcDbEntity
  8
LC-001-100-D00-0
 62
     7
370
    50
100
AcDbLine
 10
-550.343398
 20
465.600124
 30
0.0
 11
-552.74254
 21
465.600124
 31
0.0
  0
LINE
  5
2B1
330
1F
100
AcDbEntity
  8
LC-001-100-D00-0
 62
     7
370
    50
100
AcDbLine
 10
-552.74254
 20
467.600123
 30
0.0
 11
-552.74254
 21
465.600124
 31
0.0
  0
LINE
  5
2B2
330
1F
100
AcDbEntity
  8
LC-001-100-D00-0
 62
     7
370
    50
100
AcDbLine
 10
-553.393398
 20
467.600124
 30
0.0
 11
-552.74254
 21
467.600123
 31
0.0
  0
ARC
  5
2B3
330
1F
100
AcDbEntity
  8
LC-001-100-D00-0
 62
     7
370
    50
100
AcDbCircle
 10
-553.393398
 20
468.100124
 30
0.0
 40
0.5
100
AcDbArc
 50
180.0
 51
270.0
  0
LINE
  5
2B4
330
1F
100
AcDbEntity
  8
LC-001-100-D00-0
 62
     7
370
    50
100
AcDbLine
 10
-553.893398
 20
471.100124
 30
0.0
 11
-553.893398
 21
468.100124
 31
0.0
  0
ARC
  5
2B5
330
1F
100
AcDbEntity
  8
LC-001-100-D00-0
 62
     7
370
    50
100
AcDbCircle
 10
-553.393398
 20
471.100124
 30
0.0
 40
0.5
100
AcDbArc
 50
90.0
 51
180.0
  0
LINE
  5
2B6
330
1F
100
AcDbEntity
  8
LC-001-100-D00-0
 62
     7
370
    50
100
AcDbLine
 10
-552.74254
 20
471.600123
 30
0.0
 11
-553.393398
 21
471.600124
 31
0.0
  0
LINE
  5
2B7
330
1F
100
AcDbEntity
  8
LC-001-100-D00-0
 62
     7
370
    50
100
AcDbLine
 10
-552.74254
 20
473.600124
 30
0.0
 11
-552.74254
 21
471.600123
 31
0.0
  0
ARC
  5
2B8
330
1F
100
AcDbEntity
  8
LC-001-100-D00-0
 62
     7
370
    50
100
AcDbCircle
 10
-569.843398
 20
480.600124
 30
0.0
 40
1.000000000000227
100
AcDbArc
 50
0.0
 51
90.0
  0
ARC
  5
2B9
330
1F
100
AcDbEntity
  8
LC-001-100-D00-0
 62
     7
370
    50
100
AcDbCircle
 10
-567.843398
 20
466.600124
 30
0.0
 40
1.000000000000227
100
AcDbArc
 50
180.0
 51
270.0
  0
LINE
  5
2BA
330
1F
100
AcDbEntity
  8
LC-001-100-D00-0
 62
     7
370
    50
100
AcDbLine
 10
-568.843398
 20
480.600124
 30
0.0
 11
-568.843398
 21
466.600124
 31
0.0
  0
LINE
  5
2BB
330
1F
100
AcDbEntity
  8
LC-001-100-D00-0
 62
     7
370
    50
100
AcDbLine
 10
-564.293398
 20
468.100124
 30
0.0
 11
-564.293398
 21
471.100124
 31
0.0
  0
LINE
  5
2BC
330
1F
100
AcDbEntity
  8
LC-001-100-D00-0
 62
     7
370
    50
100
AcDbLine
 10
-562.993398
 20
484.600124
 30
0.0
 11
-562.993406
 21
473.600124
 31
0.0
  0
LINE
  5
2BD
330
1F
100
AcDbEntity
  8
LC-001-100-D00-0
 62
     7
370
    50
100
AcDbLine
 10
-562.993398
 20
484.600124
 30
0.0
 11
-555.193398
 21
484.600124
 31
0.0
  0
LINE
  5
2BE
330
1F
100
AcDbEntity
  8
LC-001-100-D00-0
 62
     7
370
    50
100
AcDbLine
 10
-565.44426
 20
467.600123
 30
0.0
 11
-565.44426
 21
465.600124
 31
0.0
  0
LINE
  5
2BF
330
1F
100
AcDbEntity
  8
LC-001-100-D00-0
 62
     7
370
    50
100
AcDbLine
 10
-565.44426
 20
473.600124
 30
0.0
 11
-565.44426
 21
471.600123
 31
0.0
  0
ARC
  5
2C0
330
1F
100
AcDbEntity
  8
LC-001-100-D00-0
 62
     7
370
    50
100
AcDbCircle
 10
-564.793398
 20
468.100124
 30
0.0
 40
0.5
100
AcDbArc
 50
270.0
 51
0.0
  0
LINE
  5
2C1
330
1F
100
AcDbEntity
  8
LC-001-100-D00-0
 62
     7
370
    50
100
AcDbLine
 10
-565.44426
 20
467.600123
 30
0.0
 11
-564.793398
 21
467.600124
 31
0.0
  0
LINE
  5
2C2
330
1F
100
AcDbEntity
  8
LC-001-100-D00-0
 62
     7
370
    50
100
AcDbLine
 10
-574.343412
 20
481.600124
 30
0.0
 11
-574.343398
 21
477.600124
 31
0.0
  0
LINE
  5
2C3
330
1F
100
AcDbEntity
  8
LC-001-100-D00-0
 62
     7
370
    50
100
AcDbLine
 10
-577.343403
 20
477.600123
 30
0.0
 11
-577.343398
 21
483.600124
 31
0.0
  0
ARC
  5
2C4
330
1F
100
AcDbEntity
  8
LC-001-100-D00-0
 62
     7
370
    50
100
AcDbCircle
 10
-576.343398
 20
483.600124
 30
0.0
 40
0.9999999999997726
100
AcDbArc
 50
90.0
 51
180.0
  0
LINE
  5
2C5
330
1F
100
AcDbEntity
  8
LC-001-100-D00-0
 62
     7
370
    50
100
AcDbLine
 10
-564.793398
 20
471.600124
 30
0.0
 11
-565.44426
 21
471.600123
 31
0.0
  0
ARC
  5
2C6
330
1F
100
AcDbEntity
  8
LC-001-100-D00-0
 62
     7
370
    50
100
AcDbCircle
 10
-564.793398
 20
471.100124
 30
0.0
 40
0.5
100
AcDbArc
 50
0.0
 51
90.0
  0
LINE
  5
2C7
330
1F
100
AcDbEntity
  8
LC-001-100-D00-0
 62
     7
370
    50
100
AcDbLine
 10
-562.993406
 20
473.600124
 30
0.0
 11
-565.44426
 21
473.600124
 31
0.0
  0
LINE
  5
2C8
330
1F
100
AcDbEntity
  8
LC-001-100-D00-0
 62
     7
370
    50
100
AcDbLine
 10
-577.343403
 20
477.600123
 30
0.0
 11
-574.343398
 21
477.600124
 31
0.0
  0
LINE
  5
2C9
330
1F
100
AcDbEntity
  8
LC-001-100-D00-0
 62
     7
370
    50
100
AcDbLine
 10
-565.44426
 20
465.600124
 30
0.0
 11
-567.843398
 21
465.600124
 31
0.0
  0
LINE
  5
2CA
330
1F
100
AcDbEntity
  8
LC-001-100-D00-0
 62
     7
370
    50
100
AcDbLine
 10
-574.343412
 20
481.600124
 30
0.0
 11
-569.843398
 21
481.600124
 31
0.0
  0
LINE
  5
2CB
330
1F
100
AcDbEntity
  8
LC-001-100-D00-0
 62
     7
370
    50
100
AcDbLine
 10
-576.343398
 20
484.600124
 30
0.0
 11
-562.993398
 21
484.600124
 31
0.0
  0
LINE
  5
2CC
330
1F
100
AcDbEntity
  8
LC-001-100-D00-0
 62
     7
370
    50
100
AcDbLine
 10
-545.843398
 20
477.600124
 30
0.0
 11
-543.843398
 21
477.600124
 31
0.0
  0
LINE
  5
2CD
330
1F
100
AcDbEntity
  8
LC-001-100-D00-0
 62
     7
370
    50
100
AcDbLine
 10
-574.343398
 20
477.600124
 30
0.0
 11
-572.343398
 21
477.600124
 31
0.0
  0
LINE
  5
2CE
330
1F
100
AcDbEntity
  8
LC-001-100-D00-0
 62
     7
370
    50
100
AcDbLine
 10
-572.343398
 20
477.600124
 30
0.0
 11
-568.843394
 21
477.600123
 31
0.0
  0
LINE
  5
2CF
330
1F
100
AcDbEntity
  8
LC-001-100-D00-0
 62
     7
370
    50
100
AcDbLine
 10
-549.343406
 20
477.600123
 30
0.0
 11
-545.843398
 21
477.600124
 31
0.0
  0
LINE
  5
2D0
330
1F
100
AcDbEntity
  8
LC-001-100-D00-0
 62
     7
370
    50
100
AcDbLine
 10
-42.493395
 20
472.600123
 30
0.0
 11
-43.493397
 21
473.600124
 31
0.0
  0
LINE
  5
2D1
330
1F
100
AcDbEntity
  8
LC-001-100-D00-0
 62
     7
370
    50
100
AcDbLine
 10
-42.493395
 20
472.600123
 30
0.0
 11
-42.493398
 21
466.600124
 31
0.0
  0
LINE
  5
2D2
330
1F
100
AcDbEntity
  8
LC-001-100-D00-0
 62
     7
370
    50
100
AcDbLine
 10
-43.493398
 20
465.600124
 30
0.0
 11
-42.493398
 21
466.600124
 31
0.0
  0
LINE
  5
2D3
330
1F
100
AcDbEntity
  8
LC-001-100-D00-0
 62
     7
370
    50
100
AcDbLine
 10
-45.444249
 20
467.600123
 30
0.0
 11
-45.444249
 21
465.600124
 31
0.0
  0
LINE
  5
2D4
330
1F
100
AcDbEntity
  8
LC-001-100-D00-0
 62
     7
370
    50
100
AcDbLine
 10
-44.738107
 20
467.789334
 30
0.0
 11
-45.444249
 21
467.600123
 31
0.0
  0
ARC
  5
2D5
330
1F
100
AcDbEntity
  8
LC-001-100-D00-0
 62
     7
370
    50
100
AcDbCircle
 10
-44.893398
 20
468.36889
 30
0.0
 40
0.600000000000118
100
AcDbArc
 50
285.0
 51
0.0
  0
LINE
  5
2D6
330
1F
100
AcDbEntity
  8
LC-001-100-D00-0
 62
     7
370
    50
100
AcDbLine
 10
-44.293398
 20
470.831357
 30
0.0
 11
-44.293398
 21
468.36889
 31
0.0
  0
ARC
  5
2D7
330
1F
100
AcDbEntity
  8
LC-001-100-D00-0
 62
     7
370
    50
100
AcDbCircle
 10
-44.893398
 20
470.831357
 30
0.0
 40
0.6000000000003638
100
AcDbArc
 50
0.0
 51
75.0
  0
LINE
  5
2D8
330
1F
100
AcDbEntity
  8
LC-001-100-D00-0
 62
     7
370
    50
100
AcDbLine
 10
-45.444249
 20
471.600123
 30
0.0
 11
-44.738107
 21
471.410913
 31
0.0
  0
LINE
  5
2D9
330
1F
100
AcDbEntity
  8
LC-001-100-D00-0
 62
     7
370
    50
100
AcDbLine
 10
-45.444249
 20
473.600124
 30
0.0
 11
-45.444249
 21
471.600123
 31
0.0
  0
LINE
  5
2DA
330
1F
100
AcDbEntity
  8
LC-001-100-D00-0
 62
     7
370
    50
100
AcDbLine
 10
-45.444249
 20
465.600124
 30
0.0
 11
-43.493398
 21
465.600124
 31
0.0
  0
LINE
  5
2DB
330
1F
100
AcDbEntity
  8
LC-001-100-D00-0
 62
     7
370
    50
100
AcDbLine
 10
-45.444249
 20
473.600124
 30
0.0
 11
-43.493397
 21
473.600124
 31
0.0
  0
LINE
  5
2DC
330
1F
100
AcDbEntity
  8
LC-001-100-D00-0
 62
     7
370
    50
100
AcDbLine
 10
-33.893398
 20
468.36889
 30
0.0
 11
-33.893398
 21
470.831357
 31
0.0
  0
ARC
  5
2DD
330
1F
100
AcDbEntity
  8
LC-001-100-D00-0
 62
     7
370
    50
100
AcDbCircle
 10
-33.293398
 20
468.36889
 30
0.0
 40
0.5999999999999091
100
AcDbArc
 50
180.0
 51
255.0
  0
LINE
  5
2DE
330
1F
100
AcDbEntity
  8
LC-001-100-D00-0
 62
     7
370
    50
100
AcDbLine
 10
-32.742544
 20
467.600123
 30
0.0
 11
-33.44869
 21
467.789334
 31
0.0
  0
LINE
  5
2DF
330
1F
100
AcDbEntity
  8
LC-001-100-D00-0
 62
     7
370
    50
100
AcDbLine
 10
-32.742544
 20
467.600123
 30
0.0
 11
-32.742544
 21
465.600124
 31
0.0
  0
LINE
  5
2E0
330
1F
100
AcDbEntity
  8
LC-001-100-D00-0
 62
     7
370
    50
100
AcDbLine
 10
-35.693398
 20
466.600124
 30
0.0
 11
-34.693398
 21
465.600124
 31
0.0
  0
LINE
  5
2E1
330
1F
100
AcDbEntity
  8
LC-001-100-D00-0
 62
     7
370
    50
100
AcDbLine
 10
-35.693398
 20
466.600124
 30
0.0
 11
-35.693399
 21
472.600123
 31
0.0
  0
LINE
  5
2E2
330
1F
100
AcDbEntity
  8
LC-001-100-D00-0
 62
     7
370
    50
100
AcDbLine
 10
-34.693397
 20
473.600124
 30
0.0
 11
-35.693399
 21
472.600123
 31
0.0
  0
LINE
  5
2E3
330
1F
100
AcDbEntity
  8
LC-001-100-D00-0
 62
     7
370
    50
100
AcDbLine
 10
-32.742544
 20
473.600124
 30
0.0
 11
-32.742544
 21
471.600123
 31
0.0
  0
LINE
  5
2E4
330
1F
100
AcDbEntity
  8
LC-001-100-D00-0
 62
     7
370
    50
100
AcDbLine
 10
-33.44869
 20
471.410913
 30
0.0
 11
-32.742544
 21
471.600123
 31
0.0
  0
ARC
  5
2E5
330
1F
100
AcDbEntity
  8
LC-001-100-D00-0
 62
     7
370
    50
100
AcDbCircle
 10
-33.293398
 20
470.831357
 30
0.0
 40
0.6000000000003082
100
AcDbArc
 50
105.0
 51
180.0
  0
LINE
  5
2E6
330
1F
100
AcDbEntity
  8
LC-001-100-D00-0
 62
     7
370
    50
100
AcDbLine
 10
-34.693398
 20
465.600124
 30
0.0
 11
-32.742544
 21
465.600124
 31
0.0
  0
LINE
  5
2E7
330
1F
100
AcDbEntity
  8
LC-001-100-D00-0
 62
     7
370
    50
100
AcDbLine
 10
-34.693397
 20
473.600124
 30
0.0
 11
-32.742544
 21
473.600124
 31
0.0
  0
LINE
  5
2E8
330
1F
100
AcDbEntity
  8
LC-001-100-D00-0
 62
     7
370
    50
100
AcDbLine
 10
-42.493398
 20
466.600124
 30
0.0
 11
-42.335559
 21
466.600124
 31
0.0
  0
LINE
  5
2E9
330
1F
100
AcDbEntity
  8
LC-001-100-D00-0
 62
     7
370
    50
100
AcDbLine
 10
-35.851238
 20
466.600124
 30
0.0
 11
-35.693398
 21
466.600124
 31
0.0
  0
LINE
  5
2EA
330
1F
100
AcDbEntity
  8
LC-001-100-D00-0
 62
     7
370
    50
100
AcDbLine
 10
-34.693398
 20
465.600124
 30
0.0
 11
-35.22918
 21
465.600124
 31
0.0
  0
LINE
  5
2EB
330
1F
100
AcDbEntity
  8
LC-001-100-D00-0
 62
     7
370
    50
100
AcDbLine
 10
-42.957616
 20
465.600124
 30
0.0
 11
-43.493398
 21
465.600124
 31
0.0
  0
LINE
  5
2EC
330
1F
100
AcDbEntity
  8
LC-001-100-D00-0
 62
     7
370
    50
100
AcDbLine
 10
-32.742544
 20
473.600124
 30
0.0
 11
-35.193398
 21
473.600124
 31
0.0
  0
LINE
  5
2ED
330
1F
100
AcDbEntity
  8
LC-001-100-D00-0
 62
     7
370
    50
100
AcDbLine
 10
-35.193398
 20
473.600124
 30
0.0
 11
-35.193398
 21
484.600124
 31
0.0
  0
LINE
  5
2EE
330
1F
100
AcDbEntity
  8
LC-001-100-D00-0
 62
     7
370
    50
100
AcDbLine
 10
-35.193398
 20
484.600124
 30
0.0
 11
-21.843398
 21
484.600124
 31
0.0
  0
ARC
  5
2EF
330
1F
100
AcDbEntity
  8
LC-001-100-D00-0
 62
     7
370
    50
100
AcDbCircle
 10
-21.843398
 20
483.600124
 30
0.0
 40
0.9999999999998863
100
AcDbArc
 50
0.0
 51
90.0
  0
LINE
  5
2F0
330
1F
100
AcDbEntity
  8
LC-001-100-D00-0
 62
     7
370
    50
100
AcDbLine
 10
-20.843398
 20
483.600124
 30
0.0
 11
-20.843401
 21
477.600123
 31
0.0
  0
LINE
  5
2F1
330
1F
100
AcDbEntity
  8
LC-001-100-D00-0
 62
     7
370
    50
100
AcDbLine
 10
-23.843398
 20
477.600124
 30
0.0
 11
-20.843401
 21
477.600123
 31
0.0
  0
LINE
  5
2F2
330
1F
100
AcDbEntity
  8
LC-001-100-D00-0
 62
     7
370
    50
100
AcDbLine
 10
-23.843398
 20
477.600124
 30
0.0
 11
-23.843399
 21
481.600124
 31
0.0
  0
LINE
  5
2F3
330
1F
100
AcDbEntity
  8
LC-001-100-D00-0
 62
     7
370
    50
100
AcDbLine
 10
-28.343398
 20
481.600124
 30
0.0
 11
-23.843399
 21
481.600124
 31
0.0
  0
ARC
  5
2F4
330
1F
100
AcDbEntity
  8
LC-001-100-D00-0
 62
     7
370
    50
100
AcDbCircle
 10
-28.343398
 20
480.600124
 30
0.0
 40
1.000000000000227
100
AcDbArc
 50
90.0
 51
180.0
  0
LINE
  5
2F5
330
1F
100
AcDbEntity
  8
LC-001-100-D00-0
 62
     7
370
    50
100
AcDbLine
 10
-29.343398
 20
466.600124
 30
0.0
 11
-29.343398
 21
480.600124
 31
0.0
  0
ARC
  5
2F6
330
1F
100
AcDbEntity
  8
LC-001-100-D00-0
 62
     7
370
    50
100
AcDbCircle
 10
-30.343398
 20
466.600124
 30
0.0
 40
1.000000000000227
100
AcDbArc
 50
270.0
 51
0.0
  0
LINE
  5
2F7
330
1F
100
AcDbEntity
  8
LC-001-100-D00-0
 62
     7
370
    50
100
AcDbLine
 10
-30.343398
 20
465.600124
 30
0.0
 11
-32.742544
 21
465.600124
 31
0.0
  0
LINE
  5
2F8
330
1F
100
AcDbEntity
  8
LC-001-100-D00-0
 62
     7
370
    50
100
AcDbLine
 10
-32.742544
 20
467.600123
 30
0.0
 11
-32.742544
 21
465.600124
 31
0.0
  0
LINE
  5
2F9
330
1F
100
AcDbEntity
  8
LC-001-100-D00-0
 62
     7
370
    50
100
AcDbLine
 10
-33.393398
 20
467.600124
 30
0.0
 11
-32.742544
 21
467.600123
 31
0.0
  0
ARC
  5
2FA
330
1F
100
AcDbEntity
  8
LC-001-100-D00-0
 62
     7
370
    50
100
AcDbCircle
 10
-33.393398
 20
468.100124
 30
0.0
 40
0.4999999999998863
100
AcDbArc
 50
180.0
 51
270.0
  0
LINE
  5
2FB
330
1F
100
AcDbEntity
  8
LC-001-100-D00-0
 62
     7
370
    50
100
AcDbLine
 10
-33.893398
 20
471.100124
 30
0.0
 11
-33.893398
 21
468.100124
 31
0.0
  0
ARC
  5
2FC
330
1F
100
AcDbEntity
  8
LC-001-100-D00-0
 62
     7
370
    50
100
AcDbCircle
 10
-33.393398
 20
471.100124
 30
0.0
 40
0.5000000000002274
100
AcDbArc
 50
90.0
 51
180.0
  0
LINE
  5
2FD
330
1F
100
AcDbEntity
  8
LC-001-100-D00-0
 62
     7
370
    50
100
AcDbLine
 10
-32.742544
 20
471.600123
 30
0.0
 11
-33.393398
 21
471.600124
 31
0.0
  0
LINE
  5
2FE
330
1F
100
AcDbEntity
  8
LC-001-100-D00-0
 62
     7
370
    50
100
AcDbLine
 10
-32.742544
 20
473.600124
 30
0.0
 11
-32.742544
 21
471.600123
 31
0.0
  0
ARC
  5
2FF
330
1F
100
AcDbEntity
  8
LC-001-100-D00-0
 62
     7
370
    50
100
AcDbCircle
 10
-49.843398
 20
480.600124
 30
0.0
 40
1.000000000000227
100
AcDbArc
 50
0.0
 51
90.0
  0
ARC
  5
300
330
1F
100
AcDbEntity
  8
LC-001-100-D00-0
 62
     7
370
    50
100
AcDbCircle
 10
-47.843398
 20
466.600124
 30
0.0
 40
1.000000000000227
100
AcDbArc
 50
180.0
 51
270.0
  0
LINE
  5
301
330
1F
100
AcDbEntity
  8
LC-001-100-D00-0
 62
     7
370
    50
100
AcDbLine
 10
-48.843398
 20
480.600124
 30
0.0
 11
-48.843398
 21
466.600124
 31
0.0
  0
LINE
  5
302
330
1F
100
AcDbEntity
  8
LC-001-100-D00-0
 62
     7
370
    50
100
AcDbLine
 10
-42.993398
 20
484.600124
 30
0.0
 11
-42.993396
 21
473.600124
 31
0.0
  0
LINE
  5
303
330
1F
100
AcDbEntity
  8
LC-001-100-D00-0
 62
     7
370
    50
100
AcDbLine
 10
-42.993398
 20
484.600124
 30
0.0
 11
-35.193398
 21
484.600124
 31
0.0
  0
LINE
  5
304
330
1F
100
AcDbEntity
  8
LC-001-100-D00-0
 62
     7
370
    50
100
AcDbLine
 10
-44.293398
 20
468.100124
 30
0.0
 11
-44.293398
 21
471.100124
 31
0.0
  0
ARC
  5
305
330
1F
100
AcDbEntity
  8
LC-001-100-D00-0
 62
     7
370
    50
100
AcDbCircle
 10
-44.793398
 20
468.100124
 30
0.0
 40
0.5
100
AcDbArc
 50
270.0
 51
0.0
  0
LINE
  5
306
330
1F
100
AcDbEntity
  8
LC-001-100-D00-0
 62
     7
370
    50
100
AcDbLine
 10
-45.444249
 20
467.600123
 30
0.0
 11
-44.793398
 21
467.600124
 31
0.0
  0
LINE
  5
307
330
1F
100
AcDbEntity
  8
LC-001-100-D00-0
 62
     7
370
    50
100
AcDbLine
 10
-45.444249
 20
467.600123
 30
0.0
 11
-45.444249
 21
465.600124
 31
0.0
  0
LINE
  5
308
330
1F
100
AcDbEntity
  8
LC-001-100-D00-0
 62
     7
370
    50
100
AcDbLine
 10
-54.343401
 20
481.600124
 30
0.0
 11
-54.343398
 21
477.600124
 31
0.0
  0
LINE
  5
309
330
1F
100
AcDbEntity
  8
LC-001-100-D00-0
 62
     7
370
    50
100
AcDbLine
 10
-57.3434
 20
477.600123
 30
0.0
 11
-57.343398
 21
483.600124
 31
0.0
  0
ARC
  5
30A
330
1F
100
AcDbEntity
  8
LC-001-100-D00-0
 62
     7
370
    50
100
AcDbCircle
 10
-56.343398
 20
483.600124
 30
0.0
 40
0.9999999999997726
100
AcDbArc
 50
90.0
 51
180.0
  0
LINE
  5
30B
330
1F
100
AcDbEntity
  8
LC-001-100-D00-0
 62
     7
370
    50
100
AcDbLine
 10
-45.444249
 20
473.600124
 30
0.0
 11
-45.444249
 21
471.600123
 31
0.0
  0
LINE
  5
30C
330
1F
100
AcDbEntity
  8
LC-001-100-D00-0
 62
     7
370
    50
100
AcDbLine
 10
-44.793398
 20
471.600124
 30
0.0
 11
-45.444249
 21
471.600123
 31
0.0
  0
ARC
  5
30D
330
1F
100
AcDbEntity
  8
LC-001-100-D00-0
 62
     7
370
    50
100
AcDbCircle
 10
-44.793398
 20
471.100124
 30
0.0
 40
0.5000000000004548
100
AcDbArc
 50
0.0
 51
90.0
  0
LINE
  5
30E
330
1F
100
AcDbEntity
  8
LC-001-100-D00-0
 62
     7
370
    50
100
AcDbLine
 10
-45.444249
 20
465.600124
 30
0.0
 11
-47.843398
 21
465.600124
 31
0.0
  0
LINE
  5
30F
330
1F
100
AcDbEntity
  8
LC-001-100-D00-0
 62
     7
370
    50
100
AcDbLine
 10
-42.993396
 20
473.600124
 30
0.0
 11
-45.444249
 21
473.600124
 31
0.0
  0
LINE
  5
310
330
1F
100
AcDbEntity
  8
LC-001-100-D00-0
 62
     7
370
    50
100
AcDbLine
 10
-54.343401
 20
481.600124
 30
0.0
 11
-49.843398
 21
481.600124
 31
0.0
  0
LINE
  5
311
330
1F
100
AcDbEntity
  8
LC-001-100-D00-0
 62
     7
370
    50
100
AcDbLine
 10
-56.343398
 20
484.600124
 30
0.0
 11
-42.993398
 21
484.600124
 31
0.0
  0
LINE
  5
312
330
1F
100
AcDbEntity
  8
LC-001-100-D00-0
 62
     7
370
    50
100
AcDbLine
 10
-57.3434
 20
477.600123
 30
0.0
 11
-54.343398
 21
477.600124
 31
0.0
  0
LINE
  5
313
330
1F
100
AcDbEntity
  8
LC-001-100-D00-0
 62
     7
370
    50
100
AcDbLine
 10
-25.843398
 20
477.600124
 30
0.0
 11
-23.843398
 21
477.600124
 31
0.0
  0
LINE
  5
314
330
1F
100
AcDbEntity
  8
LC-001-100-D00-0
 62
     7
370
    50
100
AcDbLine
 10
-54.343398
 20
477.600124
 30
0.0
 11
-52.343398
 21
477.600124
 31
0.0
  0
LINE
  5
315
330
1F
100
AcDbEntity
  8
LC-001-100-D00-0
 62
     7
370
    50
100
AcDbLine
 10
-52.343398
 20
477.600124
 30
0.0
 11
-48.843398
 21
477.600123
 31
0.0
  0
LINE
  5
316
330
1F
100
AcDbEntity
  8
LC-001-100-D00-0
 62
     7
370
    50
100
AcDbLine
 10
-29.343396
 20
477.600123
 30
0.0
 11
-25.843398
 21
477.600124
 31
0.0
  0
LINE
  5
317
330
1F
100
AcDbEntity
  8
LC-001-100-D00-0
 62
     7
370
    50
100
AcDbLine
 10
-242.493398
 20
472.600123
 30
0.0
 11
-243.4934
 21
473.600124
 31
0.0
  0
LINE
  5
318
330
1F
100
AcDbEntity
  8
LC-001-100-D00-0
 62
     7
370
    50
100
AcDbLine
 10
-242.493398
 20
472.600123
 30
0.0
 11
-242.493398
 21
466.600124
 31
0.0
  0
LINE
  5
319
330
1F
100
AcDbEntity
  8
LC-001-100-D00-0
 62
     7
370
    50
100
AcDbLine
 10
-243.493398
 20
465.600124
 30
0.0
 11
-242.493398
 21
466.600124
 31
0.0
  0
LINE
  5
31A
330
1F
100
AcDbEntity
  8
LC-001-100-D00-0
 62
     7
370
    50
100
AcDbLine
 10
-245.444252
 20
467.600123
 30
0.0
 11
-245.444252
 21
465.600124
 31
0.0
  0
LINE
  5
31B
330
1F
100
AcDbEntity
  8
LC-001-100-D00-0
 62
     7
370
    50
100
AcDbLine
 10
-244.738107
 20
467.789334
 30
0.0
 11
-245.444252
 21
467.600123
 31
0.0
  0
ARC
  5
31C
330
1F
100
AcDbEntity
  8
LC-001-100-D00-0
 62
     7
370
    50
100
AcDbCircle
 10
-244.893398
 20
468.36889
 30
0.0
 40
0.6000000000000886
100
AcDbArc
 50
285.0
 51
0.0
  0
LINE
  5
31D
330
1F
100
AcDbEntity
  8
LC-001-100-D00-0
 62
     7
370
    50
100
AcDbLine
 10
-244.293398
 20
470.831357
 30
0.0
 11
-244.293398
 21
468.36889
 31
0.0
  0
ARC
  5
31E
330
1F
100
AcDbEntity
  8
LC-001-100-D00-0
 62
     7
370
    50
100
AcDbCircle
 10
-244.893398
 20
470.831357
 30
0.0
 40
0.6000000000003638
100
AcDbArc
 50
0.0
 51
75.0
  0
LINE
  5
31F
330
1F
100
AcDbEntity
  8
LC-001-100-D00-0
 62
     7
370
    50
100
AcDbLine
 10
-245.444252
 20
471.600123
 30
0.0
 11
-244.738107
 21
471.410913
 31
0.0
  0
LINE
  5
320
330
1F
100
AcDbEntity
  8
LC-001-100-D00-0
 62
     7
370
    50
100
AcDbLine
 10
-245.444252
 20
473.600124
 30
0.0
 11
-245.444252
 21
471.600123
 31
0.0
  0
LINE
  5
321
330
1F
100
AcDbEntity
  8
LC-001-100-D00-0
 62
     7
370
    50
100
AcDbLine
 10
-245.444252
 20
465.600124
 30
0.0
 11
-243.493398
 21
465.600124
 31
0.0
  0
LINE
  5
322
330
1F
100
AcDbEntity
  8
LC-001-100-D00-0
 62
     7
370
    50
100
AcDbLine
 10
-245.444252
 20
473.600124
 30
0.0
 11
-243.4934
 21
473.600124
 31
0.0
  0
LINE
  5
323
330
1F
100
AcDbEntity
  8
LC-001-100-D00-0
 62
     7
370
    50
100
AcDbLine
 10
-233.893398
 20
468.36889
 30
0.0
 11
-233.893398
 21
470.831357
 31
0.0
  0
ARC
  5
324
330
1F
100
AcDbEntity
  8
LC-001-100-D00-0
 62
     7
370
    50
100
AcDbCircle
 10
-233.293398
 20
468.36889
 30
0.0
 40
0.5999999999999091
100
AcDbArc
 50
180.0
 51
255.0
  0
LINE
  5
325
330
1F
100
AcDbEntity
  8
LC-001-100-D00-0
 62
     7
370
    50
100
AcDbLine
 10
-232.742547
 20
467.600123
 30
0.0
 11
-233.44869
 21
467.789334
 31
0.0
  0
LINE
  5
326
330
1F
100
AcDbEntity
  8
LC-001-100-D00-0
 62
     7
370
    50
100
AcDbLine
 10
-232.742547
 20
467.600123
 30
0.0
 11
-232.742547
 21
465.600124
 31
0.0
  0
LINE
  5
327
330
1F
100
AcDbEntity
  8
LC-001-100-D00-0
 62
     7
370
    50
100
AcDbLine
 10
-235.693398
 20
466.600124
 30
0.0
 11
-234.693398
 21
465.600124
 31
0.0
  0
LINE
  5
328
330
1F
100
AcDbEntity
  8
LC-001-100-D00-0
 62
     7
370
    50
100
AcDbLine
 10
-235.693398
 20
466.600124
 30
0.0
 11
-235.693402
 21
472.600123
 31
0.0
  0
LINE
  5
329
330
1F
100
AcDbEntity
  8
LC-001-100-D00-0
 62
     7
370
    50
100
AcDbLine
 10
-234.6934
 20
473.600124
 30
0.0
 11
-235.693402
 21
472.600123
 31
0.0
  0
LINE
  5
32A
330
1F
100
AcDbEntity
  8
LC-001-100-D00-0
 62
     7
370
    50
100
AcDbLine
 10
-232.742547
 20
473.600124
 30
0.0
 11
-232.742547
 21
471.600123
 31
0.0
  0
LINE
  5
32B
330
1F
100
AcDbEntity
  8
LC-001-100-D00-0
 62
     7
370
    50
100
AcDbLine
 10
-233.44869
 20
471.410913
 30
0.0
 11
-232.742547
 21
471.600123
 31
0.0
  0
ARC
  5
32C
330
1F
100
AcDbEntity
  8
LC-001-100-D00-0
 62
     7
370
    50
100
AcDbCircle
 10
-233.293398
 20
470.831357
 30
0.0
 40
0.6000000000003082
100
AcDbArc
 50
105.0
 51
180.0
  0
LINE
  5
32D
330
1F
100
AcDbEntity
  8
LC-001-100-D00-0
 62
     7
370
    50
100
AcDbLine
 10
-234.693398
 20
465.600124
 30
0.0
 11
-232.742547
 21
465.600124
 31
0.0
  0
LINE
  5
32E
330
1F
100
AcDbEntity
  8
LC-001-100-D00-0
 62
     7
370
    50
100
AcDbLine
 10
-234.6934
 20
473.600124
 30
0.0
 11
-232.742547
 21
473.600124
 31
0.0
  0
LINE
  5
32F
330
1F
100
AcDbEntity
  8
LC-001-100-D00-0
 62
     7
370
    50
100
AcDbLine
 10
-242.493398
 20
466.600124
 30
0.0
 11
-242.335559
 21
466.600124
 31
0.0
  0
LINE
  5
330
330
1F
100
AcDbEntity
  8
LC-001-100-D00-0
 62
     7
370
    50
100
AcDbLine
 10
-235.851238
 20
466.600124
 30
0.0
 11
-235.693398
 21
466.600124
 31
0.0
  0
LINE
  5
331
330
1F
100
AcDbEntity
  8
LC-001-100-D00-0
 62
     7
370
    50
100
AcDbLine
 10
-234.693398
 20
465.600124
 30
0.0
 11
-235.22918
 21
465.600124
 31
0.0
  0
LINE
  5
332
330
1F
100
AcDbEntity
  8
LC-001-100-D00-0
 62
     7
370
    50
100
AcDbLine
 10
-242.957616
 20
465.600124
 30
0.0
 11
-243.493398
 21
465.600124
 31
0.0
  0
LINE
  5
333
330
1F
100
AcDbEntity
  8
LC-001-100-D00-0
 62
     7
370
    50
100
AcDbLine
 10
-232.742547
 20
473.600124
 30
0.0
 11
-235.193401
 21
473.600124
 31
0.0
  0
LINE
  5
334
330
1F
100
AcDbEntity
  8
LC-001-100-D00-0
 62
     7
370
    50
100
AcDbLine
 10
-235.193401
 20
473.600124
 30
0.0
 11
-235.193398
 21
484.600124
 31
0.0
  0
LINE
  5
335
330
1F
100
AcDbEntity
  8
LC-001-100-D00-0
 62
     7
370
    50
100
AcDbLine
 10
-235.193398
 20
484.600124
 30
0.0
 11
-221.843398
 21
484.600124
 31
0.0
  0
ARC
  5
336
330
1F
100
AcDbEntity
  8
LC-001-100-D00-0
 62
     7
370
    50
100
AcDbCircle
 10
-221.843398
 20
483.600124
 30
0.0
 40
1.0
100
AcDbArc
 50
0.0
 51
90.0
  0
LINE
  5
337
330
1F
100
AcDbEntity
  8
LC-001-100-D00-0
 62
     7
370
    50
100
AcDbLine
 10
-220.843398
 20
483.600124
 30
0.0
 11
-220.843396
 21
477.600123
 31
0.0
  0
LINE
  5
338
330
1F
100
AcDbEntity
  8
LC-001-100-D00-0
 62
     7
370
    50
100
AcDbLine
 10
-223.843398
 20
477.600124
 30
0.0
 11
-220.843396
 21
477.600123
 31
0.0
  0
LINE
  5
339
330
1F
100
AcDbEntity
  8
LC-001-100-D00-0
 62
     7
370
    50
100
AcDbLine
 10
-223.843398
 20
477.600124
 30
0.0
 11
-223.843395
 21
481.600124
 31
0.0
  0
LINE
  5
33A
330
1F
100
AcDbEntity
  8
LC-001-100-D00-0
 62
     7
370
    50
100
AcDbLine
 10
-228.343398
 20
481.600124
 30
0.0
 11
-223.843395
 21
481.600124
 31
0.0
  0
ARC
  5
33B
330
1F
100
AcDbEntity
  8
LC-001-100-D00-0
 62
     7
370
    50
100
AcDbCircle
 10
-228.343398
 20
480.600124
 30
0.0
 40
1.000000000000227
100
AcDbArc
 50
90.0
 51
180.0
  0
LINE
  5
33C
330
1F
100
AcDbEntity
  8
LC-001-100-D00-0
 62
     7
370
    50
100
AcDbLine
 10
-229.343398
 20
466.600124
 30
0.0
 11
-229.343398
 21
480.600124
 31
0.0
  0
ARC
  5
33D
330
1F
100
AcDbEntity
  8
LC-001-100-D00-0
 62
     7
370
    50
100
AcDbCircle
 10
-230.343398
 20
466.600124
 30
0.0
 40
1.000000000000227
100
AcDbArc
 50
270.0
 51
0.0
  0
LINE
  5
33E
330
1F
100
AcDbEntity
  8
LC-001-100-D00-0
 62
     7
370
    50
100
AcDbLine
 10
-230.343398
 20
465.600124
 30
0.0
 11
-232.742547
 21
465.600124
 31
0.0
  0
LINE
  5
33F
330
1F
100
AcDbEntity
  8
LC-001-100-D00-0
 62
     7
370
    50
100
AcDbLine
 10
-232.742547
 20
467.600123
 30
0.0
 11
-232.742547
 21
465.600124
 31
0.0
  0
LINE
  5
340
330
1F
100
AcDbEntity
  8
LC-001-100-D00-0
 62
     7
370
    50
100
AcDbLine
 10
-233.393398
 20
467.600124
 30
0.0
 11
-232.742547
 21
467.600123
 31
0.0
  0
ARC
  5
341
330
1F
100
AcDbEntity
  8
LC-001-100-D00-0
 62
     7
370
    50
100
AcDbCircle
 10
-233.393398
 20
468.100124
 30
0.0
 40
0.5
100
AcDbArc
 50
180.0
 51
270.0
  0
LINE
  5
342
330
1F
100
AcDbEntity
  8
LC-001-100-D00-0
 62
     7
370
    50
100
AcDbLine
 10
-233.893398
 20
471.100124
 30
0.0
 11
-233.893398
 21
468.100124
 31
0.0
  0
ARC
  5
343
330
1F
100
AcDbEntity
  8
LC-001-100-D00-0
 62
     7
370
    50
100
AcDbCircle
 10
-233.393398
 20
471.100124
 30
0.0
 40
0.5
100
AcDbArc
 50
90.0
 51
180.0
  0
LINE
  5
344
330
1F
100
AcDbEntity
  8
LC-001-100-D00-0
 62
     7
370
    50
100
AcDbLine
 10
-232.742547
 20
471.600123
 30
0.0
 11
-233.393398
 21
471.600124
 31
0.0
  0
LINE
  5
345
330
1F
100
AcDbEntity
  8
LC-001-100-D00-0
 62
     7
370
    50
100
AcDbLine
 10
-232.742547
 20
473.600124
 30
0.0
 11
-232.742547
 21
471.600123
 31
0.0
  0
ARC
  5
346
330
1F
100
AcDbEntity
  8
LC-001-100-D00-0
 62
     7
370
    50
100
AcDbCircle
 10
-249.843398
 20
480.600124
 30
0.0
 40
1.000000000000227
100
AcDbArc
 50
0.0
 51
90.0
  0
ARC
  5
347
330
1F
100
AcDbEntity
  8
LC-001-100-D00-0
 62
     7
370
    50
100
AcDbCircle
 10
-247.843398
 20
466.600124
 30
0.0
 40
1.000000000000227
100
AcDbArc
 50
180.0
 51
270.0
  0
LINE
  5
348
330
1F
100
AcDbEntity
  8
LC-001-100-D00-0
 62
     7
370
    50
100
AcDbLine
 10
-248.843398
 20
480.600124
 30
0.0
 11
-248.843398
 21
466.600124
 31
0.0
  0
LINE
  5
349
330
1F
100
AcDbEntity
  8
LC-001-100-D00-0
 62
     7
370
    50
100
AcDbLine
 10
-242.993398
 20
484.600124
 30
0.0
 11
-242.993399
 21
473.600124
 31
0.0
  0
LINE
  5
34A
330
1F
100
AcDbEntity
  8
LC-001-100-D00-0
 62
     7
370
    50
100
AcDbLine
 10
-242.993398
 20
484.600124
 30
0.0
 11
-235.193398
 21
484.600124
 31
0.0
  0
LINE
  5
34B
330
1F
100
AcDbEntity
  8
LC-001-100-D00-0
 62
     7
370
    50
100
AcDbLine
 10
-244.293398
 20
468.100124
 30
0.0
 11
-244.293398
 21
471.100124
 31
0.0
  0
ARC
  5
34C
330
1F
100
AcDbEntity
  8
LC-001-100-D00-0
 62
     7
370
    50
100
AcDbCircle
 10
-244.793398
 20
468.100124
 30
0.0
 40
0.5
100
AcDbArc
 50
270.0
 51
0.0
  0
LINE
  5
34D
330
1F
100
AcDbEntity
  8
LC-001-100-D00-0
 62
     7
370
    50
100
AcDbLine
 10
-245.444252
 20
467.600123
 30
0.0
 11
-244.793398
 21
467.600124
 31
0.0
  0
LINE
  5
34E
330
1F
100
AcDbEntity
  8
LC-001-100-D00-0
 62
     7
370
    50
100
AcDbLine
 10
-245.444252
 20
467.600123
 30
0.0
 11
-245.444252
 21
465.600124
 31
0.0
  0
LINE
  5
34F
330
1F
100
AcDbEntity
  8
LC-001-100-D00-0
 62
     7
370
    50
100
AcDbLine
 10
-254.343397
 20
481.600124
 30
0.0
 11
-254.343398
 21
477.600124
 31
0.0
  0
LINE
  5
350
330
1F
100
AcDbEntity
  8
LC-001-100-D00-0
 62
     7
370
    50
100
AcDbLine
 10
-257.343396
 20
477.600123
 30
0.0
 11
-257.343398
 21
483.600124
 31
0.0
  0
ARC
  5
351
330
1F
100
AcDbEntity
  8
LC-001-100-D00-0
 62
     7
370
    50
100
AcDbCircle
 10
-256.343398
 20
483.600124
 30
0.0
 40
0.9999999999997726
100
AcDbArc
 50
90.0
 51
180.0
  0
LINE
  5
352
330
1F
100
AcDbEntity
  8
LC-001-100-D00-0
 62
     7
370
    50
100
AcDbLine
 10
-245.444252
 20
473.600124
 30
0.0
 11
-245.444252
 21
471.600123
 31
0.0
  0
LINE
  5
353
330
1F
100
AcDbEntity
  8
LC-001-100-D00-0
 62
     7
370
    50
100
AcDbLine
 10
-244.793398
 20
471.600124
 30
0.0
 11
-245.444252
 21
471.600123
 31
0.0
  0
ARC
  5
354
330
1F
100
AcDbEntity
  8
LC-001-100-D00-0
 62
     7
370
    50
100
AcDbCircle
 10
-244.793398
 20
471.100124
 30
0.0
 40
0.5000000000001137
100
AcDbArc
 50
0.0
 51
90.0
  0
LINE
  5
355
330
1F
100
AcDbEntity
  8
LC-001-100-D00-0
 62
     7
370
    50
100
AcDbLine
 10
-245.444252
 20
465.600124
 30
0.0
 11
-247.843398
 21
465.600124
 31
0.0
  0
LINE
  5
356
330
1F
100
AcDbEntity
  8
LC-001-100-D00-0
 62
     7
370
    50
100
AcDbLine
 10
-242.993399
 20
473.600124
 30
0.0
 11
-245.444252
 21
473.600124
 31
0.0
  0
LINE
  5
357
330
1F
100
AcDbEntity
  8
LC-001-100-D00-0
 62
     7
370
    50
100
AcDbLine
 10
-254.343397
 20
481.600124
 30
0.0
 11
-249.843398
 21
481.600124
 31
0.0
  0
LINE
  5
358
330
1F
100
AcDbEntity
  8
LC-001-100-D00-0
 62
     7
370
    50
100
AcDbLine
 10
-256.343398
 20
484.600124
 30
0.0
 11
-242.993398
 21
484.600124
 31
0.0
  0
LINE
  5
359
330
1F
100
AcDbEntity
  8
LC-001-100-D00-0
 62
     7
370
    50
100
AcDbLine
 10
-257.343396
 20
477.600123
 30
0.0
 11
-254.343398
 21
477.600124
 31
0.0
  0
LINE
  5
35A
330
1F
100
AcDbEntity
  8
LC-001-100-D00-0
 62
     7
370
    50
100
AcDbLine
 10
-225.843398
 20
477.600124
 30
0.0
 11
-223.843398
 21
477.600124
 31
0.0
  0
LINE
  5
35B
330
1F
100
AcDbEntity
  8
LC-001-100-D00-0
 62
     7
370
    50
100
AcDbLine
 10
-254.343398
 20
477.600124
 30
0.0
 11
-252.343398
 21
477.600124
 31
0.0
  0
LINE
  5
35C
330
1F
100
AcDbEntity
  8
LC-001-100-D00-0
 62
     7
370
    50
100
AcDbLine
 10
-252.343398
 20
477.600124
 30
0.0
 11
-248.843401
 21
477.600123
 31
0.0
  0
LINE
  5
35D
330
1F
100
AcDbEntity
  8
LC-001-100-D00-0
 62
     7
370
    50
100
AcDbLine
 10
-229.343399
 20
477.600123
 30
0.0
 11
-225.843398
 21
477.600124
 31
0.0
  0
LINE
  5
35E
330
1F
100
AcDbEntity
  8
LC-001-100-D00-0
 62
     7
370
    50
100
AcDbLine
 10
-402.493387
 20
472.600123
 30
0.0
 11
-403.493403
 21
473.600124
 31
0.0
  0
LINE
  5
35F
330
1F
100
AcDbEntity
  8
LC-001-100-D00-0
 62
     7
370
    50
100
AcDbLine
 10
-402.493387
 20
472.600123
 30
0.0
 11
-402.493398
 21
466.600124
 31
0.0
  0
LINE
  5
360
330
1F
100
AcDbEntity
  8
LC-001-100-D00-0
 62
     7
370
    50
100
AcDbLine
 10
-403.493398
 20
465.600124
 30
0.0
 11
-402.493398
 21
466.600124
 31
0.0
  0
LINE
  5
361
330
1F
100
AcDbEntity
  8
LC-001-100-D00-0
 62
     7
370
    50
100
AcDbLine
 10
-405.444264
 20
467.600123
 30
0.0
 11
-405.444264
 21
465.600124
 31
0.0
  0
LINE
  5
362
330
1F
100
AcDbEntity
  8
LC-001-100-D00-0
 62
     7
370
    50
100
AcDbLine
 10
-404.738107
 20
467.789334
 30
0.0
 11
-405.444264
 21
467.600123
 31
0.0
  0
ARC
  5
363
330
1F
100
AcDbEntity
  8
LC-001-100-D00-0
 62
     7
370
    50
100
AcDbCircle
 10
-404.893398
 20
468.36889
 30
0.0
 40
0.6000000000001032
100
AcDbArc
 50
285.0
 51
0.0
  0
LINE
  5
364
330
1F
100
AcDbEntity
  8
LC-001-100-D00-0
 62
     7
370
    50
100
AcDbLine
 10
-404.293398
 20
470.831357
 30
0.0
 11
-404.293398
 21
468.36889
 31
0.0
  0
ARC
  5
365
330
1F
100
AcDbEntity
  8
LC-001-100-D00-0
 62
     7
370
    50
100
AcDbCircle
 10
-404.893398
 20
470.831357
 30
0.0
 40
0.6000000000002501
100
AcDbArc
 50
0.0
 51
75.0
  0
LINE
  5
366
330
1F
100
AcDbEntity
  8
LC-001-100-D00-0
 62
     7
370
    50
100
AcDbLine
 10
-405.444264
 20
471.600123
 30
0.0
 11
-404.738107
 21
471.410913
 31
0.0
  0
LINE
  5
367
330
1F
100
AcDbEntity
  8
LC-001-100-D00-0
 62
     7
370
    50
100
AcDbLine
 10
-405.444264
 20
473.600124
 30
0.0
 11
-405.444264
 21
471.600123
 31
0.0
  0
LINE
  5
368
330
1F
100
AcDbEntity
  8
LC-001-100-D00-0
 62
     7
370
    50
100
AcDbLine
 10
-405.444264
 20
465.600124
 30
0.0
 11
-403.493398
 21
465.600124
 31
0.0
  0
LINE
  5
369
330
1F
100
AcDbEntity
  8
LC-001-100-D00-0
 62
     7
370
    50
100
AcDbLine
 10
-405.444264
 20
473.600124
 30
0.0
 11
-403.493403
 21
473.600124
 31
0.0
  0
LINE
  5
36A
330
1F
100
AcDbEntity
  8
LC-001-100-D00-0
 62
     7
370
    50
100
AcDbLine
 10
-393.893398
 20
468.36889
 30
0.0
 11
-393.893398
 21
470.831357
 31
0.0
  0
ARC
  5
36B
330
1F
100
AcDbEntity
  8
LC-001-100-D00-0
 62
     7
370
    50
100
AcDbCircle
 10
-393.293398
 20
468.36889
 30
0.0
 40
0.6000000000000227
100
AcDbArc
 50
180.0
 51
255.0
  0
LINE
  5
36C
330
1F
100
AcDbEntity
  8
LC-001-100-D00-0
 62
     7
370
    50
100
AcDbLine
 10
-392.742544
 20
467.600123
 30
0.0
 11
-393.44869
 21
467.789334
 31
0.0
  0
LINE
  5
36D
330
1F
100
AcDbEntity
  8
LC-001-100-D00-0
 62
     7
370
    50
100
AcDbLine
 10
-392.742544
 20
467.600123
 30
0.0
 11
-392.742544
 21
465.600124
 31
0.0
  0
LINE
  5
36E
330
1F
100
AcDbEntity
  8
LC-001-100-D00-0
 62
     7
370
    50
100
AcDbLine
 10
-395.693398
 20
466.600124
 30
0.0
 11
-394.693398
 21
465.600124
 31
0.0
  0
LINE
  5
36F
330
1F
100
AcDbEntity
  8
LC-001-100-D00-0
 62
     7
370
    50
100
AcDbLine
 10
-395.693398
 20
466.600124
 30
0.0
 11
-395.693391
 21
472.600123
 31
0.0
  0
LINE
  5
370
330
1F
100
AcDbEntity
  8
LC-001-100-D00-0
 62
     7
370
    50
100
AcDbLine
 10
-394.693404
 20
473.600124
 30
0.0
 11
-395.693391
 21
472.600123
 31
0.0
  0
LINE
  5
371
330
1F
100
AcDbEntity
  8
LC-001-100-D00-0
 62
     7
370
    50
100
AcDbLine
 10
-392.742544
 20
473.600124
 30
0.0
 11
-392.742544
 21
471.600123
 31
0.0
  0
LINE
  5
372
330
1F
100
AcDbEntity
  8
LC-001-100-D00-0
 62
     7
370
    50
100
AcDbLine
 10
-393.44869
 20
471.410913
 30
0.0
 11
-392.742544
 21
471.600123
 31
0.0
  0
ARC
  5
373
330
1F
100
AcDbEntity
  8
LC-001-100-D00-0
 62
     7
370
    50
100
AcDbCircle
 10
-393.293398
 20
470.831357
 30
0.0
 40
0.6000000000003376
100
AcDbArc
 50
105.0
 51
180.0
  0
LINE
  5
374
330
1F
100
AcDbEntity
  8
LC-001-100-D00-0
 62
     7
370
    50
100
AcDbLine
 10
-394.693398
 20
465.600124
 30
0.0
 11
-392.742544
 21
465.600124
 31
0.0
  0
LINE
  5
375
330
1F
100
AcDbEntity
  8
LC-001-100-D00-0
 62
     7
370
    50
100
AcDbLine
 10
-394.693404
 20
473.600124
 30
0.0
 11
-392.742544
 21
473.600124
 31
0.0
  0
LINE
  5
376
330
1F
100
AcDbEntity
  8
LC-001-100-D00-0
 62
     7
370
    50
100
AcDbLine
 10
-402.493398
 20
466.600124
 30
0.0
 11
-402.335559
 21
466.600124
 31
0.0
  0
LINE
  5
377
330
1F
100
AcDbEntity
  8
LC-001-100-D00-0
 62
     7
370
    50
100
AcDbLine
 10
-395.851238
 20
466.600124
 30
0.0
 11
-395.693398
 21
466.600124
 31
0.0
  0
LINE
  5
378
330
1F
100
AcDbEntity
  8
LC-001-100-D00-0
 62
     7
370
    50
100
AcDbLine
 10
-394.693398
 20
465.600124
 30
0.0
 11
-395.22918
 21
465.600124
 31
0.0
  0
LINE
  5
379
330
1F
100
AcDbEntity
  8
LC-001-100-D00-0
 62
     7
370
    50
100
AcDbLine
 10
-402.957616
 20
465.600124
 30
0.0
 11
-403.493398
 21
465.600124
 31
0.0
  0
LINE
  5
37A
330
1F
100
AcDbEntity
  8
LC-001-100-D00-0
 62
     7
370
    50
100
AcDbLine
 10
-392.742544
 20
473.600124
 30
0.0
 11
-395.193397
 21
473.600124
 31
0.0
  0
LINE
  5
37B
330
1F
100
AcDbEntity
  8
LC-001-100-D00-0
 62
     7
370
    50
100
AcDbLine
 10
-395.193397
 20
473.600124
 30
0.0
 11
-395.193398
 21
484.600124
 31
0.0
  0
LINE
  5
37C
330
1F
100
AcDbEntity
  8
LC-001-100-D00-0
 62
     7
370
    50
100
AcDbLine
 10
-395.193398
 20
484.600124
 30
0.0
 11
-381.843398
 21
484.600124
 31
0.0
  0
ARC
  5
37D
330
1F
100
AcDbEntity
  8
LC-001-100-D00-0
 62
     7
370
    50
100
AcDbCircle
 10
-381.843398
 20
483.600124
 30
0.0
 40
0.9999999999999432
100
AcDbArc
 50
0.0
 51
90.0
  0
LINE
  5
37E
330
1F
100
AcDbEntity
  8
LC-001-100-D00-0
 62
     7
370
    50
100
AcDbLine
 10
-380.843398
 20
483.600124
 30
0.0
 11
-380.8434
 21
477.600123
 31
0.0
  0
LINE
  5
37F
330
1F
100
AcDbEntity
  8
LC-001-100-D00-0
 62
     7
370
    50
100
AcDbLine
 10
-383.843398
 20
477.600124
 30
0.0
 11
-380.8434
 21
477.600123
 31
0.0
  0
LINE
  5
380
330
1F
100
AcDbEntity
  8
LC-001-100-D00-0
 62
     7
370
    50
100
AcDbLine
 10
-383.843398
 20
477.600124
 30
0.0
 11
-383.843391
 21
481.600124
 31
0.0
  0
LINE
  5
381
330
1F
100
AcDbEntity
  8
LC-001-100-D00-0
 62
     7
370
    50
100
AcDbLine
 10
-388.343398
 20
481.600124
 30
0.0
 11
-383.843391
 21
481.600124
 31
0.0
  0
ARC
  5
382
330
1F
100
AcDbEntity
  8
LC-001-100-D00-0
 62
     7
370
    50
100
AcDbCircle
 10
-388.343398
 20
480.600124
 30
0.0
 40
1.000000000000227
100
AcDbArc
 50
90.0
 51
180.0
  0
LINE
  5
383
330
1F
100
AcDbEntity
  8
LC-001-100-D00-0
 62
     7
370
    50
100
AcDbLine
 10
-389.343398
 20
466.600124
 30
0.0
 11
-389.343398
 21
480.600124
 31
0.0
  0
ARC
  5
384
330
1F
100
AcDbEntity
  8
LC-001-100-D00-0
 62
     7
370
    50
100
AcDbCircle
 10
-390.343398
 20
466.600124
 30
0.0
 40
1.000000000000227
100
AcDbArc
 50
270.0
 51
0.0
  0
LINE
  5
385
330
1F
100
AcDbEntity
  8
LC-001-100-D00-0
 62
     7
370
    50
100
AcDbLine
 10
-390.343398
 20
465.600124
 30
0.0
 11
-392.742544
 21
465.600124
 31
0.0
  0
LINE
  5
386
330
1F
100
AcDbEntity
  8
LC-001-100-D00-0
 62
     7
370
    50
100
AcDbLine
 10
-392.742544
 20
467.600123
 30
0.0
 11
-392.742544
 21
465.600124
 31
0.0
  0
LINE
  5
387
330
1F
100
AcDbEntity
  8
LC-001-100-D00-0
 62
     7
370
    50
100
AcDbLine
 10
-393.393398
 20
467.600124
 30
0.0
 11
-392.742544
 21
467.600123
 31
0.0
  0
ARC
  5
388
330
1F
100
AcDbEntity
  8
LC-001-100-D00-0
 62
     7
370
    50
100
AcDbCircle
 10
-393.393398
 20
468.100124
 30
0.0
 40
0.5000000000000568
100
AcDbArc
 50
180.0
 51
270.0
  0
LINE
  5
389
330
1F
100
AcDbEntity
  8
LC-001-100-D00-0
 62
     7
370
    50
100
AcDbLine
 10
-393.893398
 20
471.100124
 30
0.0
 11
-393.893398
 21
468.100124
 31
0.0
  0
ARC
  5
38A
330
1F
100
AcDbEntity
  8
LC-001-100-D00-0
 62
     7
370
    50
100
AcDbCircle
 10
-393.393398
 20
471.100124
 30
0.0
 40
0.5
100
AcDbArc
 50
90.0
 51
180.0
  0
LINE
  5
38B
330
1F
100
AcDbEntity
  8
LC-001-100-D00-0
 62
     7
370
    50
100
AcDbLine
 10
-392.742544
 20
471.600123
 30
0.0
 11
-393.393398
 21
471.600124
 31
0.0
  0
LINE
  5
38C
330
1F
100
AcDbEntity
  8
LC-001-100-D00-0
 62
     7
370
    50
100
AcDbLine
 10
-392.742544
 20
473.600124
 30
0.0
 11
-392.742544
 21
471.600123
 31
0.0
  0
ARC
  5
38D
330
1F
100
AcDbEntity
  8
LC-001-100-D00-0
 62
     7
370
    50
100
AcDbCircle
 10
-409.843398
 20
480.600124
 30
0.0
 40
1.000000000000227
100
AcDbArc
 50
0.0
 51
90.0
  0
ARC
  5
38E
330
1F
100
AcDbEntity
  8
LC-001-100-D00-0
 62
     7
370
    50
100
AcDbCircle
 10
-407.843398
 20
466.600124
 30
0.0
 40
1.000000000000227
100
AcDbArc
 50
180.0
 51
270.0
  0
LINE
  5
38F
330
1F
100
AcDbEntity
  8
LC-001-100-D00-0
 62
     7
370
    50
100
AcDbLine
 10
-408.843398
 20
480.600124
 30
0.0
 11
-408.843398
 21
466.600124
 31
0.0
  0
LINE
  5
390
330
1F
100
AcDbEntity
  8
LC-001-100-D00-0
 62
     7
370
    50
100
AcDbLine
 10
-402.993398
 20
484.600124
 30
0.0
 11
-402.99341
 21
473.600124
 31
0.0
  0
LINE
  5
391
330
1F
100
AcDbEntity
  8
LC-001-100-D00-0
 62
     7
370
    50
100
AcDbLine
 10
-402.993398
 20
484.600124
 30
0.0
 11
-395.193398
 21
484.600124
 31
0.0
  0
LINE
  5
392
330
1F
100
AcDbEntity
  8
LC-001-100-D00-0
 62
     7
370
    50
100
AcDbLine
 10
-404.293398
 20
468.100124
 30
0.0
 11
-404.293398
 21
471.100124
 31
0.0
  0
ARC
  5
393
330
1F
100
AcDbEntity
  8
LC-001-100-D00-0
 62
     7
370
    50
100
AcDbCircle
 10
-404.793398
 20
468.100124
 30
0.0
 40
0.5
100
AcDbArc
 50
270.0
 51
0.0
  0
LINE
  5
394
330
1F
100
AcDbEntity
  8
LC-001-100-D00-0
 62
     7
370
    50
100
AcDbLine
 10
-405.444264
 20
467.600123
 30
0.0
 11
-404.793398
 21
467.600124
 31
0.0
  0
LINE
  5
395
330
1F
100
AcDbEntity
  8
LC-001-100-D00-0
 62
     7
370
    50
100
AcDbLine
 10
-405.444264
 20
467.600123
 30
0.0
 11
-405.444264
 21
465.600124
 31
0.0
  0
LINE
  5
396
330
1F
100
AcDbEntity
  8
LC-001-100-D00-0
 62
     7
370
    50
100
AcDbLine
 10
-414.343386
 20
481.600124
 30
0.0
 11
-414.343398
 21
477.600124
 31
0.0
  0
LINE
  5
397
330
1F
100
AcDbEntity
  8
LC-001-100-D00-0
 62
     7
370
    50
100
AcDbLine
 10
-417.343407
 20
477.600123
 30
0.0
 11
-417.343398
 21
483.600124
 31
0.0
  0
ARC
  5
398
330
1F
100
AcDbEntity
  8
LC-001-100-D00-0
 62
     7
370
    50
100
AcDbCircle
 10
-416.343398
 20
483.600124
 30
0.0
 40
0.9999999999997726
100
AcDbArc
 50
90.0
 51
180.0
  0
LINE
  5
399
330
1F
100
AcDbEntity
  8
LC-001-100-D00-0
 62
     7
370
    50
100
AcDbLine
 10
-405.444264
 20
473.600124
 30
0.0
 11
-405.444264
 21
471.600123
 31
0.0
  0
LINE
  5
39A
330
1F
100
AcDbEntity
  8
LC-001-100-D00-0
 62
     7
370
    50
100
AcDbLine
 10
-404.793398
 20
471.600124
 30
0.0
 11
-405.444264
 21
471.600123
 31
0.0
  0
ARC
  5
39B
330
1F
100
AcDbEntity
  8
LC-001-100-D00-0
 62
     7
370
    50
100
AcDbCircle
 10
-404.793398
 20
471.100124
 30
0.0
 40
0.5000000000001137
100
AcDbArc
 50
0.0
 51
90.0
  0
LINE
  5
39C
330
1F
100
AcDbEntity
  8
LC-001-100-D00-0
 62
     7
370
    50
100
AcDbLine
 10
-405.444264
 20
465.600124
 30
0.0
 11
-407.843398
 21
465.600124
 31
0.0
  0
LINE
  5
39D
330
1F
100
AcDbEntity
  8
LC-001-100-D00-0
 62
     7
370
    50
100
AcDbLine
 10
-402.99341
 20
473.600124
 30
0.0
 11
-405.444264
 21
473.600124
 31
0.0
  0
LINE
  5
39E
330
1F
100
AcDbEntity
  8
LC-001-100-D00-0
 62
     7
370
    50
100
AcDbLine
 10
-414.343386
 20
481.600124
 30
0.0
 11
-409.843398
 21
481.600124
 31
0.0
  0
LINE
  5
39F
330
1F
100
AcDbEntity
  8
LC-001-100-D00-0
 62
     7
370
    50
100
AcDbLine
 10
-416.343398
 20
484.600124
 30
0.0
 11
-402.993398
 21
484.600124
 31
0.0
  0
LINE
  5
3A0
330
1F
100
AcDbEntity
  8
LC-001-100-D00-0
 62
     7
370
    50
100
AcDbLine
 10
-417.343407
 20
477.600123
 30
0.0
 11
-414.343398
 21
477.600124
 31
0.0
  0
LINE
  5
3A1
330
1F
100
AcDbEntity
  8
LC-001-100-D00-0
 62
     7
370
    50
100
AcDbLine
 10
-385.843398
 20
477.600124
 30
0.0
 11
-383.843398
 21
477.600124
 31
0.0
  0
LINE
  5
3A2
330
1F
100
AcDbEntity
  8
LC-001-100-D00-0
 62
     7
370
    50
100
AcDbLine
 10
-414.343398
 20
477.600124
 30
0.0
 11
-412.343398
 21
477.600124
 31
0.0
  0
LINE
  5
3A3
330
1F
100
AcDbEntity
  8
LC-001-100-D00-0
 62
     7
370
    50
100
AcDbLine
 10
-412.343398
 20
477.600124
 30
0.0
 11
-408.843397
 21
477.600123
 31
0.0
  0
LINE
  5
3A4
330
1F
100
AcDbEntity
  8
LC-001-100-D00-0
 62
     7
370
    50
100
AcDbLine
 10
-389.34341
 20
477.600123
 30
0.0
 11
-385.843398
 21
477.600124
 31
0.0
  0
LINE
  5
3A5
330
1F
100
AcDbEntity
  8
LC-001-100-D00-0
 62
     7
370
    50
100
AcDbLine
 10
117.506594
 20
472.600123
 30
0.0
 11
116.506607
 21
473.600124
 31
0.0
  0
LINE
  5
3A6
330
1F
100
AcDbEntity
  8
LC-001-100-D00-0
 62
     7
370
    50
100
AcDbLine
 10
117.506594
 20
472.600123
 30
0.0
 11
117.506602
 21
466.600124
 31
0.0
  0
LINE
  5
3A7
330
1F
100
AcDbEntity
  8
LC-001-100-D00-0
 62
     7
370
    50
100
AcDbLine
 10
116.506602
 20
465.600124
 30
0.0
 11
117.506602
 21
466.600124
 31
0.0
  0
LINE
  5
3A8
330
1F
100
AcDbEntity
  8
LC-001-100-D00-0
 62
     7
370
    50
100
AcDbLine
 10
114.555747
 20
467.600123
 30
0.0
 11
114.555747
 21
465.600124
 31
0.0
  0
LINE
  5
3A9
330
1F
100
AcDbEntity
  8
LC-001-100-D00-0
 62
     7
370
    50
100
AcDbLine
 10
115.261893
 20
467.789334
 30
0.0
 11
114.555747
 21
467.600123
 31
0.0
  0
ARC
  5
3AA
330
1F
100
AcDbEntity
  8
LC-001-100-D00-0
 62
     7
370
    50
100
AcDbCircle
 10
115.106602
 20
468.36889
 30
0.0
 40
0.600000000000118
100
AcDbArc
 50
285.0
 51
0.0
  0
LINE
  5
3AB
330
1F
100
AcDbEntity
  8
LC-001-100-D00-0
 62
     7
370
    50
100
AcDbLine
 10
115.706602
 20
470.831357
 30
0.0
 11
115.706602
 21
468.36889
 31
0.0
  0
ARC
  5
3AC
330
1F
100
AcDbEntity
  8
LC-001-100-D00-0
 62
     7
370
    50
100
AcDbCircle
 10
115.106602
 20
470.831357
 30
0.0
 40
0.6000000000003638
100
AcDbArc
 50
0.0
 51
75.0
  0
LINE
  5
3AD
330
1F
100
AcDbEntity
  8
LC-001-100-D00-0
 62
     7
370
    50
100
AcDbLine
 10
114.555747
 20
471.600123
 30
0.0
 11
115.261893
 21
471.410913
 31
0.0
  0
LINE
  5
3AE
330
1F
100
AcDbEntity
  8
LC-001-100-D00-0
 62
     7
370
    50
100
AcDbLine
 10
114.555747
 20
473.600124
 30
0.0
 11
114.555747
 21
471.600123
 31
0.0
  0
LINE
  5
3AF
330
1F
100
AcDbEntity
  8
LC-001-100-D00-0
 62
     7
370
    50
100
AcDbLine
 10
114.555747
 20
465.600124
 30
0.0
 11
116.506602
 21
465.600124
 31
0.0
  0
LINE
  5
3B0
330
1F
100
AcDbEntity
  8
LC-001-100-D00-0
 62
     7
370
    50
100
AcDbLine
 10
114.555747
 20
473.600124
 30
0.0
 11
116.506607
 21
473.600124
 31
0.0
  0
LINE
  5
3B1
330
1F
100
AcDbEntity
  8
LC-001-100-D00-0
 62
     7
370
    50
100
AcDbLine
 10
126.106602
 20
468.36889
 30
0.0
 11
126.106602
 21
470.831357
 31
0.0
  0
ARC
  5
3B2
330
1F
100
AcDbEntity
  8
LC-001-100-D00-0
 62
     7
370
    50
100
AcDbCircle
 10
126.706602
 20
468.36889
 30
0.0
 40
0.5999999999999091
100
AcDbArc
 50
180.0
 51
255.0
  0
LINE
  5
3B3
330
1F
100
AcDbEntity
  8
LC-001-100-D00-0
 62
     7
370
    50
100
AcDbLine
 10
127.257467
 20
467.600123
 30
0.0
 11
126.55131
 21
467.789334
 31
0.0
  0
LINE
  5
3B4
330
1F
100
AcDbEntity
  8
LC-001-100-D00-0
 62
     7
370
    50
100
AcDbLine
 10
127.257467
 20
467.600123
 30
0.0
 11
127.257467
 21
465.600124
 31
0.0
  0
LINE
  5
3B5
330
1F
100
AcDbEntity
  8
LC-001-100-D00-0
 62
     7
370
    50
100
AcDbLine
 10
124.306602
 20
466.600124
 30
0.0
 11
125.306602
 21
465.600124
 31
0.0
  0
LINE
  5
3B6
330
1F
100
AcDbEntity
  8
LC-001-100-D00-0
 62
     7
370
    50
100
AcDbLine
 10
124.306602
 20
466.600124
 30
0.0
 11
124.30659
 21
472.600123
 31
0.0
  0
LINE
  5
3B7
330
1F
100
AcDbEntity
  8
LC-001-100-D00-0
 62
     7
370
    50
100
AcDbLine
 10
125.306607
 20
473.600124
 30
0.0
 11
124.30659
 21
472.600123
 31
0.0
  0
LINE
  5
3B8
330
1F
100
AcDbEntity
  8
LC-001-100-D00-0
 62
     7
370
    50
100
AcDbLine
 10
127.257467
 20
473.600124
 30
0.0
 11
127.257467
 21
471.600123
 31
0.0
  0
LINE
  5
3B9
330
1F
100
AcDbEntity
  8
LC-001-100-D00-0
 62
     7
370
    50
100
AcDbLine
 10
126.55131
 20
471.410913
 30
0.0
 11
127.257467
 21
471.600123
 31
0.0
  0
ARC
  5
3BA
330
1F
100
AcDbEntity
  8
LC-001-100-D00-0
 62
     7
370
    50
100
AcDbCircle
 10
126.706602
 20
470.831357
 30
0.0
 40
0.6000000000003082
100
AcDbArc
 50
105.0
 51
180.0
  0
LINE
  5
3BB
330
1F
100
AcDbEntity
  8
LC-001-100-D00-0
 62
     7
370
    50
100
AcDbLine
 10
125.306602
 20
465.600124
 30
0.0
 11
127.257467
 21
465.600124
 31
0.0
  0
LINE
  5
3BC
330
1F
100
AcDbEntity
  8
LC-001-100-D00-0
 62
     7
370
    50
100
AcDbLine
 10
125.306607
 20
473.600124
 30
0.0
 11
127.257467
 21
473.600124
 31
0.0
  0
LINE
  5
3BD
330
1F
100
AcDbEntity
  8
LC-001-100-D00-0
 62
     7
370
    50
100
AcDbLine
 10
117.506602
 20
466.600124
 30
0.0
 11
117.664441
 21
466.600124
 31
0.0
  0
LINE
  5
3BE
330
1F
100
AcDbEntity
  8
LC-001-100-D00-0
 62
     7
370
    50
100
AcDbLine
 10
124.148762
 20
466.600124
 30
0.0
 11
124.306602
 21
466.600124
 31
0.0
  0
LINE
  5
3BF
330
1F
100
AcDbEntity
  8
LC-001-100-D00-0
 62
     7
370
    50
100
AcDbLine
 10
125.306602
 20
465.600124
 30
0.0
 11
124.77082
 21
465.600124
 31
0.0
  0
LINE
  5
3C0
330
1F
100
AcDbEntity
  8
LC-001-100-D00-0
 62
     7
370
    50
100
AcDbLine
 10
117.042384
 20
465.600124
 30
0.0
 11
116.506602
 21
465.600124
 31
0.0
  0
LINE
  5
3C1
330
1F
100
AcDbEntity
  8
LC-001-100-D00-0
 62
     7
370
    50
100
AcDbLine
 10
127.257467
 20
473.600124
 30
0.0
 11
124.806614
 21
473.600124
 31
0.0
  0
LINE
  5
3C2
330
1F
100
AcDbEntity
  8
LC-001-100-D00-0
 62
     7
370
    50
100
AcDbLine
 10
124.806614
 20
473.600124
 30
0.0
 11
124.806602
 21
484.600124
 31
0.0
  0
LINE
  5
3C3
330
1F
100
AcDbEntity
  8
LC-001-100-D00-0
 62
     7
370
    50
100
AcDbLine
 10
124.806602
 20
484.600124
 30
0.0
 11
138.156602
 21
484.600124
 31
0.0
  0
ARC
  5
3C4
330
1F
100
AcDbEntity
  8
LC-001-100-D00-0
 62
     7
370
    50
100
AcDbCircle
 10
138.156602
 20
483.600124
 30
0.0
 40
0.9999999999998863
100
AcDbArc
 50
0.0
 51
90.0
  0
LINE
  5
3C5
330
1F
100
AcDbEntity
  8
LC-001-100-D00-0
 62
     7
370
    50
100
AcDbLine
 10
139.156602
 20
483.600124
 30
0.0
 11
139.156611
 21
477.600123
 31
0.0
  0
LINE
  5
3C6
330
1F
100
AcDbEntity
  8
LC-001-100-D00-0
 62
     7
370
    50
100
AcDbLine
 10
136.156602
 20
477.600124
 30
0.0
 11
139.156611
 21
477.600123
 31
0.0
  0
LINE
  5
3C7
330
1F
100
AcDbEntity
  8
LC-001-100-D00-0
 62
     7
370
    50
100
AcDbLine
 10
136.156602
 20
477.600124
 30
0.0
 11
136.15659
 21
481.600124
 31
0.0
  0
LINE
  5
3C8
330
1F
100
AcDbEntity
  8
LC-001-100-D00-0
 62
     7
370
    50
100
AcDbLine
 10
131.656602
 20
481.600124
 30
0.0
 11
136.15659
 21
481.600124
 31
0.0
  0
ARC
  5
3C9
330
1F
100
AcDbEntity
  8
LC-001-100-D00-0
 62
     7
370
    50
100
AcDbCircle
 10
131.656602
 20
480.600124
 30
0.0
 40
1.000000000000227
100
AcDbArc
 50
90.0
 51
180.0
  0
LINE
  5
3CA
330
1F
100
AcDbEntity
  8
LC-001-100-D00-0
 62
     7
370
    50
100
AcDbLine
 10
130.656602
 20
466.600124
 30
0.0
 11
130.656602
 21
480.600124
 31
0.0
  0
ARC
  5
3CB
330
1F
100
AcDbEntity
  8
LC-001-100-D00-0
 62
     7
370
    50
100
AcDbCircle
 10
129.656602
 20
466.600124
 30
0.0
 40
1.000000000000227
100
AcDbArc
 50
270.0
 51
0.0
  0
LINE
  5
3CC
330
1F
100
AcDbEntity
  8
LC-001-100-D00-0
 62
     7
370
    50
100
AcDbLine
 10
129.656602
 20
465.600124
 30
0.0
 11
127.257467
 21
465.600124
 31
0.0
  0
LINE
  5
3CD
330
1F
100
AcDbEntity
  8
LC-001-100-D00-0
 62
     7
370
    50
100
AcDbLine
 10
127.257467
 20
467.600123
 30
0.0
 11
127.257467
 21
465.600124
 31
0.0
  0
LINE
  5
3CE
330
1F
100
AcDbEntity
  8
LC-001-100-D00-0
 62
     7
370
    50
100
AcDbLine
 10
126.606602
 20
467.600124
 30
0.0
 11
127.257467
 21
467.600123
 31
0.0
  0
ARC
  5
3CF
330
1F
100
AcDbEntity
  8
LC-001-100-D00-0
 62
     7
370
    50
100
AcDbCircle
 10
126.606602
 20
468.100124
 30
0.0
 40
0.4999999999998863
100
AcDbArc
 50
180.0
 51
270.0
  0
LINE
  5
3D0
330
1F
100
AcDbEntity
  8
LC-001-100-D00-0
 62
     7
370
    50
100
AcDbLine
 10
126.106602
 20
471.100124
 30
0.0
 11
126.106602
 21
468.100124
 31
0.0
  0
ARC
  5
3D1
330
1F
100
AcDbEntity
  8
LC-001-100-D00-0
 62
     7
370
    50
100
AcDbCircle
 10
126.606602
 20
471.100124
 30
0.0
 40
0.5000000000002274
100
AcDbArc
 50
90.0
 51
180.0
  0
LINE
  5
3D2
330
1F
100
AcDbEntity
  8
LC-001-100-D00-0
 62
     7
370
    50
100
AcDbLine
 10
127.257467
 20
471.600123
 30
0.0
 11
126.606602
 21
471.600124
 31
0.0
  0
LINE
  5
3D3
330
1F
100
AcDbEntity
  8
LC-001-100-D00-0
 62
     7
370
    50
100
AcDbLine
 10
127.257467
 20
473.600124
 30
0.0
 11
127.257467
 21
471.600123
 31
0.0
  0
ARC
  5
3D4
330
1F
100
AcDbEntity
  8
LC-001-100-D00-0
 62
     7
370
    50
100
AcDbCircle
 10
110.156602
 20
480.600124
 30
0.0
 40
1.000000000000227
100
AcDbArc
 50
0.0
 51
90.0
  0
ARC
  5
3D5
330
1F
100
AcDbEntity
  8
LC-001-100-D00-0
 62
     7
370
    50
100
AcDbCircle
 10
112.156602
 20
466.600124
 30
0.0
 40
1.000000000000227
100
AcDbArc
 50
180.0
 51
270.0
  0
LINE
  5
3D6
330
1F
100
AcDbEntity
  8
LC-001-100-D00-0
 62
     7
370
    50
100
AcDbLine
 10
111.156602
 20
480.600124
 30
0.0
 11
111.156602
 21
466.600124
 31
0.0
  0
LINE
  5
3D7
330
1F
100
AcDbEntity
  8
LC-001-100-D00-0
 62
     7
370
    50
100
AcDbLine
 10
117.006602
 20
484.600124
 30
0.0
 11
117.006601
 21
473.600124
 31
0.0
  0
LINE
  5
3D8
330
1F
100
AcDbEntity
  8
LC-001-100-D00-0
 62
     7
370
    50
100
AcDbLine
 10
117.006602
 20
484.600124
 30
0.0
 11
124.806602
 21
484.600124
 31
0.0
  0
LINE
  5
3D9
330
1F
100
AcDbEntity
  8
LC-001-100-D00-0
 62
     7
370
    50
100
AcDbLine
 10
115.706602
 20
468.100124
 30
0.0
 11
115.706602
 21
471.100124
 31
0.0
  0
ARC
  5
3DA
330
1F
100
AcDbEntity
  8
LC-001-100-D00-0
 62
     7
370
    50
100
AcDbCircle
 10
115.206602
 20
468.100124
 30
0.0
 40
0.5
100
AcDbArc
 50
270.0
 51
0.0
  0
LINE
  5
3DB
330
1F
100
AcDbEntity
  8
LC-001-100-D00-0
 62
     7
370
    50
100
AcDbLine
 10
114.555747
 20
467.600123
 30
0.0
 11
115.206602
 21
467.600124
 31
0.0
  0
LINE
  5
3DC
330
1F
100
AcDbEntity
  8
LC-001-100-D00-0
 62
     7
370
    50
100
AcDbLine
 10
114.555747
 20
467.600123
 30
0.0
 11
114.555747
 21
465.600124
 31
0.0
  0
LINE
  5
3DD
330
1F
100
AcDbEntity
  8
LC-001-100-D00-0
 62
     7
370
    50
100
AcDbLine
 10
105.656595
 20
481.600124
 30
0.0
 11
105.656602
 21
477.600124
 31
0.0
  0
LINE
  5
3DE
330
1F
100
AcDbEntity
  8
LC-001-100-D00-0
 62
     7
370
    50
100
AcDbLine
 10
102.656604
 20
477.600123
 30
0.0
 11
102.656602
 21
483.600124
 31
0.0
  0
ARC
  5
3DF
330
1F
100
AcDbEntity
  8
LC-001-100-D00-0
 62
     7
370
    50
100
AcDbCircle
 10
103.656602
 20
483.600124
 30
0.0
 40
0.9999999999997726
100
AcDbArc
 50
90.0
 51
180.0
  0
LINE
  5
3E0
330
1F
100
AcDbEntity
  8
LC-001-100-D00-0
 62
     7
370
    50
100
AcDbLine
 10
114.555747
 20
473.600124
 30
0.0
 11
114.555747
 21
471.600123
 31
0.0
  0
LINE
  5
3E1
330
1F
100
AcDbEntity
  8
LC-001-100-D00-0
 62
     7
370
    50
100
AcDbLine
 10
115.206602
 20
471.600124
 30
0.0
 11
114.555747
 21
471.600123
 31
0.0
  0
ARC
  5
3E2
330
1F
100
AcDbEntity
  8
LC-001-100-D00-0
 62
     7
370
    50
100
AcDbCircle
 10
115.206602
 20
471.100124
 30
0.0
 40
0.5000000000004548
100
AcDbArc
 50
0.0
 51
90.0
  0
LINE
  5
3E3
330
1F
100
AcDbEntity
  8
LC-001-100-D00-0
 62
     7
370
    50
100
AcDbLine
 10
114.555747
 20
465.600124
 30
0.0
 11
112.156602
 21
465.600124
 31
0.0
  0
LINE
  5
3E4
330
1F
100
AcDbEntity
  8
LC-001-100-D00-0
 62
     7
370
    50
100
AcDbLine
 10
117.006601
 20
473.600124
 30
0.0
 11
114.555747
 21
473.600124
 31
0.0
  0
LINE
  5
3E5
330
1F
100
AcDbEntity
  8
LC-001-100-D00-0
 62
     7
370
    50
100
AcDbLine
 10
105.656595
 20
481.600124
 30
0.0
 11
110.156602
 21
481.600124
 31
0.0
  0
LINE
  5
3E6
330
1F
100
AcDbEntity
  8
LC-001-100-D00-0
 62
     7
370
    50
100
AcDbLine
 10
103.656602
 20
484.600124
 30
0.0
 11
117.006602
 21
484.600124
 31
0.0
  0
LINE
  5
3E7
330
1F
100
AcDbEntity
  8
LC-001-100-D00-0
 62
     7
370
    50
100
AcDbLine
 10
102.656604
 20
477.600123
 30
0.0
 11
105.656602
 21
477.600124
 31
0.0
  0
LINE
  5
3E8
330
1F
100
AcDbEntity
  8
LC-001-100-D00-0
 62
     7
370
    50
100
AcDbLine
 10
134.156602
 20
477.600124
 30
0.0
 11
136.156602
 21
477.600124
 31
0.0
  0
LINE
  5
3E9
330
1F
100
AcDbEntity
  8
LC-001-100-D00-0
 62
     7
370
    50
100
AcDbLine
 10
105.656602
 20
477.600124
 30
0.0
 11
107.656602
 21
477.600124
 31
0.0
  0
LINE
  5
3EA
330
1F
100
AcDbEntity
  8
LC-001-100-D00-0
 62
     7
370
    50
100
AcDbLine
 10
107.656602
 20
477.600124
 30
0.0
 11
111.156614
 21
477.600123
 31
0.0
  0
LINE
  5
3EB
330
1F
100
AcDbEntity
  8
LC-001-100-D00-0
 62
     7
370
    50
100
AcDbLine
 10
130.656601
 20
477.600123
 30
0.0
 11
134.156602
 21
477.600124
 31
0.0
  0
LINE
  5
3EC
330
1F
100
AcDbEntity
  8
LC-001-100-D00-0
 62
     7
370
    50
100
AcDbLine
 10
-83.465262
 20
453.85082
 30
0.0
 11
-80.458477
 21
454.518995
 31
0.0
  0
ARC
  5
3ED
330
1F
100
AcDbEntity
  8
LC-001-100-D00-0
 62
     7
370
    50
100
AcDbCircle
 10
-83.530341
 20
454.143677
 30
0.0
 40
0.3000000000000399
100
AcDbArc
 50
131.633539
 51
282.528808
  0
LINE
  5
3EE
330
1F
100
AcDbEntity
  8
LC-001-100-D00-0
 62
     7
370
    25
100
AcDbLine
 10
-80.377563
 20
457.347533
 30
0.0
 11
-83.72965
 21
454.367899
 31
0.0
  0
ARC
  5
3EF
330
1F
100
AcDbEntity
  8
LC-001-100-D00-0
 62
     7
370
    50
100
AcDbCircle
 10
-79.713199
 20
456.600124
 30
0.0
 40
0.9999999999997726
100
AcDbArc
 50
90.0
 51
131.633539
  0
LINE
  5
3F0
330
1F
100
AcDbEntity
  8
LC-001-100-D00-0
 62
     7
370
    50
100
AcDbLine
 10
-74.093401
 20
457.600123
 30
0.0
 11
-74.093401
 21
453.600124
 31
0.0
  0
LINE
  5
3F1
330
1F
100
AcDbEntity
  8
LC-001-100-D00-0
 62
     7
370
    50
100
AcDbLine
 10
-80.093398
 20
454.226139
 30
0.0
 11
-80.093398
 21
453.600124
 31
0.0
  0
ARC
  5
3F2
330
1F
100
AcDbEntity
  8
LC-001-100-D00-0
 62
     7
370
    50
100
AcDbCircle
 10
-80.393398
 20
454.226139
 30
0.0
 40
0.3000000000001819
100
AcDbArc
 50
0.0
 51
102.528808
  0
LINE
  5
3F3
330
1F
100
AcDbEntity
  8
LC-001-100-D00-0
 62
     7
370
    50
100
AcDbLine
 10
-74.093401
 20
457.600123
 30
0.0
 11
-79.713199
 21
457.600124
 31
0.0
  0
LINE
  5
3F4
330
1F
100
AcDbEntity
  8
LC-001-100-D00-0
 62
     7
370
    50
100
AcDbLine
 10
-74.093401
 20
453.600124
 30
0.0
 11
-80.093398
 21
453.600124
 31
0.0
  0
LINE
  5
3F5
330
1F
100
AcDbEntity
  8
LC-001-100-D00-0
 62
     7
370
    50
100
AcDbLine
 10
-80.093398
 20
453.600124
 30
0.0
 11
-82.293398
 21
453.600124
 31
0.0
  0
LINE
  5
3F6
330
1F
100
AcDbEntity
  8
LC-001-100-D00-0
 62
     7
370
    50
100
AcDbLine
 10
-198.093398
 20
453.600124
 30
0.0
 11
-198.093398
 21
454.226139
 31
0.0
  0
LINE
  5
3F7
330
1F
100
AcDbEntity
  8
LC-001-100-D00-0
 62
     7
370
    50
100
AcDbLine
 10
-195.893398
 20
453.600124
 30
0.0
 11
-198.093398
 21
453.600124
 31
0.0
  0
LINE
  5
3F8
330
1F
100
AcDbEntity
  8
LC-001-100-D00-0
 62
     7
370
    50
100
AcDbLine
 10
-194.457146
 20
454.367899
 30
0.0
 11
-197.809234
 21
457.347533
 31
0.0
  0
LINE
  5
3F9
330
1F
100
AcDbEntity
  8
LC-001-100-D00-0
 62
     7
370
    50
100
AcDbLine
 10
-197.728319
 20
454.518995
 30
0.0
 11
-194.721534
 21
453.85082
 31
0.0
  0
ARC
  5
3FA
330
1F
100
AcDbEntity
  8
LC-001-100-D00-0
 62
     7
370
    50
100
AcDbCircle
 10
-197.793398
 20
454.226139
 30
0.0
 40
0.3000000000001588
100
AcDbArc
 50
77.471192
 51
180.0
  0
ARC
  5
3FB
330
1F
100
AcDbEntity
  8
LC-001-100-D00-0
 62
     7
370
    50
100
AcDbCircle
 10
-198.473597
 20
456.600124
 30
0.0
 40
0.999999999999749
100
AcDbArc
 50
48.366461
 51
90.0
  0
ARC
  5
3FC
330
1F
100
AcDbEntity
  8
LC-001-100-D00-0
 62
     7
370
    50
100
AcDbCircle
 10
-194.656455
 20
454.143677
 30
0.0
 40
0.3000000000000355
100
AcDbArc
 50
257.471192
 51
48.366461
  0
LINE
  5
3FD
330
1F
100
AcDbEntity
  8
LC-001-100-D00-0
 62
     7
370
    50
100
AcDbLine
 10
-204.093396
 20
453.600124
 30
0.0
 11
-204.093396
 21
457.600123
 31
0.0
  0
LINE
  5
3FE
330
1F
100
AcDbEntity
  8
LC-001-100-D00-0
 62
     7
370
    50
100
AcDbLine
 10
-198.473597
 20
457.600124
 30
0.0
 11
-204.093396
 21
457.600123
 31
0.0
  0
LINE
  5
3FF
330
1F
100
AcDbEntity
  8
LC-001-100-D00-0
 62
     7
370
    50
100
AcDbLine
 10
-198.093398
 20
453.600124
 30
0.0
 11
-204.093396
 21
453.600124
 31
0.0
  0
LINE
  5
400
330
1F
100
AcDbEntity
  8
LC-001-100-D00-0
 62
     7
370
    50
100
AcDbLine
 10
-65.093397
 20
457.600123
 30
0.0
 11
-65.093397
 21
453.850123
 31
0.0
  0
LINE
  5
401
330
1F
100
AcDbEntity
  8
LC-001-100-D00-0
 62
     7
370
    50
100
AcDbLine
 10
-68.093396
 20
454.600124
 30
0.0
 11
-68.093398
 21
453.850124
 31
0.0
  0
LINE
  5
402
330
1F
100
AcDbEntity
  8
LC-001-100-D00-0
 62
     7
370
    50
100
AcDbLine
 10
-71.093394
 20
454.600124
 30
0.0
 11
-71.093394
 21
450.600122
 31
0.0
  0
LINE
  5
403
330
1F
100
AcDbEntity
  8
LC-001-100-D00-0
 62
     7
370
    50
100
AcDbLine
 10
-77.093398
 20
450.600124
 30
0.0
 11
-71.093394
 21
450.600122
 31
0.0
  0
LINE
  5
404
330
1F
100
AcDbEntity
  8
LC-001-100-D00-0
 62
     7
370
    50
100
AcDbLine
 10
-77.093399
 20
453.600124
 30
0.0
 11
-77.093398
 21
450.600124
 31
0.0
  0
LINE
  5
405
330
1F
100
AcDbEntity
  8
LC-001-100-D00-0
 62
     7
370
    50
100
AcDbLine
 10
-74.093401
 20
453.600124
 30
0.0
 11
-77.093399
 21
453.600124
 31
0.0
  0
LINE
  5
406
330
1F
100
AcDbEntity
  8
LC-001-100-D00-0
 62
     7
370
    50
100
AcDbLine
 10
-74.093401
 20
453.600124
 30
0.0
 11
-74.093401
 21
457.600123
 31
0.0
  0
LINE
  5
407
330
1F
100
AcDbEntity
  8
LC-001-100-D00-0
 62
     7
370
    50
100
AcDbLine
 10
-71.093394
 20
454.600124
 30
0.0
 11
-68.093396
 21
454.600124
 31
0.0
  0
LINE
  5
408
330
1F
100
AcDbEntity
  8
LC-001-100-D00-0
 62
     7
370
    50
100
AcDbLine
 10
-65.093397
 20
457.600123
 30
0.0
 11
-74.093401
 21
457.600123
 31
0.0
  0
LINE
  5
409
330
1F
100
AcDbEntity
  8
LC-001-100-D00-0
 62
     7
370
    50
100
AcDbLine
 10
-68.093398
 20
453.850124
 30
0.0
 11
-65.093397
 21
453.850123
 31
0.0
  0
LINE
  5
40A
330
1F
100
AcDbEntity
  8
LC-001-100-D00-0
 62
     7
370
    50
100
AcDbLine
 10
-71.093398
 20
453.850124
 30
0.0
 11
-68.093398
 21
453.850124
 31
0.0
  0
LINE
  5
40B
330
1F
100
AcDbEntity
  8
LC-001-100-D00-0
 62
     7
370
    50
100
AcDbLine
 10
-83.993398
 20
450.600124
 30
0.0
 11
-77.093398
 21
450.600124
 31
0.0
  0
LINE
  5
40C
330
1F
100
AcDbEntity
  8
LC-001-100-D00-0
 62
     7
370
    50
100
AcDbLine
 10
-201.093398
 20
450.600124
 30
0.0
 11
-201.093397
 21
453.600124
 31
0.0
  0
LINE
  5
40D
330
1F
100
AcDbEntity
  8
LC-001-100-D00-0
 62
     7
370
    50
100
AcDbLine
 10
-201.093398
 20
450.600124
 30
0.0
 11
-194.193398
 21
450.600124
 31
0.0
  0
LINE
  5
40E
330
1F
100
AcDbEntity
  8
LC-001-100-D00-0
 62
     7
370
    50
100
AcDbLine
 10
-204.093396
 20
457.600123
 30
0.0
 11
-204.093396
 21
453.600124
 31
0.0
  0
LINE
  5
40F
330
1F
100
AcDbEntity
  8
LC-001-100-D00-0
 62
     7
370
    50
100
AcDbLine
 10
-207.093402
 20
450.600122
 30
0.0
 11
-207.093402
 21
454.600124
 31
0.0
  0
LINE
  5
410
330
1F
100
AcDbEntity
  8
LC-001-100-D00-0
 62
     7
370
    50
100
AcDbLine
 10
-210.093398
 20
453.850124
 30
0.0
 11
-210.0934
 21
454.600124
 31
0.0
  0
LINE
  5
411
330
1F
100
AcDbEntity
  8
LC-001-100-D00-0
 62
     7
370
    50
100
AcDbLine
 10
-210.093398
 20
453.850124
 30
0.0
 11
-207.093398
 21
453.850124
 31
0.0
  0
LINE
  5
412
330
1F
100
AcDbEntity
  8
LC-001-100-D00-0
 62
     7
370
    50
100
AcDbLine
 10
-213.093399
 20
453.850123
 30
0.0
 11
-213.093399
 21
457.600123
 31
0.0
  0
LINE
  5
413
330
1F
100
AcDbEntity
  8
LC-001-100-D00-0
 62
     7
370
    50
100
AcDbLine
 10
-201.093397
 20
453.600124
 30
0.0
 11
-204.093396
 21
453.600124
 31
0.0
  0
LINE
  5
414
330
1F
100
AcDbEntity
  8
LC-001-100-D00-0
 62
     7
370
    50
100
AcDbLine
 10
-207.093402
 20
450.600122
 30
0.0
 11
-201.093398
 21
450.600124
 31
0.0
  0
LINE
  5
415
330
1F
100
AcDbEntity
  8
LC-001-100-D00-0
 62
     7
370
    50
100
AcDbLine
 10
-210.0934
 20
454.600124
 30
0.0
 11
-207.093402
 21
454.600124
 31
0.0
  0
LINE
  5
416
330
1F
100
AcDbEntity
  8
LC-001-100-D00-0
 62
     7
370
    50
100
AcDbLine
 10
-204.093396
 20
457.600123
 30
0.0
 11
-213.093399
 21
457.600123
 31
0.0
  0
LINE
  5
417
330
1F
100
AcDbEntity
  8
LC-001-100-D00-0
 62
     7
370
    50
100
AcDbLine
 10
-213.093399
 20
453.850123
 30
0.0
 11
-210.093398
 21
453.850124
 31
0.0
  0
LINE
  5
418
330
1F
100
AcDbEntity
  8
LC-001-100-D00-0
 62
     7
370
    50
100
AcDbLine
 10
-65.093397
 20
453.100123
 30
0.0
 11
-54.093397
 21
453.100123
 31
0.0
  0
LINE
  5
419
330
1F
100
AcDbEntity
  8
LC-001-100-D00-0
 62
     7
370
    50
100
AcDbLine
 10
-54.093397
 20
401.100126
 30
0.0
 11
-65.093397
 21
401.100126
 31
0.0
  0
LINE
  5
41A
330
1F
100
AcDbEntity
  8
LC-001-100-D00-0
 62
     7
370
    50
100
AcDbLine
 10
-65.093397
 20
453.850123
 30
0.0
 11
-65.093397
 21
453.100123
 31
0.0
  0
INSERT
  5
42B
330
1F
100
AcDbEntity
  8
LC-001-100-D00-0
 62
     7
370
    50
100
AcDbBlockReference
  2
KLON15
 10
0.0
 20
0.0
 30
0.0
  0
INSERT
  5
43F
330
1F
100
AcDbEntity
  8
LC-001-100-D00-0
 62
     7
370
    50
100
AcDbBlockReference
  2
KLON16
 10
0.0
 20
0.0
 30
0.0
  0
LINE
  5
440
330
1F
100
AcDbEntity
  8
LC-001-100-D00-0
 62
     7
370
    50
100
AcDbLine
 10
-68.093396
 20
450.100124
 30
0.0
 11
-26.196212
 21
450.100124
 31
0.0
  0
LINE
  5
441
330
1F
100
AcDbEntity
  8
LC-001-100-D00-0
 62
     7
370
    50
100
AcDbLine
 10
-26.196212
 20
404.100124
 30
0.0
 11
-26.196212
 21
450.100124
 31
0.0
  0
LINE
  5
442
330
1F
100
AcDbEntity
  8
LC-001-100-D00-0
 62
     7
370
    50
100
AcDbLine
 10
-26.196212
 20
404.100124
 30
0.0
 11
-65.093397
 21
404.100124
 31
0.0
  0
INSERT
  5
448
330
1F
100
AcDbEntity
  8
LC-001-100-D00-0
 62
     7
370
    50
100
AcDbBlockReference
  2
KLON17
 10
0.0
 20
0.0
 30
0.0
  0
LINE
  5
449
330
1F
100
AcDbEntity
  8
LC-001-100-D00-0
 62
     7
370
    50
100
AcDbLine
 10
-68.093398
 20
453.850124
 30
0.0
 11
-71.093398
 21
453.850124
 31
0.0
  0
LINE
  5
44A
330
1F
100
AcDbEntity
  8
LC-001-100-D00-0
 62
     7
370
    50
100
AcDbLine
 10
-68.093398
 20
453.850124
 30
0.0
 11
-68.093396
 21
450.100124
 31
0.0
  0
LINE
  5
44B
330
1F
100
AcDbEntity
  8
LC-001-100-D00-0
 62
     7
370
    50
100
AcDbLine
 10
-78.093398
 20
401.100124
 30
0.0
 11
-65.093397
 21
401.100126
 31
0.0
  0
ARC
  5
44C
330
1F
100
AcDbEntity
  8
LC-001-100-D00-0
 62
     7
370
    50
100
AcDbCircle
 10
-85.075518
 20
401.600124
 30
0.0
 40
7.000000000000227
100
AcDbArc
 50
270.0
 51
355.903956
  0
LINE
  5
44D
330
1F
100
AcDbEntity
  8
LC-001-100-D00-0
 62
     7
370
    50
100
AcDbLine
 10
-85.075518
 20
394.600124
 30
0.0
 11
-193.111278
 21
394.600124
 31
0.0
  0
ARC
  5
44E
330
1F
100
AcDbEntity
  8
LC-001-100-D00-0
 62
     7
370
    50
100
AcDbCircle
 10
-193.111278
 20
401.600124
 30
0.0
 40
7.000000000000073
100
AcDbArc
 50
184.096044
 51
270.0
  0
LINE
  5
44F
330
1F
100
AcDbEntity
  8
LC-001-100-D00-0
 62
     7
370
    50
100
AcDbLine
 10
-200.593398
 20
401.100124
 30
0.0
 11
-200.093398
 21
401.100124
 31
0.0
  0
ARC
  5
450
330
1F
100
AcDbEntity
  8
LC-001-100-D00-0
 62
     7
370
    50
100
AcDbCircle
 10
-200.593398
 20
413.600124
 30
0.0
 40
12.5
100
AcDbArc
 50
180.0
 51
270.0
  0
LINE
  5
451
330
1F
100
AcDbEntity
  8
LC-001-100-D00-0
 62
     7
370
    50
100
AcDbLine
 10
-213.093398
 20
413.600124
 30
0.0
 11
-213.093399
 21
453.850123
 31
0.0
  0
LINE
  5
452
330
1F
100
AcDbEntity
  8
LC-001-100-D00-0
 62
     7
370
    50
100
AcDbLine
 10
-213.093399
 20
453.850123
 30
0.0
 11
-210.093398
 21
453.850124
 31
0.0
  0
LINE
  5
453
330
1F
100
AcDbEntity
  8
LC-001-100-D00-0
 62
     7
370
    50
100
AcDbLine
 10
-210.093398
 20
413.600124
 30
0.0
 11
-210.093398
 21
453.850124
 31
0.0
  0
ARC
  5
454
330
1F
100
AcDbEntity
  8
LC-001-100-D00-0
 62
     7
370
    50
100
AcDbCircle
 10
-200.593398
 20
413.600124
 30
0.0
 40
9.5
100
AcDbArc
 50
180.0
 51
270.0
  0
LINE
  5
455
330
1F
100
AcDbEntity
  8
LC-001-100-D00-0
 62
     7
370
    50
100
AcDbLine
 10
-200.593398
 20
404.100124
 30
0.0
 11
-198.093398
 21
404.100124
 31
0.0
  0
ARC
  5
456
330
1F
100
AcDbEntity
  8
LC-001-100-D00-0
 62
     7
370
    50
100
AcDbCircle
 10
-198.093398
 20
403.100124
 30
0.0
 40
1.0
100
AcDbArc
 50
0.0
 51
90.0
  0
LINE
  5
457
330
1F
100
AcDbEntity
  8
LC-001-100-D00-0
 62
     7
370
    50
100
AcDbLine
 10
-197.093398
 20
403.100124
 30
0.0
 11
-197.093398
 21
401.600124
 31
0.0
  0
ARC
  5
458
330
1F
100
AcDbEntity
  8
LC-001-100-D00-0
 62
     7
370
    50
100
AcDbCircle
 10
-193.093398
 20
401.600124
 30
0.0
 40
4.0
100
AcDbArc
 50
180.0
 51
270.0
  0
LINE
  5
459
330
1F
100
AcDbEntity
  8
LC-001-100-D00-0
 62
     7
370
    50
100
AcDbLine
 10
-85.093398
 20
397.600124
 30
0.0
 11
-193.093398
 21
397.600124
 31
0.0
  0
ARC
  5
45A
330
1F
100
AcDbEntity
  8
LC-001-100-D00-0
 62
     7
370
    50
100
AcDbCircle
 10
-85.093398
 20
401.600124
 30
0.0
 40
4.000000000000227
100
AcDbArc
 50
270.0
 51
0.0
  0
LINE
  5
45B
330
1F
100
AcDbEntity
  8
LC-001-100-D00-0
 62
     7
370
    50
100
AcDbLine
 10
-81.093398
 20
401.600124
 30
0.0
 11
-81.093398
 21
403.100124
 31
0.0
  0
ARC
  5
45C
330
1F
100
AcDbEntity
  8
LC-001-100-D00-0
 62
     7
370
    50
100
AcDbCircle
 10
-80.093398
 20
403.100124
 30
0.0
 40
1.0
100
AcDbArc
 50
90.0
 51
180.0
  0
LINE
  5
45D
330
1F
100
AcDbEntity
  8
LC-001-100-D00-0
 62
     7
370
    50
100
AcDbLine
 10
-80.093398
 20
404.100124
 30
0.0
 11
-65.093397
 21
404.100124
 31
0.0
  0
LINE
  5
45E
330
1F
100
AcDbEntity
  8
LC-001-100-D00-0
 62
     7
370
    50
100
AcDbLine
 10
-20.596212
 20
402.599608
 30
0.0
 11
-26.196212
 21
404.100124
 31
0.0
  0
LINE
  5
45F
330
1F
100
AcDbEntity
  8
LC-001-100-D00-0
 62
     7
370
    50
100
AcDbLine
 10
-20.596212
 20
402.165869
 30
0.0
 11
-20.596212
 21
402.599608
 31
0.0
  0
ARC
  5
460
330
1F
100
AcDbEntity
  8
LC-001-100-D00-0
 62
     7
370
    50
100
AcDbCircle
 10
-21.09617
 20
402.165869
 30
0.0
 40
0.4999578796799692
100
AcDbArc
 50
301.198872
 51
0.0
  0
ARC
  5
461
330
1F
100
AcDbEntity
  8
LC-001-100-D00-0
 62
     7
370
    50
100
AcDbCircle
 10
-36.194895
 20
427.097934
 30
0.0
 40
29.64750216706079
100
AcDbArc
 50
292.382556
 51
301.198872
  0
ARC
  5
462
330
1F
100
AcDbEntity
  8
LC-001-100-D00-0
 62
     7
370
    50
100
AcDbCircle
 10
-25.095834
 20
400.146307
 30
0.0
 40
0.4999578796800961
100
AcDbArc
 50
180.0
 51
292.382556
  0
LINE
  5
463
330
1F
100
AcDbEntity
  8
LC-001-100-D00-0
 62
     7
370
    50
100
AcDbLine
 10
-25.595792
 20
401.450166
 30
0.0
 11
-25.595792
 21
400.146307
 31
0.0
  0
ARC
  5
464
330
1F
100
AcDbEntity
  8
LC-001-100-D00-0
 62
     7
370
    50
100
AcDbCircle
 10
-26.09575
 20
401.450166
 30
0.0
 40
0.4999578796798687
100
AcDbArc
 50
0.0
 51
90.0
  0
LINE
  5
465
330
1F
100
AcDbEntity
  8
LC-001-100-D00-0
 62
     7
370
    50
100
AcDbLine
 10
-29.595455
 20
401.950124
 30
0.0
 11
-26.09575
 21
401.950124
 31
0.0
  0
ARC
  5
466
330
1F
100
AcDbEntity
  8
LC-001-100-D00-0
 62
     7
370
    50
100
AcDbCircle
 10
-29.595455
 20
401.450166
 30
0.0
 40
0.4999578796798687
100
AcDbArc
 50
90.0
 51
180.0
  0
LINE
  5
467
330
1F
100
AcDbEntity
  8
LC-001-100-D00-0
 62
     7
370
    50
100
AcDbLine
 10
-30.095413
 20
398.493305
 30
0.0
 11
-30.095413
 21
401.450166
 31
0.0
  0
ARC
  5
468
330
1F
100
AcDbEntity
  8
LC-001-100-D00-0
 62
     7
370
    50
100
AcDbCircle
 10
-30.595371
 20
398.493305
 30
0.0
 40
0.4999578796801155
100
AcDbArc
 50
281.075925
 51
0.0
  0
ARC
  5
469
330
1F
100
AcDbEntity
  8
LC-001-100-D00-0
 62
     7
370
    50
100
AcDbCircle
 10
-36.194895
 20
427.097934
 30
0.0
 40
29.64750432250023
100
AcDbArc
 50
241.270296
 51
281.075925
  0
LINE
  5
46A
330
1F
100
AcDbEntity
  8
LC-001-100-D00-0
 62
     7
370
    50
100
AcDbLine
 10
-51.593601
 20
401.100126
 30
0.0
 11
-50.445803
 21
401.100124
 31
0.0
  0
LINE
  5
46B
330
1F
100
AcDbEntity
  8
LC-001-100-D00-0
 62
     7
370
    50
100
AcDbLine
 10
-51.593601
 20
399.600123
 30
0.0
 11
-51.593601
 21
401.100126
 31
0.0
  0
LINE
  5
46C
330
1F
100
AcDbEntity
  8
LC-001-100-D00-0
 62
     7
370
    50
100
AcDbLine
 10
-54.093397
 20
399.600123
 30
0.0
 11
-51.593601
 21
399.600123
 31
0.0
  0
LINE
  5
46D
330
1F
100
AcDbEntity
  8
LC-001-100-D00-0
 62
     7
370
    50
100
AcDbLine
 10
-54.093397
 20
401.100126
 30
0.0
 11
-54.093397
 21
399.600123
 31
0.0
  0
ARC
  5
46E
330
1F
100
AcDbEntity
  8
LC-001-100-D00-0
 62
     7
370
    50
100
AcDbCircle
 10
-36.194895
 20
427.102314
 30
0.0
 40
29.64750216706081
100
AcDbArc
 50
58.801128
 51
67.617444
  0
ARC
  5
46F
330
1F
100
AcDbEntity
  8
LC-001-100-D00-0
 62
     7
370
    50
100
AcDbCircle
 10
-21.09617
 20
452.034379
 30
0.0
 40
0.4999578796798687
100
AcDbArc
 50
0.0
 51
58.801128
  0
LINE
  5
470
330
1F
100
AcDbEntity
  8
LC-001-100-D00-0
 62
     7
370
    50
100
AcDbLine
 10
-20.596212
 20
451.600639
 30
0.0
 11
-20.596212
 21
402.599608
 31
0.0
  0
LINE
  5
471
330
1F
100
AcDbEntity
  8
LC-001-100-D00-0
 62
     7
370
    50
100
AcDbLine
 10
-26.196212
 20
450.100124
 30
0.0
 11
-20.596212
 21
451.600639
 31
0.0
  0
ARC
  5
472
330
1F
100
AcDbEntity
  8
LC-001-100-D00-0
 62
     7
370
    50
100
AcDbCircle
 10
-26.09575
 20
452.750081
 30
0.0
 40
0.4999578796800961
100
AcDbArc
 50
270.0
 51
0.0
  0
LINE
  5
473
330
1F
100
AcDbEntity
  8
LC-001-100-D00-0
 62
     7
370
    50
100
AcDbLine
 10
-25.595792
 20
454.05394
 30
0.0
 11
-25.595792
 21
452.750081
 31
0.0
  0
ARC
  5
474
330
1F
100
AcDbEntity
  8
LC-001-100-D00-0
 62
     7
370
    50
100
AcDbCircle
 10
-25.095834
 20
454.05394
 30
0.0
 40
0.4999578796801971
100
AcDbArc
 50
67.617444
 51
180.0
  0
LINE
  5
475
330
1F
100
AcDbEntity
  8
LC-001-100-D00-0
 62
     7
370
    50
100
AcDbLine
 10
-68.093398
 20
453.850124
 30
0.0
 11
-65.093397
 21
453.850123
 31
0.0
  0
LINE
  5
476
330
1F
100
AcDbEntity
  8
LC-001-100-D00-0
 62
     7
370
    50
100
AcDbLine
 10
-54.093397
 20
454.600124
 30
0.0
 11
-54.093397
 21
453.100123
 31
0.0
  0
LINE
  5
477
330
1F
100
AcDbEntity
  8
LC-001-100-D00-0
 62
     7
370
    50
100
AcDbLine
 10
-51.593601
 20
454.600124
 30
0.0
 11
-54.093397
 21
454.600124
 31
0.0
  0
ARC
  5
478
330
1F
100
AcDbEntity
  8
LC-001-100-D00-0
 62
     7
370
    50
100
AcDbCircle
 10
-36.23131
 20
427.100124
 30
0.0
 40
31.5000000000002
100
AcDbArc
 50
105.394857
 51
119.188982
  0
LINE
  5
479
330
1F
100
AcDbEntity
  8
LC-001-100-D00-0
 62
     7
370
    50
100
AcDbLine
 10
-44.593601
 20
457.46988
 30
0.0
 11
-44.593601
 21
455.535327
 31
0.0
  0
ARC
  5
47A
330
1F
100
AcDbEntity
  8
LC-001-100-D00-0
 62
     7
370
    50
100
AcDbCircle
 10
-36.194895
 20
427.102314
 30
0.0
 40
29.6475043225003
100
AcDbArc
 50
78.924075
 51
106.456389
  0
ARC
  5
47B
330
1F
100
AcDbEntity
  8
LC-001-100-D00-0
 62
     7
370
    50
100
AcDbCircle
 10
-30.595371
 20
455.706942
 30
0.0
 40
0.4999578796800961
100
AcDbArc
 50
0.0
 51
78.924075
  0
LINE
  5
47C
330
1F
100
AcDbEntity
  8
LC-001-100-D00-0
 62
     7
370
    50
100
AcDbLine
 10
-30.095413
 20
452.750081
 30
0.0
 11
-30.095413
 21
455.706942
 31
0.0
  0
ARC
  5
47D
330
1F
100
AcDbEntity
  8
LC-001-100-D00-0
 62
     7
370
    50
100
AcDbCircle
 10
-29.595455
 20
452.750081
 30
0.0
 40
0.4999578796802098
100
AcDbArc
 50
180.0
 51
270.0
  0
LINE
  5
47E
330
1F
100
AcDbEntity
  8
LC-001-100-D00-0
 62
     7
370
    50
100
AcDbLine
 10
-26.09575
 20
452.250124
 30
0.0
 11
-29.595455
 21
452.250124
 31
0.0
  0
LINE
  5
47F
330
1F
100
AcDbEntity
  8
LC-001-100-D00-0
 62
     7
370
    50
100
AcDbLine
 10
-20.596212
 20
451.600639
 30
0.0
 11
-20.596212
 21
452.034379
 31
0.0
  0
LINE
  5
480
330
1F
100
AcDbEntity
  8
LC-001-100-D00-0
 62
     7
370
    50
100
AcDbLine
 10
-94.659778
 20
404.100124
 30
0.0
 11
-80.093398
 21
404.100124
 31
0.0
  0
LINE
  5
481
330
1F
100
AcDbEntity
  8
LC-001-100-D00-0
 62
     7
370
    50
100
AcDbLine
 10
-198.093398
 20
404.100124
 30
0.0
 11
-183.527018
 21
404.100124
 31
0.0
  0
LINE
  5
482
330
1F
100
AcDbEntity
  8
LC-001-100-D00-0
 62
     7
370
    50
100
AcDbLine
 10
-207.093398
 20
453.850124
 30
0.0
 11
-210.093398
 21
453.850124
 31
0.0
  0
LINE
  5
483
330
1F
100
AcDbEntity
  8
LC-001-100-D00-0
 62
     7
370
    50
100
AcDbLine
 10
-97.104273
 20
404.100124
 30
0.0
 11
-94.659778
 21
404.100124
 31
0.0
  0
LINE
  5
484
330
1F
100
AcDbEntity
  8
LC-001-100-D00-0
 62
     7
370
    50
100
AcDbLine
 10
-183.527018
 20
404.100124
 30
0.0
 11
-181.082523
 21
404.100124
 31
0.0
  0
LINE
  5
485
330
1F
100
AcDbEntity
  8
LC-001-100-D00-0
 62
     7
370
    50
100
AcDbLine
 10
-181.082523
 20
404.100124
 30
0.0
 11
-180.093399
 21
404.100124
 31
0.0
  0
LINE
  5
486
330
1F
100
AcDbEntity
  8
LC-001-100-D00-0
 62
     7
370
    50
100
AcDbLine
 10
-98.093397
 20
404.100124
 30
0.0
 11
-97.104273
 21
404.100124
 31
0.0
  0
CIRCLE
  5
487
330
1F
100
AcDbEntity
  8
LC-001-100-D00-0
 62
     7
370
    50
100
AcDbCircle
 10
-84.843398
 20
455.350124
 30
0.0
 40
1.750000000000114
  0
CIRCLE
  5
488
330
1F
100
AcDbEntity
  8
LC-001-100-D00-0
 62
     7
370
    50
100
AcDbCircle
 10
-193.343398
 20
455.350124
 30
0.0
 40
1.750000000000114
  0
LINE
  5
489
330
1F
100
AcDbEntity
  8
LC-001-100-D00-0
 62
     7
370
    50
100
AcDbLine
 10
-84.593399
 20
457.100124
 30
0.0
 11
-84.593399
 21
458.600123
 31
0.0
  0
LINE
  5
48A
330
1F
100
AcDbEntity
  8
LC-001-100-D00-0
 62
     7
370
    50
100
AcDbLine
 10
-86.5934
 20
457.100124
 30
0.0
 11
-84.593399
 21
457.100124
 31
0.0
  0
LINE
  5
48B
330
1F
100
AcDbEntity
  8
LC-001-100-D00-0
 62
     7
370
    50
100
AcDbLine
 10
-86.5934
 20
457.100124
 30
0.0
 11
-86.5934
 21
453.600124
 31
0.0
  0
LINE
  5
48C
330
1F
100
AcDbEntity
  8
LC-001-100-D00-0
 62
     7
370
    50
100
AcDbLine
 10
-86.5934
 20
453.600124
 30
0.0
 11
-84.593399
 21
453.600124
 31
0.0
  0
LINE
  5
48D
330
1F
100
AcDbEntity
  8
LC-001-100-D00-0
 62
     7
370
    50
100
AcDbLine
 10
-84.593399
 20
453.600124
 30
0.0
 11
-84.593399
 21
452.600122
 31
0.0
  0
LINE
  5
48E
330
1F
100
AcDbEntity
  8
LC-001-100-D00-0
 62
     7
370
    50
100
AcDbLine
 10
-100.093398
 20
452.600124
 30
0.0
 11
-84.593399
 21
452.600122
 31
0.0
  0
ARC
  5
48F
330
1F
100
AcDbEntity
  8
LC-001-100-D00-0
 62
     7
370
    50
100
AcDbCircle
 10
-100.093398
 20
442.600124
 30
0.0
 40
10.0
100
AcDbArc
 50
90.0
 51
180.0
  0
LINE
  5
490
330
1F
100
AcDbEntity
  8
LC-001-100-D00-0
 62
     7
370
    50
100
AcDbLine
 10
-110.093398
 20
442.600124
 30
0.0
 11
-110.093399
 21
413.10012
 31
0.0
  0
LINE
  5
491
330
1F
100
AcDbEntity
  8
LC-001-100-D00-0
 62
     7
370
    50
100
AcDbLine
 10
-111.593398
 20
413.100124
 30
0.0
 11
-110.093399
 21
413.10012
 31
0.0
  0
LINE
  5
492
330
1F
100
AcDbEntity
  8
LC-001-100-D00-0
 62
     7
370
    50
100
AcDbLine
 10
-111.593398
 20
456.600124
 30
0.0
 11
-111.593398
 21
413.100124
 31
0.0
  0
ARC
  5
493
330
1F
100
AcDbEntity
  8
LC-001-100-D00-0
 62
     7
370
    50
100
AcDbCircle
 10
-109.593398
 20
456.600124
 30
0.0
 40
1.999999999999773
100
AcDbArc
 50
90.0
 51
180.0
  0
LINE
  5
494
330
1F
100
AcDbEntity
  8
LC-001-100-D00-0
 62
     7
370
    50
100
AcDbLine
 10
-109.593398
 20
458.600124
 30
0.0
 11
-84.593399
 21
458.600123
 31
0.0
  0
LINE
  5
495
330
1F
100
AcDbEntity
  8
LC-001-100-D00-0
 62
     7
370
    50
100
AcDbLine
 10
-127.593398
 20
458.600124
 30
0.0
 11
-109.593398
 21
458.600124
 31
0.0
  0
LINE
  5
496
330
1F
100
AcDbEntity
  8
LC-001-100-D00-0
 62
     7
370
    50
100
AcDbLine
 10
-127.593398
 20
413.100124
 30
0.0
 11
-111.593398
 21
413.100124
 31
0.0
  0
LINE
  5
497
330
1F
100
AcDbEntity
  8
LC-001-100-D00-0
 62
     7
370
    50
100
AcDbLine
 10
-168.093397
 20
413.10012
 30
0.0
 11
-168.093398
 21
442.600124
 31
0.0
  0
ARC
  5
498
330
1F
100
AcDbEntity
  8
LC-001-100-D00-0
 62
     7
370
    50
100
AcDbCircle
 10
-168.593398
 20
456.600124
 30
0.0
 40
2.0
100
AcDbArc
 50
0.0
 51
90.0
  0
LINE
  5
499
330
1F
100
AcDbEntity
  8
LC-001-100-D00-0
 62
     7
370
    50
100
AcDbLine
 10
-168.593398
 20
458.600124
 30
0.0
 11
-150.593398
 21
458.600124
 31
0.0
  0
LINE
  5
49A
330
1F
100
AcDbEntity
  8
LC-001-100-D00-0
 62
     7
370
    50
100
AcDbLine
 10
-166.593398
 20
413.100124
 30
0.0
 11
-166.593398
 21
456.600124
 31
0.0
  0
LINE
  5
49B
330
1F
100
AcDbEntity
  8
LC-001-100-D00-0
 62
     7
370
    50
100
AcDbLine
 10
-166.593398
 20
413.100124
 30
0.0
 11
-150.593398
 21
413.100124
 31
0.0
  0
ARC
  5
49C
330
1F
100
AcDbEntity
  8
LC-001-100-D00-0
 62
     7
370
    50
100
AcDbCircle
 10
-178.093398
 20
442.600124
 30
0.0
 40
10.00000000000011
100
AcDbArc
 50
0.0
 51
90.0
  0
LINE
  5
49D
330
1F
100
AcDbEntity
  8
LC-001-100-D00-0
 62
     7
370
    50
100
AcDbLine
 10
-193.593397
 20
452.600122
 30
0.0
 11
-193.593397
 21
453.600124
 31
0.0
  0
LINE
  5
49E
330
1F
100
AcDbEntity
  8
LC-001-100-D00-0
 62
     7
370
    50
100
AcDbLine
 10
-191.593397
 20
453.600124
 30
0.0
 11
-191.593397
 21
457.100124
 31
0.0
  0
LINE
  5
49F
330
1F
100
AcDbEntity
  8
LC-001-100-D00-0
 62
     7
370
    50
100
AcDbLine
 10
-193.593397
 20
458.600123
 30
0.0
 11
-193.593397
 21
457.100124
 31
0.0
  0
LINE
  5
4A0
330
1F
100
AcDbEntity
  8
LC-001-100-D00-0
 62
     7
370
    50
100
AcDbLine
 10
-168.093397
 20
413.10012
 30
0.0
 11
-166.593398
 21
413.100124
 31
0.0
  0
LINE
  5
4A1
330
1F
100
AcDbEntity
  8
LC-001-100-D00-0
 62
     7
370
    50
100
AcDbLine
 10
-193.593397
 20
453.600124
 30
0.0
 11
-191.593397
 21
453.600124
 31
0.0
  0
LINE
  5
4A2
330
1F
100
AcDbEntity
  8
LC-001-100-D00-0
 62
     7
370
    50
100
AcDbLine
 10
-193.593397
 20
457.100124
 30
0.0
 11
-191.593397
 21
457.100124
 31
0.0
  0
LINE
  5
4A3
330
1F
100
AcDbEntity
  8
LC-001-100-D00-0
 62
     7
370
    50
100
AcDbLine
 10
-193.593397
 20
458.600123
 30
0.0
 11
-168.593398
 21
458.600124
 31
0.0
  0
LINE
  5
4A4
330
1F
100
AcDbEntity
  8
LC-001-100-D00-0
 62
     7
370
    50
100
AcDbLine
 10
-193.593397
 20
452.600122
 30
0.0
 11
-178.093398
 21
452.600124
 31
0.0
  0
LINE
  5
4A5
330
1F
100
AcDbEntity
  8
LC-001-100-D00-0
 62
     7
370
    50
100
AcDbLine
 10
-150.593398
 20
413.100124
 30
0.0
 11
-127.593398
 21
413.100124
 31
0.0
  0
LINE
  5
4A6
330
1F
100
AcDbEntity
  8
LC-001-100-D00-0
 62
     7
370
    50
100
AcDbLine
 10
-150.593398
 20
458.600124
 30
0.0
 11
-127.593398
 21
458.600124
 31
0.0
  0
LINE
  5
4A7
330
1F
100
AcDbEntity
  8
LC-001-100-D00-0
 62
     7
370
    50
100
AcDbLine
 10
-98.093397
 20
443.100125
 30
0.0
 11
-88.157713
 21
450.405775
 31
0.0
  0
LINE
  5
4A8
330
1F
100
AcDbEntity
  8
LC-001-100-D00-0
 62
     7
370
    50
100
AcDbLine
 10
-98.093397
 20
443.100125
 30
0.0
 11
-98.093398
 21
402.100124
 31
0.0
  0
ARC
  5
4A9
330
1F
100
AcDbEntity
  8
LC-001-100-D00-0
 62
     7
370
    50
100
AcDbCircle
 10
-103.093398
 20
402.100124
 30
0.0
 40
5.0
100
AcDbArc
 50
270.0
 51
0.0
  0
LINE
  5
4AA
330
1F
100
AcDbEntity
  8
LC-001-100-D00-0
 62
     7
370
    50
100
AcDbLine
 10
-103.093398
 20
397.100124
 30
0.0
 11
-175.093398
 21
397.100124
 31
0.0
  0
ARC
  5
4AB
330
1F
100
AcDbEntity
  8
LC-001-100-D00-0
 62
     7
370
    50
100
AcDbCircle
 10
-175.093398
 20
402.100124
 30
0.0
 40
5.0
100
AcDbArc
 50
180.0
 51
270.0
  0
LINE
  5
4AC
330
1F
100
AcDbEntity
  8
LC-001-100-D00-0
 62
     7
370
    50
100
AcDbLine
 10
-180.093398
 20
402.100124
 30
0.0
 11
-180.093399
 21
443.100125
 31
0.0
  0
LINE
  5
4AD
330
1F
100
AcDbEntity
  8
LC-001-100-D00-0
 62
     7
370
    50
100
AcDbLine
 10
-180.093399
 20
443.100125
 30
0.0
 11
-190.029084
 21
450.405775
 31
0.0
  0
ARC
  5
4AE
330
1F
100
AcDbEntity
  8
LC-001-100-D00-0
 62
     7
370
    50
100
AcDbCircle
 10
-190.621474
 20
449.600124
 30
0.0
 40
0.9999999999999467
100
AcDbArc
 50
53.673174
 51
90.0
  0
LINE
  5
4AF
330
1F
100
AcDbEntity
  8
LC-001-100-D00-0
 62
     7
370
    50
100
AcDbLine
 10
-194.193398
 20
450.600124
 30
0.0
 11
-190.621474
 21
450.600124
 31
0.0
  0
LINE
  5
4B0
330
1F
100
AcDbEntity
  8
LC-001-100-D00-0
 62
     7
370
    50
100
AcDbLine
 10
-194.193398
 20
450.600124
 30
0.0
 11
-194.193398
 21
452.600124
 31
0.0
  0
LINE
  5
4B1
330
1F
100
AcDbEntity
  8
LC-001-100-D00-0
 62
     7
370
    50
100
AcDbLine
 10
-194.193398
 20
452.600124
 30
0.0
 11
-190.621474
 21
452.600124
 31
0.0
  0
ARC
  5
4B2
330
1F
100
AcDbEntity
  8
LC-001-100-D00-0
 62
     7
370
    50
100
AcDbCircle
 10
-190.621474
 20
449.600124
 30
0.0
 40
3.000000000000158
100
AcDbArc
 50
53.673174
 51
90.0
  0
LINE
  5
4B3
330
1F
100
AcDbEntity
  8
LC-001-100-D00-0
 62
     7
370
    50
100
AcDbLine
 10
-188.844303
 20
452.017077
 30
0.0
 11
-179.001008
 21
444.77936
 31
0.0
  0
ARC
  5
4B4
330
1F
100
AcDbEntity
  8
LC-001-100-D00-0
 62
     7
370
    50
100
AcDbCircle
 10
-179.593398
 20
443.973709
 30
0.0
 40
1.0
100
AcDbArc
 50
0.0
 51
53.673174
  0
LINE
  5
4B5
330
1F
100
AcDbEntity
  8
LC-001-100-D00-0
 62
     7
370
    50
100
AcDbLine
 10
-178.593398
 20
402.100124
 30
0.0
 11
-178.593398
 21
443.973709
 31
0.0
  0
ARC
  5
4B6
330
1F
100
AcDbEntity
  8
LC-001-100-D00-0
 62
     7
370
    50
100
AcDbCircle
 10
-175.093398
 20
402.100124
 30
0.0
 40
3.500000000000114
100
AcDbArc
 50
180.0
 51
270.0
  0
LINE
  5
4B7
330
1F
100
AcDbEntity
  8
LC-001-100-D00-0
 62
     7
370
    50
100
AcDbLine
 10
-103.093398
 20
398.600124
 30
0.0
 11
-175.093398
 21
398.600124
 31
0.0
  0
ARC
  5
4B8
330
1F
100
AcDbEntity
  8
LC-001-100-D00-0
 62
     7
370
    50
100
AcDbCircle
 10
-103.093398
 20
402.100124
 30
0.0
 40
3.5
100
AcDbArc
 50
270.0
 51
0.0
  0
LINE
  5
4B9
330
1F
100
AcDbEntity
  8
LC-001-100-D00-0
 62
     7
370
    50
100
AcDbLine
 10
-99.593398
 20
443.973709
 30
0.0
 11
-99.593398
 21
402.100124
 31
0.0
  0
ARC
  5
4BA
330
1F
100
AcDbEntity
  8
LC-001-100-D00-0
 62
     7
370
    50
100
AcDbCircle
 10
-98.593398
 20
443.973709
 30
0.0
 40
1.000000000000014
100
AcDbArc
 50
126.326826
 51
180.0
  0
LINE
  5
4BB
330
1F
100
AcDbEntity
  8
LC-001-100-D00-0
 62
     7
370
    50
100
AcDbLine
 10
-89.342494
 20
452.017077
 30
0.0
 11
-99.185789
 21
444.77936
 31
0.0
  0
ARC
  5
4BC
330
1F
100
AcDbEntity
  8
LC-001-100-D00-0
 62
     7
370
    50
100
AcDbCircle
 10
-87.565322
 20
449.600124
 30
0.0
 40
3.000000000000227
100
AcDbArc
 50
90.0
 51
126.326826
  0
LINE
  5
4BD
330
1F
100
AcDbEntity
  8
LC-001-100-D00-0
 62
     7
370
    50
100
AcDbLine
 10
-87.565322
 20
452.600124
 30
0.0
 11
-83.993398
 21
452.600124
 31
0.0
  0
LINE
  5
4BE
330
1F
100
AcDbEntity
  8
LC-001-100-D00-0
 62
     7
370
    50
100
AcDbLine
 10
-83.993398
 20
452.600124
 30
0.0
 11
-83.993398
 21
450.600124
 31
0.0
  0
LINE
  5
4BF
330
1F
100
AcDbEntity
  8
LC-001-100-D00-0
 62
     7
370
    50
100
AcDbLine
 10
-87.565322
 20
450.600124
 30
0.0
 11
-83.993398
 21
450.600124
 31
0.0
  0
ARC
  5
4C0
330
1F
100
AcDbEntity
  8
LC-001-100-D00-0
 62
     7
370
    50
100
AcDbCircle
 10
-87.565322
 20
449.600124
 30
0.0
 40
1.000000000000227
100
AcDbArc
 50
90.0
 51
126.326826
  0
LINE
  5
4C1
330
1F
100
AcDbEntity
  8
LC-001-100-D00-0
 62
     7
370
    50
100
AcDbLine
 10
-99.600519
 20
443.100124
 30
0.0
 11
-104.014003
 21
443.100124
 31
0.0
  0
LINE
  5
4C2
330
1F
100
AcDbEntity
  8
LC-001-100-D00-0
 62
     7
370
    50
100
AcDbLine
 10
-99.600519
 20
443.968341
 30
0.0
 11
-99.600519
 21
443.100124
 31
0.0
  0
ARC
  5
4C3
330
1F
100
AcDbEntity
  8
LC-001-100-D00-0
 62
     7
370
    50
100
AcDbCircle
 10
-98.600146
 20
443.968283
 30
0.0
 40
1.000373573444565
100
AcDbArc
 50
126.325165
 51
180.0
  0
LINE
  5
4C4
330
1F
100
AcDbEntity
  8
LC-001-100-D00-0
 62
     7
370
    50
100
AcDbLine
 10
-99.192734
 20
444.774252
 30
0.0
 11
-99.185789
 21
444.77936
 31
0.0
  0
LINE
  5
4C5
330
1F
100
AcDbEntity
  8
LC-001-100-D00-0
 62
     7
370
    50
100
AcDbLine
 10
-178.586277
 20
443.968341
 30
0.0
 11
-178.586277
 21
443.100124
 31
0.0
  0
LINE
  5
4C6
330
1F
100
AcDbEntity
  8
LC-001-100-D00-0
 62
     7
370
    50
100
AcDbLine
 10
-174.172794
 20
443.100124
 30
0.0
 11
-178.586277
 21
443.100124
 31
0.0
  0
ARC
  5
4C7
330
1F
100
AcDbEntity
  8
LC-001-100-D00-0
 62
     7
370
    50
100
AcDbCircle
 10
-179.586624
 20
443.968296
 30
0.0
 40
1.000347039120925
100
AcDbArc
 50
0.0
 51
53.675603
  0
LINE
  5
4C8
330
1F
100
AcDbEntity
  8
LC-001-100-D00-0
 62
     7
370
    50
100
AcDbLine
 10
-106.140963
 20
450.564229
 30
0.0
 11
-106.140963
 21
443.100125
 31
0.0
  0
LINE
  5
4C9
330
1F
100
AcDbEntity
  8
LC-001-100-D00-0
 62
     7
370
    50
100
AcDbLine
 10
-106.140965
 20
450.600124
 30
0.0
 11
-99.378983
 21
450.600124
 31
0.0
  0
LINE
  5
4CA
330
1F
100
AcDbEntity
  8
LC-001-100-D00-0
 62
     7
370
    50
100
AcDbLine
 10
-95.005532
 20
450.600124
 30
0.0
 11
-91.26955
 21
450.600124
 31
0.0
  0
LINE
  5
4CB
330
1F
100
AcDbEntity
  8
LC-001-100-D00-0
 62
     7
370
    50
100
AcDbLine
 10
-172.045833
 20
450.564229
 30
0.0
 11
-172.045833
 21
443.100125
 31
0.0
  0
LINE
  5
4CC
330
1F
100
AcDbEntity
  8
LC-001-100-D00-0
 62
     7
370
    50
100
AcDbLine
 10
-186.917246
 20
450.600124
 30
0.0
 11
-183.181265
 21
450.600124
 31
0.0
  0
LINE
  5
4CD
330
1F
100
AcDbEntity
  8
LC-001-100-D00-0
 62
     7
370
    50
100
AcDbLine
 10
-178.807813
 20
450.600124
 30
0.0
 11
-172.045832
 21
450.600124
 31
0.0
  0
LINE
  5
4CE
330
1F
100
AcDbEntity
  8
LC-001-100-D00-0
 62
     7
370
    50
100
AcDbLine
 10
-104.014003
 20
443.100124
 30
0.0
 11
-110.08089
 21
443.100124
 31
0.0
  0
LINE
  5
4CF
330
1F
100
AcDbEntity
  8
LC-001-100-D00-0
 62
     7
370
    50
100
AcDbLine
 10
-168.105906
 20
443.100124
 30
0.0
 11
-174.172794
 21
443.100124
 31
0.0
  0
LINE
  5
4D0
330
1F
100
AcDbEntity
  8
LC-001-100-D00-0
 62
     7
370
    50
100
AcDbLine
 10
66.906393
 20
452.100125
 30
0.0
 11
70.406393
 21
451.162302
 31
0.0
  0
LINE
  5
4D1
330
1F
100
AcDbEntity
  8
LC-001-100-D00-0
 62
     7
370
    50
100
AcDbLine
 10
70.406393
 20
403.037947
 30
0.0
 11
66.906393
 21
402.10012
 31
0.0
  0
LINE
  5
4D2
330
1F
100
AcDbEntity
  8
LC-001-100-D00-0
 62
     7
370
    50
100
AcDbLine
 10
70.406399
 20
449.850124
 30
0.0
 11
-17.313625
 21
449.850124
 31
0.0
  0
LINE
  5
4D3
330
1F
100
AcDbEntity
  8
LC-001-100-D00-0
 62
     7
370
    50
100
AcDbLine
 10
70.406399
 20
449.850124
 30
0.0
 11
70.406399
 21
404.350124
 31
0.0
  0
LINE
  5
4D4
330
1F
100
AcDbEntity
  8
LC-001-100-D00-0
 62
     7
370
    50
100
AcDbLine
 10
-17.313625
 20
404.350124
 30
0.0
 11
70.406399
 21
404.350124
 31
0.0
  0
LINE
  5
4D5
330
1F
100
AcDbEntity
  8
LC-001-100-D00-0
 62
     7
370
    50
100
AcDbLine
 10
-17.313625
 20
449.850124
 30
0.0
 11
-17.313625
 21
404.350124
 31
0.0
  0
ARC
  5
4D6
330
1F
100
AcDbEntity
  8
LC-001-100-D00-0
 62
     7
370
    50
100
AcDbCircle
 10
-36.093601
 20
427.100124
 30
0.0
 40
32.00000000000025
100
AcDbArc
 50
51.375167
 51
90.0
  0
LINE
  5
4D7
330
1F
100
AcDbEntity
  8
LC-001-100-D00-0
 62
     7
370
    50
100
AcDbLine
 10
-16.118617
 20
452.100124
 30
0.0
 11
66.906393
 21
452.100125
 31
0.0
  0
LINE
  5
4D8
330
1F
100
AcDbEntity
  8
LC-001-100-D00-0
 62
     7
370
    50
100
AcDbLine
 10
70.406393
 20
451.162302
 30
0.0
 11
70.406399
 21
449.850124
 31
0.0
  0
ARC
  5
4D9
330
1F
100
AcDbEntity
  8
LC-001-100-D00-0
 62
     7
370
    50
100
AcDbCircle
 10
-36.093601
 20
427.100124
 30
0.0
 40
29.50000000000015
100
AcDbArc
 50
50.46055
 51
104.235124
  0
ARC
  5
4DA
330
1F
100
AcDbEntity
  8
LC-001-100-D00-0
 62
     7
370
    50
100
AcDbCircle
 10
-43.593601
 20
456.663615
 30
0.0
 40
1.000000000000114
100
AcDbArc
 50
180.0
 51
284.235124
  0
LINE
  5
4DB
330
1F
100
AcDbEntity
  8
LC-001-100-D00-0
 62
     7
370
    50
100
AcDbLine
 10
-44.593601
 20
456.663615
 30
0.0
 11
-44.593602
 21
459.100124
 31
0.0
  0
LINE
  5
4DC
330
1F
100
AcDbEntity
  8
LC-001-100-D00-0
 62
     7
370
    50
100
AcDbLine
 10
-44.593602
 20
459.100124
 30
0.0
 11
-36.093601
 21
459.100124
 31
0.0
  0
LINE
  5
4DD
330
1F
100
AcDbEntity
  8
LC-001-100-D00-0
 62
     7
370
    50
100
AcDbLine
 10
-44.593602
 20
395.100121
 30
0.0
 11
-44.593601
 21
397.536633
 31
0.0
  0
ARC
  5
4DE
330
1F
100
AcDbEntity
  8
LC-001-100-D00-0
 62
     7
370
    50
100
AcDbCircle
 10
-43.593601
 20
397.536633
 30
0.0
 40
0.9999999999998909
100
AcDbArc
 50
75.764876
 51
180.0
  0
ARC
  5
4DF
330
1F
100
AcDbEntity
  8
LC-001-100-D00-0
 62
     7
370
    50
100
AcDbCircle
 10
-36.093601
 20
427.100124
 30
0.0
 40
29.5
100
AcDbArc
 50
255.764876
 51
309.53945
  0
LINE
  5
4E0
330
1F
100
AcDbEntity
  8
LC-001-100-D00-0
 62
     7
370
    50
100
AcDbLine
 10
70.406399
 20
404.350124
 30
0.0
 11
70.406393
 21
403.037947
 31
0.0
  0
LINE
  5
4E1
330
1F
100
AcDbEntity
  8
LC-001-100-D00-0
 62
     7
370
    50
100
AcDbLine
 10
66.906393
 20
402.10012
 30
0.0
 11
-16.118617
 21
402.100124
 31
0.0
  0
ARC
  5
4E2
330
1F
100
AcDbEntity
  8
LC-001-100-D00-0
 62
     7
370
    50
100
AcDbCircle
 10
-36.093601
 20
427.100124
 30
0.0
 40
32.0
100
AcDbArc
 50
270.0
 51
308.624833
  0
LINE
  5
4E3
330
1F
100
AcDbEntity
  8
LC-001-100-D00-0
 62
     7
370
    50
100
AcDbLine
 10
-36.093601
 20
395.100124
 30
0.0
 11
-44.593602
 21
395.100121
 31
0.0
  0
LINE
  5
4E4
330
1F
100
AcDbEntity
  8
LC-001-100-D00-0
 62
     7
370
    50
100
AcDbLine
 10
-44.593601
 20
398.66492
 30
0.0
 11
-44.593601
 21
397.536633
 31
0.0
  0
CIRCLE
  5
4E5
330
1F
100
AcDbEntity
  8
LC-001-100-D00-0
 62
     7
370
    50
100
AcDbCircle
 10
-27.845602
 20
454.100124
 30
0.0
 40
2.0
  0
CIRCLE
  5
4E6
330
1F
100
AcDbEntity
  8
LC-001-100-D00-0
 62
     7
370
    50
100
AcDbCircle
 10
-27.845602
 20
400.100124
 30
0.0
 40
1.999999999999886
  0
LINE
  5
4E7
330
1F
100
AcDbEntity
  8
LC-001-100-D00-0
 62
     7
370
    50
100
AcDbLine
 10
-45.75106
 20
462.514938
 30
0.0
 11
-63.584732
 21
457.73642
 31
0.0
  0
ARC
  5
4E8
330
1F
100
AcDbEntity
  8
LC-001-100-D00-0
 62
     7
370
    50
100
AcDbCircle
 10
-64.620008
 20
461.600124
 30
0.0
 40
4.000000000000227
100
AcDbArc
 50
270.0
 51
285.0
  0
LINE
  5
4E9
330
1F
100
AcDbEntity
  8
LC-001-100-D00-0
 62
     7
370
    50
100
AcDbLine
 10
-64.620008
 20
457.600124
 30
0.0
 11
-81.293398
 21
457.600124
 31
0.0
  0
ARC
  5
4EA
330
1F
100
AcDbEntity
  8
LC-001-100-D00-0
 62
     7
370
    50
100
AcDbCircle
 10
-81.293398
 20
456.600124
 30
0.0
 40
1.0
100
AcDbArc
 50
90.0
 51
180.0
  0
LINE
  5
4EB
330
1F
100
AcDbEntity
  8
LC-001-100-D00-0
 62
     7
370
    50
100
AcDbLine
 10
-82.293398
 20
456.600124
 30
0.0
 11
-82.293398
 21
452.600122
 31
0.0
  0
LINE
  5
4EC
330
1F
100
AcDbEntity
  8
LC-001-100-D00-0
 62
     7
370
    50
100
AcDbLine
 10
-82.293398
 20
452.600122
 30
0.0
 11
-83.793398
 21
452.600124
 31
0.0
  0
LINE
  5
4ED
330
1F
100
AcDbEntity
  8
LC-001-100-D00-0
 62
     7
370
    50
100
AcDbLine
 10
-83.793398
 20
456.600124
 30
0.0
 11
-83.793398
 21
452.600124
 31
0.0
  0
ARC
  5
4EE
330
1F
100
AcDbEntity
  8
LC-001-100-D00-0
 62
     7
370
    50
100
AcDbCircle
 10
-81.293398
 20
456.600124
 30
0.0
 40
2.5
100
AcDbArc
 50
90.0
 51
180.0
  0
LINE
  5
4EF
330
1F
100
AcDbEntity
  8
LC-001-100-D00-0
 62
     7
370
    50
100
AcDbLine
 10
-64.620008
 20
459.100124
 30
0.0
 11
-81.293398
 21
459.100124
 31
0.0
  0
ARC
  5
4F0
330
1F
100
AcDbEntity
  8
LC-001-100-D00-0
 62
     7
370
    50
100
AcDbCircle
 10
-64.620008
 20
461.600124
 30
0.0
 40
2.5
100
AcDbArc
 50
270.0
 51
285.0
  0
LINE
  5
4F1
330
1F
100
AcDbEntity
  8
LC-001-100-D00-0
 62
     7
370
    50
100
AcDbLine
 10
-46.139289
 20
463.963827
 30
0.0
 11
-63.972961
 21
459.185309
 31
0.0
  0
ARC
  5
4F2
330
1F
100
AcDbEntity
  8
LC-001-100-D00-0
 62
     7
370
    50
100
AcDbCircle
 10
-45.104013
 20
460.100124
 30
0.0
 40
4.0
100
AcDbArc
 50
90.0
 51
105.0
  0
LINE
  5
4F3
330
1F
100
AcDbEntity
  8
LC-001-100-D00-0
 62
     7
370
    50
100
AcDbLine
 10
-45.104013
 20
464.100124
 30
0.0
 11
-43.593398
 21
464.100123
 31
0.0
  0
LINE
  5
4F4
330
1F
100
AcDbEntity
  8
LC-001-100-D00-0
 62
     7
370
    50
100
AcDbLine
 10
-43.593398
 20
464.100123
 30
0.0
 11
-43.593398
 21
465.500124
 31
0.0
  0
LINE
  5
4F5
330
1F
100
AcDbEntity
  8
LC-001-100-D00-0
 62
     7
370
    50
100
AcDbLine
 10
-43.093398
 20
465.500124
 30
0.0
 11
-43.593398
 21
465.500124
 31
0.0
  0
ARC
  5
4F6
330
1F
100
AcDbEntity
  8
LC-001-100-D00-0
 62
     7
370
    50
100
AcDbCircle
 10
-44.093398
 20
467.000124
 30
0.0
 40
1.802775637731932
100
AcDbArc
 50
303.690068
 51
56.309932
  0
LINE
  5
4F7
330
1F
100
AcDbEntity
  8
LC-001-100-D00-0
 62
     7
370
    50
100
AcDbLine
 10
-43.093397
 20
483.100124
 30
0.0
 11
-43.093398
 21
468.500124
 31
0.0
  0
LINE
  5
4F8
330
1F
100
AcDbEntity
  8
LC-001-100-D00-0
 62
     7
370
    50
100
AcDbLine
 10
-42.093395
 20
484.100124
 30
0.0
 11
-43.093397
 21
483.100124
 31
0.0
  0
LINE
  5
4F9
330
1F
100
AcDbEntity
  8
LC-001-100-D00-0
 62
     7
370
    50
100
AcDbLine
 10
-36.093398
 20
484.100124
 30
0.0
 11
-42.093395
 21
484.100124
 31
0.0
  0
LINE
  5
4FA
330
1F
100
AcDbEntity
  8
LC-001-100-D00-0
 62
     7
370
    50
100
AcDbLine
 10
-35.093396
 20
483.100124
 30
0.0
 11
-36.093398
 21
484.100124
 31
0.0
  0
LINE
  5
4FB
330
1F
100
AcDbEntity
  8
LC-001-100-D00-0
 62
     7
370
    50
100
AcDbLine
 10
-35.093398
 20
468.500124
 30
0.0
 11
-35.093396
 21
483.100124
 31
0.0
  0
ARC
  5
4FC
330
1F
100
AcDbEntity
  8
LC-001-100-D00-0
 62
     7
370
    50
100
AcDbCircle
 10
-34.093398
 20
467.000124
 30
0.0
 40
1.802775637732058
100
AcDbArc
 50
123.690068
 51
236.309932
  0
LINE
  5
4FD
330
1F
100
AcDbEntity
  8
LC-001-100-D00-0
 62
     7
370
    50
100
AcDbLine
 10
-34.593395
 20
465.500124
 30
0.0
 11
-35.093398
 21
465.500124
 31
0.0
  0
LINE
  5
4FE
330
1F
100
AcDbEntity
  8
LC-001-100-D00-0
 62
     7
370
    50
100
AcDbLine
 10
-34.593395
 20
465.500124
 30
0.0
 11
-34.593395
 21
464.100123
 31
0.0
  0
LINE
  5
4FF
330
1F
100
AcDbEntity
  8
LC-001-100-D00-0
 62
     7
370
    50
100
AcDbLine
 10
-34.593395
 20
464.100123
 30
0.0
 11
116.406591
 21
464.100123
 31
0.0
  0
LINE
  5
500
330
1F
100
AcDbEntity
  8
LC-001-100-D00-0
 62
     7
370
    50
100
AcDbLine
 10
116.406591
 20
464.100123
 30
0.0
 11
116.406591
 21
465.500124
 31
0.0
  0
LINE
  5
501
330
1F
100
AcDbEntity
  8
LC-001-100-D00-0
 62
     7
370
    50
100
AcDbLine
 10
116.906602
 20
465.500124
 30
0.0
 11
116.406591
 21
465.500124
 31
0.0
  0
ARC
  5
502
330
1F
100
AcDbEntity
  8
LC-001-100-D00-0
 62
     7
370
    50
100
AcDbCircle
 10
115.906602
 20
467.000124
 30
0.0
 40
1.802775637731932
100
AcDbArc
 50
303.690068
 51
56.309932
  0
LINE
  5
503
330
1F
100
AcDbEntity
  8
LC-001-100-D00-0
 62
     7
370
    50
100
AcDbLine
 10
116.906614
 20
483.100124
 30
0.0
 11
116.906602
 21
468.500124
 31
0.0
  0
LINE
  5
504
330
1F
100
AcDbEntity
  8
LC-001-100-D00-0
 62
     7
370
    50
100
AcDbLine
 10
117.906601
 20
484.100124
 30
0.0
 11
116.906614
 21
483.100124
 31
0.0
  0
LINE
  5
505
330
1F
100
AcDbEntity
  8
LC-001-100-D00-0
 62
     7
370
    50
100
AcDbLine
 10
123.906613
 20
484.100124
 30
0.0
 11
117.906601
 21
484.100124
 31
0.0
  0
LINE
  5
506
330
1F
100
AcDbEntity
  8
LC-001-100-D00-0
 62
     7
370
    50
100
AcDbLine
 10
124.9066
 20
483.100124
 30
0.0
 11
123.906613
 21
484.100124
 31
0.0
  0
LINE
  5
507
330
1F
100
AcDbEntity
  8
LC-001-100-D00-0
 62
     7
370
    50
100
AcDbLine
 10
124.906602
 20
468.500124
 30
0.0
 11
124.9066
 21
483.100124
 31
0.0
  0
ARC
  5
508
330
1F
100
AcDbEntity
  8
LC-001-100-D00-0
 62
     7
370
    50
100
AcDbCircle
 10
125.906602
 20
467.000124
 30
0.0
 40
1.802775637732058
100
AcDbArc
 50
123.690068
 51
236.309932
  0
LINE
  5
509
330
1F
100
AcDbEntity
  8
LC-001-100-D00-0
 62
     7
370
    50
100
AcDbLine
 10
125.406594
 20
465.500124
 30
0.0
 11
124.906602
 21
465.500124
 31
0.0
  0
LINE
  5
50A
330
1F
100
AcDbEntity
  8
LC-001-100-D00-0
 62
     7
370
    50
100
AcDbLine
 10
125.406594
 20
465.500124
 30
0.0
 11
125.406594
 21
464.100123
 31
0.0
  0
LINE
  5
50B
330
1F
100
AcDbEntity
  8
LC-001-100-D00-0
 62
     7
370
    50
100
AcDbLine
 10
125.406594
 20
464.100123
 30
0.0
 11
276.406587
 21
464.100123
 31
0.0
  0
LINE
  5
50C
330
1F
100
AcDbEntity
  8
LC-001-100-D00-0
 62
     7
370
    50
100
AcDbLine
 10
276.406587
 20
464.100123
 30
0.0
 11
276.406587
 21
465.500124
 31
0.0
  0
LINE
  5
50D
330
1F
100
AcDbEntity
  8
LC-001-100-D00-0
 62
     7
370
    50
100
AcDbLine
 10
276.906602
 20
465.500124
 30
0.0
 11
276.406587
 21
465.500124
 31
0.0
  0
ARC
  5
50E
330
1F
100
AcDbEntity
  8
LC-001-100-D00-0
 62
     7
370
    50
100
AcDbCircle
 10
275.906602
 20
467.000124
 30
0.0
 40
1.802775637731679
100
AcDbArc
 50
303.690068
 51
56.309932
  0
LINE
  5
50F
330
1F
100
AcDbEntity
  8
LC-001-100-D00-0
 62
     7
370
    50
100
AcDbLine
 10
276.90661
 20
483.100124
 30
0.0
 11
276.906602
 21
468.500124
 31
0.0
  0
LINE
  5
510
330
1F
100
AcDbEntity
  8
LC-001-100-D00-0
 62
     7
370
    50
100
AcDbLine
 10
277.906598
 20
484.100124
 30
0.0
 11
276.90661
 21
483.100124
 31
0.0
  0
LINE
  5
511
330
1F
100
AcDbEntity
  8
LC-001-100-D00-0
 62
     7
370
    50
100
AcDbLine
 10
283.90661
 20
484.100124
 30
0.0
 11
277.906598
 21
484.100124
 31
0.0
  0
LINE
  5
512
330
1F
100
AcDbEntity
  8
LC-001-100-D00-0
 62
     7
370
    50
100
AcDbLine
 10
284.906597
 20
483.100124
 30
0.0
 11
283.90661
 21
484.100124
 31
0.0
  0
LINE
  5
513
330
1F
100
AcDbEntity
  8
LC-001-100-D00-0
 62
     7
370
    50
100
AcDbLine
 10
284.906602
 20
468.500124
 30
0.0
 11
284.906597
 21
483.100124
 31
0.0
  0
ARC
  5
514
330
1F
100
AcDbEntity
  8
LC-001-100-D00-0
 62
     7
370
    50
100
AcDbCircle
 10
285.906602
 20
467.000124
 30
0.0
 40
1.802775637731868
100
AcDbArc
 50
123.690068
 51
236.309932
  0
LINE
  5
515
330
1F
100
AcDbEntity
  8
LC-001-100-D00-0
 62
     7
370
    50
100
AcDbLine
 10
285.40659
 20
465.500124
 30
0.0
 11
284.906602
 21
465.500124
 31
0.0
  0
LINE
  5
516
330
1F
100
AcDbEntity
  8
LC-001-100-D00-0
 62
     7
370
    50
100
AcDbLine
 10
285.40659
 20
465.500124
 30
0.0
 11
285.40659
 21
464.100123
 31
0.0
  0
LINE
  5
517
330
1F
100
AcDbEntity
  8
LC-001-100-D00-0
 62
     7
370
    50
100
AcDbLine
 10
285.40659
 20
464.100123
 30
0.0
 11
302.906602
 21
464.100124
 31
0.0
  0
ARC
  5
518
330
1F
100
AcDbEntity
  8
LC-001-100-D00-0
 62
     7
370
    50
100
AcDbCircle
 10
302.906602
 20
472.100124
 30
0.0
 40
7.999999999999773
100
AcDbArc
 50
270.0
 51
0.0
  0
LINE
  5
519
330
1F
100
AcDbEntity
  8
LC-001-100-D00-0
 62
     7
370
    50
100
AcDbLine
 10
310.906602
 20
472.100124
 30
0.0
 11
310.906602
 21
481.600124
 31
0.0
  0
ARC
  5
51A
330
1F
100
AcDbEntity
  8
LC-001-100-D00-0
 62
     7
370
    50
100
AcDbCircle
 10
313.906602
 20
481.600124
 30
0.0
 40
3.000000000000227
100
AcDbArc
 50
90.0
 51
180.0
  0
LINE
  5
51B
330
1F
100
AcDbEntity
  8
LC-001-100-D00-0
 62
     7
370
    50
100
AcDbLine
 10
360.906602
 20
484.600124
 30
0.0
 11
313.906602
 21
484.600124
 31
0.0
  0
LINE
  5
51C
330
1F
100
AcDbEntity
  8
LC-001-100-D00-0
 62
     7
370
    50
100
AcDbLine
 10
360.906602
 20
483.100124
 30
0.0
 11
360.906602
 21
484.600124
 31
0.0
  0
LINE
  5
51D
330
1F
100
AcDbEntity
  8
LC-001-100-D00-0
 62
     7
370
    50
100
AcDbLine
 10
360.906602
 20
483.100124
 30
0.0
 11
313.906602
 21
483.100124
 31
0.0
  0
ARC
  5
51E
330
1F
100
AcDbEntity
  8
LC-001-100-D00-0
 62
     7
370
    50
100
AcDbCircle
 10
313.906602
 20
481.600124
 30
0.0
 40
1.500000000000227
100
AcDbArc
 50
90.0
 51
180.0
  0
LINE
  5
51F
330
1F
100
AcDbEntity
  8
LC-001-100-D00-0
 62
     7
370
    50
100
AcDbLine
 10
312.406602
 20
472.100124
 30
0.0
 11
312.406602
 21
481.600124
 31
0.0
  0
ARC
  5
520
330
1F
100
AcDbEntity
  8
LC-001-100-D00-0
 62
     7
370
    50
100
AcDbCircle
 10
302.906602
 20
472.100124
 30
0.0
 40
9.5
100
AcDbArc
 50
270.0
 51
0.0
  0
LINE
  5
521
330
1F
100
AcDbEntity
  8
LC-001-100-D00-0
 62
     7
370
    50
100
AcDbLine
 10
-45.104013
 20
462.600124
 30
0.0
 11
302.906602
 21
462.600124
 31
0.0
  0
ARC
  5
522
330
1F
100
AcDbEntity
  8
LC-001-100-D00-0
 62
     7
370
    50
100
AcDbCircle
 10
-45.104013
 20
460.100124
 30
0.0
 40
2.500000000000227
100
AcDbArc
 50
90.0
 51
105.0
  0
LINE
  5
523
330
1F
100
AcDbEntity
  8
LC-001-100-D00-0
 62
     7
370
    50
100
AcDbLine
 10
-83.793398
 20
452.600124
 30
0.0
 11
-83.993398
 21
452.600124
 31
0.0
  0
LINE
  5
524
330
1F
100
AcDbEntity
  8
LC-001-100-D00-0
 62
     7
370
    50
100
AcDbLine
 10
-94.699515
 20
459.100124
 30
0.0
 11
-81.293398
 21
459.100124
 31
0.0
  0
LINE
  5
525
330
1F
100
AcDbEntity
  8
LC-001-100-D00-0
 62
     7
370
    50
100
AcDbLine
 10
-195.893399
 20
452.600122
 30
0.0
 11
-195.893398
 21
456.600124
 31
0.0
  0
LINE
  5
526
330
1F
100
AcDbEntity
  8
LC-001-100-D00-0
 62
     7
370
    50
100
AcDbLine
 10
-194.193398
 20
452.600124
 30
0.0
 11
-194.393398
 21
452.600124
 31
0.0
  0
LINE
  5
527
330
1F
100
AcDbEntity
  8
LC-001-100-D00-0
 62
     7
370
    50
100
AcDbLine
 10
-194.393398
 20
452.600124
 30
0.0
 11
-194.393398
 21
456.600124
 31
0.0
  0
LINE
  5
528
330
1F
100
AcDbEntity
  8
LC-001-100-D00-0
 62
     7
370
    50
100
AcDbLine
 10
-554.593383
 20
465.500124
 30
0.0
 11
-555.093398
 21
465.500124
 31
0.0
  0
LINE
  5
529
330
1F
100
AcDbEntity
  8
LC-001-100-D00-0
 62
     7
370
    50
100
AcDbLine
 10
-554.593383
 20
465.500124
 30
0.0
 11
-554.593383
 21
464.100123
 31
0.0
  0
LINE
  5
52A
330
1F
100
AcDbEntity
  8
LC-001-100-D00-0
 62
     7
370
    50
100
AcDbLine
 10
-554.593383
 20
464.100123
 30
0.0
 11
-403.59339
 21
464.100123
 31
0.0
  0
LINE
  5
52B
330
1F
100
AcDbEntity
  8
LC-001-100-D00-0
 62
     7
370
    50
100
AcDbLine
 10
-403.59339
 20
464.100123
 30
0.0
 11
-403.59339
 21
465.500124
 31
0.0
  0
LINE
  5
52C
330
1F
100
AcDbEntity
  8
LC-001-100-D00-0
 62
     7
370
    50
100
AcDbLine
 10
-403.093398
 20
465.500124
 30
0.0
 11
-403.59339
 21
465.500124
 31
0.0
  0
ARC
  5
52D
330
1F
100
AcDbEntity
  8
LC-001-100-D00-0
 62
     7
370
    50
100
AcDbCircle
 10
-404.093398
 20
467.000124
 30
0.0
 40
1.802775637731963
100
AcDbArc
 50
303.690068
 51
56.309932
  0
LINE
  5
52E
330
1F
100
AcDbEntity
  8
LC-001-100-D00-0
 62
     7
370
    50
100
AcDbLine
 10
-403.093397
 20
483.100124
 30
0.0
 11
-403.093398
 21
468.500124
 31
0.0
  0
LINE
  5
52F
330
1F
100
AcDbEntity
  8
LC-001-100-D00-0
 62
     7
370
    50
100
AcDbLine
 10
-402.09341
 20
484.100124
 30
0.0
 11
-403.093397
 21
483.100124
 31
0.0
  0
LINE
  5
530
330
1F
100
AcDbEntity
  8
LC-001-100-D00-0
 62
     7
370
    50
100
AcDbLine
 10
-396.093397
 20
484.100124
 30
0.0
 11
-402.09341
 21
484.100124
 31
0.0
  0
LINE
  5
531
330
1F
100
AcDbEntity
  8
LC-001-100-D00-0
 62
     7
370
    50
100
AcDbLine
 10
-395.09341
 20
483.100124
 30
0.0
 11
-396.093397
 21
484.100124
 31
0.0
  0
LINE
  5
532
330
1F
100
AcDbEntity
  8
LC-001-100-D00-0
 62
     7
370
    50
100
AcDbLine
 10
-395.093398
 20
468.500124
 30
0.0
 11
-395.09341
 21
483.100124
 31
0.0
  0
ARC
  5
533
330
1F
100
AcDbEntity
  8
LC-001-100-D00-0
 62
     7
370
    50
100
AcDbCircle
 10
-394.093398
 20
467.000124
 30
0.0
 40
1.80277563773231
100
AcDbArc
 50
123.690068
 51
236.309932
  0
LINE
  5
534
330
1F
100
AcDbEntity
  8
LC-001-100-D00-0
 62
     7
370
    50
100
AcDbLine
 10
-394.593387
 20
465.500124
 30
0.0
 11
-395.093398
 21
465.500124
 31
0.0
  0
LINE
  5
535
330
1F
100
AcDbEntity
  8
LC-001-100-D00-0
 62
     7
370
    50
100
AcDbLine
 10
-394.593387
 20
465.500124
 30
0.0
 11
-394.593387
 21
464.100123
 31
0.0
  0
LINE
  5
536
330
1F
100
AcDbEntity
  8
LC-001-100-D00-0
 62
     7
370
    50
100
AcDbLine
 10
-394.593387
 20
464.100123
 30
0.0
 11
-243.593401
 21
464.100123
 31
0.0
  0
LINE
  5
537
330
1F
100
AcDbEntity
  8
LC-001-100-D00-0
 62
     7
370
    50
100
AcDbLine
 10
-243.593401
 20
464.100123
 30
0.0
 11
-243.593401
 21
465.500124
 31
0.0
  0
LINE
  5
538
330
1F
100
AcDbEntity
  8
LC-001-100-D00-0
 62
     7
370
    50
100
AcDbLine
 10
-243.093398
 20
465.500124
 30
0.0
 11
-243.593401
 21
465.500124
 31
0.0
  0
ARC
  5
539
330
1F
100
AcDbEntity
  8
LC-001-100-D00-0
 62
     7
370
    50
100
AcDbCircle
 10
-244.093398
 20
467.000124
 30
0.0
 40
1.802775637731932
100
AcDbArc
 50
303.690068
 51
56.309932
  0
LINE
  5
53A
330
1F
100
AcDbEntity
  8
LC-001-100-D00-0
 62
     7
370
    50
100
AcDbLine
 10
-243.0934
 20
483.100124
 30
0.0
 11
-243.093398
 21
468.500124
 31
0.0
  0
LINE
  5
53B
330
1F
100
AcDbEntity
  8
LC-001-100-D00-0
 62
     7
370
    50
100
AcDbLine
 10
-242.093398
 20
484.100124
 30
0.0
 11
-243.0934
 21
483.100124
 31
0.0
  0
LINE
  5
53C
330
1F
100
AcDbEntity
  8
LC-001-100-D00-0
 62
     7
370
    50
100
AcDbLine
 10
-236.093401
 20
484.100124
 30
0.0
 11
-242.093398
 21
484.100124
 31
0.0
  0
LINE
  5
53D
330
1F
100
AcDbEntity
  8
LC-001-100-D00-0
 62
     7
370
    50
100
AcDbLine
 10
-235.093399
 20
483.100124
 30
0.0
 11
-236.093401
 21
484.100124
 31
0.0
  0
LINE
  5
53E
330
1F
100
AcDbEntity
  8
LC-001-100-D00-0
 62
     7
370
    50
100
AcDbLine
 10
-235.093398
 20
468.500124
 30
0.0
 11
-235.093399
 21
483.100124
 31
0.0
  0
ARC
  5
53F
330
1F
100
AcDbEntity
  8
LC-001-100-D00-0
 62
     7
370
    50
100
AcDbCircle
 10
-234.093398
 20
467.000124
 30
0.0
 40
1.802775637732058
100
AcDbArc
 50
123.690068
 51
236.309932
  0
LINE
  5
540
330
1F
100
AcDbEntity
  8
LC-001-100-D00-0
 62
     7
370
    50
100
AcDbLine
 10
-234.593398
 20
465.500124
 30
0.0
 11
-235.093398
 21
465.500124
 31
0.0
  0
LINE
  5
541
330
1F
100
AcDbEntity
  8
LC-001-100-D00-0
 62
     7
370
    50
100
AcDbLine
 10
-234.593398
 20
465.500124
 30
0.0
 11
-234.593398
 21
464.100123
 31
0.0
  0
LINE
  5
542
330
1F
100
AcDbEntity
  8
LC-001-100-D00-0
 62
     7
370
    50
100
AcDbLine
 10
-234.593398
 20
464.100123
 30
0.0
 11
-233.082783
 21
464.100124
 31
0.0
  0
ARC
  5
543
330
1F
100
AcDbEntity
  8
LC-001-100-D00-0
 62
     7
370
    50
100
AcDbCircle
 10
-233.082783
 20
460.100124
 30
0.0
 40
3.999999999999902
100
AcDbArc
 50
75.0
 51
90.0
  0
LINE
  5
544
330
1F
100
AcDbEntity
  8
LC-001-100-D00-0
 62
     7
370
    50
100
AcDbLine
 10
-214.213836
 20
459.185309
 30
0.0
 11
-232.047507
 21
463.963827
 31
0.0
  0
ARC
  5
545
330
1F
100
AcDbEntity
  8
LC-001-100-D00-0
 62
     7
370
    50
100
AcDbCircle
 10
-213.566788
 20
461.600124
 30
0.0
 40
2.500000000000062
100
AcDbArc
 50
255.0
 51
270.0
  0
LINE
  5
546
330
1F
100
AcDbEntity
  8
LC-001-100-D00-0
 62
     7
370
    50
100
AcDbLine
 10
-208.170607
 20
459.000124
 30
0.0
 11
-208.170607
 21
459.100124
 31
0.0
  0
LINE
  5
547
330
1F
100
AcDbEntity
  8
LC-001-100-D00-0
 62
     7
370
    50
100
AcDbLine
 10
-207.646771
 20
459.000124
 30
0.0
 11
-208.170607
 21
459.000124
 31
0.0
  0
LINE
  5
548
330
1F
100
AcDbEntity
  8
LC-001-100-D00-0
 62
     7
370
    50
100
AcDbLine
 10
-207.646771
 20
459.100124
 30
0.0
 11
-207.646771
 21
459.000124
 31
0.0
  0
LINE
  5
549
330
1F
100
AcDbEntity
  8
LC-001-100-D00-0
 62
     7
370
    50
100
AcDbLine
 10
-206.952526
 20
459.000124
 30
0.0
 11
-206.952526
 21
459.100124
 31
0.0
  0
LINE
  5
54A
330
1F
100
AcDbEntity
  8
LC-001-100-D00-0
 62
     7
370
    50
100
AcDbLine
 10
-206.428177
 20
459.000124
 30
0.0
 11
-206.952526
 21
459.000124
 31
0.0
  0
LINE
  5
54B
330
1F
100
AcDbEntity
  8
LC-001-100-D00-0
 62
     7
370
    50
100
AcDbLine
 10
-206.428177
 20
459.100124
 30
0.0
 11
-206.428177
 21
459.000124
 31
0.0
  0
ARC
  5
54C
330
1F
100
AcDbEntity
  8
LC-001-100-D00-0
 62
     7
370
    50
100
AcDbCircle
 10
-196.893398
 20
456.600124
 30
0.0
 40
2.5
100
AcDbArc
 50
0.0
 51
90.0
  0
LINE
  5
54D
330
1F
100
AcDbEntity
  8
LC-001-100-D00-0
 62
     7
370
    50
100
AcDbLine
 10
-194.393398
 20
452.600124
 30
0.0
 11
-195.893399
 21
452.600122
 31
0.0
  0
ARC
  5
54E
330
1F
100
AcDbEntity
  8
LC-001-100-D00-0
 62
     7
370
    50
100
AcDbCircle
 10
-196.893398
 20
456.600124
 30
0.0
 40
1.0
100
AcDbArc
 50
0.0
 51
90.0
  0
LINE
  5
54F
330
1F
100
AcDbEntity
  8
LC-001-100-D00-0
 62
     7
370
    50
100
AcDbLine
 10
-196.893398
 20
457.600124
 30
0.0
 11
-213.566788
 21
457.600124
 31
0.0
  0
ARC
  5
550
330
1F
100
AcDbEntity
  8
LC-001-100-D00-0
 62
     7
370
    50
100
AcDbCircle
 10
-213.566788
 20
461.600124
 30
0.0
 40
4.000000000000341
100
AcDbArc
 50
255.0
 51
270.0
  0
LINE
  5
551
330
1F
100
AcDbEntity
  8
LC-001-100-D00-0
 62
     7
370
    50
100
AcDbLine
 10
-214.602064
 20
457.73642
 30
0.0
 11
-232.435736
 21
462.514938
 31
0.0
  0
ARC
  5
552
330
1F
100
AcDbEntity
  8
LC-001-100-D00-0
 62
     7
370
    50
100
AcDbCircle
 10
-233.082783
 20
460.100124
 30
0.0
 40
2.500000000000062
100
AcDbArc
 50
75.0
 51
90.0
  0
LINE
  5
553
330
1F
100
AcDbEntity
  8
LC-001-100-D00-0
 62
     7
370
    50
100
AcDbLine
 10
-581.093398
 20
462.600124
 30
0.0
 11
-233.082783
 21
462.600124
 31
0.0
  0
ARC
  5
554
330
1F
100
AcDbEntity
  8
LC-001-100-D00-0
 62
     7
370
    50
100
AcDbCircle
 10
-581.093398
 20
472.100124
 30
0.0
 40
9.5
100
AcDbArc
 50
180.0
 51
270.0
  0
LINE
  5
555
330
1F
100
AcDbEntity
  8
LC-001-100-D00-0
 62
     7
370
    50
100
AcDbLine
 10
-590.593398
 20
481.600124
 30
0.0
 11
-590.593398
 21
472.100124
 31
0.0
  0
ARC
  5
556
330
1F
100
AcDbEntity
  8
LC-001-100-D00-0
 62
     7
370
    50
100
AcDbCircle
 10
-592.093398
 20
481.600124
 30
0.0
 40
1.5
100
AcDbArc
 50
0.0
 51
90.0
  0
LINE
  5
557
330
1F
100
AcDbEntity
  8
LC-001-100-D00-0
 62
     7
370
    50
100
AcDbLine
 10
-639.093398
 20
484.600124
 30
0.0
 11
-639.093398
 21
483.100124
 31
0.0
  0
ARC
  5
558
330
1F
100
AcDbEntity
  8
LC-001-100-D00-0
 62
     7
370
    50
100
AcDbCircle
 10
-592.093398
 20
481.600124
 30
0.0
 40
2.999999999999886
100
AcDbArc
 50
0.0
 51
90.0
  0
LINE
  5
559
330
1F
100
AcDbEntity
  8
LC-001-100-D00-0
 62
     7
370
    50
100
AcDbLine
 10
-589.093398
 20
481.600124
 30
0.0
 11
-589.093398
 21
472.100124
 31
0.0
  0
ARC
  5
55A
330
1F
100
AcDbEntity
  8
LC-001-100-D00-0
 62
     7
370
    50
100
AcDbCircle
 10
-581.093398
 20
472.100124
 30
0.0
 40
8.000000000000227
100
AcDbArc
 50
180.0
 51
270.0
  0
LINE
  5
55B
330
1F
100
AcDbEntity
  8
LC-001-100-D00-0
 62
     7
370
    50
100
AcDbLine
 10
-581.093398
 20
464.100124
 30
0.0
 11
-563.593387
 21
464.100123
 31
0.0
  0
LINE
  5
55C
330
1F
100
AcDbEntity
  8
LC-001-100-D00-0
 62
     7
370
    50
100
AcDbLine
 10
-563.593387
 20
464.100123
 30
0.0
 11
-563.593387
 21
465.500124
 31
0.0
  0
LINE
  5
55D
330
1F
100
AcDbEntity
  8
LC-001-100-D00-0
 62
     7
370
    50
100
AcDbLine
 10
-563.093398
 20
465.500124
 30
0.0
 11
-563.593387
 21
465.500124
 31
0.0
  0
ARC
  5
55E
330
1F
100
AcDbEntity
  8
LC-001-100-D00-0
 62
     7
370
    50
100
AcDbCircle
 10
-564.093398
 20
467.000124
 30
0.0
 40
1.802775637731679
100
AcDbArc
 50
303.690068
 51
56.309932
  0
LINE
  5
55F
330
1F
100
AcDbEntity
  8
LC-001-100-D00-0
 62
     7
370
    50
100
AcDbLine
 10
-563.093393
 20
483.100124
 30
0.0
 11
-563.093398
 21
468.500124
 31
0.0
  0
LINE
  5
560
330
1F
100
AcDbEntity
  8
LC-001-100-D00-0
 62
     7
370
    50
100
AcDbLine
 10
-562.093406
 20
484.100124
 30
0.0
 11
-563.093393
 21
483.100124
 31
0.0
  0
LINE
  5
561
330
1F
100
AcDbEntity
  8
LC-001-100-D00-0
 62
     7
370
    50
100
AcDbLine
 10
-556.093394
 20
484.100124
 30
0.0
 11
-562.093406
 21
484.100124
 31
0.0
  0
LINE
  5
562
330
1F
100
AcDbEntity
  8
LC-001-100-D00-0
 62
     7
370
    50
100
AcDbLine
 10
-555.093407
 20
483.100124
 30
0.0
 11
-556.093394
 21
484.100124
 31
0.0
  0
LINE
  5
563
330
1F
100
AcDbEntity
  8
LC-001-100-D00-0
 62
     7
370
    50
100
AcDbLine
 10
-555.093398
 20
468.500124
 30
0.0
 11
-555.093407
 21
483.100124
 31
0.0
  0
ARC
  5
564
330
1F
100
AcDbEntity
  8
LC-001-100-D00-0
 62
     7
370
    50
100
AcDbCircle
 10
-554.093398
 20
467.000124
 30
0.0
 40
1.802775637731805
100
AcDbArc
 50
123.690068
 51
236.309932
  0
LINE
  5
565
330
1F
100
AcDbEntity
  8
LC-001-100-D00-0
 62
     7
370
    50
100
AcDbLine
 10
-206.952526
 20
459.100124
 30
0.0
 11
-207.646771
 21
459.100124
 31
0.0
  0
LINE
  5
566
330
1F
100
AcDbEntity
  8
LC-001-100-D00-0
 62
     7
370
    50
100
AcDbLine
 10
-208.170607
 20
459.100124
 30
0.0
 11
-213.566788
 21
459.100124
 31
0.0
  0
LINE
  5
567
330
1F
100
AcDbEntity
  8
LC-001-100-D00-0
 62
     7
370
    50
100
AcDbLine
 10
-196.893398
 20
459.100124
 30
0.0
 11
-206.428177
 21
459.100124
 31
0.0
  0
LINE
  5
568
330
1F
100
AcDbEntity
  8
LC-001-100-D00-0
 62
     7
370
    50
100
AcDbLine
 10
-592.093398
 20
484.600124
 30
0.0
 11
-639.093398
 21
484.600124
 31
0.0
  0
LINE
  5
569
330
1F
100
AcDbEntity
  8
LC-001-100-D00-0
 62
     7
370
    50
100
AcDbLine
 10
-592.093398
 20
483.100124
 30
0.0
 11
-639.093398
 21
483.100124
 31
0.0
  0
LINE
  5
56A
330
1F
100
AcDbEntity
  8
LC-001-100-D00-0
 62
     7
370
    50
100
AcDbLine
 10
-183.487282
 20
459.100124
 30
0.0
 11
-196.893398
 21
459.100124
 31
0.0
  0
LINE
  5
56B
330
1F
100
AcDbEntity
  8
LC-001-100-D00-0
 62
     7
370
    50
100
AcDbLine
 10
-206.952526
 20
459.100124
 30
0.0
 11
-206.428177
 21
459.100124
 31
0.0
  0
LINE
  5
56C
330
1F
100
AcDbEntity
  8
LC-001-100-D00-0
 62
     7
370
    50
100
AcDbLine
 10
-208.170607
 20
459.100124
 30
0.0
 11
-207.646771
 21
459.100124
 31
0.0
  0
ELLIPSE
  5
56D
330
1F
100
AcDbEntity
  8
LC-001-100-D00-0
 62
     7
370
    50
100
AcDbEllipse
 10
165.928419
 20
460.100124
 30
0.0
 11
0.0
 21
-2.500000001907349
 31
0.0
210
0.0
220
0.0
230
1.0
 40
0.027578
 41
6.283185307176701
 42
6.604935861573638
  0
ELLIPSE
  5
56E
330
1F
100
AcDbEntity
  8
LC-001-100-D00-0
 62
     7
370
    50
100
AcDbEllipse
 10
-444.115215
 20
460.100124
 30
0.0
 11
0.0
 21
-2.500000015258789
 31
0.0
210
0.0
220
0.0
230
1.0
 40
0.027578
 41
5.961434752782495
 42
6.283185307179586
  0
LINE
  5
56F
330
1F
100
AcDbEntity
  8
LC-001-100-D00-0
 62
     7
370
    50
100
AcDbLine
 10
165.906609
 20
462.471471
 30
0.0
 11
165.906609
 21
457.806083
 31
0.0
  0
LINE
  5
570
330
1F
100
AcDbEntity
  8
LC-001-100-D00-0
 62
     7
370
    50
100
AcDbLine
 10
-444.093405
 20
462.471471
 30
0.0
 11
-444.093405
 21
457.806083
 31
0.0
  0
INSERT
  5
57A
330
1F
100
AcDbEntity
  8
LC-001-100-D00-0
 62
     7
370
    50
100
AcDbBlockReference
  2
KLON18
 10
0.0
 20
0.0
 30
0.0
  0
INSERT
  5
584
330
1F
100
AcDbEntity
  8
LC-001-100-D00-0
 62
     7
370
    50
100
AcDbBlockReference
  2
KLON19
 10
0.0
 20
0.0
 30
0.0
  0
LINE
  5
585
330
1F
100
AcDbEntity
  8
LC-001-100-D00-0
 62
     7
370
    50
100
AcDbLine
 10
165.906579
 20
457.600123
 30
0.0
 11
165.906579
 21
457.80539
 31
0.0
  0
LINE
  5
586
330
1F
100
AcDbEntity
  8
LC-001-100-D00-0
 62
     7
370
    50
100
AcDbLine
 10
165.906609
 20
457.600123
 30
0.0
 11
293.814273
 21
462.268288
 31
0.0
  0
LINE
  5
587
330
1F
100
AcDbEntity
  8
LC-001-100-D00-0
 62
     7
370
    50
100
AcDbLine
 10
165.906579
 20
457.600123
 30
0.0
 11
165.906579
 21
457.600123
 31
0.0
  0
LINE
  5
588
330
1F
100
AcDbEntity
  8
LC-001-100-D00-0
 62
     7
370
    50
100
AcDbLine
 10
-444.093375
 20
457.600123
 30
0.0
 11
-444.093375
 21
457.80539
 31
0.0
  0
LINE
  5
589
330
1F
100
AcDbEntity
  8
LC-001-100-D00-0
 62
     7
370
    50
100
AcDbLine
 10
-444.093405
 20
457.600123
 30
0.0
 11
-572.001069
 21
462.268288
 31
0.0
  0
LINE
  5
58A
330
1F
100
AcDbEntity
  8
LC-001-100-D00-0
 62
     7
370
    50
100
AcDbLine
 10
-444.093375
 20
457.600123
 30
0.0
 11
-444.093375
 21
457.600123
 31
0.0
  0
LINE
  5
58B
330
1F
100
AcDbEntity
  8
LC-001-100-D00-0
 62
     7
370
    50
100
AcDbLine
 10
-97.307242
 20
450.600124
 30
0.0
 11
-95.005532
 21
450.600124
 31
0.0
  0
LINE
  5
58C
330
1F
100
AcDbEntity
  8
LC-001-100-D00-0
 62
     7
370
    50
100
AcDbLine
 10
-93.943483
 20
449.100124
 30
0.0
 11
-93.847896
 21
449.108184
 31
0.0
  0
LINE
  5
58D
330
1F
100
AcDbEntity
  8
LC-001-100-D00-0
 62
     7
370
    50
100
AcDbLine
 10
-93.943483
 20
449.100124
 30
0.0
 11
-97.307242
 21
449.100124
 31
0.0
  0
LINE
  5
58E
330
1F
100
AcDbEntity
  8
LC-001-100-D00-0
 62
     7
370
    50
100
AcDbLine
 10
-184.3389
 20
449.108184
 30
0.0
 11
-184.243313
 21
449.100124
 31
0.0
  0
LINE
  5
58F
330
1F
100
AcDbEntity
  8
LC-001-100-D00-0
 62
     7
370
    50
100
AcDbLine
 10
-180.879555
 20
449.100124
 30
0.0
 11
-184.243313
 21
449.100124
 31
0.0
  0
LINE
  5
590
330
1F
100
AcDbEntity
  8
LC-001-100-D00-0
 62
     7
370
    50
100
AcDbLine
 10
-183.181265
 20
450.600124
 30
0.0
 11
-180.879555
 21
450.600124
 31
0.0
  0
LINE
  5
591
330
1F
100
AcDbEntity
  8
LC-001-100-D00-0
 62
     7
370
    50
100
AcDbLine
 10
-97.307242
 20
450.600124
 30
0.0
 11
-98.08417
 21
450.600124
 31
0.0
  0
LINE
  5
592
330
1F
100
AcDbEntity
  8
LC-001-100-D00-0
 62
     7
370
    50
100
AcDbLine
 10
-97.307242
 20
449.100124
 30
0.0
 11
-98.08417
 21
449.100124
 31
0.0
  0
LINE
  5
593
330
1F
100
AcDbEntity
  8
LC-001-100-D00-0
 62
     7
370
    50
100
AcDbLine
 10
-180.879555
 20
449.100124
 30
0.0
 11
-180.102626
 21
449.100124
 31
0.0
  0
LINE
  5
594
330
1F
100
AcDbEntity
  8
LC-001-100-D00-0
 62
     7
370
    50
100
AcDbLine
 10
-180.879555
 20
450.600124
 30
0.0
 11
-180.102626
 21
450.600124
 31
0.0
  0
LINE
  5
595
330
1F
100
AcDbEntity
  8
LC-001-100-D00-0
 62
     7
370
    50
100
AcDbLine
 10
-64.620008
 20
457.600124
 30
0.0
 11
-62.519408
 21
457.600123
 31
0.0
  0
LINE
  5
596
330
1F
100
AcDbEntity
  8
LC-001-100-D00-0
 62
     7
370
    50
100
AcDbLine
 10
-213.566788
 20
457.600124
 30
0.0
 11
-215.667388
 21
457.600123
 31
0.0
  0
LINE
  5
597
330
1F
100
AcDbEntity
  8
LC-001-100-D00-0
 62
     7
370
    50
100
AcDbLine
 10
-99.354597
 20
450.600124
 30
0.0
 11
-98.08417
 21
450.600124
 31
0.0
  0
LINE
  5
598
330
1F
100
AcDbEntity
  8
LC-001-100-D00-0
 62
     7
370
    50
100
AcDbLine
 10
-98.08417
 20
449.100124
 30
0.0
 11
-99.378983
 21
449.100124
 31
0.0
  0
LINE
  5
599
330
1F
100
AcDbEntity
  8
LC-001-100-D00-0
 62
     7
370
    50
100
AcDbLine
 10
-178.807813
 20
449.100124
 30
0.0
 11
-180.102626
 21
449.100124
 31
0.0
  0
LINE
  5
59A
330
1F
100
AcDbEntity
  8
LC-001-100-D00-0
 62
     7
370
    50
100
AcDbLine
 10
-180.102626
 20
450.600124
 30
0.0
 11
-178.8322
 21
450.600124
 31
0.0
  0
LINE
  5
59B
330
1F
100
AcDbEntity
  8
LC-001-100-D00-0
 62
     7
370
    50
100
AcDbLine
 10
-62.519408
 20
457.600123
 30
0.0
 11
-44.593602
 21
457.600123
 31
0.0
  0
LINE
  5
59C
330
1F
100
AcDbEntity
  8
LC-001-100-D00-0
 62
     7
370
    50
100
AcDbLine
 10
-26.411145
 20
457.600123
 30
0.0
 11
165.906579
 21
457.600123
 31
0.0
  0
LINE
  5
59D
330
1F
100
AcDbEntity
  8
LC-001-100-D00-0
 62
     7
370
    50
100
AcDbLine
 10
-215.667388
 20
457.600123
 30
0.0
 11
-444.093375
 21
457.600123
 31
0.0
  0
ARC
  5
59E
330
1F
100
AcDbEntity
  8
LC-001-100-D00-0
 62
     7
370
    50
100
AcDbCircle
 10
-94.577771
 20
450.534275
 30
0.0
 40
1.602014939989126
100
AcDbArc
 50
297.103406
 51
2.355668
  0
INSERT
  5
5A7
330
1F
100
AcDbEntity
  8
LC-001-100-D00-0
 62
     7
370
    50
100
AcDbBlockReference
  2
KLON20
 10
0.0
 20
0.0
 30
0.0
  0
INSERT
  5
5B4
330
1F
100
AcDbEntity
  8
LC-001-100-D00-0
 62
     7
370
    50
100
AcDbBlockReference
  2
KLON21
 10
0.0
 20
0.0
 30
0.0
  0
INSERT
  5
5C1
330
1F
100
AcDbEntity
  8
LC-001-100-D00-0
 62
     7
370
    50
100
AcDbBlockReference
  2
KLON22
 10
0.0
 20
0.0
 30
0.0
  0
LINE
  5
5C2
330
1F
100
AcDbEntity
  8
LC-001-100-D00-0
 62
     7
370
    50
100
AcDbLine
 10
308.406602
 20
484.600124
 30
0.0
 11
313.906602
 21
484.600124
 31
0.0
  0
LINE
  5
5C3
330
1F
100
AcDbEntity
  8
LC-001-100-D00-0
 62
     7
370
    50
100
AcDbLine
 10
-586.593398
 20
484.600124
 30
0.0
 11
-592.093398
 21
484.600124
 31
0.0
  0
LINE
  5
5C4
330
1F
100
AcDbEntity
  8
LC-001-100-D00-0
 62
     7
370
    50
100
AcDbLine
 10
308.406602
 20
484.600124
 30
0.0
 11
298.156602
 21
484.600124
 31
0.0
  0
LINE
  5
5C5
330
1F
100
AcDbEntity
  8
LC-001-100-D00-0
 62
     7
370
    50
100
AcDbLine
 10
263.656602
 20
484.600124
 30
0.0
 11
138.156602
 21
484.600124
 31
0.0
  0
LINE
  5
5C6
330
1F
100
AcDbEntity
  8
LC-001-100-D00-0
 62
     7
370
    50
100
AcDbLine
 10
103.656602
 20
484.600124
 30
0.0
 11
-21.843398
 21
484.600124
 31
0.0
  0
LINE
  5
5C7
330
1F
100
AcDbEntity
  8
LC-001-100-D00-0
 62
     7
370
    50
100
AcDbLine
 10
-56.343398
 20
484.600124
 30
0.0
 11
-221.843398
 21
484.600124
 31
0.0
  0
LINE
  5
5C8
330
1F
100
AcDbEntity
  8
LC-001-100-D00-0
 62
     7
370
    50
100
AcDbLine
 10
-256.343398
 20
484.600124
 30
0.0
 11
-381.843398
 21
484.600124
 31
0.0
  0
LINE
  5
5C9
330
1F
100
AcDbEntity
  8
LC-001-100-D00-0
 62
     7
370
    50
100
AcDbLine
 10
-416.343398
 20
484.600124
 30
0.0
 11
-541.843398
 21
484.600124
 31
0.0
  0
LINE
  5
5CA
330
1F
100
AcDbEntity
  8
LC-001-100-D00-0
 62
     7
370
    50
100
AcDbLine
 10
-576.343398
 20
484.600124
 30
0.0
 11
-586.593398
 21
484.600124
 31
0.0
  0
LINE
  5
5CB
330
1F
100
AcDbEntity
  8
LC-001-100-D00-0
 62
     7
370
    50
100
AcDbLine
 10
-639.093398
 20
484.600124
 30
0.0
 11
-639.093398
 21
486.100124
 31
0.0
  0
LINE
  5
5CC
330
1F
100
AcDbEntity
  8
LC-001-100-D00-0
 62
     7
370
    50
100
AcDbLine
 10
360.906602
 20
486.100124
 30
0.0
 11
360.906602
 21
484.600124
 31
0.0
  0
ARC
  5
5CD
330
1F
100
AcDbEntity
  8
LC-001-100-D00-0
 62
     7
370
    50
100
AcDbCircle
 10
-634.093398
 20
524.600124
 30
0.0
 40
5.0
100
AcDbArc
 50
90.0
 51
180.0
  0
LINE
  5
5CE
330
1F
100
AcDbEntity
  8
LC-001-100-D00-0
 62
     7
370
    50
100
AcDbLine
 10
-634.093398
 20
529.600124
 30
0.0
 11
355.906602
 21
529.600124
 31
0.0
  0
ARC
  5
5CF
330
1F
100
AcDbEntity
  8
LC-001-100-D00-0
 62
     7
370
    50
100
AcDbCircle
 10
355.906602
 20
524.600124
 30
0.0
 40
5.0
100
AcDbArc
 50
0.0
 51
90.0
  0
LINE
  5
5D0
330
1F
100
AcDbEntity
  8
LC-001-100-D00-0
 62
     7
370
    50
100
AcDbLine
 10
-639.093398
 20
524.600124
 30
0.0
 11
-639.093398
 21
486.100124
 31
0.0
  0
LINE
  5
5D1
330
1F
100
AcDbEntity
  8
LC-001-100-D00-0
 62
     7
370
    50
100
AcDbLine
 10
360.906602
 20
524.600124
 30
0.0
 11
360.906602
 21
486.100124
 31
0.0
  0
DIMENSION
  5
5D2
330
1F
100
AcDbEntity
  8
LC-001-100-D00-0
 62
     7
370
    25
100
AcDbDimension
  2
*D27
 10
-681.200928
 20
529.600124
 30
0.0
 11
-736.200928
 21
431.958276
 31
0.0
 70
   160
  1
46
 71
     5
 42
45.0
 53
90.0
  3
LC-DIM-L-0100-02-02
100
AcDbAlignedDimension
 13
-639.093398
 23
484.600124
 33
0.0
 14
-634.093398
 24
529.600124
 34
0.0
 50
90.0
100
AcDbRotatedDimension
  0
DIMENSION
  5
5E0
330
1F
100
AcDbEntity
  8
LC-001-100-D00-0
 62
     7
370
    25
100
AcDbDimension
  2
*D28
 10
-278.976968
 20
443.100124
 30
0.0
 11
-333.976968
 21
427.941872
 31
0.0
 70
   160
  1
30
 71
     5
 42
30.0
 53
90.0
  3
LC-DIM-L-0100-02-02
100
AcDbAlignedDimension
 13
-168.093398
 23
413.100124
 33
0.0
 14
-178.586277
 24
443.100124
 34
0.0
 50
90.0
100
AcDbRotatedDimension
  0
DIMENSION
  5
5EF
330
1F
100
AcDbEntity
  8
LC-001-100-D00-0
 62
     7
370
    25
100
AcDbDimension
  2
*D29
 10
70.406399
 20
292.368276
 30
0.0
 11
-71.749836
 21
347.368276
 31
0.0
 70
   160
  1
284
 71
     5
 42
283.499797
  3
LC-DIM-L-0100-02-02
100
AcDbAlignedDimension
 13
-213.093398
 23
413.600124
 33
0.0
 14
70.406399
 24
403.037946
 34
0.0
100
AcDbRotatedDimension
  0
DIMENSION
  5
5FC
330
1F
100
AcDbEntity
  8
LC-001-100-D00-0
 62
     7
370
    25
100
AcDbDimension
  2
*D30
 10
453.486196
 20
402.100124
 30
0.0
 11
398.486196
 21
454.233276
 31
0.0
 70
   160
  1
DN50
 71
     5
 42
50.0
 53
90.0
  3
LC-DIM-L-0100-02-02
100
AcDbAlignedDimension
 13
66.906399
 23
452.100124
 33
0.0
 14
66.906399
 24
402.100124
 34
0.0
 50
90.0
100
AcDbRotatedDimension
  0
DIMENSION
  5
60A
330
1F
100
AcDbEntity
  8
LC-001-100-D00-0
 62
     7
370
    25
100
AcDbDimension
  2
*D31
 10
360.906602
 20
630.948276
 30
0.0
 11
-155.964896
 21
685.948276
 31
0.0
 70
   160
  1
1000
 71
     5
 42
1000.0
  3
LC-DIM-L-0100-02-02
100
AcDbAlignedDimension
 13
-639.093398
 23
524.600124
 33
0.0
 14
360.906602
 24
524.600124
 34
0.0
100
AcDbRotatedDimension
  0
DIMENSION
  5
617
330
1F
100
AcDbEntity
  8
LC-001-100-D00-0
 62
     7
370
    25
100
AcDbDimension
  2
*D32
 10
310.906602
 20
552.522716
 30
0.0
 11
-145.860438
 21
607.522716
 31
0.0
 70
   160
  1
900
 71
     5
 42
900.0
  3
LC-DIM-L-0100-02-02
100
AcDbAlignedDimension
 13
-589.093398
 23
481.600124
 33
0.0
 14
310.906602
 24
481.600124
 34
0.0
100
AcDbRotatedDimension
  0
DIMENSION
  5
624
330
1F
100
AcDbEntity
  8
LC-001-100-D00-0
 62
     7
370
    25
100
AcDbDimension
  2
*D33
 10
546.565999
 20
484.600124
 30
0.0
 11
491.565999
 21
485.418276
 31
0.0
 70
   160
  1
57,5
 71
     5
 42
57.5
 53
90.0
  3
LC-DIM-L-0100-02-02
100
AcDbAlignedDimension
 13
76.906399
 23
427.100124
 33
0.0
 14
360.906602
 24
484.600124
 34
0.0
 50
90.0
100
AcDbRotatedDimension
  0
DIMENSION
  5
632
330
1F
100
AcDbEntity
  8
LC-001-100-D00-0
 62
     7
370
    25
100
AcDbDimension
  2
*D34
 10
644.078173
 20
394.600124
 30
0.0
 11
589.078173
 21
408.198276
 31
0.0
 70
   160
  1
90
 71
     5
 42
90.0
 53
90.0
  3
LC-DIM-L-0100-02-02
100
AcDbAlignedDimension
 13
360.906602
 23
484.600124
 33
0.0
 14
-85.075518
 24
394.600124
 34
0.0
 50
90.0
100
AcDbRotatedDimension
  0
INSERT
  5
648
330
1F
100
AcDbEntity
  8
LC-001-100-D00-0
 62
     7
370
    25
100
AcDbBlockReference
  2
KLON23
 10
0.0
 20
0.0
 30
0.0
  0
INSERT
  5
64F
330
1F
100
AcDbEntity
  8
LC-001-100-D00-0
 62
     7
370
    25
100
AcDbBlockReference
  2
KLON24
 10
0.0
 20
0.0
 30
0.0
  0
INSERT
  5
65C
330
1F
100
AcDbEntity
  8
LC-001-100-D00-0
 62
     7
370
    25
100
AcDbBlockReference
  2
KLON25
 10
0.0
 20
0.0
 30
0.0
  0
INSERT
  5
664
330
1F
100
AcDbEntity
  8
LC-001-100-D00-0
 62
     7
370
    25
100
AcDbBlockReference
  2
KLON26
 10
0.0
 20
0.0
 30
0.0
  0
INSERT
  5
66C
330
1F
100
AcDbEntity
  8
LC-001-100-D00-0
 62
     7
370
    25
100
AcDbBlockReference
  2
KLON27
 10
0.0
 20
0.0
 30
0.0
  0
INSERT
  5
67C
330
1F
100
AcDbEntity
  8
LC-001-100-D00-0
 62
     7
370
    25
100
AcDbBlockReference
  2
KLON28
 10
0.0
 20
0.0
 30
0.0
  0
INSERT
  5
683
330
1F
100
AcDbEntity
  8
LC-001-100-D00-0
 62
     7
370
    25
100
AcDbBlockReference
  2
KLON29
 10
0.0
 20
0.0
 30
0.0
  0
LINE
  5
684
330
1F
100
AcDbEntity
  8
LC-001-100-D00-0
 62
     7
370
    25
100
AcDbLine
 10
-202.207798
 20
453.600124
 30
0.0
 11
-198.236349
 21
457.571573
 31
0.0
  0
LINE
  5
685
330
1F
100
AcDbEntity
  8
LC-001-100-D00-0
 62
     7
370
    25
100
AcDbLine
 10
-67.253961
 20
453.850124
 30
0.0
 11
-65.093398
 21
456.010687
 31
0.0
  0
LINE
  5
686
330
1F
100
AcDbEntity
  8
LC-001-100-D00-0
 62
     7
370
    25
100
AcDbLine
 10
-205.207798
 20
450.600124
 30
0.0
 11
-202.207798
 21
453.600124
 31
0.0
  0
INSERT
  5
6A0
330
1F
100
AcDbEntity
  8
LC-001-100-D00-0
 62
     7
370
    25
100
AcDbBlockReference
  2
KLON30
 10
0.0
 20
0.0
 30
0.0
  0
INSERT
  5
6BC
330
1F
100
AcDbEntity
  8
LC-001-100-D00-0
 62
     7
370
    25
100
AcDbBlockReference
  2
KLON31
 10
0.0
 20
0.0
 30
0.0
  0
LINE
  5
6BD
330
1F
100
AcDbEntity
  8
LC-001-100-D00-0
 62
     7
370
    25
100
AcDbLine
 10
-408.843398
 20
471.47092
 30
0.0
 11
-402.993398
 21
477.32092
 31
0.0
  0
LINE
  5
6BE
330
1F
100
AcDbEntity
  8
LC-001-100-D00-0
 62
     7
370
    25
100
AcDbLine
 10
-392.263554
 20
465.600124
 30
0.0
 11
-389.343398
 21
468.52028
 31
0.0
  0
LINE
  5
6BF
330
1F
100
AcDbEntity
  8
LC-001-100-D00-0
 62
     7
370
    25
100
AcDbLine
 10
111.156602
 20
475.106212
 30
0.0
 11
117.006602
 21
480.956212
 31
0.0
  0
INSERT
  5
6C5
330
1F
100
AcDbEntity
  8
LC-001-100-D00-0
 62
     7
370
    25
100
AcDbBlockReference
  2
KLON32
 10
0.0
 20
0.0
 30
0.0
  0
LINE
  5
6C6
330
1F
100
AcDbEntity
  8
LC-001-100-D00-0
 62
     7
370
    50
100
AcDbLine
 10
124.703878
 20
466.202848
 30
0.0
 11
126.371929
 21
467.8709
 31
0.0
  0
LINE
  5
6C7
330
1F
100
AcDbEntity
  8
LC-001-100-D00-0
 62
     7
370
    25
100
AcDbLine
 10
-48.843398
 20
472.260688
 30
0.0
 11
-42.993398
 21
478.110689
 31
0.0
  0
INSERT
  5
6CD
330
1F
100
AcDbEntity
  8
LC-001-100-D00-0
 62
     7
370
    25
100
AcDbBlockReference
  2
KLON33
 10
0.0
 20
0.0
 30
0.0
  0
LINE
  5
6CE
330
1F
100
AcDbEntity
  8
LC-001-100-D00-0
 62
     7
370
    50
100
AcDbLine
 10
-33.053323
 20
465.600124
 30
0.0
 11
-32.742545
 21
465.910901
 31
0.0
  0
INSERT
  5
6D5
330
1F
100
AcDbEntity
  8
LC-001-100-D00-0
 62
     7
370
    25
100
AcDbBlockReference
  2
KLON34
 10
0.0
 20
0.0
 30
0.0
  0
LINE
  5
6D6
330
1F
100
AcDbEntity
  8
LC-001-100-D00-0
 62
     7
370
    50
100
AcDbLine
 10
-555.193398
 20
482.275397
 30
0.0
 11
-552.868672
 21
484.600124
 31
0.0
  0
LINE
  5
6D7
330
1F
100
AcDbEntity
  8
LC-001-100-D00-0
 62
     7
370
    50
100
AcDbLine
 10
-565.444251
 20
472.024543
 30
0.0
 11
-563.868671
 21
473.600124
 31
0.0
  0
LINE
  5
6D8
330
1F
100
AcDbEntity
  8
LC-001-100-D00-0
 62
     7
370
    25
100
AcDbLine
 10
271.156602
 20
477.951736
 30
0.0
 11
277.006602
 21
483.801736
 31
0.0
  0
INSERT
  5
6DF
330
1F
100
AcDbEntity
  8
LC-001-100-D00-0
 62
     7
370
    25
100
AcDbBlockReference
  2
KLON35
 10
0.0
 20
0.0
 30
0.0
  0
INSERT
  5
6E5
330
1F
100
AcDbEntity
  8
LC-001-100-D00-0
 62
     7
370
    50
100
AcDbBlockReference
  2
KLON36
 10
0.0
 20
0.0
 30
0.0
  0
LINE
  5
6E6
330
1F
100
AcDbEntity
  8
LC-001-100-D00-0
 62
     7
370
    25
100
AcDbLine
 10
-248.843398
 20
474.316444
 30
0.0
 11
-242.993398
 21
480.166444
 31
0.0
  0
INSERT
  5
6EC
330
1F
100
AcDbEntity
  8
LC-001-100-D00-0
 62
     7
370
    25
100
AcDbBlockReference
  2
KLON37
 10
0.0
 20
0.0
 30
0.0
  0
LINE
  5
6ED
330
1F
100
AcDbEntity
  8
LC-001-100-D00-0
 62
     7
370
    50
100
AcDbLine
 10
-234.901238
 20
465.807964
 30
0.0
 11
-233.031621
 21
467.677581
 31
0.0
  0
LINE
  5
6EE
330
1F
100
AcDbEntity
  8
LC-001-100-D00-0
  6
DASHDOT
 62
     7
370
    25
100
AcDbLine
 10
280.906602
 20
456.600124
 30
0.0
 11
280.906602
 21
490.600124
 31
0.0
  0
LINE
  5
6EF
330
1F
100
AcDbEntity
  8
LC-001-100-D00-0
  6
DASHDOT
 62
     7
370
    25
100
AcDbLine
 10
120.906602
 20
456.600124
 30
0.0
 11
120.906602
 21
490.600124
 31
0.0
  0
LINE
  5
6F0
330
1F
100
AcDbEntity
  8
LC-001-100-D00-0
  6
DASHDOT
 62
     7
370
    25
100
AcDbLine
 10
-39.093398
 20
456.600124
 30
0.0
 11
-39.093398
 21
490.600124
 31
0.0
  0
LINE
  5
6F1
330
1F
100
AcDbEntity
  8
LC-001-100-D00-0
  6
DASHDOT
 62
     7
370
    25
100
AcDbLine
 10
76.906399
 20
427.100124
 30
0.0
 11
-26.118617
 21
427.100124
 31
0.0
  0
LINE
  5
6F2
330
1F
100
AcDbEntity
  8
LC-001-100-D00-0
  6
DASHDOT
 62
     7
370
    25
100
AcDbLine
 10
-139.093398
 20
529.600124
 30
0.0
 11
-139.093398
 21
392.100124
 31
0.0
  0
LINE
  5
6F3
330
1F
100
AcDbEntity
  8
LC-001-100-D00-0
  6
DASHDOT
 62
     7
370
    25
100
AcDbLine
 10
-239.093398
 20
456.600124
 30
0.0
 11
-239.093398
 21
490.600124
 31
0.0
  0
LINE
  5
6F4
330
1F
100
AcDbEntity
  8
LC-001-100-D00-0
  6
DASHDOT
 62
     7
370
    25
100
AcDbLine
 10
-399.093398
 20
456.600124
 30
0.0
 11
-399.093398
 21
490.600124
 31
0.0
  0
LINE
  5
6F5
330
1F
100
AcDbEntity
  8
LC-001-100-D00-0
  6
DASHDOT
 62
     7
370
    25
100
AcDbLine
 10
-559.093398
 20
456.600124
 30
0.0
 11
-559.093398
 21
490.600124
 31
0.0
  0
ENDSEC
  0
SECTION
  2
OBJECTS
  0
DICTIONARY
  5
C
330
0
100
AcDbDictionary
281
     1
  3
ACAD_GROUP
350
D
  3
ACAD_LAYOUT
350
1A
  3
ACAD_MLINESTYLE
350
17
  3
ACAD_PLOTSETTINGS
350
19
  3
ACAD_PLOTSTYLENAME
350
E
  0
DICTIONARY
  5
D
102
{ACAD_REACTORS
330
C
102
}
330
C
100
AcDbDictionary
281
     1
  0
DICTIONARY
  5
1A
102
{ACAD_REACTORS
330
C
102
}
330
C
100
AcDbDictionary
281
     1
  3
Layout1
350
1E
  3
Layout2
350
26
  3
Model
350
22
  0
DICTIONARY
  5
17
102
{ACAD_REACTORS
330
C
102
}
330
C
100
AcDbDictionary
281
     1
  3
Standard
350
18
  0
DICTIONARY
  5
19
102
{ACAD_REACTORS
330
C
102
}
330
C
100
AcDbDictionary
281
     1
  0
ACDBDICTIONARYWDFLT
  5
E
102
{ACAD_REACTORS
330
C
102
}
330
C
100
AcDbDictionary
281
     1
  3
Normal
350
F
100
AcDbDictionaryWithDefault
340
F
  0
LAYOUT
  5
1E
102
{ACAD_REACTORS
330
1A
102
}
330
1A
100
AcDbPlotSettings
  1

  2

  4

  6

 40
0.0
 41
0.0
 42
0.0
 43
0.0
 44
0.0
 45
0.0
 46
0.0
 47
0.0
 48
0.0
 49
0.0
140
0.0
141
0.0
142
1.0
143
1.0
 70
   688
 72
     0
 73
     0
 74
     5
  7

 75
    16
147
1.0
148
0.0
149
0.0
100
AcDbLayout
  1
Layout1
 70
     1
 71
     1
 10
-860.239913
 20
-616.451724
 11
1239.760087
 21
868.548276
 12
0.0
 22
0.0
 32
0.0
 14
-860.239913
 24
-616.451724
 34
0.0
 15
1239.760087
 25
868.548276
 35
0.0
146
0.0
 13
0.0
 23
0.0
 33
0.0
 16
1.0
 26
0.0
 36
0.0
 17
0.0
 27
1.0
 37
0.0
 76
     0
330
1B
  0
LAYOUT
  5
26
102
{ACAD_REACTORS
330
1A
102
}
330
1A
100
AcDbPlotSettings
  1

  2

  4

  6

 40
0.0
 41
0.0
 42
0.0
 43
0.0
 44
0.0
 45
0.0
 46
0.0
 47
0.0
 48
0.0
 49
0.0
140
0.0
141
0.0
142
1.0
143
1.0
 70
   688
 72
     0
 73
     0
 74
     5
  7

 75
    16
147
1.0
148
0.0
149
0.0
100
AcDbLayout
  1
Layout2
 70
     1
 71
     2
 10
0.0
 20
0.0
 11
0.0
 21
0.0
 12
0.0
 22
0.0
 32
0.0
 14
0.0
 24
0.0
 34
0.0
 15
0.0
 25
0.0
 35
0.0
146
0.0
 13
0.0
 23
0.0
 33
0.0
 16
1.0
 26
0.0
 36
0.0
 17
0.0
 27
1.0
 37
0.0
 76
     0
330
23
  0
LAYOUT
  5
22
102
{ACAD_REACTORS
330
1A
102
}
330
1A
100
AcDbPlotSettings
  1

  2

  4

  6

 40
0.0
 41
0.0
 42
0.0
 43
0.0
 44
0.0
 45
0.0
 46
0.0
 47
0.0
 48
0.0
 49
0.0
140
0.0
141
0.0
142
1.0
143
1.0
 70
  1776
 72
     0
 73
     0
 74
     0
  7

 75
     0
147
1.0
148
0.0
149
0.0
100
AcDbLayout
  1
Model
 70
     1
 71
     0
 10
-860.239913
 20
-616.451724
 11
1239.760087
 21
868.548276
 12
0.0
 22
0.0
 32
0.0
 14
-860.239913
 24
-616.451724
 34
0.0
 15
1239.760087
 25
868.548276
 35
0.0
146
0.0
 13
0.0
 23
0.0
 33
0.0
 16
1.0
 26
0.0
 36
0.0
 17
0.0
 27
1.0
 37
0.0
 76
     0
330
1F
  0
MLINESTYLE
  5
18
102
{ACAD_REACTORS
330
17
102
}
330
17
100
AcDbMlineStyle
  2
Standard
 70
     0
  3

 62
   256
 51
90.0
 52
90.0
 71
     2
 49
0.5
 62
   256
  6
BYLAYER
 49
-0.5
 62
   256
  6
BYLAYER
  0
ACDBPLACEHOLDER
  5
F
102
{ACAD_REACTORS
330
E
102
}
330
E
  0
ENDSEC
  0
EOF
