  0
SECTION
  2
HEADER
  9
$ACADVER
  1
AC1015
  9
$ACADMAINTVER
 70
     6
  9
$DWGCODEPAGE
  3
ANSI_1252
  9
$INSBASE
 10
0.0
 20
0.0
 30
0.0
  9
$EXTMIN
 10
-413.036307
 20
-247.724464
 30
0.0
  9
$EXTMAX
 10
774.963693
 20
592.275536
 30
0.0
  9
$LIMMIN
 10
-413.036307
 20
-247.724464
  9
$LIMMAX
 10
774.963693
 20
592.275536
  9
$ORTHOMODE
 70
     0
  9
$REGENMODE
 70
     1
  9
$FILLMODE
 70
     1
  9
$QTEXTMODE
 70
     0
  9
$MIRRTEXT
 70
     1
  9
$LTSCALE
 40
2.0
  9
$ATTMODE
 70
     1
  9
$TEXTSIZE
 40
2.5
  9
$TRACEWID
 40
1.0
  9
$TEXTSTYLE
  7
Standard
  9
$CLAYER
  8
0
  9
$CELTYPE
  6
ByLayer
  9
$CECOLOR
 62
     7
  9
$CELTSCALE
 40
1.0
  9
$DISPSILH
 70
     0
  9
$DIMSCALE
 40
2.0
  9
$DIMASZ
 40
3.5
  9
$DIMEXO
 40
0.625
  9
$DIMDLI
 40
3.75
  9
$DIMRND
 40
0.0
  9
$DIMDLE
 40
0.0
  9
$DIMEXE
 40
1.25
  9
$DIMTP
 40
0.0
  9
$DIMTM
 40
0.0
  9
$DIMTXT
 40
3.5
  9
$DIMCEN
 40
2.5
  9
$DIMTSZ
 40
0.0
  9
$DIMTOL
 70
     0
  9
$DIMLIM
 70
     0
  9
$DIMTIH
 70
     0
  9
$DIMTOH
 70
     0
  9
$DIMSE1
 70
     0
  9
$DIMSE2
 70
     0
  9
$DIMTAD
 70
     1
  9
$DIMZIN
 70
     8
  9
$DIMBLK
  1

  9
$DIMASO
 70
     1
  9
$DIMSHO
 70
     1
  9
$DIMPOST
  1

  9
$DIMAPOST
  1

  9
$DIMALT
 70
     0
  9
$DIMALTD
 70
     3
  9
$DIMALTF
 40
0.03937
  9
$DIMLFAC
 40
1.0
  9
$DIMTOFL
 70
     1
  9
$DIMTVP
 40
0.0
  9
$DIMTIX
 70
     0
  9
$DIMSOXD
 70
     0
  9
$DIMSAH
 70
     0
  9
$DIMBLK1
  1

  9
$DIMBLK2
  1

  9
$DIMSTYLE
  2
ISO-25
  9
$DIMCLRD
 70
     0
  9
$DIMCLRE
 70
     0
  9
$DIMCLRT
 70
     0
  9
$DIMTFAC
 40
1.0
  9
$DIMGAP
 40
0.625
  9
$DIMJUST
 70
     0
  9
$DIMSD1
 70
     0
  9
$DIMSD2
 70
     0
  9
$DIMTOLJ
 70
     0
  9
$DIMTZIN
 70
     8
  9
$DIMALTZ
 70
     0
  9
$DIMALTTZ
 70
     0
  9
$DIMUPT
 70
     0
  9
$DIMDEC
 70
     2
  9
$DIMTDEC
 70
     2
  9
$DIMALTU
 70
     2
  9
$DIMALTTD
 70
     3
  9
$DIMTXSTY
  7
Standard
  9
$DIMAUNIT
 70
     0
  9
$DIMADEC
 70
     0
  9
$DIMALTRND
 40
0.0
  9
$DIMAZIN
 70
     0
  9
$DIMDSEP
 70
    44
  9
$DIMATFIT
 70
     3
  9
$DIMFRAC
 70
     0
  9
$DIMLDRBLK
  1

  9
$DIMLUNIT
 70
     2
  9
$DIMLWD
 70
    -2
  9
$DIMLWE
 70
    -2
  9
$DIMTMOVE
 70
     0
  9
$LUNITS
 70
     2
  9
$LUPREC
 70
     4
  9
$SKETCHINC
 40
1.0
  9
$FILLETRAD
 40
10.0
  9
$AUNITS
 70
     0
  9
$AUPREC
 70
     0
  9
$MENU
  1
.
  9
$ELEVATION
 40
0.0
  9
$PELEVATION
 40
0.0
  9
$THICKNESS
 40
0.0
  9
$LIMCHECK
 70
     0
  9
$CHAMFERA
 40
10.0
  9
$CHAMFERB
 40
10.0
  9
$CHAMFERC
 40
20.0
  9
$CHAMFERD
 40
0.0
  9
$SKPOLY
 70
     0
  9
$TDCREATE
 40
2456015.47396522
  9
$TDUCREATE
 40
2456015.390631887
  9
$TDUPDATE
 40
2456015.473965231
  9
$TDUUPDATE
 40
2456015.390631898
  9
$TDINDWG
 40
0.0000000116
  9
$TDUSRTIMER
 40
0.0000000116
  9
$USRTIMER
 70
     1
  9
$ANGBASE
 50
0.0
  9
$ANGDIR
 70
     0
  9
$PDMODE
 70
     0
  9
$PDSIZE
 40
0.0
  9
$PLINEWID
 40
0.0
  9
$SPLFRAME
 70
     0
  9
$SPLINETYPE
 70
     6
  9
$SPLINESEGS
 70
     8
  9
$HANDSEED
  5
665
  9
$SURFTAB1
 70
     6
  9
$SURFTAB2
 70
     6
  9
$SURFTYPE
 70
     6
  9
$SURFU
 70
     6
  9
$SURFV
 70
     6
  9
$UCSBASE
  2

  9
$UCSNAME
  2

  9
$UCSORG
 10
0.0
 20
0.0
 30
0.0
  9
$UCSXDIR
 10
1.0
 20
0.0
 30
0.0
  9
$UCSYDIR
 10
0.0
 20
1.0
 30
0.0
  9
$UCSORTHOREF
  2

  9
$UCSORTHOVIEW
 70
     0
  9
$UCSORGTOP
 10
0.0
 20
0.0
 30
0.0
  9
$UCSORGBOTTOM
 10
0.0
 20
0.0
 30
0.0
  9
$UCSORGLEFT
 10
0.0
 20
0.0
 30
0.0
  9
$UCSORGRIGHT
 10
0.0
 20
0.0
 30
0.0
  9
$UCSORGFRONT
 10
0.0
 20
0.0
 30
0.0
  9
$UCSORGBACK
 10
0.0
 20
0.0
 30
0.0
  9
$PUCSBASE
  2

  9
$PUCSNAME
  2

  9
$PUCSORG
 10
0.0
 20
0.0
 30
0.0
  9
$PUCSXDIR
 10
1.0
 20
0.0
 30
0.0
  9
$PUCSYDIR
 10
0.0
 20
1.0
 30
0.0
  9
$PUCSORTHOREF
  2

  9
$PUCSORTHOVIEW
 70
     0
  9
$PUCSORGTOP
 10
0.0
 20
0.0
 30
0.0
  9
$PUCSORGBOTTOM
 10
0.0
 20
0.0
 30
0.0
  9
$PUCSORGLEFT
 10
0.0
 20
0.0
 30
0.0
  9
$PUCSORGRIGHT
 10
0.0
 20
0.0
 30
0.0
  9
$PUCSORGFRONT
 10
0.0
 20
0.0
 30
0.0
  9
$PUCSORGBACK
 10
0.0
 20
0.0
 30
0.0
  9
$USERI1
 70
     0
  9
$USERI2
 70
     0
  9
$USERI3
 70
     0
  9
$USERI4
 70
     0
  9
$USERI5
 70
     0
  9
$USERR1
 40
0.0
  9
$USERR2
 40
0.0
  9
$USERR3
 40
0.0
  9
$USERR4
 40
0.0
  9
$USERR5
 40
0.0
  9
$WORLDVIEW
 70
     1
  9
$SHADEDGE
 70
     3
  9
$SHADEDIF
 70
    70
  9
$TILEMODE
 70
     1
  9
$MAXACTVP
 70
    64
  9
$PINSBASE
 10
0.0
 20
0.0
 30
0.0
  9
$PLIMCHECK
 70
     0
  9
$PEXTMIN
 10
-413.036307
 20
-247.724464
 30
0.0
  9
$PEXTMAX
 10
774.963693
 20
592.275536
 30
0.0
  9
$PLIMMIN
 10
-413.036307
 20
-247.724464
  9
$PLIMMAX
 10
774.963693
 20
592.275536
  9
$UNITMODE
 70
     0
  9
$VISRETAIN
 70
     1
  9
$PLINEGEN
 70
     0
  9
$PSLTSCALE
 70
     1
  9
$TREEDEPTH
 70
  3020
  9
$CMLSTYLE
  2
Standard
  9
$CMLJUST
 70
     0
  9
$CMLSCALE
 40
20.0
  9
$PROXYGRAPHICS
 70
     1
  9
$MEASUREMENT
 70
     1
  9
$CELWEIGHT
370
    -1
  9
$ENDCAPS
280
     0
  9
$JOINSTYLE
280
     0
  9
$LWDISPLAY
290
     0
  9
$INSUNITS
 70
     4
  9
$HYPERLINKBASE
  1

  9
$STYLESHEET
  1

  9
$XEDIT
290
     1
  9
$CEPSNTYPE
380
     0
  9
$PSTYLEMODE
290
     1
  9
$FINGERPRINTGUID
  2
{FAEB1C30-E019-11D5-929B-00C0DF256EC4}
  9
$VERSIONGUID
  2
{FAEB1C32-E019-11D5-929B-00C0DF256EC4}
  9
$EXTNAMES
290
     1
  9
$PSVPSCALE
 40
0.0
  9
$OLESTARTUP
290
     0
  0
ENDSEC
  0
SECTION
  2
CLASSES
  0
CLASS
  1
ACDBDICTIONARYWDFLT
  2
AcDbDictionaryWithDefault
  3
ObjectDBX Classes
 90
        0
280
     0
281
     0
  0
CLASS
  1
ACDBPLACEHOLDER
  2
AcDbPlaceHolder
  3
ObjectDBX Classes
 90
        0
280
     0
281
     0
  0
CLASS
  1
LAYOUT
  2
AcDbLayout
  3
ObjectDBX Classes
 90
        0
280
     0
281
     0
  0
ENDSEC
  0
SECTION
  2
TABLES
  0
TABLE
  2
VPORT
  5
8
330
0
100
AcDbSymbolTable
 70
     2
  0
VPORT
  5
29
330
8
100
AcDbSymbolTableRecord
100
AcDbViewportTableRecord
  2
*ACTIVE
 70
     0
 10
0.0
 20
0.0
 11
1.0
 21
1.0
 12
180.963693
 22
172.275536
 13
0.0
 23
0.0
 14
1.0
 24
1.0
 15
0.0
 25
0.0
 16
0.0
 26
0.0
 36
1.0
 17
0.0
 27
0.0
 37
0.0
 40
840.0
 41
1.414286
 42
50.0
 43
0.0
 44
0.0
 50
0.0
 51
0.0
 71
    16
 72
   100
 73
     1
 74
     0
 75
     0
 76
     0
 77
     0
 78
     0
281
     0
 65
     0
110
0.0
120
0.0
130
0.0
111
1.0
121
0.0
131
0.0
112
0.0
122
1.0
132
0.0
 79
     0
146
0.0
  0
ENDTAB
  0
TABLE
  2
LTYPE
  5
5
330
0
100
AcDbSymbolTable
 70
     3
  0
LTYPE
  5
14
330
5
100
AcDbSymbolTableRecord
100
AcDbLinetypeTableRecord
  2
ByBlock
 70
     0
  3

 72
    65
 73
     0
 40
0.0
  0
LTYPE
  5
15
330
5
100
AcDbSymbolTableRecord
100
AcDbLinetypeTableRecord
  2
ByLayer
 70
     0
  3

 72
    65
 73
     0
 40
0.0
  0
LTYPE
  5
16
330
5
100
AcDbSymbolTableRecord
100
AcDbLinetypeTableRecord
  2
Continuous
 70
     0
  3
Solid line
 72
    65
 73
     0
 40
0.0
  0
LTYPE
  5
2A
330
5
100
AcDbSymbolTableRecord
100
AcDbLinetypeTableRecord
  2
DASHED
 70
     0
  3
__ __ __ __ __
 72
    65
 73
     2
 40
6.25
 49
5.0
 74
     4
 75
     0
340
0
 46
1.0
 50
0.0
 44
0.0
 45
0.0
 49
-1.25
 74
     4
 75
     0
340
0
 46
1.0
 50
0.0
 44
0.0
 45
0.0
  0
LTYPE
  5
30
330
5
100
AcDbSymbolTableRecord
100
AcDbLinetypeTableRecord
  2
DASHDOT
 70
     0
  3
__ . __ . __ . __ . __
 72
    65
 73
     4
 40
7.5
 49
5.0
 74
     4
 75
     0
340
0
 46
1.0
 50
0.0
 44
0.0
 45
0.0
 49
-1.25
 74
     4
 75
     0
340
0
 46
1.0
 50
0.0
 44
0.0
 45
0.0
 49
0.0
 74
     4
 75
     0
340
0
 46
1.0
 50
0.0
 44
0.0
 45
0.0
 49
-1.25
 74
     4
 75
     0
340
0
 46
1.0
 50
0.0
 44
0.0
 45
0.0
  0
ENDTAB
  0
TABLE
  2
LAYER
  5
2
330
0
100
AcDbSymbolTable
 70
     7
  0
LAYER
  5
10
330
2
100
AcDbSymbolTableRecord
100
AcDbLayerTableRecord
  2
0
 70
     0
 62
     7
  6
Continuous
370
    -3
390
F
  0
LAYER
  5
2B
330
2
100
AcDbSymbolTableRecord
100
AcDbLayerTableRecord
  2
LC-INFO-1-2-mm-A2-0
 70
     1
 62
     7
  6
ByBlock
370
    -3
390
F
  0
LAYER
  5
2C
330
2
100
AcDbSymbolTableRecord
100
AcDbLayerTableRecord
  2
LC-CUT-HIDDEN
 70
     0
 62
     7
  6
DASHED
370
    -3
390
F
  0
LAYER
  5
2D
330
2
100
AcDbSymbolTableRecord
100
AcDbLayerTableRecord
  2
LC-VIEWPORT
 70
     0
 62
     7
  6
ByBlock
370
    -3
390
F
  0
LAYER
  5
2E
330
2
100
AcDbSymbolTableRecord
100
AcDbLayerTableRecord
  2
LC-3D-HIDDEN
 70
     0
 62
     9
  6
DASHED
370
    -3
390
F
  0
LAYER
  5
31
330
2
100
AcDbSymbolTableRecord
100
AcDbLayerTableRecord
  2
LC-001-100-D00-0
 70
     0
 62
     2
  6
DASHDOT
370
    -3
390
F
  0
LAYER
  5
204
330
2
100
AcDbSymbolTableRecord
100
AcDbLayerTableRecord
  2
Defpoints
 70
     0
 62
     7
  6
Continuous
290
     0
370
    -3
390
F
  0
ENDTAB
  0
TABLE
  2
STYLE
  5
3
330
0
100
AcDbSymbolTable
 70
     3
  0
STYLE
  5
11
330
3
100
AcDbSymbolTableRecord
100
AcDbTextStyleTableRecord
  2
Standard
 70
     0
 40
0.0
 41
1.0
 50
0.0
 71
     0
 42
2.5
  3
txt
  4

  0
STYLE
  5
2F
330
3
100
AcDbSymbolTableRecord
100
AcDbTextStyleTableRecord
  2
LCTX15-400-0-0-Arial
 70
     0
 40
0.0
 41
0.8
 50
0.0
 71
     0
 42
3.5
  3

  4

1001
ACAD
1000
Arial
1071
 16777218
  0
STYLE
  5
201
330
3
100
AcDbSymbolTableRecord
100
AcDbTextStyleTableRecord
  2
LCTX15-400-0-0pDIN-Schrift
 70
     0
 40
2.5
 41
0.8
 50
15.0
 71
     0
 42
3.5
  3
STANDARD
  4

  0
ENDTAB
  0
TABLE
  2
VIEW
  5
6
330
0
100
AcDbSymbolTable
 70
     0
  0
ENDTAB
  0
TABLE
  2
UCS
  5
7
330
0
100
AcDbSymbolTable
 70
     0
  0
ENDTAB
  0
TABLE
  2
APPID
  5
9
330
0
100
AcDbSymbolTable
 70
     1
  0
APPID
  5
12
330
9
100
AcDbSymbolTableRecord
100
AcDbRegAppTableRecord
  2
ACAD
 70
     0
  0
ENDTAB
  0
TABLE
  2
DIMSTYLE
  5
A
330
0
100
AcDbSymbolTable
 70
     2
100
AcDbDimStyleTable
  0
DIMSTYLE
105
27
330
A
100
AcDbSymbolTableRecord
100
AcDbDimStyleTableRecord
  2
ISO-25
 70
     0
 41
2.5
 42
0.625
 43
3.75
 44
1.25
 73
     0
 74
     0
 77
     1
 78
     8
140
2.5
141
2.5
143
0.03937
147
0.625
171
     3
172
     1
271
     2
272
     2
274
     3
278
    44
283
     0
284
     8
340
11
  0
DIMSTYLE
105
202
102
{ACAD_REACTORS
330
203
330
565
330
572
330
57F
330
58E
330
59B
330
5A8
330
5B5
330
5C2
330
658
102
}
330
A
100
AcDbSymbolTableRecord
100
AcDbDimStyleTableRecord
  2
LC-DIM-L-0100-02-02
 70
     0
 40
2.0
 41
10.0
 42
0.0
 43
7.5
 44
1.8
 73
     0
 74
     0
 77
     1
 78
     8
 79
     2
140
10.0
141
0.0
146
0.71
147
1.5
176
     2
177
     2
178
     2
179
     2
271
     2
278
    44
289
     1
340
201
  0
ENDTAB
  0
TABLE
  2
BLOCK_RECORD
  5
1
330
0
100
AcDbSymbolTable
 70
    43
  0
BLOCK_RECORD
  5
1F
330
1
100
AcDbSymbolTableRecord
100
AcDbBlockTableRecord
  2
*Model_Space
340
22
  0
BLOCK_RECORD
  5
1B
330
1
100
AcDbSymbolTableRecord
100
AcDbBlockTableRecord
  2
*Paper_Space
340
1E
  0
BLOCK_RECORD
  5
23
330
1
100
AcDbSymbolTableRecord
100
AcDbBlockTableRecord
  2
*Paper_Space0
340
26
  0
BLOCK_RECORD
  5
117
330
1
100
AcDbSymbolTableRecord
100
AcDbBlockTableRecord
  2
KLON1
340
0
102
{BLKREFS
331
11C
102
}
  0
BLOCK_RECORD
  5
11E
330
1
100
AcDbSymbolTableRecord
100
AcDbBlockTableRecord
  2
KLON2
340
0
102
{BLKREFS
331
124
102
}
  0
BLOCK_RECORD
  5
125
330
1
100
AcDbSymbolTableRecord
100
AcDbBlockTableRecord
  2
KLON3
340
0
102
{BLKREFS
331
12C
102
}
  0
BLOCK_RECORD
  5
12E
330
1
100
AcDbSymbolTableRecord
100
AcDbBlockTableRecord
  2
KLON4
340
0
102
{BLKREFS
331
133
102
}
  0
BLOCK_RECORD
  5
134
330
1
100
AcDbSymbolTableRecord
100
AcDbBlockTableRecord
  2
KLON5
340
0
102
{BLKREFS
331
139
102
}
  0
BLOCK_RECORD
  5
13A
330
1
100
AcDbSymbolTableRecord
100
AcDbBlockTableRecord
  2
KLON6
340
0
102
{BLKREFS
331
13F
102
}
  0
BLOCK_RECORD
  5
141
330
1
100
AcDbSymbolTableRecord
100
AcDbBlockTableRecord
  2
KLON7
340
0
102
{BLKREFS
331
148
102
}
  0
BLOCK_RECORD
  5
149
330
1
100
AcDbSymbolTableRecord
100
AcDbBlockTableRecord
  2
KLON8
340
0
102
{BLKREFS
331
14F
102
}
  0
BLOCK_RECORD
  5
15E
330
1
100
AcDbSymbolTableRecord
100
AcDbBlockTableRecord
  2
KLON9
340
0
102
{BLKREFS
331
163
102
}
  0
BLOCK_RECORD
  5
164
330
1
100
AcDbSymbolTableRecord
100
AcDbBlockTableRecord
  2
KLON10
340
0
102
{BLKREFS
331
169
102
}
  0
BLOCK_RECORD
  5
16B
330
1
100
AcDbSymbolTableRecord
100
AcDbBlockTableRecord
  2
KLON11
340
0
102
{BLKREFS
331
170
102
}
  0
BLOCK_RECORD
  5
171
330
1
100
AcDbSymbolTableRecord
100
AcDbBlockTableRecord
  2
KLON12
340
0
102
{BLKREFS
331
176
102
}
  0
BLOCK_RECORD
  5
205
330
1
100
AcDbSymbolTableRecord
100
AcDbBlockTableRecord
  2
*D13
340
0
  0
BLOCK_RECORD
  5
385
330
1
100
AcDbSymbolTableRecord
100
AcDbBlockTableRecord
  2
KLON13
340
0
102
{BLKREFS
331
395
102
}
  0
BLOCK_RECORD
  5
396
330
1
100
AcDbSymbolTableRecord
100
AcDbBlockTableRecord
  2
KLON14
340
0
102
{BLKREFS
331
3A9
102
}
  0
BLOCK_RECORD
  5
3AD
330
1
100
AcDbSymbolTableRecord
100
AcDbBlockTableRecord
  2
KLON15
340
0
102
{BLKREFS
331
3B2
102
}
  0
BLOCK_RECORD
  5
4C3
330
1
100
AcDbSymbolTableRecord
100
AcDbBlockTableRecord
  2
KLON16
340
0
102
{BLKREFS
331
4CC
102
}
  0
BLOCK_RECORD
  5
4CD
330
1
100
AcDbSymbolTableRecord
100
AcDbBlockTableRecord
  2
KLON17
340
0
102
{BLKREFS
331
4D6
102
}
  0
BLOCK_RECORD
  5
4EE
330
1
100
AcDbSymbolTableRecord
100
AcDbBlockTableRecord
  2
KLON18
340
0
102
{BLKREFS
331
4F6
102
}
  0
BLOCK_RECORD
  5
4F7
330
1
100
AcDbSymbolTableRecord
100
AcDbBlockTableRecord
  2
KLON19
340
0
102
{BLKREFS
331
503
102
}
  0
BLOCK_RECORD
  5
504
330
1
100
AcDbSymbolTableRecord
100
AcDbBlockTableRecord
  2
KLON20
340
0
102
{BLKREFS
331
510
102
}
  0
BLOCK_RECORD
  5
566
330
1
100
AcDbSymbolTableRecord
100
AcDbBlockTableRecord
  2
*D22
340
0
  0
BLOCK_RECORD
  5
573
330
1
100
AcDbSymbolTableRecord
100
AcDbBlockTableRecord
  2
*D23
340
0
  0
BLOCK_RECORD
  5
580
330
1
100
AcDbSymbolTableRecord
100
AcDbBlockTableRecord
  2
*D24
340
0
  0
BLOCK_RECORD
  5
58F
330
1
100
AcDbSymbolTableRecord
100
AcDbBlockTableRecord
  2
*D25
340
0
  0
BLOCK_RECORD
  5
59C
330
1
100
AcDbSymbolTableRecord
100
AcDbBlockTableRecord
  2
*D26
340
0
  0
BLOCK_RECORD
  5
5A9
330
1
100
AcDbSymbolTableRecord
100
AcDbBlockTableRecord
  2
*D27
340
0
  0
BLOCK_RECORD
  5
5B6
330
1
100
AcDbSymbolTableRecord
100
AcDbBlockTableRecord
  2
*D28
340
0
  0
BLOCK_RECORD
  5
5C3
330
1
100
AcDbSymbolTableRecord
100
AcDbBlockTableRecord
  2
*D29
340
0
  0
BLOCK_RECORD
  5
5D1
330
1
100
AcDbSymbolTableRecord
100
AcDbBlockTableRecord
  2
KLON21
340
0
102
{BLKREFS
331
5D6
102
}
  0
BLOCK_RECORD
  5
5DA
330
1
100
AcDbSymbolTableRecord
100
AcDbBlockTableRecord
  2
KLON22
340
0
102
{BLKREFS
331
5DF
102
}
  0
BLOCK_RECORD
  5
5E1
330
1
100
AcDbSymbolTableRecord
100
AcDbBlockTableRecord
  2
KLON23
340
0
102
{BLKREFS
331
5F1
102
}
  0
BLOCK_RECORD
  5
5F2
330
1
100
AcDbSymbolTableRecord
100
AcDbBlockTableRecord
  2
KLON24
340
0
102
{BLKREFS
331
5F8
102
}
  0
BLOCK_RECORD
  5
5FD
330
1
100
AcDbSymbolTableRecord
100
AcDbBlockTableRecord
  2
KLON25
340
0
102
{BLKREFS
331
602
102
}
  0
BLOCK_RECORD
  5
604
330
1
100
AcDbSymbolTableRecord
100
AcDbBlockTableRecord
  2
KLON26
340
0
102
{BLKREFS
331
613
102
}
  0
BLOCK_RECORD
  5
614
330
1
100
AcDbSymbolTableRecord
100
AcDbBlockTableRecord
  2
KLON27
340
0
102
{BLKREFS
331
625
102
}
  0
BLOCK_RECORD
  5
626
330
1
100
AcDbSymbolTableRecord
100
AcDbBlockTableRecord
  2
KLON28
340
0
102
{BLKREFS
331
62D
102
}
  0
BLOCK_RECORD
  5
62E
330
1
100
AcDbSymbolTableRecord
100
AcDbBlockTableRecord
  2
KLON29
340
0
102
{BLKREFS
331
634
102
}
  0
BLOCK_RECORD
  5
635
330
1
100
AcDbSymbolTableRecord
100
AcDbBlockTableRecord
  2
KLON30
340
0
102
{BLKREFS
331
640
102
}
  0
BLOCK_RECORD
  5
641
330
1
100
AcDbSymbolTableRecord
100
AcDbBlockTableRecord
  2
KLON31
340
0
102
{BLKREFS
331
648
102
}
  0
BLOCK_RECORD
  5
649
330
1
100
AcDbSymbolTableRecord
100
AcDbBlockTableRecord
  2
KLON32
340
0
102
{BLKREFS
331
64F
102
}
  0
BLOCK_RECORD
  5
659
330
1
100
AcDbSymbolTableRecord
100
AcDbBlockTableRecord
  2
*D42
340
0
  0
ENDTAB
  0
ENDSEC
  0
SECTION
  2
BLOCKS
  0
BLOCK
  5
20
330
1F
100
AcDbEntity
  8
0
100
AcDbBlockBegin
  2
*Model_Space
 70
     0
 71
     0
 10
0.0
 20
0.0
 30
0.0
  3
*Model_Space
  1

  0
ENDBLK
  5
21
330
1F
100
AcDbEntity
  8
0
100
AcDbBlockEnd
  0
BLOCK
  5
1C
330
1B
100
AcDbEntity
 67
     1
  8
0
100
AcDbBlockBegin
  2
*Paper_Space
 70
     0
 71
     0
 10
0.0
 20
0.0
 30
0.0
  3
*Paper_Space
  1

  0
ENDBLK
  5
1D
330
1B
100
AcDbEntity
 67
     1
  8
0
100
AcDbBlockEnd
  0
BLOCK
  5
24
330
23
100
AcDbEntity
  8
0
100
AcDbBlockBegin
  2
*Paper_Space0
 70
     0
 71
     0
 10
0.0
 20
0.0
 30
0.0
  3
*Paper_Space0
  1

  0
ENDBLK
  5
25
330
23
100
AcDbEntity
  8
0
100
AcDbBlockEnd
  0
BLOCK
  5
118
330
117
100
AcDbEntity
  8
0
100
AcDbBlockBegin
  2
KLON1
 70
     0
 71
     0
 10
0.0
 20
0.0
 30
0.0
  3
KLON1
  1

  4
KLON1
  0
LINE
  5
11A
330
117
100
AcDbEntity
  8
LC-001-100-D00-0
  6
ByBlock
 62
     7
370
    15
100
AcDbLine
 10
162.634785
 20
-75.737896
 30
0.0
 11
162.642191
 21
-75.776069
 31
0.0
  0
LINE
  5
11B
330
117
100
AcDbEntity
  8
LC-001-100-D00-0
  6
ByBlock
 62
     7
370
    15
100
AcDbLine
 10
162.642191
 20
-75.776069
 30
0.0
 11
162.660967
 21
-75.808554
 31
0.0
  0
ENDBLK
  5
119
330
117
100
AcDbEntity
  8
0
100
AcDbBlockEnd
  0
BLOCK
  5
11F
330
11E
100
AcDbEntity
  8
0
100
AcDbBlockBegin
  2
KLON2
 70
     0
 71
     0
 10
0.0
 20
0.0
 30
0.0
  3
KLON2
  1

  4
KLON2
  0
LINE
  5
121
330
11E
100
AcDbEntity
  8
LC-001-100-D00-0
  6
ByBlock
 62
     7
370
    15
100
AcDbLine
 10
162.660967
 20
-64.393092
 30
0.0
 11
162.658732
 21
-64.407377
 31
0.0
  0
LINE
  5
122
330
11E
100
AcDbEntity
  8
LC-001-100-D00-0
  6
ByBlock
 62
     7
370
    15
100
AcDbLine
 10
162.658732
 20
-64.407377
 30
0.0
 11
162.647437
 21
-64.479685
 31
0.0
  0
LINE
  5
123
330
11E
100
AcDbEntity
  8
LC-001-100-D00-0
  6
ByBlock
 62
     7
370
    15
100
AcDbLine
 10
162.647437
 20
-64.479685
 30
0.0
 11
162.634785
 21
-64.560566
 31
0.0
  0
ENDBLK
  5
120
330
11E
100
AcDbEntity
  8
0
100
AcDbBlockEnd
  0
BLOCK
  5
126
330
125
100
AcDbEntity
  8
0
100
AcDbBlockBegin
  2
KLON3
 70
     0
 71
     0
 10
0.0
 20
0.0
 30
0.0
  3
KLON3
  1

  4
KLON3
  0
LINE
  5
128
330
125
100
AcDbEntity
  8
LC-001-100-D00-0
  6
ByBlock
 62
     7
370
    15
100
AcDbLine
 10
162.634785
 20
-39.915228
 30
0.0
 11
162.647437
 21
-39.996109
 31
0.0
  0
LINE
  5
129
330
125
100
AcDbEntity
  8
LC-001-100-D00-0
  6
ByBlock
 62
     7
370
    15
100
AcDbLine
 10
162.647437
 20
-39.996109
 30
0.0
 11
162.656213
 21
-40.052318
 31
0.0
  0
LINE
  5
12A
330
125
100
AcDbEntity
  8
LC-001-100-D00-0
  6
ByBlock
 62
     7
370
    15
100
AcDbLine
 10
162.656213
 20
-40.052318
 30
0.0
 11
162.658732
 21
-40.068417
 31
0.0
  0
LINE
  5
12B
330
125
100
AcDbEntity
  8
LC-001-100-D00-0
  6
ByBlock
 62
     7
370
    15
100
AcDbLine
 10
162.658732
 20
-40.068417
 30
0.0
 11
162.660967
 21
-40.082702
 31
0.0
  0
ENDBLK
  5
127
330
125
100
AcDbEntity
  8
0
100
AcDbBlockEnd
  0
BLOCK
  5
12F
330
12E
100
AcDbEntity
  8
0
100
AcDbBlockBegin
  2
KLON4
 70
     0
 71
     0
 10
0.0
 20
0.0
 30
0.0
  3
KLON4
  1

  4
KLON4
  0
LINE
  5
131
330
12E
100
AcDbEntity
  8
LC-001-100-D00-0
  6
ByBlock
 62
     7
370
    15
100
AcDbLine
 10
162.634785
 20
-28.752536
 30
0.0
 11
162.64535
 21
-28.746626
 31
0.0
  0
LINE
  5
132
330
12E
100
AcDbEntity
  8
LC-001-100-D00-0
  6
ByBlock
 62
     7
370
    15
100
AcDbLine
 10
162.64535
 20
-28.746626
 30
0.0
 11
162.660967
 21
-28.737898
 31
0.0
  0
ENDBLK
  5
130
330
12E
100
AcDbEntity
  8
0
100
AcDbBlockEnd
  0
BLOCK
  5
135
330
134
100
AcDbEntity
  8
0
100
AcDbBlockBegin
  2
KLON5
 70
     0
 71
     0
 10
0.0
 20
0.0
 30
0.0
  3
KLON5
  1

  4
KLON5
  0
LINE
  5
137
330
134
100
AcDbEntity
  8
LC-001-100-D00-0
  6
ByBlock
 62
     7
370
    15
100
AcDbLine
 10
-321.312849
 20
-75.737896
 30
0.0
 11
-321.320255
 21
-75.776069
 31
0.0
  0
LINE
  5
138
330
134
100
AcDbEntity
  8
LC-001-100-D00-0
  6
ByBlock
 62
     7
370
    15
100
AcDbLine
 10
-321.320255
 20
-75.776069
 30
0.0
 11
-321.339031
 21
-75.808554
 31
0.0
  0
ENDBLK
  5
136
330
134
100
AcDbEntity
  8
0
100
AcDbBlockEnd
  0
BLOCK
  5
13B
330
13A
100
AcDbEntity
  8
0
100
AcDbBlockBegin
  2
KLON6
 70
     0
 71
     0
 10
0.0
 20
0.0
 30
0.0
  3
KLON6
  1

  4
KLON6
  0
LINE
  5
13D
330
13A
100
AcDbEntity
  8
LC-001-100-D00-0
  6
ByBlock
 62
     7
370
    15
100
AcDbLine
 10
-321.312849
 20
-28.752536
 30
0.0
 11
-321.323414
 21
-28.746626
 31
0.0
  0
LINE
  5
13E
330
13A
100
AcDbEntity
  8
LC-001-100-D00-0
  6
ByBlock
 62
     7
370
    15
100
AcDbLine
 10
-321.323414
 20
-28.746626
 30
0.0
 11
-321.339031
 21
-28.737898
 31
0.0
  0
ENDBLK
  5
13C
330
13A
100
AcDbEntity
  8
0
100
AcDbBlockEnd
  0
BLOCK
  5
142
330
141
100
AcDbEntity
  8
0
100
AcDbBlockBegin
  2
KLON7
 70
     0
 71
     0
 10
0.0
 20
0.0
 30
0.0
  3
KLON7
  1

  4
KLON7
  0
LINE
  5
144
330
141
100
AcDbEntity
  8
LC-001-100-D00-0
  6
ByBlock
 62
     7
370
    15
100
AcDbLine
 10
-321.312849
 20
-39.915228
 30
0.0
 11
-321.3255
 21
-39.996109
 31
0.0
  0
LINE
  5
145
330
141
100
AcDbEntity
  8
LC-001-100-D00-0
  6
ByBlock
 62
     7
370
    15
100
AcDbLine
 10
-321.3255
 20
-39.996109
 30
0.0
 11
-321.334277
 21
-40.052318
 31
0.0
  0
LINE
  5
146
330
141
100
AcDbEntity
  8
LC-001-100-D00-0
  6
ByBlock
 62
     7
370
    15
100
AcDbLine
 10
-321.334277
 20
-40.052318
 30
0.0
 11
-321.336795
 21
-40.068417
 31
0.0
  0
LINE
  5
147
330
141
100
AcDbEntity
  8
LC-001-100-D00-0
  6
ByBlock
 62
     7
370
    15
100
AcDbLine
 10
-321.336795
 20
-40.068417
 30
0.0
 11
-321.339031
 21
-40.082702
 31
0.0
  0
ENDBLK
  5
143
330
141
100
AcDbEntity
  8
0
100
AcDbBlockEnd
  0
BLOCK
  5
14A
330
149
100
AcDbEntity
  8
0
100
AcDbBlockBegin
  2
KLON8
 70
     0
 71
     0
 10
0.0
 20
0.0
 30
0.0
  3
KLON8
  1

  4
KLON8
  0
LINE
  5
14C
330
149
100
AcDbEntity
  8
LC-001-100-D00-0
  6
ByBlock
 62
     7
370
    15
100
AcDbLine
 10
-321.339031
 20
-64.393092
 30
0.0
 11
-321.336795
 21
-64.407377
 31
0.0
  0
LINE
  5
14D
330
149
100
AcDbEntity
  8
LC-001-100-D00-0
  6
ByBlock
 62
     7
370
    15
100
AcDbLine
 10
-321.336795
 20
-64.407377
 30
0.0
 11
-321.3255
 21
-64.479685
 31
0.0
  0
LINE
  5
14E
330
149
100
AcDbEntity
  8
LC-001-100-D00-0
  6
ByBlock
 62
     7
370
    15
100
AcDbLine
 10
-321.3255
 20
-64.479685
 30
0.0
 11
-321.312849
 21
-64.560566
 31
0.0
  0
ENDBLK
  5
14B
330
149
100
AcDbEntity
  8
0
100
AcDbBlockEnd
  0
BLOCK
  5
15F
330
15E
100
AcDbEntity
  8
0
100
AcDbBlockBegin
  2
KLON9
 70
     0
 71
     0
 10
0.0
 20
0.0
 30
0.0
  3
KLON9
  1

  4
KLON9
  0
LINE
  5
161
330
15E
100
AcDbEntity
  8
LC-001-100-D00-0
  6
ByBlock
 62
     7
370
    15
100
AcDbLine
 10
162.606265
 20
-64.571306
 30
0.0
 11
162.622417
 21
-64.565222
 31
0.0
  0
LINE
  5
162
330
15E
100
AcDbEntity
  8
LC-001-100-D00-0
  6
ByBlock
 62
     7
370
    15
100
AcDbLine
 10
162.622417
 20
-64.565222
 30
0.0
 11
162.634785
 21
-64.560566
 31
0.0
  0
ENDBLK
  5
160
330
15E
100
AcDbEntity
  8
0
100
AcDbBlockEnd
  0
BLOCK
  5
165
330
164
100
AcDbEntity
  8
0
100
AcDbBlockBegin
  2
KLON10
 70
     0
 71
     0
 10
0.0
 20
0.0
 30
0.0
  3
KLON10
  1

  4
KLON10
  0
LINE
  5
167
330
164
100
AcDbEntity
  8
LC-001-100-D00-0
  6
ByBlock
 62
     7
370
    15
100
AcDbLine
 10
-321.284328
 20
-64.571306
 30
0.0
 11
-321.300481
 21
-64.565222
 31
0.0
  0
LINE
  5
168
330
164
100
AcDbEntity
  8
LC-001-100-D00-0
  6
ByBlock
 62
     7
370
    15
100
AcDbLine
 10
-321.300481
 20
-64.565222
 30
0.0
 11
-321.312849
 21
-64.560566
 31
0.0
  0
ENDBLK
  5
166
330
164
100
AcDbEntity
  8
0
100
AcDbBlockEnd
  0
BLOCK
  5
16C
330
16B
100
AcDbEntity
  8
0
100
AcDbBlockBegin
  2
KLON11
 70
     0
 71
     0
 10
0.0
 20
0.0
 30
0.0
  3
KLON11
  1

  4
KLON11
  0
LINE
  5
16E
330
16B
100
AcDbEntity
  8
LC-001-100-D00-0
  6
ByBlock
 62
     7
370
    15
100
AcDbLine
 10
162.606265
 20
-39.904488
 30
0.0
 11
162.622417
 21
-39.910572
 31
0.0
  0
LINE
  5
16F
330
16B
100
AcDbEntity
  8
LC-001-100-D00-0
  6
ByBlock
 62
     7
370
    15
100
AcDbLine
 10
162.622417
 20
-39.910572
 30
0.0
 11
162.634785
 21
-39.915228
 31
0.0
  0
ENDBLK
  5
16D
330
16B
100
AcDbEntity
  8
0
100
AcDbBlockEnd
  0
BLOCK
  5
172
330
171
100
AcDbEntity
  8
0
100
AcDbBlockBegin
  2
KLON12
 70
     0
 71
     0
 10
0.0
 20
0.0
 30
0.0
  3
KLON12
  1

  4
KLON12
  0
LINE
  5
174
330
171
100
AcDbEntity
  8
LC-001-100-D00-0
  6
ByBlock
 62
     7
370
    15
100
AcDbLine
 10
-321.284328
 20
-39.904488
 30
0.0
 11
-321.300481
 21
-39.910572
 31
0.0
  0
LINE
  5
175
330
171
100
AcDbEntity
  8
LC-001-100-D00-0
  6
ByBlock
 62
     7
370
    15
100
AcDbLine
 10
-321.300481
 20
-39.910572
 30
0.0
 11
-321.312849
 21
-39.915228
 31
0.0
  0
ENDBLK
  5
173
330
171
100
AcDbEntity
  8
0
100
AcDbBlockEnd
  0
BLOCK
  5
20F
330
205
100
AcDbEntity
  8
0
100
AcDbBlockBegin
  2
*D13
 70
     1
 71
     0
 10
0.0
 20
0.0
 30
0.0
  3
*D13
  1

  0
LINE
  5
206
330
205
100
AcDbEntity
  8
LC-001-100-D00-0
 62
     2
370
    -2
100
AcDbLine
 10
215.660968
 20
25.262103
 30
0.0
 11
270.089782
 21
25.262103
 31
0.0
  0
LINE
  5
207
330
205
100
AcDbEntity
  8
LC-001-100-D00-0
 62
     2
370
    -2
100
AcDbLine
 10
215.660968
 20
-129.737897
 30
0.0
 11
270.089782
 21
-129.737897
 31
0.0
  0
LINE
  5
208
330
205
100
AcDbEntity
  8
LC-001-100-D00-0
 62
     2
370
    -2
100
AcDbLine
 10
266.489782
 20
5.262103
 30
0.0
 11
266.489782
 21
-109.737897
 31
0.0
  0
SOLID
  5
209
330
205
100
AcDbEntity
  8
LC-001-100-D00-0
 62
     2
100
AcDbTrace
 10
269.823115
 20
5.262103
 30
0.0
 11
263.156448
 21
5.262103
 31
0.0
 12
266.489782
 22
25.262103
 32
0.0
 13
266.489782
 23
25.262103
 33
0.0
  0
SOLID
  5
20A
330
205
100
AcDbEntity
  8
LC-001-100-D00-0
 62
     2
100
AcDbTrace
 10
263.156448
 20
-109.737897
 30
0.0
 11
269.823115
 21
-109.737897
 31
0.0
 12
266.489782
 22
-129.737897
 32
0.0
 13
266.489782
 23
-129.737897
 33
0.0
  0
MTEXT
  5
20B
330
205
100
AcDbEntity
  8
LC-001-100-D00-0
 62
     2
100
AcDbMText
 10
244.489782
 20
-52.237897
 30
0.0
 40
20.0
 41
0.0
 71
     5
 72
     1
  1
\A1;155
  7
LCTX15-400-0-0pDIN-Schrift
 11
6.123031769111886E-17
 21
1.0
 31
0.0
 73
     1
 44
1.0
  0
POINT
  5
20C
330
205
100
AcDbEntity
  8
Defpoints
 62
     0
100
AcDbPoint
 10
215.660968
 20
25.262103
 30
0.0
  0
POINT
  5
20D
330
205
100
AcDbEntity
  8
Defpoints
 62
     0
100
AcDbPoint
 10
215.660968
 20
-129.737897
 30
0.0
  0
POINT
  5
20E
330
205
100
AcDbEntity
  8
Defpoints
 62
     0
100
AcDbPoint
 10
266.489782
 20
-129.737897
 30
0.0
  0
ENDBLK
  5
210
330
205
100
AcDbEntity
  8
0
100
AcDbBlockEnd
  0
BLOCK
  5
386
330
385
100
AcDbEntity
  8
0
100
AcDbBlockBegin
  2
KLON13
 70
     0
 71
     0
 10
0.0
 20
0.0
 30
0.0
  3
KLON13
  1

  4
KLON13
  0
LINE
  5
388
330
385
100
AcDbEntity
  8
LC-001-100-D00-0
  6
ByBlock
 62
     7
370
    15
100
AcDbLine
 10
-5.339019
 20
257.255537
 30
0.0
 11
-5.341746
 21
257.255567
 31
0.0
  0
LINE
  5
389
330
385
100
AcDbEntity
  8
LC-001-100-D00-0
  6
ByBlock
 62
     7
370
    15
100
AcDbLine
 10
-5.341746
 20
257.255567
 30
0.0
 11
-5.346328
 21
257.255761
 31
0.0
  0
LINE
  5
38A
330
385
100
AcDbEntity
  8
LC-001-100-D00-0
  6
ByBlock
 62
     7
370
    15
100
AcDbLine
 10
-5.346328
 20
257.255761
 30
0.0
 11
-5.355202
 21
257.256595
 31
0.0
  0
LINE
  5
38B
330
385
100
AcDbEntity
  8
LC-001-100-D00-0
  6
ByBlock
 62
     7
370
    15
100
AcDbLine
 10
-5.355202
 20
257.256595
 30
0.0
 11
-5.357482
 21
257.256901
 31
0.0
  0
LINE
  5
38C
330
385
100
AcDbEntity
  8
LC-001-100-D00-0
  6
ByBlock
 62
     7
370
    15
100
AcDbLine
 10
-5.357482
 20
257.256901
 30
0.0
 11
-5.358055
 21
257.256982
 31
0.0
  0
LINE
  5
38D
330
385
100
AcDbEntity
  8
LC-001-100-D00-0
  6
ByBlock
 62
     7
370
    15
100
AcDbLine
 10
-5.358055
 20
257.256982
 30
0.0
 11
-5.358197
 21
257.257005
 31
0.0
  0
LINE
  5
38E
330
385
100
AcDbEntity
  8
LC-001-100-D00-0
  6
ByBlock
 62
     7
370
    15
100
AcDbLine
 10
-5.358197
 20
257.257005
 30
0.0
 11
-5.477376
 21
257.306276
 31
0.0
  0
LINE
  5
38F
330
385
100
AcDbEntity
  8
LC-001-100-D00-0
  6
ByBlock
 62
     7
370
    15
100
AcDbLine
 10
-5.477376
 20
257.306276
 30
0.0
 11
-6.317981
 21
258.119171
 31
0.0
  0
LINE
  5
390
330
385
100
AcDbEntity
  8
LC-001-100-D00-0
  6
ByBlock
 62
     7
370
    15
100
AcDbLine
 10
-6.317981
 20
258.119171
 30
0.0
 11
-7.406659
 21
259.444503
 31
0.0
  0
LINE
  5
391
330
385
100
AcDbEntity
  8
LC-001-100-D00-0
  6
ByBlock
 62
     7
370
    15
100
AcDbLine
 10
-7.406659
 20
259.444503
 30
0.0
 11
-8.832522
 21
261.347657
 31
0.0
  0
LINE
  5
392
330
385
100
AcDbEntity
  8
LC-001-100-D00-0
  6
ByBlock
 62
     7
370
    15
100
AcDbLine
 10
-8.832522
 20
261.347657
 30
0.0
 11
-10.884866
 21
264.313316
 31
0.0
  0
LINE
  5
393
330
385
100
AcDbEntity
  8
LC-001-100-D00-0
  6
ByBlock
 62
     7
370
    15
100
AcDbLine
 10
-10.884866
 20
264.313316
 30
0.0
 11
-13.255537
 21
267.954645
 31
0.0
  0
LINE
  5
394
330
385
100
AcDbEntity
  8
LC-001-100-D00-0
  6
ByBlock
 62
     7
370
    15
100
AcDbLine
 10
-13.255537
 20
267.954645
 30
0.0
 11
-13.363726
 21
268.121032
 31
0.0
  0
ENDBLK
  5
387
330
385
100
AcDbEntity
  8
0
100
AcDbBlockEnd
  0
BLOCK
  5
397
330
396
100
AcDbEntity
  8
0
100
AcDbBlockBegin
  2
KLON14
 70
     0
 71
     0
 10
0.0
 20
0.0
 30
0.0
  3
KLON14
  1

  4
KLON14
  0
LINE
  5
399
330
396
100
AcDbEntity
  8
LC-001-100-D00-0
  6
ByBlock
 62
     7
370
    15
100
AcDbLine
 10
-13.363726
 20
268.121032
 30
0.0
 11
-14.105335
 21
270.499577
 31
0.0
  0
LINE
  5
39A
330
396
100
AcDbEntity
  8
LC-001-100-D00-0
  6
ByBlock
 62
     7
370
    15
100
AcDbLine
 10
-14.105335
 20
270.499577
 30
0.0
 11
-14.740072
 21
273.080004
 31
0.0
  0
LINE
  5
39B
330
396
100
AcDbEntity
  8
LC-001-100-D00-0
  6
ByBlock
 62
     7
370
    15
100
AcDbLine
 10
-14.740072
 20
273.080004
 30
0.0
 11
-15.259281
 21
276.212187
 31
0.0
  0
LINE
  5
39C
330
396
100
AcDbEntity
  8
LC-001-100-D00-0
  6
ByBlock
 62
     7
370
    15
100
AcDbLine
 10
-15.259281
 20
276.212187
 30
0.0
 11
-15.49612
 21
279.549064
 31
0.0
  0
LINE
  5
39D
330
396
100
AcDbEntity
  8
LC-001-100-D00-0
  6
ByBlock
 62
     7
370
    15
100
AcDbLine
 10
-15.49612
 20
279.549064
 30
0.0
 11
-15.4052
 21
282.818833
 31
0.0
  0
LINE
  5
39E
330
396
100
AcDbEntity
  8
LC-001-100-D00-0
  6
ByBlock
 62
     7
370
    15
100
AcDbLine
 10
-15.4052
 20
282.818833
 30
0.0
 11
-14.993385
 21
286.110209
 31
0.0
  0
LINE
  5
39F
330
396
100
AcDbEntity
  8
LC-001-100-D00-0
  6
ByBlock
 62
     7
370
    15
100
AcDbLine
 10
-14.993385
 20
286.110209
 30
0.0
 11
-14.34949
 21
289.102999
 31
0.0
  0
LINE
  5
3A0
330
396
100
AcDbEntity
  8
LC-001-100-D00-0
  6
ByBlock
 62
     7
370
    15
100
AcDbLine
 10
-14.34949
 20
289.102999
 30
0.0
 11
-13.510861
 21
291.952924
 31
0.0
  0
LINE
  5
3A1
330
396
100
AcDbEntity
  8
LC-001-100-D00-0
  6
ByBlock
 62
     7
370
    15
100
AcDbLine
 10
-13.510861
 20
291.952924
 30
0.0
 11
-12.4432
 21
294.863952
 31
0.0
  0
LINE
  5
3A2
330
396
100
AcDbEntity
  8
LC-001-100-D00-0
  6
ByBlock
 62
     7
370
    15
100
AcDbLine
 10
-12.4432
 20
294.863952
 30
0.0
 11
-11.319324
 21
297.474054
 31
0.0
  0
LINE
  5
3A3
330
396
100
AcDbEntity
  8
LC-001-100-D00-0
  6
ByBlock
 62
     7
370
    15
100
AcDbLine
 10
-11.319324
 20
297.474054
 30
0.0
 11
-10.170907
 21
299.850767
 31
0.0
  0
LINE
  5
3A4
330
396
100
AcDbEntity
  8
LC-001-100-D00-0
  6
ByBlock
 62
     7
370
    15
100
AcDbLine
 10
-10.170907
 20
299.850767
 30
0.0
 11
-9.19909
 21
301.704878
 31
0.0
  0
LINE
  5
3A5
330
396
100
AcDbEntity
  8
LC-001-100-D00-0
  6
ByBlock
 62
     7
370
    15
100
AcDbLine
 10
-9.19909
 20
301.704878
 30
0.0
 11
-8.656852
 21
302.691148
 31
0.0
  0
LINE
  5
3A6
330
396
100
AcDbEntity
  8
LC-001-100-D00-0
  6
ByBlock
 62
     7
370
    15
100
AcDbLine
 10
-8.656852
 20
302.691148
 30
0.0
 11
-8.370154
 21
303.200675
 31
0.0
  0
LINE
  5
3A7
330
396
100
AcDbEntity
  8
LC-001-100-D00-0
  6
ByBlock
 62
     7
370
    15
100
AcDbLine
 10
-8.370154
 20
303.200675
 30
0.0
 11
-8.339293
 21
303.255053
 31
0.0
  0
LINE
  5
3A8
330
396
100
AcDbEntity
  8
LC-001-100-D00-0
  6
ByBlock
 62
     7
370
    15
100
AcDbLine
 10
-8.339293
 20
303.255053
 30
0.0
 11
-8.339018
 21
303.255537
 31
0.0
  0
ENDBLK
  5
398
330
396
100
AcDbEntity
  8
0
100
AcDbBlockEnd
  0
BLOCK
  5
3AE
330
3AD
100
AcDbEntity
  8
0
100
AcDbBlockBegin
  2
KLON15
 70
     0
 71
     0
 10
0.0
 20
0.0
 30
0.0
  3
KLON15
  1

  4
KLON15
  0
LINE
  5
3B0
330
3AD
100
AcDbEntity
  8
LC-001-100-D00-0
  6
ByBlock
 62
     7
370
    15
100
AcDbLine
 10
-14.021568
 20
266.755534
 30
0.0
 11
-14.014788
 21
266.769817
 31
0.0
  0
LINE
  5
3B1
330
3AD
100
AcDbEntity
  8
LC-001-100-D00-0
  6
ByBlock
 62
     7
370
    15
100
AcDbLine
 10
-14.014788
 20
266.769817
 30
0.0
 11
-13.363726
 21
268.121032
 31
0.0
  0
ENDBLK
  5
3AF
330
3AD
100
AcDbEntity
  8
0
100
AcDbBlockEnd
  0
BLOCK
  5
4C4
330
4C3
100
AcDbEntity
  8
0
100
AcDbBlockBegin
  2
KLON16
 70
     0
 71
     0
 10
0.0
 20
0.0
 30
0.0
  3
KLON16
  1

  4
KLON16
  0
LINE
  5
4C6
330
4C3
100
AcDbEntity
  8
LC-001-100-D00-0
  6
ByBlock
 62
     7
370
    15
100
AcDbLine
 10
153.568663
 20
315.423701
 30
0.0
 11
156.124972
 21
315.516997
 31
0.0
  0
LINE
  5
4C7
330
4C3
100
AcDbEntity
  8
LC-001-100-D00-0
  6
ByBlock
 62
     7
370
    15
100
AcDbLine
 10
156.124972
 20
315.516997
 30
0.0
 11
158.270769
 21
315.59531
 31
0.0
  0
LINE
  5
4C8
330
4C3
100
AcDbEntity
  8
LC-001-100-D00-0
  6
ByBlock
 62
     7
370
    15
100
AcDbLine
 10
158.270769
 20
315.59531
 30
0.0
 11
160.000913
 21
315.658453
 31
0.0
  0
LINE
  5
4C9
330
4C3
100
AcDbEntity
  8
LC-001-100-D00-0
  6
ByBlock
 62
     7
370
    15
100
AcDbLine
 10
160.000913
 20
315.658453
 30
0.0
 11
161.311246
 21
315.706275
 31
0.0
  0
LINE
  5
4CA
330
4C3
100
AcDbEntity
  8
LC-001-100-D00-0
  6
ByBlock
 62
     7
370
    15
100
AcDbLine
 10
161.311246
 20
315.706275
 30
0.0
 11
162.19864
 21
315.738663
 31
0.0
  0
LINE
  5
4CB
330
4C3
100
AcDbEntity
  8
LC-001-100-D00-0
  6
ByBlock
 62
     7
370
    15
100
AcDbLine
 10
162.19864
 20
315.738663
 30
0.0
 11
162.660979
 21
315.755536
 31
0.0
  0
ENDBLK
  5
4C5
330
4C3
100
AcDbEntity
  8
0
100
AcDbBlockEnd
  0
BLOCK
  5
4CE
330
4CD
100
AcDbEntity
  8
0
100
AcDbBlockBegin
  2
KLON17
 70
     0
 71
     0
 10
0.0
 20
0.0
 30
0.0
  3
KLON17
  1

  4
KLON17
  0
LINE
  5
4D0
330
4CD
100
AcDbEntity
  8
LC-001-100-D00-0
  6
ByBlock
 62
     7
370
    15
100
AcDbLine
 10
-312.246703
 20
315.423701
 30
0.0
 11
-314.803012
 21
315.516997
 31
0.0
  0
LINE
  5
4D1
330
4CD
100
AcDbEntity
  8
LC-001-100-D00-0
  6
ByBlock
 62
     7
370
    15
100
AcDbLine
 10
-314.803012
 20
315.516997
 30
0.0
 11
-316.948809
 21
315.59531
 31
0.0
  0
LINE
  5
4D2
330
4CD
100
AcDbEntity
  8
LC-001-100-D00-0
  6
ByBlock
 62
     7
370
    15
100
AcDbLine
 10
-316.948809
 20
315.59531
 30
0.0
 11
-318.678953
 21
315.658453
 31
0.0
  0
LINE
  5
4D3
330
4CD
100
AcDbEntity
  8
LC-001-100-D00-0
  6
ByBlock
 62
     7
370
    15
100
AcDbLine
 10
-318.678953
 20
315.658453
 30
0.0
 11
-319.989286
 21
315.706275
 31
0.0
  0
LINE
  5
4D4
330
4CD
100
AcDbEntity
  8
LC-001-100-D00-0
  6
ByBlock
 62
     7
370
    15
100
AcDbLine
 10
-319.989286
 20
315.706275
 30
0.0
 11
-320.87668
 21
315.738663
 31
0.0
  0
LINE
  5
4D5
330
4CD
100
AcDbEntity
  8
LC-001-100-D00-0
  6
ByBlock
 62
     7
370
    15
100
AcDbLine
 10
-320.87668
 20
315.738663
 30
0.0
 11
-321.339019
 21
315.755536
 31
0.0
  0
ENDBLK
  5
4CF
330
4CD
100
AcDbEntity
  8
0
100
AcDbBlockEnd
  0
BLOCK
  5
4EF
330
4EE
100
AcDbEntity
  8
0
100
AcDbBlockBegin
  2
KLON18
 70
     0
 71
     0
 10
0.0
 20
0.0
 30
0.0
  3
KLON18
  1

  4
KLON18
  0
LINE
  5
4F1
330
4EE
100
AcDbEntity
  8
LC-001-100-D00-0
  6
ByBlock
 62
     7
370
    15
100
AcDbLine
 10
-125.458635
 20
303.755534
 30
0.0
 11
-125.445105
 21
303.59683
 31
0.0
  0
LINE
  5
4F2
330
4EE
100
AcDbEntity
  8
LC-001-100-D00-0
  6
ByBlock
 62
     7
370
    15
100
AcDbLine
 10
-125.445105
 20
303.59683
 30
0.0
 11
-125.283182
 21
303.01241
 31
0.0
  0
LINE
  5
4F3
330
4EE
100
AcDbEntity
  8
LC-001-100-D00-0
  6
ByBlock
 62
     7
370
    15
100
AcDbLine
 10
-125.283182
 20
303.01241
 30
0.0
 11
-125.033315
 21
302.566105
 31
0.0
  0
LINE
  5
4F4
330
4EE
100
AcDbEntity
  8
LC-001-100-D00-0
  6
ByBlock
 62
     7
370
    15
100
AcDbLine
 10
-125.033315
 20
302.566105
 30
0.0
 11
-124.722015
 21
302.307354
 31
0.0
  0
LINE
  5
4F5
330
4EE
100
AcDbEntity
  8
LC-001-100-D00-0
  6
ByBlock
 62
     7
370
    15
100
AcDbLine
 10
-124.722015
 20
302.307354
 30
0.0
 11
-124.584522
 21
302.263597
 31
0.0
  0
ENDBLK
  5
4F0
330
4EE
100
AcDbEntity
  8
0
100
AcDbBlockEnd
  0
BLOCK
  5
4F8
330
4F7
100
AcDbEntity
  8
0
100
AcDbBlockBegin
  2
KLON19
 70
     0
 71
     0
 10
0.0
 20
0.0
 30
0.0
  3
KLON19
  1

  4
KLON19
  0
LINE
  5
4FA
330
4F7
100
AcDbEntity
  8
LC-001-100-D00-0
  6
ByBlock
 62
     7
370
    15
100
AcDbLine
 10
162.63362
 20
317.255536
 30
0.0
 11
162.63292
 21
317.293517
 31
0.0
  0
LINE
  5
4FB
330
4F7
100
AcDbEntity
  8
LC-001-100-D00-0
  6
ByBlock
 62
     7
370
    15
100
AcDbLine
 10
162.63292
 20
317.293517
 30
0.0
 11
162.630863
 21
317.406304
 31
0.0
  0
LINE
  5
4FC
330
4F7
100
AcDbEntity
  8
LC-001-100-D00-0
  6
ByBlock
 62
     7
370
    15
100
AcDbLine
 10
162.630863
 20
317.406304
 30
0.0
 11
162.627511
 21
317.590473
 31
0.0
  0
LINE
  5
4FD
330
4F7
100
AcDbEntity
  8
LC-001-100-D00-0
  6
ByBlock
 62
     7
370
    15
100
AcDbLine
 10
162.627511
 20
317.590473
 30
0.0
 11
162.622951
 21
317.840425
 31
0.0
  0
LINE
  5
4FE
330
4F7
100
AcDbEntity
  8
LC-001-100-D00-0
  6
ByBlock
 62
     7
370
    15
100
AcDbLine
 10
162.622951
 20
317.840425
 30
0.0
 11
162.617333
 21
318.148568
 31
0.0
  0
LINE
  5
4FF
330
4F7
100
AcDbEntity
  8
LC-001-100-D00-0
  6
ByBlock
 62
     7
370
    15
100
AcDbLine
 10
162.617333
 20
318.148568
 30
0.0
 11
162.610821
 21
318.505536
 31
0.0
  0
LINE
  5
500
330
4F7
100
AcDbEntity
  8
LC-001-100-D00-0
  6
ByBlock
 62
     7
370
    15
100
AcDbLine
 10
162.610821
 20
318.505536
 30
0.0
 11
162.603609
 21
318.900486
 31
0.0
  0
LINE
  5
501
330
4F7
100
AcDbEntity
  8
LC-001-100-D00-0
  6
ByBlock
 62
     7
370
    15
100
AcDbLine
 10
162.603609
 20
318.900486
 30
0.0
 11
162.595935
 21
319.321416
 31
0.0
  0
LINE
  5
502
330
4F7
100
AcDbEntity
  8
LC-001-100-D00-0
  6
ByBlock
 62
     7
370
    15
100
AcDbLine
 10
162.595935
 20
319.321416
 30
0.0
 11
162.588008
 21
319.755537
 31
0.0
  0
ENDBLK
  5
4F9
330
4F7
100
AcDbEntity
  8
0
100
AcDbBlockEnd
  0
BLOCK
  5
505
330
504
100
AcDbEntity
  8
0
100
AcDbBlockBegin
  2
KLON20
 70
     0
 71
     0
 10
0.0
 20
0.0
 30
0.0
  3
KLON20
  1

  4
KLON20
  0
LINE
  5
507
330
504
100
AcDbEntity
  8
LC-001-100-D00-0
  6
ByBlock
 62
     7
370
    15
100
AcDbLine
 10
-321.31166
 20
317.255536
 30
0.0
 11
-321.31096
 21
317.293517
 31
0.0
  0
LINE
  5
508
330
504
100
AcDbEntity
  8
LC-001-100-D00-0
  6
ByBlock
 62
     7
370
    15
100
AcDbLine
 10
-321.31096
 20
317.293517
 30
0.0
 11
-321.308903
 21
317.406304
 31
0.0
  0
LINE
  5
509
330
504
100
AcDbEntity
  8
LC-001-100-D00-0
  6
ByBlock
 62
     7
370
    15
100
AcDbLine
 10
-321.308903
 20
317.406304
 30
0.0
 11
-321.305551
 21
317.590473
 31
0.0
  0
LINE
  5
50A
330
504
100
AcDbEntity
  8
LC-001-100-D00-0
  6
ByBlock
 62
     7
370
    15
100
AcDbLine
 10
-321.305551
 20
317.590473
 30
0.0
 11
-321.300991
 21
317.840425
 31
0.0
  0
LINE
  5
50B
330
504
100
AcDbEntity
  8
LC-001-100-D00-0
  6
ByBlock
 62
     7
370
    15
100
AcDbLine
 10
-321.300991
 20
317.840425
 30
0.0
 11
-321.295373
 21
318.148568
 31
0.0
  0
LINE
  5
50C
330
504
100
AcDbEntity
  8
LC-001-100-D00-0
  6
ByBlock
 62
     7
370
    15
100
AcDbLine
 10
-321.295373
 20
318.148568
 30
0.0
 11
-321.288861
 21
318.505536
 31
0.0
  0
LINE
  5
50D
330
504
100
AcDbEntity
  8
LC-001-100-D00-0
  6
ByBlock
 62
     7
370
    15
100
AcDbLine
 10
-321.288861
 20
318.505536
 30
0.0
 11
-321.281649
 21
318.900486
 31
0.0
  0
LINE
  5
50E
330
504
100
AcDbEntity
  8
LC-001-100-D00-0
  6
ByBlock
 62
     7
370
    15
100
AcDbLine
 10
-321.281649
 20
318.900486
 30
0.0
 11
-321.273975
 21
319.321416
 31
0.0
  0
LINE
  5
50F
330
504
100
AcDbEntity
  8
LC-001-100-D00-0
  6
ByBlock
 62
     7
370
    15
100
AcDbLine
 10
-321.273975
 20
319.321416
 30
0.0
 11
-321.266048
 21
319.755537
 31
0.0
  0
ENDBLK
  5
506
330
504
100
AcDbEntity
  8
0
100
AcDbBlockEnd
  0
BLOCK
  5
570
330
566
100
AcDbEntity
  8
0
100
AcDbBlockBegin
  2
*D22
 70
     1
 71
     0
 10
0.0
 20
0.0
 30
0.0
  3
*D22
  1

  0
LINE
  5
567
330
566
100
AcDbEntity
  8
LC-001-100-D00-0
 62
     2
370
    -2
100
AcDbLine
 10
220.66098
 20
337.755536
 30
0.0
 11
220.66098
 21
412.71036
 31
0.0
  0
LINE
  5
568
330
566
100
AcDbEntity
  8
LC-001-100-D00-0
 62
     2
370
    -2
100
AcDbLine
 10
-379.33902
 20
337.755536
 30
0.0
 11
-379.33902
 21
412.71036
 31
0.0
  0
LINE
  5
569
330
566
100
AcDbEntity
  8
LC-001-100-D00-0
 62
     2
370
    -2
100
AcDbLine
 10
200.66098
 20
409.11036
 30
0.0
 11
-359.33902
 21
409.11036
 31
0.0
  0
SOLID
  5
56A
330
566
100
AcDbEntity
  8
LC-001-100-D00-0
 62
     2
100
AcDbTrace
 10
200.66098
 20
405.777026
 30
0.0
 11
200.66098
 21
412.443693
 31
0.0
 12
220.66098
 22
409.11036
 32
0.0
 13
220.66098
 23
409.11036
 33
0.0
  0
SOLID
  5
56B
330
566
100
AcDbEntity
  8
LC-001-100-D00-0
 62
     2
100
AcDbTrace
 10
-359.33902
 20
412.443693
 30
0.0
 11
-359.33902
 21
405.777026
 31
0.0
 12
-379.33902
 22
409.11036
 32
0.0
 13
-379.33902
 23
409.11036
 33
0.0
  0
MTEXT
  5
56C
330
566
100
AcDbEntity
  8
LC-001-100-D00-0
 62
     2
100
AcDbMText
 10
-80.501103
 20
431.11036
 30
0.0
 40
20.0
 41
0.0
 71
     5
 72
     1
  1
\A1;600
  7
LCTX15-400-0-0pDIN-Schrift
 73
     1
 44
1.0
  0
POINT
  5
56D
330
566
100
AcDbEntity
  8
Defpoints
 62
     0
100
AcDbPoint
 10
220.66098
 20
337.755536
 30
0.0
  0
POINT
  5
56E
330
566
100
AcDbEntity
  8
Defpoints
 62
     0
100
AcDbPoint
 10
-379.33902
 20
337.755536
 30
0.0
  0
POINT
  5
56F
330
566
100
AcDbEntity
  8
Defpoints
 62
     0
100
AcDbPoint
 10
-379.33902
 20
409.11036
 30
0.0
  0
ENDBLK
  5
571
330
566
100
AcDbEntity
  8
0
100
AcDbBlockEnd
  0
BLOCK
  5
57D
330
573
100
AcDbEntity
  8
0
100
AcDbBlockBegin
  2
*D23
 70
     1
 71
     0
 10
0.0
 20
0.0
 30
0.0
  3
*D23
  1

  0
LINE
  5
574
330
573
100
AcDbEntity
  8
LC-001-100-D00-0
 62
     2
370
    -2
100
AcDbLine
 10
-329.33902
 20
334.755536
 30
0.0
 11
-329.33902
 21
377.729651
 31
0.0
  0
LINE
  5
575
330
573
100
AcDbEntity
  8
LC-001-100-D00-0
 62
     2
370
    -2
100
AcDbLine
 10
170.66098
 20
334.755536
 30
0.0
 11
170.66098
 21
377.729651
 31
0.0
  0
LINE
  5
576
330
573
100
AcDbEntity
  8
LC-001-100-D00-0
 62
     2
370
    -2
100
AcDbLine
 10
-309.33902
 20
374.129651
 30
0.0
 11
150.66098
 21
374.129651
 31
0.0
  0
SOLID
  5
577
330
573
100
AcDbEntity
  8
LC-001-100-D00-0
 62
     2
100
AcDbTrace
 10
-309.33902
 20
377.462984
 30
0.0
 11
-309.33902
 21
370.796317
 31
0.0
 12
-329.33902
 22
374.129651
 32
0.0
 13
-329.33902
 23
374.129651
 33
0.0
  0
SOLID
  5
578
330
573
100
AcDbEntity
  8
LC-001-100-D00-0
 62
     2
100
AcDbTrace
 10
150.66098
 20
370.796317
 30
0.0
 11
150.66098
 21
377.462984
 31
0.0
 12
170.66098
 22
374.129651
 32
0.0
 13
170.66098
 23
374.129651
 33
0.0
  0
MTEXT
  5
579
330
573
100
AcDbEntity
  8
LC-001-100-D00-0
 62
     2
100
AcDbMText
 10
-81.231442
 20
396.129651
 30
0.0
 40
20.0
 41
0.0
 71
     5
 72
     1
  1
\A1;500
  7
LCTX15-400-0-0pDIN-Schrift
 73
     1
 44
1.0
  0
POINT
  5
57A
330
573
100
AcDbEntity
  8
Defpoints
 62
     0
100
AcDbPoint
 10
-329.33902
 20
334.755536
 30
0.0
  0
POINT
  5
57B
330
573
100
AcDbEntity
  8
Defpoints
 62
     0
100
AcDbPoint
 10
170.66098
 20
334.755536
 30
0.0
  0
POINT
  5
57C
330
573
100
AcDbEntity
  8
Defpoints
 62
     0
100
AcDbPoint
 10
170.66098
 20
374.129651
 30
0.0
  0
ENDBLK
  5
57E
330
573
100
AcDbEntity
  8
0
100
AcDbBlockEnd
  0
BLOCK
  5
58C
330
580
100
AcDbEntity
  8
0
100
AcDbBlockBegin
  2
*D24
 70
     1
 71
     0
 10
0.0
 20
0.0
 30
0.0
  3
*D24
  1

  0
LINE
  5
581
330
580
100
AcDbEntity
  8
LC-001-100-D00-0
 62
     2
370
    -2
100
AcDbLine
 10
-108.33902
 20
266.255536
 30
0.0
 11
-202.47712
 21
266.255536
 31
0.0
  0
LINE
  5
582
330
580
100
AcDbEntity
  8
LC-001-100-D00-0
 62
     2
370
    -2
100
AcDbLine
 10
-114.418415
 20
296.255536
 30
0.0
 11
-202.47712
 21
296.255536
 31
0.0
  0
LINE
  5
583
330
580
100
AcDbEntity
  8
LC-001-100-D00-0
 62
     2
370
    -2
100
AcDbLine
 10
-198.87712
 20
246.255536
 30
0.0
 11
-198.87712
 21
226.255536
 31
0.0
  0
LINE
  5
584
330
580
100
AcDbEntity
  8
LC-001-100-D00-0
 62
     2
370
    -2
100
AcDbLine
 10
-198.87712
 20
316.255536
 30
0.0
 11
-198.87712
 21
336.255536
 31
0.0
  0
LINE
  5
585
330
580
100
AcDbEntity
  8
LC-001-100-D00-0
 62
     2
370
    -2
100
AcDbLine
 10
-198.87712
 20
266.255536
 30
0.0
 11
-198.87712
 21
296.255536
 31
0.0
  0
SOLID
  5
586
330
580
100
AcDbEntity
  8
LC-001-100-D00-0
 62
     2
100
AcDbTrace
 10
-195.543787
 20
246.255536
 30
0.0
 11
-202.210453
 21
246.255536
 31
0.0
 12
-198.87712
 22
266.255536
 32
0.0
 13
-198.87712
 23
266.255536
 33
0.0
  0
SOLID
  5
587
330
580
100
AcDbEntity
  8
LC-001-100-D00-0
 62
     2
100
AcDbTrace
 10
-202.210453
 20
316.255536
 30
0.0
 11
-195.543787
 21
316.255536
 31
0.0
 12
-198.87712
 22
296.255536
 32
0.0
 13
-198.87712
 23
296.255536
 33
0.0
  0
MTEXT
  5
588
330
580
100
AcDbEntity
  8
LC-001-100-D00-0
 62
     2
100
AcDbMText
 10
-220.87712
 20
266.355536
 30
0.0
 40
20.0
 41
0.0
 71
     5
 72
     1
  1
\A1;30
  7
LCTX15-400-0-0pDIN-Schrift
 11
6.123031769111886E-17
 21
1.0
 31
0.0
 73
     1
 44
1.0
  0
POINT
  5
589
330
580
100
AcDbEntity
  8
Defpoints
 62
     0
100
AcDbPoint
 10
-108.33902
 20
266.255536
 30
0.0
  0
POINT
  5
58A
330
580
100
AcDbEntity
  8
Defpoints
 62
     0
100
AcDbPoint
 10
-114.418415
 20
296.255536
 30
0.0
  0
POINT
  5
58B
330
580
100
AcDbEntity
  8
Defpoints
 62
     0
100
AcDbPoint
 10
-198.87712
 20
296.255536
 30
0.0
  0
ENDBLK
  5
58D
330
580
100
AcDbEntity
  8
0
100
AcDbBlockEnd
  0
BLOCK
  5
599
330
58F
100
AcDbEntity
  8
0
100
AcDbBlockBegin
  2
*D25
 70
     1
 71
     0
 10
0.0
 20
0.0
 30
0.0
  3
*D25
  1

  0
LINE
  5
590
330
58F
100
AcDbEntity
  8
LC-001-100-D00-0
 62
     2
370
    -2
100
AcDbLine
 10
-153.33902
 20
266.755536
 30
0.0
 11
-153.33902
 21
176.486931
 31
0.0
  0
LINE
  5
591
330
58F
100
AcDbEntity
  8
LC-001-100-D00-0
 62
     2
370
    -2
100
AcDbLine
 10
130.160777
 20
256.193358
 30
0.0
 11
130.160777
 21
176.486931
 31
0.0
  0
LINE
  5
592
330
58F
100
AcDbEntity
  8
LC-001-100-D00-0
 62
     2
370
    -2
100
AcDbLine
 10
-133.33902
 20
180.086931
 30
0.0
 11
110.160777
 21
180.086931
 31
0.0
  0
SOLID
  5
593
330
58F
100
AcDbEntity
  8
LC-001-100-D00-0
 62
     2
100
AcDbTrace
 10
-133.33902
 20
183.420264
 30
0.0
 11
-133.33902
 21
176.753598
 31
0.0
 12
-153.33902
 22
180.086931
 32
0.0
 13
-153.33902
 23
180.086931
 33
0.0
  0
SOLID
  5
594
330
58F
100
AcDbEntity
  8
LC-001-100-D00-0
 62
     2
100
AcDbTrace
 10
110.160777
 20
176.753598
 30
0.0
 11
110.160777
 21
183.420264
 31
0.0
 12
130.160777
 22
180.086931
 32
0.0
 13
130.160777
 23
180.086931
 33
0.0
  0
MTEXT
  5
595
330
58F
100
AcDbEntity
  8
LC-001-100-D00-0
 62
     2
100
AcDbMText
 10
-21.0643
 20
202.086931
 30
0.0
 40
20.0
 41
0.0
 71
     5
 72
     1
  1
\A1;284
  7
LCTX15-400-0-0pDIN-Schrift
 73
     1
 44
1.0
  0
POINT
  5
596
330
58F
100
AcDbEntity
  8
Defpoints
 62
     0
100
AcDbPoint
 10
-153.33902
 20
266.755536
 30
0.0
  0
POINT
  5
597
330
58F
100
AcDbEntity
  8
Defpoints
 62
     0
100
AcDbPoint
 10
130.160777
 20
256.193358
 30
0.0
  0
POINT
  5
598
330
58F
100
AcDbEntity
  8
Defpoints
 62
     0
100
AcDbPoint
 10
130.160777
 20
180.086931
 30
0.0
  0
ENDBLK
  5
59A
330
58F
100
AcDbEntity
  8
0
100
AcDbBlockEnd
  0
BLOCK
  5
5A6
330
59C
100
AcDbEntity
  8
0
100
AcDbBlockBegin
  2
*D26
 70
     1
 71
     0
 10
0.0
 20
0.0
 30
0.0
  3
*D26
  1

  0
LINE
  5
59D
330
59C
100
AcDbEntity
  8
LC-001-100-D00-0
 62
     2
370
    -2
100
AcDbLine
 10
220.66098
 20
337.755536
 30
0.0
 11
257.207064
 21
337.755536
 31
0.0
  0
LINE
  5
59E
330
59C
100
AcDbEntity
  8
LC-001-100-D00-0
 62
     2
370
    -2
100
AcDbLine
 10
136.660777
 20
280.255536
 30
0.0
 11
257.207064
 21
280.255536
 31
0.0
  0
LINE
  5
59F
330
59C
100
AcDbEntity
  8
LC-001-100-D00-0
 62
     2
370
    -2
100
AcDbLine
 10
253.607064
 20
317.755536
 30
0.0
 11
253.607064
 21
300.255536
 31
0.0
  0
SOLID
  5
5A0
330
59C
100
AcDbEntity
  8
LC-001-100-D00-0
 62
     2
100
AcDbTrace
 10
256.940398
 20
317.755536
 30
0.0
 11
250.273731
 21
317.755536
 31
0.0
 12
253.607064
 22
337.755536
 32
0.0
 13
253.607064
 23
337.755536
 33
0.0
  0
SOLID
  5
5A1
330
59C
100
AcDbEntity
  8
LC-001-100-D00-0
 62
     2
100
AcDbTrace
 10
250.273731
 20
300.255536
 30
0.0
 11
256.940398
 21
300.255536
 31
0.0
 12
253.607064
 22
280.255536
 32
0.0
 13
253.607064
 23
280.255536
 33
0.0
  0
MTEXT
  5
5A2
330
59C
100
AcDbEntity
  8
LC-001-100-D00-0
 62
     2
100
AcDbMText
 10
231.607064
 20
310.510752
 30
0.0
 40
20.0
 41
0.0
 71
     5
 72
     1
  1
\A1;57,5
  7
LCTX15-400-0-0pDIN-Schrift
 11
6.123031769111886E-17
 21
1.0
 31
0.0
 73
     1
 44
1.0
  0
POINT
  5
5A3
330
59C
100
AcDbEntity
  8
Defpoints
 62
     0
100
AcDbPoint
 10
220.66098
 20
337.755536
 30
0.0
  0
POINT
  5
5A4
330
59C
100
AcDbEntity
  8
Defpoints
 62
     0
100
AcDbPoint
 10
136.660777
 20
280.255536
 30
0.0
  0
POINT
  5
5A5
330
59C
100
AcDbEntity
  8
Defpoints
 62
     0
100
AcDbPoint
 10
253.607064
 20
280.255536
 30
0.0
  0
ENDBLK
  5
5A7
330
59C
100
AcDbEntity
  8
0
100
AcDbBlockEnd
  0
BLOCK
  5
5B3
330
5A9
100
AcDbEntity
  8
0
100
AcDbBlockBegin
  2
*D27
 70
     1
 71
     0
 10
0.0
 20
0.0
 30
0.0
  3
*D27
  1

  0
LINE
  5
5AA
330
5A9
100
AcDbEntity
  8
LC-001-100-D00-0
 62
     2
370
    -2
100
AcDbLine
 10
-133.3569
 20
247.755536
 30
0.0
 11
-352.909125
 21
247.755536
 31
0.0
  0
LINE
  5
5AB
330
5A9
100
AcDbEntity
  8
LC-001-100-D00-0
 62
     2
370
    -2
100
AcDbLine
 10
-379.33902
 20
337.755536
 30
0.0
 11
-345.709125
 21
337.755536
 31
0.0
  0
LINE
  5
5AC
330
5A9
100
AcDbEntity
  8
LC-001-100-D00-0
 62
     2
370
    -2
100
AcDbLine
 10
-349.309125
 20
267.755536
 30
0.0
 11
-349.309125
 21
317.755536
 31
0.0
  0
SOLID
  5
5AD
330
5A9
100
AcDbEntity
  8
LC-001-100-D00-0
 62
     2
100
AcDbTrace
 10
-352.642458
 20
267.755536
 30
0.0
 11
-345.975792
 21
267.755536
 31
0.0
 12
-349.309125
 22
247.755536
 32
0.0
 13
-349.309125
 23
247.755536
 33
0.0
  0
SOLID
  5
5AE
330
5A9
100
AcDbEntity
  8
LC-001-100-D00-0
 62
     2
100
AcDbTrace
 10
-345.975792
 20
317.755536
 30
0.0
 11
-352.642458
 21
317.755536
 31
0.0
 12
-349.309125
 22
337.755536
 32
0.0
 13
-349.309125
 23
337.755536
 33
0.0
  0
MTEXT
  5
5AF
330
5A9
100
AcDbEntity
  8
LC-001-100-D00-0
 62
     2
100
AcDbMText
 10
-371.309125
 20
286.515536
 30
0.0
 40
20.0
 41
0.0
 71
     5
 72
     1
  1
\A1;90
  7
LCTX15-400-0-0pDIN-Schrift
 11
6.123031769111886E-17
 21
1.0
 31
0.0
 73
     1
 44
1.0
  0
POINT
  5
5B0
330
5A9
100
AcDbEntity
  8
Defpoints
 62
     0
100
AcDbPoint
 10
-133.3569
 20
247.755536
 30
0.0
  0
POINT
  5
5B1
330
5A9
100
AcDbEntity
  8
Defpoints
 62
     0
100
AcDbPoint
 10
-379.33902
 20
337.755536
 30
0.0
  0
POINT
  5
5B2
330
5A9
100
AcDbEntity
  8
Defpoints
 62
     0
100
AcDbPoint
 10
-349.309125
 20
337.755536
 30
0.0
  0
ENDBLK
  5
5B4
330
5A9
100
AcDbEntity
  8
0
100
AcDbBlockEnd
  0
BLOCK
  5
5C0
330
5B6
100
AcDbEntity
  8
0
100
AcDbBlockBegin
  2
*D28
 70
     1
 71
     0
 10
0.0
 20
0.0
 30
0.0
  3
*D28
  1

  0
LINE
  5
5B7
330
5B6
100
AcDbEntity
  8
LC-001-100-D00-0
 62
     2
370
    -2
100
AcDbLine
 10
220.66098
 20
337.755536
 30
0.0
 11
306.162897
 21
337.755536
 31
0.0
  0
LINE
  5
5B8
330
5B6
100
AcDbEntity
  8
LC-001-100-D00-0
 62
     2
370
    -2
100
AcDbLine
 10
130.16098
 20
203.255536
 30
0.0
 11
306.162897
 21
203.255536
 31
0.0
  0
LINE
  5
5B9
330
5B6
100
AcDbEntity
  8
LC-001-100-D00-0
 62
     2
370
    -2
100
AcDbLine
 10
302.562897
 20
317.755536
 30
0.0
 11
302.562897
 21
223.255536
 31
0.0
  0
SOLID
  5
5BA
330
5B6
100
AcDbEntity
  8
LC-001-100-D00-0
 62
     2
100
AcDbTrace
 10
305.89623
 20
317.755536
 30
0.0
 11
299.229564
 21
317.755536
 31
0.0
 12
302.562897
 22
337.755536
 32
0.0
 13
302.562897
 23
337.755536
 33
0.0
  0
SOLID
  5
5BB
330
5B6
100
AcDbEntity
  8
LC-001-100-D00-0
 62
     2
100
AcDbTrace
 10
299.229564
 20
223.255536
 30
0.0
 11
305.89623
 21
223.255536
 31
0.0
 12
302.562897
 22
203.255536
 32
0.0
 13
302.562897
 23
203.255536
 33
0.0
  0
MTEXT
  5
5BC
330
5B6
100
AcDbEntity
  8
LC-001-100-D00-0
 62
     2
100
AcDbMText
 10
280.562897
 20
263.835536
 30
0.0
 40
20.0
 41
0.0
 71
     5
 72
     1
  1
\A1;90-129,5
  7
LCTX15-400-0-0pDIN-Schrift
 11
6.123031769111886E-17
 21
1.0
 31
0.0
 73
     1
 44
1.0
  0
POINT
  5
5BD
330
5B6
100
AcDbEntity
  8
Defpoints
 62
     0
100
AcDbPoint
 10
220.66098
 20
337.755536
 30
0.0
  0
POINT
  5
5BE
330
5B6
100
AcDbEntity
  8
Defpoints
 62
     0
100
AcDbPoint
 10
130.16098
 20
203.255536
 30
0.0
  0
POINT
  5
5BF
330
5B6
100
AcDbEntity
  8
Defpoints
 62
     0
100
AcDbPoint
 10
302.562897
 20
203.255536
 30
0.0
  0
ENDBLK
  5
5C1
330
5B6
100
AcDbEntity
  8
0
100
AcDbBlockEnd
  0
BLOCK
  5
5CD
330
5C3
100
AcDbEntity
  8
0
100
AcDbBlockBegin
  2
*D29
 70
     1
 71
     0
 10
0.0
 20
0.0
 30
0.0
  3
*D29
  1

  0
LINE
  5
5C4
330
5C3
100
AcDbEntity
  8
LC-001-100-D00-0
 62
     2
370
    -2
100
AcDbLine
 10
126.660777
 20
305.255536
 30
0.0
 11
209.82245
 21
305.255536
 31
0.0
  0
LINE
  5
5C5
330
5C3
100
AcDbEntity
  8
LC-001-100-D00-0
 62
     2
370
    -2
100
AcDbLine
 10
126.660777
 20
255.255536
 30
0.0
 11
209.82245
 21
255.255536
 31
0.0
  0
LINE
  5
5C6
330
5C3
100
AcDbEntity
  8
LC-001-100-D00-0
 62
     2
370
    -2
100
AcDbLine
 10
206.22245
 20
285.255536
 30
0.0
 11
206.22245
 21
275.255536
 31
0.0
  0
SOLID
  5
5C7
330
5C3
100
AcDbEntity
  8
LC-001-100-D00-0
 62
     2
100
AcDbTrace
 10
209.555784
 20
285.255536
 30
0.0
 11
202.889117
 21
285.255536
 31
0.0
 12
206.22245
 22
305.255536
 32
0.0
 13
206.22245
 23
305.255536
 33
0.0
  0
SOLID
  5
5C8
330
5C3
100
AcDbEntity
  8
LC-001-100-D00-0
 62
     2
100
AcDbTrace
 10
202.889117
 20
275.255536
 30
0.0
 11
209.555784
 21
275.255536
 31
0.0
 12
206.22245
 22
255.255536
 32
0.0
 13
206.22245
 23
255.255536
 33
0.0
  0
MTEXT
  5
5C9
330
5C3
100
AcDbEntity
  8
LC-001-100-D00-0
 62
     2
100
AcDbMText
 10
184.22245
 20
279.828035
 30
0.0
 40
20.0
 41
0.0
 71
     5
 72
     1
  1
\A1;DN50
  7
LCTX15-400-0-0pDIN-Schrift
 11
6.123031769111886E-17
 21
1.0
 31
0.0
 73
     1
 44
1.0
  0
POINT
  5
5CA
330
5C3
100
AcDbEntity
  8
Defpoints
 62
     0
100
AcDbPoint
 10
126.660777
 20
305.255536
 30
0.0
  0
POINT
  5
5CB
330
5C3
100
AcDbEntity
  8
Defpoints
 62
     0
100
AcDbPoint
 10
126.660777
 20
255.255536
 30
0.0
  0
POINT
  5
5CC
330
5C3
100
AcDbEntity
  8
Defpoints
 62
     0
100
AcDbPoint
 10
206.22245
 20
255.255536
 30
0.0
  0
ENDBLK
  5
5CE
330
5C3
100
AcDbEntity
  8
0
100
AcDbBlockEnd
  0
BLOCK
  5
5D2
330
5D1
100
AcDbEntity
  8
0
100
AcDbBlockBegin
  2
KLON21
 70
     0
 71
     0
 10
0.0
 20
0.0
 30
0.0
  3
KLON21
  1

  4
KLON21
  0
LINE
  5
5D4
330
5D1
100
AcDbEntity
  8
LC-001-100-D00-0
  6
ByBlock
 62
     7
370
    25
100
AcDbLine
 10
-308.672076
 20
318.943104
 30
0.0
 11
-304.53902
 21
323.076161
 31
0.0
  0
LINE
  5
5D5
330
5D1
100
AcDbEntity
  8
LC-001-100-D00-0
  6
ByBlock
 62
     7
370
    25
100
AcDbLine
 10
-317.58902
 20
332.476801
 30
0.0
 11
-312.310285
 21
337.755536
 31
0.0
  0
ENDBLK
  5
5D3
330
5D1
100
AcDbEntity
  8
0
100
AcDbBlockEnd
  0
BLOCK
  5
5DB
330
5DA
100
AcDbEntity
  8
0
100
AcDbBlockBegin
  2
KLON22
 70
     0
 71
     0
 10
0.0
 20
0.0
 30
0.0
  3
KLON22
  1

  4
KLON22
  0
LINE
  5
5DD
330
5DA
100
AcDbEntity
  8
LC-001-100-D00-0
  6
ByBlock
 62
     7
370
    25
100
AcDbLine
 10
-172.988167
 20
319.923177
 30
0.0
 11
-169.58902
 21
323.322324
 31
0.0
  0
LINE
  5
5DE
330
5DA
100
AcDbEntity
  8
LC-001-100-D00-0
  6
ByBlock
 62
     7
370
    25
100
AcDbLine
 10
-162.155808
 20
330.755536
 30
0.0
 11
-161.08902
 21
331.822325
 31
0.0
  0
ENDBLK
  5
5DC
330
5DA
100
AcDbEntity
  8
0
100
AcDbBlockEnd
  0
BLOCK
  5
5E2
330
5E1
100
AcDbEntity
  8
0
100
AcDbBlockBegin
  2
KLON23
 70
     0
 71
     0
 10
0.0
 20
0.0
 30
0.0
  3
KLON23
  1

  4
KLON23
  0
LINE
  5
5E4
330
5E1
100
AcDbEntity
  8
LC-001-100-D00-0
  6
ByBlock
 62
     7
370
    25
100
AcDbLine
 10
27.344822
 20
250.848487
 30
0.0
 11
29.658965
 21
253.162631
 31
0.0
  0
LINE
  5
5E5
330
5E1
100
AcDbEntity
  8
LC-001-100-D00-0
  6
ByBlock
 62
     7
370
    25
100
AcDbLine
 10
31.601871
 20
255.105536
 30
0.0
 11
33.710936
 21
257.214602
 31
0.0
  0
LINE
  5
5E6
330
5E1
100
AcDbEntity
  8
LC-001-100-D00-0
  6
ByBlock
 62
     7
370
    25
100
AcDbLine
 10
6.801232
 20
252.755536
 30
0.0
 11
8.160777
 21
254.115082
 31
0.0
  0
LINE
  5
5E7
330
5E1
100
AcDbEntity
  8
LC-001-100-D00-0
  6
ByBlock
 62
     7
370
    25
100
AcDbLine
 10
8.301231
 20
254.255536
 30
0.0
 11
11.301231
 21
257.255536
 31
0.0
  0
LINE
  5
5E8
330
5E1
100
AcDbEntity
  8
LC-001-100-D00-0
  6
ByBlock
 62
     7
370
    25
100
AcDbLine
 10
-14.149408
 20
254.255536
 30
0.0
 11
-11.149408
 21
257.255536
 31
0.0
  0
LINE
  5
5E9
330
5E1
100
AcDbEntity
  8
LC-001-100-D00-0
  6
ByBlock
 62
     7
370
    25
100
AcDbLine
 10
-43.100047
 20
247.755536
 30
0.0
 11
-40.100047
 21
250.755536
 31
0.0
  0
LINE
  5
5EA
330
5E1
100
AcDbEntity
  8
LC-001-100-D00-0
  6
ByBlock
 62
     7
370
    25
100
AcDbLine
 10
-65.550686
 20
247.755536
 30
0.0
 11
-62.550687
 21
250.755536
 31
0.0
  0
LINE
  5
5EB
330
5E1
100
AcDbEntity
  8
LC-001-100-D00-0
  6
ByBlock
 62
     7
370
    25
100
AcDbLine
 10
-88.001326
 20
247.755536
 30
0.0
 11
-85.001326
 21
250.755536
 31
0.0
  0
LINE
  5
5EC
330
5E1
100
AcDbEntity
  8
LC-001-100-D00-0
  6
ByBlock
 62
     7
370
    25
100
AcDbLine
 10
-110.451965
 20
247.755536
 30
0.0
 11
-107.451966
 21
250.755536
 31
0.0
  0
LINE
  5
5ED
330
5E1
100
AcDbEntity
  8
LC-001-100-D00-0
  6
ByBlock
 62
     7
370
    25
100
AcDbLine
 10
-132.902605
 20
247.755536
 30
0.0
 11
-129.902605
 21
250.755536
 31
0.0
  0
LINE
  5
5EE
330
5E1
100
AcDbEntity
  8
LC-001-100-D00-0
  6
ByBlock
 62
     7
370
    25
100
AcDbLine
 10
-147.145662
 20
255.963119
 30
0.0
 11
-144.928151
 21
258.180631
 31
0.0
  0
LINE
  5
5EF
330
5E1
100
AcDbEntity
  8
LC-001-100-D00-0
  6
ByBlock
 62
     7
370
    25
100
AcDbLine
 10
-153.33902
 20
272.220402
 30
0.0
 11
-150.33902
 21
275.220402
 31
0.0
  0
LINE
  5
5F0
330
5E1
100
AcDbEntity
  8
LC-001-100-D00-0
  6
ByBlock
 62
     7
370
    25
100
AcDbLine
 10
-153.33902
 20
294.671043
 30
0.0
 11
-150.33902
 21
297.671043
 31
0.0
  0
ENDBLK
  5
5E3
330
5E1
100
AcDbEntity
  8
0
100
AcDbBlockEnd
  0
BLOCK
  5
5F3
330
5F2
100
AcDbEntity
  8
0
100
AcDbBlockBegin
  2
KLON24
 70
     0
 71
     0
 10
0.0
 20
0.0
 30
0.0
  3
KLON24
  1

  4
KLON24
  0
LINE
  5
5F5
330
5F2
100
AcDbEntity
  8
LC-001-100-D00-0
  6
ByBlock
 62
     7
370
    25
100
AcDbLine
 10
35.323648
 20
303.728596
 30
0.0
 11
37.836343
 21
306.241291
 31
0.0
  0
LINE
  5
5F6
330
5F2
100
AcDbEntity
  8
LC-001-100-D00-0
  6
ByBlock
 62
     7
370
    25
100
AcDbLine
 10
12.399949
 20
303.255536
 30
0.0
 11
18.638368
 21
309.493956
 31
0.0
  0
LINE
  5
5F7
330
5F2
100
AcDbEntity
  8
LC-001-100-D00-0
  6
ByBlock
 62
     7
370
    25
100
AcDbLine
 10
-8.33902
 20
304.967207
 30
0.0
 11
-6.300691
 21
307.005536
 31
0.0
  0
ENDBLK
  5
5F4
330
5F2
100
AcDbEntity
  8
0
100
AcDbBlockEnd
  0
BLOCK
  5
5FE
330
5FD
100
AcDbEntity
  8
0
100
AcDbBlockBegin
  2
KLON25
 70
     0
 71
     0
 10
0.0
 20
0.0
 30
0.0
  3
KLON25
  1

  4
KLON25
  0
LINE
  5
600
330
5FD
100
AcDbEntity
  8
LC-001-100-D00-0
  6
ByBlock
 62
     7
370
    25
100
AcDbLine
 10
147.011833
 20
325.614225
 30
0.0
 11
150.41098
 21
329.013372
 31
0.0
  0
LINE
  5
601
330
5FD
100
AcDbEntity
  8
LC-001-100-D00-0
  6
ByBlock
 62
     7
370
    25
100
AcDbLine
 10
155.91098
 20
334.513372
 30
0.0
 11
158.728725
 21
337.331117
 31
0.0
  0
ENDBLK
  5
5FF
330
5FD
100
AcDbEntity
  8
0
100
AcDbBlockEnd
  0
BLOCK
  5
605
330
604
100
AcDbEntity
  8
0
100
AcDbBlockBegin
  2
KLON26
 70
     0
 71
     0
 10
0.0
 20
0.0
 30
0.0
  3
KLON26
  1

  4
KLON26
  0
LINE
  5
607
330
604
100
AcDbEntity
  8
LC-001-100-D00-0
  6
ByBlock
 62
     7
370
    25
100
AcDbLine
 10
202.554423
 20
336.255536
 30
0.0
 11
204.054423
 21
337.755536
 31
0.0
  0
LINE
  5
608
330
604
100
AcDbEntity
  8
LC-001-100-D00-0
  6
ByBlock
 62
     7
370
    25
100
AcDbLine
 10
159.603785
 20
315.755536
 30
0.0
 11
161.103785
 21
317.255536
 31
0.0
  0
LINE
  5
609
330
604
100
AcDbEntity
  8
LC-001-100-D00-0
  6
ByBlock
 62
     7
370
    25
100
AcDbLine
 10
170.66098
 20
326.812732
 30
0.0
 11
172.16098
 21
328.312732
 31
0.0
  0
LINE
  5
60A
330
604
100
AcDbEntity
  8
LC-001-100-D00-0
  6
ByBlock
 62
     7
370
    25
100
AcDbLine
 10
180.103783
 20
336.255536
 30
0.0
 11
181.603783
 21
337.755536
 31
0.0
  0
LINE
  5
60B
330
604
100
AcDbEntity
  8
LC-001-100-D00-0
  6
ByBlock
 62
     7
370
    25
100
AcDbLine
 10
137.153145
 20
315.755536
 30
0.0
 11
144.66098
 21
323.263371
 31
0.0
  0
LINE
  5
60C
330
604
100
AcDbEntity
  8
LC-001-100-D00-0
  6
ByBlock
 62
     7
370
    25
100
AcDbLine
 10
114.702506
 20
315.755536
 30
0.0
 11
116.202506
 21
317.255536
 31
0.0
  0
LINE
  5
60D
330
604
100
AcDbEntity
  8
LC-001-100-D00-0
  6
ByBlock
 62
     7
370
    25
100
AcDbLine
 10
92.251866
 20
315.755536
 30
0.0
 11
93.751866
 21
317.255536
 31
0.0
  0
LINE
  5
60E
330
604
100
AcDbEntity
  8
LC-001-100-D00-0
  6
ByBlock
 62
     7
370
    25
100
AcDbLine
 10
69.801227
 20
315.755536
 30
0.0
 11
71.301227
 21
317.255536
 31
0.0
  0
LINE
  5
60F
330
604
100
AcDbEntity
  8
LC-001-100-D00-0
  6
ByBlock
 62
     7
370
    25
100
AcDbLine
 10
47.350588
 20
315.755536
 30
0.0
 11
48.850587
 21
317.255536
 31
0.0
  0
LINE
  5
610
330
604
100
AcDbEntity
  8
LC-001-100-D00-0
  6
ByBlock
 62
     7
370
    25
100
AcDbLine
 10
24.899948
 20
315.755536
 30
0.0
 11
26.399948
 21
317.255536
 31
0.0
  0
LINE
  5
611
330
604
100
AcDbEntity
  8
LC-001-100-D00-0
  6
ByBlock
 62
     7
370
    25
100
AcDbLine
 10
-1.896117
 20
311.41011
 30
0.0
 11
0.225203
 21
313.53143
 31
0.0
  0
LINE
  5
612
330
604
100
AcDbEntity
  8
LC-001-100-D00-0
  6
ByBlock
 62
     7
370
    25
100
AcDbLine
 10
16.66098
 20
329.967209
 30
0.0
 11
23.805143
 21
337.111373
 31
0.0
  0
ENDBLK
  5
606
330
604
100
AcDbEntity
  8
0
100
AcDbBlockEnd
  0
BLOCK
  5
615
330
614
100
AcDbEntity
  8
0
100
AcDbBlockBegin
  2
KLON27
 70
     0
 71
     0
 10
0.0
 20
0.0
 30
0.0
  3
KLON27
  1

  4
KLON27
  0
LINE
  5
617
330
614
100
AcDbEntity
  8
LC-001-100-D00-0
  6
ByBlock
 62
     7
370
    25
100
AcDbLine
 10
-137.254528
 20
310.755536
 30
0.0
 11
-136.019303
 21
311.990762
 31
0.0
  0
LINE
  5
618
330
614
100
AcDbEntity
  8
LC-001-100-D00-0
  6
ByBlock
 62
     7
370
    25
100
AcDbLine
 10
-158.571167
 20
311.889537
 30
0.0
 11
-157.346422
 21
313.114282
 31
0.0
  0
LINE
  5
619
330
614
100
AcDbEntity
  8
LC-001-100-D00-0
  6
ByBlock
 62
     7
370
    25
100
AcDbLine
 10
-177.155807
 20
315.755536
 30
0.0
 11
-174.83902
 21
318.072324
 31
0.0
  0
LINE
  5
61A
330
614
100
AcDbEntity
  8
LC-001-100-D00-0
  6
ByBlock
 62
     7
370
    25
100
AcDbLine
 10
-199.606447
 20
315.755536
 30
0.0
 11
-198.106447
 21
317.255536
 31
0.0
  0
LINE
  5
61B
330
614
100
AcDbEntity
  8
LC-001-100-D00-0
  6
ByBlock
 62
     7
370
    25
100
AcDbLine
 10
-183.33902
 20
332.022964
 30
0.0
 11
-178.106448
 21
337.255536
 31
0.0
  0
LINE
  5
61C
330
614
100
AcDbEntity
  8
LC-001-100-D00-0
  6
ByBlock
 62
     7
370
    25
100
AcDbLine
 10
-222.057086
 20
315.755536
 30
0.0
 11
-220.557086
 21
317.255536
 31
0.0
  0
LINE
  5
61D
330
614
100
AcDbEntity
  8
LC-001-100-D00-0
  6
ByBlock
 62
     7
370
    25
100
AcDbLine
 10
-244.507726
 20
315.755536
 30
0.0
 11
-243.007726
 21
317.255536
 31
0.0
  0
LINE
  5
61E
330
614
100
AcDbEntity
  8
LC-001-100-D00-0
  6
ByBlock
 62
     7
370
    25
100
AcDbLine
 10
-266.958365
 20
315.755536
 30
0.0
 11
-265.458365
 21
317.255536
 31
0.0
  0
LINE
  5
61F
330
614
100
AcDbEntity
  8
LC-001-100-D00-0
  6
ByBlock
 62
     7
370
    25
100
AcDbLine
 10
-289.409005
 20
315.755536
 30
0.0
 11
-287.909005
 21
317.255536
 31
0.0
  0
LINE
  5
620
330
614
100
AcDbEntity
  8
LC-001-100-D00-0
  6
ByBlock
 62
     7
370
    25
100
AcDbLine
 10
-311.859644
 20
315.755536
 30
0.0
 11
-310.359644
 21
317.255536
 31
0.0
  0
LINE
  5
621
330
614
100
AcDbEntity
  8
LC-001-100-D00-0
  6
ByBlock
 62
     7
370
    25
100
AcDbLine
 10
-303.33902
 20
324.276161
 30
0.0
 11
-295.33902
 21
332.276162
 31
0.0
  0
LINE
  5
622
330
614
100
AcDbEntity
  8
LC-001-100-D00-0
  6
ByBlock
 62
     7
370
    25
100
AcDbLine
 10
-329.564073
 20
320.501748
 30
0.0
 11
-328.458664
 21
321.607157
 31
0.0
  0
LINE
  5
623
330
614
100
AcDbEntity
  8
LC-001-100-D00-0
  6
ByBlock
 62
     7
370
    25
100
AcDbLine
 10
-336.260925
 20
336.255536
 30
0.0
 11
-334.760925
 21
337.755536
 31
0.0
  0
LINE
  5
624
330
614
100
AcDbEntity
  8
LC-001-100-D00-0
  6
ByBlock
 62
     7
370
    25
100
AcDbLine
 10
-358.711564
 20
336.255536
 30
0.0
 11
-357.211564
 21
337.755536
 31
0.0
  0
ENDBLK
  5
616
330
614
100
AcDbEntity
  8
0
100
AcDbBlockEnd
  0
BLOCK
  5
627
330
626
100
AcDbEntity
  8
0
100
AcDbBlockBegin
  2
KLON28
 70
     0
 71
     0
 10
0.0
 20
0.0
 30
0.0
  3
KLON28
  1

  4
KLON28
  0
LINE
  5
629
330
626
100
AcDbEntity
  8
LC-001-100-D00-0
  6
ByBlock
 62
     7
370
    25
100
AcDbLine
 10
-51.83902
 20
283.917845
 30
0.0
 11
-50.33902
 21
285.417845
 31
0.0
  0
LINE
  5
62A
330
626
100
AcDbEntity
  8
LC-001-100-D00-0
  6
ByBlock
 62
     7
370
    25
100
AcDbLine
 10
-30.00133
 20
305.755536
 30
0.0
 11
-26.83902
 21
308.917847
 31
0.0
  0
LINE
  5
62B
330
626
100
AcDbEntity
  8
LC-001-100-D00-0
  6
ByBlock
 62
     7
370
    25
100
AcDbLine
 10
-25.501331
 20
310.255536
 30
0.0
 11
-24.83902
 21
310.917847
 31
0.0
  0
LINE
  5
62C
330
626
100
AcDbEntity
  8
LC-001-100-D00-0
  6
ByBlock
 62
     7
370
    25
100
AcDbLine
 10
-51.83902
 20
306.368486
 30
0.0
 11
-46.45197
 21
311.755536
 31
0.0
  0
ENDBLK
  5
628
330
626
100
AcDbEntity
  8
0
100
AcDbBlockEnd
  0
BLOCK
  5
62F
330
62E
100
AcDbEntity
  8
0
100
AcDbBlockBegin
  2
KLON29
 70
     0
 71
     0
 10
0.0
 20
0.0
 30
0.0
  3
KLON29
  1

  4
KLON29
  0
LINE
  5
631
330
62E
100
AcDbEntity
  8
LC-001-100-D00-0
  6
ByBlock
 62
     7
370
    25
100
AcDbLine
 10
-108.33902
 20
272.319123
 30
0.0
 11
-106.83902
 21
273.819123
 31
0.0
  0
LINE
  5
632
330
62E
100
AcDbEntity
  8
LC-001-100-D00-0
  6
ByBlock
 62
     7
370
    25
100
AcDbLine
 10
-108.33902
 20
294.769764
 30
0.0
 11
-106.83902
 21
296.269764
 31
0.0
  0
LINE
  5
633
330
62E
100
AcDbEntity
  8
LC-001-100-D00-0
  6
ByBlock
 62
     7
370
    25
100
AcDbLine
 10
-119.803888
 20
305.755536
 30
0.0
 11
-113.803889
 21
311.755536
 31
0.0
  0
ENDBLK
  5
630
330
62E
100
AcDbEntity
  8
0
100
AcDbBlockEnd
  0
BLOCK
  5
636
330
635
100
AcDbEntity
  8
0
100
AcDbBlockBegin
  2
KLON30
 70
     0
 71
     0
 10
0.0
 20
0.0
 30
0.0
  3
KLON30
  1

  4
KLON30
  0
LINE
  5
638
330
635
100
AcDbEntity
  8
LC-001-100-D00-0
  6
ByBlock
 62
     7
370
    25
100
AcDbLine
 10
-63.050687
 20
250.255536
 30
0.0
 11
-61.550687
 21
251.755536
 31
0.0
  0
LINE
  5
639
330
635
100
AcDbEntity
  8
LC-001-100-D00-0
  6
ByBlock
 62
     7
370
    25
100
AcDbLine
 10
-39.83902
 20
273.467205
 30
0.0
 11
-38.33902
 21
274.967205
 31
0.0
  0
LINE
  5
63A
330
635
100
AcDbEntity
  8
LC-001-100-D00-0
  6
ByBlock
 62
     7
370
    25
100
AcDbLine
 10
-85.501326
 20
250.255536
 30
0.0
 11
-84.001326
 21
251.755536
 31
0.0
  0
LINE
  5
63B
330
635
100
AcDbEntity
  8
LC-001-100-D00-0
  6
ByBlock
 62
     7
370
    25
100
AcDbLine
 10
-39.83902
 20
295.917846
 30
0.0
 11
-33.35177
 21
302.405097
 31
0.0
  0
LINE
  5
63C
330
635
100
AcDbEntity
  8
LC-001-100-D00-0
  6
ByBlock
 62
     7
370
    25
100
AcDbLine
 10
-107.951966
 20
250.255536
 30
0.0
 11
-106.451966
 21
251.755536
 31
0.0
  0
LINE
  5
63D
330
635
100
AcDbEntity
  8
LC-001-100-D00-0
  6
ByBlock
 62
     7
370
    25
100
AcDbLine
 10
-120.33902
 20
260.319122
 30
0.0
 11
-118.83902
 21
261.819122
 31
0.0
  0
LINE
  5
63E
330
635
100
AcDbEntity
  8
LC-001-100-D00-0
  6
ByBlock
 62
     7
370
    25
100
AcDbLine
 10
-120.33902
 20
282.769763
 30
0.0
 11
-118.83902
 21
284.269763
 31
0.0
  0
LINE
  5
63F
330
635
100
AcDbEntity
  8
LC-001-100-D00-0
  6
ByBlock
 62
     7
370
    25
100
AcDbLine
 10
-125.505215
 20
300.054209
 30
0.0
 11
-124.074642
 21
301.484782
 31
0.0
  0
ENDBLK
  5
637
330
635
100
AcDbEntity
  8
0
100
AcDbBlockEnd
  0
BLOCK
  5
642
330
641
100
AcDbEntity
  8
0
100
AcDbBlockBegin
  2
KLON31
 70
     0
 71
     0
 10
0.0
 20
0.0
 30
0.0
  3
KLON31
  1

  4
KLON31
  0
LINE
  5
644
330
641
100
AcDbEntity
  8
LC-001-100-D00-0
  6
ByBlock
 62
     7
370
    50
100
AcDbLine
 10
57.051228
 20
303.005536
 30
0.0
 11
59.301228
 21
305.255536
 31
0.0
  0
LINE
  5
645
330
641
100
AcDbEntity
  8
LC-001-100-D00-0
  6
ByBlock
 62
     7
370
    50
100
AcDbLine
 10
79.501868
 20
303.005536
 30
0.0
 11
81.751868
 21
305.255536
 31
0.0
  0
LINE
  5
646
330
641
100
AcDbEntity
  8
LC-001-100-D00-0
  6
ByBlock
 62
     7
370
    50
100
AcDbLine
 10
101.952508
 20
303.005536
 30
0.0
 11
104.202508
 21
305.255536
 31
0.0
  0
LINE
  5
647
330
641
100
AcDbEntity
  8
LC-001-100-D00-0
  6
ByBlock
 62
     7
370
    50
100
AcDbLine
 10
124.403128
 20
303.005536
 30
0.0
 11
126.653128
 21
305.255536
 31
0.0
  0
ENDBLK
  5
643
330
641
100
AcDbEntity
  8
0
100
AcDbBlockEnd
  0
BLOCK
  5
64A
330
649
100
AcDbEntity
  8
0
100
AcDbBlockBegin
  2
KLON32
 70
     0
 71
     0
 10
0.0
 20
0.0
 30
0.0
  3
KLON32
  1

  4
KLON32
  0
LINE
  5
64C
330
649
100
AcDbEntity
  8
LC-001-100-D00-0
  6
ByBlock
 62
     7
370
    25
100
AcDbLine
 10
24.771142
 20
248.274806
 30
0.0
 11
27.503181
 21
251.006845
 31
0.0
  0
LINE
  5
64D
330
649
100
AcDbEntity
  8
LC-001-100-D00-0
  6
ByBlock
 62
     7
370
    25
100
AcDbLine
 10
54.202511
 20
255.255536
 30
0.0
 11
56.452511
 21
257.505536
 31
0.0
  0
LINE
  5
64E
330
649
100
AcDbEntity
  8
LC-001-100-D00-0
  6
ByBlock
 62
     7
370
    25
100
AcDbLine
 10
76.653131
 20
255.255536
 30
0.0
 11
78.903131
 21
257.505536
 31
0.0
  0
ENDBLK
  5
64B
330
649
100
AcDbEntity
  8
0
100
AcDbBlockEnd
  0
BLOCK
  5
663
330
659
100
AcDbEntity
  8
0
100
AcDbBlockBegin
  2
*D42
 70
     1
 71
     0
 10
0.0
 20
0.0
 30
0.0
  3
*D42
  1

  0
LINE
  5
65A
330
659
100
AcDbEntity
  8
LC-001-100-D00-0
 62
     2
370
    -2
100
AcDbLine
 10
545.400041
 20
266.755536
 30
0.0
 11
545.400041
 21
168.675536
 31
0.0
  0
LINE
  5
65B
330
659
100
AcDbEntity
  8
LC-001-100-D00-0
 62
     2
370
    -2
100
AcDbLine
 10
626.400041
 20
266.755536
 30
0.0
 11
626.400041
 21
168.675536
 31
0.0
  0
LINE
  5
65C
330
659
100
AcDbEntity
  8
LC-001-100-D00-0
 62
     2
370
    -2
100
AcDbLine
 10
565.400041
 20
172.275536
 30
0.0
 11
606.400041
 21
172.275536
 31
0.0
  0
SOLID
  5
65D
330
659
100
AcDbEntity
  8
LC-001-100-D00-0
 62
     2
100
AcDbTrace
 10
565.400041
 20
175.60887
 30
0.0
 11
565.400041
 21
168.942203
 31
0.0
 12
545.400041
 22
172.275536
 32
0.0
 13
545.400041
 23
172.275536
 33
0.0
  0
SOLID
  5
65E
330
659
100
AcDbEntity
  8
LC-001-100-D00-0
 62
     2
100
AcDbTrace
 10
606.400041
 20
168.942203
 30
0.0
 11
606.400041
 21
175.60887
 31
0.0
 12
626.400041
 22
172.275536
 32
0.0
 13
626.400041
 23
172.275536
 33
0.0
  0
MTEXT
  5
65F
330
659
100
AcDbEntity
  8
LC-001-100-D00-0
 62
     2
100
AcDbMText
 10
583.681276
 20
194.275536
 30
0.0
 40
20.0
 41
0.0
 71
     5
 72
     1
  1
\A1;81
  7
LCTX15-400-0-0pDIN-Schrift
 73
     1
 44
1.0
  0
POINT
  5
660
330
659
100
AcDbEntity
  8
Defpoints
 62
     0
100
AcDbPoint
 10
545.400041
 20
266.755536
 30
0.0
  0
POINT
  5
661
330
659
100
AcDbEntity
  8
Defpoints
 62
     0
100
AcDbPoint
 10
626.400041
 20
266.755536
 30
0.0
  0
POINT
  5
662
330
659
100
AcDbEntity
  8
Defpoints
 62
     0
100
AcDbPoint
 10
626.400041
 20
172.275536
 30
0.0
  0
ENDBLK
  5
664
330
659
100
AcDbEntity
  8
0
100
AcDbBlockEnd
  0
ENDSEC
  0
SECTION
  2
ENTITIES
  0
LINE
  5
32
330
1F
100
AcDbEntity
  8
LC-001-100-D00-0
 62
     7
370
    25
100
AcDbLine
 10
521.400041
 20
337.755536
 30
0.0
 11
521.400041
 21
203.255536
 31
0.0
  0
LINE
  5
33
330
1F
100
AcDbEntity
  8
LC-001-100-D00-0
 62
     7
370
    25
100
AcDbLine
 10
650.400041
 20
337.755536
 30
0.0
 11
650.400041
 21
203.255536
 31
0.0
  0
LINE
  5
34
330
1F
100
AcDbEntity
  8
LC-001-100-D00-0
  6
ByBlock
 62
     7
370
    50
100
AcDbLine
 10
616.400041
 20
336.255536
 30
0.0
 11
616.400041
 21
334.855536
 31
0.0
  0
LINE
  5
35
330
1F
100
AcDbEntity
  8
LC-001-100-D00-0
  6
ByBlock
 62
     7
370
    50
100
AcDbLine
 10
625.400041
 20
334.855536
 30
0.0
 11
625.400043
 21
336.255536
 31
0.0
  0
LINE
  5
36
330
1F
100
AcDbEntity
  8
LC-001-100-D00-0
  6
ByBlock
 62
     7
370
    50
100
AcDbLine
 10
546.400039
 20
336.255536
 30
0.0
 11
546.400041
 21
334.855536
 31
0.0
  0
LINE
  5
37
330
1F
100
AcDbEntity
  8
LC-001-100-D00-0
  6
ByBlock
 62
     7
370
    50
100
AcDbLine
 10
555.400041
 20
334.855536
 30
0.0
 11
555.40004
 21
336.255536
 31
0.0
  0
LINE
  5
38
330
1F
100
AcDbEntity
  8
LC-001-100-D00-0
  6
ByBlock
 62
     7
370
    50
100
AcDbLine
 10
616.90004
 20
334.855536
 30
0.0
 11
616.900041
 21
321.255536
 31
0.0
  0
LINE
  5
39
330
1F
100
AcDbEntity
  8
LC-001-100-D00-0
  6
ByBlock
 62
     7
370
    50
100
AcDbLine
 10
624.900041
 20
321.255536
 30
0.0
 11
624.900042
 21
334.855536
 31
0.0
  0
LINE
  5
3A
330
1F
100
AcDbEntity
  8
LC-001-100-D00-0
  6
ByBlock
 62
     7
370
    50
100
AcDbLine
 10
546.90004
 20
334.855536
 30
0.0
 11
546.900041
 21
321.255536
 31
0.0
  0
LINE
  5
3B
330
1F
100
AcDbEntity
  8
LC-001-100-D00-0
  6
ByBlock
 62
     7
370
    50
100
AcDbLine
 10
554.900041
 20
321.255536
 30
0.0
 11
554.900041
 21
334.855536
 31
0.0
  0
ARC
  5
3C
330
1F
100
AcDbEntity
  8
LC-001-100-D00-0
  6
ByBlock
 62
     7
370
    50
100
AcDbCircle
 10
512.400041
 20
210.755536
 30
0.0
 40
0.5000000000002274
100
AcDbArc
 50
90.0
 51
180.0
  0
ARC
  5
3D
330
1F
100
AcDbEntity
  8
LC-001-100-D00-0
  6
ByBlock
 62
     7
370
    50
100
AcDbCircle
 10
530.400041
 20
210.755536
 30
0.0
 40
0.5000000000004548
100
AcDbArc
 50
0.0
 51
90.0
  0
LINE
  5
3E
330
1F
100
AcDbEntity
  8
LC-001-100-D00-0
  6
ByBlock
 62
     7
370
    50
100
AcDbLine
 10
511.900041
 20
210.755536
 30
0.0
 11
511.900041
 21
203.255536
 31
0.0
  0
LINE
  5
3F
330
1F
100
AcDbEntity
  8
LC-001-100-D00-0
  6
ByBlock
 62
     7
370
    50
100
AcDbLine
 10
530.900041
 20
203.255536
 30
0.0
 11
530.900041
 21
210.755536
 31
0.0
  0
ARC
  5
40
330
1F
100
AcDbEntity
  8
LC-001-100-D00-0
  6
ByBlock
 62
     7
370
    50
100
AcDbCircle
 10
641.400041
 20
210.755536
 30
0.0
 40
0.5000000000002274
100
AcDbArc
 50
90.0
 51
180.0
  0
ARC
  5
41
330
1F
100
AcDbEntity
  8
LC-001-100-D00-0
  6
ByBlock
 62
     7
370
    50
100
AcDbCircle
 10
659.400041
 20
210.755536
 30
0.0
 40
0.4999999999997726
100
AcDbArc
 50
0.0
 51
90.0
  0
LINE
  5
42
330
1F
100
AcDbEntity
  8
LC-001-100-D00-0
  6
ByBlock
 62
     7
370
    50
100
AcDbLine
 10
640.900041
 20
210.755536
 30
0.0
 11
640.900041
 21
203.255536
 31
0.0
  0
LINE
  5
43
330
1F
100
AcDbEntity
  8
LC-001-100-D00-0
  6
ByBlock
 62
     7
370
    50
100
AcDbLine
 10
659.900041
 20
203.255536
 30
0.0
 11
659.900041
 21
210.755536
 31
0.0
  0
LINE
  5
44
330
1F
100
AcDbEntity
  8
LC-001-100-D00-0
  6
ByBlock
 62
     7
370
    50
100
AcDbLine
 10
640.400039
 20
280.255535
 30
0.0
 11
640.400041
 21
226.255536
 31
0.0
  0
LINE
  5
45
330
1F
100
AcDbEntity
  8
LC-001-100-D00-0
  6
ByBlock
 62
     7
370
    50
100
AcDbLine
 10
660.400041
 20
226.255536
 30
0.0
 11
660.400043
 21
280.255535
 31
0.0
  0
LINE
  5
46
330
1F
100
AcDbEntity
  8
LC-001-100-D00-0
  6
ByBlock
 62
     7
370
    50
100
AcDbLine
 10
640.400041
 20
222.755536
 30
0.0
 11
640.400041
 21
212.255536
 31
0.0
  0
LINE
  5
47
330
1F
100
AcDbEntity
  8
LC-001-100-D00-0
  6
ByBlock
 62
     7
370
    50
100
AcDbLine
 10
660.400041
 20
212.255536
 30
0.0
 11
660.400041
 21
222.755536
 31
0.0
  0
LINE
  5
48
330
1F
100
AcDbEntity
  8
LC-001-100-D00-0
  6
ByBlock
 62
     7
370
    50
100
AcDbLine
 10
640.400041
 20
212.255536
 30
0.0
 11
641.400041
 21
211.255536
 31
0.0
  0
LINE
  5
49
330
1F
100
AcDbEntity
  8
LC-001-100-D00-0
  6
ByBlock
 62
     7
370
    50
100
AcDbLine
 10
659.400041
 20
211.255536
 30
0.0
 11
660.400041
 21
212.255536
 31
0.0
  0
LINE
  5
4A
330
1F
100
AcDbEntity
  8
LC-001-100-D00-0
  6
ByBlock
 62
     7
370
    50
100
AcDbLine
 10
642.500041
 20
226.255534
 30
0.0
 11
642.500041
 21
222.755534
 31
0.0
  0
LINE
  5
4B
330
1F
100
AcDbEntity
  8
LC-001-100-D00-0
  6
ByBlock
 62
     7
370
    50
100
AcDbLine
 10
658.300044
 20
222.755534
 30
0.0
 11
658.300044
 21
226.255534
 31
0.0
  0
LINE
  5
4C
330
1F
100
AcDbEntity
  8
LC-001-100-D00-0
  6
ByBlock
 62
     7
370
    50
100
AcDbLine
 10
511.400039
 20
280.255535
 30
0.0
 11
511.400041
 21
226.255536
 31
0.0
  0
LINE
  5
4D
330
1F
100
AcDbEntity
  8
LC-001-100-D00-0
  6
ByBlock
 62
     7
370
    50
100
AcDbLine
 10
531.400041
 20
226.255536
 30
0.0
 11
531.400042
 21
280.255535
 31
0.0
  0
LINE
  5
4E
330
1F
100
AcDbEntity
  8
LC-001-100-D00-0
  6
ByBlock
 62
     7
370
    50
100
AcDbLine
 10
511.400041
 20
222.755536
 30
0.0
 11
511.400041
 21
212.255536
 31
0.0
  0
LINE
  5
4F
330
1F
100
AcDbEntity
  8
LC-001-100-D00-0
  6
ByBlock
 62
     7
370
    50
100
AcDbLine
 10
531.400041
 20
212.255536
 30
0.0
 11
531.400041
 21
222.755536
 31
0.0
  0
LINE
  5
50
330
1F
100
AcDbEntity
  8
LC-001-100-D00-0
  6
ByBlock
 62
     7
370
    50
100
AcDbLine
 10
511.400041
 20
212.255536
 30
0.0
 11
512.400041
 21
211.255536
 31
0.0
  0
LINE
  5
51
330
1F
100
AcDbEntity
  8
LC-001-100-D00-0
  6
ByBlock
 62
     7
370
    50
100
AcDbLine
 10
530.400041
 20
211.255536
 30
0.0
 11
531.400041
 21
212.255536
 31
0.0
  0
LINE
  5
52
330
1F
100
AcDbEntity
  8
LC-001-100-D00-0
  6
ByBlock
 62
     7
370
    50
100
AcDbLine
 10
513.500037
 20
226.255534
 30
0.0
 11
513.500037
 21
222.755534
 31
0.0
  0
LINE
  5
53
330
1F
100
AcDbEntity
  8
LC-001-100-D00-0
  6
ByBlock
 62
     7
370
    50
100
AcDbLine
 10
529.30004
 20
222.755534
 30
0.0
 11
529.30004
 21
226.255534
 31
0.0
  0
ARC
  5
54
330
1F
100
AcDbEntity
  8
LC-001-100-D00-0
  6
ByBlock
 62
     7
370
    50
100
AcDbCircle
 10
625.300041
 20
311.855536
 30
0.0
 40
0.5999999999999091
100
AcDbArc
 50
270.0
 51
0.0
  0
ARC
  5
55
330
1F
100
AcDbEntity
  8
LC-001-100-D00-0
  6
ByBlock
 62
     7
370
    50
100
AcDbCircle
 10
616.500041
 20
311.855536
 30
0.0
 40
0.6000000000001364
100
AcDbArc
 50
180.0
 51
270.0
  0
LINE
  5
56
330
1F
100
AcDbEntity
  8
LC-001-100-D00-0
  6
ByBlock
 62
     7
370
    50
100
AcDbLine
 10
625.900041
 20
311.855536
 30
0.0
 11
625.90004
 21
315.255535
 31
0.0
  0
LINE
  5
57
330
1F
100
AcDbEntity
  8
LC-001-100-D00-0
  6
ByBlock
 62
     7
370
    50
100
AcDbLine
 10
615.90004
 20
315.255535
 30
0.0
 11
615.900041
 21
311.855536
 31
0.0
  0
LINE
  5
58
330
1F
100
AcDbEntity
  8
LC-001-100-D00-0
  6
ByBlock
 62
     7
370
    50
100
AcDbLine
 10
623.90004
 20
320.255536
 30
0.0
 11
623.90004
 21
321.255536
 31
0.0
  0
LINE
  5
59
330
1F
100
AcDbEntity
  8
LC-001-100-D00-0
  6
ByBlock
 62
     7
370
    50
100
AcDbLine
 10
617.900042
 20
321.255536
 30
0.0
 11
617.900042
 21
320.255536
 31
0.0
  0
ARC
  5
5A
330
1F
100
AcDbEntity
  8
LC-001-100-D00-0
  6
ByBlock
 62
     7
370
    50
100
AcDbCircle
 10
555.300041
 20
311.855536
 30
0.0
 40
0.5999999999999091
100
AcDbArc
 50
270.0
 51
0.0
  0
ARC
  5
5B
330
1F
100
AcDbEntity
  8
LC-001-100-D00-0
  6
ByBlock
 62
     7
370
    50
100
AcDbCircle
 10
546.500041
 20
311.855536
 30
0.0
 40
0.6000000000001364
100
AcDbArc
 50
180.0
 51
270.0
  0
LINE
  5
5C
330
1F
100
AcDbEntity
  8
LC-001-100-D00-0
  6
ByBlock
 62
     7
370
    50
100
AcDbLine
 10
555.900041
 20
311.855536
 30
0.0
 11
555.900041
 21
315.255535
 31
0.0
  0
LINE
  5
5D
330
1F
100
AcDbEntity
  8
LC-001-100-D00-0
  6
ByBlock
 62
     7
370
    50
100
AcDbLine
 10
545.900042
 20
315.255535
 30
0.0
 11
545.900041
 21
311.855536
 31
0.0
  0
LINE
  5
5E
330
1F
100
AcDbEntity
  8
LC-001-100-D00-0
  6
ByBlock
 62
     7
370
    50
100
AcDbLine
 10
553.900039
 20
320.255536
 30
0.0
 11
553.900039
 21
321.255536
 31
0.0
  0
LINE
  5
5F
330
1F
100
AcDbEntity
  8
LC-001-100-D00-0
  6
ByBlock
 62
     7
370
    50
100
AcDbLine
 10
547.900042
 20
321.255536
 30
0.0
 11
547.900042
 21
320.255536
 31
0.0
  0
LINE
  5
60
330
1F
100
AcDbEntity
  8
LC-001-100-D00-0
  6
ByBlock
 62
     7
370
    50
100
AcDbLine
 10
626.400041
 20
315.255536
 30
0.0
 11
626.400041
 21
317.255536
 31
0.0
  0
LINE
  5
61
330
1F
100
AcDbEntity
  8
LC-001-100-D00-0
  6
ByBlock
 62
     7
370
    50
100
AcDbLine
 10
615.400041
 20
317.255536
 30
0.0
 11
615.400041
 21
315.255536
 31
0.0
  0
LINE
  5
62
330
1F
100
AcDbEntity
  8
LC-001-100-D00-0
  6
ByBlock
 62
     7
370
    50
100
AcDbLine
 10
556.400041
 20
315.255536
 30
0.0
 11
556.400041
 21
317.255536
 31
0.0
  0
LINE
  5
63
330
1F
100
AcDbEntity
  8
LC-001-100-D00-0
  6
ByBlock
 62
     7
370
    50
100
AcDbLine
 10
545.400041
 20
317.255536
 30
0.0
 11
545.400041
 21
315.255536
 31
0.0
  0
LINE
  5
64
330
1F
100
AcDbEntity
  8
LC-001-100-D00-0
  6
ByBlock
 62
     7
370
    50
100
AcDbLine
 10
663.400041
 20
337.755536
 30
0.0
 11
663.400041
 21
336.255536
 31
0.0
  0
LINE
  5
65
330
1F
100
AcDbEntity
  8
LC-001-100-D00-0
  6
ByBlock
 62
     7
370
    50
100
AcDbLine
 10
663.400041
 20
336.255536
 30
0.0
 11
658.400041
 21
336.255536
 31
0.0
  0
LINE
  5
66
330
1F
100
AcDbEntity
  8
LC-001-100-D00-0
  6
ByBlock
 62
     7
370
    50
100
AcDbLine
 10
658.400041
 20
337.755536
 30
0.0
 11
663.400041
 21
337.755536
 31
0.0
  0
LINE
  5
67
330
1F
100
AcDbEntity
  8
LC-001-100-D00-0
  6
ByBlock
 62
     7
370
    50
100
AcDbLine
 10
513.400041
 20
336.255536
 30
0.0
 11
658.400041
 21
336.255536
 31
0.0
  0
LINE
  5
68
330
1F
100
AcDbEntity
  8
LC-001-100-D00-0
  6
ByBlock
 62
     7
370
    50
100
AcDbLine
 10
513.400041
 20
337.755536
 30
0.0
 11
658.400041
 21
337.755536
 31
0.0
  0
LINE
  5
69
330
1F
100
AcDbEntity
  8
LC-001-100-D00-0
  6
ByBlock
 62
     7
370
    50
100
AcDbLine
 10
508.400041
 20
336.255536
 30
0.0
 11
508.400041
 21
337.755536
 31
0.0
  0
LINE
  5
6A
330
1F
100
AcDbEntity
  8
LC-001-100-D00-0
  6
ByBlock
 62
     7
370
    50
100
AcDbLine
 10
513.400041
 20
336.255536
 30
0.0
 11
508.400041
 21
336.255536
 31
0.0
  0
LINE
  5
6B
330
1F
100
AcDbEntity
  8
LC-001-100-D00-0
  6
ByBlock
 62
     7
370
    50
100
AcDbLine
 10
508.400041
 20
337.755536
 30
0.0
 11
513.400041
 21
337.755536
 31
0.0
  0
ARC
  5
6C
330
1F
100
AcDbEntity
  8
LC-001-100-D00-0
  6
ByBlock
 62
     7
370
    50
100
AcDbCircle
 10
556.900041
 20
334.755536
 30
0.0
 40
1.499999999999773
100
AcDbArc
 50
0.0
 51
90.0
  0
ARC
  5
6D
330
1F
100
AcDbEntity
  8
LC-001-100-D00-0
  6
ByBlock
 62
     7
370
    50
100
AcDbCircle
 10
614.900041
 20
334.755536
 30
0.0
 40
1.500000000000227
100
AcDbArc
 50
90.0
 51
180.0
  0
ARC
  5
6E
330
1F
100
AcDbEntity
  8
LC-001-100-D00-0
  6
ByBlock
 62
     7
370
    50
100
AcDbCircle
 10
609.400041
 20
319.755536
 30
0.0
 40
4.000000000014552
100
AcDbArc
 50
270.0
 51
0.0
  0
LINE
  5
6F
330
1F
100
AcDbEntity
  8
LC-001-100-D00-0
  6
ByBlock
 62
     7
370
    50
100
AcDbLine
 10
613.400041
 20
319.755536
 30
0.0
 11
613.400041
 21
325.255536
 31
0.0
  0
ARC
  5
70
330
1F
100
AcDbEntity
  8
LC-001-100-D00-0
  6
ByBlock
 62
     7
370
    50
100
AcDbCircle
 10
562.400041
 20
319.755536
 30
0.0
 40
4.000000000000227
100
AcDbArc
 50
180.0
 51
270.0
  0
LINE
  5
71
330
1F
100
AcDbEntity
  8
LC-001-100-D00-0
  6
ByBlock
 62
     7
370
    50
100
AcDbLine
 10
558.400041
 20
325.255536
 30
0.0
 11
558.400041
 21
319.755536
 31
0.0
  0
LINE
  5
72
330
1F
100
AcDbEntity
  8
LC-001-100-D00-0
  6
ByBlock
 62
     7
370
    50
100
AcDbLine
 10
558.400041
 20
325.255536
 30
0.0
 11
558.400041
 21
334.755536
 31
0.0
  0
LINE
  5
73
330
1F
100
AcDbEntity
  8
LC-001-100-D00-0
  6
ByBlock
 62
     7
370
    50
100
AcDbLine
 10
613.400041
 20
334.755536
 30
0.0
 11
613.400041
 21
325.255536
 31
0.0
  0
LINE
  5
74
330
1F
100
AcDbEntity
  8
LC-001-100-D00-0
  6
ByBlock
 62
     7
370
    50
100
AcDbLine
 10
598.23345
 20
315.755536
 30
0.0
 11
609.400041
 21
315.755536
 31
0.0
  0
LINE
  5
75
330
1F
100
AcDbEntity
  8
LC-001-100-D00-0
  6
ByBlock
 62
     7
370
    50
100
AcDbLine
 10
598.055235
 20
315.755536
 30
0.0
 11
598.23345
 21
315.755536
 31
0.0
  0
LINE
  5
76
330
1F
100
AcDbEntity
  8
LC-001-100-D00-0
  6
ByBlock
 62
     7
370
    50
100
AcDbLine
 10
598.055235
 20
315.755536
 30
0.0
 11
573.744846
 21
315.755536
 31
0.0
  0
LINE
  5
77
330
1F
100
AcDbEntity
  8
LC-001-100-D00-0
  6
ByBlock
 62
     7
370
    50
100
AcDbLine
 10
573.566632
 20
315.755536
 30
0.0
 11
573.744846
 21
315.755536
 31
0.0
  0
LINE
  5
78
330
1F
100
AcDbEntity
  8
LC-001-100-D00-0
  6
ByBlock
 62
     7
370
    50
100
AcDbLine
 10
562.400041
 20
315.755536
 30
0.0
 11
573.566632
 21
315.755536
 31
0.0
  0
ARC
  5
79
330
1F
100
AcDbEntity
  8
LC-001-100-D00-0
  6
ByBlock
 62
     7
370
    50
100
AcDbCircle
 10
562.400041
 20
314.755536
 30
0.0
 40
4.00000000003979
100
AcDbArc
 50
180.0
 51
270.0
  0
LINE
  5
7A
330
1F
100
AcDbEntity
  8
LC-001-100-D00-0
  6
ByBlock
 62
     7
370
    50
100
AcDbLine
 10
558.400041
 20
314.755536
 30
0.0
 11
558.400041
 21
319.755536
 31
0.0
  0
ARC
  5
7B
330
1F
100
AcDbEntity
  8
LC-001-100-D00-0
  6
ByBlock
 62
     7
370
    50
100
AcDbCircle
 10
609.400041
 20
314.755536
 30
0.0
 40
4.0
100
AcDbArc
 50
270.0
 51
0.0
  0
LINE
  5
7C
330
1F
100
AcDbEntity
  8
LC-001-100-D00-0
  6
ByBlock
 62
     7
370
    50
100
AcDbLine
 10
613.400041
 20
319.755536
 30
0.0
 11
613.400041
 21
314.755536
 31
0.0
  0
LINE
  5
7D
330
1F
100
AcDbEntity
  8
LC-001-100-D00-0
  6
ByBlock
 62
     7
370
    50
100
AcDbLine
 10
609.40004
 20
310.755536
 30
0.0
 11
606.551009
 21
310.755536
 31
0.0
  0
LINE
  5
7E
330
1F
100
AcDbEntity
  8
LC-001-100-D00-0
  6
ByBlock
 62
     7
370
    50
100
AcDbLine
 10
591.286
 20
315.626884
 30
0.0
 11
591.284916
 21
315.627245
 31
0.0
  0
ARC
  5
7F
330
1F
100
AcDbEntity
  8
LC-001-100-D00-0
  6
ByBlock
 62
     7
370
    50
100
AcDbCircle
 10
590.494347
 20
313.255536
 30
0.0
 40
2.500000000000133
100
AcDbArc
 50
71.565051
 51
90.0
  0
LINE
  5
80
330
1F
100
AcDbEntity
  8
LC-001-100-D00-0
  6
ByBlock
 62
     7
370
    50
100
AcDbLine
 10
565.249073
 20
310.755536
 30
0.0
 11
562.400042
 21
310.755536
 31
0.0
  0
ARC
  5
81
330
1F
100
AcDbEntity
  8
LC-001-100-D00-0
  6
ByBlock
 62
     7
370
    50
100
AcDbCircle
 10
581.305735
 20
313.255536
 30
0.0
 40
2.5
100
AcDbArc
 50
90.0
 51
108.434949
  0
LINE
  5
82
330
1F
100
AcDbEntity
  8
LC-001-100-D00-0
  6
ByBlock
 62
     7
370
    50
100
AcDbLine
 10
580.515165
 20
315.627245
 30
0.0
 11
580.514082
 21
315.626884
 31
0.0
  0
LINE
  5
83
330
1F
100
AcDbEntity
  8
LC-001-100-D00-0
  6
ByBlock
 62
     7
370
    50
100
AcDbLine
 10
606.551009
 20
310.755536
 30
0.0
 11
606.549152
 21
310.755536
 31
0.0
  0
LINE
  5
84
330
1F
100
AcDbEntity
  8
LC-001-100-D00-0
  6
ByBlock
 62
     7
370
    50
100
AcDbLine
 10
606.549152
 20
310.755536
 30
0.0
 11
605.28424
 21
310.960803
 31
0.0
  0
LINE
  5
85
330
1F
100
AcDbEntity
  8
LC-001-100-D00-0
  6
ByBlock
 62
     7
370
    50
100
AcDbLine
 10
605.28424
 20
310.960803
 30
0.0
 11
605.28216
 21
310.961496
 31
0.0
  0
LINE
  5
86
330
1F
100
AcDbEntity
  8
LC-001-100-D00-0
  6
ByBlock
 62
     7
370
    50
100
AcDbLine
 10
565.25093
 20
310.755536
 30
0.0
 11
566.515841
 21
310.960803
 31
0.0
  0
LINE
  5
87
330
1F
100
AcDbEntity
  8
LC-001-100-D00-0
  6
ByBlock
 62
     7
370
    50
100
AcDbLine
 10
565.25093
 20
310.755536
 30
0.0
 11
565.249073
 21
310.755536
 31
0.0
  0
LINE
  5
88
330
1F
100
AcDbEntity
  8
LC-001-100-D00-0
  6
ByBlock
 62
     7
370
    50
100
AcDbLine
 10
566.517922
 20
310.961496
 30
0.0
 11
566.515841
 21
310.960803
 31
0.0
  0
LINE
  5
89
330
1F
100
AcDbEntity
  8
LC-001-100-D00-0
  6
ByBlock
 62
     7
370
    50
100
AcDbLine
 10
605.28216
 20
310.961496
 30
0.0
 11
591.286
 21
315.626884
 31
0.0
  0
LINE
  5
8A
330
1F
100
AcDbEntity
  8
LC-001-100-D00-0
  6
ByBlock
 62
     7
370
    50
100
AcDbLine
 10
580.514082
 20
315.626884
 30
0.0
 11
566.517922
 21
310.961496
 31
0.0
  0
LINE
  5
8B
330
1F
100
AcDbEntity
  8
LC-001-100-D00-0
  6
ByBlock
 62
     7
370
    50
100
AcDbLine
 10
534.400041
 20
334.255536
 30
0.0
 11
508.400041
 21
334.255536
 31
0.0
  0
LINE
  5
8C
330
1F
100
AcDbEntity
  8
LC-001-100-D00-0
  6
ByBlock
 62
     7
370
    50
100
AcDbLine
 10
534.400041
 20
336.255536
 30
0.0
 11
534.400041
 21
334.255536
 31
0.0
  0
LINE
  5
8D
330
1F
100
AcDbEntity
  8
LC-001-100-D00-0
  6
ByBlock
 62
     7
370
    50
100
AcDbLine
 10
508.400041
 20
336.255536
 30
0.0
 11
508.400041
 21
334.255536
 31
0.0
  0
LINE
  5
8E
330
1F
100
AcDbEntity
  8
LC-001-100-D00-0
  6
ByBlock
 62
     7
370
    50
100
AcDbLine
 10
637.400041
 20
334.255536
 30
0.0
 11
663.400041
 21
334.255536
 31
0.0
  0
LINE
  5
8F
330
1F
100
AcDbEntity
  8
LC-001-100-D00-0
  6
ByBlock
 62
     7
370
    50
100
AcDbLine
 10
637.400041
 20
336.255536
 30
0.0
 11
637.400041
 21
334.255536
 31
0.0
  0
LINE
  5
90
330
1F
100
AcDbEntity
  8
LC-001-100-D00-0
  6
ByBlock
 62
     7
370
    50
100
AcDbLine
 10
663.400041
 20
336.255536
 30
0.0
 11
663.400041
 21
334.255536
 31
0.0
  0
LINE
  5
91
330
1F
100
AcDbEntity
  8
LC-001-100-D00-0
  6
ByBlock
 62
     7
370
    50
100
AcDbLine
 10
534.400041
 20
332.255536
 30
0.0
 11
534.400041
 21
334.255536
 31
0.0
  0
LINE
  5
92
330
1F
100
AcDbEntity
  8
LC-001-100-D00-0
  6
ByBlock
 62
     7
370
    50
100
AcDbLine
 10
508.400041
 20
334.255536
 30
0.0
 11
508.400041
 21
332.255536
 31
0.0
  0
LINE
  5
93
330
1F
100
AcDbEntity
  8
LC-001-100-D00-0
  6
ByBlock
 62
     7
370
    50
100
AcDbLine
 10
637.400041
 20
332.255536
 30
0.0
 11
637.400041
 21
334.255536
 31
0.0
  0
LINE
  5
94
330
1F
100
AcDbEntity
  8
LC-001-100-D00-0
  6
ByBlock
 62
     7
370
    50
100
AcDbLine
 10
663.400041
 20
334.255536
 30
0.0
 11
663.400041
 21
332.255536
 31
0.0
  0
LINE
  5
95
330
1F
100
AcDbEntity
  8
LC-001-100-D00-0
  6
ByBlock
 62
     7
370
    50
100
AcDbLine
 10
534.400041
 20
332.255536
 30
0.0
 11
534.400041
 21
311.155536
 31
0.0
  0
LINE
  5
96
330
1F
100
AcDbEntity
  8
LC-001-100-D00-0
  6
ByBlock
 62
     7
370
    50
100
AcDbLine
 10
508.400041
 20
332.255536
 30
0.0
 11
508.400041
 21
311.155536
 31
0.0
  0
LINE
  5
97
330
1F
100
AcDbEntity
  8
LC-001-100-D00-0
  6
ByBlock
 62
     7
370
    50
100
AcDbLine
 10
663.400041
 20
307.155536
 30
0.0
 11
660.959648
 21
307.155536
 31
0.0
  0
LINE
  5
98
330
1F
100
AcDbEntity
  8
LC-001-100-D00-0
  6
ByBlock
 62
     7
370
    50
100
AcDbLine
 10
639.840434
 20
307.155536
 30
0.0
 11
637.400041
 21
307.155536
 31
0.0
  0
LINE
  5
99
330
1F
100
AcDbEntity
  8
LC-001-100-D00-0
  6
ByBlock
 62
     7
370
    50
100
AcDbLine
 10
637.400041
 20
307.155536
 30
0.0
 11
637.400041
 21
311.155536
 31
0.0
  0
LINE
  5
9A
330
1F
100
AcDbEntity
  8
LC-001-100-D00-0
  6
ByBlock
 62
     7
370
    50
100
AcDbLine
 10
663.400041
 20
311.155536
 30
0.0
 11
663.400041
 21
307.155536
 31
0.0
  0
LINE
  5
9B
330
1F
100
AcDbEntity
  8
LC-001-100-D00-0
  6
ByBlock
 62
     7
370
    50
100
AcDbLine
 10
637.400041
 20
332.255536
 30
0.0
 11
637.400041
 21
311.155536
 31
0.0
  0
LINE
  5
9C
330
1F
100
AcDbEntity
  8
LC-001-100-D00-0
  6
ByBlock
 62
     7
370
    50
100
AcDbLine
 10
663.400041
 20
332.255536
 30
0.0
 11
663.400041
 21
311.155536
 31
0.0
  0
LINE
  5
9D
330
1F
100
AcDbEntity
  8
LC-001-100-D00-0
  6
ByBlock
 62
     7
370
    50
100
AcDbLine
 10
508.400041
 20
307.155536
 30
0.0
 11
510.840433
 21
307.155536
 31
0.0
  0
LINE
  5
9E
330
1F
100
AcDbEntity
  8
LC-001-100-D00-0
  6
ByBlock
 62
     7
370
    50
100
AcDbLine
 10
531.959648
 20
307.155536
 30
0.0
 11
534.400041
 21
307.155536
 31
0.0
  0
LINE
  5
9F
330
1F
100
AcDbEntity
  8
LC-001-100-D00-0
  6
ByBlock
 62
     7
370
    50
100
AcDbLine
 10
534.400041
 20
307.155536
 30
0.0
 11
534.400041
 21
311.155536
 31
0.0
  0
LINE
  5
A0
330
1F
100
AcDbEntity
  8
LC-001-100-D00-0
  6
ByBlock
 62
     7
370
    50
100
AcDbLine
 10
508.400041
 20
311.155536
 30
0.0
 11
508.400041
 21
307.155536
 31
0.0
  0
LINE
  5
A1
330
1F
100
AcDbEntity
  8
LC-001-100-D00-0
  6
ByBlock
 62
     7
370
    50
100
AcDbLine
 10
566.970181
 20
310.755536
 30
0.0
 11
565.25093
 21
310.755536
 31
0.0
  0
LINE
  5
A2
330
1F
100
AcDbEntity
  8
LC-001-100-D00-0
  6
ByBlock
 62
     7
370
    50
100
AcDbLine
 10
606.549152
 20
310.755536
 30
0.0
 11
604.8299
 21
310.755536
 31
0.0
  0
LINE
  5
A3
330
1F
100
AcDbEntity
  8
LC-001-100-D00-0
  6
ByBlock
 62
     7
370
    50
100
AcDbLine
 10
604.8299
 20
310.755536
 30
0.0
 11
566.970181
 21
310.755536
 31
0.0
  0
LINE
  5
A4
330
1F
100
AcDbEntity
  8
LC-001-100-D00-0
  6
ByBlock
 62
     7
370
    50
100
AcDbLine
 10
625.400041
 20
334.855536
 30
0.0
 11
616.400041
 21
334.855536
 31
0.0
  0
LINE
  5
A5
330
1F
100
AcDbEntity
  8
LC-001-100-D00-0
  6
ByBlock
 62
     7
370
    50
100
AcDbLine
 10
546.400041
 20
334.855536
 30
0.0
 11
555.400041
 21
334.855536
 31
0.0
  0
LINE
  5
A6
330
1F
100
AcDbEntity
  8
LC-001-100-D00-0
  6
ByBlock
 62
     7
370
    50
100
AcDbLine
 10
624.900041
 20
321.255536
 30
0.0
 11
616.900041
 21
321.255536
 31
0.0
  0
LINE
  5
A7
330
1F
100
AcDbEntity
  8
LC-001-100-D00-0
  6
ByBlock
 62
     7
370
    50
100
AcDbLine
 10
546.900041
 20
321.255536
 30
0.0
 11
554.900041
 21
321.255536
 31
0.0
  0
LINE
  5
A8
330
1F
100
AcDbEntity
  8
LC-001-100-D00-0
  6
ByBlock
 62
     7
370
    50
100
AcDbLine
 10
512.558112
 20
211.255541
 30
0.0
 11
530.267937
 21
211.255541
 31
0.0
  0
LINE
  5
A9
330
1F
100
AcDbEntity
  8
LC-001-100-D00-0
  6
ByBlock
 62
     7
370
    50
100
AcDbLine
 10
523.33776
 20
203.255536
 30
0.0
 11
511.900041
 21
203.255536
 31
0.0
  0
LINE
  5
AA
330
1F
100
AcDbEntity
  8
LC-001-100-D00-0
  6
ByBlock
 62
     7
370
    50
100
AcDbLine
 10
530.900041
 20
203.255536
 30
0.0
 11
523.33776
 21
203.255536
 31
0.0
  0
LINE
  5
AB
330
1F
100
AcDbEntity
  8
LC-001-100-D00-0
  6
ByBlock
 62
     7
370
    50
100
AcDbLine
 10
641.558117
 20
211.255541
 30
0.0
 11
659.267934
 21
211.255541
 31
0.0
  0
LINE
  5
AC
330
1F
100
AcDbEntity
  8
LC-001-100-D00-0
  6
ByBlock
 62
     7
370
    50
100
AcDbLine
 10
652.33776
 20
203.255536
 30
0.0
 11
640.900041
 21
203.255536
 31
0.0
  0
LINE
  5
AD
330
1F
100
AcDbEntity
  8
LC-001-100-D00-0
  6
ByBlock
 62
     7
370
    50
100
AcDbLine
 10
659.900041
 20
203.255536
 30
0.0
 11
652.33776
 21
203.255536
 31
0.0
  0
LINE
  5
AE
330
1F
100
AcDbEntity
  8
LC-001-100-D00-0
  6
ByBlock
 62
     7
370
    50
100
AcDbLine
 10
527.400041
 20
307.255536
 30
0.0
 11
515.400041
 21
307.255536
 31
0.0
  0
LINE
  5
AF
330
1F
100
AcDbEntity
  8
LC-001-100-D00-0
  6
ByBlock
 62
     7
370
    50
100
AcDbLine
 10
527.400041
 20
305.255536
 30
0.0
 11
515.400041
 21
305.255536
 31
0.0
  0
LINE
  5
B0
330
1F
100
AcDbEntity
  8
LC-001-100-D00-0
  6
ByBlock
 62
     7
370
    50
100
AcDbLine
 10
509.400041
 20
305.255536
 30
0.0
 11
509.400042
 21
307.155536
 31
0.0
  0
LINE
  5
B1
330
1F
100
AcDbEntity
  8
LC-001-100-D00-0
  6
ByBlock
 62
     7
370
    50
100
AcDbLine
 10
511.785181
 20
307.255536
 30
0.0
 11
515.400041
 21
307.255536
 31
0.0
  0
LINE
  5
B2
330
1F
100
AcDbEntity
  8
LC-001-100-D00-0
  6
ByBlock
 62
     7
370
    50
100
AcDbLine
 10
515.400041
 20
305.255536
 30
0.0
 11
509.400041
 21
305.255536
 31
0.0
  0
LINE
  5
B3
330
1F
100
AcDbEntity
  8
LC-001-100-D00-0
  6
ByBlock
 62
     7
370
    50
100
AcDbLine
 10
533.400042
 20
307.155536
 30
0.0
 11
533.400041
 21
305.255536
 31
0.0
  0
LINE
  5
B4
330
1F
100
AcDbEntity
  8
LC-001-100-D00-0
  6
ByBlock
 62
     7
370
    50
100
AcDbLine
 10
533.400041
 20
305.255536
 30
0.0
 11
527.400041
 21
305.255536
 31
0.0
  0
LINE
  5
B5
330
1F
100
AcDbEntity
  8
LC-001-100-D00-0
  6
ByBlock
 62
     7
370
    50
100
AcDbLine
 10
527.400041
 20
307.255536
 30
0.0
 11
531.0149
 21
307.255536
 31
0.0
  0
LINE
  5
B6
330
1F
100
AcDbEntity
  8
LC-001-100-D00-0
  6
ByBlock
 62
     7
370
    50
100
AcDbLine
 10
524.900041
 20
280.255536
 30
0.0
 11
517.900041
 21
280.255536
 31
0.0
  0
LINE
  5
B7
330
1F
100
AcDbEntity
  8
LC-001-100-D00-0
  6
ByBlock
 62
     7
370
    50
100
AcDbLine
 10
529.900041
 20
280.255536
 30
0.0
 11
524.900041
 21
280.255536
 31
0.0
  0
LINE
  5
B8
330
1F
100
AcDbEntity
  8
LC-001-100-D00-0
  6
ByBlock
 62
     7
370
    50
100
AcDbLine
 10
517.900041
 20
280.255536
 30
0.0
 11
512.900041
 21
280.255536
 31
0.0
  0
LINE
  5
B9
330
1F
100
AcDbEntity
  8
LC-001-100-D00-0
  6
ByBlock
 62
     7
370
    50
100
AcDbLine
 10
509.400041
 20
280.255536
 30
0.0
 11
509.400041
 21
305.255536
 31
0.0
  0
LINE
  5
BA
330
1F
100
AcDbEntity
  8
LC-001-100-D00-0
  6
ByBlock
 62
     7
370
    50
100
AcDbLine
 10
512.900041
 20
280.255536
 30
0.0
 11
509.400041
 21
280.255536
 31
0.0
  0
LINE
  5
BB
330
1F
100
AcDbEntity
  8
LC-001-100-D00-0
  6
ByBlock
 62
     7
370
    50
100
AcDbLine
 10
533.400041
 20
305.255536
 30
0.0
 11
533.400041
 21
280.255536
 31
0.0
  0
LINE
  5
BC
330
1F
100
AcDbEntity
  8
LC-001-100-D00-0
  6
ByBlock
 62
     7
370
    50
100
AcDbLine
 10
533.400041
 20
280.255536
 30
0.0
 11
529.900041
 21
280.255536
 31
0.0
  0
LINE
  5
BD
330
1F
100
AcDbEntity
  8
LC-001-100-D00-0
  6
ByBlock
 62
     7
370
    50
100
AcDbLine
 10
656.400041
 20
307.255536
 30
0.0
 11
644.400041
 21
307.255536
 31
0.0
  0
LINE
  5
BE
330
1F
100
AcDbEntity
  8
LC-001-100-D00-0
  6
ByBlock
 62
     7
370
    50
100
AcDbLine
 10
656.400041
 20
305.255536
 30
0.0
 11
644.400041
 21
305.255536
 31
0.0
  0
LINE
  5
BF
330
1F
100
AcDbEntity
  8
LC-001-100-D00-0
  6
ByBlock
 62
     7
370
    50
100
AcDbLine
 10
638.400041
 20
305.255536
 30
0.0
 11
638.400039
 21
307.155536
 31
0.0
  0
LINE
  5
C0
330
1F
100
AcDbEntity
  8
LC-001-100-D00-0
  6
ByBlock
 62
     7
370
    50
100
AcDbLine
 10
640.785181
 20
307.255536
 30
0.0
 11
644.400041
 21
307.255536
 31
0.0
  0
LINE
  5
C1
330
1F
100
AcDbEntity
  8
LC-001-100-D00-0
  6
ByBlock
 62
     7
370
    50
100
AcDbLine
 10
644.400041
 20
305.255536
 30
0.0
 11
638.400041
 21
305.255536
 31
0.0
  0
LINE
  5
C2
330
1F
100
AcDbEntity
  8
LC-001-100-D00-0
  6
ByBlock
 62
     7
370
    50
100
AcDbLine
 10
662.400039
 20
307.155536
 30
0.0
 11
662.400041
 21
305.255536
 31
0.0
  0
LINE
  5
C3
330
1F
100
AcDbEntity
  8
LC-001-100-D00-0
  6
ByBlock
 62
     7
370
    50
100
AcDbLine
 10
656.400041
 20
307.255536
 30
0.0
 11
660.0149
 21
307.255536
 31
0.0
  0
LINE
  5
C4
330
1F
100
AcDbEntity
  8
LC-001-100-D00-0
  6
ByBlock
 62
     7
370
    50
100
AcDbLine
 10
662.400041
 20
305.255536
 30
0.0
 11
656.400041
 21
305.255536
 31
0.0
  0
LINE
  5
C5
330
1F
100
AcDbEntity
  8
LC-001-100-D00-0
  6
ByBlock
 62
     7
370
    50
100
AcDbLine
 10
653.900041
 20
280.255536
 30
0.0
 11
646.900041
 21
280.255536
 31
0.0
  0
LINE
  5
C6
330
1F
100
AcDbEntity
  8
LC-001-100-D00-0
  6
ByBlock
 62
     7
370
    50
100
AcDbLine
 10
658.900041
 20
280.255536
 30
0.0
 11
653.900041
 21
280.255536
 31
0.0
  0
LINE
  5
C7
330
1F
100
AcDbEntity
  8
LC-001-100-D00-0
  6
ByBlock
 62
     7
370
    50
100
AcDbLine
 10
646.900041
 20
280.255536
 30
0.0
 11
641.900041
 21
280.255536
 31
0.0
  0
LINE
  5
C8
330
1F
100
AcDbEntity
  8
LC-001-100-D00-0
  6
ByBlock
 62
     7
370
    50
100
AcDbLine
 10
638.400041
 20
280.255536
 30
0.0
 11
638.400041
 21
305.255536
 31
0.0
  0
LINE
  5
C9
330
1F
100
AcDbEntity
  8
LC-001-100-D00-0
  6
ByBlock
 62
     7
370
    50
100
AcDbLine
 10
641.900041
 20
280.255536
 30
0.0
 11
638.400041
 21
280.255536
 31
0.0
  0
LINE
  5
CA
330
1F
100
AcDbEntity
  8
LC-001-100-D00-0
  6
ByBlock
 62
     7
370
    50
100
AcDbLine
 10
662.400041
 20
305.255536
 30
0.0
 11
662.400041
 21
280.255536
 31
0.0
  0
LINE
  5
CB
330
1F
100
AcDbEntity
  8
LC-001-100-D00-0
  6
ByBlock
 62
     7
370
    50
100
AcDbLine
 10
662.400041
 20
280.255536
 30
0.0
 11
658.900041
 21
280.255536
 31
0.0
  0
LINE
  5
CC
330
1F
100
AcDbEntity
  8
LC-001-100-D00-0
  6
ByBlock
 62
     7
370
    50
100
AcDbLine
 10
640.400041
 20
226.255536
 30
0.0
 11
660.400041
 21
226.255536
 31
0.0
  0
LINE
  5
CD
330
1F
100
AcDbEntity
  8
LC-001-100-D00-0
  6
ByBlock
 62
     7
370
    50
100
AcDbLine
 10
640.400041
 20
222.755536
 30
0.0
 11
660.400041
 21
222.755536
 31
0.0
  0
LINE
  5
CE
330
1F
100
AcDbEntity
  8
LC-001-100-D00-0
  6
ByBlock
 62
     7
370
    50
100
AcDbLine
 10
652.439746
 20
212.255536
 30
0.0
 11
660.400041
 21
212.255536
 31
0.0
  0
LINE
  5
CF
330
1F
100
AcDbEntity
  8
LC-001-100-D00-0
  6
ByBlock
 62
     7
370
    50
100
AcDbLine
 10
640.400041
 20
212.255536
 30
0.0
 11
652.439746
 21
212.255536
 31
0.0
  0
LINE
  5
D0
330
1F
100
AcDbEntity
  8
LC-001-100-D00-0
  6
ByBlock
 62
     7
370
    50
100
AcDbLine
 10
652.235775
 20
211.255536
 30
0.0
 11
641.400041
 21
211.255536
 31
0.0
  0
LINE
  5
D1
330
1F
100
AcDbEntity
  8
LC-001-100-D00-0
  6
ByBlock
 62
     7
370
    50
100
AcDbLine
 10
659.400041
 20
211.255536
 30
0.0
 11
652.235775
 21
211.255536
 31
0.0
  0
LINE
  5
D2
330
1F
100
AcDbEntity
  8
LC-001-100-D00-0
  6
ByBlock
 62
     7
370
    50
100
AcDbLine
 10
511.400041
 20
226.255536
 30
0.0
 11
531.400041
 21
226.255536
 31
0.0
  0
LINE
  5
D3
330
1F
100
AcDbEntity
  8
LC-001-100-D00-0
  6
ByBlock
 62
     7
370
    50
100
AcDbLine
 10
511.400041
 20
222.755536
 30
0.0
 11
531.400041
 21
222.755536
 31
0.0
  0
LINE
  5
D4
330
1F
100
AcDbEntity
  8
LC-001-100-D00-0
  6
ByBlock
 62
     7
370
    50
100
AcDbLine
 10
523.439746
 20
212.255536
 30
0.0
 11
531.400041
 21
212.255536
 31
0.0
  0
LINE
  5
D5
330
1F
100
AcDbEntity
  8
LC-001-100-D00-0
  6
ByBlock
 62
     7
370
    50
100
AcDbLine
 10
511.400041
 20
212.255536
 30
0.0
 11
523.439746
 21
212.255536
 31
0.0
  0
LINE
  5
D6
330
1F
100
AcDbEntity
  8
LC-001-100-D00-0
  6
ByBlock
 62
     7
370
    50
100
AcDbLine
 10
523.235775
 20
211.255536
 30
0.0
 11
512.400041
 21
211.255536
 31
0.0
  0
LINE
  5
D7
330
1F
100
AcDbEntity
  8
LC-001-100-D00-0
  6
ByBlock
 62
     7
370
    50
100
AcDbLine
 10
530.400041
 20
211.255536
 30
0.0
 11
523.235775
 21
211.255536
 31
0.0
  0
LINE
  5
D8
330
1F
100
AcDbEntity
  8
LC-001-100-D00-0
  6
ByBlock
 62
     7
370
    50
100
AcDbLine
 10
620.900041
 20
311.255536
 30
0.0
 11
616.500041
 21
311.255536
 31
0.0
  0
LINE
  5
D9
330
1F
100
AcDbEntity
  8
LC-001-100-D00-0
  6
ByBlock
 62
     7
370
    50
100
AcDbLine
 10
625.300041
 20
311.255536
 30
0.0
 11
620.900041
 21
311.255536
 31
0.0
  0
LINE
  5
DA
330
1F
100
AcDbEntity
  8
LC-001-100-D00-0
  6
ByBlock
 62
     7
370
    50
100
AcDbLine
 10
550.900041
 20
311.255536
 30
0.0
 11
546.500041
 21
311.255536
 31
0.0
  0
LINE
  5
DB
330
1F
100
AcDbEntity
  8
LC-001-100-D00-0
  6
ByBlock
 62
     7
370
    50
100
AcDbLine
 10
555.300041
 20
311.255536
 30
0.0
 11
550.900041
 21
311.255536
 31
0.0
  0
LINE
  5
DC
330
1F
100
AcDbEntity
  8
LC-001-100-D00-0
  6
ByBlock
 62
     7
370
    50
100
AcDbLine
 10
626.400041
 20
320.255536
 30
0.0
 11
626.400041
 21
317.255536
 31
0.0
  0
LINE
  5
DD
330
1F
100
AcDbEntity
  8
LC-001-100-D00-0
  6
ByBlock
 62
     7
370
    50
100
AcDbLine
 10
621.400041
 20
320.255536
 30
0.0
 11
626.400041
 21
320.255536
 31
0.0
  0
LINE
  5
DE
330
1F
100
AcDbEntity
  8
LC-001-100-D00-0
  6
ByBlock
 62
     7
370
    50
100
AcDbLine
 10
626.400041
 20
317.255536
 30
0.0
 11
621.400041
 21
317.255536
 31
0.0
  0
LINE
  5
DF
330
1F
100
AcDbEntity
  8
LC-001-100-D00-0
  6
ByBlock
 62
     7
370
    50
100
AcDbLine
 10
550.400041
 20
317.255536
 30
0.0
 11
558.400041
 21
317.255536
 31
0.0
  0
LINE
  5
E0
330
1F
100
AcDbEntity
  8
LC-001-100-D00-0
  6
ByBlock
 62
     7
370
    50
100
AcDbLine
 10
550.400041
 20
320.255536
 30
0.0
 11
558.400041
 21
320.255536
 31
0.0
  0
LINE
  5
E1
330
1F
100
AcDbEntity
  8
LC-001-100-D00-0
  6
ByBlock
 62
     7
370
    50
100
AcDbLine
 10
545.400041
 20
317.255536
 30
0.0
 11
545.400041
 21
320.255536
 31
0.0
  0
LINE
  5
E2
330
1F
100
AcDbEntity
  8
LC-001-100-D00-0
  6
ByBlock
 62
     7
370
    50
100
AcDbLine
 10
550.400041
 20
317.255536
 30
0.0
 11
545.400041
 21
317.255536
 31
0.0
  0
LINE
  5
E3
330
1F
100
AcDbEntity
  8
LC-001-100-D00-0
  6
ByBlock
 62
     7
370
    50
100
AcDbLine
 10
545.400041
 20
320.255536
 30
0.0
 11
550.400041
 21
320.255536
 31
0.0
  0
LINE
  5
E4
330
1F
100
AcDbEntity
  8
LC-001-100-D00-0
  6
ByBlock
 62
     7
370
    50
100
AcDbLine
 10
613.400041
 20
320.255536
 30
0.0
 11
621.400041
 21
320.255536
 31
0.0
  0
LINE
  5
E5
330
1F
100
AcDbEntity
  8
LC-001-100-D00-0
  6
ByBlock
 62
     7
370
    50
100
AcDbLine
 10
613.400041
 20
317.255536
 30
0.0
 11
621.400041
 21
317.255536
 31
0.0
  0
LINE
  5
E6
330
1F
100
AcDbEntity
  8
LC-001-100-D00-0
  6
ByBlock
 62
     7
370
    50
100
AcDbLine
 10
623.846849
 20
307.005536
 30
0.0
 11
547.953232
 21
307.005536
 31
0.0
  0
LINE
  5
E7
330
1F
100
AcDbEntity
  8
LC-001-100-D00-0
  6
ByBlock
 62
     7
370
    50
100
AcDbLine
 10
545.400041
 20
320.255536
 30
0.0
 11
545.400041
 21
321.255536
 31
0.0
  0
LINE
  5
E8
330
1F
100
AcDbEntity
  8
LC-001-100-D00-0
  6
ByBlock
 62
     7
370
    50
100
AcDbLine
 10
626.400041
 20
321.255536
 30
0.0
 11
626.400041
 21
320.255536
 31
0.0
  0
LINE
  5
E9
330
1F
100
AcDbEntity
  8
LC-001-100-D00-0
  6
ByBlock
 62
     7
370
    50
100
AcDbLine
 10
545.400041
 20
321.255536
 30
0.0
 11
545.400041
 21
336.255536
 31
0.0
  0
LINE
  5
EA
330
1F
100
AcDbEntity
  8
LC-001-100-D00-0
  6
ByBlock
 62
     7
370
    50
100
AcDbLine
 10
545.400041
 20
307.005536
 30
0.0
 11
545.400041
 21
315.255536
 31
0.0
  0
LINE
  5
EB
330
1F
100
AcDbEntity
  8
LC-001-100-D00-0
  6
ByBlock
 62
     7
370
    50
100
AcDbLine
 10
547.953232
 20
307.005536
 30
0.0
 11
545.400041
 21
307.005536
 31
0.0
  0
LINE
  5
EC
330
1F
100
AcDbEntity
  8
LC-001-100-D00-0
  6
ByBlock
 62
     7
370
    50
100
AcDbLine
 10
626.400041
 20
336.255536
 30
0.0
 11
626.400041
 21
321.255536
 31
0.0
  0
LINE
  5
ED
330
1F
100
AcDbEntity
  8
LC-001-100-D00-0
  6
ByBlock
 62
     7
370
    50
100
AcDbLine
 10
626.400041
 20
315.255536
 30
0.0
 11
626.400041
 21
307.005536
 31
0.0
  0
LINE
  5
EE
330
1F
100
AcDbEntity
  8
LC-001-100-D00-0
  6
ByBlock
 62
     7
370
    50
100
AcDbLine
 10
626.400041
 20
307.005536
 30
0.0
 11
623.846849
 21
307.005536
 31
0.0
  0
LINE
  5
EF
330
1F
100
AcDbEntity
  8
LC-001-100-D00-0
  6
ByBlock
 62
     7
370
    50
100
AcDbLine
 10
547.953232
 20
307.005536
 30
0.0
 11
623.846849
 21
307.005536
 31
0.0
  0
LINE
  5
F0
330
1F
100
AcDbEntity
  8
LC-001-100-D00-0
  6
ByBlock
 62
     7
370
    50
100
AcDbLine
 10
612.942594
 20
254.255536
 30
0.0
 11
558.857488
 21
254.255536
 31
0.0
  0
LINE
  5
F1
330
1F
100
AcDbEntity
  8
LC-001-100-D00-0
  6
ByBlock
 62
     7
370
    50
100
AcDbLine
 10
606.415638
 20
247.755536
 30
0.0
 11
565.384443
 21
247.755536
 31
0.0
  0
LINE
  5
F2
330
1F
100
AcDbEntity
  8
LC-001-100-D00-0
  6
ByBlock
 62
     7
370
    50
100
AcDbLine
 10
626.400041
 20
307.005536
 30
0.0
 11
626.400041
 21
266.755536
 31
0.0
  0
LINE
  5
F3
330
1F
100
AcDbEntity
  8
LC-001-100-D00-0
  6
ByBlock
 62
     7
370
    50
100
AcDbLine
 10
623.846849
 20
307.005536
 30
0.0
 11
626.400041
 21
307.005536
 31
0.0
  0
ARC
  5
F4
330
1F
100
AcDbEntity
  8
LC-001-100-D00-0
  6
ByBlock
 62
     7
370
    50
100
AcDbCircle
 10
613.900041
 20
266.755536
 30
0.0
 40
12.5
100
AcDbArc
 50
270.0
 51
0.0
  0
LINE
  5
F5
330
1F
100
AcDbEntity
  8
LC-001-100-D00-0
  6
ByBlock
 62
     7
370
    50
100
AcDbLine
 10
613.900041
 20
254.255536
 30
0.0
 11
612.942594
 21
254.255536
 31
0.0
  0
ARC
  5
F6
330
1F
100
AcDbEntity
  8
LC-001-100-D00-0
  6
ByBlock
 62
     7
370
    50
100
AcDbCircle
 10
557.900041
 20
266.755536
 30
0.0
 40
12.5
100
AcDbArc
 50
180.0
 51
270.0
  0
LINE
  5
F7
330
1F
100
AcDbEntity
  8
LC-001-100-D00-0
  6
ByBlock
 62
     7
370
    50
100
AcDbLine
 10
558.857488
 20
254.255536
 30
0.0
 11
557.900041
 21
254.255536
 31
0.0
  0
LINE
  5
F8
330
1F
100
AcDbEntity
  8
LC-001-100-D00-0
  6
ByBlock
 62
     7
370
    50
100
AcDbLine
 10
545.400041
 20
266.755536
 30
0.0
 11
545.400041
 21
307.005536
 31
0.0
  0
LINE
  5
F9
330
1F
100
AcDbEntity
  8
LC-001-100-D00-0
  6
ByBlock
 62
     7
370
    50
100
AcDbLine
 10
545.400041
 20
307.005536
 30
0.0
 11
547.953232
 21
307.005536
 31
0.0
  0
ARC
  5
FA
330
1F
100
AcDbEntity
  8
LC-001-100-D00-0
  6
ByBlock
 62
     7
370
    50
100
AcDbCircle
 10
606.417921
 20
254.755536
 30
0.0
 40
6.999999999999773
100
AcDbArc
 50
270.0
 51
355.903956
  0
LINE
  5
FB
330
1F
100
AcDbEntity
  8
LC-001-100-D00-0
  6
ByBlock
 62
     7
370
    50
100
AcDbLine
 10
606.417921
 20
247.755536
 30
0.0
 11
606.415638
 21
247.755536
 31
0.0
  0
ARC
  5
FC
330
1F
100
AcDbEntity
  8
LC-001-100-D00-0
  6
ByBlock
 62
     7
370
    50
100
AcDbCircle
 10
565.382161
 20
254.755536
 30
0.0
 40
7.000000000000093
100
AcDbArc
 50
184.096044
 51
270.0
  0
LINE
  5
FD
330
1F
100
AcDbEntity
  8
LC-001-100-D00-0
  6
ByBlock
 62
     7
370
    50
100
AcDbLine
 10
565.384443
 20
247.755536
 30
0.0
 11
565.382161
 21
247.755536
 31
0.0
  0
LINE
  5
FE
330
1F
100
AcDbEntity
  8
LC-001-100-D00-0
  6
ByBlock
 62
     7
370
    50
100
AcDbLine
 10
620.900041
 20
315.255536
 30
0.0
 11
626.400041
 21
315.255536
 31
0.0
  0
LINE
  5
FF
330
1F
100
AcDbEntity
  8
LC-001-100-D00-0
  6
ByBlock
 62
     7
370
    50
100
AcDbLine
 10
615.400041
 20
315.255536
 30
0.0
 11
620.900041
 21
315.255536
 31
0.0
  0
LINE
  5
100
330
1F
100
AcDbEntity
  8
LC-001-100-D00-0
  6
ByBlock
 62
     7
370
    50
100
AcDbLine
 10
550.900041
 20
315.255536
 30
0.0
 11
556.400041
 21
315.255536
 31
0.0
  0
LINE
  5
101
330
1F
100
AcDbEntity
  8
LC-001-100-D00-0
  6
ByBlock
 62
     7
370
    50
100
AcDbLine
 10
545.400041
 20
315.255536
 30
0.0
 11
550.900041
 21
315.255536
 31
0.0
  0
LINE
  5
102
330
1F
100
AcDbEntity
  8
LC-001-100-D00-0
 62
     7
370
    25
100
AcDbLine
 10
585.900041
 20
247.755536
 30
0.0
 11
585.900041
 21
337.755536
 31
0.0
  0
ARC
  5
103
330
1F
100
AcDbEntity
  8
LC-001-100-D00-0
  6
ByBlock
 62
     7
370
    50
100
AcDbCircle
 10
168.160968
 20
-75.737897
 30
0.0
 40
2.5
100
AcDbArc
 50
270.0
 51
0.0
  0
LINE
  5
104
330
1F
100
AcDbEntity
  8
LC-001-100-D00-0
  6
ByBlock
 62
     7
370
    50
100
AcDbLine
 10
170.660968
 20
-75.737897
 30
0.0
 11
170.660968
 21
-28.737897
 31
0.0
  0
ARC
  5
105
330
1F
100
AcDbEntity
  8
LC-001-100-D00-0
  6
ByBlock
 62
     7
370
    50
100
AcDbCircle
 10
168.160968
 20
-28.737897
 30
0.0
 40
2.5
100
AcDbArc
 50
0.0
 51
90.0
  0
LINE
  5
106
330
1F
100
AcDbEntity
  8
LC-001-100-D00-0
  6
ByBlock
 62
     7
370
    50
100
AcDbLine
 10
168.160968
 20
-78.237897
 30
0.0
 11
-326.839032
 21
-78.237897
 31
0.0
  0
LINE
  5
107
330
1F
100
AcDbEntity
  8
LC-001-100-D00-0
  6
ByBlock
 62
     7
370
    50
100
AcDbLine
 10
-326.839032
 20
-26.237897
 30
0.0
 11
168.160968
 21
-26.237897
 31
0.0
  0
ARC
  5
108
330
1F
100
AcDbEntity
  8
LC-001-100-D00-0
  6
ByBlock
 62
     7
370
    50
100
AcDbCircle
 10
-326.839032
 20
-28.737897
 30
0.0
 40
2.5
100
AcDbArc
 50
90.0
 51
180.0
  0
ARC
  5
109
330
1F
100
AcDbEntity
  8
LC-001-100-D00-0
  6
ByBlock
 62
     7
370
    50
100
AcDbCircle
 10
-326.839032
 20
-75.737897
 30
0.0
 40
2.5
100
AcDbArc
 50
180.0
 51
270.0
  0
LINE
  5
10A
330
1F
100
AcDbEntity
  8
LC-001-100-D00-0
  6
ByBlock
 62
     7
370
    50
100
AcDbLine
 10
-329.339032
 20
-75.737897
 30
0.0
 11
-329.339032
 21
-28.737897
 31
0.0
  0
ARC
  5
10B
330
1F
100
AcDbEntity
  8
LC-001-100-D00-0
  6
ByBlock
 62
     7
370
    50
100
AcDbCircle
 10
-374.339032
 20
20.262103
 30
0.0
 40
5.0
100
AcDbArc
 50
90.0
 51
180.0
  0
LINE
  5
10C
330
1F
100
AcDbEntity
  8
LC-001-100-D00-0
  6
ByBlock
 62
     7
370
    50
100
AcDbLine
 10
215.660968
 20
25.262103
 30
0.0
 11
-374.339032
 21
25.262103
 31
0.0
  0
ARC
  5
10D
330
1F
100
AcDbEntity
  8
LC-001-100-D00-0
  6
ByBlock
 62
     7
370
    50
100
AcDbCircle
 10
215.660968
 20
20.262103
 30
0.0
 40
5.0
100
AcDbArc
 50
0.0
 51
90.0
  0
LINE
  5
10E
330
1F
100
AcDbEntity
  8
LC-001-100-D00-0
  6
ByBlock
 62
     7
370
    50
100
AcDbLine
 10
220.660968
 20
20.262103
 30
0.0
 11
220.660968
 21
-124.737897
 31
0.0
  0
ARC
  5
10F
330
1F
100
AcDbEntity
  8
LC-001-100-D00-0
  6
ByBlock
 62
     7
370
    50
100
AcDbCircle
 10
215.660968
 20
-124.737897
 30
0.0
 40
5.0
100
AcDbArc
 50
270.0
 51
0.0
  0
LINE
  5
110
330
1F
100
AcDbEntity
  8
LC-001-100-D00-0
  6
ByBlock
 62
     7
370
    50
100
AcDbLine
 10
-374.339032
 20
-129.737897
 30
0.0
 11
215.660968
 21
-129.737897
 31
0.0
  0
ARC
  5
111
330
1F
100
AcDbEntity
  8
LC-001-100-D00-0
  6
ByBlock
 62
     7
370
    50
100
AcDbCircle
 10
-374.339032
 20
-124.737897
 30
0.0
 40
5.0
100
AcDbArc
 50
180.0
 51
270.0
  0
LINE
  5
112
330
1F
100
AcDbEntity
  8
LC-001-100-D00-0
  6
ByBlock
 62
     7
370
    50
100
AcDbLine
 10
-379.339032
 20
20.262103
 30
0.0
 11
-379.339032
 21
-124.737897
 31
0.0
  0
CIRCLE
  5
113
330
1F
100
AcDbEntity
  8
LC-001-100-D00-0
  6
ByBlock
 62
     7
370
    50
100
AcDbCircle
 10
140.660968
 20
-52.237897
 30
0.0
 40
3.000000000000114
  0
CIRCLE
  5
114
330
1F
100
AcDbEntity
  8
LC-001-100-D00-0
  6
ByBlock
 62
     7
370
    50
100
AcDbCircle
 10
20.660968
 20
-52.237897
 30
0.0
 40
3.000000000000114
  0
CIRCLE
  5
115
330
1F
100
AcDbEntity
  8
LC-001-100-D00-0
  6
ByBlock
 62
     7
370
    50
100
AcDbCircle
 10
-179.339032
 20
-52.237897
 30
0.0
 40
3.000000000000114
  0
CIRCLE
  5
116
330
1F
100
AcDbEntity
  8
LC-001-100-D00-0
  6
ByBlock
 62
     7
370
    50
100
AcDbCircle
 10
-299.339032
 20
-52.237897
 30
0.0
 40
3.000000000000114
  0
INSERT
  5
11C
330
1F
100
AcDbEntity
  8
LC-001-100-D00-0
  6
ByBlock
 62
     7
370
    50
100
AcDbBlockReference
  2
KLON1
 10
0.0
 20
0.0
 30
0.0
  0
LINE
  5
11D
330
1F
100
AcDbEntity
  8
LC-001-100-D00-0
  6
ByBlock
 62
     7
370
    50
100
AcDbLine
 10
162.634785
 20
-64.560566
 30
0.0
 11
162.634785
 21
-75.737896
 31
0.0
  0
INSERT
  5
124
330
1F
100
AcDbEntity
  8
LC-001-100-D00-0
  6
ByBlock
 62
     7
370
    50
100
AcDbBlockReference
  2
KLON2
 10
0.0
 20
0.0
 30
0.0
  0
INSERT
  5
12C
330
1F
100
AcDbEntity
  8
LC-001-100-D00-0
  6
ByBlock
 62
     7
370
    50
100
AcDbBlockReference
  2
KLON3
 10
0.0
 20
0.0
 30
0.0
  0
LINE
  5
12D
330
1F
100
AcDbEntity
  8
LC-001-100-D00-0
  6
ByBlock
 62
     7
370
    50
100
AcDbLine
 10
162.634785
 20
-28.752536
 30
0.0
 11
162.634785
 21
-39.915228
 31
0.0
  0
INSERT
  5
133
330
1F
100
AcDbEntity
  8
LC-001-100-D00-0
  6
ByBlock
 62
     7
370
    50
100
AcDbBlockReference
  2
KLON4
 10
0.0
 20
0.0
 30
0.0
  0
INSERT
  5
139
330
1F
100
AcDbEntity
  8
LC-001-100-D00-0
  6
ByBlock
 62
     7
370
    50
100
AcDbBlockReference
  2
KLON5
 10
0.0
 20
0.0
 30
0.0
  0
INSERT
  5
13F
330
1F
100
AcDbEntity
  8
LC-001-100-D00-0
  6
ByBlock
 62
     7
370
    50
100
AcDbBlockReference
  2
KLON6
 10
0.0
 20
0.0
 30
0.0
  0
LINE
  5
140
330
1F
100
AcDbEntity
  8
LC-001-100-D00-0
  6
ByBlock
 62
     7
370
    50
100
AcDbLine
 10
-321.312849
 20
-28.752536
 30
0.0
 11
-321.312849
 21
-39.915228
 31
0.0
  0
INSERT
  5
148
330
1F
100
AcDbEntity
  8
LC-001-100-D00-0
  6
ByBlock
 62
     7
370
    50
100
AcDbBlockReference
  2
KLON7
 10
0.0
 20
0.0
 30
0.0
  0
INSERT
  5
14F
330
1F
100
AcDbEntity
  8
LC-001-100-D00-0
  6
ByBlock
 62
     7
370
    50
100
AcDbBlockReference
  2
KLON8
 10
0.0
 20
0.0
 30
0.0
  0
LINE
  5
150
330
1F
100
AcDbEntity
  8
LC-001-100-D00-0
  6
ByBlock
 62
     7
370
    50
100
AcDbLine
 10
-321.312849
 20
-64.560566
 30
0.0
 11
-321.312849
 21
-75.737896
 31
0.0
  0
ELLIPSE
  5
151
330
1F
100
AcDbEntity
  8
LC-001-100-D00-0
  6
ByBlock
 62
     7
370
    50
100
AcDbEllipse
 10
162.588
 20
-75.737897
 30
0.0
 11
0.0
 21
-2.499998977660924
 31
0.0
210
0.0
220
0.0
230
0.9999999999999999
 40
0.018242
 41
3.141592653603504
 42
4.712388980377141
  0
ELLIPSE
  5
152
330
1F
100
AcDbEntity
  8
LC-001-100-D00-0
  6
ByBlock
 62
     7
370
    50
100
AcDbEllipse
 10
25.588
 20
-75.737897
 30
0.0
 11
0.0
 21
-2.499999454617441
 31
0.0
210
0.0
220
0.0
230
0.9999999999999999
 40
0.018242
 41
3.141592653611606
 42
4.712388980381234
  0
ELLIPSE
  5
153
330
1F
100
AcDbEntity
  8
LC-001-100-D00-0
  6
ByBlock
 62
     7
370
    50
100
AcDbEllipse
 10
231.133605
 20
-75.737897
 30
0.0
 11
68.49999999997444
 21
0.0
 31
0.0
210
0.0
220
0.0
230
1.0
 40
0.036496
 41
3.141592653597535
 42
3.169858841660719
  0
ELLIPSE
  5
154
330
1F
100
AcDbEntity
  8
LC-001-100-D00-0
  6
ByBlock
 62
     7
370
    50
100
AcDbEllipse
 10
-321.266064
 20
-75.737897
 30
0.0
 11
0.0
 21
-2.500000007629394
 31
0.0
210
0.0
220
0.0
230
1.0
 40
0.018242
 41
1.57079632680257
 42
3.141592653593532
  0
ELLIPSE
  5
155
330
1F
100
AcDbEntity
  8
LC-001-100-D00-0
  6
ByBlock
 62
     7
370
    50
100
AcDbEllipse
 10
-184.266064
 20
-75.737897
 30
0.0
 11
0.0
 21
-2.499999916076659
 31
0.0
210
0.0
220
0.0
230
1.0
 40
0.018242
 41
1.570796326798574
 42
3.141592653595402
  0
ELLIPSE
  5
156
330
1F
100
AcDbEntity
  8
LC-001-100-D00-0
  6
ByBlock
 62
     7
370
    50
100
AcDbEllipse
 10
-389.811669
 20
-75.737897
 30
0.0
 11
68.49999999755023
 21
0.0
 31
0.0
210
0.0
220
0.0
230
1.0
 40
0.036496
 41
6.25491911910948
 42
6.283185307179586
  0
ELLIPSE
  5
157
330
1F
100
AcDbEntity
  8
LC-001-100-D00-0
  6
ByBlock
 62
     7
370
    50
100
AcDbEllipse
 10
231.133605
 20
-28.737897
 30
0.0
 11
68.49999999673042
 21
0.0
 31
0.0
210
0.0
220
0.0
230
1.0
 40
0.036496
 41
3.141592653589797
 42
3.147448628039372
  0
ELLIPSE
  5
158
330
1F
100
AcDbEntity
  8
LC-001-100-D00-0
  6
ByBlock
 62
     7
370
    50
100
AcDbEllipse
 10
162.588
 20
-28.737897
 30
0.0
 11
0.0
 21
-2.499999761581409
 31
0.0
210
0.0
220
0.0
230
1.0
 40
0.018242
 41
4.712388980384645
 42
6.283185356488689
  0
ELLIPSE
  5
159
330
1F
100
AcDbEntity
  8
LC-001-100-D00-0
  6
ByBlock
 62
     7
370
    50
100
AcDbEllipse
 10
-389.811669
 20
-28.737897
 30
0.0
 11
68.49999999346572
 21
0.0
 31
0.0
210
0.0
220
0.0
230
1.0
 40
0.036496
 41
6.277329332730776
 42
6.283185307179539
  0
ELLIPSE
  5
15A
330
1F
100
AcDbEntity
  8
LC-001-100-D00-0
  6
ByBlock
 62
     7
370
    50
100
AcDbEllipse
 10
-321.266064
 20
-28.737897
 30
0.0
 11
0.0
 21
-2.499999755859363
 31
0.0
210
0.0
220
0.0
230
0.9999999999999999
 40
0.018242
 41
6.283185257872353
 42
7.85398163397462
  0
ELLIPSE
  5
15B
330
1F
100
AcDbEntity
  8
LC-001-100-D00-0
  6
ByBlock
 62
     7
370
    50
100
AcDbEllipse
 10
25.588
 20
-28.737897
 30
0.0
 11
0.0
 21
-2.499999267578018
 31
0.0
210
0.0
220
0.0
230
1.0
 40
0.018242
 41
4.712388980388281
 42
6.283185316153832
  0
ELLIPSE
  5
15C
330
1F
100
AcDbEntity
  8
LC-001-100-D00-0
  6
ByBlock
 62
     7
370
    50
100
AcDbEllipse
 10
-184.266064
 20
-28.737897
 30
0.0
 11
0.0
 21
-2.499999969482422
 31
0.0
210
0.0
220
0.0
230
1.0
 40
0.018242
 41
6.283185298182908
 42
7.853981633970842
  0
LINE
  5
15D
330
1F
100
AcDbEntity
  8
LC-001-100-D00-0
  6
ByBlock
 62
     7
370
    50
100
AcDbLine
 10
25.633606
 20
-75.737896
 30
0.0
 11
25.633606
 21
-72.887381
 31
0.0
  0
INSERT
  5
163
330
1F
100
AcDbEntity
  8
LC-001-100-D00-0
  6
ByBlock
 62
     7
370
    50
100
AcDbBlockReference
  2
KLON9
 10
0.0
 20
0.0
 30
0.0
  0
INSERT
  5
169
330
1F
100
AcDbEntity
  8
LC-001-100-D00-0
  6
ByBlock
 62
     7
370
    50
100
AcDbBlockReference
  2
KLON10
 10
0.0
 20
0.0
 30
0.0
  0
LINE
  5
16A
330
1F
100
AcDbEntity
  8
LC-001-100-D00-0
  6
ByBlock
 62
     7
370
    50
100
AcDbLine
 10
-184.31167
 20
-75.737896
 30
0.0
 11
-184.31167
 21
-72.887381
 31
0.0
  0
INSERT
  5
170
330
1F
100
AcDbEntity
  8
LC-001-100-D00-0
  6
ByBlock
 62
     7
370
    50
100
AcDbBlockReference
  2
KLON11
 10
0.0
 20
0.0
 30
0.0
  0
INSERT
  5
176
330
1F
100
AcDbEntity
  8
LC-001-100-D00-0
  6
ByBlock
 62
     7
370
    50
100
AcDbBlockReference
  2
KLON12
 10
0.0
 20
0.0
 30
0.0
  0
LINE
  5
177
330
1F
100
AcDbEntity
  8
LC-001-100-D00-0
  6
ByBlock
 62
     7
370
    50
100
AcDbLine
 10
25.633606
 20
-31.588414
 30
0.0
 11
25.633606
 21
-28.737898
 31
0.0
  0
LINE
  5
178
330
1F
100
AcDbEntity
  8
LC-001-100-D00-0
  6
ByBlock
 62
     7
370
    50
100
AcDbLine
 10
-184.31167
 20
-31.588414
 30
0.0
 11
-184.31167
 21
-28.737898
 31
0.0
  0
LINE
  5
179
330
1F
100
AcDbEntity
  8
LC-001-100-D00-0
  6
ByBlock
 62
     7
370
    50
100
AcDbLine
 10
25.647874
 20
-72.093575
 30
0.0
 11
25.647874
 21
-70.487897
 31
0.0
  0
ELLIPSE
  5
17A
330
1F
100
AcDbEntity
  8
LC-001-100-D00-0
  6
ByBlock
 62
     7
370
    50
100
AcDbEllipse
 10
-117.598843
 20
-80.658705
 30
0.0
 11
143.2466513043619
 21
8.56747472724267
 31
0.0
210
0.0
220
0.0
230
1.0
 40
0.016531
 41
6.280994665940839
 42
6.282196627518155
  0
ELLIPSE
  5
17B
330
1F
100
AcDbEntity
  8
LC-001-100-D00-0
  6
ByBlock
 62
     7
370
    50
100
AcDbEllipse
 10
-117.598843
 20
-23.817089
 30
0.0
 11
143.2466512748887
 21
-8.567474725479611
 31
0.0
210
0.0
220
0.0
230
1.0
 40
0.016531
 41
0.0009886796624199
 42
0.0021906412395528
  0
LINE
  5
17C
330
1F
100
AcDbEntity
  8
LC-001-100-D00-0
  6
ByBlock
 62
     7
370
    50
100
AcDbLine
 10
25.647874
 20
-33.987897
 30
0.0
 11
25.647874
 21
-32.382219
 31
0.0
  0
ELLIPSE
  5
17D
330
1F
100
AcDbEntity
  8
LC-001-100-D00-0
  6
ByBlock
 62
     7
370
    50
100
AcDbEllipse
 10
-41.07922
 20
-80.658705
 30
0.0
 11
143.2466512794271
 21
-8.567474725751049
 31
0.0
210
0.0
220
0.0
230
1.0
 40
0.016531
 41
3.142581333258737
 42
3.143783294836082
  0
LINE
  5
17E
330
1F
100
AcDbEntity
  8
LC-001-100-D00-0
  6
ByBlock
 62
     7
370
    50
100
AcDbLine
 10
-184.325938
 20
-72.093575
 30
0.0
 11
-184.325938
 21
-70.487897
 31
0.0
  0
ELLIPSE
  5
17F
330
1F
100
AcDbEntity
  8
LC-001-100-D00-0
  6
ByBlock
 62
     7
370
    50
100
AcDbEllipse
 10
-41.07922
 20
-23.817089
 30
0.0
 11
143.2466511757285
 21
8.567474719548908
 31
0.0
210
0.0
220
0.0
230
1.0
 40
0.016531
 41
3.139402012346124
 42
3.14060397392335
  0
LINE
  5
180
330
1F
100
AcDbEntity
  8
LC-001-100-D00-0
  6
ByBlock
 62
     7
370
    50
100
AcDbLine
 10
-184.325938
 20
-33.987897
 30
0.0
 11
-184.325938
 21
-32.382219
 31
0.0
  0
LINE
  5
181
330
1F
100
AcDbEntity
  8
LC-001-100-D00-0
  6
ByBlock
 62
     7
370
    50
100
AcDbLine
 10
25.633606
 20
-72.887008
 30
0.0
 11
25.647777
 21
-72.096438
 31
0.0
  0
LINE
  5
182
330
1F
100
AcDbEntity
  8
LC-001-100-D00-0
  6
ByBlock
 62
     7
370
    50
100
AcDbLine
 10
25.633606
 20
-31.588786
 30
0.0
 11
25.647777
 21
-32.379356
 31
0.0
  0
LINE
  5
183
330
1F
100
AcDbEntity
  8
LC-001-100-D00-0
  6
ByBlock
 62
     7
370
    50
100
AcDbLine
 10
-184.31167
 20
-72.887008
 30
0.0
 11
-184.325841
 21
-72.096438
 31
0.0
  0
LINE
  5
184
330
1F
100
AcDbEntity
  8
LC-001-100-D00-0
  6
ByBlock
 62
     7
370
    50
100
AcDbLine
 10
-184.31167
 20
-31.588786
 30
0.0
 11
-184.325841
 21
-32.379356
 31
0.0
  0
ARC
  5
185
330
1F
100
AcDbEntity
  8
LC-001-100-D00-0
  6
ByBlock
 62
     7
370
    50
100
AcDbCircle
 10
-48.83904
 20
-52.237877
 30
0.0
 40
24.80002105913775
100
AcDbArc
 50
270.0
 51
300.592807
  0
ARC
  5
186
330
1F
100
AcDbEntity
  8
LC-001-100-D00-0
  6
ByBlock
 62
     7
370
    50
100
AcDbCircle
 10
-109.839024
 20
-52.237877
 30
0.0
 40
24.80002105913768
100
AcDbArc
 50
239.407193
 51
270.0
  0
ARC
  5
187
330
1F
100
AcDbEntity
  8
LC-001-100-D00-0
  6
ByBlock
 62
     7
370
    50
100
AcDbCircle
 10
-48.839038
 20
-52.23791
 30
0.0
 40
24.80001358063656
100
AcDbArc
 50
59.407188
 51
90.0
  0
ARC
  5
188
330
1F
100
AcDbEntity
  8
LC-001-100-D00-0
  6
ByBlock
 62
     7
370
    50
100
AcDbCircle
 10
-109.839026
 20
-52.23791
 30
0.0
 40
24.80001358063669
100
AcDbArc
 50
90.0
 51
120.592812
  0
LINE
  5
189
330
1F
100
AcDbEntity
  8
LC-001-100-D00-0
  6
ByBlock
 62
     7
370
    50
100
AcDbLine
 10
-109.839032
 20
-27.437896
 30
0.0
 11
-48.839032
 21
-27.437896
 31
0.0
  0
LINE
  5
18A
330
1F
100
AcDbEntity
  8
LC-001-100-D00-0
  6
ByBlock
 62
     7
370
    50
100
AcDbLine
 10
-48.839032
 20
-77.037898
 30
0.0
 11
-109.839032
 21
-77.037898
 31
0.0
  0
LINE
  5
18B
330
1F
100
AcDbEntity
  8
LC-001-100-D00-0
  6
ByBlock
 62
     7
370
    50
100
AcDbLine
 10
-146.171865
 20
-48.798994
 30
0.0
 11
-146.163721
 21
-49.166886
 31
0.0
  0
LINE
  5
18C
330
1F
100
AcDbEntity
  8
LC-001-100-D00-0
  6
ByBlock
 62
     7
370
    50
100
AcDbLine
 10
-147.283141
 20
-48.006026
 30
0.0
 11
-146.171865
 21
-48.798994
 31
0.0
  0
LINE
  5
18D
330
1F
100
AcDbEntity
  8
LC-001-100-D00-0
  6
ByBlock
 62
     7
370
    50
100
AcDbLine
 10
-146.171865
 20
-47.213057
 30
0.0
 11
-147.283141
 21
-48.006026
 31
0.0
  0
LINE
  5
18E
330
1F
100
AcDbEntity
  8
LC-001-100-D00-0
  6
ByBlock
 62
     7
370
    50
100
AcDbLine
 10
-146.171865
 20
-46.839359
 30
0.0
 11
-146.171865
 21
-47.213057
 31
0.0
  0
LINE
  5
18F
330
1F
100
AcDbEntity
  8
LC-001-100-D00-0
  6
ByBlock
 62
     7
370
    50
100
AcDbLine
 10
-147.545365
 20
-47.818826
 30
0.0
 11
-146.171865
 21
-46.839359
 31
0.0
  0
LINE
  5
190
330
1F
100
AcDbEntity
  8
LC-001-100-D00-0
  6
ByBlock
 62
     7
370
    50
100
AcDbLine
 10
-148.72956
 20
-46.973974
 30
0.0
 11
-147.545365
 21
-47.818826
 31
0.0
  0
LINE
  5
191
330
1F
100
AcDbEntity
  8
LC-001-100-D00-0
  6
ByBlock
 62
     7
370
    50
100
AcDbLine
 10
-148.72956
 20
-47.347672
 30
0.0
 11
-148.72956
 21
-46.973974
 31
0.0
  0
LINE
  5
192
330
1F
100
AcDbEntity
  8
LC-001-100-D00-0
  6
ByBlock
 62
     7
370
    50
100
AcDbLine
 10
-147.80688
 20
-48.006026
 30
0.0
 11
-148.72956
 21
-47.347672
 31
0.0
  0
LINE
  5
193
330
1F
100
AcDbEntity
  8
LC-001-100-D00-0
  6
ByBlock
 62
     7
370
    50
100
AcDbLine
 10
-148.72956
 20
-48.664379
 30
0.0
 11
-147.80688
 21
-48.006026
 31
0.0
  0
LINE
  5
194
330
1F
100
AcDbEntity
  8
LC-001-100-D00-0
  6
ByBlock
 62
     7
370
    50
100
AcDbLine
 10
-148.72956
 20
-49.038077
 30
0.0
 11
-148.72956
 21
-48.664379
 31
0.0
  0
LINE
  5
195
330
1F
100
AcDbEntity
  8
LC-001-100-D00-0
  6
ByBlock
 62
     7
370
    50
100
AcDbLine
 10
-147.545365
 20
-48.192524
 30
0.0
 11
-148.72956
 21
-49.038077
 31
0.0
  0
LINE
  5
196
330
1F
100
AcDbEntity
  8
LC-001-100-D00-0
  6
ByBlock
 62
     7
370
    50
100
AcDbLine
 10
-146.163721
 20
-49.166886
 30
0.0
 11
-147.545365
 21
-48.192524
 31
0.0
  0
LINE
  5
197
330
1F
100
AcDbEntity
  8
LC-001-100-D00-0
  6
ByBlock
 62
     7
370
    50
100
AcDbLine
 10
-146.171865
 20
-53.465661
 30
0.0
 11
-146.163721
 21
-53.833553
 31
0.0
  0
LINE
  5
198
330
1F
100
AcDbEntity
  8
LC-001-100-D00-0
  6
ByBlock
 62
     7
370
    50
100
AcDbLine
 10
-147.283141
 20
-52.672692
 30
0.0
 11
-146.171865
 21
-53.465661
 31
0.0
  0
LINE
  5
199
330
1F
100
AcDbEntity
  8
LC-001-100-D00-0
  6
ByBlock
 62
     7
370
    50
100
AcDbLine
 10
-146.171865
 20
-51.879723
 30
0.0
 11
-147.283141
 21
-52.672692
 31
0.0
  0
LINE
  5
19A
330
1F
100
AcDbEntity
  8
LC-001-100-D00-0
  6
ByBlock
 62
     7
370
    50
100
AcDbLine
 10
-146.171865
 20
-51.506025
 30
0.0
 11
-146.171865
 21
-51.879723
 31
0.0
  0
LINE
  5
19B
330
1F
100
AcDbEntity
  8
LC-001-100-D00-0
  6
ByBlock
 62
     7
370
    50
100
AcDbLine
 10
-147.545365
 20
-52.485492
 30
0.0
 11
-146.171865
 21
-51.506025
 31
0.0
  0
LINE
  5
19C
330
1F
100
AcDbEntity
  8
LC-001-100-D00-0
  6
ByBlock
 62
     7
370
    50
100
AcDbLine
 10
-148.72956
 20
-51.640641
 30
0.0
 11
-147.545365
 21
-52.485492
 31
0.0
  0
LINE
  5
19D
330
1F
100
AcDbEntity
  8
LC-001-100-D00-0
  6
ByBlock
 62
     7
370
    50
100
AcDbLine
 10
-148.72956
 20
-52.014339
 30
0.0
 11
-148.72956
 21
-51.640641
 31
0.0
  0
LINE
  5
19E
330
1F
100
AcDbEntity
  8
LC-001-100-D00-0
  6
ByBlock
 62
     7
370
    50
100
AcDbLine
 10
-147.80688
 20
-52.672692
 30
0.0
 11
-148.72956
 21
-52.014339
 31
0.0
  0
LINE
  5
19F
330
1F
100
AcDbEntity
  8
LC-001-100-D00-0
  6
ByBlock
 62
     7
370
    50
100
AcDbLine
 10
-148.72956
 20
-53.331045
 30
0.0
 11
-147.80688
 21
-52.672692
 31
0.0
  0
LINE
  5
1A0
330
1F
100
AcDbEntity
  8
LC-001-100-D00-0
  6
ByBlock
 62
     7
370
    50
100
AcDbLine
 10
-148.72956
 20
-53.704743
 30
0.0
 11
-148.72956
 21
-53.331045
 31
0.0
  0
LINE
  5
1A1
330
1F
100
AcDbEntity
  8
LC-001-100-D00-0
  6
ByBlock
 62
     7
370
    50
100
AcDbLine
 10
-147.545365
 20
-52.85919
 30
0.0
 11
-148.72956
 21
-53.704743
 31
0.0
  0
LINE
  5
1A2
330
1F
100
AcDbEntity
  8
LC-001-100-D00-0
  6
ByBlock
 62
     7
370
    50
100
AcDbLine
 10
-146.163721
 20
-53.833553
 30
0.0
 11
-147.545365
 21
-52.85919
 31
0.0
  0
LINE
  5
1A3
330
1F
100
AcDbEntity
  8
LC-001-100-D00-0
  6
ByBlock
 62
     7
370
    50
100
AcDbLine
 10
-146.171865
 20
-58.132328
 30
0.0
 11
-146.163721
 21
-58.500219
 31
0.0
  0
LINE
  5
1A4
330
1F
100
AcDbEntity
  8
LC-001-100-D00-0
  6
ByBlock
 62
     7
370
    50
100
AcDbLine
 10
-147.283141
 20
-57.339359
 30
0.0
 11
-146.171865
 21
-58.132328
 31
0.0
  0
LINE
  5
1A5
330
1F
100
AcDbEntity
  8
LC-001-100-D00-0
  6
ByBlock
 62
     7
370
    50
100
AcDbLine
 10
-146.171865
 20
-56.54639
 30
0.0
 11
-147.283141
 21
-57.339359
 31
0.0
  0
LINE
  5
1A6
330
1F
100
AcDbEntity
  8
LC-001-100-D00-0
  6
ByBlock
 62
     7
370
    50
100
AcDbLine
 10
-146.171865
 20
-56.172692
 30
0.0
 11
-146.171865
 21
-56.54639
 31
0.0
  0
LINE
  5
1A7
330
1F
100
AcDbEntity
  8
LC-001-100-D00-0
  6
ByBlock
 62
     7
370
    50
100
AcDbLine
 10
-147.545365
 20
-57.152159
 30
0.0
 11
-146.171865
 21
-56.172692
 31
0.0
  0
LINE
  5
1A8
330
1F
100
AcDbEntity
  8
LC-001-100-D00-0
  6
ByBlock
 62
     7
370
    50
100
AcDbLine
 10
-148.72956
 20
-56.307307
 30
0.0
 11
-147.545365
 21
-57.152159
 31
0.0
  0
LINE
  5
1A9
330
1F
100
AcDbEntity
  8
LC-001-100-D00-0
  6
ByBlock
 62
     7
370
    50
100
AcDbLine
 10
-148.72956
 20
-56.681005
 30
0.0
 11
-148.72956
 21
-56.307307
 31
0.0
  0
LINE
  5
1AA
330
1F
100
AcDbEntity
  8
LC-001-100-D00-0
  6
ByBlock
 62
     7
370
    50
100
AcDbLine
 10
-147.80688
 20
-57.339359
 30
0.0
 11
-148.72956
 21
-56.681005
 31
0.0
  0
LINE
  5
1AB
330
1F
100
AcDbEntity
  8
LC-001-100-D00-0
  6
ByBlock
 62
     7
370
    50
100
AcDbLine
 10
-148.72956
 20
-57.997712
 30
0.0
 11
-147.80688
 21
-57.339359
 31
0.0
  0
LINE
  5
1AC
330
1F
100
AcDbEntity
  8
LC-001-100-D00-0
  6
ByBlock
 62
     7
370
    50
100
AcDbLine
 10
-148.72956
 20
-58.37141
 30
0.0
 11
-148.72956
 21
-57.997712
 31
0.0
  0
LINE
  5
1AD
330
1F
100
AcDbEntity
  8
LC-001-100-D00-0
  6
ByBlock
 62
     7
370
    50
100
AcDbLine
 10
-147.545365
 20
-57.525857
 30
0.0
 11
-148.72956
 21
-58.37141
 31
0.0
  0
LINE
  5
1AE
330
1F
100
AcDbEntity
  8
LC-001-100-D00-0
  6
ByBlock
 62
     7
370
    50
100
AcDbLine
 10
-146.163721
 20
-58.500219
 30
0.0
 11
-147.545365
 21
-57.525857
 31
0.0
  0
LINE
  5
1AF
330
1F
100
AcDbEntity
  8
LC-001-100-D00-0
  6
ByBlock
 62
     7
370
    50
100
AcDbLine
 10
-146.171865
 20
-60.465661
 30
0.0
 11
-146.171865
 21
-60.839359
 31
0.0
  0
LINE
  5
1B0
330
1F
100
AcDbEntity
  8
LC-001-100-D00-0
  6
ByBlock
 62
     7
370
    50
100
AcDbLine
 10
-147.283141
 20
-59.672692
 30
0.0
 11
-146.171865
 21
-60.465661
 31
0.0
  0
LINE
  5
1B1
330
1F
100
AcDbEntity
  8
LC-001-100-D00-0
  6
ByBlock
 62
     7
370
    50
100
AcDbLine
 10
-146.171865
 20
-58.879723
 30
0.0
 11
-147.283141
 21
-59.672692
 31
0.0
  0
LINE
  5
1B2
330
1F
100
AcDbEntity
  8
LC-001-100-D00-0
  6
ByBlock
 62
     7
370
    50
100
AcDbLine
 10
-146.171865
 20
-58.506025
 30
0.0
 11
-146.171865
 21
-58.879723
 31
0.0
  0
LINE
  5
1B3
330
1F
100
AcDbEntity
  8
LC-001-100-D00-0
  6
ByBlock
 62
     7
370
    50
100
AcDbLine
 10
-147.545365
 20
-59.485493
 30
0.0
 11
-146.171865
 21
-58.506025
 31
0.0
  0
LINE
  5
1B4
330
1F
100
AcDbEntity
  8
LC-001-100-D00-0
  6
ByBlock
 62
     7
370
    50
100
AcDbLine
 10
-148.72956
 20
-58.640641
 30
0.0
 11
-147.545365
 21
-59.485493
 31
0.0
  0
LINE
  5
1B5
330
1F
100
AcDbEntity
  8
LC-001-100-D00-0
  6
ByBlock
 62
     7
370
    50
100
AcDbLine
 10
-148.72956
 20
-59.014338
 30
0.0
 11
-148.72956
 21
-58.640641
 31
0.0
  0
LINE
  5
1B6
330
1F
100
AcDbEntity
  8
LC-001-100-D00-0
  6
ByBlock
 62
     7
370
    50
100
AcDbLine
 10
-147.80688
 20
-59.672692
 30
0.0
 11
-148.72956
 21
-59.014338
 31
0.0
  0
LINE
  5
1B7
330
1F
100
AcDbEntity
  8
LC-001-100-D00-0
  6
ByBlock
 62
     7
370
    50
100
AcDbLine
 10
-148.72956
 20
-60.331046
 30
0.0
 11
-147.80688
 21
-59.672692
 31
0.0
  0
LINE
  5
1B8
330
1F
100
AcDbEntity
  8
LC-001-100-D00-0
  6
ByBlock
 62
     7
370
    50
100
AcDbLine
 10
-148.72956
 20
-60.704743
 30
0.0
 11
-148.72956
 21
-60.331046
 31
0.0
  0
LINE
  5
1B9
330
1F
100
AcDbEntity
  8
LC-001-100-D00-0
  6
ByBlock
 62
     7
370
    50
100
AcDbLine
 10
-147.545365
 20
-59.859191
 30
0.0
 11
-148.72956
 21
-60.704743
 31
0.0
  0
LINE
  5
1BA
330
1F
100
AcDbEntity
  8
LC-001-100-D00-0
  6
ByBlock
 62
     7
370
    50
100
AcDbLine
 10
-146.171865
 20
-60.839359
 30
0.0
 11
-147.545365
 21
-59.859191
 31
0.0
  0
LINE
  5
1BB
330
1F
100
AcDbEntity
  8
LC-001-100-D00-0
  6
ByBlock
 62
     7
370
    50
100
AcDbLine
 10
-146.171865
 20
-55.798994
 30
0.0
 11
-146.163721
 21
-56.166886
 31
0.0
  0
LINE
  5
1BC
330
1F
100
AcDbEntity
  8
LC-001-100-D00-0
  6
ByBlock
 62
     7
370
    50
100
AcDbLine
 10
-147.283141
 20
-55.006025
 30
0.0
 11
-146.171865
 21
-55.798994
 31
0.0
  0
LINE
  5
1BD
330
1F
100
AcDbEntity
  8
LC-001-100-D00-0
  6
ByBlock
 62
     7
370
    50
100
AcDbLine
 10
-146.171865
 20
-54.213056
 30
0.0
 11
-147.283141
 21
-55.006025
 31
0.0
  0
LINE
  5
1BE
330
1F
100
AcDbEntity
  8
LC-001-100-D00-0
  6
ByBlock
 62
     7
370
    50
100
AcDbLine
 10
-146.171865
 20
-53.839359
 30
0.0
 11
-146.171865
 21
-54.213056
 31
0.0
  0
LINE
  5
1BF
330
1F
100
AcDbEntity
  8
LC-001-100-D00-0
  6
ByBlock
 62
     7
370
    50
100
AcDbLine
 10
-147.545365
 20
-54.818826
 30
0.0
 11
-146.171865
 21
-53.839359
 31
0.0
  0
LINE
  5
1C0
330
1F
100
AcDbEntity
  8
LC-001-100-D00-0
  6
ByBlock
 62
     7
370
    50
100
AcDbLine
 10
-148.72956
 20
-53.973974
 30
0.0
 11
-147.545365
 21
-54.818826
 31
0.0
  0
LINE
  5
1C1
330
1F
100
AcDbEntity
  8
LC-001-100-D00-0
  6
ByBlock
 62
     7
370
    50
100
AcDbLine
 10
-148.72956
 20
-54.347672
 30
0.0
 11
-148.72956
 21
-53.973974
 31
0.0
  0
LINE
  5
1C2
330
1F
100
AcDbEntity
  8
LC-001-100-D00-0
  6
ByBlock
 62
     7
370
    50
100
AcDbLine
 10
-147.80688
 20
-55.006025
 30
0.0
 11
-148.72956
 21
-54.347672
 31
0.0
  0
LINE
  5
1C3
330
1F
100
AcDbEntity
  8
LC-001-100-D00-0
  6
ByBlock
 62
     7
370
    50
100
AcDbLine
 10
-148.72956
 20
-55.664379
 30
0.0
 11
-147.80688
 21
-55.006025
 31
0.0
  0
LINE
  5
1C4
330
1F
100
AcDbEntity
  8
LC-001-100-D00-0
  6
ByBlock
 62
     7
370
    50
100
AcDbLine
 10
-148.72956
 20
-56.038077
 30
0.0
 11
-148.72956
 21
-55.664379
 31
0.0
  0
LINE
  5
1C5
330
1F
100
AcDbEntity
  8
LC-001-100-D00-0
  6
ByBlock
 62
     7
370
    50
100
AcDbLine
 10
-147.545365
 20
-55.192524
 30
0.0
 11
-148.72956
 21
-56.038077
 31
0.0
  0
LINE
  5
1C6
330
1F
100
AcDbEntity
  8
LC-001-100-D00-0
  6
ByBlock
 62
     7
370
    50
100
AcDbLine
 10
-146.163721
 20
-56.166886
 30
0.0
 11
-147.545365
 21
-55.192524
 31
0.0
  0
LINE
  5
1C7
330
1F
100
AcDbEntity
  8
LC-001-100-D00-0
  6
ByBlock
 62
     7
370
    50
100
AcDbLine
 10
-146.171865
 20
-51.132327
 30
0.0
 11
-146.163721
 21
-51.500219
 31
0.0
  0
LINE
  5
1C8
330
1F
100
AcDbEntity
  8
LC-001-100-D00-0
  6
ByBlock
 62
     7
370
    50
100
AcDbLine
 10
-147.283141
 20
-50.339359
 30
0.0
 11
-146.171865
 21
-51.132327
 31
0.0
  0
LINE
  5
1C9
330
1F
100
AcDbEntity
  8
LC-001-100-D00-0
  6
ByBlock
 62
     7
370
    50
100
AcDbLine
 10
-146.171865
 20
-49.54639
 30
0.0
 11
-147.283141
 21
-50.339359
 31
0.0
  0
LINE
  5
1CA
330
1F
100
AcDbEntity
  8
LC-001-100-D00-0
  6
ByBlock
 62
     7
370
    50
100
AcDbLine
 10
-146.171865
 20
-49.172692
 30
0.0
 11
-146.171865
 21
-49.54639
 31
0.0
  0
LINE
  5
1CB
330
1F
100
AcDbEntity
  8
LC-001-100-D00-0
  6
ByBlock
 62
     7
370
    50
100
AcDbLine
 10
-147.545365
 20
-50.152159
 30
0.0
 11
-146.171865
 21
-49.172692
 31
0.0
  0
LINE
  5
1CC
330
1F
100
AcDbEntity
  8
LC-001-100-D00-0
  6
ByBlock
 62
     7
370
    50
100
AcDbLine
 10
-148.72956
 20
-49.307307
 30
0.0
 11
-147.545365
 21
-50.152159
 31
0.0
  0
LINE
  5
1CD
330
1F
100
AcDbEntity
  8
LC-001-100-D00-0
  6
ByBlock
 62
     7
370
    50
100
AcDbLine
 10
-148.72956
 20
-49.681005
 30
0.0
 11
-148.72956
 21
-49.307307
 31
0.0
  0
LINE
  5
1CE
330
1F
100
AcDbEntity
  8
LC-001-100-D00-0
  6
ByBlock
 62
     7
370
    50
100
AcDbLine
 10
-147.80688
 20
-50.339359
 30
0.0
 11
-148.72956
 21
-49.681005
 31
0.0
  0
LINE
  5
1CF
330
1F
100
AcDbEntity
  8
LC-001-100-D00-0
  6
ByBlock
 62
     7
370
    50
100
AcDbLine
 10
-148.72956
 20
-50.997712
 30
0.0
 11
-147.80688
 21
-50.339359
 31
0.0
  0
LINE
  5
1D0
330
1F
100
AcDbEntity
  8
LC-001-100-D00-0
  6
ByBlock
 62
     7
370
    50
100
AcDbLine
 10
-148.72956
 20
-51.37141
 30
0.0
 11
-148.72956
 21
-50.997712
 31
0.0
  0
LINE
  5
1D1
330
1F
100
AcDbEntity
  8
LC-001-100-D00-0
  6
ByBlock
 62
     7
370
    50
100
AcDbLine
 10
-147.545365
 20
-50.525857
 30
0.0
 11
-148.72956
 21
-51.37141
 31
0.0
  0
LINE
  5
1D2
330
1F
100
AcDbEntity
  8
LC-001-100-D00-0
  6
ByBlock
 62
     7
370
    50
100
AcDbLine
 10
-146.163721
 20
-51.500219
 30
0.0
 11
-147.545365
 21
-50.525857
 31
0.0
  0
ARC
  5
1D3
330
1F
100
AcDbEntity
  8
LC-001-100-D00-0
  6
ByBlock
 62
     7
370
    50
100
AcDbCircle
 10
-48.839032
 20
-52.237897
 30
0.0
 40
24.79999999999453
100
AcDbArc
 50
300.592814
 51
59.407186
  0
ARC
  5
1D4
330
1F
100
AcDbEntity
  8
LC-001-100-D00-0
  6
ByBlock
 62
     7
370
    50
100
AcDbCircle
 10
-109.839032
 20
-52.237897
 30
0.0
 40
24.79999999999453
100
AcDbArc
 50
120.592814
 51
239.407186
  0
LINE
  5
1D5
330
1F
100
AcDbEntity
  8
LC-001-100-D00-0
  6
ByBlock
 62
     7
370
    50
100
AcDbLine
 10
38.910968
 20
-38.987897
 30
0.0
 11
38.910968
 21
-65.487897
 31
0.0
  0
ARC
  5
1D6
330
1F
100
AcDbEntity
  8
LC-001-100-D00-0
  6
ByBlock
 62
     7
370
    50
100
AcDbCircle
 10
33.910968
 20
-65.487897
 30
0.0
 40
5.0
100
AcDbArc
 50
270.0
 51
0.0
  0
ARC
  5
1D7
330
1F
100
AcDbEntity
  8
LC-001-100-D00-0
  6
ByBlock
 62
     7
370
    50
100
AcDbCircle
 10
33.910968
 20
-38.987897
 30
0.0
 40
5.0
100
AcDbArc
 50
0.0
 51
90.0
  0
CIRCLE
  5
1D8
330
1F
100
AcDbEntity
  8
LC-001-100-D00-0
  6
ByBlock
 62
     7
370
    50
100
AcDbCircle
 10
20.660968
 20
-52.237897
 30
0.0
 40
3.899999999999864
  0
LINE
  5
1D9
330
1F
100
AcDbEntity
  8
LC-001-100-D00-0
  6
ByBlock
 62
     7
370
    50
100
AcDbLine
 10
33.910968
 20
-70.487897
 30
0.0
 11
7.410968
 21
-70.487897
 31
0.0
  0
LINE
  5
1DA
330
1F
100
AcDbEntity
  8
LC-001-100-D00-0
  6
ByBlock
 62
     7
370
    50
100
AcDbLine
 10
7.410968
 20
-33.987897
 30
0.0
 11
33.910968
 21
-33.987897
 31
0.0
  0
ARC
  5
1DB
330
1F
100
AcDbEntity
  8
LC-001-100-D00-0
  6
ByBlock
 62
     7
370
    50
100
AcDbCircle
 10
7.410968
 20
-38.987897
 30
0.0
 40
5.0
100
AcDbArc
 50
90.0
 51
180.0
  0
ARC
  5
1DC
330
1F
100
AcDbEntity
  8
LC-001-100-D00-0
  6
ByBlock
 62
     7
370
    50
100
AcDbCircle
 10
7.410968
 20
-65.487897
 30
0.0
 40
5.0
100
AcDbArc
 50
180.0
 51
270.0
  0
LINE
  5
1DD
330
1F
100
AcDbEntity
  8
LC-001-100-D00-0
  6
ByBlock
 62
     7
370
    50
100
AcDbLine
 10
2.410968
 20
-65.487897
 30
0.0
 11
2.410968
 21
-38.987897
 31
0.0
  0
ARC
  5
1DE
330
1F
100
AcDbEntity
  8
LC-001-100-D00-0
  6
ByBlock
 62
     7
370
    50
100
AcDbCircle
 10
-166.089032
 20
-38.987897
 30
0.0
 40
5.0
100
AcDbArc
 50
0.0
 51
90.0
  0
ARC
  5
1DF
330
1F
100
AcDbEntity
  8
LC-001-100-D00-0
  6
ByBlock
 62
     7
370
    50
100
AcDbCircle
 10
-166.089032
 20
-65.487897
 30
0.0
 40
5.0
100
AcDbArc
 50
270.0
 51
0.0
  0
LINE
  5
1E0
330
1F
100
AcDbEntity
  8
LC-001-100-D00-0
  6
ByBlock
 62
     7
370
    50
100
AcDbLine
 10
-161.089032
 20
-38.987897
 30
0.0
 11
-161.089032
 21
-65.487897
 31
0.0
  0
CIRCLE
  5
1E1
330
1F
100
AcDbEntity
  8
LC-001-100-D00-0
  6
ByBlock
 62
     7
370
    50
100
AcDbCircle
 10
-179.339032
 20
-52.237897
 30
0.0
 40
3.900000000000091
  0
LINE
  5
1E2
330
1F
100
AcDbEntity
  8
LC-001-100-D00-0
  6
ByBlock
 62
     7
370
    50
100
AcDbLine
 10
-192.589032
 20
-33.987897
 30
0.0
 11
-166.089032
 21
-33.987897
 31
0.0
  0
LINE
  5
1E3
330
1F
100
AcDbEntity
  8
LC-001-100-D00-0
  6
ByBlock
 62
     7
370
    50
100
AcDbLine
 10
-166.089032
 20
-70.487897
 30
0.0
 11
-192.589032
 21
-70.487897
 31
0.0
  0
ARC
  5
1E4
330
1F
100
AcDbEntity
  8
LC-001-100-D00-0
  6
ByBlock
 62
     7
370
    50
100
AcDbCircle
 10
-192.589032
 20
-38.987897
 30
0.0
 40
5.0
100
AcDbArc
 50
90.0
 51
180.0
  0
ARC
  5
1E5
330
1F
100
AcDbEntity
  8
LC-001-100-D00-0
  6
ByBlock
 62
     7
370
    50
100
AcDbCircle
 10
-192.589032
 20
-65.487897
 30
0.0
 40
5.0
100
AcDbArc
 50
180.0
 51
270.0
  0
LINE
  5
1E6
330
1F
100
AcDbEntity
  8
LC-001-100-D00-0
  6
ByBlock
 62
     7
370
    50
100
AcDbLine
 10
-197.589032
 20
-65.487897
 30
0.0
 11
-197.589032
 21
-38.987897
 31
0.0
  0
LINE
  5
1E7
330
1F
100
AcDbEntity
  8
LC-001-100-D00-0
  6
ByBlock
 62
     7
370
    50
100
AcDbLine
 10
158.910968
 20
-38.987897
 30
0.0
 11
158.910968
 21
-65.487897
 31
0.0
  0
ARC
  5
1E8
330
1F
100
AcDbEntity
  8
LC-001-100-D00-0
  6
ByBlock
 62
     7
370
    50
100
AcDbCircle
 10
153.910968
 20
-65.487897
 30
0.0
 40
5.0
100
AcDbArc
 50
270.0
 51
0.0
  0
ARC
  5
1E9
330
1F
100
AcDbEntity
  8
LC-001-100-D00-0
  6
ByBlock
 62
     7
370
    50
100
AcDbCircle
 10
153.910968
 20
-38.987897
 30
0.0
 40
5.0
100
AcDbArc
 50
0.0
 51
90.0
  0
CIRCLE
  5
1EA
330
1F
100
AcDbEntity
  8
LC-001-100-D00-0
  6
ByBlock
 62
     7
370
    50
100
AcDbCircle
 10
140.660968
 20
-52.237897
 30
0.0
 40
3.899999999999864
  0
LINE
  5
1EB
330
1F
100
AcDbEntity
  8
LC-001-100-D00-0
  6
ByBlock
 62
     7
370
    50
100
AcDbLine
 10
127.410968
 20
-33.987897
 30
0.0
 11
153.910968
 21
-33.987897
 31
0.0
  0
LINE
  5
1EC
330
1F
100
AcDbEntity
  8
LC-001-100-D00-0
  6
ByBlock
 62
     7
370
    50
100
AcDbLine
 10
153.910968
 20
-70.487897
 30
0.0
 11
127.410968
 21
-70.487897
 31
0.0
  0
ARC
  5
1ED
330
1F
100
AcDbEntity
  8
LC-001-100-D00-0
  6
ByBlock
 62
     7
370
    50
100
AcDbCircle
 10
127.410968
 20
-38.987897
 30
0.0
 40
5.0
100
AcDbArc
 50
90.0
 51
180.0
  0
ARC
  5
1EE
330
1F
100
AcDbEntity
  8
LC-001-100-D00-0
  6
ByBlock
 62
     7
370
    50
100
AcDbCircle
 10
127.410968
 20
-65.487897
 30
0.0
 40
5.000000000000341
100
AcDbArc
 50
180.0
 51
270.0
  0
LINE
  5
1EF
330
1F
100
AcDbEntity
  8
LC-001-100-D00-0
  6
ByBlock
 62
     7
370
    50
100
AcDbLine
 10
122.410968
 20
-65.487897
 30
0.0
 11
122.410968
 21
-38.987897
 31
0.0
  0
ARC
  5
1F0
330
1F
100
AcDbEntity
  8
LC-001-100-D00-0
  6
ByBlock
 62
     7
370
    50
100
AcDbCircle
 10
-286.089032
 20
-38.987897
 30
0.0
 40
5.0
100
AcDbArc
 50
0.0
 51
90.0
  0
LINE
  5
1F1
330
1F
100
AcDbEntity
  8
LC-001-100-D00-0
  6
ByBlock
 62
     7
370
    50
100
AcDbLine
 10
-281.089032
 20
-38.987897
 30
0.0
 11
-281.089032
 21
-65.487897
 31
0.0
  0
ARC
  5
1F2
330
1F
100
AcDbEntity
  8
LC-001-100-D00-0
  6
ByBlock
 62
     7
370
    50
100
AcDbCircle
 10
-286.089032
 20
-65.487897
 30
0.0
 40
5.0
100
AcDbArc
 50
270.0
 51
0.0
  0
CIRCLE
  5
1F3
330
1F
100
AcDbEntity
  8
LC-001-100-D00-0
  6
ByBlock
 62
     7
370
    50
100
AcDbCircle
 10
-299.339032
 20
-52.237897
 30
0.0
 40
3.899999999999864
  0
LINE
  5
1F4
330
1F
100
AcDbEntity
  8
LC-001-100-D00-0
  6
ByBlock
 62
     7
370
    50
100
AcDbLine
 10
-312.589032
 20
-33.987897
 30
0.0
 11
-286.089032
 21
-33.987897
 31
0.0
  0
LINE
  5
1F5
330
1F
100
AcDbEntity
  8
LC-001-100-D00-0
  6
ByBlock
 62
     7
370
    50
100
AcDbLine
 10
-286.089032
 20
-70.487897
 30
0.0
 11
-312.589032
 21
-70.487897
 31
0.0
  0
ARC
  5
1F6
330
1F
100
AcDbEntity
  8
LC-001-100-D00-0
  6
ByBlock
 62
     7
370
    50
100
AcDbCircle
 10
-312.589032
 20
-38.987897
 30
0.0
 40
5.0
100
AcDbArc
 50
90.0
 51
180.0
  0
ARC
  5
1F7
330
1F
100
AcDbEntity
  8
LC-001-100-D00-0
  6
ByBlock
 62
     7
370
    50
100
AcDbCircle
 10
-312.589032
 20
-65.487897
 30
0.0
 40
5.0
100
AcDbArc
 50
180.0
 51
270.0
  0
LINE
  5
1F8
330
1F
100
AcDbEntity
  8
LC-001-100-D00-0
  6
ByBlock
 62
     7
370
    50
100
AcDbLine
 10
-317.589032
 20
-65.487897
 30
0.0
 11
-317.589032
 21
-38.987897
 31
0.0
  0
LINE
  5
1F9
330
1F
100
AcDbEntity
  8
LC-001-100-D00-0
  6
ByBlock
 62
     7
370
    50
100
AcDbLine
 10
-109.839032
 20
-76.237897
 30
0.0
 11
-48.839032
 21
-76.237897
 31
0.0
  0
ARC
  5
1FA
330
1F
100
AcDbEntity
  8
LC-001-100-D00-0
  6
ByBlock
 62
     7
370
    50
100
AcDbCircle
 10
-109.839032
 20
-52.237897
 30
0.0
 40
24.00000000000011
100
AcDbArc
 50
90.0
 51
270.0
  0
LINE
  5
1FB
330
1F
100
AcDbEntity
  8
LC-001-100-D00-0
  6
ByBlock
 62
     7
370
    50
100
AcDbLine
 10
-48.839032
 20
-28.237897
 30
0.0
 11
-109.839032
 21
-28.237897
 31
0.0
  0
ARC
  5
1FC
330
1F
100
AcDbEntity
  8
LC-001-100-D00-0
  6
ByBlock
 62
     7
370
    50
100
AcDbCircle
 10
-48.839032
 20
-52.237897
 30
0.0
 40
24.0
100
AcDbArc
 50
270.0
 51
90.0
  0
ARC
  5
1FD
330
1F
100
AcDbEntity
  8
LC-001-100-D00-0
  6
ByBlock
 62
     7
370
    50
100
AcDbCircle
 10
-67.839032
 20
-52.237897
 30
0.0
 40
15.99999999999989
100
AcDbArc
 50
270.0
 51
90.0
  0
LINE
  5
1FE
330
1F
100
AcDbEntity
  8
LC-001-100-D00-0
  6
ByBlock
 62
     7
370
    50
100
AcDbLine
 10
-67.839032
 20
-36.237897
 30
0.0
 11
-90.839032
 21
-36.237897
 31
0.0
  0
LINE
  5
1FF
330
1F
100
AcDbEntity
  8
LC-001-100-D00-0
  6
ByBlock
 62
     7
370
    50
100
AcDbLine
 10
-90.839032
 20
-68.237897
 30
0.0
 11
-67.839032
 21
-68.237897
 31
0.0
  0
ARC
  5
200
330
1F
100
AcDbEntity
  8
LC-001-100-D00-0
  6
ByBlock
 62
     7
370
    50
100
AcDbCircle
 10
-90.839032
 20
-52.237897
 30
0.0
 40
16.0
100
AcDbArc
 50
90.0
 51
270.0
  0
DIMENSION
  5
203
330
1F
100
AcDbEntity
  8
LC-001-100-D00-0
  6
ByBlock
 62
     7
370
    25
100
AcDbDimension
  2
*D13
 10
266.489782
 20
-129.737897
 30
0.0
 11
244.489782
 21
-52.237897
 31
0.0
 70
   160
  1
155
 71
     5
 42
155.0
 53
90.0
  3
LC-DIM-L-0100-02-02
100
AcDbAlignedDimension
 13
215.660968
 23
25.262103
 33
0.0
 14
215.660968
 24
-129.737897
 34
0.0
 50
90.0
100
AcDbRotatedDimension
  0
LINE
  5
211
330
1F
100
AcDbEntity
  8
LC-001-100-D00-0
 62
     7
370
    25
100
AcDbLine
 10
-384.339032
 20
-52.237897
 30
0.0
 11
225.660968
 21
-52.237897
 31
0.0
  0
LINE
  5
212
330
1F
100
AcDbEntity
  8
LC-001-100-D00-0
 62
     7
370
    25
100
AcDbLine
 10
-79.339032
 20
30.262103
 30
0.0
 11
-79.339032
 21
-134.737897
 31
0.0
  0
LINE
  5
213
330
1F
100
AcDbEntity
  8
LC-001-100-D00-0
  6
ByBlock
 62
     7
370
    50
100
AcDbLine
 10
33.908776
 20
253.255536
 30
0.0
 11
33.908776
 21
255.038457
 31
0.0
  0
LINE
  5
214
330
1F
100
AcDbEntity
  8
LC-001-100-D00-0
  6
ByBlock
 62
     7
370
    50
100
AcDbLine
 10
33.908776
 20
305.472615
 30
0.0
 11
33.908776
 21
307.255536
 31
0.0
  0
LINE
  5
215
330
1F
100
AcDbEntity
  8
LC-001-100-D00-0
  6
ByBlock
 62
     7
370
    50
100
AcDbLine
 10
29.908776
 20
307.255536
 30
0.0
 11
29.908776
 21
305.472615
 31
0.0
  0
LINE
  5
216
330
1F
100
AcDbEntity
  8
LC-001-100-D00-0
  6
ByBlock
 62
     7
370
    50
100
AcDbLine
 10
29.908776
 20
255.038457
 30
0.0
 11
29.908776
 21
253.255536
 31
0.0
  0
LINE
  5
217
330
1F
100
AcDbEntity
  8
LC-001-100-D00-0
  6
ByBlock
 62
     7
370
    50
100
AcDbLine
 10
-39.624605
 20
303.755536
 30
0.0
 11
-39.624605
 21
302.255536
 31
0.0
  0
LINE
  5
218
330
1F
100
AcDbEntity
  8
LC-001-100-D00-0
  6
ByBlock
 62
     7
370
    50
100
AcDbLine
 10
-119.053435
 20
302.255536
 30
0.0
 11
-119.053435
 21
303.755536
 31
0.0
  0
ARC
  5
219
330
1F
100
AcDbEntity
  8
LC-001-100-D00-0
  6
ByBlock
 62
     7
370
    50
100
AcDbCircle
 10
111.66098
 20
210.755536
 30
0.0
 40
0.5000000000002274
100
AcDbArc
 50
90.0
 51
180.0
  0
ARC
  5
21A
330
1F
100
AcDbEntity
  8
LC-001-100-D00-0
  6
ByBlock
 62
     7
370
    50
100
AcDbCircle
 10
129.66098
 20
210.755536
 30
0.0
 40
0.5000000000003411
100
AcDbArc
 50
0.0
 51
90.0
  0
LINE
  5
21B
330
1F
100
AcDbEntity
  8
LC-001-100-D00-0
  6
ByBlock
 62
     7
370
    50
100
AcDbLine
 10
111.16098
 20
210.755536
 30
0.0
 11
111.16098
 21
203.255536
 31
0.0
  0
LINE
  5
21C
330
1F
100
AcDbEntity
  8
LC-001-100-D00-0
  6
ByBlock
 62
     7
370
    50
100
AcDbLine
 10
130.16098
 20
203.255536
 30
0.0
 11
130.16098
 21
210.755536
 31
0.0
  0
ARC
  5
21D
330
1F
100
AcDbEntity
  8
LC-001-100-D00-0
  6
ByBlock
 62
     7
370
    50
100
AcDbCircle
 10
-288.33902
 20
210.755536
 30
0.0
 40
0.5000000000002274
100
AcDbArc
 50
90.0
 51
180.0
  0
ARC
  5
21E
330
1F
100
AcDbEntity
  8
LC-001-100-D00-0
  6
ByBlock
 62
     7
370
    50
100
AcDbCircle
 10
-270.33902
 20
210.755536
 30
0.0
 40
0.5000000000001705
100
AcDbArc
 50
0.0
 51
90.0
  0
LINE
  5
21F
330
1F
100
AcDbEntity
  8
LC-001-100-D00-0
  6
ByBlock
 62
     7
370
    50
100
AcDbLine
 10
-288.83902
 20
210.755536
 30
0.0
 11
-288.83902
 21
203.255536
 31
0.0
  0
LINE
  5
220
330
1F
100
AcDbEntity
  8
LC-001-100-D00-0
  6
ByBlock
 62
     7
370
    50
100
AcDbLine
 10
-269.83902
 20
203.255536
 30
0.0
 11
-269.83902
 21
210.755536
 31
0.0
  0
LINE
  5
221
330
1F
100
AcDbEntity
  8
LC-001-100-D00-0
  6
ByBlock
 62
     7
370
    50
100
AcDbLine
 10
-292.112522
 20
314.688876
 30
0.0
 11
-292.112523
 21
309.255536
 31
0.0
  0
LINE
  5
222
330
1F
100
AcDbEntity
  8
LC-001-100-D00-0
  6
ByBlock
 62
     7
370
    50
100
AcDbLine
 10
-266.565517
 20
309.255536
 30
0.0
 11
-266.565524
 21
313.756503
 31
0.0
  0
LINE
  5
223
330
1F
100
AcDbEntity
  8
LC-001-100-D00-0
  6
ByBlock
 62
     7
370
    50
100
AcDbLine
 10
-292.112522
 20
305.255537
 30
0.0
 11
-292.112523
 21
280.255536
 31
0.0
  0
LINE
  5
224
330
1F
100
AcDbEntity
  8
LC-001-100-D00-0
  6
ByBlock
 62
     7
370
    50
100
AcDbLine
 10
-266.565517
 20
280.255536
 30
0.0
 11
-266.565524
 21
305.255537
 31
0.0
  0
LINE
  5
225
330
1F
100
AcDbEntity
  8
LC-001-100-D00-0
  6
ByBlock
 62
     7
370
    50
100
AcDbLine
 10
133.434483
 20
280.255536
 30
0.0
 11
133.434482
 21
305.255537
 31
0.0
  0
LINE
  5
226
330
1F
100
AcDbEntity
  8
LC-001-100-D00-0
  6
ByBlock
 62
     7
370
    50
100
AcDbLine
 10
107.887484
 20
313.756503
 30
0.0
 11
107.887477
 21
309.255536
 31
0.0
  0
LINE
  5
227
330
1F
100
AcDbEntity
  8
LC-001-100-D00-0
  6
ByBlock
 62
     7
370
    50
100
AcDbLine
 10
133.434483
 20
309.255536
 30
0.0
 11
133.434482
 21
314.688876
 31
0.0
  0
LINE
  5
228
330
1F
100
AcDbEntity
  8
LC-001-100-D00-0
  6
ByBlock
 62
     7
370
    50
100
AcDbLine
 10
110.66098
 20
222.755536
 30
0.0
 11
110.66098
 21
212.255536
 31
0.0
  0
LINE
  5
229
330
1F
100
AcDbEntity
  8
LC-001-100-D00-0
  6
ByBlock
 62
     7
370
    50
100
AcDbLine
 10
130.66098
 20
212.255536
 30
0.0
 11
130.66098
 21
222.755536
 31
0.0
  0
LINE
  5
22A
330
1F
100
AcDbEntity
  8
LC-001-100-D00-0
  6
ByBlock
 62
     7
370
    50
100
AcDbLine
 10
110.660978
 20
309.255536
 30
0.0
 11
110.660978
 21
309.155536
 31
0.0
  0
LINE
  5
22B
330
1F
100
AcDbEntity
  8
LC-001-100-D00-0
  6
ByBlock
 62
     7
370
    50
100
AcDbLine
 10
110.660978
 20
255.255533
 30
0.0
 11
110.66098
 21
226.255536
 31
0.0
  0
LINE
  5
22C
330
1F
100
AcDbEntity
  8
LC-001-100-D00-0
  6
ByBlock
 62
     7
370
    50
100
AcDbLine
 10
130.66098
 20
226.255536
 30
0.0
 11
130.660973
 21
280.255535
 31
0.0
  0
LINE
  5
22D
330
1F
100
AcDbEntity
  8
LC-001-100-D00-0
  6
ByBlock
 62
     7
370
    50
100
AcDbLine
 10
130.660973
 20
309.155536
 30
0.0
 11
130.660973
 21
309.255536
 31
0.0
  0
LINE
  5
22E
330
1F
100
AcDbEntity
  8
LC-001-100-D00-0
  6
ByBlock
 62
     7
370
    50
100
AcDbLine
 10
110.66098
 20
212.255536
 30
0.0
 11
111.66098
 21
211.255536
 31
0.0
  0
LINE
  5
22F
330
1F
100
AcDbEntity
  8
LC-001-100-D00-0
  6
ByBlock
 62
     7
370
    50
100
AcDbLine
 10
129.66098
 20
211.255536
 30
0.0
 11
130.66098
 21
212.255536
 31
0.0
  0
LINE
  5
230
330
1F
100
AcDbEntity
  8
LC-001-100-D00-0
  6
ByBlock
 62
     7
370
    50
100
AcDbLine
 10
112.760983
 20
226.255534
 30
0.0
 11
112.760983
 21
222.755534
 31
0.0
  0
LINE
  5
231
330
1F
100
AcDbEntity
  8
LC-001-100-D00-0
  6
ByBlock
 62
     7
370
    50
100
AcDbLine
 10
128.560983
 20
222.755534
 30
0.0
 11
128.560983
 21
226.255534
 31
0.0
  0
LINE
  5
232
330
1F
100
AcDbEntity
  8
LC-001-100-D00-0
  6
ByBlock
 62
     7
370
    50
100
AcDbLine
 10
-289.33902
 20
222.755536
 30
0.0
 11
-289.33902
 21
212.255536
 31
0.0
  0
LINE
  5
233
330
1F
100
AcDbEntity
  8
LC-001-100-D00-0
  6
ByBlock
 62
     7
370
    50
100
AcDbLine
 10
-269.33902
 20
212.255536
 30
0.0
 11
-269.33902
 21
222.755536
 31
0.0
  0
LINE
  5
234
330
1F
100
AcDbEntity
  8
LC-001-100-D00-0
  6
ByBlock
 62
     7
370
    50
100
AcDbLine
 10
-289.339013
 20
280.255535
 30
0.0
 11
-289.33902
 21
226.255536
 31
0.0
  0
LINE
  5
235
330
1F
100
AcDbEntity
  8
LC-001-100-D00-0
  6
ByBlock
 62
     7
370
    50
100
AcDbLine
 10
-269.33902
 20
226.255536
 30
0.0
 11
-269.339018
 21
280.255535
 31
0.0
  0
LINE
  5
236
330
1F
100
AcDbEntity
  8
LC-001-100-D00-0
  6
ByBlock
 62
     7
370
    50
100
AcDbLine
 10
-289.33902
 20
212.255536
 30
0.0
 11
-288.33902
 21
211.255536
 31
0.0
  0
LINE
  5
237
330
1F
100
AcDbEntity
  8
LC-001-100-D00-0
  6
ByBlock
 62
     7
370
    50
100
AcDbLine
 10
-270.33902
 20
211.255536
 30
0.0
 11
-269.33902
 21
212.255536
 31
0.0
  0
LINE
  5
238
330
1F
100
AcDbEntity
  8
LC-001-100-D00-0
  6
ByBlock
 62
     7
370
    50
100
AcDbLine
 10
-287.239023
 20
226.255534
 30
0.0
 11
-287.239023
 21
222.755534
 31
0.0
  0
LINE
  5
239
330
1F
100
AcDbEntity
  8
LC-001-100-D00-0
  6
ByBlock
 62
     7
370
    50
100
AcDbLine
 10
-271.439023
 20
222.755534
 30
0.0
 11
-271.439023
 21
226.255534
 31
0.0
  0
LINE
  5
23A
330
1F
100
AcDbEntity
  8
LC-001-100-D00-0
  6
ByBlock
 62
     7
370
    50
100
AcDbLine
 10
25.86098
 20
321.524303
 30
0.0
 11
25.86098
 21
323.98677
 31
0.0
  0
ARC
  5
23B
330
1F
100
AcDbEntity
  8
LC-001-100-D00-0
  6
ByBlock
 62
     7
370
    50
100
AcDbCircle
 10
26.46098
 20
321.524303
 30
0.0
 40
0.6000000000000227
100
AcDbArc
 50
180.0
 51
255.0
  0
LINE
  5
23C
330
1F
100
AcDbEntity
  8
LC-001-100-D00-0
  6
ByBlock
 62
     7
370
    50
100
AcDbLine
 10
27.011834
 20
320.755535
 30
0.0
 11
26.305689
 21
320.944747
 31
0.0
  0
LINE
  5
23D
330
1F
100
AcDbEntity
  8
LC-001-100-D00-0
  6
ByBlock
 62
     7
370
    50
100
AcDbLine
 10
27.011834
 20
320.755535
 30
0.0
 11
27.011834
 21
318.755537
 31
0.0
  0
LINE
  5
23E
330
1F
100
AcDbEntity
  8
LC-001-100-D00-0
  6
ByBlock
 62
     7
370
    50
100
AcDbLine
 10
24.06098
 20
319.755536
 30
0.0
 11
25.06098
 21
318.755536
 31
0.0
  0
LINE
  5
23F
330
1F
100
AcDbEntity
  8
LC-001-100-D00-0
  6
ByBlock
 62
     7
370
    50
100
AcDbLine
 10
24.06098
 20
319.755536
 30
0.0
 11
24.060979
 21
325.755536
 31
0.0
  0
LINE
  5
240
330
1F
100
AcDbEntity
  8
LC-001-100-D00-0
  6
ByBlock
 62
     7
370
    50
100
AcDbLine
 10
25.060981
 20
326.755536
 30
0.0
 11
24.060979
 21
325.755536
 31
0.0
  0
LINE
  5
241
330
1F
100
AcDbEntity
  8
LC-001-100-D00-0
  6
ByBlock
 62
     7
370
    50
100
AcDbLine
 10
27.011834
 20
326.755536
 30
0.0
 11
27.011834
 21
324.755536
 31
0.0
  0
LINE
  5
242
330
1F
100
AcDbEntity
  8
LC-001-100-D00-0
  6
ByBlock
 62
     7
370
    50
100
AcDbLine
 10
26.305689
 20
324.566325
 30
0.0
 11
27.011834
 21
324.755536
 31
0.0
  0
ARC
  5
243
330
1F
100
AcDbEntity
  8
LC-001-100-D00-0
  6
ByBlock
 62
     7
370
    50
100
AcDbCircle
 10
26.46098
 20
323.98677
 30
0.0
 40
0.600000000000118
100
AcDbArc
 50
105.0
 51
180.0
  0
LINE
  5
244
330
1F
100
AcDbEntity
  8
LC-001-100-D00-0
  6
ByBlock
 62
     7
370
    50
100
AcDbLine
 10
25.06098
 20
318.755536
 30
0.0
 11
27.011834
 21
318.755537
 31
0.0
  0
LINE
  5
245
330
1F
100
AcDbEntity
  8
LC-001-100-D00-0
  6
ByBlock
 62
     7
370
    50
100
AcDbLine
 10
25.060981
 20
326.755536
 30
0.0
 11
27.011834
 21
326.755536
 31
0.0
  0
LINE
  5
246
330
1F
100
AcDbEntity
  8
LC-001-100-D00-0
  6
ByBlock
 62
     7
370
    50
100
AcDbLine
 10
15.46098
 20
323.98677
 30
0.0
 11
15.46098
 21
321.524303
 31
0.0
  0
LINE
  5
247
330
1F
100
AcDbEntity
  8
LC-001-100-D00-0
  6
ByBlock
 62
     7
370
    50
100
AcDbLine
 10
17.260984
 20
325.755536
 30
0.0
 11
16.260982
 21
326.755536
 31
0.0
  0
LINE
  5
248
330
1F
100
AcDbEntity
  8
LC-001-100-D00-0
  6
ByBlock
 62
     7
370
    50
100
AcDbLine
 10
17.260984
 20
325.755536
 30
0.0
 11
17.26098
 21
319.755536
 31
0.0
  0
LINE
  5
249
330
1F
100
AcDbEntity
  8
LC-001-100-D00-0
  6
ByBlock
 62
     7
370
    50
100
AcDbLine
 10
16.26098
 20
318.755536
 30
0.0
 11
17.26098
 21
319.755536
 31
0.0
  0
LINE
  5
24A
330
1F
100
AcDbEntity
  8
LC-001-100-D00-0
  6
ByBlock
 62
     7
370
    50
100
AcDbLine
 10
14.310129
 20
320.755535
 30
0.0
 11
14.310129
 21
318.755537
 31
0.0
  0
LINE
  5
24B
330
1F
100
AcDbEntity
  8
LC-001-100-D00-0
  6
ByBlock
 62
     7
370
    50
100
AcDbLine
 10
15.016271
 20
320.944747
 30
0.0
 11
14.310129
 21
320.755535
 31
0.0
  0
ARC
  5
24C
330
1F
100
AcDbEntity
  8
LC-001-100-D00-0
  6
ByBlock
 62
     7
370
    50
100
AcDbCircle
 10
14.86098
 20
321.524303
 30
0.0
 40
0.600000000000118
100
AcDbArc
 50
285.0
 51
0.0
  0
ARC
  5
24D
330
1F
100
AcDbEntity
  8
LC-001-100-D00-0
  6
ByBlock
 62
     7
370
    50
100
AcDbCircle
 10
14.86098
 20
323.98677
 30
0.0
 40
0.6000000000000227
100
AcDbArc
 50
0.0
 51
75.0
  0
LINE
  5
24E
330
1F
100
AcDbEntity
  8
LC-001-100-D00-0
  6
ByBlock
 62
     7
370
    50
100
AcDbLine
 10
14.310129
 20
324.755536
 30
0.0
 11
15.016271
 21
324.566325
 31
0.0
  0
LINE
  5
24F
330
1F
100
AcDbEntity
  8
LC-001-100-D00-0
  6
ByBlock
 62
     7
370
    50
100
AcDbLine
 10
14.310129
 20
326.755536
 30
0.0
 11
14.310129
 21
324.755536
 31
0.0
  0
LINE
  5
250
330
1F
100
AcDbEntity
  8
LC-001-100-D00-0
  6
ByBlock
 62
     7
370
    50
100
AcDbLine
 10
14.310129
 20
318.755537
 30
0.0
 11
16.26098
 21
318.755536
 31
0.0
  0
LINE
  5
251
330
1F
100
AcDbEntity
  8
LC-001-100-D00-0
  6
ByBlock
 62
     7
370
    50
100
AcDbLine
 10
14.310129
 20
326.755536
 30
0.0
 11
16.260982
 21
326.755536
 31
0.0
  0
LINE
  5
252
330
1F
100
AcDbEntity
  8
LC-001-100-D00-0
  6
ByBlock
 62
     7
370
    50
100
AcDbLine
 10
17.26098
 20
319.755536
 30
0.0
 11
17.41882
 21
319.755536
 31
0.0
  0
LINE
  5
253
330
1F
100
AcDbEntity
  8
LC-001-100-D00-0
  6
ByBlock
 62
     7
370
    50
100
AcDbLine
 10
23.90314
 20
319.755536
 30
0.0
 11
24.06098
 21
319.755536
 31
0.0
  0
LINE
  5
254
330
1F
100
AcDbEntity
  8
LC-001-100-D00-0
  6
ByBlock
 62
     7
370
    50
100
AcDbLine
 10
25.06098
 20
318.755536
 30
0.0
 11
24.525198
 21
318.755536
 31
0.0
  0
LINE
  5
255
330
1F
100
AcDbEntity
  8
LC-001-100-D00-0
  6
ByBlock
 62
     7
370
    50
100
AcDbLine
 10
16.796762
 20
318.755536
 30
0.0
 11
16.26098
 21
318.755536
 31
0.0
  0
LINE
  5
256
330
1F
100
AcDbEntity
  8
LC-001-100-D00-0
  6
ByBlock
 62
     7
370
    50
100
AcDbLine
 10
27.011834
 20
326.755536
 30
0.0
 11
24.56098
 21
326.755536
 31
0.0
  0
LINE
  5
257
330
1F
100
AcDbEntity
  8
LC-001-100-D00-0
  6
ByBlock
 62
     7
370
    50
100
AcDbLine
 10
24.56098
 20
326.755536
 30
0.0
 11
24.56098
 21
337.755536
 31
0.0
  0
LINE
  5
258
330
1F
100
AcDbEntity
  8
LC-001-100-D00-0
  6
ByBlock
 62
     7
370
    50
100
AcDbLine
 10
24.56098
 20
337.755536
 30
0.0
 11
37.91098
 21
337.755536
 31
0.0
  0
ARC
  5
259
330
1F
100
AcDbEntity
  8
LC-001-100-D00-0
  6
ByBlock
 62
     7
370
    50
100
AcDbCircle
 10
37.91098
 20
336.755536
 30
0.0
 40
1.000000000000114
100
AcDbArc
 50
0.0
 51
90.0
  0
LINE
  5
25A
330
1F
100
AcDbEntity
  8
LC-001-100-D00-0
  6
ByBlock
 62
     7
370
    50
100
AcDbLine
 10
38.91098
 20
336.755536
 30
0.0
 11
38.910977
 21
330.755536
 31
0.0
  0
LINE
  5
25B
330
1F
100
AcDbEntity
  8
LC-001-100-D00-0
  6
ByBlock
 62
     7
370
    50
100
AcDbLine
 10
35.91098
 20
330.755536
 30
0.0
 11
38.910977
 21
330.755536
 31
0.0
  0
LINE
  5
25C
330
1F
100
AcDbEntity
  8
LC-001-100-D00-0
  6
ByBlock
 62
     7
370
    50
100
AcDbLine
 10
35.91098
 20
330.755536
 30
0.0
 11
35.910979
 21
334.755536
 31
0.0
  0
LINE
  5
25D
330
1F
100
AcDbEntity
  8
LC-001-100-D00-0
  6
ByBlock
 62
     7
370
    50
100
AcDbLine
 10
31.41098
 20
334.755536
 30
0.0
 11
35.910979
 21
334.755536
 31
0.0
  0
ARC
  5
25E
330
1F
100
AcDbEntity
  8
LC-001-100-D00-0
  6
ByBlock
 62
     7
370
    50
100
AcDbCircle
 10
31.41098
 20
333.755536
 30
0.0
 40
1.0
100
AcDbArc
 50
90.0
 51
180.0
  0
LINE
  5
25F
330
1F
100
AcDbEntity
  8
LC-001-100-D00-0
  6
ByBlock
 62
     7
370
    50
100
AcDbLine
 10
30.41098
 20
319.755536
 30
0.0
 11
30.41098
 21
333.755536
 31
0.0
  0
ARC
  5
260
330
1F
100
AcDbEntity
  8
LC-001-100-D00-0
  6
ByBlock
 62
     7
370
    50
100
AcDbCircle
 10
29.41098
 20
319.755536
 30
0.0
 40
0.9999999999997726
100
AcDbArc
 50
270.0
 51
0.0
  0
LINE
  5
261
330
1F
100
AcDbEntity
  8
LC-001-100-D00-0
  6
ByBlock
 62
     7
370
    50
100
AcDbLine
 10
29.41098
 20
318.755536
 30
0.0
 11
27.011834
 21
318.755537
 31
0.0
  0
LINE
  5
262
330
1F
100
AcDbEntity
  8
LC-001-100-D00-0
  6
ByBlock
 62
     7
370
    50
100
AcDbLine
 10
27.011834
 20
320.755535
 30
0.0
 11
27.011834
 21
318.755537
 31
0.0
  0
LINE
  5
263
330
1F
100
AcDbEntity
  8
LC-001-100-D00-0
  6
ByBlock
 62
     7
370
    50
100
AcDbLine
 10
26.36098
 20
320.755536
 30
0.0
 11
27.011834
 21
320.755535
 31
0.0
  0
ARC
  5
264
330
1F
100
AcDbEntity
  8
LC-001-100-D00-0
  6
ByBlock
 62
     7
370
    50
100
AcDbCircle
 10
26.36098
 20
321.255536
 30
0.0
 40
0.4999999999998863
100
AcDbArc
 50
180.0
 51
270.0
  0
LINE
  5
265
330
1F
100
AcDbEntity
  8
LC-001-100-D00-0
  6
ByBlock
 62
     7
370
    50
100
AcDbLine
 10
25.86098
 20
324.255536
 30
0.0
 11
25.86098
 21
321.255536
 31
0.0
  0
ARC
  5
266
330
1F
100
AcDbEntity
  8
LC-001-100-D00-0
  6
ByBlock
 62
     7
370
    50
100
AcDbCircle
 10
26.36098
 20
324.255536
 30
0.0
 40
0.5
100
AcDbArc
 50
90.0
 51
180.0
  0
LINE
  5
267
330
1F
100
AcDbEntity
  8
LC-001-100-D00-0
  6
ByBlock
 62
     7
370
    50
100
AcDbLine
 10
27.011834
 20
324.755536
 30
0.0
 11
26.36098
 21
324.755536
 31
0.0
  0
LINE
  5
268
330
1F
100
AcDbEntity
  8
LC-001-100-D00-0
  6
ByBlock
 62
     7
370
    50
100
AcDbLine
 10
27.011834
 20
326.755536
 30
0.0
 11
27.011834
 21
324.755536
 31
0.0
  0
ARC
  5
269
330
1F
100
AcDbEntity
  8
LC-001-100-D00-0
  6
ByBlock
 62
     7
370
    50
100
AcDbCircle
 10
9.91098
 20
333.755536
 30
0.0
 40
1.000000000000114
100
AcDbArc
 50
0.0
 51
90.0
  0
LINE
  5
26A
330
1F
100
AcDbEntity
  8
LC-001-100-D00-0
  6
ByBlock
 62
     7
370
    50
100
AcDbLine
 10
10.91098
 20
333.755536
 30
0.0
 11
10.91098
 21
319.755536
 31
0.0
  0
ARC
  5
26B
330
1F
100
AcDbEntity
  8
LC-001-100-D00-0
  6
ByBlock
 62
     7
370
    50
100
AcDbCircle
 10
11.91098
 20
319.755536
 30
0.0
 40
1.0
100
AcDbArc
 50
180.0
 51
270.0
  0
LINE
  5
26C
330
1F
100
AcDbEntity
  8
LC-001-100-D00-0
  6
ByBlock
 62
     7
370
    50
100
AcDbLine
 10
15.46098
 20
321.255536
 30
0.0
 11
15.46098
 21
324.255536
 31
0.0
  0
LINE
  5
26D
330
1F
100
AcDbEntity
  8
LC-001-100-D00-0
  6
ByBlock
 62
     7
370
    50
100
AcDbLine
 10
16.76098
 20
337.755536
 30
0.0
 11
16.760983
 21
326.755536
 31
0.0
  0
LINE
  5
26E
330
1F
100
AcDbEntity
  8
LC-001-100-D00-0
  6
ByBlock
 62
     7
370
    50
100
AcDbLine
 10
16.76098
 20
337.755536
 30
0.0
 11
24.56098
 21
337.755536
 31
0.0
  0
LINE
  5
26F
330
1F
100
AcDbEntity
  8
LC-001-100-D00-0
  6
ByBlock
 62
     7
370
    50
100
AcDbLine
 10
14.310129
 20
326.755536
 30
0.0
 11
14.310129
 21
324.755536
 31
0.0
  0
LINE
  5
270
330
1F
100
AcDbEntity
  8
LC-001-100-D00-0
  6
ByBlock
 62
     7
370
    50
100
AcDbLine
 10
14.310129
 20
320.755535
 30
0.0
 11
14.310129
 21
318.755537
 31
0.0
  0
ARC
  5
271
330
1F
100
AcDbEntity
  8
LC-001-100-D00-0
  6
ByBlock
 62
     7
370
    50
100
AcDbCircle
 10
14.96098
 20
321.255536
 30
0.0
 40
0.5
100
AcDbArc
 50
270.0
 51
0.0
  0
LINE
  5
272
330
1F
100
AcDbEntity
  8
LC-001-100-D00-0
  6
ByBlock
 62
     7
370
    50
100
AcDbLine
 10
14.310129
 20
320.755535
 30
0.0
 11
14.96098
 21
320.755536
 31
0.0
  0
LINE
  5
273
330
1F
100
AcDbEntity
  8
LC-001-100-D00-0
  6
ByBlock
 62
     7
370
    50
100
AcDbLine
 10
5.410977
 20
334.755536
 30
0.0
 11
5.41098
 21
330.755536
 31
0.0
  0
LINE
  5
274
330
1F
100
AcDbEntity
  8
LC-001-100-D00-0
  6
ByBlock
 62
     7
370
    50
100
AcDbLine
 10
2.410978
 20
330.755536
 30
0.0
 11
2.41098
 21
336.755536
 31
0.0
  0
ARC
  5
275
330
1F
100
AcDbEntity
  8
LC-001-100-D00-0
  6
ByBlock
 62
     7
370
    50
100
AcDbCircle
 10
3.41098
 20
336.755536
 30
0.0
 40
1.000000000000227
100
AcDbArc
 50
90.0
 51
180.0
  0
LINE
  5
276
330
1F
100
AcDbEntity
  8
LC-001-100-D00-0
  6
ByBlock
 62
     7
370
    50
100
AcDbLine
 10
14.96098
 20
324.755536
 30
0.0
 11
14.310129
 21
324.755536
 31
0.0
  0
ARC
  5
277
330
1F
100
AcDbEntity
  8
LC-001-100-D00-0
  6
ByBlock
 62
     7
370
    50
100
AcDbCircle
 10
14.96098
 20
324.255536
 30
0.0
 40
0.5
100
AcDbArc
 50
0.0
 51
90.0
  0
LINE
  5
278
330
1F
100
AcDbEntity
  8
LC-001-100-D00-0
  6
ByBlock
 62
     7
370
    50
100
AcDbLine
 10
16.760983
 20
326.755536
 30
0.0
 11
14.310129
 21
326.755536
 31
0.0
  0
LINE
  5
279
330
1F
100
AcDbEntity
  8
LC-001-100-D00-0
  6
ByBlock
 62
     7
370
    50
100
AcDbLine
 10
14.310129
 20
318.755537
 30
0.0
 11
11.91098
 21
318.755536
 31
0.0
  0
LINE
  5
27A
330
1F
100
AcDbEntity
  8
LC-001-100-D00-0
  6
ByBlock
 62
     7
370
    50
100
AcDbLine
 10
2.410978
 20
330.755536
 30
0.0
 11
5.41098
 21
330.755536
 31
0.0
  0
LINE
  5
27B
330
1F
100
AcDbEntity
  8
LC-001-100-D00-0
  6
ByBlock
 62
     7
370
    50
100
AcDbLine
 10
5.410977
 20
334.755536
 30
0.0
 11
9.91098
 21
334.755536
 31
0.0
  0
LINE
  5
27C
330
1F
100
AcDbEntity
  8
LC-001-100-D00-0
  6
ByBlock
 62
     7
370
    50
100
AcDbLine
 10
3.41098
 20
337.755536
 30
0.0
 11
16.76098
 21
337.755536
 31
0.0
  0
LINE
  5
27D
330
1F
100
AcDbEntity
  8
LC-001-100-D00-0
  6
ByBlock
 62
     7
370
    50
100
AcDbLine
 10
33.91098
 20
330.755536
 30
0.0
 11
35.91098
 21
330.755536
 31
0.0
  0
LINE
  5
27E
330
1F
100
AcDbEntity
  8
LC-001-100-D00-0
  6
ByBlock
 62
     7
370
    50
100
AcDbLine
 10
5.41098
 20
330.755536
 30
0.0
 11
7.41098
 21
330.755536
 31
0.0
  0
LINE
  5
27F
330
1F
100
AcDbEntity
  8
LC-001-100-D00-0
  6
ByBlock
 62
     7
370
    50
100
AcDbLine
 10
7.41098
 20
330.755536
 30
0.0
 11
10.91098
 21
330.755536
 31
0.0
  0
LINE
  5
280
330
1F
100
AcDbEntity
  8
LC-001-100-D00-0
  6
ByBlock
 62
     7
370
    50
100
AcDbLine
 10
30.410983
 20
330.755536
 30
0.0
 11
33.91098
 21
330.755536
 31
0.0
  0
LINE
  5
281
330
1F
100
AcDbEntity
  8
LC-001-100-D00-0
  6
ByBlock
 62
     7
370
    50
100
AcDbLine
 10
-294.13902
 20
321.524303
 30
0.0
 11
-294.13902
 21
323.98677
 31
0.0
  0
ARC
  5
282
330
1F
100
AcDbEntity
  8
LC-001-100-D00-0
  6
ByBlock
 62
     7
370
    50
100
AcDbCircle
 10
-293.53902
 20
321.524303
 30
0.0
 40
0.6000000000000227
100
AcDbArc
 50
180.0
 51
255.0
  0
LINE
  5
283
330
1F
100
AcDbEntity
  8
LC-001-100-D00-0
  6
ByBlock
 62
     7
370
    50
100
AcDbLine
 10
-292.988174
 20
320.755535
 30
0.0
 11
-293.694311
 21
320.944747
 31
0.0
  0
LINE
  5
284
330
1F
100
AcDbEntity
  8
LC-001-100-D00-0
  6
ByBlock
 62
     7
370
    50
100
AcDbLine
 10
-292.988174
 20
320.755535
 30
0.0
 11
-292.988174
 21
318.755537
 31
0.0
  0
LINE
  5
285
330
1F
100
AcDbEntity
  8
LC-001-100-D00-0
  6
ByBlock
 62
     7
370
    50
100
AcDbLine
 10
-295.93902
 20
319.755536
 30
0.0
 11
-294.93902
 21
318.755536
 31
0.0
  0
LINE
  5
286
330
1F
100
AcDbEntity
  8
LC-001-100-D00-0
  6
ByBlock
 62
     7
370
    50
100
AcDbLine
 10
-295.93902
 20
319.755536
 30
0.0
 11
-295.939021
 21
325.755536
 31
0.0
  0
LINE
  5
287
330
1F
100
AcDbEntity
  8
LC-001-100-D00-0
  6
ByBlock
 62
     7
370
    50
100
AcDbLine
 10
-294.939019
 20
326.755536
 30
0.0
 11
-295.939021
 21
325.755536
 31
0.0
  0
LINE
  5
288
330
1F
100
AcDbEntity
  8
LC-001-100-D00-0
  6
ByBlock
 62
     7
370
    50
100
AcDbLine
 10
-292.988174
 20
326.755536
 30
0.0
 11
-292.988174
 21
324.755536
 31
0.0
  0
LINE
  5
289
330
1F
100
AcDbEntity
  8
LC-001-100-D00-0
  6
ByBlock
 62
     7
370
    50
100
AcDbLine
 10
-293.694311
 20
324.566325
 30
0.0
 11
-292.988174
 21
324.755536
 31
0.0
  0
ARC
  5
28A
330
1F
100
AcDbEntity
  8
LC-001-100-D00-0
  6
ByBlock
 62
     7
370
    50
100
AcDbCircle
 10
-293.53902
 20
323.98677
 30
0.0
 40
0.6000000000000886
100
AcDbArc
 50
105.0
 51
180.0
  0
LINE
  5
28B
330
1F
100
AcDbEntity
  8
LC-001-100-D00-0
  6
ByBlock
 62
     7
370
    50
100
AcDbLine
 10
-294.93902
 20
318.755536
 30
0.0
 11
-292.988174
 21
318.755537
 31
0.0
  0
LINE
  5
28C
330
1F
100
AcDbEntity
  8
LC-001-100-D00-0
  6
ByBlock
 62
     7
370
    50
100
AcDbLine
 10
-294.939019
 20
326.755536
 30
0.0
 11
-292.988174
 21
326.755536
 31
0.0
  0
LINE
  5
28D
330
1F
100
AcDbEntity
  8
LC-001-100-D00-0
  6
ByBlock
 62
     7
370
    50
100
AcDbLine
 10
-304.53902
 20
323.98677
 30
0.0
 11
-304.53902
 21
321.524303
 31
0.0
  0
LINE
  5
28E
330
1F
100
AcDbEntity
  8
LC-001-100-D00-0
  6
ByBlock
 62
     7
370
    50
100
AcDbLine
 10
-302.739017
 20
325.755536
 30
0.0
 11
-303.739019
 21
326.755536
 31
0.0
  0
LINE
  5
28F
330
1F
100
AcDbEntity
  8
LC-001-100-D00-0
  6
ByBlock
 62
     7
370
    50
100
AcDbLine
 10
-302.739017
 20
325.755536
 30
0.0
 11
-302.73902
 21
319.755536
 31
0.0
  0
LINE
  5
290
330
1F
100
AcDbEntity
  8
LC-001-100-D00-0
  6
ByBlock
 62
     7
370
    50
100
AcDbLine
 10
-303.73902
 20
318.755536
 30
0.0
 11
-302.73902
 21
319.755536
 31
0.0
  0
LINE
  5
291
330
1F
100
AcDbEntity
  8
LC-001-100-D00-0
  6
ByBlock
 62
     7
370
    50
100
AcDbLine
 10
-305.689879
 20
320.755535
 30
0.0
 11
-305.689879
 21
318.755537
 31
0.0
  0
LINE
  5
292
330
1F
100
AcDbEntity
  8
LC-001-100-D00-0
  6
ByBlock
 62
     7
370
    50
100
AcDbLine
 10
-304.983729
 20
320.944747
 30
0.0
 11
-305.689879
 21
320.755535
 31
0.0
  0
ARC
  5
293
330
1F
100
AcDbEntity
  8
LC-001-100-D00-0
  6
ByBlock
 62
     7
370
    50
100
AcDbCircle
 10
-305.13902
 20
321.524303
 30
0.0
 40
0.6000000000001032
100
AcDbArc
 50
285.0
 51
0.0
  0
ARC
  5
294
330
1F
100
AcDbEntity
  8
LC-001-100-D00-0
  6
ByBlock
 62
     7
370
    50
100
AcDbCircle
 10
-305.13902
 20
323.98677
 30
0.0
 40
0.5999999999999659
100
AcDbArc
 50
0.0
 51
75.0
  0
LINE
  5
295
330
1F
100
AcDbEntity
  8
LC-001-100-D00-0
  6
ByBlock
 62
     7
370
    50
100
AcDbLine
 10
-305.689879
 20
324.755536
 30
0.0
 11
-304.983729
 21
324.566325
 31
0.0
  0
LINE
  5
296
330
1F
100
AcDbEntity
  8
LC-001-100-D00-0
  6
ByBlock
 62
     7
370
    50
100
AcDbLine
 10
-305.689879
 20
326.755536
 30
0.0
 11
-305.689879
 21
324.755536
 31
0.0
  0
LINE
  5
297
330
1F
100
AcDbEntity
  8
LC-001-100-D00-0
  6
ByBlock
 62
     7
370
    50
100
AcDbLine
 10
-305.689879
 20
318.755537
 30
0.0
 11
-303.73902
 21
318.755536
 31
0.0
  0
LINE
  5
298
330
1F
100
AcDbEntity
  8
LC-001-100-D00-0
  6
ByBlock
 62
     7
370
    50
100
AcDbLine
 10
-305.689879
 20
326.755536
 30
0.0
 11
-303.739019
 21
326.755536
 31
0.0
  0
LINE
  5
299
330
1F
100
AcDbEntity
  8
LC-001-100-D00-0
  6
ByBlock
 62
     7
370
    50
100
AcDbLine
 10
-302.73902
 20
319.755536
 30
0.0
 11
-302.58118
 21
319.755536
 31
0.0
  0
LINE
  5
29A
330
1F
100
AcDbEntity
  8
LC-001-100-D00-0
  6
ByBlock
 62
     7
370
    50
100
AcDbLine
 10
-296.09686
 20
319.755536
 30
0.0
 11
-295.93902
 21
319.755536
 31
0.0
  0
LINE
  5
29B
330
1F
100
AcDbEntity
  8
LC-001-100-D00-0
  6
ByBlock
 62
     7
370
    50
100
AcDbLine
 10
-294.93902
 20
318.755536
 30
0.0
 11
-295.474802
 21
318.755536
 31
0.0
  0
LINE
  5
29C
330
1F
100
AcDbEntity
  8
LC-001-100-D00-0
  6
ByBlock
 62
     7
370
    50
100
AcDbLine
 10
-303.203238
 20
318.755536
 30
0.0
 11
-303.73902
 21
318.755536
 31
0.0
  0
LINE
  5
29D
330
1F
100
AcDbEntity
  8
LC-001-100-D00-0
  6
ByBlock
 62
     7
370
    50
100
AcDbLine
 10
-292.988174
 20
326.755536
 30
0.0
 11
-295.439027
 21
326.755536
 31
0.0
  0
LINE
  5
29E
330
1F
100
AcDbEntity
  8
LC-001-100-D00-0
  6
ByBlock
 62
     7
370
    50
100
AcDbLine
 10
-295.439027
 20
326.755536
 30
0.0
 11
-295.43902
 21
337.755536
 31
0.0
  0
LINE
  5
29F
330
1F
100
AcDbEntity
  8
LC-001-100-D00-0
  6
ByBlock
 62
     7
370
    50
100
AcDbLine
 10
-295.43902
 20
337.755536
 30
0.0
 11
-282.08902
 21
337.755536
 31
0.0
  0
ARC
  5
2A0
330
1F
100
AcDbEntity
  8
LC-001-100-D00-0
  6
ByBlock
 62
     7
370
    50
100
AcDbCircle
 10
-282.08902
 20
336.755536
 30
0.0
 40
1.000000000000114
100
AcDbArc
 50
0.0
 51
90.0
  0
LINE
  5
2A1
330
1F
100
AcDbEntity
  8
LC-001-100-D00-0
  6
ByBlock
 62
     7
370
    50
100
AcDbLine
 10
-281.08902
 20
336.755536
 30
0.0
 11
-281.089015
 21
330.755536
 31
0.0
  0
LINE
  5
2A2
330
1F
100
AcDbEntity
  8
LC-001-100-D00-0
  6
ByBlock
 62
     7
370
    50
100
AcDbLine
 10
-284.08902
 20
330.755536
 30
0.0
 11
-281.089015
 21
330.755536
 31
0.0
  0
LINE
  5
2A3
330
1F
100
AcDbEntity
  8
LC-001-100-D00-0
  6
ByBlock
 62
     7
370
    50
100
AcDbLine
 10
-284.08902
 20
330.755536
 30
0.0
 11
-284.089021
 21
334.755536
 31
0.0
  0
LINE
  5
2A4
330
1F
100
AcDbEntity
  8
LC-001-100-D00-0
  6
ByBlock
 62
     7
370
    50
100
AcDbLine
 10
-288.58902
 20
334.755536
 30
0.0
 11
-284.089021
 21
334.755536
 31
0.0
  0
ARC
  5
2A5
330
1F
100
AcDbEntity
  8
LC-001-100-D00-0
  6
ByBlock
 62
     7
370
    50
100
AcDbCircle
 10
-288.58902
 20
333.755536
 30
0.0
 40
1.0
100
AcDbArc
 50
90.0
 51
180.0
  0
LINE
  5
2A6
330
1F
100
AcDbEntity
  8
LC-001-100-D00-0
  6
ByBlock
 62
     7
370
    50
100
AcDbLine
 10
-289.58902
 20
319.755536
 30
0.0
 11
-289.58902
 21
333.755536
 31
0.0
  0
ARC
  5
2A7
330
1F
100
AcDbEntity
  8
LC-001-100-D00-0
  6
ByBlock
 62
     7
370
    50
100
AcDbCircle
 10
-290.58902
 20
319.755536
 30
0.0
 40
0.9999999999997726
100
AcDbArc
 50
270.0
 51
0.0
  0
LINE
  5
2A8
330
1F
100
AcDbEntity
  8
LC-001-100-D00-0
  6
ByBlock
 62
     7
370
    50
100
AcDbLine
 10
-290.58902
 20
318.755536
 30
0.0
 11
-292.988174
 21
318.755537
 31
0.0
  0
LINE
  5
2A9
330
1F
100
AcDbEntity
  8
LC-001-100-D00-0
  6
ByBlock
 62
     7
370
    50
100
AcDbLine
 10
-292.988174
 20
320.755535
 30
0.0
 11
-292.988174
 21
318.755537
 31
0.0
  0
LINE
  5
2AA
330
1F
100
AcDbEntity
  8
LC-001-100-D00-0
  6
ByBlock
 62
     7
370
    50
100
AcDbLine
 10
-293.63902
 20
320.755536
 30
0.0
 11
-292.988174
 21
320.755535
 31
0.0
  0
ARC
  5
2AB
330
1F
100
AcDbEntity
  8
LC-001-100-D00-0
  6
ByBlock
 62
     7
370
    50
100
AcDbCircle
 10
-293.63902
 20
321.255536
 30
0.0
 40
0.5000000000000568
100
AcDbArc
 50
180.0
 51
270.0
  0
LINE
  5
2AC
330
1F
100
AcDbEntity
  8
LC-001-100-D00-0
  6
ByBlock
 62
     7
370
    50
100
AcDbLine
 10
-294.13902
 20
324.255536
 30
0.0
 11
-294.13902
 21
321.255536
 31
0.0
  0
ARC
  5
2AD
330
1F
100
AcDbEntity
  8
LC-001-100-D00-0
  6
ByBlock
 62
     7
370
    50
100
AcDbCircle
 10
-293.63902
 20
324.255536
 30
0.0
 40
0.5
100
AcDbArc
 50
90.0
 51
180.0
  0
LINE
  5
2AE
330
1F
100
AcDbEntity
  8
LC-001-100-D00-0
  6
ByBlock
 62
     7
370
    50
100
AcDbLine
 10
-292.988174
 20
324.755536
 30
0.0
 11
-293.63902
 21
324.755536
 31
0.0
  0
LINE
  5
2AF
330
1F
100
AcDbEntity
  8
LC-001-100-D00-0
  6
ByBlock
 62
     7
370
    50
100
AcDbLine
 10
-292.988174
 20
326.755536
 30
0.0
 11
-292.988174
 21
324.755536
 31
0.0
  0
ARC
  5
2B0
330
1F
100
AcDbEntity
  8
LC-001-100-D00-0
  6
ByBlock
 62
     7
370
    50
100
AcDbCircle
 10
-310.08902
 20
333.755536
 30
0.0
 40
1.000000000000114
100
AcDbArc
 50
0.0
 51
90.0
  0
ARC
  5
2B1
330
1F
100
AcDbEntity
  8
LC-001-100-D00-0
  6
ByBlock
 62
     7
370
    50
100
AcDbCircle
 10
-308.08902
 20
319.755536
 30
0.0
 40
1.0
100
AcDbArc
 50
180.0
 51
270.0
  0
LINE
  5
2B2
330
1F
100
AcDbEntity
  8
LC-001-100-D00-0
  6
ByBlock
 62
     7
370
    50
100
AcDbLine
 10
-309.08902
 20
333.755536
 30
0.0
 11
-309.08902
 21
319.755536
 31
0.0
  0
LINE
  5
2B3
330
1F
100
AcDbEntity
  8
LC-001-100-D00-0
  6
ByBlock
 62
     7
370
    50
100
AcDbLine
 10
-304.53902
 20
321.255536
 30
0.0
 11
-304.53902
 21
324.255536
 31
0.0
  0
LINE
  5
2B4
330
1F
100
AcDbEntity
  8
LC-001-100-D00-0
  6
ByBlock
 62
     7
370
    50
100
AcDbLine
 10
-303.23902
 20
337.755536
 30
0.0
 11
-303.239025
 21
326.755536
 31
0.0
  0
LINE
  5
2B5
330
1F
100
AcDbEntity
  8
LC-001-100-D00-0
  6
ByBlock
 62
     7
370
    50
100
AcDbLine
 10
-303.23902
 20
337.755536
 30
0.0
 11
-295.43902
 21
337.755536
 31
0.0
  0
LINE
  5
2B6
330
1F
100
AcDbEntity
  8
LC-001-100-D00-0
  6
ByBlock
 62
     7
370
    50
100
AcDbLine
 10
-305.689879
 20
320.755535
 30
0.0
 11
-305.689879
 21
318.755537
 31
0.0
  0
LINE
  5
2B7
330
1F
100
AcDbEntity
  8
LC-001-100-D00-0
  6
ByBlock
 62
     7
370
    50
100
AcDbLine
 10
-305.689879
 20
326.755536
 30
0.0
 11
-305.689879
 21
324.755536
 31
0.0
  0
ARC
  5
2B8
330
1F
100
AcDbEntity
  8
LC-001-100-D00-0
  6
ByBlock
 62
     7
370
    50
100
AcDbCircle
 10
-305.03902
 20
321.255536
 30
0.0
 40
0.5
100
AcDbArc
 50
270.0
 51
0.0
  0
LINE
  5
2B9
330
1F
100
AcDbEntity
  8
LC-001-100-D00-0
  6
ByBlock
 62
     7
370
    50
100
AcDbLine
 10
-305.689879
 20
320.755535
 30
0.0
 11
-305.03902
 21
320.755536
 31
0.0
  0
LINE
  5
2BA
330
1F
100
AcDbEntity
  8
LC-001-100-D00-0
  6
ByBlock
 62
     7
370
    50
100
AcDbLine
 10
-314.589016
 20
334.755536
 30
0.0
 11
-314.58902
 21
330.755536
 31
0.0
  0
LINE
  5
2BB
330
1F
100
AcDbEntity
  8
LC-001-100-D00-0
  6
ByBlock
 62
     7
370
    50
100
AcDbLine
 10
-317.589022
 20
330.755536
 30
0.0
 11
-317.58902
 21
336.755536
 31
0.0
  0
ARC
  5
2BC
330
1F
100
AcDbEntity
  8
LC-001-100-D00-0
  6
ByBlock
 62
     7
370
    50
100
AcDbCircle
 10
-316.58902
 20
336.755536
 30
0.0
 40
1.000000000000227
100
AcDbArc
 50
90.0
 51
180.0
  0
LINE
  5
2BD
330
1F
100
AcDbEntity
  8
LC-001-100-D00-0
  6
ByBlock
 62
     7
370
    50
100
AcDbLine
 10
-305.03902
 20
324.755536
 30
0.0
 11
-305.689879
 21
324.755536
 31
0.0
  0
ARC
  5
2BE
330
1F
100
AcDbEntity
  8
LC-001-100-D00-0
  6
ByBlock
 62
     7
370
    50
100
AcDbCircle
 10
-305.03902
 20
324.255536
 30
0.0
 40
0.5
100
AcDbArc
 50
0.0
 51
90.0
  0
LINE
  5
2BF
330
1F
100
AcDbEntity
  8
LC-001-100-D00-0
  6
ByBlock
 62
     7
370
    50
100
AcDbLine
 10
-317.589022
 20
330.755536
 30
0.0
 11
-314.58902
 21
330.755536
 31
0.0
  0
LINE
  5
2C0
330
1F
100
AcDbEntity
  8
LC-001-100-D00-0
  6
ByBlock
 62
     7
370
    50
100
AcDbLine
 10
-303.239025
 20
326.755536
 30
0.0
 11
-305.689879
 21
326.755536
 31
0.0
  0
LINE
  5
2C1
330
1F
100
AcDbEntity
  8
LC-001-100-D00-0
  6
ByBlock
 62
     7
370
    50
100
AcDbLine
 10
-305.689879
 20
318.755537
 30
0.0
 11
-308.08902
 21
318.755536
 31
0.0
  0
LINE
  5
2C2
330
1F
100
AcDbEntity
  8
LC-001-100-D00-0
  6
ByBlock
 62
     7
370
    50
100
AcDbLine
 10
-314.589016
 20
334.755536
 30
0.0
 11
-310.08902
 21
334.755536
 31
0.0
  0
LINE
  5
2C3
330
1F
100
AcDbEntity
  8
LC-001-100-D00-0
  6
ByBlock
 62
     7
370
    50
100
AcDbLine
 10
-316.58902
 20
337.755536
 30
0.0
 11
-303.23902
 21
337.755536
 31
0.0
  0
LINE
  5
2C4
330
1F
100
AcDbEntity
  8
LC-001-100-D00-0
  6
ByBlock
 62
     7
370
    50
100
AcDbLine
 10
-286.08902
 20
330.755536
 30
0.0
 11
-284.08902
 21
330.755536
 31
0.0
  0
LINE
  5
2C5
330
1F
100
AcDbEntity
  8
LC-001-100-D00-0
  6
ByBlock
 62
     7
370
    50
100
AcDbLine
 10
-314.58902
 20
330.755536
 30
0.0
 11
-312.58902
 21
330.755536
 31
0.0
  0
LINE
  5
2C6
330
1F
100
AcDbEntity
  8
LC-001-100-D00-0
  6
ByBlock
 62
     7
370
    50
100
AcDbLine
 10
-312.58902
 20
330.755536
 30
0.0
 11
-309.089027
 21
330.755536
 31
0.0
  0
LINE
  5
2C7
330
1F
100
AcDbEntity
  8
LC-001-100-D00-0
  6
ByBlock
 62
     7
370
    50
100
AcDbLine
 10
-289.589025
 20
330.755536
 30
0.0
 11
-286.08902
 21
330.755536
 31
0.0
  0
LINE
  5
2C8
330
1F
100
AcDbEntity
  8
LC-001-100-D00-0
  6
ByBlock
 62
     7
370
    50
100
AcDbLine
 10
-174.13902
 20
321.524303
 30
0.0
 11
-174.13902
 21
323.98677
 31
0.0
  0
ARC
  5
2C9
330
1F
100
AcDbEntity
  8
LC-001-100-D00-0
  6
ByBlock
 62
     7
370
    50
100
AcDbCircle
 10
-173.53902
 20
321.524303
 30
0.0
 40
0.6000000000000227
100
AcDbArc
 50
180.0
 51
255.0
  0
LINE
  5
2CA
330
1F
100
AcDbEntity
  8
LC-001-100-D00-0
  6
ByBlock
 62
     7
370
    50
100
AcDbLine
 10
-172.988169
 20
320.755535
 30
0.0
 11
-173.694311
 21
320.944747
 31
0.0
  0
LINE
  5
2CB
330
1F
100
AcDbEntity
  8
LC-001-100-D00-0
  6
ByBlock
 62
     7
370
    50
100
AcDbLine
 10
-172.988169
 20
320.755535
 30
0.0
 11
-172.988169
 21
318.755537
 31
0.0
  0
LINE
  5
2CC
330
1F
100
AcDbEntity
  8
LC-001-100-D00-0
  6
ByBlock
 62
     7
370
    50
100
AcDbLine
 10
-175.93902
 20
319.755536
 30
0.0
 11
-174.93902
 21
318.755536
 31
0.0
  0
LINE
  5
2CD
330
1F
100
AcDbEntity
  8
LC-001-100-D00-0
  6
ByBlock
 62
     7
370
    50
100
AcDbLine
 10
-175.93902
 20
319.755536
 30
0.0
 11
-175.939024
 21
325.755536
 31
0.0
  0
LINE
  5
2CE
330
1F
100
AcDbEntity
  8
LC-001-100-D00-0
  6
ByBlock
 62
     7
370
    50
100
AcDbLine
 10
-174.939022
 20
326.755536
 30
0.0
 11
-175.939024
 21
325.755536
 31
0.0
  0
LINE
  5
2CF
330
1F
100
AcDbEntity
  8
LC-001-100-D00-0
  6
ByBlock
 62
     7
370
    50
100
AcDbLine
 10
-172.988169
 20
326.755536
 30
0.0
 11
-172.988169
 21
324.755536
 31
0.0
  0
LINE
  5
2D0
330
1F
100
AcDbEntity
  8
LC-001-100-D00-0
  6
ByBlock
 62
     7
370
    50
100
AcDbLine
 10
-173.694311
 20
324.566325
 30
0.0
 11
-172.988169
 21
324.755536
 31
0.0
  0
ARC
  5
2D1
330
1F
100
AcDbEntity
  8
LC-001-100-D00-0
  6
ByBlock
 62
     7
370
    50
100
AcDbCircle
 10
-173.53902
 20
323.98677
 30
0.0
 40
0.6000000000000886
100
AcDbArc
 50
105.0
 51
180.0
  0
LINE
  5
2D2
330
1F
100
AcDbEntity
  8
LC-001-100-D00-0
  6
ByBlock
 62
     7
370
    50
100
AcDbLine
 10
-174.93902
 20
318.755536
 30
0.0
 11
-172.988169
 21
318.755537
 31
0.0
  0
LINE
  5
2D3
330
1F
100
AcDbEntity
  8
LC-001-100-D00-0
  6
ByBlock
 62
     7
370
    50
100
AcDbLine
 10
-174.939022
 20
326.755536
 30
0.0
 11
-172.988169
 21
326.755536
 31
0.0
  0
LINE
  5
2D4
330
1F
100
AcDbEntity
  8
LC-001-100-D00-0
  6
ByBlock
 62
     7
370
    50
100
AcDbLine
 10
-184.53902
 20
323.98677
 30
0.0
 11
-184.53902
 21
321.524303
 31
0.0
  0
LINE
  5
2D5
330
1F
100
AcDbEntity
  8
LC-001-100-D00-0
  6
ByBlock
 62
     7
370
    50
100
AcDbLine
 10
-182.739019
 20
325.755536
 30
0.0
 11
-183.739021
 21
326.755536
 31
0.0
  0
LINE
  5
2D6
330
1F
100
AcDbEntity
  8
LC-001-100-D00-0
  6
ByBlock
 62
     7
370
    50
100
AcDbLine
 10
-182.739019
 20
325.755536
 30
0.0
 11
-182.73902
 21
319.755536
 31
0.0
  0
LINE
  5
2D7
330
1F
100
AcDbEntity
  8
LC-001-100-D00-0
  6
ByBlock
 62
     7
370
    50
100
AcDbLine
 10
-183.73902
 20
318.755536
 30
0.0
 11
-182.73902
 21
319.755536
 31
0.0
  0
LINE
  5
2D8
330
1F
100
AcDbEntity
  8
LC-001-100-D00-0
  6
ByBlock
 62
     7
370
    50
100
AcDbLine
 10
-184.983729
 20
320.944747
 30
0.0
 11
-185.689874
 21
320.755535
 31
0.0
  0
ARC
  5
2D9
330
1F
100
AcDbEntity
  8
LC-001-100-D00-0
  6
ByBlock
 62
     7
370
    50
100
AcDbCircle
 10
-185.13902
 20
321.524303
 30
0.0
 40
0.6000000000000886
100
AcDbArc
 50
285.0
 51
0.0
  0
ARC
  5
2DA
330
1F
100
AcDbEntity
  8
LC-001-100-D00-0
  6
ByBlock
 62
     7
370
    50
100
AcDbCircle
 10
-185.13902
 20
323.98677
 30
0.0
 40
0.6000000000000227
100
AcDbArc
 50
0.0
 51
75.0
  0
LINE
  5
2DB
330
1F
100
AcDbEntity
  8
LC-001-100-D00-0
  6
ByBlock
 62
     7
370
    50
100
AcDbLine
 10
-185.689874
 20
324.755536
 30
0.0
 11
-184.983729
 21
324.566325
 31
0.0
  0
LINE
  5
2DC
330
1F
100
AcDbEntity
  8
LC-001-100-D00-0
  6
ByBlock
 62
     7
370
    50
100
AcDbLine
 10
-185.689874
 20
326.755536
 30
0.0
 11
-185.689874
 21
324.755536
 31
0.0
  0
LINE
  5
2DD
330
1F
100
AcDbEntity
  8
LC-001-100-D00-0
  6
ByBlock
 62
     7
370
    50
100
AcDbLine
 10
-185.689874
 20
320.755535
 30
0.0
 11
-185.689874
 21
318.755537
 31
0.0
  0
LINE
  5
2DE
330
1F
100
AcDbEntity
  8
LC-001-100-D00-0
  6
ByBlock
 62
     7
370
    50
100
AcDbLine
 10
-185.689874
 20
318.755537
 30
0.0
 11
-183.73902
 21
318.755536
 31
0.0
  0
LINE
  5
2DF
330
1F
100
AcDbEntity
  8
LC-001-100-D00-0
  6
ByBlock
 62
     7
370
    50
100
AcDbLine
 10
-185.689874
 20
326.755536
 30
0.0
 11
-183.739021
 21
326.755536
 31
0.0
  0
LINE
  5
2E0
330
1F
100
AcDbEntity
  8
LC-001-100-D00-0
  6
ByBlock
 62
     7
370
    50
100
AcDbLine
 10
-182.73902
 20
319.755536
 30
0.0
 11
-182.58118
 21
319.755536
 31
0.0
  0
LINE
  5
2E1
330
1F
100
AcDbEntity
  8
LC-001-100-D00-0
  6
ByBlock
 62
     7
370
    50
100
AcDbLine
 10
-176.09686
 20
319.755536
 30
0.0
 11
-175.93902
 21
319.755536
 31
0.0
  0
LINE
  5
2E2
330
1F
100
AcDbEntity
  8
LC-001-100-D00-0
  6
ByBlock
 62
     7
370
    50
100
AcDbLine
 10
-174.93902
 20
318.755536
 30
0.0
 11
-175.474802
 21
318.755536
 31
0.0
  0
LINE
  5
2E3
330
1F
100
AcDbEntity
  8
LC-001-100-D00-0
  6
ByBlock
 62
     7
370
    50
100
AcDbLine
 10
-183.203238
 20
318.755536
 30
0.0
 11
-183.73902
 21
318.755536
 31
0.0
  0
LINE
  5
2E4
330
1F
100
AcDbEntity
  8
LC-001-100-D00-0
  6
ByBlock
 62
     7
370
    50
100
AcDbLine
 10
-172.988169
 20
326.755536
 30
0.0
 11
-175.439023
 21
326.755536
 31
0.0
  0
LINE
  5
2E5
330
1F
100
AcDbEntity
  8
LC-001-100-D00-0
  6
ByBlock
 62
     7
370
    50
100
AcDbLine
 10
-175.439023
 20
326.755536
 30
0.0
 11
-175.43902
 21
337.755536
 31
0.0
  0
LINE
  5
2E6
330
1F
100
AcDbEntity
  8
LC-001-100-D00-0
  6
ByBlock
 62
     7
370
    50
100
AcDbLine
 10
-175.43902
 20
337.755536
 30
0.0
 11
-162.08902
 21
337.755536
 31
0.0
  0
ARC
  5
2E7
330
1F
100
AcDbEntity
  8
LC-001-100-D00-0
  6
ByBlock
 62
     7
370
    50
100
AcDbCircle
 10
-162.08902
 20
336.755536
 30
0.0
 40
1.000000000000114
100
AcDbArc
 50
0.0
 51
90.0
  0
LINE
  5
2E8
330
1F
100
AcDbEntity
  8
LC-001-100-D00-0
  6
ByBlock
 62
     7
370
    50
100
AcDbLine
 10
-161.08902
 20
336.755536
 30
0.0
 11
-161.089018
 21
330.755536
 31
0.0
  0
LINE
  5
2E9
330
1F
100
AcDbEntity
  8
LC-001-100-D00-0
  6
ByBlock
 62
     7
370
    50
100
AcDbLine
 10
-164.08902
 20
330.755536
 30
0.0
 11
-161.089018
 21
330.755536
 31
0.0
  0
LINE
  5
2EA
330
1F
100
AcDbEntity
  8
LC-001-100-D00-0
  6
ByBlock
 62
     7
370
    50
100
AcDbLine
 10
-164.08902
 20
330.755536
 30
0.0
 11
-164.089017
 21
334.755536
 31
0.0
  0
LINE
  5
2EB
330
1F
100
AcDbEntity
  8
LC-001-100-D00-0
  6
ByBlock
 62
     7
370
    50
100
AcDbLine
 10
-168.58902
 20
334.755536
 30
0.0
 11
-164.089017
 21
334.755536
 31
0.0
  0
ARC
  5
2EC
330
1F
100
AcDbEntity
  8
LC-001-100-D00-0
  6
ByBlock
 62
     7
370
    50
100
AcDbCircle
 10
-168.58902
 20
333.755536
 30
0.0
 40
1.0
100
AcDbArc
 50
90.0
 51
180.0
  0
LINE
  5
2ED
330
1F
100
AcDbEntity
  8
LC-001-100-D00-0
  6
ByBlock
 62
     7
370
    50
100
AcDbLine
 10
-169.58902
 20
319.755536
 30
0.0
 11
-169.58902
 21
333.755536
 31
0.0
  0
ARC
  5
2EE
330
1F
100
AcDbEntity
  8
LC-001-100-D00-0
  6
ByBlock
 62
     7
370
    50
100
AcDbCircle
 10
-170.58902
 20
319.755536
 30
0.0
 40
0.9999999999997726
100
AcDbArc
 50
270.0
 51
0.0
  0
LINE
  5
2EF
330
1F
100
AcDbEntity
  8
LC-001-100-D00-0
  6
ByBlock
 62
     7
370
    50
100
AcDbLine
 10
-170.58902
 20
318.755536
 30
0.0
 11
-172.988169
 21
318.755537
 31
0.0
  0
LINE
  5
2F0
330
1F
100
AcDbEntity
  8
LC-001-100-D00-0
  6
ByBlock
 62
     7
370
    50
100
AcDbLine
 10
-172.988169
 20
320.755535
 30
0.0
 11
-172.988169
 21
318.755537
 31
0.0
  0
LINE
  5
2F1
330
1F
100
AcDbEntity
  8
LC-001-100-D00-0
  6
ByBlock
 62
     7
370
    50
100
AcDbLine
 10
-173.63902
 20
320.755536
 30
0.0
 11
-172.988169
 21
320.755535
 31
0.0
  0
ARC
  5
2F2
330
1F
100
AcDbEntity
  8
LC-001-100-D00-0
  6
ByBlock
 62
     7
370
    50
100
AcDbCircle
 10
-173.63902
 20
321.255536
 30
0.0
 40
0.5
100
AcDbArc
 50
180.0
 51
270.0
  0
LINE
  5
2F3
330
1F
100
AcDbEntity
  8
LC-001-100-D00-0
  6
ByBlock
 62
     7
370
    50
100
AcDbLine
 10
-174.13902
 20
324.255536
 30
0.0
 11
-174.13902
 21
321.255536
 31
0.0
  0
ARC
  5
2F4
330
1F
100
AcDbEntity
  8
LC-001-100-D00-0
  6
ByBlock
 62
     7
370
    50
100
AcDbCircle
 10
-173.63902
 20
324.255536
 30
0.0
 40
0.5
100
AcDbArc
 50
90.0
 51
180.0
  0
LINE
  5
2F5
330
1F
100
AcDbEntity
  8
LC-001-100-D00-0
  6
ByBlock
 62
     7
370
    50
100
AcDbLine
 10
-172.988169
 20
324.755536
 30
0.0
 11
-173.63902
 21
324.755536
 31
0.0
  0
LINE
  5
2F6
330
1F
100
AcDbEntity
  8
LC-001-100-D00-0
  6
ByBlock
 62
     7
370
    50
100
AcDbLine
 10
-172.988169
 20
326.755536
 30
0.0
 11
-172.988169
 21
324.755536
 31
0.0
  0
ARC
  5
2F7
330
1F
100
AcDbEntity
  8
LC-001-100-D00-0
  6
ByBlock
 62
     7
370
    50
100
AcDbCircle
 10
-190.08902
 20
333.755536
 30
0.0
 40
1.0
100
AcDbArc
 50
0.0
 51
90.0
  0
LINE
  5
2F8
330
1F
100
AcDbEntity
  8
LC-001-100-D00-0
  6
ByBlock
 62
     7
370
    50
100
AcDbLine
 10
-189.08902
 20
333.755536
 30
0.0
 11
-189.08902
 21
319.755536
 31
0.0
  0
ARC
  5
2F9
330
1F
100
AcDbEntity
  8
LC-001-100-D00-0
  6
ByBlock
 62
     7
370
    50
100
AcDbCircle
 10
-188.08902
 20
319.755536
 30
0.0
 40
1.0
100
AcDbArc
 50
180.0
 51
270.0
  0
LINE
  5
2FA
330
1F
100
AcDbEntity
  8
LC-001-100-D00-0
  6
ByBlock
 62
     7
370
    50
100
AcDbLine
 10
-184.53902
 20
321.255536
 30
0.0
 11
-184.53902
 21
324.255536
 31
0.0
  0
LINE
  5
2FB
330
1F
100
AcDbEntity
  8
LC-001-100-D00-0
  6
ByBlock
 62
     7
370
    50
100
AcDbLine
 10
-183.23902
 20
337.755536
 30
0.0
 11
-183.23902
 21
326.755536
 31
0.0
  0
LINE
  5
2FC
330
1F
100
AcDbEntity
  8
LC-001-100-D00-0
  6
ByBlock
 62
     7
370
    50
100
AcDbLine
 10
-183.23902
 20
337.755536
 30
0.0
 11
-175.43902
 21
337.755536
 31
0.0
  0
LINE
  5
2FD
330
1F
100
AcDbEntity
  8
LC-001-100-D00-0
  6
ByBlock
 62
     7
370
    50
100
AcDbLine
 10
-185.689874
 20
320.755535
 30
0.0
 11
-185.689874
 21
318.755537
 31
0.0
  0
LINE
  5
2FE
330
1F
100
AcDbEntity
  8
LC-001-100-D00-0
  6
ByBlock
 62
     7
370
    50
100
AcDbLine
 10
-185.689874
 20
326.755536
 30
0.0
 11
-185.689874
 21
324.755536
 31
0.0
  0
ARC
  5
2FF
330
1F
100
AcDbEntity
  8
LC-001-100-D00-0
  6
ByBlock
 62
     7
370
    50
100
AcDbCircle
 10
-185.03902
 20
321.255536
 30
0.0
 40
0.5
100
AcDbArc
 50
270.0
 51
0.0
  0
LINE
  5
300
330
1F
100
AcDbEntity
  8
LC-001-100-D00-0
  6
ByBlock
 62
     7
370
    50
100
AcDbLine
 10
-185.689874
 20
320.755535
 30
0.0
 11
-185.03902
 21
320.755536
 31
0.0
  0
LINE
  5
301
330
1F
100
AcDbEntity
  8
LC-001-100-D00-0
  6
ByBlock
 62
     7
370
    50
100
AcDbLine
 10
-194.589019
 20
334.755536
 30
0.0
 11
-194.58902
 21
330.755536
 31
0.0
  0
LINE
  5
302
330
1F
100
AcDbEntity
  8
LC-001-100-D00-0
  6
ByBlock
 62
     7
370
    50
100
AcDbLine
 10
-197.589017
 20
330.755536
 30
0.0
 11
-197.58902
 21
336.755536
 31
0.0
  0
ARC
  5
303
330
1F
100
AcDbEntity
  8
LC-001-100-D00-0
  6
ByBlock
 62
     7
370
    50
100
AcDbCircle
 10
-196.58902
 20
336.755536
 30
0.0
 40
1.000000000000227
100
AcDbArc
 50
90.0
 51
180.0
  0
LINE
  5
304
330
1F
100
AcDbEntity
  8
LC-001-100-D00-0
  6
ByBlock
 62
     7
370
    50
100
AcDbLine
 10
-185.03902
 20
324.755536
 30
0.0
 11
-185.689874
 21
324.755536
 31
0.0
  0
ARC
  5
305
330
1F
100
AcDbEntity
  8
LC-001-100-D00-0
  6
ByBlock
 62
     7
370
    50
100
AcDbCircle
 10
-185.03902
 20
324.255536
 30
0.0
 40
0.5
100
AcDbArc
 50
0.0
 51
90.0
  0
LINE
  5
306
330
1F
100
AcDbEntity
  8
LC-001-100-D00-0
  6
ByBlock
 62
     7
370
    50
100
AcDbLine
 10
-183.23902
 20
326.755536
 30
0.0
 11
-185.689874
 21
326.755536
 31
0.0
  0
LINE
  5
307
330
1F
100
AcDbEntity
  8
LC-001-100-D00-0
  6
ByBlock
 62
     7
370
    50
100
AcDbLine
 10
-185.689874
 20
318.755537
 30
0.0
 11
-188.08902
 21
318.755536
 31
0.0
  0
LINE
  5
308
330
1F
100
AcDbEntity
  8
LC-001-100-D00-0
  6
ByBlock
 62
     7
370
    50
100
AcDbLine
 10
-197.589017
 20
330.755536
 30
0.0
 11
-194.58902
 21
330.755536
 31
0.0
  0
LINE
  5
309
330
1F
100
AcDbEntity
  8
LC-001-100-D00-0
  6
ByBlock
 62
     7
370
    50
100
AcDbLine
 10
-194.589019
 20
334.755536
 30
0.0
 11
-190.08902
 21
334.755536
 31
0.0
  0
LINE
  5
30A
330
1F
100
AcDbEntity
  8
LC-001-100-D00-0
  6
ByBlock
 62
     7
370
    50
100
AcDbLine
 10
-196.58902
 20
337.755536
 30
0.0
 11
-183.23902
 21
337.755536
 31
0.0
  0
LINE
  5
30B
330
1F
100
AcDbEntity
  8
LC-001-100-D00-0
  6
ByBlock
 62
     7
370
    50
100
AcDbLine
 10
-166.08902
 20
330.755536
 30
0.0
 11
-164.08902
 21
330.755536
 31
0.0
  0
LINE
  5
30C
330
1F
100
AcDbEntity
  8
LC-001-100-D00-0
  6
ByBlock
 62
     7
370
    50
100
AcDbLine
 10
-194.58902
 20
330.755536
 30
0.0
 11
-192.58902
 21
330.755536
 31
0.0
  0
LINE
  5
30D
330
1F
100
AcDbEntity
  8
LC-001-100-D00-0
  6
ByBlock
 62
     7
370
    50
100
AcDbLine
 10
-192.58902
 20
330.755536
 30
0.0
 11
-189.089023
 21
330.755536
 31
0.0
  0
LINE
  5
30E
330
1F
100
AcDbEntity
  8
LC-001-100-D00-0
  6
ByBlock
 62
     7
370
    50
100
AcDbLine
 10
-169.58902
 20
330.755536
 30
0.0
 11
-166.08902
 21
330.755536
 31
0.0
  0
LINE
  5
30F
330
1F
100
AcDbEntity
  8
LC-001-100-D00-0
  6
ByBlock
 62
     7
370
    50
100
AcDbLine
 10
145.86098
 20
321.524303
 30
0.0
 11
145.86098
 21
323.98677
 31
0.0
  0
ARC
  5
310
330
1F
100
AcDbEntity
  8
LC-001-100-D00-0
  6
ByBlock
 62
     7
370
    50
100
AcDbCircle
 10
146.46098
 20
321.524303
 30
0.0
 40
0.6000000000000227
100
AcDbArc
 50
180.0
 51
255.0
  0
LINE
  5
311
330
1F
100
AcDbEntity
  8
LC-001-100-D00-0
  6
ByBlock
 62
     7
370
    50
100
AcDbLine
 10
147.011839
 20
320.755535
 30
0.0
 11
146.305689
 21
320.944747
 31
0.0
  0
LINE
  5
312
330
1F
100
AcDbEntity
  8
LC-001-100-D00-0
  6
ByBlock
 62
     7
370
    50
100
AcDbLine
 10
147.011839
 20
320.755535
 30
0.0
 11
147.011839
 21
318.755537
 31
0.0
  0
LINE
  5
313
330
1F
100
AcDbEntity
  8
LC-001-100-D00-0
  6
ByBlock
 62
     7
370
    50
100
AcDbLine
 10
144.06098
 20
319.755536
 30
0.0
 11
145.06098
 21
318.755536
 31
0.0
  0
LINE
  5
314
330
1F
100
AcDbEntity
  8
LC-001-100-D00-0
  6
ByBlock
 62
     7
370
    50
100
AcDbLine
 10
144.06098
 20
319.755536
 30
0.0
 11
144.060977
 21
325.755536
 31
0.0
  0
LINE
  5
315
330
1F
100
AcDbEntity
  8
LC-001-100-D00-0
  6
ByBlock
 62
     7
370
    50
100
AcDbLine
 10
145.060979
 20
326.755536
 30
0.0
 11
144.060977
 21
325.755536
 31
0.0
  0
LINE
  5
316
330
1F
100
AcDbEntity
  8
LC-001-100-D00-0
  6
ByBlock
 62
     7
370
    50
100
AcDbLine
 10
147.011839
 20
326.755536
 30
0.0
 11
147.011839
 21
324.755536
 31
0.0
  0
LINE
  5
317
330
1F
100
AcDbEntity
  8
LC-001-100-D00-0
  6
ByBlock
 62
     7
370
    50
100
AcDbLine
 10
146.305689
 20
324.566325
 30
0.0
 11
147.011839
 21
324.755536
 31
0.0
  0
ARC
  5
318
330
1F
100
AcDbEntity
  8
LC-001-100-D00-0
  6
ByBlock
 62
     7
370
    50
100
AcDbCircle
 10
146.46098
 20
323.98677
 30
0.0
 40
0.600000000000118
100
AcDbArc
 50
105.0
 51
180.0
  0
LINE
  5
319
330
1F
100
AcDbEntity
  8
LC-001-100-D00-0
  6
ByBlock
 62
     7
370
    50
100
AcDbLine
 10
145.06098
 20
318.755536
 30
0.0
 11
147.011839
 21
318.755537
 31
0.0
  0
LINE
  5
31A
330
1F
100
AcDbEntity
  8
LC-001-100-D00-0
  6
ByBlock
 62
     7
370
    50
100
AcDbLine
 10
145.060979
 20
326.755536
 30
0.0
 11
147.011839
 21
326.755536
 31
0.0
  0
LINE
  5
31B
330
1F
100
AcDbEntity
  8
LC-001-100-D00-0
  6
ByBlock
 62
     7
370
    50
100
AcDbLine
 10
135.46098
 20
323.98677
 30
0.0
 11
135.46098
 21
321.524303
 31
0.0
  0
LINE
  5
31C
330
1F
100
AcDbEntity
  8
LC-001-100-D00-0
  6
ByBlock
 62
     7
370
    50
100
AcDbLine
 10
137.260981
 20
325.755536
 30
0.0
 11
136.260979
 21
326.755536
 31
0.0
  0
LINE
  5
31D
330
1F
100
AcDbEntity
  8
LC-001-100-D00-0
  6
ByBlock
 62
     7
370
    50
100
AcDbLine
 10
137.260981
 20
325.755536
 30
0.0
 11
137.26098
 21
319.755536
 31
0.0
  0
LINE
  5
31E
330
1F
100
AcDbEntity
  8
LC-001-100-D00-0
  6
ByBlock
 62
     7
370
    50
100
AcDbLine
 10
136.26098
 20
318.755536
 30
0.0
 11
137.26098
 21
319.755536
 31
0.0
  0
LINE
  5
31F
330
1F
100
AcDbEntity
  8
LC-001-100-D00-0
  6
ByBlock
 62
     7
370
    50
100
AcDbLine
 10
135.016271
 20
320.944747
 30
0.0
 11
134.310134
 21
320.755535
 31
0.0
  0
ARC
  5
320
330
1F
100
AcDbEntity
  8
LC-001-100-D00-0
  6
ByBlock
 62
     7
370
    50
100
AcDbCircle
 10
134.86098
 20
321.524303
 30
0.0
 40
0.6000000000003376
100
AcDbArc
 50
285.0
 51
0.0
  0
ARC
  5
321
330
1F
100
AcDbEntity
  8
LC-001-100-D00-0
  6
ByBlock
 62
     7
370
    50
100
AcDbCircle
 10
134.86098
 20
323.98677
 30
0.0
 40
0.6000000000001364
100
AcDbArc
 50
0.0
 51
75.0
  0
LINE
  5
322
330
1F
100
AcDbEntity
  8
LC-001-100-D00-0
  6
ByBlock
 62
     7
370
    50
100
AcDbLine
 10
134.310134
 20
324.755536
 30
0.0
 11
135.016271
 21
324.566325
 31
0.0
  0
LINE
  5
323
330
1F
100
AcDbEntity
  8
LC-001-100-D00-0
  6
ByBlock
 62
     7
370
    50
100
AcDbLine
 10
134.310134
 20
326.755536
 30
0.0
 11
134.310134
 21
324.755536
 31
0.0
  0
LINE
  5
324
330
1F
100
AcDbEntity
  8
LC-001-100-D00-0
  6
ByBlock
 62
     7
370
    50
100
AcDbLine
 10
134.310134
 20
320.755535
 30
0.0
 11
134.310134
 21
318.755537
 31
0.0
  0
LINE
  5
325
330
1F
100
AcDbEntity
  8
LC-001-100-D00-0
  6
ByBlock
 62
     7
370
    50
100
AcDbLine
 10
134.310134
 20
318.755537
 30
0.0
 11
136.26098
 21
318.755536
 31
0.0
  0
LINE
  5
326
330
1F
100
AcDbEntity
  8
LC-001-100-D00-0
  6
ByBlock
 62
     7
370
    50
100
AcDbLine
 10
134.310134
 20
326.755536
 30
0.0
 11
136.260979
 21
326.755536
 31
0.0
  0
LINE
  5
327
330
1F
100
AcDbEntity
  8
LC-001-100-D00-0
  6
ByBlock
 62
     7
370
    50
100
AcDbLine
 10
137.26098
 20
319.755536
 30
0.0
 11
137.41882
 21
319.755536
 31
0.0
  0
LINE
  5
328
330
1F
100
AcDbEntity
  8
LC-001-100-D00-0
  6
ByBlock
 62
     7
370
    50
100
AcDbLine
 10
143.90314
 20
319.755536
 30
0.0
 11
144.06098
 21
319.755536
 31
0.0
  0
LINE
  5
329
330
1F
100
AcDbEntity
  8
LC-001-100-D00-0
  6
ByBlock
 62
     7
370
    50
100
AcDbLine
 10
145.06098
 20
318.755536
 30
0.0
 11
144.525198
 21
318.755536
 31
0.0
  0
LINE
  5
32A
330
1F
100
AcDbEntity
  8
LC-001-100-D00-0
  6
ByBlock
 62
     7
370
    50
100
AcDbLine
 10
136.796762
 20
318.755536
 30
0.0
 11
136.26098
 21
318.755536
 31
0.0
  0
LINE
  5
32B
330
1F
100
AcDbEntity
  8
LC-001-100-D00-0
  6
ByBlock
 62
     7
370
    50
100
AcDbLine
 10
147.011839
 20
326.755536
 30
0.0
 11
144.560985
 21
326.755536
 31
0.0
  0
LINE
  5
32C
330
1F
100
AcDbEntity
  8
LC-001-100-D00-0
  6
ByBlock
 62
     7
370
    50
100
AcDbLine
 10
144.560985
 20
326.755536
 30
0.0
 11
144.56098
 21
337.755536
 31
0.0
  0
LINE
  5
32D
330
1F
100
AcDbEntity
  8
LC-001-100-D00-0
  6
ByBlock
 62
     7
370
    50
100
AcDbLine
 10
144.56098
 20
337.755536
 30
0.0
 11
157.91098
 21
337.755536
 31
0.0
  0
ARC
  5
32E
330
1F
100
AcDbEntity
  8
LC-001-100-D00-0
  6
ByBlock
 62
     7
370
    50
100
AcDbCircle
 10
157.91098
 20
336.755536
 30
0.0
 40
1.000000000000114
100
AcDbArc
 50
0.0
 51
90.0
  0
LINE
  5
32F
330
1F
100
AcDbEntity
  8
LC-001-100-D00-0
  6
ByBlock
 62
     7
370
    50
100
AcDbLine
 10
158.91098
 20
336.755536
 30
0.0
 11
158.910982
 21
330.755536
 31
0.0
  0
LINE
  5
330
330
1F
100
AcDbEntity
  8
LC-001-100-D00-0
  6
ByBlock
 62
     7
370
    50
100
AcDbLine
 10
155.91098
 20
330.755536
 30
0.0
 11
158.910982
 21
330.755536
 31
0.0
  0
LINE
  5
331
330
1F
100
AcDbEntity
  8
LC-001-100-D00-0
  6
ByBlock
 62
     7
370
    50
100
AcDbLine
 10
155.91098
 20
330.755536
 30
0.0
 11
155.910976
 21
334.755536
 31
0.0
  0
LINE
  5
332
330
1F
100
AcDbEntity
  8
LC-001-100-D00-0
  6
ByBlock
 62
     7
370
    50
100
AcDbLine
 10
151.41098
 20
334.755536
 30
0.0
 11
155.910976
 21
334.755536
 31
0.0
  0
ARC
  5
333
330
1F
100
AcDbEntity
  8
LC-001-100-D00-0
  6
ByBlock
 62
     7
370
    50
100
AcDbCircle
 10
151.41098
 20
333.755536
 30
0.0
 40
1.0
100
AcDbArc
 50
90.0
 51
180.0
  0
LINE
  5
334
330
1F
100
AcDbEntity
  8
LC-001-100-D00-0
  6
ByBlock
 62
     7
370
    50
100
AcDbLine
 10
150.41098
 20
319.755536
 30
0.0
 11
150.41098
 21
333.755536
 31
0.0
  0
ARC
  5
335
330
1F
100
AcDbEntity
  8
LC-001-100-D00-0
  6
ByBlock
 62
     7
370
    50
100
AcDbCircle
 10
149.41098
 20
319.755536
 30
0.0
 40
1.0
100
AcDbArc
 50
270.0
 51
0.0
  0
LINE
  5
336
330
1F
100
AcDbEntity
  8
LC-001-100-D00-0
  6
ByBlock
 62
     7
370
    50
100
AcDbLine
 10
149.41098
 20
318.755536
 30
0.0
 11
147.011839
 21
318.755537
 31
0.0
  0
LINE
  5
337
330
1F
100
AcDbEntity
  8
LC-001-100-D00-0
  6
ByBlock
 62
     7
370
    50
100
AcDbLine
 10
147.011839
 20
320.755535
 30
0.0
 11
147.011839
 21
318.755537
 31
0.0
  0
LINE
  5
338
330
1F
100
AcDbEntity
  8
LC-001-100-D00-0
  6
ByBlock
 62
     7
370
    50
100
AcDbLine
 10
146.36098
 20
320.755536
 30
0.0
 11
147.011839
 21
320.755535
 31
0.0
  0
ARC
  5
339
330
1F
100
AcDbEntity
  8
LC-001-100-D00-0
  6
ByBlock
 62
     7
370
    50
100
AcDbCircle
 10
146.36098
 20
321.255536
 30
0.0
 40
0.4999999999998863
100
AcDbArc
 50
180.0
 51
270.0
  0
LINE
  5
33A
330
1F
100
AcDbEntity
  8
LC-001-100-D00-0
  6
ByBlock
 62
     7
370
    50
100
AcDbLine
 10
145.86098
 20
324.255536
 30
0.0
 11
145.86098
 21
321.255536
 31
0.0
  0
ARC
  5
33B
330
1F
100
AcDbEntity
  8
LC-001-100-D00-0
  6
ByBlock
 62
     7
370
    50
100
AcDbCircle
 10
146.36098
 20
324.255536
 30
0.0
 40
0.5
100
AcDbArc
 50
90.0
 51
180.0
  0
LINE
  5
33C
330
1F
100
AcDbEntity
  8
LC-001-100-D00-0
  6
ByBlock
 62
     7
370
    50
100
AcDbLine
 10
147.011839
 20
324.755536
 30
0.0
 11
146.36098
 21
324.755536
 31
0.0
  0
LINE
  5
33D
330
1F
100
AcDbEntity
  8
LC-001-100-D00-0
  6
ByBlock
 62
     7
370
    50
100
AcDbLine
 10
147.011839
 20
326.755536
 30
0.0
 11
147.011839
 21
324.755536
 31
0.0
  0
ARC
  5
33E
330
1F
100
AcDbEntity
  8
LC-001-100-D00-0
  6
ByBlock
 62
     7
370
    50
100
AcDbCircle
 10
129.91098
 20
333.755536
 30
0.0
 40
1.000000000000114
100
AcDbArc
 50
0.0
 51
90.0
  0
LINE
  5
33F
330
1F
100
AcDbEntity
  8
LC-001-100-D00-0
  6
ByBlock
 62
     7
370
    50
100
AcDbLine
 10
130.91098
 20
333.755536
 30
0.0
 11
130.91098
 21
319.755536
 31
0.0
  0
ARC
  5
340
330
1F
100
AcDbEntity
  8
LC-001-100-D00-0
  6
ByBlock
 62
     7
370
    50
100
AcDbCircle
 10
131.91098
 20
319.755536
 30
0.0
 40
1.0
100
AcDbArc
 50
180.0
 51
270.0
  0
LINE
  5
341
330
1F
100
AcDbEntity
  8
LC-001-100-D00-0
  6
ByBlock
 62
     7
370
    50
100
AcDbLine
 10
135.46098
 20
321.255536
 30
0.0
 11
135.46098
 21
324.255536
 31
0.0
  0
LINE
  5
342
330
1F
100
AcDbEntity
  8
LC-001-100-D00-0
  6
ByBlock
 62
     7
370
    50
100
AcDbLine
 10
136.76098
 20
337.755536
 30
0.0
 11
136.760987
 21
326.755536
 31
0.0
  0
LINE
  5
343
330
1F
100
AcDbEntity
  8
LC-001-100-D00-0
  6
ByBlock
 62
     7
370
    50
100
AcDbLine
 10
136.76098
 20
337.755536
 30
0.0
 11
144.56098
 21
337.755536
 31
0.0
  0
LINE
  5
344
330
1F
100
AcDbEntity
  8
LC-001-100-D00-0
  6
ByBlock
 62
     7
370
    50
100
AcDbLine
 10
134.310134
 20
320.755535
 30
0.0
 11
134.310134
 21
318.755537
 31
0.0
  0
LINE
  5
345
330
1F
100
AcDbEntity
  8
LC-001-100-D00-0
  6
ByBlock
 62
     7
370
    50
100
AcDbLine
 10
134.310134
 20
326.755536
 30
0.0
 11
134.310134
 21
324.755536
 31
0.0
  0
ARC
  5
346
330
1F
100
AcDbEntity
  8
LC-001-100-D00-0
  6
ByBlock
 62
     7
370
    50
100
AcDbCircle
 10
134.96098
 20
321.255536
 30
0.0
 40
0.5
100
AcDbArc
 50
270.0
 51
0.0
  0
LINE
  5
347
330
1F
100
AcDbEntity
  8
LC-001-100-D00-0
  6
ByBlock
 62
     7
370
    50
100
AcDbLine
 10
134.310134
 20
320.755535
 30
0.0
 11
134.96098
 21
320.755536
 31
0.0
  0
LINE
  5
348
330
1F
100
AcDbEntity
  8
LC-001-100-D00-0
  6
ByBlock
 62
     7
370
    50
100
AcDbLine
 10
125.410981
 20
334.755536
 30
0.0
 11
125.41098
 21
330.755536
 31
0.0
  0
LINE
  5
349
330
1F
100
AcDbEntity
  8
LC-001-100-D00-0
  6
ByBlock
 62
     7
370
    50
100
AcDbLine
 10
122.410975
 20
330.755536
 30
0.0
 11
122.41098
 21
336.755536
 31
0.0
  0
ARC
  5
34A
330
1F
100
AcDbEntity
  8
LC-001-100-D00-0
  6
ByBlock
 62
     7
370
    50
100
AcDbCircle
 10
123.41098
 20
336.755536
 30
0.0
 40
1.000000000000227
100
AcDbArc
 50
90.0
 51
180.0
  0
LINE
  5
34B
330
1F
100
AcDbEntity
  8
LC-001-100-D00-0
  6
ByBlock
 62
     7
370
    50
100
AcDbLine
 10
134.96098
 20
324.755536
 30
0.0
 11
134.310134
 21
324.755536
 31
0.0
  0
ARC
  5
34C
330
1F
100
AcDbEntity
  8
LC-001-100-D00-0
  6
ByBlock
 62
     7
370
    50
100
AcDbCircle
 10
134.96098
 20
324.255536
 30
0.0
 40
0.5
100
AcDbArc
 50
0.0
 51
90.0
  0
LINE
  5
34D
330
1F
100
AcDbEntity
  8
LC-001-100-D00-0
  6
ByBlock
 62
     7
370
    50
100
AcDbLine
 10
122.410975
 20
330.755536
 30
0.0
 11
125.41098
 21
330.755536
 31
0.0
  0
LINE
  5
34E
330
1F
100
AcDbEntity
  8
LC-001-100-D00-0
  6
ByBlock
 62
     7
370
    50
100
AcDbLine
 10
136.760987
 20
326.755536
 30
0.0
 11
134.310134
 21
326.755536
 31
0.0
  0
LINE
  5
34F
330
1F
100
AcDbEntity
  8
LC-001-100-D00-0
  6
ByBlock
 62
     7
370
    50
100
AcDbLine
 10
134.310134
 20
318.755537
 30
0.0
 11
131.91098
 21
318.755536
 31
0.0
  0
LINE
  5
350
330
1F
100
AcDbEntity
  8
LC-001-100-D00-0
  6
ByBlock
 62
     7
370
    50
100
AcDbLine
 10
125.410981
 20
334.755536
 30
0.0
 11
129.91098
 21
334.755536
 31
0.0
  0
LINE
  5
351
330
1F
100
AcDbEntity
  8
LC-001-100-D00-0
  6
ByBlock
 62
     7
370
    50
100
AcDbLine
 10
123.41098
 20
337.755536
 30
0.0
 11
136.76098
 21
337.755536
 31
0.0
  0
LINE
  5
352
330
1F
100
AcDbEntity
  8
LC-001-100-D00-0
  6
ByBlock
 62
     7
370
    50
100
AcDbLine
 10
153.91098
 20
330.755536
 30
0.0
 11
155.91098
 21
330.755536
 31
0.0
  0
LINE
  5
353
330
1F
100
AcDbEntity
  8
LC-001-100-D00-0
  6
ByBlock
 62
     7
370
    50
100
AcDbLine
 10
125.41098
 20
330.755536
 30
0.0
 11
127.41098
 21
330.755536
 31
0.0
  0
LINE
  5
354
330
1F
100
AcDbEntity
  8
LC-001-100-D00-0
  6
ByBlock
 62
     7
370
    50
100
AcDbLine
 10
127.41098
 20
330.755536
 30
0.0
 11
130.910985
 21
330.755536
 31
0.0
  0
LINE
  5
355
330
1F
100
AcDbEntity
  8
LC-001-100-D00-0
  6
ByBlock
 62
     7
370
    50
100
AcDbLine
 10
150.410987
 20
330.755536
 30
0.0
 11
153.91098
 21
330.755536
 31
0.0
  0
LINE
  5
356
330
1F
100
AcDbEntity
  8
LC-001-100-D00-0
  6
ByBlock
 62
     7
370
    50
100
AcDbLine
 10
-23.710884
 20
307.006233
 30
0.0
 11
-20.704099
 21
307.674408
 31
0.0
  0
ARC
  5
357
330
1F
100
AcDbEntity
  8
LC-001-100-D00-0
  6
ByBlock
 62
     7
370
    50
100
AcDbCircle
 10
-23.775963
 20
307.299089
 30
0.0
 40
0.2999999999998511
100
AcDbArc
 50
131.633539
 51
282.528808
  0
LINE
  5
358
330
1F
100
AcDbEntity
  8
LC-001-100-D00-0
  6
ByBlock
 62
     7
370
    50
100
AcDbLine
 10
-20.623185
 20
310.502946
 30
0.0
 11
-23.975272
 21
307.523312
 31
0.0
  0
ARC
  5
359
330
1F
100
AcDbEntity
  8
LC-001-100-D00-0
  6
ByBlock
 62
     7
370
    50
100
AcDbCircle
 10
-19.958821
 20
309.755536
 30
0.0
 40
1.000000000000227
100
AcDbArc
 50
90.0
 51
131.633539
  0
LINE
  5
35A
330
1F
100
AcDbEntity
  8
LC-001-100-D00-0
  6
ByBlock
 62
     7
370
    50
100
AcDbLine
 10
-14.339022
 20
310.755536
 30
0.0
 11
-14.339022
 21
306.755537
 31
0.0
  0
LINE
  5
35B
330
1F
100
AcDbEntity
  8
LC-001-100-D00-0
  6
ByBlock
 62
     7
370
    50
100
AcDbLine
 10
-20.33902
 20
307.381551
 30
0.0
 11
-20.33902
 21
306.755536
 31
0.0
  0
ARC
  5
35C
330
1F
100
AcDbEntity
  8
LC-001-100-D00-0
  6
ByBlock
 62
     7
370
    50
100
AcDbCircle
 10
-20.63902
 20
307.381551
 30
0.0
 40
0.3000000000000682
100
AcDbArc
 50
0.0
 51
102.528808
  0
LINE
  5
35D
330
1F
100
AcDbEntity
  8
LC-001-100-D00-0
  6
ByBlock
 62
     7
370
    50
100
AcDbLine
 10
-14.339022
 20
310.755536
 30
0.0
 11
-19.958821
 21
310.755536
 31
0.0
  0
LINE
  5
35E
330
1F
100
AcDbEntity
  8
LC-001-100-D00-0
  6
ByBlock
 62
     7
370
    50
100
AcDbLine
 10
-14.339022
 20
306.755537
 30
0.0
 11
-20.33902
 21
306.755536
 31
0.0
  0
LINE
  5
35F
330
1F
100
AcDbEntity
  8
LC-001-100-D00-0
  6
ByBlock
 62
     7
370
    50
100
AcDbLine
 10
-20.33902
 20
306.755536
 30
0.0
 11
-22.53902
 21
306.755536
 31
0.0
  0
LINE
  5
360
330
1F
100
AcDbEntity
  8
LC-001-100-D00-0
  6
ByBlock
 62
     7
370
    50
100
AcDbLine
 10
-138.33902
 20
306.755536
 30
0.0
 11
-138.33902
 21
307.381551
 31
0.0
  0
LINE
  5
361
330
1F
100
AcDbEntity
  8
LC-001-100-D00-0
  6
ByBlock
 62
     7
370
    50
100
AcDbLine
 10
-136.13902
 20
306.755536
 30
0.0
 11
-138.33902
 21
306.755536
 31
0.0
  0
ARC
  5
362
330
1F
100
AcDbEntity
  8
LC-001-100-D00-0
  6
ByBlock
 62
     7
370
    50
100
AcDbCircle
 10
-138.03902
 20
307.381551
 30
0.0
 40
0.3000000000000355
100
AcDbArc
 50
77.471192
 51
180.0
  0
LINE
  5
363
330
1F
100
AcDbEntity
  8
LC-001-100-D00-0
  6
ByBlock
 62
     7
370
    50
100
AcDbLine
 10
-134.702768
 20
307.523312
 30
0.0
 11
-138.054855
 21
310.502946
 31
0.0
  0
LINE
  5
364
330
1F
100
AcDbEntity
  8
LC-001-100-D00-0
  6
ByBlock
 62
     7
370
    50
100
AcDbLine
 10
-137.973941
 20
307.674408
 30
0.0
 11
-134.967156
 21
307.006233
 31
0.0
  0
ARC
  5
365
330
1F
100
AcDbEntity
  8
LC-001-100-D00-0
  6
ByBlock
 62
     7
370
    50
100
AcDbCircle
 10
-138.719219
 20
309.755536
 30
0.0
 40
1.000000000000145
100
AcDbArc
 50
48.366461
 51
90.0
  0
ARC
  5
366
330
1F
100
AcDbEntity
  8
LC-001-100-D00-0
  6
ByBlock
 62
     7
370
    50
100
AcDbCircle
 10
-134.902077
 20
307.299089
 30
0.0
 40
0.3000000000001588
100
AcDbArc
 50
257.471192
 51
48.366461
  0
LINE
  5
367
330
1F
100
AcDbEntity
  8
LC-001-100-D00-0
  6
ByBlock
 62
     7
370
    50
100
AcDbLine
 10
-144.339018
 20
306.755537
 30
0.0
 11
-144.339018
 21
310.755536
 31
0.0
  0
LINE
  5
368
330
1F
100
AcDbEntity
  8
LC-001-100-D00-0
  6
ByBlock
 62
     7
370
    50
100
AcDbLine
 10
-138.719219
 20
310.755536
 30
0.0
 11
-144.339018
 21
310.755536
 31
0.0
  0
LINE
  5
369
330
1F
100
AcDbEntity
  8
LC-001-100-D00-0
  6
ByBlock
 62
     7
370
    50
100
AcDbLine
 10
-138.33902
 20
306.755536
 30
0.0
 11
-144.339018
 21
306.755537
 31
0.0
  0
LINE
  5
36A
330
1F
100
AcDbEntity
  8
LC-001-100-D00-0
  6
ByBlock
 62
     7
370
    50
100
AcDbLine
 10
-5.339019
 20
310.755536
 30
0.0
 11
-5.339019
 21
307.005535
 31
0.0
  0
LINE
  5
36B
330
1F
100
AcDbEntity
  8
LC-001-100-D00-0
  6
ByBlock
 62
     7
370
    50
100
AcDbLine
 10
-8.339018
 20
307.755537
 30
0.0
 11
-8.33902
 21
307.005536
 31
0.0
  0
LINE
  5
36C
330
1F
100
AcDbEntity
  8
LC-001-100-D00-0
  6
ByBlock
 62
     7
370
    50
100
AcDbLine
 10
-11.339016
 20
307.755537
 30
0.0
 11
-11.339016
 21
303.755534
 31
0.0
  0
LINE
  5
36D
330
1F
100
AcDbEntity
  8
LC-001-100-D00-0
  6
ByBlock
 62
     7
370
    50
100
AcDbLine
 10
-17.33902
 20
303.755536
 30
0.0
 11
-11.339016
 21
303.755534
 31
0.0
  0
LINE
  5
36E
330
1F
100
AcDbEntity
  8
LC-001-100-D00-0
  6
ByBlock
 62
     7
370
    50
100
AcDbLine
 10
-17.339021
 20
306.755537
 30
0.0
 11
-17.33902
 21
303.755536
 31
0.0
  0
LINE
  5
36F
330
1F
100
AcDbEntity
  8
LC-001-100-D00-0
  6
ByBlock
 62
     7
370
    50
100
AcDbLine
 10
-14.339022
 20
306.755537
 30
0.0
 11
-17.339021
 21
306.755537
 31
0.0
  0
LINE
  5
370
330
1F
100
AcDbEntity
  8
LC-001-100-D00-0
  6
ByBlock
 62
     7
370
    50
100
AcDbLine
 10
-14.339022
 20
306.755537
 30
0.0
 11
-14.339022
 21
310.755536
 31
0.0
  0
LINE
  5
371
330
1F
100
AcDbEntity
  8
LC-001-100-D00-0
  6
ByBlock
 62
     7
370
    50
100
AcDbLine
 10
-11.339016
 20
307.755537
 30
0.0
 11
-8.339018
 21
307.755537
 31
0.0
  0
LINE
  5
372
330
1F
100
AcDbEntity
  8
LC-001-100-D00-0
  6
ByBlock
 62
     7
370
    50
100
AcDbLine
 10
-8.33902
 20
307.005536
 30
0.0
 11
-5.339019
 21
307.005535
 31
0.0
  0
LINE
  5
373
330
1F
100
AcDbEntity
  8
LC-001-100-D00-0
  6
ByBlock
 62
     7
370
    50
100
AcDbLine
 10
-5.339019
 20
310.755536
 30
0.0
 11
-14.339022
 21
310.755536
 31
0.0
  0
LINE
  5
374
330
1F
100
AcDbEntity
  8
LC-001-100-D00-0
  6
ByBlock
 62
     7
370
    50
100
AcDbLine
 10
-11.33902
 20
307.005536
 30
0.0
 11
-8.33902
 21
307.005536
 31
0.0
  0
LINE
  5
375
330
1F
100
AcDbEntity
  8
LC-001-100-D00-0
  6
ByBlock
 62
     7
370
    50
100
AcDbLine
 10
-24.23902
 20
303.755536
 30
0.0
 11
-17.33902
 21
303.755536
 31
0.0
  0
LINE
  5
376
330
1F
100
AcDbEntity
  8
LC-001-100-D00-0
  6
ByBlock
 62
     7
370
    50
100
AcDbLine
 10
-141.33902
 20
303.755536
 30
0.0
 11
-141.339019
 21
306.755537
 31
0.0
  0
LINE
  5
377
330
1F
100
AcDbEntity
  8
LC-001-100-D00-0
  6
ByBlock
 62
     7
370
    50
100
AcDbLine
 10
-141.33902
 20
303.755536
 30
0.0
 11
-134.43902
 21
303.755536
 31
0.0
  0
LINE
  5
378
330
1F
100
AcDbEntity
  8
LC-001-100-D00-0
  6
ByBlock
 62
     7
370
    50
100
AcDbLine
 10
-144.339018
 20
310.755536
 30
0.0
 11
-144.339018
 21
306.755537
 31
0.0
  0
LINE
  5
379
330
1F
100
AcDbEntity
  8
LC-001-100-D00-0
  6
ByBlock
 62
     7
370
    50
100
AcDbLine
 10
-147.339024
 20
303.755534
 30
0.0
 11
-147.339024
 21
307.755537
 31
0.0
  0
LINE
  5
37A
330
1F
100
AcDbEntity
  8
LC-001-100-D00-0
  6
ByBlock
 62
     7
370
    50
100
AcDbLine
 10
-150.33902
 20
307.005536
 30
0.0
 11
-150.339022
 21
307.755537
 31
0.0
  0
LINE
  5
37B
330
1F
100
AcDbEntity
  8
LC-001-100-D00-0
  6
ByBlock
 62
     7
370
    50
100
AcDbLine
 10
-150.33902
 20
307.005536
 30
0.0
 11
-147.33902
 21
307.005536
 31
0.0
  0
LINE
  5
37C
330
1F
100
AcDbEntity
  8
LC-001-100-D00-0
  6
ByBlock
 62
     7
370
    50
100
AcDbLine
 10
-153.339021
 20
307.005535
 30
0.0
 11
-153.339021
 21
310.755536
 31
0.0
  0
LINE
  5
37D
330
1F
100
AcDbEntity
  8
LC-001-100-D00-0
  6
ByBlock
 62
     7
370
    50
100
AcDbLine
 10
-141.339019
 20
306.755537
 30
0.0
 11
-144.339018
 21
306.755537
 31
0.0
  0
LINE
  5
37E
330
1F
100
AcDbEntity
  8
LC-001-100-D00-0
  6
ByBlock
 62
     7
370
    50
100
AcDbLine
 10
-147.339024
 20
303.755534
 30
0.0
 11
-141.33902
 21
303.755536
 31
0.0
  0
LINE
  5
37F
330
1F
100
AcDbEntity
  8
LC-001-100-D00-0
  6
ByBlock
 62
     7
370
    50
100
AcDbLine
 10
-150.339022
 20
307.755537
 30
0.0
 11
-147.339024
 21
307.755537
 31
0.0
  0
LINE
  5
380
330
1F
100
AcDbEntity
  8
LC-001-100-D00-0
  6
ByBlock
 62
     7
370
    50
100
AcDbLine
 10
-153.339021
 20
307.005535
 30
0.0
 11
-150.33902
 21
307.005536
 31
0.0
  0
LINE
  5
381
330
1F
100
AcDbEntity
  8
LC-001-100-D00-0
  6
ByBlock
 62
     7
370
    50
100
AcDbLine
 10
-144.339018
 20
310.755536
 30
0.0
 11
-153.339021
 21
310.755536
 31
0.0
  0
LINE
  5
382
330
1F
100
AcDbEntity
  8
LC-001-100-D00-0
  6
ByBlock
 62
     7
370
    50
100
AcDbLine
 10
-5.339019
 20
306.255536
 30
0.0
 11
5.660981
 21
306.255536
 31
0.0
  0
LINE
  5
383
330
1F
100
AcDbEntity
  8
LC-001-100-D00-0
  6
ByBlock
 62
     7
370
    50
100
AcDbLine
 10
5.660981
 20
254.255538
 30
0.0
 11
-5.339019
 21
254.255538
 31
0.0
  0
LINE
  5
384
330
1F
100
AcDbEntity
  8
LC-001-100-D00-0
  6
ByBlock
 62
     7
370
    50
100
AcDbLine
 10
-5.339019
 20
307.005535
 30
0.0
 11
-5.339019
 21
306.255536
 31
0.0
  0
INSERT
  5
395
330
1F
100
AcDbEntity
  8
LC-001-100-D00-0
  6
ByBlock
 62
     7
370
    50
100
AcDbBlockReference
  2
KLON13
 10
0.0
 20
0.0
 30
0.0
  0
INSERT
  5
3A9
330
1F
100
AcDbEntity
  8
LC-001-100-D00-0
  6
ByBlock
 62
     7
370
    50
100
AcDbBlockReference
  2
KLON14
 10
0.0
 20
0.0
 30
0.0
  0
LINE
  5
3AA
330
1F
100
AcDbEntity
  8
LC-001-100-D00-0
  6
ByBlock
 62
     7
370
    50
100
AcDbLine
 10
-8.339018
 20
303.255537
 30
0.0
 11
33.558166
 21
303.255536
 31
0.0
  0
LINE
  5
3AB
330
1F
100
AcDbEntity
  8
LC-001-100-D00-0
  6
ByBlock
 62
     7
370
    50
100
AcDbLine
 10
33.558166
 20
257.255536
 30
0.0
 11
33.558166
 21
303.255536
 31
0.0
  0
LINE
  5
3AC
330
1F
100
AcDbEntity
  8
LC-001-100-D00-0
  6
ByBlock
 62
     7
370
    50
100
AcDbLine
 10
33.558166
 20
257.255536
 30
0.0
 11
-5.339019
 21
257.255537
 31
0.0
  0
INSERT
  5
3B2
330
1F
100
AcDbEntity
  8
LC-001-100-D00-0
  6
ByBlock
 62
     7
370
    50
100
AcDbBlockReference
  2
KLON15
 10
0.0
 20
0.0
 30
0.0
  0
LINE
  5
3B3
330
1F
100
AcDbEntity
  8
LC-001-100-D00-0
  6
ByBlock
 62
     7
370
    50
100
AcDbLine
 10
-8.33902
 20
307.005536
 30
0.0
 11
-11.33902
 21
307.005536
 31
0.0
  0
LINE
  5
3B4
330
1F
100
AcDbEntity
  8
LC-001-100-D00-0
  6
ByBlock
 62
     7
370
    50
100
AcDbLine
 10
-8.33902
 20
307.005536
 30
0.0
 11
-8.339018
 21
303.255537
 31
0.0
  0
LINE
  5
3B5
330
1F
100
AcDbEntity
  8
LC-001-100-D00-0
  6
ByBlock
 62
     7
370
    50
100
AcDbLine
 10
-18.33902
 20
254.255536
 30
0.0
 11
-5.339019
 21
254.255538
 31
0.0
  0
ARC
  5
3B6
330
1F
100
AcDbEntity
  8
LC-001-100-D00-0
  6
ByBlock
 62
     7
370
    50
100
AcDbCircle
 10
-25.32114
 20
254.755536
 30
0.0
 40
6.999999999999773
100
AcDbArc
 50
270.0
 51
355.903956
  0
LINE
  5
3B7
330
1F
100
AcDbEntity
  8
LC-001-100-D00-0
  6
ByBlock
 62
     7
370
    50
100
AcDbLine
 10
-25.32114
 20
247.755536
 30
0.0
 11
-133.3569
 21
247.755536
 31
0.0
  0
ARC
  5
3B8
330
1F
100
AcDbEntity
  8
LC-001-100-D00-0
  6
ByBlock
 62
     7
370
    50
100
AcDbCircle
 10
-133.3569
 20
254.755536
 30
0.0
 40
6.999999999999942
100
AcDbArc
 50
184.096044
 51
270.0
  0
LINE
  5
3B9
330
1F
100
AcDbEntity
  8
LC-001-100-D00-0
  6
ByBlock
 62
     7
370
    50
100
AcDbLine
 10
-140.83902
 20
254.255536
 30
0.0
 11
-140.33902
 21
254.255536
 31
0.0
  0
ARC
  5
3BA
330
1F
100
AcDbEntity
  8
LC-001-100-D00-0
  6
ByBlock
 62
     7
370
    50
100
AcDbCircle
 10
-140.83902
 20
266.755536
 30
0.0
 40
12.5
100
AcDbArc
 50
180.0
 51
270.0
  0
LINE
  5
3BB
330
1F
100
AcDbEntity
  8
LC-001-100-D00-0
  6
ByBlock
 62
     7
370
    50
100
AcDbLine
 10
-153.33902
 20
266.755536
 30
0.0
 11
-153.339021
 21
307.005535
 31
0.0
  0
LINE
  5
3BC
330
1F
100
AcDbEntity
  8
LC-001-100-D00-0
  6
ByBlock
 62
     7
370
    50
100
AcDbLine
 10
-153.339021
 20
307.005535
 30
0.0
 11
-150.33902
 21
307.005536
 31
0.0
  0
LINE
  5
3BD
330
1F
100
AcDbEntity
  8
LC-001-100-D00-0
  6
ByBlock
 62
     7
370
    50
100
AcDbLine
 10
-150.33902
 20
266.755536
 30
0.0
 11
-150.33902
 21
307.005536
 31
0.0
  0
ARC
  5
3BE
330
1F
100
AcDbEntity
  8
LC-001-100-D00-0
  6
ByBlock
 62
     7
370
    50
100
AcDbCircle
 10
-140.83902
 20
266.755536
 30
0.0
 40
9.5
100
AcDbArc
 50
180.0
 51
270.0
  0
LINE
  5
3BF
330
1F
100
AcDbEntity
  8
LC-001-100-D00-0
  6
ByBlock
 62
     7
370
    50
100
AcDbLine
 10
-140.83902
 20
257.255536
 30
0.0
 11
-138.33902
 21
257.255536
 31
0.0
  0
ARC
  5
3C0
330
1F
100
AcDbEntity
  8
LC-001-100-D00-0
  6
ByBlock
 62
     7
370
    50
100
AcDbCircle
 10
-138.33902
 20
256.255536
 30
0.0
 40
1.000000000000114
100
AcDbArc
 50
0.0
 51
90.0
  0
LINE
  5
3C1
330
1F
100
AcDbEntity
  8
LC-001-100-D00-0
  6
ByBlock
 62
     7
370
    50
100
AcDbLine
 10
-137.33902
 20
256.255536
 30
0.0
 11
-137.33902
 21
254.755536
 31
0.0
  0
ARC
  5
3C2
330
1F
100
AcDbEntity
  8
LC-001-100-D00-0
  6
ByBlock
 62
     7
370
    50
100
AcDbCircle
 10
-133.33902
 20
254.755536
 30
0.0
 40
4.000000000000114
100
AcDbArc
 50
180.0
 51
270.0
  0
LINE
  5
3C3
330
1F
100
AcDbEntity
  8
LC-001-100-D00-0
  6
ByBlock
 62
     7
370
    50
100
AcDbLine
 10
-25.33902
 20
250.755536
 30
0.0
 11
-133.33902
 21
250.755536
 31
0.0
  0
ARC
  5
3C4
330
1F
100
AcDbEntity
  8
LC-001-100-D00-0
  6
ByBlock
 62
     7
370
    50
100
AcDbCircle
 10
-25.33902
 20
254.755536
 30
0.0
 40
4.0
100
AcDbArc
 50
270.0
 51
0.0
  0
LINE
  5
3C5
330
1F
100
AcDbEntity
  8
LC-001-100-D00-0
  6
ByBlock
 62
     7
370
    50
100
AcDbLine
 10
-21.33902
 20
254.755536
 30
0.0
 11
-21.33902
 21
256.255536
 31
0.0
  0
ARC
  5
3C6
330
1F
100
AcDbEntity
  8
LC-001-100-D00-0
  6
ByBlock
 62
     7
370
    50
100
AcDbCircle
 10
-20.33902
 20
256.255536
 30
0.0
 40
1.0
100
AcDbArc
 50
90.0
 51
180.0
  0
LINE
  5
3C7
330
1F
100
AcDbEntity
  8
LC-001-100-D00-0
  6
ByBlock
 62
     7
370
    50
100
AcDbLine
 10
-20.33902
 20
257.255536
 30
0.0
 11
-5.339019
 21
257.255537
 31
0.0
  0
LINE
  5
3C8
330
1F
100
AcDbEntity
  8
LC-001-100-D00-0
  6
ByBlock
 62
     7
370
    50
100
AcDbLine
 10
39.158166
 20
255.755021
 30
0.0
 11
33.558166
 21
257.255536
 31
0.0
  0
LINE
  5
3C9
330
1F
100
AcDbEntity
  8
LC-001-100-D00-0
  6
ByBlock
 62
     7
370
    50
100
AcDbLine
 10
39.158166
 20
255.321281
 30
0.0
 11
39.158166
 21
255.755021
 31
0.0
  0
ARC
  5
3CA
330
1F
100
AcDbEntity
  8
LC-001-100-D00-0
  6
ByBlock
 62
     7
370
    50
100
AcDbCircle
 10
38.658208
 20
255.321281
 30
0.0
 40
0.4999578796801637
100
AcDbArc
 50
301.198872
 51
0.0
  0
ARC
  5
3CB
330
1F
100
AcDbEntity
  8
LC-001-100-D00-0
  6
ByBlock
 62
     7
370
    50
100
AcDbCircle
 10
23.559484
 20
280.253346
 30
0.0
 40
29.64750216706083
100
AcDbArc
 50
292.382556
 51
301.198872
  0
ARC
  5
3CC
330
1F
100
AcDbEntity
  8
LC-001-100-D00-0
  6
ByBlock
 62
     7
370
    50
100
AcDbCircle
 10
34.658544
 20
253.301719
 30
0.0
 40
0.4999578796800961
100
AcDbArc
 50
180.0
 51
292.382556
  0
LINE
  5
3CD
330
1F
100
AcDbEntity
  8
LC-001-100-D00-0
  6
ByBlock
 62
     7
370
    50
100
AcDbLine
 10
34.158586
 20
254.605578
 30
0.0
 11
34.158586
 21
253.301719
 31
0.0
  0
ARC
  5
3CE
330
1F
100
AcDbEntity
  8
LC-001-100-D00-0
  6
ByBlock
 62
     7
370
    50
100
AcDbCircle
 10
33.658629
 20
254.605578
 30
0.0
 40
0.4999578796802098
100
AcDbArc
 50
0.0
 51
90.0
  0
LINE
  5
3CF
330
1F
100
AcDbEntity
  8
LC-001-100-D00-0
  6
ByBlock
 62
     7
370
    50
100
AcDbLine
 10
30.158923
 20
255.105536
 30
0.0
 11
33.658629
 21
255.105536
 31
0.0
  0
ARC
  5
3D0
330
1F
100
AcDbEntity
  8
LC-001-100-D00-0
  6
ByBlock
 62
     7
370
    50
100
AcDbCircle
 10
30.158923
 20
254.605578
 30
0.0
 40
0.4999578796800961
100
AcDbArc
 50
90.0
 51
180.0
  0
LINE
  5
3D1
330
1F
100
AcDbEntity
  8
LC-001-100-D00-0
  6
ByBlock
 62
     7
370
    50
100
AcDbLine
 10
29.658965
 20
251.648717
 30
0.0
 11
29.658965
 21
254.605578
 31
0.0
  0
ARC
  5
3D2
330
1F
100
AcDbEntity
  8
LC-001-100-D00-0
  6
ByBlock
 62
     7
370
    50
100
AcDbCircle
 10
29.159008
 20
251.648717
 30
0.0
 40
0.4999578796802683
100
AcDbArc
 50
281.075925
 51
0.0
  0
ARC
  5
3D3
330
1F
100
AcDbEntity
  8
LC-001-100-D00-0
  6
ByBlock
 62
     7
370
    50
100
AcDbCircle
 10
23.559484
 20
280.253346
 30
0.0
 40
29.64750432250012
100
AcDbArc
 50
241.270296
 51
281.075925
  0
LINE
  5
3D4
330
1F
100
AcDbEntity
  8
LC-001-100-D00-0
  6
ByBlock
 62
     7
370
    50
100
AcDbLine
 10
8.160777
 20
254.255538
 30
0.0
 11
9.308575
 21
254.255536
 31
0.0
  0
LINE
  5
3D5
330
1F
100
AcDbEntity
  8
LC-001-100-D00-0
  6
ByBlock
 62
     7
370
    50
100
AcDbLine
 10
8.160777
 20
252.755535
 30
0.0
 11
8.160777
 21
254.255538
 31
0.0
  0
LINE
  5
3D6
330
1F
100
AcDbEntity
  8
LC-001-100-D00-0
  6
ByBlock
 62
     7
370
    50
100
AcDbLine
 10
5.660981
 20
252.755535
 30
0.0
 11
8.160777
 21
252.755535
 31
0.0
  0
LINE
  5
3D7
330
1F
100
AcDbEntity
  8
LC-001-100-D00-0
  6
ByBlock
 62
     7
370
    50
100
AcDbLine
 10
5.660981
 20
254.255538
 30
0.0
 11
5.660981
 21
252.755535
 31
0.0
  0
ARC
  5
3D8
330
1F
100
AcDbEntity
  8
LC-001-100-D00-0
  6
ByBlock
 62
     7
370
    50
100
AcDbCircle
 10
23.559484
 20
280.257726
 30
0.0
 40
29.64750216706075
100
AcDbArc
 50
58.801128
 51
67.617444
  0
ARC
  5
3D9
330
1F
100
AcDbEntity
  8
LC-001-100-D00-0
  6
ByBlock
 62
     7
370
    50
100
AcDbCircle
 10
38.658208
 20
305.189791
 30
0.0
 40
0.4999578796799824
100
AcDbArc
 50
0.0
 51
58.801128
  0
ARC
  5
3DA
330
1F
100
AcDbEntity
  8
LC-001-100-D00-0
  6
ByBlock
 62
     7
370
    50
100
AcDbCircle
 10
33.658629
 20
305.905494
 30
0.0
 40
0.4999578796798687
100
AcDbArc
 50
270.0
 51
0.0
  0
LINE
  5
3DB
330
1F
100
AcDbEntity
  8
LC-001-100-D00-0
  6
ByBlock
 62
     7
370
    50
100
AcDbLine
 10
34.158586
 20
307.209353
 30
0.0
 11
34.158586
 21
305.905494
 31
0.0
  0
ARC
  5
3DC
330
1F
100
AcDbEntity
  8
LC-001-100-D00-0
  6
ByBlock
 62
     7
370
    50
100
AcDbCircle
 10
34.658544
 20
307.209353
 30
0.0
 40
0.4999578796799869
100
AcDbArc
 50
67.617444
 51
180.0
  0
LINE
  5
3DD
330
1F
100
AcDbEntity
  8
LC-001-100-D00-0
  6
ByBlock
 62
     7
370
    50
100
AcDbLine
 10
39.158166
 20
304.756052
 30
0.0
 11
39.158166
 21
305.189791
 31
0.0
  0
LINE
  5
3DE
330
1F
100
AcDbEntity
  8
LC-001-100-D00-0
  6
ByBlock
 62
     7
370
    50
100
AcDbLine
 10
33.558166
 20
303.255536
 30
0.0
 11
39.158166
 21
304.756052
 31
0.0
  0
LINE
  5
3DF
330
1F
100
AcDbEntity
  8
LC-001-100-D00-0
  6
ByBlock
 62
     7
370
    50
100
AcDbLine
 10
-8.33902
 20
307.005536
 30
0.0
 11
-5.339019
 21
307.005535
 31
0.0
  0
LINE
  5
3E0
330
1F
100
AcDbEntity
  8
LC-001-100-D00-0
  6
ByBlock
 62
     7
370
    50
100
AcDbLine
 10
5.660981
 20
307.755537
 30
0.0
 11
5.660981
 21
306.255536
 31
0.0
  0
LINE
  5
3E1
330
1F
100
AcDbEntity
  8
LC-001-100-D00-0
  6
ByBlock
 62
     7
370
    50
100
AcDbLine
 10
8.160777
 20
307.755536
 30
0.0
 11
5.660981
 21
307.755537
 31
0.0
  0
ARC
  5
3E2
330
1F
100
AcDbEntity
  8
LC-001-100-D00-0
  6
ByBlock
 62
     7
370
    50
100
AcDbCircle
 10
23.523068
 20
280.255536
 30
0.0
 40
31.49999999999995
100
AcDbArc
 50
105.394857
 51
119.188982
  0
LINE
  5
3E3
330
1F
100
AcDbEntity
  8
LC-001-100-D00-0
  6
ByBlock
 62
     7
370
    50
100
AcDbLine
 10
15.160777
 20
310.625292
 30
0.0
 11
15.160777
 21
308.69074
 31
0.0
  0
ARC
  5
3E4
330
1F
100
AcDbEntity
  8
LC-001-100-D00-0
  6
ByBlock
 62
     7
370
    50
100
AcDbCircle
 10
23.559484
 20
280.257726
 30
0.0
 40
29.6475043225003
100
AcDbArc
 50
78.924075
 51
106.456389
  0
ARC
  5
3E5
330
1F
100
AcDbEntity
  8
LC-001-100-D00-0
  6
ByBlock
 62
     7
370
    50
100
AcDbCircle
 10
29.159008
 20
308.862355
 30
0.0
 40
0.4999578796802098
100
AcDbArc
 50
0.0
 51
78.924075
  0
LINE
  5
3E6
330
1F
100
AcDbEntity
  8
LC-001-100-D00-0
  6
ByBlock
 62
     7
370
    50
100
AcDbLine
 10
29.658965
 20
305.905494
 30
0.0
 11
29.658965
 21
308.862355
 31
0.0
  0
ARC
  5
3E7
330
1F
100
AcDbEntity
  8
LC-001-100-D00-0
  6
ByBlock
 62
     7
370
    50
100
AcDbCircle
 10
30.158923
 20
305.905494
 30
0.0
 40
0.4999578796799824
100
AcDbArc
 50
180.0
 51
270.0
  0
LINE
  5
3E8
330
1F
100
AcDbEntity
  8
LC-001-100-D00-0
  6
ByBlock
 62
     7
370
    50
100
AcDbLine
 10
33.658629
 20
305.405536
 30
0.0
 11
30.158923
 21
305.405536
 31
0.0
  0
LINE
  5
3E9
330
1F
100
AcDbEntity
  8
LC-001-100-D00-0
  6
ByBlock
 62
     7
370
    50
100
AcDbLine
 10
39.158166
 20
304.756052
 30
0.0
 11
39.158166
 21
255.755021
 31
0.0
  0
LINE
  5
3EA
330
1F
100
AcDbEntity
  8
LC-001-100-D00-0
  6
ByBlock
 62
     7
370
    50
100
AcDbLine
 10
-34.9054
 20
257.255536
 30
0.0
 11
-20.33902
 21
257.255536
 31
0.0
  0
LINE
  5
3EB
330
1F
100
AcDbEntity
  8
LC-001-100-D00-0
  6
ByBlock
 62
     7
370
    50
100
AcDbLine
 10
-138.33902
 20
257.255536
 30
0.0
 11
-123.77264
 21
257.255536
 31
0.0
  0
LINE
  5
3EC
330
1F
100
AcDbEntity
  8
LC-001-100-D00-0
  6
ByBlock
 62
     7
370
    50
100
AcDbLine
 10
-147.33902
 20
307.005536
 30
0.0
 11
-150.33902
 21
307.005536
 31
0.0
  0
LINE
  5
3ED
330
1F
100
AcDbEntity
  8
LC-001-100-D00-0
  6
ByBlock
 62
     7
370
    50
100
AcDbLine
 10
-37.349895
 20
257.255536
 30
0.0
 11
-34.9054
 21
257.255536
 31
0.0
  0
LINE
  5
3EE
330
1F
100
AcDbEntity
  8
LC-001-100-D00-0
  6
ByBlock
 62
     7
370
    50
100
AcDbLine
 10
-123.77264
 20
257.255536
 30
0.0
 11
-121.328145
 21
257.255536
 31
0.0
  0
LINE
  5
3EF
330
1F
100
AcDbEntity
  8
LC-001-100-D00-0
  6
ByBlock
 62
     7
370
    50
100
AcDbLine
 10
-121.328145
 20
257.255536
 30
0.0
 11
-120.339021
 21
257.255537
 31
0.0
  0
LINE
  5
3F0
330
1F
100
AcDbEntity
  8
LC-001-100-D00-0
  6
ByBlock
 62
     7
370
    50
100
AcDbLine
 10
-38.339019
 20
257.255537
 30
0.0
 11
-37.349895
 21
257.255536
 31
0.0
  0
CIRCLE
  5
3F1
330
1F
100
AcDbEntity
  8
LC-001-100-D00-0
  6
ByBlock
 62
     7
370
    50
100
AcDbCircle
 10
-25.08902
 20
308.505536
 30
0.0
 40
1.75
  0
CIRCLE
  5
3F2
330
1F
100
AcDbEntity
  8
LC-001-100-D00-0
  6
ByBlock
 62
     7
370
    50
100
AcDbCircle
 10
-133.58902
 20
308.505536
 30
0.0
 40
1.750000000000114
  0
LINE
  5
3F3
330
1F
100
AcDbEntity
  8
LC-001-100-D00-0
  6
ByBlock
 62
     7
370
    50
100
AcDbLine
 10
-24.839021
 20
310.255536
 30
0.0
 11
-24.839021
 21
311.755536
 31
0.0
  0
LINE
  5
3F4
330
1F
100
AcDbEntity
  8
LC-001-100-D00-0
  6
ByBlock
 62
     7
370
    50
100
AcDbLine
 10
-26.839022
 20
310.255536
 30
0.0
 11
-24.839021
 21
310.255536
 31
0.0
  0
LINE
  5
3F5
330
1F
100
AcDbEntity
  8
LC-001-100-D00-0
  6
ByBlock
 62
     7
370
    50
100
AcDbLine
 10
-26.839022
 20
310.255536
 30
0.0
 11
-26.839022
 21
306.755537
 31
0.0
  0
LINE
  5
3F6
330
1F
100
AcDbEntity
  8
LC-001-100-D00-0
  6
ByBlock
 62
     7
370
    50
100
AcDbLine
 10
-26.839022
 20
306.755537
 30
0.0
 11
-24.839021
 21
306.755537
 31
0.0
  0
LINE
  5
3F7
330
1F
100
AcDbEntity
  8
LC-001-100-D00-0
  6
ByBlock
 62
     7
370
    50
100
AcDbLine
 10
-24.839021
 20
306.755537
 30
0.0
 11
-24.839021
 21
305.755535
 31
0.0
  0
LINE
  5
3F8
330
1F
100
AcDbEntity
  8
LC-001-100-D00-0
  6
ByBlock
 62
     7
370
    50
100
AcDbLine
 10
-40.33902
 20
305.755536
 30
0.0
 11
-24.839021
 21
305.755535
 31
0.0
  0
ARC
  5
3F9
330
1F
100
AcDbEntity
  8
LC-001-100-D00-0
  6
ByBlock
 62
     7
370
    50
100
AcDbCircle
 10
-40.33902
 20
295.755536
 30
0.0
 40
10.00000000000023
100
AcDbArc
 50
90.0
 51
180.0
  0
LINE
  5
3FA
330
1F
100
AcDbEntity
  8
LC-001-100-D00-0
  6
ByBlock
 62
     7
370
    50
100
AcDbLine
 10
-50.33902
 20
295.755536
 30
0.0
 11
-50.339021
 21
266.255533
 31
0.0
  0
LINE
  5
3FB
330
1F
100
AcDbEntity
  8
LC-001-100-D00-0
  6
ByBlock
 62
     7
370
    50
100
AcDbLine
 10
-51.83902
 20
266.255536
 30
0.0
 11
-50.339021
 21
266.255533
 31
0.0
  0
LINE
  5
3FC
330
1F
100
AcDbEntity
  8
LC-001-100-D00-0
  6
ByBlock
 62
     7
370
    50
100
AcDbLine
 10
-51.83902
 20
309.755536
 30
0.0
 11
-51.83902
 21
266.255536
 31
0.0
  0
ARC
  5
3FD
330
1F
100
AcDbEntity
  8
LC-001-100-D00-0
  6
ByBlock
 62
     7
370
    50
100
AcDbCircle
 10
-49.83902
 20
309.755536
 30
0.0
 40
2.0
100
AcDbArc
 50
90.0
 51
180.0
  0
LINE
  5
3FE
330
1F
100
AcDbEntity
  8
LC-001-100-D00-0
  6
ByBlock
 62
     7
370
    50
100
AcDbLine
 10
-49.83902
 20
311.755536
 30
0.0
 11
-24.839021
 21
311.755536
 31
0.0
  0
LINE
  5
3FF
330
1F
100
AcDbEntity
  8
LC-001-100-D00-0
  6
ByBlock
 62
     7
370
    50
100
AcDbLine
 10
-67.83902
 20
311.755536
 30
0.0
 11
-49.83902
 21
311.755536
 31
0.0
  0
LINE
  5
400
330
1F
100
AcDbEntity
  8
LC-001-100-D00-0
  6
ByBlock
 62
     7
370
    50
100
AcDbLine
 10
-67.83902
 20
266.255536
 30
0.0
 11
-51.83902
 21
266.255536
 31
0.0
  0
LINE
  5
401
330
1F
100
AcDbEntity
  8
LC-001-100-D00-0
  6
ByBlock
 62
     7
370
    50
100
AcDbLine
 10
-108.339019
 20
266.255533
 30
0.0
 11
-108.33902
 21
295.755536
 31
0.0
  0
ARC
  5
402
330
1F
100
AcDbEntity
  8
LC-001-100-D00-0
  6
ByBlock
 62
     7
370
    50
100
AcDbCircle
 10
-108.83902
 20
309.755536
 30
0.0
 40
2.000000000000227
100
AcDbArc
 50
0.0
 51
90.0
  0
LINE
  5
403
330
1F
100
AcDbEntity
  8
LC-001-100-D00-0
  6
ByBlock
 62
     7
370
    50
100
AcDbLine
 10
-108.83902
 20
311.755536
 30
0.0
 11
-90.83902
 21
311.755536
 31
0.0
  0
LINE
  5
404
330
1F
100
AcDbEntity
  8
LC-001-100-D00-0
  6
ByBlock
 62
     7
370
    50
100
AcDbLine
 10
-106.83902
 20
266.255536
 30
0.0
 11
-106.83902
 21
309.755536
 31
0.0
  0
LINE
  5
405
330
1F
100
AcDbEntity
  8
LC-001-100-D00-0
  6
ByBlock
 62
     7
370
    50
100
AcDbLine
 10
-106.83902
 20
266.255536
 30
0.0
 11
-90.83902
 21
266.255536
 31
0.0
  0
ARC
  5
406
330
1F
100
AcDbEntity
  8
LC-001-100-D00-0
  6
ByBlock
 62
     7
370
    50
100
AcDbCircle
 10
-118.33902
 20
295.755536
 30
0.0
 40
10.0
100
AcDbArc
 50
0.0
 51
90.0
  0
LINE
  5
407
330
1F
100
AcDbEntity
  8
LC-001-100-D00-0
  6
ByBlock
 62
     7
370
    50
100
AcDbLine
 10
-133.839019
 20
305.755535
 30
0.0
 11
-133.839019
 21
306.755537
 31
0.0
  0
LINE
  5
408
330
1F
100
AcDbEntity
  8
LC-001-100-D00-0
  6
ByBlock
 62
     7
370
    50
100
AcDbLine
 10
-131.839018
 20
306.755537
 30
0.0
 11
-131.839018
 21
310.255536
 31
0.0
  0
LINE
  5
409
330
1F
100
AcDbEntity
  8
LC-001-100-D00-0
  6
ByBlock
 62
     7
370
    50
100
AcDbLine
 10
-133.839019
 20
311.755536
 30
0.0
 11
-133.839019
 21
310.255536
 31
0.0
  0
LINE
  5
40A
330
1F
100
AcDbEntity
  8
LC-001-100-D00-0
  6
ByBlock
 62
     7
370
    50
100
AcDbLine
 10
-108.339019
 20
266.255533
 30
0.0
 11
-106.83902
 21
266.255536
 31
0.0
  0
LINE
  5
40B
330
1F
100
AcDbEntity
  8
LC-001-100-D00-0
  6
ByBlock
 62
     7
370
    50
100
AcDbLine
 10
-133.839019
 20
306.755537
 30
0.0
 11
-131.839018
 21
306.755537
 31
0.0
  0
LINE
  5
40C
330
1F
100
AcDbEntity
  8
LC-001-100-D00-0
  6
ByBlock
 62
     7
370
    50
100
AcDbLine
 10
-133.839019
 20
310.255536
 30
0.0
 11
-131.839018
 21
310.255536
 31
0.0
  0
LINE
  5
40D
330
1F
100
AcDbEntity
  8
LC-001-100-D00-0
  6
ByBlock
 62
     7
370
    50
100
AcDbLine
 10
-133.839019
 20
311.755536
 30
0.0
 11
-108.83902
 21
311.755536
 31
0.0
  0
LINE
  5
40E
330
1F
100
AcDbEntity
  8
LC-001-100-D00-0
  6
ByBlock
 62
     7
370
    50
100
AcDbLine
 10
-133.839019
 20
305.755535
 30
0.0
 11
-118.33902
 21
305.755536
 31
0.0
  0
LINE
  5
40F
330
1F
100
AcDbEntity
  8
LC-001-100-D00-0
  6
ByBlock
 62
     7
370
    50
100
AcDbLine
 10
-90.83902
 20
311.755536
 30
0.0
 11
-67.83902
 21
311.755536
 31
0.0
  0
LINE
  5
410
330
1F
100
AcDbEntity
  8
LC-001-100-D00-0
  6
ByBlock
 62
     7
370
    50
100
AcDbLine
 10
-90.83902
 20
266.255536
 30
0.0
 11
-67.83902
 21
266.255536
 31
0.0
  0
LINE
  5
411
330
1F
100
AcDbEntity
  8
LC-001-100-D00-0
  6
ByBlock
 62
     7
370
    50
100
AcDbLine
 10
-38.339019
 20
296.255538
 30
0.0
 11
-28.403335
 21
303.561187
 31
0.0
  0
LINE
  5
412
330
1F
100
AcDbEntity
  8
LC-001-100-D00-0
  6
ByBlock
 62
     7
370
    50
100
AcDbLine
 10
-38.339019
 20
296.255538
 30
0.0
 11
-38.33902
 21
255.255536
 31
0.0
  0
ARC
  5
413
330
1F
100
AcDbEntity
  8
LC-001-100-D00-0
  6
ByBlock
 62
     7
370
    50
100
AcDbCircle
 10
-43.33902
 20
255.255536
 30
0.0
 40
5.0
100
AcDbArc
 50
270.0
 51
0.0
  0
LINE
  5
414
330
1F
100
AcDbEntity
  8
LC-001-100-D00-0
  6
ByBlock
 62
     7
370
    50
100
AcDbLine
 10
-43.33902
 20
250.255536
 30
0.0
 11
-115.33902
 21
250.255536
 31
0.0
  0
ARC
  5
415
330
1F
100
AcDbEntity
  8
LC-001-100-D00-0
  6
ByBlock
 62
     7
370
    50
100
AcDbCircle
 10
-115.33902
 20
255.255536
 30
0.0
 40
5.0
100
AcDbArc
 50
180.0
 51
270.0
  0
LINE
  5
416
330
1F
100
AcDbEntity
  8
LC-001-100-D00-0
  6
ByBlock
 62
     7
370
    50
100
AcDbLine
 10
-120.33902
 20
255.255536
 30
0.0
 11
-120.339021
 21
296.255538
 31
0.0
  0
LINE
  5
417
330
1F
100
AcDbEntity
  8
LC-001-100-D00-0
  6
ByBlock
 62
     7
370
    50
100
AcDbLine
 10
-120.339021
 20
296.255538
 30
0.0
 11
-130.274705
 21
303.561187
 31
0.0
  0
ARC
  5
418
330
1F
100
AcDbEntity
  8
LC-001-100-D00-0
  6
ByBlock
 62
     7
370
    50
100
AcDbCircle
 10
-130.867096
 20
302.755536
 30
0.0
 40
1.000000000000014
100
AcDbArc
 50
53.673174
 51
90.0
  0
LINE
  5
419
330
1F
100
AcDbEntity
  8
LC-001-100-D00-0
  6
ByBlock
 62
     7
370
    50
100
AcDbLine
 10
-134.43902
 20
303.755536
 30
0.0
 11
-130.867096
 21
303.755536
 31
0.0
  0
LINE
  5
41A
330
1F
100
AcDbEntity
  8
LC-001-100-D00-0
  6
ByBlock
 62
     7
370
    50
100
AcDbLine
 10
-134.43902
 20
303.755536
 30
0.0
 11
-134.43902
 21
305.755536
 31
0.0
  0
LINE
  5
41B
330
1F
100
AcDbEntity
  8
LC-001-100-D00-0
  6
ByBlock
 62
     7
370
    50
100
AcDbLine
 10
-134.43902
 20
305.755536
 30
0.0
 11
-130.867096
 21
305.755536
 31
0.0
  0
ARC
  5
41C
330
1F
100
AcDbEntity
  8
LC-001-100-D00-0
  6
ByBlock
 62
     7
370
    50
100
AcDbCircle
 10
-130.867096
 20
302.755536
 30
0.0
 40
3.000000000000158
100
AcDbArc
 50
53.673174
 51
90.0
  0
LINE
  5
41D
330
1F
100
AcDbEntity
  8
LC-001-100-D00-0
  6
ByBlock
 62
     7
370
    50
100
AcDbLine
 10
-129.089924
 20
305.172489
 30
0.0
 11
-119.24663
 21
297.934772
 31
0.0
  0
ARC
  5
41E
330
1F
100
AcDbEntity
  8
LC-001-100-D00-0
  6
ByBlock
 62
     7
370
    50
100
AcDbCircle
 10
-119.83902
 20
297.129121
 30
0.0
 40
1.000000000000114
100
AcDbArc
 50
0.0
 51
53.673174
  0
LINE
  5
41F
330
1F
100
AcDbEntity
  8
LC-001-100-D00-0
  6
ByBlock
 62
     7
370
    50
100
AcDbLine
 10
-118.83902
 20
255.255536
 30
0.0
 11
-118.83902
 21
297.129121
 31
0.0
  0
ARC
  5
420
330
1F
100
AcDbEntity
  8
LC-001-100-D00-0
  6
ByBlock
 62
     7
370
    50
100
AcDbCircle
 10
-115.33902
 20
255.255536
 30
0.0
 40
3.500000000000114
100
AcDbArc
 50
180.0
 51
270.0
  0
LINE
  5
421
330
1F
100
AcDbEntity
  8
LC-001-100-D00-0
  6
ByBlock
 62
     7
370
    50
100
AcDbLine
 10
-43.33902
 20
251.755536
 30
0.0
 11
-115.33902
 21
251.755536
 31
0.0
  0
ARC
  5
422
330
1F
100
AcDbEntity
  8
LC-001-100-D00-0
  6
ByBlock
 62
     7
370
    50
100
AcDbCircle
 10
-43.33902
 20
255.255536
 30
0.0
 40
3.5
100
AcDbArc
 50
270.0
 51
0.0
  0
LINE
  5
423
330
1F
100
AcDbEntity
  8
LC-001-100-D00-0
  6
ByBlock
 62
     7
370
    50
100
AcDbLine
 10
-39.83902
 20
297.129121
 30
0.0
 11
-39.83902
 21
255.255536
 31
0.0
  0
ARC
  5
424
330
1F
100
AcDbEntity
  8
LC-001-100-D00-0
  6
ByBlock
 62
     7
370
    50
100
AcDbCircle
 10
-38.83902
 20
297.129121
 30
0.0
 40
1.000000000000014
100
AcDbArc
 50
126.326826
 51
180.0
  0
LINE
  5
425
330
1F
100
AcDbEntity
  8
LC-001-100-D00-0
  6
ByBlock
 62
     7
370
    50
100
AcDbLine
 10
-29.588116
 20
305.172489
 30
0.0
 11
-39.43141
 21
297.934772
 31
0.0
  0
ARC
  5
426
330
1F
100
AcDbEntity
  8
LC-001-100-D00-0
  6
ByBlock
 62
     7
370
    50
100
AcDbCircle
 10
-27.810944
 20
302.755536
 30
0.0
 40
3.0
100
AcDbArc
 50
90.0
 51
126.326826
  0
LINE
  5
427
330
1F
100
AcDbEntity
  8
LC-001-100-D00-0
  6
ByBlock
 62
     7
370
    50
100
AcDbLine
 10
-27.810944
 20
305.755536
 30
0.0
 11
-24.23902
 21
305.755536
 31
0.0
  0
LINE
  5
428
330
1F
100
AcDbEntity
  8
LC-001-100-D00-0
  6
ByBlock
 62
     7
370
    50
100
AcDbLine
 10
-24.23902
 20
305.755536
 30
0.0
 11
-24.23902
 21
303.755536
 31
0.0
  0
LINE
  5
429
330
1F
100
AcDbEntity
  8
LC-001-100-D00-0
  6
ByBlock
 62
     7
370
    50
100
AcDbLine
 10
-27.810944
 20
303.755536
 30
0.0
 11
-24.23902
 21
303.755536
 31
0.0
  0
ARC
  5
42A
330
1F
100
AcDbEntity
  8
LC-001-100-D00-0
  6
ByBlock
 62
     7
370
    50
100
AcDbCircle
 10
-27.810944
 20
302.755536
 30
0.0
 40
1.0
100
AcDbArc
 50
90.0
 51
126.326826
  0
ARC
  5
42B
330
1F
100
AcDbEntity
  8
LC-001-100-D00-0
  6
ByBlock
 62
     7
370
    50
100
AcDbCircle
 10
-38.845767
 20
297.123696
 30
0.0
 40
1.00037357344495
100
AcDbArc
 50
126.325165
 51
180.0
  0
LINE
  5
42C
330
1F
100
AcDbEntity
  8
LC-001-100-D00-0
  6
ByBlock
 62
     7
370
    50
100
AcDbLine
 10
-39.438356
 20
297.929665
 30
0.0
 11
-39.43141
 21
297.934772
 31
0.0
  0
LINE
  5
42D
330
1F
100
AcDbEntity
  8
LC-001-100-D00-0
  6
ByBlock
 62
     7
370
    50
100
AcDbLine
 10
-39.846141
 20
296.255536
 30
0.0
 11
-44.259625
 21
296.255536
 31
0.0
  0
LINE
  5
42E
330
1F
100
AcDbEntity
  8
LC-001-100-D00-0
  6
ByBlock
 62
     7
370
    50
100
AcDbLine
 10
-39.846141
 20
297.123754
 30
0.0
 11
-39.846141
 21
296.255536
 31
0.0
  0
LINE
  5
42F
330
1F
100
AcDbEntity
  8
LC-001-100-D00-0
  6
ByBlock
 62
     7
370
    50
100
AcDbLine
 10
-118.831899
 20
297.123754
 30
0.0
 11
-118.831899
 21
296.255536
 31
0.0
  0
LINE
  5
430
330
1F
100
AcDbEntity
  8
LC-001-100-D00-0
  6
ByBlock
 62
     7
370
    50
100
AcDbLine
 10
-114.418415
 20
296.255536
 30
0.0
 11
-118.831899
 21
296.255536
 31
0.0
  0
ARC
  5
431
330
1F
100
AcDbEntity
  8
LC-001-100-D00-0
  6
ByBlock
 62
     7
370
    50
100
AcDbCircle
 10
-119.832246
 20
297.123709
 30
0.0
 40
1.000347039121721
100
AcDbArc
 50
0.0
 51
53.675603
  0
LINE
  5
432
330
1F
100
AcDbEntity
  8
LC-001-100-D00-0
  6
ByBlock
 62
     7
370
    50
100
AcDbLine
 10
-46.386585
 20
303.719641
 30
0.0
 11
-46.386585
 21
296.255538
 31
0.0
  0
LINE
  5
433
330
1F
100
AcDbEntity
  8
LC-001-100-D00-0
  6
ByBlock
 62
     7
370
    50
100
AcDbLine
 10
-46.386587
 20
303.755536
 30
0.0
 11
-39.624605
 21
303.755536
 31
0.0
  0
LINE
  5
434
330
1F
100
AcDbEntity
  8
LC-001-100-D00-0
  6
ByBlock
 62
     7
370
    50
100
AcDbLine
 10
-35.251154
 20
303.755536
 30
0.0
 11
-31.515172
 21
303.755536
 31
0.0
  0
LINE
  5
435
330
1F
100
AcDbEntity
  8
LC-001-100-D00-0
  6
ByBlock
 62
     7
370
    50
100
AcDbLine
 10
-112.291455
 20
303.719641
 30
0.0
 11
-112.291455
 21
296.255538
 31
0.0
  0
LINE
  5
436
330
1F
100
AcDbEntity
  8
LC-001-100-D00-0
  6
ByBlock
 62
     7
370
    50
100
AcDbLine
 10
-127.162868
 20
303.755536
 30
0.0
 11
-123.426886
 21
303.755536
 31
0.0
  0
LINE
  5
437
330
1F
100
AcDbEntity
  8
LC-001-100-D00-0
  6
ByBlock
 62
     7
370
    50
100
AcDbLine
 10
-119.053435
 20
303.755536
 30
0.0
 11
-112.291453
 21
303.755536
 31
0.0
  0
LINE
  5
438
330
1F
100
AcDbEntity
  8
LC-001-100-D00-0
  6
ByBlock
 62
     7
370
    50
100
AcDbLine
 10
-44.259625
 20
296.255536
 30
0.0
 11
-50.326512
 21
296.255536
 31
0.0
  0
LINE
  5
439
330
1F
100
AcDbEntity
  8
LC-001-100-D00-0
  6
ByBlock
 62
     7
370
    50
100
AcDbLine
 10
-108.351528
 20
296.255536
 30
0.0
 11
-114.418415
 21
296.255536
 31
0.0
  0
ARC
  5
43A
330
1F
100
AcDbEntity
  8
LC-001-100-D00-0
  6
ByBlock
 62
     7
370
    50
100
AcDbCircle
 10
23.660777
 20
280.255536
 30
0.0
 40
32.0
100
AcDbArc
 50
51.375167
 51
90.0
  0
LINE
  5
43B
330
1F
100
AcDbEntity
  8
LC-001-100-D00-0
  6
ByBlock
 62
     7
370
    50
100
AcDbLine
 10
43.635761
 20
305.255536
 30
0.0
 11
126.660772
 21
305.255537
 31
0.0
  0
LINE
  5
43C
330
1F
100
AcDbEntity
  8
LC-001-100-D00-0
  6
ByBlock
 62
     7
370
    50
100
AcDbLine
 10
126.660772
 20
305.255537
 30
0.0
 11
130.160771
 21
304.317714
 31
0.0
  0
LINE
  5
43D
330
1F
100
AcDbEntity
  8
LC-001-100-D00-0
  6
ByBlock
 62
     7
370
    50
100
AcDbLine
 10
130.160771
 20
304.317714
 30
0.0
 11
130.160777
 21
303.005536
 31
0.0
  0
LINE
  5
43E
330
1F
100
AcDbEntity
  8
LC-001-100-D00-0
  6
ByBlock
 62
     7
370
    50
100
AcDbLine
 10
130.160777
 20
303.005536
 30
0.0
 11
42.440753
 21
303.005536
 31
0.0
  0
ARC
  5
43F
330
1F
100
AcDbEntity
  8
LC-001-100-D00-0
  6
ByBlock
 62
     7
370
    50
100
AcDbCircle
 10
23.660777
 20
280.255536
 30
0.0
 40
29.50000000000004
100
AcDbArc
 50
50.46055
 51
104.235124
  0
ARC
  5
440
330
1F
100
AcDbEntity
  8
LC-001-100-D00-0
  6
ByBlock
 62
     7
370
    50
100
AcDbCircle
 10
16.160777
 20
309.819027
 30
0.0
 40
1.000000000000114
100
AcDbArc
 50
180.0
 51
284.235124
  0
LINE
  5
441
330
1F
100
AcDbEntity
  8
LC-001-100-D00-0
  6
ByBlock
 62
     7
370
    50
100
AcDbLine
 10
15.160777
 20
309.819027
 30
0.0
 11
15.160777
 21
312.255537
 31
0.0
  0
LINE
  5
442
330
1F
100
AcDbEntity
  8
LC-001-100-D00-0
  6
ByBlock
 62
     7
370
    50
100
AcDbLine
 10
15.160777
 20
312.255537
 30
0.0
 11
23.660777
 21
312.255536
 31
0.0
  0
LINE
  5
443
330
1F
100
AcDbEntity
  8
LC-001-100-D00-0
  6
ByBlock
 62
     7
370
    50
100
AcDbLine
 10
15.160777
 20
248.255534
 30
0.0
 11
15.160777
 21
250.692045
 31
0.0
  0
ARC
  5
444
330
1F
100
AcDbEntity
  8
LC-001-100-D00-0
  6
ByBlock
 62
     7
370
    50
100
AcDbCircle
 10
16.160777
 20
250.692045
 30
0.0
 40
0.9999999999998909
100
AcDbArc
 50
75.764876
 51
180.0
  0
ARC
  5
445
330
1F
100
AcDbEntity
  8
LC-001-100-D00-0
  6
ByBlock
 62
     7
370
    50
100
AcDbCircle
 10
23.660777
 20
280.255536
 30
0.0
 40
29.5
100
AcDbArc
 50
255.764876
 51
309.53945
  0
LINE
  5
446
330
1F
100
AcDbEntity
  8
LC-001-100-D00-0
  6
ByBlock
 62
     7
370
    50
100
AcDbLine
 10
42.440753
 20
257.505536
 30
0.0
 11
130.160777
 21
257.505536
 31
0.0
  0
LINE
  5
447
330
1F
100
AcDbEntity
  8
LC-001-100-D00-0
  6
ByBlock
 62
     7
370
    50
100
AcDbLine
 10
130.160777
 20
257.505536
 30
0.0
 11
130.160771
 21
256.19336
 31
0.0
  0
LINE
  5
448
330
1F
100
AcDbEntity
  8
LC-001-100-D00-0
  6
ByBlock
 62
     7
370
    50
100
AcDbLine
 10
130.160771
 20
256.19336
 30
0.0
 11
126.660772
 21
255.255533
 31
0.0
  0
LINE
  5
449
330
1F
100
AcDbEntity
  8
LC-001-100-D00-0
  6
ByBlock
 62
     7
370
    50
100
AcDbLine
 10
126.660772
 20
255.255533
 30
0.0
 11
43.635761
 21
255.255536
 31
0.0
  0
ARC
  5
44A
330
1F
100
AcDbEntity
  8
LC-001-100-D00-0
  6
ByBlock
 62
     7
370
    50
100
AcDbCircle
 10
23.660777
 20
280.255536
 30
0.0
 40
32.00000000000023
100
AcDbArc
 50
270.0
 51
308.624833
  0
LINE
  5
44B
330
1F
100
AcDbEntity
  8
LC-001-100-D00-0
  6
ByBlock
 62
     7
370
    50
100
AcDbLine
 10
23.660777
 20
248.255536
 30
0.0
 11
15.160777
 21
248.255534
 31
0.0
  0
LINE
  5
44C
330
1F
100
AcDbEntity
  8
LC-001-100-D00-0
  6
ByBlock
 62
     7
370
    50
100
AcDbLine
 10
130.160777
 20
303.005536
 30
0.0
 11
130.160777
 21
257.505536
 31
0.0
  0
LINE
  5
44D
330
1F
100
AcDbEntity
  8
LC-001-100-D00-0
  6
ByBlock
 62
     7
370
    50
100
AcDbLine
 10
42.440753
 20
303.005536
 30
0.0
 11
42.440753
 21
257.505536
 31
0.0
  0
LINE
  5
44E
330
1F
100
AcDbEntity
  8
LC-001-100-D00-0
  6
ByBlock
 62
     7
370
    50
100
AcDbLine
 10
15.160777
 20
251.820333
 30
0.0
 11
15.160777
 21
250.692045
 31
0.0
  0
CIRCLE
  5
44F
330
1F
100
AcDbEntity
  8
LC-001-100-D00-0
  6
ByBlock
 62
     7
370
    50
100
AcDbCircle
 10
31.908776
 20
307.255536
 30
0.0
 40
2.0
  0
CIRCLE
  5
450
330
1F
100
AcDbEntity
  8
LC-001-100-D00-0
  6
ByBlock
 62
     7
370
    50
100
AcDbCircle
 10
31.908776
 20
253.255536
 30
0.0
 40
2.0
  0
LINE
  5
451
330
1F
100
AcDbEntity
  8
LC-001-100-D00-0
  6
ByBlock
 62
     7
370
    50
100
AcDbLine
 10
13.615089
 20
317.11924
 30
0.0
 11
-4.218582
 21
312.340722
 31
0.0
  0
ARC
  5
452
330
1F
100
AcDbEntity
  8
LC-001-100-D00-0
  6
ByBlock
 62
     7
370
    50
100
AcDbCircle
 10
14.650365
 20
313.255536
 30
0.0
 40
4.0
100
AcDbArc
 50
90.0
 51
105.0
  0
LINE
  5
453
330
1F
100
AcDbEntity
  8
LC-001-100-D00-0
  6
ByBlock
 62
     7
370
    50
100
AcDbLine
 10
14.650365
 20
317.255536
 30
0.0
 11
16.16098
 21
317.255536
 31
0.0
  0
LINE
  5
454
330
1F
100
AcDbEntity
  8
LC-001-100-D00-0
  6
ByBlock
 62
     7
370
    50
100
AcDbLine
 10
16.16098
 20
317.255536
 30
0.0
 11
16.16098
 21
318.655537
 31
0.0
  0
LINE
  5
455
330
1F
100
AcDbEntity
  8
LC-001-100-D00-0
  6
ByBlock
 62
     7
370
    50
100
AcDbLine
 10
16.66098
 20
318.655536
 30
0.0
 11
16.16098
 21
318.655537
 31
0.0
  0
ARC
  5
456
330
1F
100
AcDbEntity
  8
LC-001-100-D00-0
  6
ByBlock
 62
     7
370
    50
100
AcDbCircle
 10
15.66098
 20
320.155536
 30
0.0
 40
1.802775637732058
100
AcDbArc
 50
303.690068
 51
56.309932
  0
LINE
  5
457
330
1F
100
AcDbEntity
  8
LC-001-100-D00-0
  6
ByBlock
 62
     7
370
    50
100
AcDbLine
 10
16.660981
 20
336.255536
 30
0.0
 11
16.66098
 21
321.655536
 31
0.0
  0
LINE
  5
458
330
1F
100
AcDbEntity
  8
LC-001-100-D00-0
  6
ByBlock
 62
     7
370
    50
100
AcDbLine
 10
17.660983
 20
337.255536
 30
0.0
 11
16.660981
 21
336.255536
 31
0.0
  0
LINE
  5
459
330
1F
100
AcDbEntity
  8
LC-001-100-D00-0
  6
ByBlock
 62
     7
370
    50
100
AcDbLine
 10
23.66098
 20
337.255536
 30
0.0
 11
17.660983
 21
337.255536
 31
0.0
  0
LINE
  5
45A
330
1F
100
AcDbEntity
  8
LC-001-100-D00-0
  6
ByBlock
 62
     7
370
    50
100
AcDbLine
 10
24.660982
 20
336.255536
 30
0.0
 11
23.66098
 21
337.255536
 31
0.0
  0
LINE
  5
45B
330
1F
100
AcDbEntity
  8
LC-001-100-D00-0
  6
ByBlock
 62
     7
370
    50
100
AcDbLine
 10
24.66098
 20
321.655536
 30
0.0
 11
24.660982
 21
336.255536
 31
0.0
  0
ARC
  5
45C
330
1F
100
AcDbEntity
  8
LC-001-100-D00-0
  6
ByBlock
 62
     7
370
    50
100
AcDbCircle
 10
25.66098
 20
320.155536
 30
0.0
 40
1.802775637732121
100
AcDbArc
 50
123.690068
 51
236.309932
  0
LINE
  5
45D
330
1F
100
AcDbEntity
  8
LC-001-100-D00-0
  6
ByBlock
 62
     7
370
    50
100
AcDbLine
 10
25.160983
 20
318.655537
 30
0.0
 11
24.66098
 21
318.655536
 31
0.0
  0
LINE
  5
45E
330
1F
100
AcDbEntity
  8
LC-001-100-D00-0
  6
ByBlock
 62
     7
370
    50
100
AcDbLine
 10
25.160983
 20
318.655537
 30
0.0
 11
25.160983
 21
317.255536
 31
0.0
  0
LINE
  5
45F
330
1F
100
AcDbEntity
  8
LC-001-100-D00-0
  6
ByBlock
 62
     7
370
    50
100
AcDbLine
 10
25.160983
 20
317.255536
 30
0.0
 11
136.160977
 21
317.255536
 31
0.0
  0
LINE
  5
460
330
1F
100
AcDbEntity
  8
LC-001-100-D00-0
  6
ByBlock
 62
     7
370
    50
100
AcDbLine
 10
136.160977
 20
317.255536
 30
0.0
 11
136.160977
 21
318.655537
 31
0.0
  0
LINE
  5
461
330
1F
100
AcDbEntity
  8
LC-001-100-D00-0
  6
ByBlock
 62
     7
370
    50
100
AcDbLine
 10
136.66098
 20
318.655536
 30
0.0
 11
136.160977
 21
318.655537
 31
0.0
  0
ARC
  5
462
330
1F
100
AcDbEntity
  8
LC-001-100-D00-0
  6
ByBlock
 62
     7
370
    50
100
AcDbCircle
 10
135.66098
 20
320.155536
 30
0.0
 40
1.802775637731868
100
AcDbArc
 50
303.690068
 51
56.309932
  0
LINE
  5
463
330
1F
100
AcDbEntity
  8
LC-001-100-D00-0
  6
ByBlock
 62
     7
370
    50
100
AcDbLine
 10
136.660986
 20
336.255536
 30
0.0
 11
136.66098
 21
321.655536
 31
0.0
  0
LINE
  5
464
330
1F
100
AcDbEntity
  8
LC-001-100-D00-0
  6
ByBlock
 62
     7
370
    50
100
AcDbLine
 10
137.660973
 20
337.255536
 30
0.0
 11
136.660986
 21
336.255536
 31
0.0
  0
LINE
  5
465
330
1F
100
AcDbEntity
  8
LC-001-100-D00-0
  6
ByBlock
 62
     7
370
    50
100
AcDbLine
 10
143.660985
 20
337.255536
 30
0.0
 11
137.660973
 21
337.255536
 31
0.0
  0
LINE
  5
466
330
1F
100
AcDbEntity
  8
LC-001-100-D00-0
  6
ByBlock
 62
     7
370
    50
100
AcDbLine
 10
144.660987
 20
336.255536
 30
0.0
 11
143.660985
 21
337.255536
 31
0.0
  0
LINE
  5
467
330
1F
100
AcDbEntity
  8
LC-001-100-D00-0
  6
ByBlock
 62
     7
370
    50
100
AcDbLine
 10
144.66098
 20
321.655536
 30
0.0
 11
144.660987
 21
336.255536
 31
0.0
  0
ARC
  5
468
330
1F
100
AcDbEntity
  8
LC-001-100-D00-0
  6
ByBlock
 62
     7
370
    50
100
AcDbCircle
 10
145.66098
 20
320.155536
 30
0.0
 40
1.802775637731868
100
AcDbArc
 50
123.690068
 51
236.309932
  0
LINE
  5
469
330
1F
100
AcDbEntity
  8
LC-001-100-D00-0
  6
ByBlock
 62
     7
370
    50
100
AcDbLine
 10
145.16098
 20
318.655537
 30
0.0
 11
144.66098
 21
318.655536
 31
0.0
  0
LINE
  5
46A
330
1F
100
AcDbEntity
  8
LC-001-100-D00-0
  6
ByBlock
 62
     7
370
    50
100
AcDbLine
 10
145.16098
 20
318.655537
 30
0.0
 11
145.16098
 21
317.255536
 31
0.0
  0
LINE
  5
46B
330
1F
100
AcDbEntity
  8
LC-001-100-D00-0
  6
ByBlock
 62
     7
370
    50
100
AcDbLine
 10
145.16098
 20
317.255536
 30
0.0
 11
162.66098
 21
317.255536
 31
0.0
  0
ARC
  5
46C
330
1F
100
AcDbEntity
  8
LC-001-100-D00-0
  6
ByBlock
 62
     7
370
    50
100
AcDbCircle
 10
162.66098
 20
325.255536
 30
0.0
 40
8.0
100
AcDbArc
 50
270.0
 51
0.0
  0
LINE
  5
46D
330
1F
100
AcDbEntity
  8
LC-001-100-D00-0
  6
ByBlock
 62
     7
370
    50
100
AcDbLine
 10
170.66098
 20
325.255536
 30
0.0
 11
170.66098
 21
334.755536
 31
0.0
  0
ARC
  5
46E
330
1F
100
AcDbEntity
  8
LC-001-100-D00-0
  6
ByBlock
 62
     7
370
    50
100
AcDbCircle
 10
173.66098
 20
334.755536
 30
0.0
 40
3.0
100
AcDbArc
 50
90.0
 51
180.0
  0
LINE
  5
46F
330
1F
100
AcDbEntity
  8
LC-001-100-D00-0
  6
ByBlock
 62
     7
370
    50
100
AcDbLine
 10
220.660992
 20
337.755536
 30
0.0
 11
173.66098
 21
337.755536
 31
0.0
  0
LINE
  5
470
330
1F
100
AcDbEntity
  8
LC-001-100-D00-0
  6
ByBlock
 62
     7
370
    50
100
AcDbLine
 10
220.660992
 20
336.255536
 30
0.0
 11
220.660992
 21
337.755536
 31
0.0
  0
LINE
  5
471
330
1F
100
AcDbEntity
  8
LC-001-100-D00-0
  6
ByBlock
 62
     7
370
    50
100
AcDbLine
 10
220.660992
 20
336.255536
 30
0.0
 11
173.66098
 21
336.255536
 31
0.0
  0
ARC
  5
472
330
1F
100
AcDbEntity
  8
LC-001-100-D00-0
  6
ByBlock
 62
     7
370
    50
100
AcDbCircle
 10
173.66098
 20
334.755536
 30
0.0
 40
1.5
100
AcDbArc
 50
90.0
 51
180.0
  0
LINE
  5
473
330
1F
100
AcDbEntity
  8
LC-001-100-D00-0
  6
ByBlock
 62
     7
370
    50
100
AcDbLine
 10
172.16098
 20
325.255536
 30
0.0
 11
172.16098
 21
334.755536
 31
0.0
  0
ARC
  5
474
330
1F
100
AcDbEntity
  8
LC-001-100-D00-0
  6
ByBlock
 62
     7
370
    50
100
AcDbCircle
 10
162.66098
 20
325.255536
 30
0.0
 40
9.5
100
AcDbArc
 50
270.0
 51
0.0
  0
LINE
  5
475
330
1F
100
AcDbEntity
  8
LC-001-100-D00-0
  6
ByBlock
 62
     7
370
    50
100
AcDbLine
 10
14.650365
 20
315.755536
 30
0.0
 11
162.66098
 21
315.755536
 31
0.0
  0
ARC
  5
476
330
1F
100
AcDbEntity
  8
LC-001-100-D00-0
  6
ByBlock
 62
     7
370
    50
100
AcDbCircle
 10
14.650365
 20
313.255536
 30
0.0
 40
2.5
100
AcDbArc
 50
90.0
 51
105.0
  0
LINE
  5
477
330
1F
100
AcDbEntity
  8
LC-001-100-D00-0
  6
ByBlock
 62
     7
370
    50
100
AcDbLine
 10
14.003318
 20
315.670351
 30
0.0
 11
-3.830354
 21
310.891833
 31
0.0
  0
ARC
  5
478
330
1F
100
AcDbEntity
  8
LC-001-100-D00-0
  6
ByBlock
 62
     7
370
    50
100
AcDbCircle
 10
-4.86563
 20
314.755536
 30
0.0
 40
3.999999999999773
100
AcDbArc
 50
270.0
 51
285.0
  0
LINE
  5
479
330
1F
100
AcDbEntity
  8
LC-001-100-D00-0
  6
ByBlock
 62
     7
370
    50
100
AcDbLine
 10
-4.86563
 20
310.755536
 30
0.0
 11
-21.53902
 21
310.755536
 31
0.0
  0
ARC
  5
47A
330
1F
100
AcDbEntity
  8
LC-001-100-D00-0
  6
ByBlock
 62
     7
370
    50
100
AcDbCircle
 10
-21.53902
 20
309.755536
 30
0.0
 40
1.000000000000227
100
AcDbArc
 50
90.0
 51
180.0
  0
LINE
  5
47B
330
1F
100
AcDbEntity
  8
LC-001-100-D00-0
  6
ByBlock
 62
     7
370
    50
100
AcDbLine
 10
-22.53902
 20
309.755536
 30
0.0
 11
-22.53902
 21
305.755535
 31
0.0
  0
LINE
  5
47C
330
1F
100
AcDbEntity
  8
LC-001-100-D00-0
  6
ByBlock
 62
     7
370
    50
100
AcDbLine
 10
-22.53902
 20
305.755535
 30
0.0
 11
-24.03902
 21
305.755536
 31
0.0
  0
LINE
  5
47D
330
1F
100
AcDbEntity
  8
LC-001-100-D00-0
  6
ByBlock
 62
     7
370
    50
100
AcDbLine
 10
-24.03902
 20
309.755536
 30
0.0
 11
-24.03902
 21
305.755536
 31
0.0
  0
ARC
  5
47E
330
1F
100
AcDbEntity
  8
LC-001-100-D00-0
  6
ByBlock
 62
     7
370
    50
100
AcDbCircle
 10
-21.53902
 20
309.755536
 30
0.0
 40
2.5
100
AcDbArc
 50
90.0
 51
180.0
  0
LINE
  5
47F
330
1F
100
AcDbEntity
  8
LC-001-100-D00-0
  6
ByBlock
 62
     7
370
    50
100
AcDbLine
 10
-4.86563
 20
312.255536
 30
0.0
 11
-21.53902
 21
312.255536
 31
0.0
  0
ARC
  5
480
330
1F
100
AcDbEntity
  8
LC-001-100-D00-0
  6
ByBlock
 62
     7
370
    50
100
AcDbCircle
 10
-4.86563
 20
314.755536
 30
0.0
 40
2.5
100
AcDbArc
 50
270.0
 51
285.0
  0
LINE
  5
481
330
1F
100
AcDbEntity
  8
LC-001-100-D00-0
  6
ByBlock
 62
     7
370
    50
100
AcDbLine
 10
-34.945136
 20
312.255536
 30
0.0
 11
-21.53902
 21
312.255536
 31
0.0
  0
LINE
  5
482
330
1F
100
AcDbEntity
  8
LC-001-100-D00-0
  6
ByBlock
 62
     7
370
    50
100
AcDbLine
 10
-24.03902
 20
305.755536
 30
0.0
 11
-24.23902
 21
305.755536
 31
0.0
  0
LINE
  5
483
330
1F
100
AcDbEntity
  8
LC-001-100-D00-0
  6
ByBlock
 62
     7
370
    50
100
AcDbLine
 10
-134.43902
 20
305.755536
 30
0.0
 11
-134.63902
 21
305.755536
 31
0.0
  0
LINE
  5
484
330
1F
100
AcDbEntity
  8
LC-001-100-D00-0
  6
ByBlock
 62
     7
370
    50
100
AcDbLine
 10
-134.63902
 20
305.755536
 30
0.0
 11
-134.63902
 21
309.755536
 31
0.0
  0
LINE
  5
485
330
1F
100
AcDbEntity
  8
LC-001-100-D00-0
  6
ByBlock
 62
     7
370
    50
100
AcDbLine
 10
-136.13902
 20
305.755535
 30
0.0
 11
-136.13902
 21
309.755536
 31
0.0
  0
LINE
  5
486
330
1F
100
AcDbEntity
  8
LC-001-100-D00-0
  6
ByBlock
 62
     7
370
    50
100
AcDbLine
 10
-123.732904
 20
312.255536
 30
0.0
 11
-137.13902
 21
312.255536
 31
0.0
  0
ARC
  5
487
330
1F
100
AcDbEntity
  8
LC-001-100-D00-0
  6
ByBlock
 62
     7
370
    50
100
AcDbCircle
 10
-137.13902
 20
309.755536
 30
0.0
 40
2.500000000000114
100
AcDbArc
 50
0.0
 51
90.0
  0
ARC
  5
488
330
1F
100
AcDbEntity
  8
LC-001-100-D00-0
  6
ByBlock
 62
     7
370
    50
100
AcDbCircle
 10
-137.13902
 20
309.755536
 30
0.0
 40
1.000000000000114
100
AcDbArc
 50
0.0
 51
90.0
  0
LINE
  5
489
330
1F
100
AcDbEntity
  8
LC-001-100-D00-0
  6
ByBlock
 62
     7
370
    50
100
AcDbLine
 10
-303.339027
 20
336.255536
 30
0.0
 11
-303.33902
 21
321.655536
 31
0.0
  0
LINE
  5
48A
330
1F
100
AcDbEntity
  8
LC-001-100-D00-0
  6
ByBlock
 62
     7
370
    50
100
AcDbLine
 10
-302.339025
 20
337.255536
 30
0.0
 11
-303.339027
 21
336.255536
 31
0.0
  0
LINE
  5
48B
330
1F
100
AcDbEntity
  8
LC-001-100-D00-0
  6
ByBlock
 62
     7
370
    50
100
AcDbLine
 10
-296.339013
 20
337.255536
 30
0.0
 11
-302.339025
 21
337.255536
 31
0.0
  0
LINE
  5
48C
330
1F
100
AcDbEntity
  8
LC-001-100-D00-0
  6
ByBlock
 62
     7
370
    50
100
AcDbLine
 10
-295.339026
 20
336.255536
 30
0.0
 11
-296.339013
 21
337.255536
 31
0.0
  0
LINE
  5
48D
330
1F
100
AcDbEntity
  8
LC-001-100-D00-0
  6
ByBlock
 62
     7
370
    50
100
AcDbLine
 10
-295.33902
 20
321.655536
 30
0.0
 11
-295.339026
 21
336.255536
 31
0.0
  0
ARC
  5
48E
330
1F
100
AcDbEntity
  8
LC-001-100-D00-0
  6
ByBlock
 62
     7
370
    50
100
AcDbCircle
 10
-294.33902
 20
320.155536
 30
0.0
 40
1.802775637731868
100
AcDbArc
 50
123.690068
 51
236.309932
  0
LINE
  5
48F
330
1F
100
AcDbEntity
  8
LC-001-100-D00-0
  6
ByBlock
 62
     7
370
    50
100
AcDbLine
 10
-294.839017
 20
318.655537
 30
0.0
 11
-295.33902
 21
318.655536
 31
0.0
  0
LINE
  5
490
330
1F
100
AcDbEntity
  8
LC-001-100-D00-0
  6
ByBlock
 62
     7
370
    50
100
AcDbLine
 10
-294.839017
 20
318.655537
 30
0.0
 11
-294.839017
 21
317.255536
 31
0.0
  0
LINE
  5
491
330
1F
100
AcDbEntity
  8
LC-001-100-D00-0
  6
ByBlock
 62
     7
370
    50
100
AcDbLine
 10
-294.839017
 20
317.255536
 30
0.0
 11
-183.839023
 21
317.255536
 31
0.0
  0
LINE
  5
492
330
1F
100
AcDbEntity
  8
LC-001-100-D00-0
  6
ByBlock
 62
     7
370
    50
100
AcDbLine
 10
-183.839023
 20
317.255536
 30
0.0
 11
-183.839023
 21
318.655537
 31
0.0
  0
LINE
  5
493
330
1F
100
AcDbEntity
  8
LC-001-100-D00-0
  6
ByBlock
 62
     7
370
    50
100
AcDbLine
 10
-183.33902
 20
318.655536
 30
0.0
 11
-183.839023
 21
318.655537
 31
0.0
  0
ARC
  5
494
330
1F
100
AcDbEntity
  8
LC-001-100-D00-0
  6
ByBlock
 62
     7
370
    50
100
AcDbCircle
 10
-184.33902
 20
320.155536
 30
0.0
 40
1.802775637732121
100
AcDbArc
 50
303.690068
 51
56.309932
  0
LINE
  5
495
330
1F
100
AcDbEntity
  8
LC-001-100-D00-0
  6
ByBlock
 62
     7
370
    50
100
AcDbLine
 10
-183.339022
 20
336.255536
 30
0.0
 11
-183.33902
 21
321.655536
 31
0.0
  0
LINE
  5
496
330
1F
100
AcDbEntity
  8
LC-001-100-D00-0
  6
ByBlock
 62
     7
370
    50
100
AcDbLine
 10
-182.33902
 20
337.255536
 30
0.0
 11
-183.339022
 21
336.255536
 31
0.0
  0
LINE
  5
497
330
1F
100
AcDbEntity
  8
LC-001-100-D00-0
  6
ByBlock
 62
     7
370
    50
100
AcDbLine
 10
-176.339023
 20
337.255536
 30
0.0
 11
-182.33902
 21
337.255536
 31
0.0
  0
LINE
  5
498
330
1F
100
AcDbEntity
  8
LC-001-100-D00-0
  6
ByBlock
 62
     7
370
    50
100
AcDbLine
 10
-175.339021
 20
336.255536
 30
0.0
 11
-176.339023
 21
337.255536
 31
0.0
  0
LINE
  5
499
330
1F
100
AcDbEntity
  8
LC-001-100-D00-0
  6
ByBlock
 62
     7
370
    50
100
AcDbLine
 10
-175.33902
 20
321.655536
 30
0.0
 11
-175.339021
 21
336.255536
 31
0.0
  0
ARC
  5
49A
330
1F
100
AcDbEntity
  8
LC-001-100-D00-0
  6
ByBlock
 62
     7
370
    50
100
AcDbCircle
 10
-174.33902
 20
320.155536
 30
0.0
 40
1.802775637732121
100
AcDbArc
 50
123.690068
 51
236.309932
  0
LINE
  5
49B
330
1F
100
AcDbEntity
  8
LC-001-100-D00-0
  6
ByBlock
 62
     7
370
    50
100
AcDbLine
 10
-174.83902
 20
318.655537
 30
0.0
 11
-175.33902
 21
318.655536
 31
0.0
  0
LINE
  5
49C
330
1F
100
AcDbEntity
  8
LC-001-100-D00-0
  6
ByBlock
 62
     7
370
    50
100
AcDbLine
 10
-174.83902
 20
318.655537
 30
0.0
 11
-174.83902
 21
317.255536
 31
0.0
  0
LINE
  5
49D
330
1F
100
AcDbEntity
  8
LC-001-100-D00-0
  6
ByBlock
 62
     7
370
    50
100
AcDbLine
 10
-174.83902
 20
317.255536
 30
0.0
 11
-173.328405
 21
317.255536
 31
0.0
  0
ARC
  5
49E
330
1F
100
AcDbEntity
  8
LC-001-100-D00-0
  6
ByBlock
 62
     7
370
    50
100
AcDbCircle
 10
-173.328405
 20
313.255536
 30
0.0
 40
3.999999999999873
100
AcDbArc
 50
75.0
 51
90.0
  0
LINE
  5
49F
330
1F
100
AcDbEntity
  8
LC-001-100-D00-0
  6
ByBlock
 62
     7
370
    50
100
AcDbLine
 10
-154.459458
 20
312.340722
 30
0.0
 11
-172.293129
 21
317.11924
 31
0.0
  0
ARC
  5
4A0
330
1F
100
AcDbEntity
  8
LC-001-100-D00-0
  6
ByBlock
 62
     7
370
    50
100
AcDbCircle
 10
-153.81241
 20
314.755536
 30
0.0
 40
2.500000000000062
100
AcDbArc
 50
255.0
 51
270.0
  0
LINE
  5
4A1
330
1F
100
AcDbEntity
  8
LC-001-100-D00-0
  6
ByBlock
 62
     7
370
    50
100
AcDbLine
 10
-148.416229
 20
312.155537
 30
0.0
 11
-148.416229
 21
312.255537
 31
0.0
  0
LINE
  5
4A2
330
1F
100
AcDbEntity
  8
LC-001-100-D00-0
  6
ByBlock
 62
     7
370
    50
100
AcDbLine
 10
-147.892393
 20
312.155537
 30
0.0
 11
-148.416229
 21
312.155537
 31
0.0
  0
LINE
  5
4A3
330
1F
100
AcDbEntity
  8
LC-001-100-D00-0
  6
ByBlock
 62
     7
370
    50
100
AcDbLine
 10
-147.892393
 20
312.255537
 30
0.0
 11
-147.892393
 21
312.155537
 31
0.0
  0
LINE
  5
4A4
330
1F
100
AcDbEntity
  8
LC-001-100-D00-0
  6
ByBlock
 62
     7
370
    50
100
AcDbLine
 10
-147.198148
 20
312.155537
 30
0.0
 11
-147.198148
 21
312.255537
 31
0.0
  0
LINE
  5
4A5
330
1F
100
AcDbEntity
  8
LC-001-100-D00-0
  6
ByBlock
 62
     7
370
    50
100
AcDbLine
 10
-146.673799
 20
312.155537
 30
0.0
 11
-147.198148
 21
312.155537
 31
0.0
  0
LINE
  5
4A6
330
1F
100
AcDbEntity
  8
LC-001-100-D00-0
  6
ByBlock
 62
     7
370
    50
100
AcDbLine
 10
-146.673799
 20
312.255537
 30
0.0
 11
-146.673799
 21
312.155537
 31
0.0
  0
LINE
  5
4A7
330
1F
100
AcDbEntity
  8
LC-001-100-D00-0
  6
ByBlock
 62
     7
370
    50
100
AcDbLine
 10
-134.63902
 20
305.755536
 30
0.0
 11
-136.13902
 21
305.755535
 31
0.0
  0
ARC
  5
4A8
330
1F
100
AcDbEntity
  8
LC-001-100-D00-0
  6
ByBlock
 62
     7
370
    50
100
AcDbCircle
 10
-153.81241
 20
314.755536
 30
0.0
 40
3.999999999999873
100
AcDbArc
 50
255.0
 51
270.0
  0
LINE
  5
4A9
330
1F
100
AcDbEntity
  8
LC-001-100-D00-0
  6
ByBlock
 62
     7
370
    50
100
AcDbLine
 10
-154.847686
 20
310.891833
 30
0.0
 11
-172.681358
 21
315.670351
 31
0.0
  0
ARC
  5
4AA
330
1F
100
AcDbEntity
  8
LC-001-100-D00-0
  6
ByBlock
 62
     7
370
    50
100
AcDbCircle
 10
-173.328405
 20
313.255536
 30
0.0
 40
2.500000000000062
100
AcDbArc
 50
75.0
 51
90.0
  0
LINE
  5
4AB
330
1F
100
AcDbEntity
  8
LC-001-100-D00-0
  6
ByBlock
 62
     7
370
    50
100
AcDbLine
 10
-321.33902
 20
315.755536
 30
0.0
 11
-173.328405
 21
315.755536
 31
0.0
  0
ARC
  5
4AC
330
1F
100
AcDbEntity
  8
LC-001-100-D00-0
  6
ByBlock
 62
     7
370
    50
100
AcDbCircle
 10
-321.33902
 20
325.255536
 30
0.0
 40
9.499999999999943
100
AcDbArc
 50
180.0
 51
270.0
  0
LINE
  5
4AD
330
1F
100
AcDbEntity
  8
LC-001-100-D00-0
  6
ByBlock
 62
     7
370
    50
100
AcDbLine
 10
-330.83902
 20
334.755536
 30
0.0
 11
-330.83902
 21
325.255536
 31
0.0
  0
ARC
  5
4AE
330
1F
100
AcDbEntity
  8
LC-001-100-D00-0
  6
ByBlock
 62
     7
370
    50
100
AcDbCircle
 10
-332.33902
 20
334.755536
 30
0.0
 40
1.5
100
AcDbArc
 50
0.0
 51
90.0
  0
LINE
  5
4AF
330
1F
100
AcDbEntity
  8
LC-001-100-D00-0
  6
ByBlock
 62
     7
370
    50
100
AcDbLine
 10
-379.339032
 20
337.755536
 30
0.0
 11
-379.339032
 21
336.255536
 31
0.0
  0
ARC
  5
4B0
330
1F
100
AcDbEntity
  8
LC-001-100-D00-0
  6
ByBlock
 62
     7
370
    50
100
AcDbCircle
 10
-332.33902
 20
334.755536
 30
0.0
 40
3.0
100
AcDbArc
 50
0.0
 51
90.0
  0
LINE
  5
4B1
330
1F
100
AcDbEntity
  8
LC-001-100-D00-0
  6
ByBlock
 62
     7
370
    50
100
AcDbLine
 10
-329.33902
 20
334.755536
 30
0.0
 11
-329.33902
 21
325.255536
 31
0.0
  0
ARC
  5
4B2
330
1F
100
AcDbEntity
  8
LC-001-100-D00-0
  6
ByBlock
 62
     7
370
    50
100
AcDbCircle
 10
-321.33902
 20
325.255536
 30
0.0
 40
7.999999999999943
100
AcDbArc
 50
180.0
 51
270.0
  0
LINE
  5
4B3
330
1F
100
AcDbEntity
  8
LC-001-100-D00-0
  6
ByBlock
 62
     7
370
    50
100
AcDbLine
 10
-321.33902
 20
317.255536
 30
0.0
 11
-303.83902
 21
317.255536
 31
0.0
  0
LINE
  5
4B4
330
1F
100
AcDbEntity
  8
LC-001-100-D00-0
  6
ByBlock
 62
     7
370
    50
100
AcDbLine
 10
-303.83902
 20
317.255536
 30
0.0
 11
-303.83902
 21
318.655537
 31
0.0
  0
LINE
  5
4B5
330
1F
100
AcDbEntity
  8
LC-001-100-D00-0
  6
ByBlock
 62
     7
370
    50
100
AcDbLine
 10
-303.33902
 20
318.655536
 30
0.0
 11
-303.83902
 21
318.655537
 31
0.0
  0
ARC
  5
4B6
330
1F
100
AcDbEntity
  8
LC-001-100-D00-0
  6
ByBlock
 62
     7
370
    50
100
AcDbCircle
 10
-304.33902
 20
320.155536
 30
0.0
 40
1.802775637731868
100
AcDbArc
 50
303.690068
 51
56.309932
  0
LINE
  5
4B7
330
1F
100
AcDbEntity
  8
LC-001-100-D00-0
  6
ByBlock
 62
     7
370
    50
100
AcDbLine
 10
-137.13902
 20
310.755536
 30
0.0
 11
-153.81241
 21
310.755536
 31
0.0
  0
LINE
  5
4B8
330
1F
100
AcDbEntity
  8
LC-001-100-D00-0
  6
ByBlock
 62
     7
370
    50
100
AcDbLine
 10
-147.198148
 20
312.255537
 30
0.0
 11
-147.892393
 21
312.255537
 31
0.0
  0
LINE
  5
4B9
330
1F
100
AcDbEntity
  8
LC-001-100-D00-0
  6
ByBlock
 62
     7
370
    50
100
AcDbLine
 10
-148.416229
 20
312.255537
 30
0.0
 11
-153.81241
 21
312.255536
 31
0.0
  0
LINE
  5
4BA
330
1F
100
AcDbEntity
  8
LC-001-100-D00-0
  6
ByBlock
 62
     7
370
    50
100
AcDbLine
 10
-137.13902
 20
312.255536
 30
0.0
 11
-146.673799
 21
312.255537
 31
0.0
  0
LINE
  5
4BB
330
1F
100
AcDbEntity
  8
LC-001-100-D00-0
  6
ByBlock
 62
     7
370
    50
100
AcDbLine
 10
-332.33902
 20
337.755536
 30
0.0
 11
-379.339032
 21
337.755536
 31
0.0
  0
LINE
  5
4BC
330
1F
100
AcDbEntity
  8
LC-001-100-D00-0
  6
ByBlock
 62
     7
370
    50
100
AcDbLine
 10
-332.33902
 20
336.255536
 30
0.0
 11
-379.339032
 21
336.255536
 31
0.0
  0
LINE
  5
4BD
330
1F
100
AcDbEntity
  8
LC-001-100-D00-0
  6
ByBlock
 62
     7
370
    50
100
AcDbLine
 10
-147.198148
 20
312.255537
 30
0.0
 11
-146.673799
 21
312.255537
 31
0.0
  0
LINE
  5
4BE
330
1F
100
AcDbEntity
  8
LC-001-100-D00-0
  6
ByBlock
 62
     7
370
    50
100
AcDbLine
 10
-148.416229
 20
312.255537
 30
0.0
 11
-147.892393
 21
312.255537
 31
0.0
  0
ELLIPSE
  5
4BF
330
1F
100
AcDbEntity
  8
LC-001-100-D00-0
  6
ByBlock
 62
     7
370
    50
100
AcDbEllipse
 10
25.682797
 20
313.255536
 30
0.0
 11
0.0
 21
-2.500000001966953
 31
0.0
210
0.0
220
0.0
230
1.0
 40
0.027578
 41
0.0000000000004639
 42
0.3217505543975316
  0
ELLIPSE
  5
4C0
330
1F
100
AcDbEntity
  8
LC-001-100-D00-0
  6
ByBlock
 62
     7
370
    50
100
AcDbEllipse
 10
-184.360837
 20
313.255536
 30
0.0
 11
0.0
 21
-2.5
 31
0.0
210
0.0
220
0.0
230
0.9999999999999999
 40
0.027578
 41
5.961434752784173
 42
6.283185307179586
  0
LINE
  5
4C1
330
1F
100
AcDbEntity
  8
LC-001-100-D00-0
  6
ByBlock
 62
     7
370
    50
100
AcDbLine
 10
25.660977
 20
315.626884
 30
0.0
 11
25.660977
 21
312.192963
 31
0.0
  0
LINE
  5
4C2
330
1F
100
AcDbEntity
  8
LC-001-100-D00-0
  6
ByBlock
 62
     7
370
    50
100
AcDbLine
 10
-184.339017
 20
315.626884
 30
0.0
 11
-184.339017
 21
310.961496
 31
0.0
  0
INSERT
  5
4CC
330
1F
100
AcDbEntity
  8
LC-001-100-D00-0
  6
ByBlock
 62
     7
370
    50
100
AcDbBlockReference
  2
KLON16
 10
0.0
 20
0.0
 30
0.0
  0
INSERT
  5
4D6
330
1F
100
AcDbEntity
  8
LC-001-100-D00-0
  6
ByBlock
 62
     7
370
    50
100
AcDbBlockReference
  2
KLON17
 10
0.0
 20
0.0
 30
0.0
  0
LINE
  5
4D7
330
1F
100
AcDbEntity
  8
LC-001-100-D00-0
  6
ByBlock
 62
     7
370
    50
100
AcDbLine
 10
32.516561
 20
311.005741
 30
0.0
 11
153.568663
 21
315.423701
 31
0.0
  0
LINE
  5
4D8
330
1F
100
AcDbEntity
  8
LC-001-100-D00-0
  6
ByBlock
 62
     7
370
    50
100
AcDbLine
 10
-184.339009
 20
310.755536
 30
0.0
 11
-184.338987
 21
310.960803
 31
0.0
  0
LINE
  5
4D9
330
1F
100
AcDbEntity
  8
LC-001-100-D00-0
  6
ByBlock
 62
     7
370
    50
100
AcDbLine
 10
-184.339017
 20
310.755536
 30
0.0
 11
-312.246703
 21
315.423701
 31
0.0
  0
LINE
  5
4DA
330
1F
100
AcDbEntity
  8
LC-001-100-D00-0
  6
ByBlock
 62
     7
370
    50
100
AcDbLine
 10
-184.339009
 20
310.755536
 30
0.0
 11
-184.339009
 21
310.755536
 31
0.0
  0
LINE
  5
4DB
330
1F
100
AcDbEntity
  8
LC-001-100-D00-0
  6
ByBlock
 62
     7
370
    50
100
AcDbLine
 10
-37.552864
 20
303.755536
 30
0.0
 11
-35.251154
 21
303.755536
 31
0.0
  0
LINE
  5
4DC
330
1F
100
AcDbEntity
  8
LC-001-100-D00-0
  6
ByBlock
 62
     7
370
    50
100
AcDbLine
 10
-34.189105
 20
302.255536
 30
0.0
 11
-34.093518
 21
302.263597
 31
0.0
  0
LINE
  5
4DD
330
1F
100
AcDbEntity
  8
LC-001-100-D00-0
  6
ByBlock
 62
     7
370
    50
100
AcDbLine
 10
-34.189105
 20
302.255536
 30
0.0
 11
-37.552864
 21
302.255536
 31
0.0
  0
LINE
  5
4DE
330
1F
100
AcDbEntity
  8
LC-001-100-D00-0
  6
ByBlock
 62
     7
370
    50
100
AcDbLine
 10
-124.584522
 20
302.263597
 30
0.0
 11
-124.488935
 21
302.255536
 31
0.0
  0
LINE
  5
4DF
330
1F
100
AcDbEntity
  8
LC-001-100-D00-0
  6
ByBlock
 62
     7
370
    50
100
AcDbLine
 10
-123.426886
 20
303.755536
 30
0.0
 11
-121.125176
 21
303.755536
 31
0.0
  0
LINE
  5
4E0
330
1F
100
AcDbEntity
  8
LC-001-100-D00-0
  6
ByBlock
 62
     7
370
    50
100
AcDbLine
 10
-121.125176
 20
302.255536
 30
0.0
 11
-124.488935
 21
302.255536
 31
0.0
  0
LINE
  5
4E1
330
1F
100
AcDbEntity
  8
LC-001-100-D00-0
  6
ByBlock
 62
     7
370
    50
100
AcDbLine
 10
-37.552864
 20
303.755536
 30
0.0
 11
-38.329792
 21
303.755536
 31
0.0
  0
LINE
  5
4E2
330
1F
100
AcDbEntity
  8
LC-001-100-D00-0
  6
ByBlock
 62
     7
370
    50
100
AcDbLine
 10
-37.552864
 20
302.255536
 30
0.0
 11
-38.329792
 21
302.255536
 31
0.0
  0
LINE
  5
4E3
330
1F
100
AcDbEntity
  8
LC-001-100-D00-0
  6
ByBlock
 62
     7
370
    50
100
AcDbLine
 10
-121.125176
 20
303.755536
 30
0.0
 11
-120.348248
 21
303.755536
 31
0.0
  0
LINE
  5
4E4
330
1F
100
AcDbEntity
  8
LC-001-100-D00-0
  6
ByBlock
 62
     7
370
    50
100
AcDbLine
 10
-121.125176
 20
302.255536
 30
0.0
 11
-120.348248
 21
302.255536
 31
0.0
  0
LINE
  5
4E5
330
1F
100
AcDbEntity
  8
LC-001-100-D00-0
  6
ByBlock
 62
     7
370
    50
100
AcDbLine
 10
-4.86563
 20
310.755536
 30
0.0
 11
-2.76503
 21
310.755536
 31
0.0
  0
LINE
  5
4E6
330
1F
100
AcDbEntity
  8
LC-001-100-D00-0
  6
ByBlock
 62
     7
370
    50
100
AcDbLine
 10
-153.81241
 20
310.755536
 30
0.0
 11
-155.91301
 21
310.755536
 31
0.0
  0
LINE
  5
4E7
330
1F
100
AcDbEntity
  8
LC-001-100-D00-0
  6
ByBlock
 62
     7
370
    50
100
AcDbLine
 10
-39.600218
 20
303.755536
 30
0.0
 11
-38.329792
 21
303.755536
 31
0.0
  0
LINE
  5
4E8
330
1F
100
AcDbEntity
  8
LC-001-100-D00-0
  6
ByBlock
 62
     7
370
    50
100
AcDbLine
 10
-38.329792
 20
302.255536
 30
0.0
 11
-39.624605
 21
302.255536
 31
0.0
  0
LINE
  5
4E9
330
1F
100
AcDbEntity
  8
LC-001-100-D00-0
  6
ByBlock
 62
     7
370
    50
100
AcDbLine
 10
-120.348248
 20
303.755536
 30
0.0
 11
-119.077822
 21
303.755536
 31
0.0
  0
LINE
  5
4EA
330
1F
100
AcDbEntity
  8
LC-001-100-D00-0
  6
ByBlock
 62
     7
370
    50
100
AcDbLine
 10
-119.053435
 20
302.255536
 30
0.0
 11
-120.348248
 21
302.255536
 31
0.0
  0
LINE
  5
4EB
330
1F
100
AcDbEntity
  8
LC-001-100-D00-0
  6
ByBlock
 62
     7
370
    50
100
AcDbLine
 10
-2.76503
 20
310.755536
 30
0.0
 11
15.160777
 21
310.755536
 31
0.0
  0
LINE
  5
4EC
330
1F
100
AcDbEntity
  8
LC-001-100-D00-0
  6
ByBlock
 62
     7
370
    50
100
AcDbLine
 10
-155.91301
 20
310.755536
 30
0.0
 11
-184.339009
 21
310.755536
 31
0.0
  0
ARC
  5
4ED
330
1F
100
AcDbEntity
  8
LC-001-100-D00-0
  6
ByBlock
 62
     7
370
    50
100
AcDbCircle
 10
-34.823392
 20
303.689687
 30
0.0
 40
1.60201493999187
100
AcDbArc
 50
297.103406
 51
2.355668
  0
INSERT
  5
4F6
330
1F
100
AcDbEntity
  8
LC-001-100-D00-0
  6
ByBlock
 62
     7
370
    50
100
AcDbBlockReference
  2
KLON18
 10
0.0
 20
0.0
 30
0.0
  0
INSERT
  5
503
330
1F
100
AcDbEntity
  8
LC-001-100-D00-0
  6
ByBlock
 62
     7
370
    50
100
AcDbBlockReference
  2
KLON19
 10
0.0
 20
0.0
 30
0.0
  0
INSERT
  5
510
330
1F
100
AcDbEntity
  8
LC-001-100-D00-0
  6
ByBlock
 62
     7
370
    50
100
AcDbBlockReference
  2
KLON20
 10
0.0
 20
0.0
 30
0.0
  0
LINE
  5
511
330
1F
100
AcDbEntity
  8
LC-001-100-D00-0
  6
ByBlock
 62
     7
370
    50
100
AcDbLine
 10
168.16098
 20
337.755536
 30
0.0
 11
173.66098
 21
337.755536
 31
0.0
  0
LINE
  5
512
330
1F
100
AcDbEntity
  8
LC-001-100-D00-0
  6
ByBlock
 62
     7
370
    50
100
AcDbLine
 10
-326.83902
 20
337.755536
 30
0.0
 11
-332.33902
 21
337.755536
 31
0.0
  0
LINE
  5
513
330
1F
100
AcDbEntity
  8
LC-001-100-D00-0
  6
ByBlock
 62
     7
370
    50
100
AcDbLine
 10
168.16098
 20
337.755536
 30
0.0
 11
157.91098
 21
337.755536
 31
0.0
  0
LINE
  5
514
330
1F
100
AcDbEntity
  8
LC-001-100-D00-0
  6
ByBlock
 62
     7
370
    50
100
AcDbLine
 10
123.41098
 20
337.755536
 30
0.0
 11
37.91098
 21
337.755536
 31
0.0
  0
LINE
  5
515
330
1F
100
AcDbEntity
  8
LC-001-100-D00-0
  6
ByBlock
 62
     7
370
    50
100
AcDbLine
 10
3.41098
 20
337.755536
 30
0.0
 11
-162.08902
 21
337.755536
 31
0.0
  0
LINE
  5
516
330
1F
100
AcDbEntity
  8
LC-001-100-D00-0
  6
ByBlock
 62
     7
370
    50
100
AcDbLine
 10
-196.58902
 20
337.755536
 30
0.0
 11
-282.08902
 21
337.755536
 31
0.0
  0
LINE
  5
517
330
1F
100
AcDbEntity
  8
LC-001-100-D00-0
  6
ByBlock
 62
     7
370
    50
100
AcDbLine
 10
-316.58902
 20
337.755536
 30
0.0
 11
-326.83902
 21
337.755536
 31
0.0
  0
ARC
  5
518
330
1F
100
AcDbEntity
  8
LC-001-100-D00-0
  6
ByBlock
 62
     7
370
    50
100
AcDbCircle
 10
107.76098
 20
311.155536
 30
0.0
 40
2.0
100
AcDbArc
 50
180.0
 51
270.0
  0
LINE
  5
519
330
1F
100
AcDbEntity
  8
LC-001-100-D00-0
  6
ByBlock
 62
     7
370
    50
100
AcDbLine
 10
107.76098
 20
309.155536
 30
0.0
 11
133.56098
 21
309.155536
 31
0.0
  0
ARC
  5
51A
330
1F
100
AcDbEntity
  8
LC-001-100-D00-0
  6
ByBlock
 62
     7
370
    50
100
AcDbCircle
 10
133.56098
 20
311.155536
 30
0.0
 40
2.0
100
AcDbArc
 50
270.0
 51
0.0
  0
LINE
  5
51B
330
1F
100
AcDbEntity
  8
LC-001-100-D00-0
  6
ByBlock
 62
     7
370
    50
100
AcDbLine
 10
135.56098
 20
311.155536
 30
0.0
 11
135.560982
 21
314.766485
 31
0.0
  0
LINE
  5
51C
330
1F
100
AcDbEntity
  8
LC-001-100-D00-0
  6
ByBlock
 62
     7
370
    50
100
AcDbLine
 10
137.560986
 20
314.839478
 30
0.0
 11
137.56098
 21
311.155536
 31
0.0
  0
ARC
  5
51D
330
1F
100
AcDbEntity
  8
LC-001-100-D00-0
  6
ByBlock
 62
     7
370
    50
100
AcDbCircle
 10
133.56098
 20
311.155536
 30
0.0
 40
4.0
100
AcDbArc
 50
270.0
 51
0.0
  0
LINE
  5
51E
330
1F
100
AcDbEntity
  8
LC-001-100-D00-0
  6
ByBlock
 62
     7
370
    50
100
AcDbLine
 10
133.56098
 20
307.155536
 30
0.0
 11
107.76098
 21
307.155536
 31
0.0
  0
ARC
  5
51F
330
1F
100
AcDbEntity
  8
LC-001-100-D00-0
  6
ByBlock
 62
     7
370
    50
100
AcDbCircle
 10
107.76098
 20
311.155536
 30
0.0
 40
4.000000000000114
100
AcDbArc
 50
180.0
 51
270.0
  0
LINE
  5
520
330
1F
100
AcDbEntity
  8
LC-001-100-D00-0
  6
ByBlock
 62
     7
370
    50
100
AcDbLine
 10
103.76098
 20
311.155536
 30
0.0
 11
103.76098
 21
313.6059
 31
0.0
  0
LINE
  5
521
330
1F
100
AcDbEntity
  8
LC-001-100-D00-0
  6
ByBlock
 62
     7
370
    50
100
AcDbLine
 10
105.760984
 20
313.678894
 30
0.0
 11
105.76098
 21
311.155536
 31
0.0
  0
LINE
  5
522
330
1F
100
AcDbEntity
  8
LC-001-100-D00-0
  6
ByBlock
 62
     7
370
    50
100
AcDbLine
 10
-262.43902
 20
311.155536
 30
0.0
 11
-262.43902
 21
313.6059
 31
0.0
  0
ARC
  5
523
330
1F
100
AcDbEntity
  8
LC-001-100-D00-0
  6
ByBlock
 62
     7
370
    50
100
AcDbCircle
 10
-266.43902
 20
311.155536
 30
0.0
 40
4.0
100
AcDbArc
 50
270.0
 51
0.0
  0
LINE
  5
524
330
1F
100
AcDbEntity
  8
LC-001-100-D00-0
  6
ByBlock
 62
     7
370
    50
100
AcDbLine
 10
-292.23902
 20
307.155536
 30
0.0
 11
-266.43902
 21
307.155536
 31
0.0
  0
ARC
  5
525
330
1F
100
AcDbEntity
  8
LC-001-100-D00-0
  6
ByBlock
 62
     7
370
    50
100
AcDbCircle
 10
-292.23902
 20
311.155536
 30
0.0
 40
4.0
100
AcDbArc
 50
180.0
 51
270.0
  0
LINE
  5
526
330
1F
100
AcDbEntity
  8
LC-001-100-D00-0
  6
ByBlock
 62
     7
370
    50
100
AcDbLine
 10
-296.239026
 20
314.839478
 30
0.0
 11
-296.23902
 21
311.155536
 31
0.0
  0
LINE
  5
527
330
1F
100
AcDbEntity
  8
LC-001-100-D00-0
  6
ByBlock
 62
     7
370
    50
100
AcDbLine
 10
-294.23902
 20
311.155536
 30
0.0
 11
-294.239022
 21
314.766485
 31
0.0
  0
ARC
  5
528
330
1F
100
AcDbEntity
  8
LC-001-100-D00-0
  6
ByBlock
 62
     7
370
    50
100
AcDbCircle
 10
-292.23902
 20
311.155536
 30
0.0
 40
2.0
100
AcDbArc
 50
180.0
 51
270.0
  0
LINE
  5
529
330
1F
100
AcDbEntity
  8
LC-001-100-D00-0
  6
ByBlock
 62
     7
370
    50
100
AcDbLine
 10
-266.43902
 20
309.155536
 30
0.0
 11
-292.23902
 21
309.155536
 31
0.0
  0
ARC
  5
52A
330
1F
100
AcDbEntity
  8
LC-001-100-D00-0
  6
ByBlock
 62
     7
370
    50
100
AcDbCircle
 10
-266.43902
 20
311.155536
 30
0.0
 40
2.0
100
AcDbArc
 50
270.0
 51
0.0
  0
LINE
  5
52B
330
1F
100
AcDbEntity
  8
LC-001-100-D00-0
  6
ByBlock
 62
     7
370
    50
100
AcDbLine
 10
-264.439024
 20
313.678894
 30
0.0
 11
-264.43902
 21
311.155536
 31
0.0
  0
LINE
  5
52C
330
1F
100
AcDbEntity
  8
LC-001-100-D00-0
  6
ByBlock
 62
     7
370
    50
100
AcDbLine
 10
122.496717
 20
211.255541
 30
0.0
 11
111.819051
 21
211.255541
 31
0.0
  0
LINE
  5
52D
330
1F
100
AcDbEntity
  8
LC-001-100-D00-0
  6
ByBlock
 62
     7
370
    50
100
AcDbLine
 10
122.496717
 20
211.255541
 30
0.0
 11
129.528873
 21
211.255541
 31
0.0
  0
LINE
  5
52E
330
1F
100
AcDbEntity
  8
LC-001-100-D00-0
  6
ByBlock
 62
     7
370
    50
100
AcDbLine
 10
111.360698
 20
203.255536
 30
0.0
 11
111.16098
 21
203.255536
 31
0.0
  0
LINE
  5
52F
330
1F
100
AcDbEntity
  8
LC-001-100-D00-0
  6
ByBlock
 62
     7
370
    50
100
AcDbLine
 10
130.16098
 20
203.255536
 30
0.0
 11
111.360698
 21
203.255536
 31
0.0
  0
LINE
  5
530
330
1F
100
AcDbEntity
  8
LC-001-100-D00-0
  6
ByBlock
 62
     7
370
    50
100
AcDbLine
 10
-277.503289
 20
211.255541
 30
0.0
 11
-288.18094
 21
211.255541
 31
0.0
  0
LINE
  5
531
330
1F
100
AcDbEntity
  8
LC-001-100-D00-0
  6
ByBlock
 62
     7
370
    50
100
AcDbLine
 10
-277.503289
 20
211.255541
 30
0.0
 11
-270.471118
 21
211.255541
 31
0.0
  0
LINE
  5
532
330
1F
100
AcDbEntity
  8
LC-001-100-D00-0
  6
ByBlock
 62
     7
370
    50
100
AcDbLine
 10
-288.639302
 20
203.255536
 30
0.0
 11
-288.83902
 21
203.255536
 31
0.0
  0
LINE
  5
533
330
1F
100
AcDbEntity
  8
LC-001-100-D00-0
  6
ByBlock
 62
     7
370
    50
100
AcDbLine
 10
-269.83902
 20
203.255536
 30
0.0
 11
-288.639302
 21
203.255536
 31
0.0
  0
LINE
  5
534
330
1F
100
AcDbEntity
  8
LC-001-100-D00-0
  6
ByBlock
 62
     7
370
    50
100
AcDbLine
 10
-276.452269
 20
309.255536
 30
0.0
 11
-282.225771
 21
309.255536
 31
0.0
  0
LINE
  5
535
330
1F
100
AcDbEntity
  8
LC-001-100-D00-0
  6
ByBlock
 62
     7
370
    50
100
AcDbLine
 10
-282.225771
 20
309.255536
 30
0.0
 11
-288.287949
 21
309.255536
 31
0.0
  0
LINE
  5
536
330
1F
100
AcDbEntity
  8
LC-001-100-D00-0
  6
ByBlock
 62
     7
370
    50
100
AcDbLine
 10
-270.390091
 20
309.255536
 30
0.0
 11
-276.452269
 21
309.255536
 31
0.0
  0
LINE
  5
537
330
1F
100
AcDbEntity
  8
LC-001-100-D00-0
  6
ByBlock
 62
     7
370
    50
100
AcDbLine
 10
-267.503339
 20
309.255536
 30
0.0
 11
-270.390091
 21
309.255536
 31
0.0
  0
LINE
  5
538
330
1F
100
AcDbEntity
  8
LC-001-100-D00-0
  6
ByBlock
 62
     7
370
    50
100
AcDbLine
 10
-288.287949
 20
309.255536
 30
0.0
 11
-291.174701
 21
309.255536
 31
0.0
  0
LINE
  5
539
330
1F
100
AcDbEntity
  8
LC-001-100-D00-0
  6
ByBlock
 62
     7
370
    50
100
AcDbLine
 10
-291.174701
 20
309.255536
 30
0.0
 11
-292.112523
 21
309.255536
 31
0.0
  0
LINE
  5
53A
330
1F
100
AcDbEntity
  8
LC-001-100-D00-0
  6
ByBlock
 62
     7
370
    50
100
AcDbLine
 10
-266.565517
 20
309.255536
 30
0.0
 11
-267.503339
 21
309.255536
 31
0.0
  0
LINE
  5
53B
330
1F
100
AcDbEntity
  8
LC-001-100-D00-0
  6
ByBlock
 62
     7
370
    50
100
AcDbLine
 10
-270.33902
 20
305.255536
 30
0.0
 11
-276.452266
 21
305.255537
 31
0.0
  0
LINE
  5
53C
330
1F
100
AcDbEntity
  8
LC-001-100-D00-0
  6
ByBlock
 62
     7
370
    50
100
AcDbLine
 10
-282.225765
 20
305.255537
 30
0.0
 11
-288.33902
 21
305.255536
 31
0.0
  0
LINE
  5
53D
330
1F
100
AcDbEntity
  8
LC-001-100-D00-0
  6
ByBlock
 62
     7
370
    50
100
AcDbLine
 10
-276.452269
 20
280.255536
 30
0.0
 11
-282.225771
 21
280.255536
 31
0.0
  0
LINE
  5
53E
330
1F
100
AcDbEntity
  8
LC-001-100-D00-0
  6
ByBlock
 62
     7
370
    50
100
AcDbLine
 10
-282.225771
 20
280.255536
 30
0.0
 11
-288.287949
 21
280.255536
 31
0.0
  0
LINE
  5
53F
330
1F
100
AcDbEntity
  8
LC-001-100-D00-0
  6
ByBlock
 62
     7
370
    50
100
AcDbLine
 10
-265.550201
 20
307.255536
 30
0.0
 11
-264.33902
 21
307.255536
 31
0.0
  0
LINE
  5
540
330
1F
100
AcDbEntity
  8
LC-001-100-D00-0
  6
ByBlock
 62
     7
370
    50
100
AcDbLine
 10
-264.33902
 20
307.255536
 30
0.0
 11
-264.33902
 21
305.255536
 31
0.0
  0
LINE
  5
541
330
1F
100
AcDbEntity
  8
LC-001-100-D00-0
  6
ByBlock
 62
     7
370
    50
100
AcDbLine
 10
-264.33902
 20
305.255536
 30
0.0
 11
-270.33902
 21
305.255536
 31
0.0
  0
LINE
  5
542
330
1F
100
AcDbEntity
  8
LC-001-100-D00-0
  6
ByBlock
 62
     7
370
    50
100
AcDbLine
 10
-270.390091
 20
280.255536
 30
0.0
 11
-276.452269
 21
280.255536
 31
0.0
  0
LINE
  5
543
330
1F
100
AcDbEntity
  8
LC-001-100-D00-0
  6
ByBlock
 62
     7
370
    50
100
AcDbLine
 10
-294.33902
 20
305.255536
 30
0.0
 11
-294.33902
 21
307.255536
 31
0.0
  0
LINE
  5
544
330
1F
100
AcDbEntity
  8
LC-001-100-D00-0
  6
ByBlock
 62
     7
370
    50
100
AcDbLine
 10
-288.33902
 20
305.255536
 30
0.0
 11
-294.33902
 21
305.255536
 31
0.0
  0
LINE
  5
545
330
1F
100
AcDbEntity
  8
LC-001-100-D00-0
  6
ByBlock
 62
     7
370
    50
100
AcDbLine
 10
-294.33902
 20
307.255536
 30
0.0
 11
-293.127839
 21
307.255536
 31
0.0
  0
LINE
  5
546
330
1F
100
AcDbEntity
  8
LC-001-100-D00-0
  6
ByBlock
 62
     7
370
    50
100
AcDbLine
 10
-267.503339
 20
280.255536
 30
0.0
 11
-270.390091
 21
280.255536
 31
0.0
  0
LINE
  5
547
330
1F
100
AcDbEntity
  8
LC-001-100-D00-0
  6
ByBlock
 62
     7
370
    50
100
AcDbLine
 10
-288.287949
 20
280.255536
 30
0.0
 11
-291.174701
 21
280.255536
 31
0.0
  0
LINE
  5
548
330
1F
100
AcDbEntity
  8
LC-001-100-D00-0
  6
ByBlock
 62
     7
370
    50
100
AcDbLine
 10
-291.174701
 20
280.255536
 30
0.0
 11
-292.112523
 21
280.255536
 31
0.0
  0
LINE
  5
549
330
1F
100
AcDbEntity
  8
LC-001-100-D00-0
  6
ByBlock
 62
     7
370
    50
100
AcDbLine
 10
-266.565517
 20
280.255536
 30
0.0
 11
-267.503339
 21
280.255536
 31
0.0
  0
LINE
  5
54A
330
1F
100
AcDbEntity
  8
LC-001-100-D00-0
  6
ByBlock
 62
     7
370
    50
100
AcDbLine
 10
129.66098
 20
305.255536
 30
0.0
 11
126.660772
 21
305.255537
 31
0.0
  0
LINE
  5
54B
330
1F
100
AcDbEntity
  8
LC-001-100-D00-0
  6
ByBlock
 62
     7
370
    50
100
AcDbLine
 10
135.66098
 20
307.255536
 30
0.0
 11
135.66098
 21
305.255536
 31
0.0
  0
LINE
  5
54C
330
1F
100
AcDbEntity
  8
LC-001-100-D00-0
  6
ByBlock
 62
     7
370
    50
100
AcDbLine
 10
135.66098
 20
305.255536
 30
0.0
 11
129.66098
 21
305.255536
 31
0.0
  0
LINE
  5
54D
330
1F
100
AcDbEntity
  8
LC-001-100-D00-0
  6
ByBlock
 62
     7
370
    50
100
AcDbLine
 10
134.449799
 20
307.255536
 30
0.0
 11
135.66098
 21
307.255536
 31
0.0
  0
LINE
  5
54E
330
1F
100
AcDbEntity
  8
LC-001-100-D00-0
  6
ByBlock
 62
     7
370
    50
100
AcDbLine
 10
105.660982
 20
305.255537
 30
0.0
 11
105.66098
 21
307.255536
 31
0.0
  0
LINE
  5
54F
330
1F
100
AcDbEntity
  8
LC-001-100-D00-0
  6
ByBlock
 62
     7
370
    50
100
AcDbLine
 10
105.66098
 20
307.255536
 30
0.0
 11
106.872161
 21
307.255536
 31
0.0
  0
LINE
  5
550
330
1F
100
AcDbEntity
  8
LC-001-100-D00-0
  6
ByBlock
 62
     7
370
    50
100
AcDbLine
 10
132.496661
 20
280.255536
 30
0.0
 11
130.160771
 21
280.255535
 31
0.0
  0
LINE
  5
551
330
1F
100
AcDbEntity
  8
LC-001-100-D00-0
  6
ByBlock
 62
     7
370
    50
100
AcDbLine
 10
133.434483
 20
280.255536
 30
0.0
 11
132.496661
 21
280.255536
 31
0.0
  0
LINE
  5
552
330
1F
100
AcDbEntity
  8
LC-001-100-D00-0
  6
ByBlock
 62
     7
370
    50
100
AcDbLine
 10
123.547731
 20
309.255536
 30
0.0
 11
117.774229
 21
309.255536
 31
0.0
  0
LINE
  5
553
330
1F
100
AcDbEntity
  8
LC-001-100-D00-0
  6
ByBlock
 62
     7
370
    50
100
AcDbLine
 10
117.774229
 20
309.255536
 30
0.0
 11
111.712051
 21
309.255536
 31
0.0
  0
LINE
  5
554
330
1F
100
AcDbEntity
  8
LC-001-100-D00-0
  6
ByBlock
 62
     7
370
    50
100
AcDbLine
 10
129.609909
 20
309.255536
 30
0.0
 11
123.547731
 21
309.255536
 31
0.0
  0
LINE
  5
555
330
1F
100
AcDbEntity
  8
LC-001-100-D00-0
  6
ByBlock
 62
     7
370
    50
100
AcDbLine
 10
132.496661
 20
309.255536
 30
0.0
 11
129.609909
 21
309.255536
 31
0.0
  0
LINE
  5
556
330
1F
100
AcDbEntity
  8
LC-001-100-D00-0
  6
ByBlock
 62
     7
370
    50
100
AcDbLine
 10
111.712051
 20
309.255536
 30
0.0
 11
108.825299
 21
309.255536
 31
0.0
  0
LINE
  5
557
330
1F
100
AcDbEntity
  8
LC-001-100-D00-0
  6
ByBlock
 62
     7
370
    50
100
AcDbLine
 10
108.825299
 20
309.255536
 30
0.0
 11
107.887477
 21
309.255536
 31
0.0
  0
LINE
  5
558
330
1F
100
AcDbEntity
  8
LC-001-100-D00-0
  6
ByBlock
 62
     7
370
    50
100
AcDbLine
 10
133.434483
 20
309.255536
 30
0.0
 11
132.496661
 21
309.255536
 31
0.0
  0
LINE
  5
559
330
1F
100
AcDbEntity
  8
LC-001-100-D00-0
  6
ByBlock
 62
     7
370
    50
100
AcDbLine
 10
110.87121
 20
212.255536
 30
0.0
 11
130.66098
 21
212.255536
 31
0.0
  0
LINE
  5
55A
330
1F
100
AcDbEntity
  8
LC-001-100-D00-0
  6
ByBlock
 62
     7
370
    50
100
AcDbLine
 10
110.66098
 20
212.255536
 30
0.0
 11
110.87121
 21
212.255536
 31
0.0
  0
LINE
  5
55B
330
1F
100
AcDbEntity
  8
LC-001-100-D00-0
  6
ByBlock
 62
     7
370
    50
100
AcDbLine
 10
110.66098
 20
222.755536
 30
0.0
 11
130.66098
 21
222.755536
 31
0.0
  0
LINE
  5
55C
330
1F
100
AcDbEntity
  8
LC-001-100-D00-0
  6
ByBlock
 62
     7
370
    50
100
AcDbLine
 10
110.66098
 20
226.255536
 30
0.0
 11
130.66098
 21
226.255536
 31
0.0
  0
LINE
  5
55D
330
1F
100
AcDbEntity
  8
LC-001-100-D00-0
  6
ByBlock
 62
     7
370
    50
100
AcDbLine
 10
111.850187
 20
211.255536
 30
0.0
 11
111.66098
 21
211.255536
 31
0.0
  0
LINE
  5
55E
330
1F
100
AcDbEntity
  8
LC-001-100-D00-0
  6
ByBlock
 62
     7
370
    50
100
AcDbLine
 10
129.66098
 20
211.255536
 30
0.0
 11
111.850187
 21
211.255536
 31
0.0
  0
LINE
  5
55F
330
1F
100
AcDbEntity
  8
LC-001-100-D00-0
  6
ByBlock
 62
     7
370
    50
100
AcDbLine
 10
-289.12879
 20
212.255536
 30
0.0
 11
-269.33902
 21
212.255536
 31
0.0
  0
LINE
  5
560
330
1F
100
AcDbEntity
  8
LC-001-100-D00-0
  6
ByBlock
 62
     7
370
    50
100
AcDbLine
 10
-289.33902
 20
212.255536
 30
0.0
 11
-289.12879
 21
212.255536
 31
0.0
  0
LINE
  5
561
330
1F
100
AcDbEntity
  8
LC-001-100-D00-0
  6
ByBlock
 62
     7
370
    50
100
AcDbLine
 10
-289.33902
 20
222.755536
 30
0.0
 11
-269.33902
 21
222.755536
 31
0.0
  0
LINE
  5
562
330
1F
100
AcDbEntity
  8
LC-001-100-D00-0
  6
ByBlock
 62
     7
370
    50
100
AcDbLine
 10
-289.33902
 20
226.255536
 30
0.0
 11
-269.33902
 21
226.255536
 31
0.0
  0
LINE
  5
563
330
1F
100
AcDbEntity
  8
LC-001-100-D00-0
  6
ByBlock
 62
     7
370
    50
100
AcDbLine
 10
-288.149813
 20
211.255536
 30
0.0
 11
-288.33902
 21
211.255536
 31
0.0
  0
LINE
  5
564
330
1F
100
AcDbEntity
  8
LC-001-100-D00-0
  6
ByBlock
 62
     7
370
    50
100
AcDbLine
 10
-270.33902
 20
211.255536
 30
0.0
 11
-288.149813
 21
211.255536
 31
0.0
  0
DIMENSION
  5
565
330
1F
100
AcDbEntity
  8
LC-001-100-D00-0
  6
ByBlock
 62
     7
370
    25
100
AcDbDimension
  2
*D22
 10
-379.33902
 20
409.11036
 30
0.0
 11
-80.501103
 21
431.11036
 31
0.0
 70
   160
  1
600
 71
     5
 42
600.0
  3
LC-DIM-L-0100-02-02
100
AcDbAlignedDimension
 13
220.66098
 23
337.755536
 33
0.0
 14
-379.33902
 24
337.755536
 34
0.0
100
AcDbRotatedDimension
  0
DIMENSION
  5
572
330
1F
100
AcDbEntity
  8
LC-001-100-D00-0
  6
ByBlock
 62
     7
370
    25
100
AcDbDimension
  2
*D23
 10
170.66098
 20
374.129651
 30
0.0
 11
-81.231442
 21
396.129651
 31
0.0
 70
   160
  1
500
 71
     5
 42
500.0
  3
LC-DIM-L-0100-02-02
100
AcDbAlignedDimension
 13
-329.33902
 23
334.755536
 33
0.0
 14
170.66098
 24
334.755536
 34
0.0
100
AcDbRotatedDimension
  0
DIMENSION
  5
57F
330
1F
100
AcDbEntity
  8
LC-001-100-D00-0
  6
ByBlock
 62
     7
370
    25
100
AcDbDimension
  2
*D24
 10
-198.87712
 20
296.255536
 30
0.0
 11
-220.87712
 21
266.355536
 31
0.0
 70
   160
  1
30
 71
     5
 42
30.0
 53
90.0
  3
LC-DIM-L-0100-02-02
100
AcDbAlignedDimension
 13
-108.33902
 23
266.255536
 33
0.0
 14
-114.418415
 24
296.255536
 34
0.0
 50
90.0
100
AcDbRotatedDimension
  0
DIMENSION
  5
58E
330
1F
100
AcDbEntity
  8
LC-001-100-D00-0
  6
ByBlock
 62
     7
370
    25
100
AcDbDimension
  2
*D25
 10
130.160777
 20
180.086931
 30
0.0
 11
-21.0643
 21
202.086931
 31
0.0
 70
   160
  1
284
 71
     5
 42
283.499797
  3
LC-DIM-L-0100-02-02
100
AcDbAlignedDimension
 13
-153.33902
 23
266.755536
 33
0.0
 14
130.160777
 24
256.193358
 34
0.0
100
AcDbRotatedDimension
  0
DIMENSION
  5
59B
330
1F
100
AcDbEntity
  8
LC-001-100-D00-0
  6
ByBlock
 62
     7
370
    25
100
AcDbDimension
  2
*D26
 10
253.607064
 20
280.255536
 30
0.0
 11
231.607064
 21
310.510752
 31
0.0
 70
   160
  1
57,5
 71
     5
 42
57.5
 53
90.0
  3
LC-DIM-L-0100-02-02
100
AcDbAlignedDimension
 13
220.66098
 23
337.755536
 33
0.0
 14
136.660777
 24
280.255536
 34
0.0
 50
90.0
100
AcDbRotatedDimension
  0
DIMENSION
  5
5A8
330
1F
100
AcDbEntity
  8
LC-001-100-D00-0
  6
ByBlock
 62
     7
370
    25
100
AcDbDimension
  2
*D27
 10
-349.309125
 20
337.755536
 30
0.0
 11
-371.309125
 21
286.515536
 31
0.0
 70
   160
  1
90
 71
     5
 42
90.0
 53
90.0
  3
LC-DIM-L-0100-02-02
100
AcDbAlignedDimension
 13
-133.3569
 23
247.755536
 33
0.0
 14
-379.33902
 24
337.755536
 34
0.0
 50
90.0
100
AcDbRotatedDimension
  0
DIMENSION
  5
5B5
330
1F
100
AcDbEntity
  8
LC-001-100-D00-0
  6
ByBlock
 62
     7
370
    25
100
AcDbDimension
  2
*D28
 10
302.562897
 20
203.255536
 30
0.0
 11
280.562897
 21
263.835536
 31
0.0
 70
   160
  1
90-129,5
 71
     5
 42
134.5
 53
90.0
  3
LC-DIM-L-0100-02-02
100
AcDbAlignedDimension
 13
220.66098
 23
337.755536
 33
0.0
 14
130.16098
 24
203.255536
 34
0.0
 50
90.0
100
AcDbRotatedDimension
  0
DIMENSION
  5
5C2
330
1F
100
AcDbEntity
  8
LC-001-100-D00-0
  6
ByBlock
 62
     7
370
    25
100
AcDbDimension
  2
*D29
 10
206.22245
 20
255.255536
 30
0.0
 11
184.22245
 21
279.828035
 31
0.0
 70
   160
  1
DN50
 71
     5
 42
50.0
 53
90.0
  3
LC-DIM-L-0100-02-02
100
AcDbAlignedDimension
 13
126.660777
 23
305.255536
 33
0.0
 14
126.660777
 24
255.255536
 34
0.0
 50
90.0
100
AcDbRotatedDimension
  0
LINE
  5
5CF
330
1F
100
AcDbEntity
  8
LC-001-100-D00-0
  6
ByBlock
 62
     7
370
    25
100
AcDbLine
 10
10.91098
 20
324.217208
 30
0.0
 11
16.76098
 21
330.067209
 31
0.0
  0
LINE
  5
5D0
330
1F
100
AcDbEntity
  8
LC-001-100-D00-0
  6
ByBlock
 62
     7
370
    25
100
AcDbLine
 10
27.899948
 20
318.755536
 30
0.0
 11
30.41098
 21
321.266569
 31
0.0
  0
INSERT
  5
5D6
330
1F
100
AcDbEntity
  8
LC-001-100-D00-0
  6
ByBlock
 62
     7
370
    25
100
AcDbBlockReference
  2
KLON21
 10
0.0
 20
0.0
 30
0.0
  0
LINE
  5
5D7
330
1F
100
AcDbEntity
  8
LC-001-100-D00-0
  6
ByBlock
 62
     7
370
    25
100
AcDbLine
 10
-295.43902
 20
332.176162
 30
0.0
 11
-289.859646
 21
337.755536
 31
0.0
  0
LINE
  5
5D8
330
1F
100
AcDbEntity
  8
LC-001-100-D00-0
  6
ByBlock
 62
     7
370
    50
100
AcDbLine
 10
-304.53902
 20
323.076161
 30
0.0
 11
-302.73902
 21
324.876161
 31
0.0
  0
LINE
  5
5D9
330
1F
100
AcDbEntity
  8
LC-001-100-D00-0
  6
ByBlock
 62
     7
370
    25
100
AcDbLine
 10
-189.08902
 20
326.272964
 30
0.0
 11
-183.23902
 21
332.122964
 31
0.0
  0
INSERT
  5
5DF
330
1F
100
AcDbEntity
  8
LC-001-100-D00-0
  6
ByBlock
 62
     7
370
    25
100
AcDbBlockReference
  2
KLON22
 10
0.0
 20
0.0
 30
0.0
  0
LINE
  5
5E0
330
1F
100
AcDbEntity
  8
LC-001-100-D00-0
  6
ByBlock
 62
     7
370
    50
100
AcDbLine
 10
-174.155808
 20
318.755536
 30
0.0
 11
-172.988167
 21
319.923177
 31
0.0
  0
INSERT
  5
5F1
330
1F
100
AcDbEntity
  8
LC-001-100-D00-0
  6
ByBlock
 62
     7
370
    25
100
AcDbBlockReference
  2
KLON23
 10
0.0
 20
0.0
 30
0.0
  0
INSERT
  5
5F8
330
1F
100
AcDbEntity
  8
LC-001-100-D00-0
  6
ByBlock
 62
     7
370
    25
100
AcDbBlockReference
  2
KLON24
 10
0.0
 20
0.0
 30
0.0
  0
LINE
  5
5F9
330
1F
100
AcDbEntity
  8
LC-001-100-D00-0
  6
ByBlock
 62
     7
370
    50
100
AcDbLine
 10
-141.254528
 20
306.755536
 30
0.0
 11
-137.764877
 21
310.245187
 31
0.0
  0
LINE
  5
5FA
330
1F
100
AcDbEntity
  8
LC-001-100-D00-0
  6
ByBlock
 62
     7
370
    50
100
AcDbLine
 10
-6.300691
 20
307.005536
 30
0.0
 11
-5.33902
 21
307.967207
 31
0.0
  0
LINE
  5
5FB
330
1F
100
AcDbEntity
  8
LC-001-100-D00-0
  6
ByBlock
 62
     7
370
    25
100
AcDbLine
 10
-144.254527
 20
303.755536
 30
0.0
 11
-141.33902
 21
306.671044
 31
0.0
  0
LINE
  5
5FC
330
1F
100
AcDbEntity
  8
LC-001-100-D00-0
  6
ByBlock
 62
     7
370
    25
100
AcDbLine
 10
130.91098
 20
331.964012
 30
0.0
 11
136.702504
 21
337.755536
 31
0.0
  0
INSERT
  5
602
330
1F
100
AcDbEntity
  8
LC-001-100-D00-0
  6
ByBlock
 62
     7
370
    25
100
AcDbBlockReference
  2
KLON25
 10
0.0
 20
0.0
 30
0.0
  0
LINE
  5
603
330
1F
100
AcDbEntity
  8
LC-001-100-D00-0
  6
ByBlock
 62
     7
370
    50
100
AcDbLine
 10
144.06098
 20
322.663371
 30
0.0
 11
147.011833
 21
325.614225
 31
0.0
  0
INSERT
  5
613
330
1F
100
AcDbEntity
  8
LC-001-100-D00-0
  6
ByBlock
 62
     7
370
    25
100
AcDbBlockReference
  2
KLON26
 10
0.0
 20
0.0
 30
0.0
  0
INSERT
  5
625
330
1F
100
AcDbEntity
  8
LC-001-100-D00-0
  6
ByBlock
 62
     7
370
    25
100
AcDbBlockReference
  2
KLON27
 10
0.0
 20
0.0
 30
0.0
  0
INSERT
  5
62D
330
1F
100
AcDbEntity
  8
LC-001-100-D00-0
  6
ByBlock
 62
     7
370
    25
100
AcDbBlockReference
  2
KLON28
 10
0.0
 20
0.0
 30
0.0
  0
INSERT
  5
634
330
1F
100
AcDbEntity
  8
LC-001-100-D00-0
  6
ByBlock
 62
     7
370
    25
100
AcDbBlockReference
  2
KLON29
 10
0.0
 20
0.0
 30
0.0
  0
INSERT
  5
640
330
1F
100
AcDbEntity
  8
LC-001-100-D00-0
  6
ByBlock
 62
     7
370
    25
100
AcDbBlockReference
  2
KLON30
 10
0.0
 20
0.0
 30
0.0
  0
INSERT
  5
648
330
1F
100
AcDbEntity
  8
LC-001-100-D00-0
  6
ByBlock
 62
     7
370
    50
100
AcDbBlockReference
  2
KLON31
 10
0.0
 20
0.0
 30
0.0
  0
INSERT
  5
64F
330
1F
100
AcDbEntity
  8
LC-001-100-D00-0
  6
ByBlock
 62
     7
370
    25
100
AcDbBlockReference
  2
KLON32
 10
0.0
 20
0.0
 30
0.0
  0
LINE
  5
650
330
1F
100
AcDbEntity
  8
LC-001-100-D00-0
 62
     7
370
    25
100
AcDbLine
 10
136.660777
 20
280.255536
 30
0.0
 11
33.635761
 21
280.255536
 31
0.0
  0
LINE
  5
651
330
1F
100
AcDbEntity
  8
LC-001-100-D00-0
 62
     7
370
    25
100
AcDbLine
 10
-79.33902
 20
337.755536
 30
0.0
 11
-79.33902
 21
247.255536
 31
0.0
  0
LINE
  5
652
330
1F
100
AcDbEntity
  8
LC-001-100-D00-0
 62
     7
370
    25
100
AcDbLine
 10
-279.33902
 20
216.255536
 30
0.0
 11
-279.33902
 21
314.255536
 31
0.0
  0
LINE
  5
653
330
1F
100
AcDbEntity
  8
LC-001-100-D00-0
 62
     7
370
    25
100
AcDbLine
 10
120.66098
 20
216.255536
 30
0.0
 11
120.66098
 21
340.255536
 31
0.0
  0
LINE
  5
654
330
1F
100
AcDbEntity
  8
LC-001-100-D00-0
 62
     7
370
    25
100
AcDbLine
 10
-299.33902
 20
309.755536
 30
0.0
 11
-299.33902
 21
343.755536
 31
0.0
  0
LINE
  5
655
330
1F
100
AcDbEntity
  8
LC-001-100-D00-0
 62
     7
370
    25
100
AcDbLine
 10
-179.33902
 20
309.755536
 30
0.0
 11
-179.33902
 21
343.755536
 31
0.0
  0
LINE
  5
656
330
1F
100
AcDbEntity
  8
LC-001-100-D00-0
 62
     7
370
    25
100
AcDbLine
 10
20.66098
 20
309.755536
 30
0.0
 11
20.66098
 21
343.755536
 31
0.0
  0
LINE
  5
657
330
1F
100
AcDbEntity
  8
LC-001-100-D00-0
 62
     7
370
    25
100
AcDbLine
 10
140.66098
 20
309.755536
 30
0.0
 11
140.66098
 21
343.755536
 31
0.0
  0
DIMENSION
  5
658
330
1F
100
AcDbEntity
  8
LC-001-100-D00-0
  6
ByBlock
 62
     7
370
    25
100
AcDbDimension
  2
*D42
 10
626.400041
 20
172.275536
 30
0.0
 11
583.681276
 21
194.275536
 31
0.0
 70
   160
 71
     5
 42
81.0
  3
LC-DIM-L-0100-02-02
100
AcDbAlignedDimension
 13
545.400041
 23
266.755536
 33
0.0
 14
626.400041
 24
266.755536
 34
0.0
100
AcDbRotatedDimension
  0
ENDSEC
  0
SECTION
  2
OBJECTS
  0
DICTIONARY
  5
C
330
0
100
AcDbDictionary
281
     1
  3
ACAD_GROUP
350
D
  3
ACAD_LAYOUT
350
1A
  3
ACAD_MLINESTYLE
350
17
  3
ACAD_PLOTSETTINGS
350
19
  3
ACAD_PLOTSTYLENAME
350
E
  0
DICTIONARY
  5
D
102
{ACAD_REACTORS
330
C
102
}
330
C
100
AcDbDictionary
281
     1
  0
DICTIONARY
  5
1A
102
{ACAD_REACTORS
330
C
102
}
330
C
100
AcDbDictionary
281
     1
  3
Layout1
350
1E
  3
Layout2
350
26
  3
Model
350
22
  0
DICTIONARY
  5
17
102
{ACAD_REACTORS
330
C
102
}
330
C
100
AcDbDictionary
281
     1
  3
Standard
350
18
  0
DICTIONARY
  5
19
102
{ACAD_REACTORS
330
C
102
}
330
C
100
AcDbDictionary
281
     1
  0
ACDBDICTIONARYWDFLT
  5
E
102
{ACAD_REACTORS
330
C
102
}
330
C
100
AcDbDictionary
281
     1
  3
Normal
350
F
100
AcDbDictionaryWithDefault
340
F
  0
LAYOUT
  5
1E
102
{ACAD_REACTORS
330
1A
102
}
330
1A
100
AcDbPlotSettings
  1

  2

  4

  6

 40
0.0
 41
0.0
 42
0.0
 43
0.0
 44
0.0
 45
0.0
 46
0.0
 47
0.0
 48
0.0
 49
0.0
140
0.0
141
0.0
142
1.0
143
1.0
 70
   688
 72
     0
 73
     0
 74
     5
  7

 75
    16
147
1.0
148
0.0
149
0.0
100
AcDbLayout
  1
Layout1
 70
     1
 71
     1
 10
-413.036307
 20
-247.724464
 11
774.963693
 21
592.275536
 12
0.0
 22
0.0
 32
0.0
 14
-413.036307
 24
-247.724464
 34
0.0
 15
774.963693
 25
592.275536
 35
0.0
146
0.0
 13
0.0
 23
0.0
 33
0.0
 16
1.0
 26
0.0
 36
0.0
 17
0.0
 27
1.0
 37
0.0
 76
     0
330
1B
  0
LAYOUT
  5
26
102
{ACAD_REACTORS
330
1A
102
}
330
1A
100
AcDbPlotSettings
  1

  2

  4

  6

 40
0.0
 41
0.0
 42
0.0
 43
0.0
 44
0.0
 45
0.0
 46
0.0
 47
0.0
 48
0.0
 49
0.0
140
0.0
141
0.0
142
1.0
143
1.0
 70
   688
 72
     0
 73
     0
 74
     5
  7

 75
    16
147
1.0
148
0.0
149
0.0
100
AcDbLayout
  1
Layout2
 70
     1
 71
     2
 10
0.0
 20
0.0
 11
0.0
 21
0.0
 12
0.0
 22
0.0
 32
0.0
 14
0.0
 24
0.0
 34
0.0
 15
0.0
 25
0.0
 35
0.0
146
0.0
 13
0.0
 23
0.0
 33
0.0
 16
1.0
 26
0.0
 36
0.0
 17
0.0
 27
1.0
 37
0.0
 76
     0
330
23
  0
LAYOUT
  5
22
102
{ACAD_REACTORS
330
1A
102
}
330
1A
100
AcDbPlotSettings
  1

  2

  4

  6

 40
0.0
 41
0.0
 42
0.0
 43
0.0
 44
0.0
 45
0.0
 46
0.0
 47
0.0
 48
0.0
 49
0.0
140
0.0
141
0.0
142
1.0
143
1.0
 70
  1776
 72
     0
 73
     0
 74
     0
  7

 75
     0
147
1.0
148
0.0
149
0.0
100
AcDbLayout
  1
Model
 70
     1
 71
     0
 10
-413.036307
 20
-247.724464
 11
774.963693
 21
592.275536
 12
0.0
 22
0.0
 32
0.0
 14
-413.036307
 24
-247.724464
 34
0.0
 15
774.963693
 25
592.275536
 35
0.0
146
0.0
 13
0.0
 23
0.0
 33
0.0
 16
1.0
 26
0.0
 36
0.0
 17
0.0
 27
1.0
 37
0.0
 76
     0
330
1F
  0
MLINESTYLE
  5
18
102
{ACAD_REACTORS
330
17
102
}
330
17
100
AcDbMlineStyle
  2
Standard
 70
     0
  3

 62
   256
 51
90.0
 52
90.0
 71
     2
 49
0.5
 62
   256
  6
BYLAYER
 49
-0.5
 62
   256
  6
BYLAYER
  0
ACDBPLACEHOLDER
  5
F
102
{ACAD_REACTORS
330
E
102
}
330
E
  0
ENDSEC
  0
EOF
