  0
SECTION
  2
HEADER
  9
$ACADVER
  1
AC1015
  9
$ACADMAINTVER
 70
     6
  9
$DWGCODEPAGE
  3
ANSI_1252
  9
$INSBASE
 10
0.0
 20
0.0
 30
0.0
  9
$EXTMIN
 10
-218.193868
 20
-126.073292
 30
0.0
  9
$EXTMAX
 10
621.806132
 20
467.926708
 30
0.0
  9
$LIMMIN
 10
-218.193868
 20
-126.073292
  9
$LIMMAX
 10
621.806132
 20
467.926708
  9
$ORTHOMODE
 70
     0
  9
$REGENMODE
 70
     1
  9
$FILLMODE
 70
     1
  9
$QTEXTMODE
 70
     0
  9
$MIRRTEXT
 70
     1
  9
$LTSCALE
 40
2.0
  9
$ATTMODE
 70
     1
  9
$TEXTSIZE
 40
2.5
  9
$TRACEWID
 40
1.0
  9
$TEXTSTYLE
  7
Standard
  9
$CLAYER
  8
0
  9
$CELTYPE
  6
ByLayer
  9
$CECOLOR
 62
     7
  9
$CELTSCALE
 40
1.0
  9
$DISPSILH
 70
     0
  9
$DIMSCALE
 40
2.0
  9
$DIMASZ
 40
3.5
  9
$DIMEXO
 40
0.625
  9
$DIMDLI
 40
3.75
  9
$DIMRND
 40
0.0
  9
$DIMDLE
 40
0.0
  9
$DIMEXE
 40
1.25
  9
$DIMTP
 40
0.0
  9
$DIMTM
 40
0.0
  9
$DIMTXT
 40
3.5
  9
$DIMCEN
 40
2.5
  9
$DIMTSZ
 40
0.0
  9
$DIMTOL
 70
     0
  9
$DIMLIM
 70
     0
  9
$DIMTIH
 70
     0
  9
$DIMTOH
 70
     0
  9
$DIMSE1
 70
     0
  9
$DIMSE2
 70
     0
  9
$DIMTAD
 70
     1
  9
$DIMZIN
 70
     8
  9
$DIMBLK
  1

  9
$DIMASO
 70
     1
  9
$DIMSHO
 70
     1
  9
$DIMPOST
  1

  9
$DIMAPOST
  1

  9
$DIMALT
 70
     0
  9
$DIMALTD
 70
     3
  9
$DIMALTF
 40
0.03937
  9
$DIMLFAC
 40
1.0
  9
$DIMTOFL
 70
     1
  9
$DIMTVP
 40
0.0
  9
$DIMTIX
 70
     0
  9
$DIMSOXD
 70
     0
  9
$DIMSAH
 70
     0
  9
$DIMBLK1
  1

  9
$DIMBLK2
  1

  9
$DIMSTYLE
  2
ISO-25
  9
$DIMCLRD
 70
     0
  9
$DIMCLRE
 70
     0
  9
$DIMCLRT
 70
     0
  9
$DIMTFAC
 40
1.0
  9
$DIMGAP
 40
0.625
  9
$DIMJUST
 70
     0
  9
$DIMSD1
 70
     0
  9
$DIMSD2
 70
     0
  9
$DIMTOLJ
 70
     0
  9
$DIMTZIN
 70
     8
  9
$DIMALTZ
 70
     0
  9
$DIMALTTZ
 70
     0
  9
$DIMUPT
 70
     0
  9
$DIMDEC
 70
     2
  9
$DIMTDEC
 70
     2
  9
$DIMALTU
 70
     2
  9
$DIMALTTD
 70
     3
  9
$DIMTXSTY
  7
Standard
  9
$DIMAUNIT
 70
     0
  9
$DIMADEC
 70
     0
  9
$DIMALTRND
 40
0.0
  9
$DIMAZIN
 70
     0
  9
$DIMDSEP
 70
    44
  9
$DIMATFIT
 70
     3
  9
$DIMFRAC
 70
     0
  9
$DIMLDRBLK
  1

  9
$DIMLUNIT
 70
     2
  9
$DIMLWD
 70
    -2
  9
$DIMLWE
 70
    -2
  9
$DIMTMOVE
 70
     0
  9
$LUNITS
 70
     2
  9
$LUPREC
 70
     4
  9
$SKETCHINC
 40
1.0
  9
$FILLETRAD
 40
10.0
  9
$AUNITS
 70
     0
  9
$AUPREC
 70
     0
  9
$MENU
  1
.
  9
$ELEVATION
 40
0.0
  9
$PELEVATION
 40
0.0
  9
$THICKNESS
 40
0.0
  9
$LIMCHECK
 70
     0
  9
$CHAMFERA
 40
10.0
  9
$CHAMFERB
 40
10.0
  9
$CHAMFERC
 40
20.0
  9
$CHAMFERD
 40
0.0
  9
$SKPOLY
 70
     0
  9
$TDCREATE
 40
2455904.508622141
  9
$TDUCREATE
 40
2455904.466955475
  9
$TDUPDATE
 40
2455904.508622153
  9
$TDUUPDATE
 40
2455904.466955486
  9
$TDINDWG
 40
0.0000000116
  9
$TDUSRTIMER
 40
0.0000000116
  9
$USRTIMER
 70
     1
  9
$ANGBASE
 50
0.0
  9
$ANGDIR
 70
     0
  9
$PDMODE
 70
     0
  9
$PDSIZE
 40
0.0
  9
$PLINEWID
 40
0.0
  9
$SPLFRAME
 70
     0
  9
$SPLINETYPE
 70
     6
  9
$SPLINESEGS
 70
     8
  9
$HANDSEED
  5
611
  9
$SURFTAB1
 70
     6
  9
$SURFTAB2
 70
     6
  9
$SURFTYPE
 70
     6
  9
$SURFU
 70
     6
  9
$SURFV
 70
     6
  9
$UCSBASE
  2

  9
$UCSNAME
  2

  9
$UCSORG
 10
0.0
 20
0.0
 30
0.0
  9
$UCSXDIR
 10
1.0
 20
0.0
 30
0.0
  9
$UCSYDIR
 10
0.0
 20
1.0
 30
0.0
  9
$UCSORTHOREF
  2

  9
$UCSORTHOVIEW
 70
     0
  9
$UCSORGTOP
 10
0.0
 20
0.0
 30
0.0
  9
$UCSORGBOTTOM
 10
0.0
 20
0.0
 30
0.0
  9
$UCSORGLEFT
 10
0.0
 20
0.0
 30
0.0
  9
$UCSORGRIGHT
 10
0.0
 20
0.0
 30
0.0
  9
$UCSORGFRONT
 10
0.0
 20
0.0
 30
0.0
  9
$UCSORGBACK
 10
0.0
 20
0.0
 30
0.0
  9
$PUCSBASE
  2

  9
$PUCSNAME
  2

  9
$PUCSORG
 10
0.0
 20
0.0
 30
0.0
  9
$PUCSXDIR
 10
1.0
 20
0.0
 30
0.0
  9
$PUCSYDIR
 10
0.0
 20
1.0
 30
0.0
  9
$PUCSORTHOREF
  2

  9
$PUCSORTHOVIEW
 70
     0
  9
$PUCSORGTOP
 10
0.0
 20
0.0
 30
0.0
  9
$PUCSORGBOTTOM
 10
0.0
 20
0.0
 30
0.0
  9
$PUCSORGLEFT
 10
0.0
 20
0.0
 30
0.0
  9
$PUCSORGRIGHT
 10
0.0
 20
0.0
 30
0.0
  9
$PUCSORGFRONT
 10
0.0
 20
0.0
 30
0.0
  9
$PUCSORGBACK
 10
0.0
 20
0.0
 30
0.0
  9
$USERI1
 70
     0
  9
$USERI2
 70
     0
  9
$USERI3
 70
     0
  9
$USERI4
 70
     0
  9
$USERI5
 70
     0
  9
$USERR1
 40
0.0
  9
$USERR2
 40
0.0
  9
$USERR3
 40
0.0
  9
$USERR4
 40
0.0
  9
$USERR5
 40
0.0
  9
$WORLDVIEW
 70
     1
  9
$SHADEDGE
 70
     3
  9
$SHADEDIF
 70
    70
  9
$TILEMODE
 70
     1
  9
$MAXACTVP
 70
    64
  9
$PINSBASE
 10
0.0
 20
0.0
 30
0.0
  9
$PLIMCHECK
 70
     0
  9
$PEXTMIN
 10
-218.193868
 20
-126.073292
 30
0.0
  9
$PEXTMAX
 10
621.806132
 20
467.926708
 30
0.0
  9
$PLIMMIN
 10
-218.193868
 20
-126.073292
  9
$PLIMMAX
 10
621.806132
 20
467.926708
  9
$UNITMODE
 70
     0
  9
$VISRETAIN
 70
     1
  9
$PLINEGEN
 70
     0
  9
$PSLTSCALE
 70
     1
  9
$TREEDEPTH
 70
  3020
  9
$CMLSTYLE
  2
Standard
  9
$CMLJUST
 70
     0
  9
$CMLSCALE
 40
20.0
  9
$PROXYGRAPHICS
 70
     1
  9
$MEASUREMENT
 70
     1
  9
$CELWEIGHT
370
    -1
  9
$ENDCAPS
280
     0
  9
$JOINSTYLE
280
     0
  9
$LWDISPLAY
290
     0
  9
$INSUNITS
 70
     4
  9
$HYPERLINKBASE
  1

  9
$STYLESHEET
  1

  9
$XEDIT
290
     1
  9
$CEPSNTYPE
380
     0
  9
$PSTYLEMODE
290
     1
  9
$FINGERPRINTGUID
  2
{FAEB1C30-E019-11D5-929B-00C0DF256EC4}
  9
$VERSIONGUID
  2
{FAEB1C32-E019-11D5-929B-00C0DF256EC4}
  9
$EXTNAMES
290
     1
  9
$PSVPSCALE
 40
0.0
  9
$OLESTARTUP
290
     0
  0
ENDSEC
  0
SECTION
  2
CLASSES
  0
CLASS
  1
ACDBDICTIONARYWDFLT
  2
AcDbDictionaryWithDefault
  3
ObjectDBX Classes
 90
        0
280
     0
281
     0
  0
CLASS
  1
ACDBPLACEHOLDER
  2
AcDbPlaceHolder
  3
ObjectDBX Classes
 90
        0
280
     0
281
     0
  0
CLASS
  1
LAYOUT
  2
AcDbLayout
  3
ObjectDBX Classes
 90
        0
280
     0
281
     0
  0
ENDSEC
  0
SECTION
  2
TABLES
  0
TABLE
  2
VPORT
  5
8
330
0
100
AcDbSymbolTable
 70
     2
  0
VPORT
  5
29
330
8
100
AcDbSymbolTableRecord
100
AcDbViewportTableRecord
  2
*ACTIVE
 70
     0
 10
0.0
 20
0.0
 11
1.0
 21
1.0
 12
201.806132
 22
170.926708
 13
0.0
 23
0.0
 14
1.0
 24
1.0
 15
0.0
 25
0.0
 16
0.0
 26
0.0
 36
1.0
 17
0.0
 27
0.0
 37
0.0
 40
594.0
 41
1.414141
 42
50.0
 43
0.0
 44
0.0
 50
0.0
 51
0.0
 71
    16
 72
   100
 73
     1
 74
     0
 75
     0
 76
     0
 77
     0
 78
     0
281
     0
 65
     0
110
0.0
120
0.0
130
0.0
111
1.0
121
0.0
131
0.0
112
0.0
122
1.0
132
0.0
 79
     0
146
0.0
  0
ENDTAB
  0
TABLE
  2
LTYPE
  5
5
330
0
100
AcDbSymbolTable
 70
     3
  0
LTYPE
  5
14
330
5
100
AcDbSymbolTableRecord
100
AcDbLinetypeTableRecord
  2
ByBlock
 70
     0
  3

 72
    65
 73
     0
 40
0.0
  0
LTYPE
  5
15
330
5
100
AcDbSymbolTableRecord
100
AcDbLinetypeTableRecord
  2
ByLayer
 70
     0
  3

 72
    65
 73
     0
 40
0.0
  0
LTYPE
  5
16
330
5
100
AcDbSymbolTableRecord
100
AcDbLinetypeTableRecord
  2
Continuous
 70
     0
  3
Solid line
 72
    65
 73
     0
 40
0.0
  0
LTYPE
  5
2A
330
5
100
AcDbSymbolTableRecord
100
AcDbLinetypeTableRecord
  2
DASHED
 70
     0
  3
__ __ __ __ __
 72
    65
 73
     2
 40
6.25
 49
5.0
 74
     4
 75
     0
340
0
 46
1.0
 50
0.0
 44
0.0
 45
0.0
 49
-1.25
 74
     4
 75
     0
340
0
 46
1.0
 50
0.0
 44
0.0
 45
0.0
  0
LTYPE
  5
154
330
5
100
AcDbSymbolTableRecord
100
AcDbLinetypeTableRecord
  2
DASHDOT
 70
     0
  3
__ . __ . __ . __ . __
 72
    65
 73
     4
 40
7.5
 49
5.0
 74
     4
 75
     0
340
0
 46
1.0
 50
0.0
 44
0.0
 45
0.0
 49
-1.25
 74
     4
 75
     0
340
0
 46
1.0
 50
0.0
 44
0.0
 45
0.0
 49
0.0
 74
     4
 75
     0
340
0
 46
1.0
 50
0.0
 44
0.0
 45
0.0
 49
-1.25
 74
     4
 75
     0
340
0
 46
1.0
 50
0.0
 44
0.0
 45
0.0
  0
ENDTAB
  0
TABLE
  2
LAYER
  5
2
330
0
100
AcDbSymbolTable
 70
     8
  0
LAYER
  5
10
330
2
100
AcDbSymbolTableRecord
100
AcDbLayerTableRecord
  2
0
 70
     0
 62
     7
  6
Continuous
370
    -3
390
F
  0
LAYER
  5
2B
330
2
100
AcDbSymbolTableRecord
100
AcDbLayerTableRecord
  2
LC-INFO-1-2-mm-A3-0
 70
     1
 62
     7
  6
ByBlock
370
    -3
390
F
  0
LAYER
  5
2C
330
2
100
AcDbSymbolTableRecord
100
AcDbLayerTableRecord
  2
LC-CUT-HIDDEN
 70
     0
 62
     7
  6
DASHED
370
    -3
390
F
  0
LAYER
  5
2D
330
2
100
AcDbSymbolTableRecord
100
AcDbLayerTableRecord
  2
LC-VIEWPORT
 70
     0
 62
     7
  6
ByBlock
370
    -3
390
F
  0
LAYER
  5
2E
330
2
100
AcDbSymbolTableRecord
100
AcDbLayerTableRecord
  2
LC-3D-HIDDEN
 70
     0
 62
     9
  6
DASHED
370
    -3
390
F
  0
LAYER
  5
30
330
2
100
AcDbSymbolTableRecord
100
AcDbLayerTableRecord
  2
LC-001-100-D00-0
 70
     0
 62
     1
  6
ByBlock
370
    -3
390
F
  0
LAYER
  5
13A
330
2
100
AcDbSymbolTableRecord
100
AcDbLayerTableRecord
  2
Defpoints
 70
     0
 62
     7
  6
Continuous
290
     0
370
    -3
390
F
  0
LAYER
  5
601
330
2
100
AcDbSymbolTableRecord
100
AcDbLayerTableRecord
  2
LC-002-003-----0
 70
     0
 62
     2
  6
ByBlock
370
    -3
390
F
  0
ENDTAB
  0
TABLE
  2
STYLE
  5
3
330
0
100
AcDbSymbolTable
 70
     3
  0
STYLE
  5
11
330
3
100
AcDbSymbolTableRecord
100
AcDbTextStyleTableRecord
  2
Standard
 70
     0
 40
0.0
 41
1.0
 50
0.0
 71
     0
 42
2.5
  3
txt
  4

  0
STYLE
  5
2F
330
3
100
AcDbSymbolTableRecord
100
AcDbTextStyleTableRecord
  2
LCTX15-400-0-0-Arial
 70
     0
 40
0.0
 41
0.8
 50
0.0
 71
     0
 42
3.5
  3

  4

1001
ACAD
1000
Arial
1071
 16777218
  0
STYLE
  5
137
330
3
100
AcDbSymbolTableRecord
100
AcDbTextStyleTableRecord
  2
LCTX15-400-0-0pDIN-Schrift
 70
     0
 40
2.5
 41
0.8
 50
15.0
 71
     0
 42
3.5
  3
STANDARD
  4

  0
ENDTAB
  0
TABLE
  2
VIEW
  5
6
330
0
100
AcDbSymbolTable
 70
     0
  0
ENDTAB
  0
TABLE
  2
UCS
  5
7
330
0
100
AcDbSymbolTable
 70
     0
  0
ENDTAB
  0
TABLE
  2
APPID
  5
9
330
0
100
AcDbSymbolTable
 70
     1
  0
APPID
  5
12
330
9
100
AcDbSymbolTableRecord
100
AcDbRegAppTableRecord
  2
ACAD
 70
     0
  0
ENDTAB
  0
TABLE
  2
DIMSTYLE
  5
A
330
0
100
AcDbSymbolTable
 70
     2
100
AcDbDimStyleTable
  0
DIMSTYLE
105
27
330
A
100
AcDbSymbolTableRecord
100
AcDbDimStyleTableRecord
  2
ISO-25
 70
     0
 41
2.5
 42
0.625
 43
3.75
 44
1.25
 73
     0
 74
     0
 77
     1
 78
     8
140
2.5
141
2.5
143
0.03937
147
0.625
171
     3
172
     1
271
     2
272
     2
274
     3
278
    44
283
     0
284
     8
340
11
  0
DIMSTYLE
105
138
102
{ACAD_REACTORS
330
139
330
147
330
44D
330
59F
330
5AE
330
602
102
}
330
A
100
AcDbSymbolTableRecord
100
AcDbDimStyleTableRecord
  2
LC-DIM-L-0140-02-02
 70
     0
 40
2.0
 41
14.0
 42
0.0
 43
7.5
 44
1.8
 73
     0
 74
     0
 77
     1
 78
     8
 79
     2
140
14.0
141
0.0
146
0.71
147
1.5
176
     2
177
     2
178
     2
179
     2
271
     2
278
    44
289
     1
340
137
  0
ENDTAB
  0
TABLE
  2
BLOCK_RECORD
  5
1
330
0
100
AcDbSymbolTable
 70
    61
  0
BLOCK_RECORD
  5
1F
330
1
100
AcDbSymbolTableRecord
100
AcDbBlockTableRecord
  2
*Model_Space
340
22
  0
BLOCK_RECORD
  5
1B
330
1
100
AcDbSymbolTableRecord
100
AcDbBlockTableRecord
  2
*Paper_Space
340
1E
  0
BLOCK_RECORD
  5
23
330
1
100
AcDbSymbolTableRecord
100
AcDbBlockTableRecord
  2
*Paper_Space0
340
26
  0
BLOCK_RECORD
  5
57
330
1
100
AcDbSymbolTableRecord
100
AcDbBlockTableRecord
  2
POLY1
340
0
102
{BLKREFS
331
66
102
}
  0
BLOCK_RECORD
  5
67
330
1
100
AcDbSymbolTableRecord
100
AcDbBlockTableRecord
  2
POLY2
340
0
102
{BLKREFS
331
76
102
}
  0
BLOCK_RECORD
  5
7A
330
1
100
AcDbSymbolTableRecord
100
AcDbBlockTableRecord
  2
POLY3
340
0
102
{BLKREFS
331
89
102
}
  0
BLOCK_RECORD
  5
8D
330
1
100
AcDbSymbolTableRecord
100
AcDbBlockTableRecord
  2
POLY4
340
0
102
{BLKREFS
331
9C
102
}
  0
BLOCK_RECORD
  5
AA
330
1
100
AcDbSymbolTableRecord
100
AcDbBlockTableRecord
  2
POLY5
340
0
102
{BLKREFS
331
B9
102
}
  0
BLOCK_RECORD
  5
BA
330
1
100
AcDbSymbolTableRecord
100
AcDbBlockTableRecord
  2
POLY6
340
0
102
{BLKREFS
331
CD
102
}
  0
BLOCK_RECORD
  5
CE
330
1
100
AcDbSymbolTableRecord
100
AcDbBlockTableRecord
  2
POLY7
340
0
102
{BLKREFS
331
E3
102
}
  0
BLOCK_RECORD
  5
E6
330
1
100
AcDbSymbolTableRecord
100
AcDbBlockTableRecord
  2
POLY8
340
0
102
{BLKREFS
331
F7
102
}
  0
BLOCK_RECORD
  5
FB
330
1
100
AcDbSymbolTableRecord
100
AcDbBlockTableRecord
  2
POLY9
340
0
102
{BLKREFS
331
106
102
}
  0
BLOCK_RECORD
  5
108
330
1
100
AcDbSymbolTableRecord
100
AcDbBlockTableRecord
  2
POLY10
340
0
102
{BLKREFS
331
119
102
}
  0
BLOCK_RECORD
  5
13B
330
1
100
AcDbSymbolTableRecord
100
AcDbBlockTableRecord
  2
*D11
340
0
  0
BLOCK_RECORD
  5
148
330
1
100
AcDbSymbolTableRecord
100
AcDbBlockTableRecord
  2
*D12
340
0
  0
BLOCK_RECORD
  5
174
330
1
100
AcDbSymbolTableRecord
100
AcDbBlockTableRecord
  2
POLY11
340
0
102
{BLKREFS
331
185
102
}
  0
BLOCK_RECORD
  5
186
330
1
100
AcDbSymbolTableRecord
100
AcDbBlockTableRecord
  2
POLY12
340
0
102
{BLKREFS
331
197
102
}
  0
BLOCK_RECORD
  5
199
330
1
100
AcDbSymbolTableRecord
100
AcDbBlockTableRecord
  2
POLY13
340
0
102
{BLKREFS
331
1C2
102
}
  0
BLOCK_RECORD
  5
1C3
330
1
100
AcDbSymbolTableRecord
100
AcDbBlockTableRecord
  2
POLY14
340
0
102
{BLKREFS
331
1EC
102
}
  0
BLOCK_RECORD
  5
1EE
330
1
100
AcDbSymbolTableRecord
100
AcDbBlockTableRecord
  2
POLY15
340
0
102
{BLKREFS
331
1FF
102
}
  0
BLOCK_RECORD
  5
200
330
1
100
AcDbSymbolTableRecord
100
AcDbBlockTableRecord
  2
POLY16
340
0
102
{BLKREFS
331
211
102
}
  0
BLOCK_RECORD
  5
21D
330
1
100
AcDbSymbolTableRecord
100
AcDbBlockTableRecord
  2
POLY17
340
0
102
{BLKREFS
331
22E
102
}
  0
BLOCK_RECORD
  5
22F
330
1
100
AcDbSymbolTableRecord
100
AcDbBlockTableRecord
  2
POLY18
340
0
102
{BLKREFS
331
240
102
}
  0
BLOCK_RECORD
  5
241
330
1
100
AcDbSymbolTableRecord
100
AcDbBlockTableRecord
  2
POLY19
340
0
102
{BLKREFS
331
25A
102
}
  0
BLOCK_RECORD
  5
25B
330
1
100
AcDbSymbolTableRecord
100
AcDbBlockTableRecord
  2
POLY20
340
0
102
{BLKREFS
331
26A
102
}
  0
BLOCK_RECORD
  5
26B
330
1
100
AcDbSymbolTableRecord
100
AcDbBlockTableRecord
  2
POLY21
340
0
102
{BLKREFS
331
27A
102
}
  0
BLOCK_RECORD
  5
27B
330
1
100
AcDbSymbolTableRecord
100
AcDbBlockTableRecord
  2
POLY22
340
0
102
{BLKREFS
331
28A
102
}
  0
BLOCK_RECORD
  5
28B
330
1
100
AcDbSymbolTableRecord
100
AcDbBlockTableRecord
  2
POLY23
340
0
102
{BLKREFS
331
29C
102
}
  0
BLOCK_RECORD
  5
29D
330
1
100
AcDbSymbolTableRecord
100
AcDbBlockTableRecord
  2
POLY24
340
0
102
{BLKREFS
331
2B6
102
}
  0
BLOCK_RECORD
  5
2B7
330
1
100
AcDbSymbolTableRecord
100
AcDbBlockTableRecord
  2
POLY25
340
0
102
{BLKREFS
331
2D2
102
}
  0
BLOCK_RECORD
  5
2D3
330
1
100
AcDbSymbolTableRecord
100
AcDbBlockTableRecord
  2
POLY26
340
0
102
{BLKREFS
331
2E4
102
}
  0
BLOCK_RECORD
  5
2F9
330
1
100
AcDbSymbolTableRecord
100
AcDbBlockTableRecord
  2
POLY27
340
0
102
{BLKREFS
331
308
102
}
  0
BLOCK_RECORD
  5
309
330
1
100
AcDbSymbolTableRecord
100
AcDbBlockTableRecord
  2
POLY28
340
0
102
{BLKREFS
331
31A
102
}
  0
BLOCK_RECORD
  5
31B
330
1
100
AcDbSymbolTableRecord
100
AcDbBlockTableRecord
  2
POLY29
340
0
102
{BLKREFS
331
328
102
}
  0
BLOCK_RECORD
  5
329
330
1
100
AcDbSymbolTableRecord
100
AcDbBlockTableRecord
  2
POLY30
340
0
102
{BLKREFS
331
348
102
}
  0
BLOCK_RECORD
  5
349
330
1
100
AcDbSymbolTableRecord
100
AcDbBlockTableRecord
  2
POLY31
340
0
102
{BLKREFS
331
372
102
}
  0
BLOCK_RECORD
  5
373
330
1
100
AcDbSymbolTableRecord
100
AcDbBlockTableRecord
  2
POLY32
340
0
102
{BLKREFS
331
380
102
}
  0
BLOCK_RECORD
  5
381
330
1
100
AcDbSymbolTableRecord
100
AcDbBlockTableRecord
  2
POLY33
340
0
102
{BLKREFS
331
3A0
102
}
  0
BLOCK_RECORD
  5
3A1
330
1
100
AcDbSymbolTableRecord
100
AcDbBlockTableRecord
  2
POLY34
340
0
102
{BLKREFS
331
3CA
102
}
  0
BLOCK_RECORD
  5
3CB
330
1
100
AcDbSymbolTableRecord
100
AcDbBlockTableRecord
  2
POLY35
340
0
102
{BLKREFS
331
3EA
102
}
  0
BLOCK_RECORD
  5
3EB
330
1
100
AcDbSymbolTableRecord
100
AcDbBlockTableRecord
  2
POLY36
340
0
102
{BLKREFS
331
3FA
102
}
  0
BLOCK_RECORD
  5
3FB
330
1
100
AcDbSymbolTableRecord
100
AcDbBlockTableRecord
  2
POLY37
340
0
102
{BLKREFS
331
40C
102
}
  0
BLOCK_RECORD
  5
40D
330
1
100
AcDbSymbolTableRecord
100
AcDbBlockTableRecord
  2
POLY38
340
0
102
{BLKREFS
331
41C
102
}
  0
BLOCK_RECORD
  5
42E
330
1
100
AcDbSymbolTableRecord
100
AcDbBlockTableRecord
  2
KLON1
340
0
102
{BLKREFS
331
433
102
}
  0
BLOCK_RECORD
  5
435
330
1
100
AcDbSymbolTableRecord
100
AcDbBlockTableRecord
  2
KLON2
340
0
102
{BLKREFS
331
43A
102
}
  0
BLOCK_RECORD
  5
44E
330
1
100
AcDbSymbolTableRecord
100
AcDbBlockTableRecord
  2
*D43
340
0
  0
BLOCK_RECORD
  5
490
330
1
100
AcDbSymbolTableRecord
100
AcDbBlockTableRecord
  2
POLY39
340
0
102
{BLKREFS
331
49F
102
}
  0
BLOCK_RECORD
  5
4A0
330
1
100
AcDbSymbolTableRecord
100
AcDbBlockTableRecord
  2
POLY40
340
0
102
{BLKREFS
331
4AF
102
}
  0
BLOCK_RECORD
  5
4B3
330
1
100
AcDbSymbolTableRecord
100
AcDbBlockTableRecord
  2
POLY41
340
0
102
{BLKREFS
331
4C4
102
}
  0
BLOCK_RECORD
  5
4C5
330
1
100
AcDbSymbolTableRecord
100
AcDbBlockTableRecord
  2
POLY42
340
0
102
{BLKREFS
331
4D2
102
}
  0
BLOCK_RECORD
  5
4D4
330
1
100
AcDbSymbolTableRecord
100
AcDbBlockTableRecord
  2
POLY43
340
0
102
{BLKREFS
331
4E5
102
}
  0
BLOCK_RECORD
  5
4E7
330
1
100
AcDbSymbolTableRecord
100
AcDbBlockTableRecord
  2
POLY44
340
0
102
{BLKREFS
331
4F6
102
}
  0
BLOCK_RECORD
  5
50D
330
1
100
AcDbSymbolTableRecord
100
AcDbBlockTableRecord
  2
POLY45
340
0
102
{BLKREFS
331
524
102
}
  0
BLOCK_RECORD
  5
538
330
1
100
AcDbSymbolTableRecord
100
AcDbBlockTableRecord
  2
POLY46
340
0
102
{BLKREFS
331
54B
102
}
  0
BLOCK_RECORD
  5
54C
330
1
100
AcDbSymbolTableRecord
100
AcDbBlockTableRecord
  2
POLY47
340
0
102
{BLKREFS
331
55D
102
}
  0
BLOCK_RECORD
  5
562
330
1
100
AcDbSymbolTableRecord
100
AcDbBlockTableRecord
  2
KLON3
340
0
102
{BLKREFS
331
57A
102
}
  0
BLOCK_RECORD
  5
57B
330
1
100
AcDbSymbolTableRecord
100
AcDbBlockTableRecord
  2
KLON4
340
0
102
{BLKREFS
331
589
102
}
  0
BLOCK_RECORD
  5
58A
330
1
100
AcDbSymbolTableRecord
100
AcDbBlockTableRecord
  2
KLON5
340
0
102
{BLKREFS
331
593
102
}
  0
BLOCK_RECORD
  5
594
330
1
100
AcDbSymbolTableRecord
100
AcDbBlockTableRecord
  2
KLON6
340
0
102
{BLKREFS
331
59C
102
}
  0
BLOCK_RECORD
  5
5A0
330
1
100
AcDbSymbolTableRecord
100
AcDbBlockTableRecord
  2
*D57
340
0
  0
BLOCK_RECORD
  5
5AF
330
1
100
AcDbSymbolTableRecord
100
AcDbBlockTableRecord
  2
*D58
340
0
  0
BLOCK_RECORD
  5
5E2
330
1
100
AcDbSymbolTableRecord
100
AcDbBlockTableRecord
  2
KLON7
340
0
102
{BLKREFS
331
5F3
102
}
  0
BLOCK_RECORD
  5
603
330
1
100
AcDbSymbolTableRecord
100
AcDbBlockTableRecord
  2
*D60
340
0
  0
ENDTAB
  0
ENDSEC
  0
SECTION
  2
BLOCKS
  0
BLOCK
  5
20
330
1F
100
AcDbEntity
  8
0
100
AcDbBlockBegin
  2
*Model_Space
 70
     0
 71
     0
 10
0.0
 20
0.0
 30
0.0
  3
*Model_Space
  1

  0
ENDBLK
  5
21
330
1F
100
AcDbEntity
  8
0
100
AcDbBlockEnd
  0
BLOCK
  5
1C
330
1B
100
AcDbEntity
 67
     1
  8
0
100
AcDbBlockBegin
  2
*Paper_Space
 70
     0
 71
     0
 10
0.0
 20
0.0
 30
0.0
  3
*Paper_Space
  1

  0
ENDBLK
  5
1D
330
1B
100
AcDbEntity
 67
     1
  8
0
100
AcDbBlockEnd
  0
BLOCK
  5
24
330
23
100
AcDbEntity
  8
0
100
AcDbBlockBegin
  2
*Paper_Space0
 70
     0
 71
     0
 10
0.0
 20
0.0
 30
0.0
  3
*Paper_Space0
  1

  0
ENDBLK
  5
25
330
23
100
AcDbEntity
  8
0
100
AcDbBlockEnd
  0
BLOCK
  5
58
330
57
100
AcDbEntity
  8
0
100
AcDbBlockBegin
  2
POLY1
 70
     0
 71
     0
 10
0.0
 20
0.0
 30
0.0
  3
POLY1
  1

  4
POLY1
  0
LINE
  5
5A
330
57
100
AcDbEntity
  8
LC-001-100-D00-0
 62
     7
370
    50
100
AcDbLine
 10
259.067442
 20
290.301146
 30
0.0
 11
259.067442
 21
290.301146
 31
0.0
  0
LINE
  5
5B
330
57
100
AcDbEntity
  8
LC-001-100-D00-0
 62
     7
370
    50
100
AcDbLine
 10
259.067442
 20
290.301146
 30
0.0
 11
259.058241
 21
290.299088
 31
0.0
  0
LINE
  5
5C
330
57
100
AcDbEntity
  8
LC-001-100-D00-0
 62
     7
370
    50
100
AcDbLine
 10
259.058241
 20
290.299088
 30
0.0
 11
259.058241
 21
290.299088
 31
0.0
  0
LINE
  5
5D
330
57
100
AcDbEntity
  8
LC-001-100-D00-0
 62
     7
370
    50
100
AcDbLine
 10
259.058241
 20
290.299088
 30
0.0
 11
258.32442
 21
290.13499
 31
0.0
  0
LINE
  5
5E
330
57
100
AcDbEntity
  8
LC-001-100-D00-0
 62
     7
370
    50
100
AcDbLine
 10
258.32442
 20
290.13499
 30
0.0
 11
258.32442
 21
290.13499
 31
0.0
  0
LINE
  5
5F
330
57
100
AcDbEntity
  8
LC-001-100-D00-0
 62
     7
370
    50
100
AcDbLine
 10
258.32442
 20
290.13499
 30
0.0
 11
256.864797
 21
289.814156
 31
0.0
  0
LINE
  5
60
330
57
100
AcDbEntity
  8
LC-001-100-D00-0
 62
     7
370
    50
100
AcDbLine
 10
256.864797
 20
289.814156
 30
0.0
 11
256.864797
 21
289.814156
 31
0.0
  0
LINE
  5
61
330
57
100
AcDbEntity
  8
LC-001-100-D00-0
 62
     7
370
    50
100
AcDbLine
 10
256.864797
 20
289.814156
 30
0.0
 11
254.744179
 21
289.408093
 31
0.0
  0
LINE
  5
62
330
57
100
AcDbEntity
  8
LC-001-100-D00-0
 62
     7
370
    50
100
AcDbLine
 10
254.744179
 20
289.408093
 30
0.0
 11
254.744179
 21
289.408093
 31
0.0
  0
LINE
  5
63
330
57
100
AcDbEntity
  8
LC-001-100-D00-0
 62
     7
370
    50
100
AcDbLine
 10
254.744179
 20
289.408093
 30
0.0
 11
253.332614
 21
289.33551
 31
0.0
  0
LINE
  5
64
330
57
100
AcDbEntity
  8
LC-001-100-D00-0
 62
     7
370
    50
100
AcDbLine
 10
253.332614
 20
289.33551
 30
0.0
 11
253.332614
 21
289.33551
 31
0.0
  0
LINE
  5
65
330
57
100
AcDbEntity
  8
LC-001-100-D00-0
 62
     7
370
    50
100
AcDbLine
 10
253.332614
 20
289.33551
 30
0.0
 11
252.664318
 21
289.301146
 31
0.0
  0
ENDBLK
  5
59
330
57
100
AcDbEntity
  8
0
100
AcDbBlockEnd
  0
BLOCK
  5
68
330
67
100
AcDbEntity
  8
0
100
AcDbBlockBegin
  2
POLY2
 70
     0
 71
     0
 10
0.0
 20
0.0
 30
0.0
  3
POLY2
  1

  4
POLY2
  0
LINE
  5
6A
330
67
100
AcDbEntity
  8
LC-001-100-D00-0
 62
     7
370
    50
100
AcDbLine
 10
252.664318
 20
286.301146
 30
0.0
 11
252.664318
 21
286.301146
 31
0.0
  0
LINE
  5
6B
330
67
100
AcDbEntity
  8
LC-001-100-D00-0
 62
     7
370
    50
100
AcDbLine
 10
252.664318
 20
286.301146
 30
0.0
 11
253.332614
 21
286.266786
 31
0.0
  0
LINE
  5
6C
330
67
100
AcDbEntity
  8
LC-001-100-D00-0
 62
     7
370
    50
100
AcDbLine
 10
253.332614
 20
286.266786
 30
0.0
 11
253.332614
 21
286.266786
 31
0.0
  0
LINE
  5
6D
330
67
100
AcDbEntity
  8
LC-001-100-D00-0
 62
     7
370
    50
100
AcDbLine
 10
253.332614
 20
286.266786
 30
0.0
 11
254.742734
 21
286.194286
 31
0.0
  0
LINE
  5
6E
330
67
100
AcDbEntity
  8
LC-001-100-D00-0
 62
     7
370
    50
100
AcDbLine
 10
254.742734
 20
286.194286
 30
0.0
 11
254.742734
 21
286.194286
 31
0.0
  0
LINE
  5
6F
330
67
100
AcDbEntity
  8
LC-001-100-D00-0
 62
     7
370
    50
100
AcDbLine
 10
254.742734
 20
286.194286
 30
0.0
 11
256.863384
 21
285.788449
 31
0.0
  0
LINE
  5
70
330
67
100
AcDbEntity
  8
LC-001-100-D00-0
 62
     7
370
    50
100
AcDbLine
 10
256.863384
 20
285.788449
 30
0.0
 11
256.863384
 21
285.788449
 31
0.0
  0
LINE
  5
71
330
67
100
AcDbEntity
  8
LC-001-100-D00-0
 62
     7
370
    50
100
AcDbLine
 10
256.863384
 20
285.788449
 30
0.0
 11
258.323009
 21
285.467617
 31
0.0
  0
LINE
  5
72
330
67
100
AcDbEntity
  8
LC-001-100-D00-0
 62
     7
370
    50
100
AcDbLine
 10
258.323009
 20
285.467617
 30
0.0
 11
258.323009
 21
285.467617
 31
0.0
  0
LINE
  5
73
330
67
100
AcDbEntity
  8
LC-001-100-D00-0
 62
     7
370
    50
100
AcDbLine
 10
258.323009
 20
285.467617
 30
0.0
 11
259.058241
 21
285.303203
 31
0.0
  0
LINE
  5
74
330
67
100
AcDbEntity
  8
LC-001-100-D00-0
 62
     7
370
    50
100
AcDbLine
 10
259.058241
 20
285.303203
 30
0.0
 11
259.058241
 21
285.303203
 31
0.0
  0
LINE
  5
75
330
67
100
AcDbEntity
  8
LC-001-100-D00-0
 62
     7
370
    50
100
AcDbLine
 10
259.058241
 20
285.303203
 30
0.0
 11
259.067442
 21
285.301146
 31
0.0
  0
ENDBLK
  5
69
330
67
100
AcDbEntity
  8
0
100
AcDbBlockEnd
  0
BLOCK
  5
7B
330
7A
100
AcDbEntity
  8
0
100
AcDbBlockBegin
  2
POLY3
 70
     0
 71
     0
 10
0.0
 20
0.0
 30
0.0
  3
POLY3
  1

  4
POLY3
  0
LINE
  5
7D
330
7A
100
AcDbEntity
  8
LC-001-100-D00-0
 62
     7
370
    50
100
AcDbLine
 10
350.148491
 20
289.301146
 30
0.0
 11
350.148491
 21
289.301146
 31
0.0
  0
LINE
  5
7E
330
7A
100
AcDbEntity
  8
LC-001-100-D00-0
 62
     7
370
    50
100
AcDbLine
 10
350.148491
 20
289.301146
 30
0.0
 11
349.480195
 21
289.335505
 31
0.0
  0
LINE
  5
7F
330
7A
100
AcDbEntity
  8
LC-001-100-D00-0
 62
     7
370
    50
100
AcDbLine
 10
349.480195
 20
289.335505
 30
0.0
 11
349.480195
 21
289.335505
 31
0.0
  0
LINE
  5
80
330
7A
100
AcDbEntity
  8
LC-001-100-D00-0
 62
     7
370
    50
100
AcDbLine
 10
349.480195
 20
289.335505
 30
0.0
 11
348.070075
 21
289.408005
 31
0.0
  0
LINE
  5
81
330
7A
100
AcDbEntity
  8
LC-001-100-D00-0
 62
     7
370
    50
100
AcDbLine
 10
348.070075
 20
289.408005
 30
0.0
 11
348.070075
 21
289.408005
 31
0.0
  0
LINE
  5
82
330
7A
100
AcDbEntity
  8
LC-001-100-D00-0
 62
     7
370
    50
100
AcDbLine
 10
348.070075
 20
289.408005
 30
0.0
 11
345.949425
 21
289.813842
 31
0.0
  0
LINE
  5
83
330
7A
100
AcDbEntity
  8
LC-001-100-D00-0
 62
     7
370
    50
100
AcDbLine
 10
345.949425
 20
289.813842
 30
0.0
 11
345.949425
 21
289.813842
 31
0.0
  0
LINE
  5
84
330
7A
100
AcDbEntity
  8
LC-001-100-D00-0
 62
     7
370
    50
100
AcDbLine
 10
345.949425
 20
289.813842
 30
0.0
 11
344.4898
 21
290.134674
 31
0.0
  0
LINE
  5
85
330
7A
100
AcDbEntity
  8
LC-001-100-D00-0
 62
     7
370
    50
100
AcDbLine
 10
344.4898
 20
290.134674
 30
0.0
 11
344.4898
 21
290.134674
 31
0.0
  0
LINE
  5
86
330
7A
100
AcDbEntity
  8
LC-001-100-D00-0
 62
     7
370
    50
100
AcDbLine
 10
344.4898
 20
290.134674
 30
0.0
 11
343.754568
 21
290.299088
 31
0.0
  0
LINE
  5
87
330
7A
100
AcDbEntity
  8
LC-001-100-D00-0
 62
     7
370
    50
100
AcDbLine
 10
343.754568
 20
290.299088
 30
0.0
 11
343.754568
 21
290.299088
 31
0.0
  0
LINE
  5
88
330
7A
100
AcDbEntity
  8
LC-001-100-D00-0
 62
     7
370
    50
100
AcDbLine
 10
343.754568
 20
290.299088
 30
0.0
 11
343.745367
 21
290.301146
 31
0.0
  0
ENDBLK
  5
7C
330
7A
100
AcDbEntity
  8
0
100
AcDbBlockEnd
  0
BLOCK
  5
8E
330
8D
100
AcDbEntity
  8
0
100
AcDbBlockBegin
  2
POLY4
 70
     0
 71
     0
 10
0.0
 20
0.0
 30
0.0
  3
POLY4
  1

  4
POLY4
  0
LINE
  5
90
330
8D
100
AcDbEntity
  8
LC-001-100-D00-0
 62
     7
370
    50
100
AcDbLine
 10
343.745367
 20
285.301146
 30
0.0
 11
343.745367
 21
285.301146
 31
0.0
  0
LINE
  5
91
330
8D
100
AcDbEntity
  8
LC-001-100-D00-0
 62
     7
370
    50
100
AcDbLine
 10
343.745367
 20
285.301146
 30
0.0
 11
343.754568
 21
285.303203
 31
0.0
  0
LINE
  5
92
330
8D
100
AcDbEntity
  8
LC-001-100-D00-0
 62
     7
370
    50
100
AcDbLine
 10
343.754568
 20
285.303203
 30
0.0
 11
343.754568
 21
285.303203
 31
0.0
  0
LINE
  5
93
330
8D
100
AcDbEntity
  8
LC-001-100-D00-0
 62
     7
370
    50
100
AcDbLine
 10
343.754568
 20
285.303203
 30
0.0
 11
344.488389
 21
285.467301
 31
0.0
  0
LINE
  5
94
330
8D
100
AcDbEntity
  8
LC-001-100-D00-0
 62
     7
370
    50
100
AcDbLine
 10
344.488389
 20
285.467301
 30
0.0
 11
344.488389
 21
285.467301
 31
0.0
  0
LINE
  5
95
330
8D
100
AcDbEntity
  8
LC-001-100-D00-0
 62
     7
370
    50
100
AcDbLine
 10
344.488389
 20
285.467301
 30
0.0
 11
345.948012
 21
285.788135
 31
0.0
  0
LINE
  5
96
330
8D
100
AcDbEntity
  8
LC-001-100-D00-0
 62
     7
370
    50
100
AcDbLine
 10
345.948012
 20
285.788135
 30
0.0
 11
345.948012
 21
285.788135
 31
0.0
  0
LINE
  5
97
330
8D
100
AcDbEntity
  8
LC-001-100-D00-0
 62
     7
370
    50
100
AcDbLine
 10
345.948012
 20
285.788135
 30
0.0
 11
348.06863
 21
286.194198
 31
0.0
  0
LINE
  5
98
330
8D
100
AcDbEntity
  8
LC-001-100-D00-0
 62
     7
370
    50
100
AcDbLine
 10
348.06863
 20
286.194198
 30
0.0
 11
348.06863
 21
286.194198
 31
0.0
  0
LINE
  5
99
330
8D
100
AcDbEntity
  8
LC-001-100-D00-0
 62
     7
370
    50
100
AcDbLine
 10
348.06863
 20
286.194198
 30
0.0
 11
349.480195
 21
286.266781
 31
0.0
  0
LINE
  5
9A
330
8D
100
AcDbEntity
  8
LC-001-100-D00-0
 62
     7
370
    50
100
AcDbLine
 10
349.480195
 20
286.266781
 30
0.0
 11
349.480195
 21
286.266781
 31
0.0
  0
LINE
  5
9B
330
8D
100
AcDbEntity
  8
LC-001-100-D00-0
 62
     7
370
    50
100
AcDbLine
 10
349.480195
 20
286.266781
 30
0.0
 11
350.148491
 21
286.301146
 31
0.0
  0
ENDBLK
  5
8F
330
8D
100
AcDbEntity
  8
0
100
AcDbBlockEnd
  0
BLOCK
  5
AB
330
AA
100
AcDbEntity
  8
0
100
AcDbBlockBegin
  2
POLY5
 70
     0
 71
     0
 10
0.0
 20
0.0
 30
0.0
  3
POLY5
  1

  4
POLY5
  0
LINE
  5
AD
330
AA
100
AcDbEntity
  8
LC-001-100-D00-0
 62
     7
370
    50
100
AcDbLine
 10
365.353569
 20
290.301146
 30
0.0
 11
365.353569
 21
290.301146
 31
0.0
  0
LINE
  5
AE
330
AA
100
AcDbEntity
  8
LC-001-100-D00-0
 62
     7
370
    50
100
AcDbLine
 10
365.353569
 20
290.301146
 30
0.0
 11
365.363689
 21
290.206041
 31
0.0
  0
LINE
  5
AF
330
AA
100
AcDbEntity
  8
LC-001-100-D00-0
 62
     7
370
    50
100
AcDbLine
 10
365.363689
 20
290.206041
 30
0.0
 11
365.363689
 21
290.206041
 31
0.0
  0
LINE
  5
B0
330
AA
100
AcDbEntity
  8
LC-001-100-D00-0
 62
     7
370
    50
100
AcDbLine
 10
365.363689
 20
290.206041
 30
0.0
 11
365.383894
 21
290.016161
 31
0.0
  0
LINE
  5
B1
330
AA
100
AcDbEntity
  8
LC-001-100-D00-0
 62
     7
370
    50
100
AcDbLine
 10
365.383894
 20
290.016161
 30
0.0
 11
365.383894
 21
290.016161
 31
0.0
  0
LINE
  5
B2
330
AA
100
AcDbEntity
  8
LC-001-100-D00-0
 62
     7
370
    50
100
AcDbLine
 10
365.383894
 20
290.016161
 30
0.0
 11
365.539904
 21
289.765028
 31
0.0
  0
LINE
  5
B3
330
AA
100
AcDbEntity
  8
LC-001-100-D00-0
 62
     7
370
    50
100
AcDbLine
 10
365.539904
 20
289.765028
 30
0.0
 11
365.539904
 21
289.765028
 31
0.0
  0
LINE
  5
B4
330
AA
100
AcDbEntity
  8
LC-001-100-D00-0
 62
     7
370
    50
100
AcDbLine
 10
365.539904
 20
289.765028
 30
0.0
 11
365.715171
 21
289.580284
 31
0.0
  0
LINE
  5
B5
330
AA
100
AcDbEntity
  8
LC-001-100-D00-0
 62
     7
370
    50
100
AcDbLine
 10
365.715171
 20
289.580284
 30
0.0
 11
365.715171
 21
289.580284
 31
0.0
  0
LINE
  5
B6
330
AA
100
AcDbEntity
  8
LC-001-100-D00-0
 62
     7
370
    50
100
AcDbLine
 10
365.715171
 20
289.580284
 30
0.0
 11
365.857614
 21
289.518362
 31
0.0
  0
LINE
  5
B7
330
AA
100
AcDbEntity
  8
LC-001-100-D00-0
 62
     7
370
    50
100
AcDbLine
 10
365.857614
 20
289.518362
 30
0.0
 11
365.857614
 21
289.518362
 31
0.0
  0
LINE
  5
B8
330
AA
100
AcDbEntity
  8
LC-001-100-D00-0
 62
     7
370
    50
100
AcDbLine
 10
365.857614
 20
289.518362
 30
0.0
 11
365.906405
 21
289.497152
 31
0.0
  0
ENDBLK
  5
AC
330
AA
100
AcDbEntity
  8
0
100
AcDbBlockEnd
  0
BLOCK
  5
BB
330
BA
100
AcDbEntity
  8
0
100
AcDbBlockBegin
  2
POLY6
 70
     0
 71
     0
 10
0.0
 20
0.0
 30
0.0
  3
POLY6
  1

  4
POLY6
  0
LINE
  5
BD
330
BA
100
AcDbEntity
  8
LC-001-100-D00-0
 62
     7
370
    50
100
AcDbLine
 10
236.906405
 20
289.479588
 30
0.0
 11
236.906405
 21
289.479588
 31
0.0
  0
LINE
  5
BE
330
BA
100
AcDbEntity
  8
LC-001-100-D00-0
 62
     7
370
    50
100
AcDbLine
 10
236.906405
 20
289.479588
 30
0.0
 11
236.964211
 21
289.513295
 31
0.0
  0
LINE
  5
BF
330
BA
100
AcDbEntity
  8
LC-001-100-D00-0
 62
     7
370
    50
100
AcDbLine
 10
236.964211
 20
289.513295
 30
0.0
 11
236.964211
 21
289.513295
 31
0.0
  0
LINE
  5
C0
330
BA
100
AcDbEntity
  8
LC-001-100-D00-0
 62
     7
370
    50
100
AcDbLine
 10
236.964211
 20
289.513295
 30
0.0
 11
237.071426
 21
289.575811
 31
0.0
  0
LINE
  5
C1
330
BA
100
AcDbEntity
  8
LC-001-100-D00-0
 62
     7
370
    50
100
AcDbLine
 10
237.071426
 20
289.575811
 30
0.0
 11
237.071426
 21
289.575811
 31
0.0
  0
LINE
  5
C2
330
BA
100
AcDbEntity
  8
LC-001-100-D00-0
 62
     7
370
    50
100
AcDbLine
 10
237.071426
 20
289.575811
 30
0.0
 11
237.207225
 21
289.698998
 31
0.0
  0
LINE
  5
C3
330
BA
100
AcDbEntity
  8
LC-001-100-D00-0
 62
     7
370
    50
100
AcDbLine
 10
237.207225
 20
289.698998
 30
0.0
 11
237.207225
 21
289.698998
 31
0.0
  0
LINE
  5
C4
330
BA
100
AcDbEntity
  8
LC-001-100-D00-0
 62
     7
370
    50
100
AcDbLine
 10
237.207225
 20
289.698998
 30
0.0
 11
237.311044
 21
289.825856
 31
0.0
  0
LINE
  5
C5
330
BA
100
AcDbEntity
  8
LC-001-100-D00-0
 62
     7
370
    50
100
AcDbLine
 10
237.311044
 20
289.825856
 30
0.0
 11
237.311044
 21
289.825856
 31
0.0
  0
LINE
  5
C6
330
BA
100
AcDbEntity
  8
LC-001-100-D00-0
 62
     7
370
    50
100
AcDbLine
 10
237.311044
 20
289.825856
 30
0.0
 11
237.387088
 21
289.961393
 31
0.0
  0
LINE
  5
C7
330
BA
100
AcDbEntity
  8
LC-001-100-D00-0
 62
     7
370
    50
100
AcDbLine
 10
237.387088
 20
289.961393
 30
0.0
 11
237.387088
 21
289.961393
 31
0.0
  0
LINE
  5
C8
330
BA
100
AcDbEntity
  8
LC-001-100-D00-0
 62
     7
370
    50
100
AcDbLine
 10
237.387088
 20
289.961393
 30
0.0
 11
237.445445
 21
290.116374
 31
0.0
  0
LINE
  5
C9
330
BA
100
AcDbEntity
  8
LC-001-100-D00-0
 62
     7
370
    50
100
AcDbLine
 10
237.445445
 20
290.116374
 30
0.0
 11
237.445445
 21
290.116374
 31
0.0
  0
LINE
  5
CA
330
BA
100
AcDbEntity
  8
LC-001-100-D00-0
 62
     7
370
    50
100
AcDbLine
 10
237.445445
 20
290.116374
 30
0.0
 11
237.454172
 21
290.233271
 31
0.0
  0
LINE
  5
CB
330
BA
100
AcDbEntity
  8
LC-001-100-D00-0
 62
     7
370
    50
100
AcDbLine
 10
237.454172
 20
290.233271
 30
0.0
 11
237.454172
 21
290.233271
 31
0.0
  0
LINE
  5
CC
330
BA
100
AcDbEntity
  8
LC-001-100-D00-0
 62
     7
370
    50
100
AcDbLine
 10
237.454172
 20
290.233271
 30
0.0
 11
237.45924
 21
290.301146
 31
0.0
  0
ENDBLK
  5
BC
330
BA
100
AcDbEntity
  8
0
100
AcDbBlockEnd
  0
BLOCK
  5
CF
330
CE
100
AcDbEntity
  8
0
100
AcDbBlockBegin
  2
POLY7
 70
     0
 71
     0
 10
0.0
 20
0.0
 30
0.0
  3
POLY7
  1

  4
POLY7
  0
LINE
  5
D1
330
CE
100
AcDbEntity
  8
LC-001-100-D00-0
 62
     7
370
    50
100
AcDbLine
 10
368.203279
 20
279.801146
 30
0.0
 11
368.203279
 21
279.801146
 31
0.0
  0
LINE
  5
D2
330
CE
100
AcDbEntity
  8
LC-001-100-D00-0
 62
     7
370
    50
100
AcDbLine
 10
368.203279
 20
279.801146
 30
0.0
 11
368.158655
 21
279.802279
 31
0.0
  0
LINE
  5
D3
330
CE
100
AcDbEntity
  8
LC-001-100-D00-0
 62
     7
370
    50
100
AcDbLine
 10
368.158655
 20
279.802279
 30
0.0
 11
368.158655
 21
279.802279
 31
0.0
  0
LINE
  5
D4
330
CE
100
AcDbEntity
  8
LC-001-100-D00-0
 62
     7
370
    50
100
AcDbLine
 10
368.158655
 20
279.802279
 30
0.0
 11
368.024208
 21
279.805692
 31
0.0
  0
LINE
  5
D5
330
CE
100
AcDbEntity
  8
LC-001-100-D00-0
 62
     7
370
    50
100
AcDbLine
 10
368.024208
 20
279.805692
 30
0.0
 11
368.024208
 21
279.805692
 31
0.0
  0
LINE
  5
D6
330
CE
100
AcDbEntity
  8
LC-001-100-D00-0
 62
     7
370
    50
100
AcDbLine
 10
368.024208
 20
279.805692
 30
0.0
 11
367.795615
 21
279.844703
 31
0.0
  0
LINE
  5
D7
330
CE
100
AcDbEntity
  8
LC-001-100-D00-0
 62
     7
370
    50
100
AcDbLine
 10
367.795615
 20
279.844703
 30
0.0
 11
367.795615
 21
279.844703
 31
0.0
  0
LINE
  5
D8
330
CE
100
AcDbEntity
  8
LC-001-100-D00-0
 62
     7
370
    50
100
AcDbLine
 10
367.795615
 20
279.844703
 30
0.0
 11
367.517379
 21
279.934955
 31
0.0
  0
LINE
  5
D9
330
CE
100
AcDbEntity
  8
LC-001-100-D00-0
 62
     7
370
    50
100
AcDbLine
 10
367.517379
 20
279.934955
 30
0.0
 11
367.517379
 21
279.934955
 31
0.0
  0
LINE
  5
DA
330
CE
100
AcDbEntity
  8
LC-001-100-D00-0
 62
     7
370
    50
100
AcDbLine
 10
367.517379
 20
279.934955
 30
0.0
 11
367.28372
 21
280.048315
 31
0.0
  0
LINE
  5
DB
330
CE
100
AcDbEntity
  8
LC-001-100-D00-0
 62
     7
370
    50
100
AcDbLine
 10
367.28372
 20
280.048315
 30
0.0
 11
367.28372
 21
280.048315
 31
0.0
  0
LINE
  5
DC
330
CE
100
AcDbEntity
  8
LC-001-100-D00-0
 62
     7
370
    50
100
AcDbLine
 10
367.28372
 20
280.048315
 30
0.0
 11
367.102524
 21
280.161112
 31
0.0
  0
LINE
  5
DD
330
CE
100
AcDbEntity
  8
LC-001-100-D00-0
 62
     7
370
    50
100
AcDbLine
 10
367.102524
 20
280.161112
 30
0.0
 11
367.102524
 21
280.161112
 31
0.0
  0
LINE
  5
DE
330
CE
100
AcDbEntity
  8
LC-001-100-D00-0
 62
     7
370
    50
100
AcDbLine
 10
367.102524
 20
280.161112
 30
0.0
 11
366.993902
 21
280.233475
 31
0.0
  0
LINE
  5
DF
330
CE
100
AcDbEntity
  8
LC-001-100-D00-0
 62
     7
370
    50
100
AcDbLine
 10
366.993902
 20
280.233475
 30
0.0
 11
366.993902
 21
280.233475
 31
0.0
  0
LINE
  5
E0
330
CE
100
AcDbEntity
  8
LC-001-100-D00-0
 62
     7
370
    50
100
AcDbLine
 10
366.993902
 20
280.233475
 30
0.0
 11
366.933417
 21
280.284414
 31
0.0
  0
LINE
  5
E1
330
CE
100
AcDbEntity
  8
LC-001-100-D00-0
 62
     7
370
    50
100
AcDbLine
 10
366.933417
 20
280.284414
 30
0.0
 11
366.933417
 21
280.284414
 31
0.0
  0
LINE
  5
E2
330
CE
100
AcDbEntity
  8
LC-001-100-D00-0
 62
     7
370
    50
100
AcDbLine
 10
366.933417
 20
280.284414
 30
0.0
 11
366.91355
 21
280.301146
 31
0.0
  0
ENDBLK
  5
D0
330
CE
100
AcDbEntity
  8
0
100
AcDbBlockEnd
  0
BLOCK
  5
E7
330
E6
100
AcDbEntity
  8
0
100
AcDbBlockBegin
  2
POLY8
 70
     0
 71
     0
 10
0.0
 20
0.0
 30
0.0
  3
POLY8
  1

  4
POLY8
  0
LINE
  5
E9
330
E6
100
AcDbEntity
  8
LC-001-100-D00-0
 62
     7
370
    50
100
AcDbLine
 10
365.353569
 20
303.801146
 30
0.0
 11
365.353569
 21
303.801146
 31
0.0
  0
LINE
  5
EA
330
E6
100
AcDbEntity
  8
LC-001-100-D00-0
 62
     7
370
    50
100
AcDbLine
 10
365.353569
 20
303.801146
 30
0.0
 11
365.344058
 21
303.942775
 31
0.0
  0
LINE
  5
EB
330
E6
100
AcDbEntity
  8
LC-001-100-D00-0
 62
     7
370
    50
100
AcDbLine
 10
365.344058
 20
303.942775
 30
0.0
 11
365.344058
 21
303.942775
 31
0.0
  0
LINE
  5
EC
330
E6
100
AcDbEntity
  8
LC-001-100-D00-0
 62
     7
370
    50
100
AcDbLine
 10
365.344058
 20
303.942775
 30
0.0
 11
365.325065
 21
304.225578
 31
0.0
  0
LINE
  5
ED
330
E6
100
AcDbEntity
  8
LC-001-100-D00-0
 62
     7
370
    50
100
AcDbLine
 10
365.325065
 20
304.225578
 30
0.0
 11
365.325065
 21
304.225578
 31
0.0
  0
LINE
  5
EE
330
E6
100
AcDbEntity
  8
LC-001-100-D00-0
 62
     7
370
    50
100
AcDbLine
 10
365.325065
 20
304.225578
 30
0.0
 11
365.181258
 21
304.606213
 31
0.0
  0
LINE
  5
EF
330
E6
100
AcDbEntity
  8
LC-001-100-D00-0
 62
     7
370
    50
100
AcDbLine
 10
365.181258
 20
304.606213
 30
0.0
 11
365.181258
 21
304.606213
 31
0.0
  0
LINE
  5
F0
330
E6
100
AcDbEntity
  8
LC-001-100-D00-0
 62
     7
370
    50
100
AcDbLine
 10
365.181258
 20
304.606213
 30
0.0
 11
364.940508
 21
304.961767
 31
0.0
  0
LINE
  5
F1
330
E6
100
AcDbEntity
  8
LC-001-100-D00-0
 62
     7
370
    50
100
AcDbLine
 10
364.940508
 20
304.961767
 30
0.0
 11
364.940508
 21
304.961767
 31
0.0
  0
LINE
  5
F2
330
E6
100
AcDbEntity
  8
LC-001-100-D00-0
 62
     7
370
    50
100
AcDbLine
 10
364.940508
 20
304.961767
 30
0.0
 11
364.570987
 21
305.243439
 31
0.0
  0
LINE
  5
F3
330
E6
100
AcDbEntity
  8
LC-001-100-D00-0
 62
     7
370
    50
100
AcDbLine
 10
364.570987
 20
305.243439
 30
0.0
 11
364.570987
 21
305.243439
 31
0.0
  0
LINE
  5
F4
330
E6
100
AcDbEntity
  8
LC-001-100-D00-0
 62
     7
370
    50
100
AcDbLine
 10
364.570987
 20
305.243439
 30
0.0
 11
364.258654
 21
305.281324
 31
0.0
  0
LINE
  5
F5
330
E6
100
AcDbEntity
  8
LC-001-100-D00-0
 62
     7
370
    50
100
AcDbLine
 10
364.258654
 20
305.281324
 30
0.0
 11
364.258654
 21
305.281324
 31
0.0
  0
LINE
  5
F6
330
E6
100
AcDbEntity
  8
LC-001-100-D00-0
 62
     7
370
    50
100
AcDbLine
 10
364.258654
 20
305.281324
 30
0.0
 11
364.095241
 21
305.301146
 31
0.0
  0
ENDBLK
  5
E8
330
E6
100
AcDbEntity
  8
0
100
AcDbBlockEnd
  0
BLOCK
  5
FC
330
FB
100
AcDbEntity
  8
0
100
AcDbBlockBegin
  2
POLY9
 70
     0
 71
     0
 10
0.0
 20
0.0
 30
0.0
  3
POLY9
  1

  4
POLY9
  0
LINE
  5
FE
330
FB
100
AcDbEntity
  8
LC-001-100-D00-0
 62
     7
370
    50
100
AcDbLine
 10
235.853669
 20
280.301146
 30
0.0
 11
235.853669
 21
280.301146
 31
0.0
  0
LINE
  5
FF
330
FB
100
AcDbEntity
  8
LC-001-100-D00-0
 62
     7
370
    50
100
AcDbLine
 10
235.853669
 20
280.301146
 30
0.0
 11
235.793782
 21
280.244234
 31
0.0
  0
LINE
  5
100
330
FB
100
AcDbEntity
  8
LC-001-100-D00-0
 62
     7
370
    50
100
AcDbLine
 10
235.793782
 20
280.244234
 30
0.0
 11
235.793782
 21
280.244234
 31
0.0
  0
LINE
  5
101
330
FB
100
AcDbEntity
  8
LC-001-100-D00-0
 62
     7
370
    50
100
AcDbLine
 10
235.793782
 20
280.244234
 30
0.0
 11
235.398978
 21
279.869037
 31
0.0
  0
LINE
  5
102
330
FB
100
AcDbEntity
  8
LC-001-100-D00-0
 62
     7
370
    50
100
AcDbLine
 10
235.398978
 20
279.869037
 30
0.0
 11
235.398978
 21
279.869037
 31
0.0
  0
LINE
  5
103
330
FB
100
AcDbEntity
  8
LC-001-100-D00-0
 62
     7
370
    50
100
AcDbLine
 10
235.398978
 20
279.869037
 30
0.0
 11
234.97186
 21
279.832306
 31
0.0
  0
LINE
  5
104
330
FB
100
AcDbEntity
  8
LC-001-100-D00-0
 62
     7
370
    50
100
AcDbLine
 10
234.97186
 20
279.832306
 30
0.0
 11
234.97186
 21
279.832306
 31
0.0
  0
LINE
  5
105
330
FB
100
AcDbEntity
  8
LC-001-100-D00-0
 62
     7
370
    50
100
AcDbLine
 10
234.97186
 20
279.832306
 30
0.0
 11
234.60953
 21
279.801146
 31
0.0
  0
ENDBLK
  5
FD
330
FB
100
AcDbEntity
  8
0
100
AcDbBlockEnd
  0
BLOCK
  5
109
330
108
100
AcDbEntity
  8
0
100
AcDbBlockBegin
  2
POLY10
 70
     0
 71
     0
 10
0.0
 20
0.0
 30
0.0
  3
POLY10
  1

  4
POLY10
  0
LINE
  5
10B
330
108
100
AcDbEntity
  8
LC-001-100-D00-0
 62
     7
370
    50
100
AcDbLine
 10
238.717569
 20
305.301146
 30
0.0
 11
238.717569
 21
305.301146
 31
0.0
  0
LINE
  5
10C
330
108
100
AcDbEntity
  8
LC-001-100-D00-0
 62
     7
370
    50
100
AcDbLine
 10
238.717569
 20
305.301146
 30
0.0
 11
238.551124
 21
305.280593
 31
0.0
  0
LINE
  5
10D
330
108
100
AcDbEntity
  8
LC-001-100-D00-0
 62
     7
370
    50
100
AcDbLine
 10
238.551124
 20
305.280593
 30
0.0
 11
238.551124
 21
305.280593
 31
0.0
  0
LINE
  5
10E
330
108
100
AcDbEntity
  8
LC-001-100-D00-0
 62
     7
370
    50
100
AcDbLine
 10
238.551124
 20
305.280593
 30
0.0
 11
238.238525
 21
305.241993
 31
0.0
  0
LINE
  5
10F
330
108
100
AcDbEntity
  8
LC-001-100-D00-0
 62
     7
370
    50
100
AcDbLine
 10
238.238525
 20
305.241993
 30
0.0
 11
238.238525
 21
305.241993
 31
0.0
  0
LINE
  5
110
330
108
100
AcDbEntity
  8
LC-001-100-D00-0
 62
     7
370
    50
100
AcDbLine
 10
238.238525
 20
305.241993
 30
0.0
 11
237.856545
 21
304.948344
 31
0.0
  0
LINE
  5
111
330
108
100
AcDbEntity
  8
LC-001-100-D00-0
 62
     7
370
    50
100
AcDbLine
 10
237.856545
 20
304.948344
 30
0.0
 11
237.856545
 21
304.948344
 31
0.0
  0
LINE
  5
112
330
108
100
AcDbEntity
  8
LC-001-100-D00-0
 62
     7
370
    50
100
AcDbLine
 10
237.856545
 20
304.948344
 30
0.0
 11
237.608392
 21
304.567351
 31
0.0
  0
LINE
  5
113
330
108
100
AcDbEntity
  8
LC-001-100-D00-0
 62
     7
370
    50
100
AcDbLine
 10
237.608392
 20
304.567351
 30
0.0
 11
237.608392
 21
304.567351
 31
0.0
  0
LINE
  5
114
330
108
100
AcDbEntity
  8
LC-001-100-D00-0
 62
     7
370
    50
100
AcDbLine
 10
237.608392
 20
304.567351
 30
0.0
 11
237.479406
 21
304.173473
 31
0.0
  0
LINE
  5
115
330
108
100
AcDbEntity
  8
LC-001-100-D00-0
 62
     7
370
    50
100
AcDbLine
 10
237.479406
 20
304.173473
 30
0.0
 11
237.479406
 21
304.173473
 31
0.0
  0
LINE
  5
116
330
108
100
AcDbEntity
  8
LC-001-100-D00-0
 62
     7
370
    50
100
AcDbLine
 10
237.479406
 20
304.173473
 30
0.0
 11
237.465384
 21
303.914578
 31
0.0
  0
LINE
  5
117
330
108
100
AcDbEntity
  8
LC-001-100-D00-0
 62
     7
370
    50
100
AcDbLine
 10
237.465384
 20
303.914578
 30
0.0
 11
237.465384
 21
303.914578
 31
0.0
  0
LINE
  5
118
330
108
100
AcDbEntity
  8
LC-001-100-D00-0
 62
     7
370
    50
100
AcDbLine
 10
237.465384
 20
303.914578
 30
0.0
 11
237.45924
 21
303.801146
 31
0.0
  0
ENDBLK
  5
10A
330
108
100
AcDbEntity
  8
0
100
AcDbBlockEnd
  0
BLOCK
  5
145
330
13B
100
AcDbEntity
  8
0
100
AcDbBlockBegin
  2
*D11
 70
     1
 71
     0
 10
0.0
 20
0.0
 30
0.0
  3
*D11
  1

  0
LINE
  5
13C
330
13B
100
AcDbEntity
  8
LC-001-100-D00-0
 62
     2
370
    -2
100
AcDbLine
 10
227.906405
 20
276.301146
 30
0.0
 11
227.906405
 21
328.901146
 31
0.0
  0
LINE
  5
13D
330
13B
100
AcDbEntity
  8
LC-001-100-D00-0
 62
     2
370
    -2
100
AcDbLine
 10
374.906405
 20
276.301146
 30
0.0
 11
374.906405
 21
328.901146
 31
0.0
  0
LINE
  5
13E
330
13B
100
AcDbEntity
  8
LC-001-100-D00-0
 62
     2
370
    -2
100
AcDbLine
 10
255.906405
 20
325.301146
 30
0.0
 11
346.906405
 21
325.301146
 31
0.0
  0
SOLID
  5
13F
330
13B
100
AcDbEntity
  8
LC-001-100-D00-0
 62
     2
100
AcDbTrace
 10
255.906405
 20
329.967812
 30
0.0
 11
255.906405
 21
320.634479
 31
0.0
 12
227.906405
 22
325.301146
 32
0.0
 13
227.906405
 23
325.301146
 33
0.0
  0
SOLID
  5
140
330
13B
100
AcDbEntity
  8
LC-001-100-D00-0
 62
     2
100
AcDbTrace
 10
346.906405
 20
320.634479
 30
0.0
 11
346.906405
 21
329.967812
 31
0.0
 12
374.906405
 22
325.301146
 32
0.0
 13
374.906405
 23
325.301146
 33
0.0
  0
MTEXT
  5
141
330
13B
100
AcDbEntity
  8
LC-001-100-D00-0
 62
     2
100
AcDbMText
 10
301.007389
 20
356.101146
 30
0.0
 40
28.0
 41
0.0
 71
     5
 72
     1
  1
\A1;147
  7
LCTX15-400-0-0pDIN-Schrift
 73
     1
 44
1.0
  0
POINT
  5
142
330
13B
100
AcDbEntity
  8
Defpoints
 62
     0
100
AcDbPoint
 10
227.906405
 20
276.301146
 30
0.0
  0
POINT
  5
143
330
13B
100
AcDbEntity
  8
Defpoints
 62
     0
100
AcDbPoint
 10
374.906405
 20
276.301146
 30
0.0
  0
POINT
  5
144
330
13B
100
AcDbEntity
  8
Defpoints
 62
     0
100
AcDbPoint
 10
374.906405
 20
325.301146
 30
0.0
  0
ENDBLK
  5
146
330
13B
100
AcDbEntity
  8
0
100
AcDbBlockEnd
  0
BLOCK
  5
152
330
148
100
AcDbEntity
  8
0
100
AcDbBlockBegin
  2
*D12
 70
     1
 71
     0
 10
0.0
 20
0.0
 30
0.0
  3
*D12
  1

  0
LINE
  5
149
330
148
100
AcDbEntity
  8
LC-001-100-D00-0
 62
     2
370
    -2
100
AcDbLine
 10
364.095241
 20
305.301146
 30
0.0
 11
435.313493
 21
305.301146
 31
0.0
  0
LINE
  5
14A
330
148
100
AcDbEntity
  8
LC-001-100-D00-0
 62
     2
370
    -2
100
AcDbLine
 10
343.745367
 20
238.301146
 30
0.0
 11
435.313493
 21
238.301146
 31
0.0
  0
LINE
  5
14B
330
148
100
AcDbEntity
  8
LC-001-100-D00-0
 62
     2
370
    -2
100
AcDbLine
 10
431.713493
 20
277.301146
 30
0.0
 11
431.713493
 21
266.301146
 31
0.0
  0
SOLID
  5
14C
330
148
100
AcDbEntity
  8
LC-001-100-D00-0
 62
     2
100
AcDbTrace
 10
436.380159
 20
277.301146
 30
0.0
 11
427.046826
 21
277.301146
 31
0.0
 12
431.713493
 22
305.301146
 32
0.0
 13
431.713493
 23
305.301146
 33
0.0
  0
SOLID
  5
14D
330
148
100
AcDbEntity
  8
LC-001-100-D00-0
 62
     2
100
AcDbTrace
 10
427.046826
 20
266.301146
 30
0.0
 11
436.380159
 21
266.301146
 31
0.0
 12
431.713493
 22
238.301146
 32
0.0
 13
431.713493
 23
238.301146
 33
0.0
  0
MTEXT
  5
14E
330
148
100
AcDbEntity
  8
LC-001-100-D00-0
 62
     2
100
AcDbMText
 10
400.913493
 20
268.10052
 30
0.0
 40
28.0
 41
0.0
 71
     5
 72
     1
  1
\A1;68
  7
LCTX15-400-0-0pDIN-Schrift
 11
6.123031769111886E-17
 21
1.0
 31
0.0
 73
     1
 44
1.0
  0
POINT
  5
14F
330
148
100
AcDbEntity
  8
Defpoints
 62
     0
100
AcDbPoint
 10
364.095241
 20
305.301146
 30
0.0
  0
POINT
  5
150
330
148
100
AcDbEntity
  8
Defpoints
 62
     0
100
AcDbPoint
 10
343.745367
 20
238.301146
 30
0.0
  0
POINT
  5
151
330
148
100
AcDbEntity
  8
Defpoints
 62
     0
100
AcDbPoint
 10
431.713493
 20
238.301146
 30
0.0
  0
ENDBLK
  5
153
330
148
100
AcDbEntity
  8
0
100
AcDbBlockEnd
  0
BLOCK
  5
175
330
174
100
AcDbEntity
  8
0
100
AcDbBlockBegin
  2
POLY11
 70
     0
 71
     0
 10
0.0
 20
0.0
 30
0.0
  3
POLY11
  1

  4
POLY11
  0
LINE
  5
177
330
174
100
AcDbEntity
  8
LC-001-100-D00-0
 62
     7
370
    50
100
AcDbLine
 10
361.413237
 20
167.936994
 30
0.0
 11
361.413237
 21
167.936994
 31
0.0
  0
LINE
  5
178
330
174
100
AcDbEntity
  8
LC-001-100-D00-0
 62
     7
370
    50
100
AcDbLine
 10
361.413237
 20
167.936994
 30
0.0
 11
361.403118
 21
167.948176
 31
0.0
  0
LINE
  5
179
330
174
100
AcDbEntity
  8
LC-001-100-D00-0
 62
     7
370
    50
100
AcDbLine
 10
361.403118
 20
167.948176
 30
0.0
 11
361.403118
 21
167.948176
 31
0.0
  0
LINE
  5
17A
330
174
100
AcDbEntity
  8
LC-001-100-D00-0
 62
     7
370
    50
100
AcDbLine
 10
361.403118
 20
167.948176
 30
0.0
 11
361.382918
 21
167.970496
 31
0.0
  0
LINE
  5
17B
330
174
100
AcDbEntity
  8
LC-001-100-D00-0
 62
     7
370
    50
100
AcDbLine
 10
361.382918
 20
167.970496
 30
0.0
 11
361.382918
 21
167.970496
 31
0.0
  0
LINE
  5
17C
330
174
100
AcDbEntity
  8
LC-001-100-D00-0
 62
     7
370
    50
100
AcDbLine
 10
361.382918
 20
167.970496
 30
0.0
 11
361.21844
 21
168.150967
 31
0.0
  0
LINE
  5
17D
330
174
100
AcDbEntity
  8
LC-001-100-D00-0
 62
     7
370
    50
100
AcDbLine
 10
361.21844
 20
168.150967
 30
0.0
 11
361.21844
 21
168.150967
 31
0.0
  0
LINE
  5
17E
330
174
100
AcDbEntity
  8
LC-001-100-D00-0
 62
     7
370
    50
100
AcDbLine
 10
361.21844
 20
168.150967
 30
0.0
 11
360.923284
 21
168.469583
 31
0.0
  0
LINE
  5
17F
330
174
100
AcDbEntity
  8
LC-001-100-D00-0
 62
     7
370
    50
100
AcDbLine
 10
360.923284
 20
168.469583
 30
0.0
 11
360.923284
 21
168.469583
 31
0.0
  0
LINE
  5
180
330
174
100
AcDbEntity
  8
LC-001-100-D00-0
 62
     7
370
    50
100
AcDbLine
 10
360.923284
 20
168.469583
 30
0.0
 11
360.489014
 21
168.926933
 31
0.0
  0
LINE
  5
181
330
174
100
AcDbEntity
  8
LC-001-100-D00-0
 62
     7
370
    50
100
AcDbLine
 10
360.489014
 20
168.926933
 30
0.0
 11
360.489014
 21
168.926933
 31
0.0
  0
LINE
  5
182
330
174
100
AcDbEntity
  8
LC-001-100-D00-0
 62
     7
370
    50
100
AcDbLine
 10
360.489014
 20
168.926933
 30
0.0
 11
360.147739
 21
169.270204
 31
0.0
  0
LINE
  5
183
330
174
100
AcDbEntity
  8
LC-001-100-D00-0
 62
     7
370
    50
100
AcDbLine
 10
360.147739
 20
169.270204
 30
0.0
 11
360.147739
 21
169.270204
 31
0.0
  0
LINE
  5
184
330
174
100
AcDbEntity
  8
LC-001-100-D00-0
 62
     7
370
    50
100
AcDbLine
 10
360.147739
 20
169.270204
 30
0.0
 11
359.981919
 21
169.436994
 31
0.0
  0
ENDBLK
  5
176
330
174
100
AcDbEntity
  8
0
100
AcDbBlockEnd
  0
BLOCK
  5
187
330
186
100
AcDbEntity
  8
0
100
AcDbBlockBegin
  2
POLY12
 70
     0
 71
     0
 10
0.0
 20
0.0
 30
0.0
  3
POLY12
  1

  4
POLY12
  0
LINE
  5
189
330
186
100
AcDbEntity
  8
LC-001-100-D00-0
 62
     7
370
    50
100
AcDbLine
 10
364.095241
 20
169.436994
 30
0.0
 11
364.095241
 21
169.436994
 31
0.0
  0
LINE
  5
18A
330
186
100
AcDbEntity
  8
LC-001-100-D00-0
 62
     7
370
    50
100
AcDbLine
 10
364.095241
 20
169.436994
 30
0.0
 11
364.261685
 21
169.245446
 31
0.0
  0
LINE
  5
18B
330
186
100
AcDbEntity
  8
LC-001-100-D00-0
 62
     7
370
    50
100
AcDbLine
 10
364.261685
 20
169.245446
 30
0.0
 11
364.261685
 21
169.245446
 31
0.0
  0
LINE
  5
18C
330
186
100
AcDbEntity
  8
LC-001-100-D00-0
 62
     7
370
    50
100
AcDbLine
 10
364.261685
 20
169.245446
 30
0.0
 11
364.574284
 21
168.885698
 31
0.0
  0
LINE
  5
18D
330
186
100
AcDbEntity
  8
LC-001-100-D00-0
 62
     7
370
    50
100
AcDbLine
 10
364.574284
 20
168.885698
 30
0.0
 11
364.574284
 21
168.885698
 31
0.0
  0
LINE
  5
18E
330
186
100
AcDbEntity
  8
LC-001-100-D00-0
 62
     7
370
    50
100
AcDbLine
 10
364.574284
 20
168.885698
 30
0.0
 11
364.956264
 21
168.426837
 31
0.0
  0
LINE
  5
18F
330
186
100
AcDbEntity
  8
LC-001-100-D00-0
 62
     7
370
    50
100
AcDbLine
 10
364.956264
 20
168.426837
 30
0.0
 11
364.956264
 21
168.426837
 31
0.0
  0
LINE
  5
190
330
186
100
AcDbEntity
  8
LC-001-100-D00-0
 62
     7
370
    50
100
AcDbLine
 10
364.956264
 20
168.426837
 30
0.0
 11
365.204417
 21
168.122632
 31
0.0
  0
LINE
  5
191
330
186
100
AcDbEntity
  8
LC-001-100-D00-0
 62
     7
370
    50
100
AcDbLine
 10
365.204417
 20
168.122632
 30
0.0
 11
365.204417
 21
168.122632
 31
0.0
  0
LINE
  5
192
330
186
100
AcDbEntity
  8
LC-001-100-D00-0
 62
     7
370
    50
100
AcDbLine
 10
365.204417
 20
168.122632
 30
0.0
 11
365.333403
 21
167.962185
 31
0.0
  0
LINE
  5
193
330
186
100
AcDbEntity
  8
LC-001-100-D00-0
 62
     7
370
    50
100
AcDbLine
 10
365.333403
 20
167.962185
 30
0.0
 11
365.333403
 21
167.962185
 31
0.0
  0
LINE
  5
194
330
186
100
AcDbEntity
  8
LC-001-100-D00-0
 62
     7
370
    50
100
AcDbLine
 10
365.333403
 20
167.962185
 30
0.0
 11
365.347426
 21
167.944669
 31
0.0
  0
LINE
  5
195
330
186
100
AcDbEntity
  8
LC-001-100-D00-0
 62
     7
370
    50
100
AcDbLine
 10
365.347426
 20
167.944669
 30
0.0
 11
365.347426
 21
167.944669
 31
0.0
  0
LINE
  5
196
330
186
100
AcDbEntity
  8
LC-001-100-D00-0
 62
     7
370
    50
100
AcDbLine
 10
365.347426
 20
167.944669
 30
0.0
 11
365.353569
 21
167.936994
 31
0.0
  0
ENDBLK
  5
188
330
186
100
AcDbEntity
  8
0
100
AcDbBlockEnd
  0
BLOCK
  5
19A
330
199
100
AcDbEntity
  8
0
100
AcDbBlockBegin
  2
POLY13
 70
     0
 71
     0
 10
0.0
 20
0.0
 30
0.0
  3
POLY13
  1

  4
POLY13
  0
LINE
  5
19C
330
199
100
AcDbEntity
  8
LC-001-100-D00-0
 62
     7
370
    50
100
AcDbLine
 10
242.830891
 20
169.436994
 30
0.0
 11
242.830891
 21
169.436994
 31
0.0
  0
LINE
  5
19D
330
199
100
AcDbEntity
  8
LC-001-100-D00-0
 62
     7
370
    50
100
AcDbLine
 10
242.830891
 20
169.436994
 30
0.0
 11
242.775538
 21
169.381697
 31
0.0
  0
LINE
  5
19E
330
199
100
AcDbEntity
  8
LC-001-100-D00-0
 62
     7
370
    50
100
AcDbLine
 10
242.775538
 20
169.381697
 30
0.0
 11
242.775538
 21
169.381697
 31
0.0
  0
LINE
  5
19F
330
199
100
AcDbEntity
  8
LC-001-100-D00-0
 62
     7
370
    50
100
AcDbLine
 10
242.775538
 20
169.381697
 30
0.0
 11
242.664477
 21
169.270745
 31
0.0
  0
LINE
  5
1A0
330
199
100
AcDbEntity
  8
LC-001-100-D00-0
 62
     7
370
    50
100
AcDbLine
 10
242.664477
 20
169.270745
 30
0.0
 11
242.664477
 21
169.270745
 31
0.0
  0
LINE
  5
1A1
330
199
100
AcDbEntity
  8
LC-001-100-D00-0
 62
     7
370
    50
100
AcDbLine
 10
242.664477
 20
169.270745
 30
0.0
 11
242.498761
 21
169.102737
 31
0.0
  0
LINE
  5
1A2
330
199
100
AcDbEntity
  8
LC-001-100-D00-0
 62
     7
370
    50
100
AcDbLine
 10
242.498761
 20
169.102737
 30
0.0
 11
242.498761
 21
169.102737
 31
0.0
  0
LINE
  5
1A3
330
199
100
AcDbEntity
  8
LC-001-100-D00-0
 62
     7
370
    50
100
AcDbLine
 10
242.498761
 20
169.102737
 30
0.0
 11
242.334211
 21
168.934093
 31
0.0
  0
LINE
  5
1A4
330
199
100
AcDbEntity
  8
LC-001-100-D00-0
 62
     7
370
    50
100
AcDbLine
 10
242.334211
 20
168.934093
 30
0.0
 11
242.334211
 21
168.934093
 31
0.0
  0
LINE
  5
1A5
330
199
100
AcDbEntity
  8
LC-001-100-D00-0
 62
     7
370
    50
100
AcDbLine
 10
242.334211
 20
168.934093
 30
0.0
 11
242.19074
 21
168.785295
 31
0.0
  0
LINE
  5
1A6
330
199
100
AcDbEntity
  8
LC-001-100-D00-0
 62
     7
370
    50
100
AcDbLine
 10
242.19074
 20
168.785295
 30
0.0
 11
242.19074
 21
168.785295
 31
0.0
  0
LINE
  5
1A7
330
199
100
AcDbEntity
  8
LC-001-100-D00-0
 62
     7
370
    50
100
AcDbLine
 10
242.19074
 20
168.785295
 30
0.0
 11
242.068923
 21
168.657768
 31
0.0
  0
LINE
  5
1A8
330
199
100
AcDbEntity
  8
LC-001-100-D00-0
 62
     7
370
    50
100
AcDbLine
 10
242.068923
 20
168.657768
 30
0.0
 11
242.068923
 21
168.657768
 31
0.0
  0
LINE
  5
1A9
330
199
100
AcDbEntity
  8
LC-001-100-D00-0
 62
     7
370
    50
100
AcDbLine
 10
242.068923
 20
168.657768
 30
0.0
 11
241.967268
 21
168.550557
 31
0.0
  0
LINE
  5
1AA
330
199
100
AcDbEntity
  8
LC-001-100-D00-0
 62
     7
370
    50
100
AcDbLine
 10
241.967268
 20
168.550557
 30
0.0
 11
241.967268
 21
168.550557
 31
0.0
  0
LINE
  5
1AB
330
199
100
AcDbEntity
  8
LC-001-100-D00-0
 62
     7
370
    50
100
AcDbLine
 10
241.967268
 20
168.550557
 30
0.0
 11
241.869103
 21
168.446278
 31
0.0
  0
LINE
  5
1AC
330
199
100
AcDbEntity
  8
LC-001-100-D00-0
 62
     7
370
    50
100
AcDbLine
 10
241.869103
 20
168.446278
 30
0.0
 11
241.869103
 21
168.446278
 31
0.0
  0
LINE
  5
1AD
330
199
100
AcDbEntity
  8
LC-001-100-D00-0
 62
     7
370
    50
100
AcDbLine
 10
241.869103
 20
168.446278
 30
0.0
 11
241.783574
 21
168.354785
 31
0.0
  0
LINE
  5
1AE
330
199
100
AcDbEntity
  8
LC-001-100-D00-0
 62
     7
370
    50
100
AcDbLine
 10
241.783574
 20
168.354785
 30
0.0
 11
241.783574
 21
168.354785
 31
0.0
  0
LINE
  5
1AF
330
199
100
AcDbEntity
  8
LC-001-100-D00-0
 62
     7
370
    50
100
AcDbLine
 10
241.783574
 20
168.354785
 30
0.0
 11
241.710528
 21
168.276199
 31
0.0
  0
LINE
  5
1B0
330
199
100
AcDbEntity
  8
LC-001-100-D00-0
 62
     7
370
    50
100
AcDbLine
 10
241.710528
 20
168.276199
 30
0.0
 11
241.710528
 21
168.276199
 31
0.0
  0
LINE
  5
1B1
330
199
100
AcDbEntity
  8
LC-001-100-D00-0
 62
     7
370
    50
100
AcDbLine
 10
241.710528
 20
168.276199
 30
0.0
 11
241.64873
 21
168.209406
 31
0.0
  0
LINE
  5
1B2
330
199
100
AcDbEntity
  8
LC-001-100-D00-0
 62
     7
370
    50
100
AcDbLine
 10
241.64873
 20
168.209406
 30
0.0
 11
241.64873
 21
168.209406
 31
0.0
  0
LINE
  5
1B3
330
199
100
AcDbEntity
  8
LC-001-100-D00-0
 62
     7
370
    50
100
AcDbLine
 10
241.64873
 20
168.209406
 30
0.0
 11
241.591423
 21
168.147194
 31
0.0
  0
LINE
  5
1B4
330
199
100
AcDbEntity
  8
LC-001-100-D00-0
 62
     7
370
    50
100
AcDbLine
 10
241.591423
 20
168.147194
 30
0.0
 11
241.591423
 21
168.147194
 31
0.0
  0
LINE
  5
1B5
330
199
100
AcDbEntity
  8
LC-001-100-D00-0
 62
     7
370
    50
100
AcDbLine
 10
241.591423
 20
168.147194
 30
0.0
 11
241.529408
 21
168.0796
 31
0.0
  0
LINE
  5
1B6
330
199
100
AcDbEntity
  8
LC-001-100-D00-0
 62
     7
370
    50
100
AcDbLine
 10
241.529408
 20
168.0796
 30
0.0
 11
241.529408
 21
168.0796
 31
0.0
  0
LINE
  5
1B7
330
199
100
AcDbEntity
  8
LC-001-100-D00-0
 62
     7
370
    50
100
AcDbLine
 10
241.529408
 20
168.0796
 30
0.0
 11
241.48064
 21
168.026186
 31
0.0
  0
LINE
  5
1B8
330
199
100
AcDbEntity
  8
LC-001-100-D00-0
 62
     7
370
    50
100
AcDbLine
 10
241.48064
 20
168.026186
 30
0.0
 11
241.48064
 21
168.026186
 31
0.0
  0
LINE
  5
1B9
330
199
100
AcDbEntity
  8
LC-001-100-D00-0
 62
     7
370
    50
100
AcDbLine
 10
241.48064
 20
168.026186
 30
0.0
 11
241.445047
 21
167.987085
 31
0.0
  0
LINE
  5
1BA
330
199
100
AcDbEntity
  8
LC-001-100-D00-0
 62
     7
370
    50
100
AcDbLine
 10
241.445047
 20
167.987085
 30
0.0
 11
241.445047
 21
167.987085
 31
0.0
  0
LINE
  5
1BB
330
199
100
AcDbEntity
  8
LC-001-100-D00-0
 62
     7
370
    50
100
AcDbLine
 10
241.445047
 20
167.987085
 30
0.0
 11
241.42138
 21
167.961039
 31
0.0
  0
LINE
  5
1BC
330
199
100
AcDbEntity
  8
LC-001-100-D00-0
 62
     7
370
    50
100
AcDbLine
 10
241.42138
 20
167.961039
 30
0.0
 11
241.42138
 21
167.961039
 31
0.0
  0
LINE
  5
1BD
330
199
100
AcDbEntity
  8
LC-001-100-D00-0
 62
     7
370
    50
100
AcDbLine
 10
241.42138
 20
167.961039
 30
0.0
 11
241.40332
 21
167.94113
 31
0.0
  0
LINE
  5
1BE
330
199
100
AcDbEntity
  8
LC-001-100-D00-0
 62
     7
370
    50
100
AcDbLine
 10
241.40332
 20
167.94113
 30
0.0
 11
241.40332
 21
167.94113
 31
0.0
  0
LINE
  5
1BF
330
199
100
AcDbEntity
  8
LC-001-100-D00-0
 62
     7
370
    50
100
AcDbLine
 10
241.40332
 20
167.94113
 30
0.0
 11
241.400828
 21
167.93838
 31
0.0
  0
LINE
  5
1C0
330
199
100
AcDbEntity
  8
LC-001-100-D00-0
 62
     7
370
    50
100
AcDbLine
 10
241.400828
 20
167.93838
 30
0.0
 11
241.400828
 21
167.93838
 31
0.0
  0
LINE
  5
1C1
330
199
100
AcDbEntity
  8
LC-001-100-D00-0
 62
     7
370
    50
100
AcDbLine
 10
241.400828
 20
167.93838
 30
0.0
 11
241.399572
 21
167.936994
 31
0.0
  0
ENDBLK
  5
19B
330
199
100
AcDbEntity
  8
0
100
AcDbBlockEnd
  0
BLOCK
  5
1C4
330
1C3
100
AcDbEntity
  8
0
100
AcDbBlockBegin
  2
POLY14
 70
     0
 71
     0
 10
0.0
 20
0.0
 30
0.0
  3
POLY14
  1

  4
POLY14
  0
LINE
  5
1C6
330
1C3
100
AcDbEntity
  8
LC-001-100-D00-0
 62
     7
370
    50
100
AcDbLine
 10
237.45924
 20
167.936994
 30
0.0
 11
237.45924
 21
167.936994
 31
0.0
  0
LINE
  5
1C7
330
1C3
100
AcDbEntity
  8
LC-001-100-D00-0
 62
     7
370
    50
100
AcDbLine
 10
237.45924
 20
167.936994
 30
0.0
 11
237.46142
 21
167.939717
 31
0.0
  0
LINE
  5
1C8
330
1C3
100
AcDbEntity
  8
LC-001-100-D00-0
 62
     7
370
    50
100
AcDbLine
 10
237.46142
 20
167.939717
 30
0.0
 11
237.46142
 21
167.939717
 31
0.0
  0
LINE
  5
1C9
330
1C3
100
AcDbEntity
  8
LC-001-100-D00-0
 62
     7
370
    50
100
AcDbLine
 10
237.46142
 20
167.939717
 30
0.0
 11
237.464709
 21
167.943823
 31
0.0
  0
LINE
  5
1CA
330
1C3
100
AcDbEntity
  8
LC-001-100-D00-0
 62
     7
370
    50
100
AcDbLine
 10
237.464709
 20
167.943823
 30
0.0
 11
237.464709
 21
167.943823
 31
0.0
  0
LINE
  5
1CB
330
1C3
100
AcDbEntity
  8
LC-001-100-D00-0
 62
     7
370
    50
100
AcDbLine
 10
237.464709
 20
167.943823
 30
0.0
 11
237.484944
 21
167.969049
 31
0.0
  0
LINE
  5
1CC
330
1C3
100
AcDbEntity
  8
LC-001-100-D00-0
 62
     7
370
    50
100
AcDbLine
 10
237.484944
 20
167.969049
 30
0.0
 11
237.484944
 21
167.969049
 31
0.0
  0
LINE
  5
1CD
330
1C3
100
AcDbEntity
  8
LC-001-100-D00-0
 62
     7
370
    50
100
AcDbLine
 10
237.484944
 20
167.969049
 30
0.0
 11
237.511988
 21
168.002714
 31
0.0
  0
LINE
  5
1CE
330
1C3
100
AcDbEntity
  8
LC-001-100-D00-0
 62
     7
370
    50
100
AcDbLine
 10
237.511988
 20
168.002714
 30
0.0
 11
237.511988
 21
168.002714
 31
0.0
  0
LINE
  5
1CF
330
1C3
100
AcDbEntity
  8
LC-001-100-D00-0
 62
     7
370
    50
100
AcDbLine
 10
237.511988
 20
168.002714
 30
0.0
 11
237.559429
 21
168.061633
 31
0.0
  0
LINE
  5
1D0
330
1C3
100
AcDbEntity
  8
LC-001-100-D00-0
 62
     7
370
    50
100
AcDbLine
 10
237.559429
 20
168.061633
 30
0.0
 11
237.559429
 21
168.061633
 31
0.0
  0
LINE
  5
1D1
330
1C3
100
AcDbEntity
  8
LC-001-100-D00-0
 62
     7
370
    50
100
AcDbLine
 10
237.559429
 20
168.061633
 30
0.0
 11
237.622561
 21
168.139649
 31
0.0
  0
LINE
  5
1D2
330
1C3
100
AcDbEntity
  8
LC-001-100-D00-0
 62
     7
370
    50
100
AcDbLine
 10
237.622561
 20
168.139649
 30
0.0
 11
237.622561
 21
168.139649
 31
0.0
  0
LINE
  5
1D3
330
1C3
100
AcDbEntity
  8
LC-001-100-D00-0
 62
     7
370
    50
100
AcDbLine
 10
237.622561
 20
168.139649
 30
0.0
 11
237.682417
 21
168.21325
 31
0.0
  0
LINE
  5
1D4
330
1C3
100
AcDbEntity
  8
LC-001-100-D00-0
 62
     7
370
    50
100
AcDbLine
 10
237.682417
 20
168.21325
 30
0.0
 11
237.682417
 21
168.21325
 31
0.0
  0
LINE
  5
1D5
330
1C3
100
AcDbEntity
  8
LC-001-100-D00-0
 62
     7
370
    50
100
AcDbLine
 10
237.682417
 20
168.21325
 30
0.0
 11
237.732588
 21
168.27472
 31
0.0
  0
LINE
  5
1D6
330
1C3
100
AcDbEntity
  8
LC-001-100-D00-0
 62
     7
370
    50
100
AcDbLine
 10
237.732588
 20
168.27472
 30
0.0
 11
237.732588
 21
168.27472
 31
0.0
  0
LINE
  5
1D7
330
1C3
100
AcDbEntity
  8
LC-001-100-D00-0
 62
     7
370
    50
100
AcDbLine
 10
237.732588
 20
168.27472
 30
0.0
 11
237.786728
 21
168.340797
 31
0.0
  0
LINE
  5
1D8
330
1C3
100
AcDbEntity
  8
LC-001-100-D00-0
 62
     7
370
    50
100
AcDbLine
 10
237.786728
 20
168.340797
 30
0.0
 11
237.786728
 21
168.340797
 31
0.0
  0
LINE
  5
1D9
330
1C3
100
AcDbEntity
  8
LC-001-100-D00-0
 62
     7
370
    50
100
AcDbLine
 10
237.786728
 20
168.340797
 30
0.0
 11
237.853134
 21
168.421511
 31
0.0
  0
LINE
  5
1DA
330
1C3
100
AcDbEntity
  8
LC-001-100-D00-0
 62
     7
370
    50
100
AcDbLine
 10
237.853134
 20
168.421511
 30
0.0
 11
237.853134
 21
168.421511
 31
0.0
  0
LINE
  5
1DB
330
1C3
100
AcDbEntity
  8
LC-001-100-D00-0
 62
     7
370
    50
100
AcDbLine
 10
237.853134
 20
168.421511
 30
0.0
 11
237.933365
 21
168.518509
 31
0.0
  0
LINE
  5
1DC
330
1C3
100
AcDbEntity
  8
LC-001-100-D00-0
 62
     7
370
    50
100
AcDbLine
 10
237.933365
 20
168.518509
 30
0.0
 11
237.933365
 21
168.518509
 31
0.0
  0
LINE
  5
1DD
330
1C3
100
AcDbEntity
  8
LC-001-100-D00-0
 62
     7
370
    50
100
AcDbLine
 10
237.933365
 20
168.518509
 30
0.0
 11
238.028937
 21
168.633276
 31
0.0
  0
LINE
  5
1DE
330
1C3
100
AcDbEntity
  8
LC-001-100-D00-0
 62
     7
370
    50
100
AcDbLine
 10
238.028937
 20
168.633276
 30
0.0
 11
238.028937
 21
168.633276
 31
0.0
  0
LINE
  5
1DF
330
1C3
100
AcDbEntity
  8
LC-001-100-D00-0
 62
     7
370
    50
100
AcDbLine
 10
238.028937
 20
168.633276
 30
0.0
 11
238.12999
 21
168.753755
 31
0.0
  0
LINE
  5
1E0
330
1C3
100
AcDbEntity
  8
LC-001-100-D00-0
 62
     7
370
    50
100
AcDbLine
 10
238.12999
 20
168.753755
 30
0.0
 11
238.12999
 21
168.753755
 31
0.0
  0
LINE
  5
1E1
330
1C3
100
AcDbEntity
  8
LC-001-100-D00-0
 62
     7
370
    50
100
AcDbLine
 10
238.12999
 20
168.753755
 30
0.0
 11
238.237793
 21
168.881317
 31
0.0
  0
LINE
  5
1E2
330
1C3
100
AcDbEntity
  8
LC-001-100-D00-0
 62
     7
370
    50
100
AcDbLine
 10
238.237793
 20
168.881317
 30
0.0
 11
238.237793
 21
168.881317
 31
0.0
  0
LINE
  5
1E3
330
1C3
100
AcDbEntity
  8
LC-001-100-D00-0
 62
     7
370
    50
100
AcDbLine
 10
238.237793
 20
168.881317
 30
0.0
 11
238.351378
 21
169.014659
 31
0.0
  0
LINE
  5
1E4
330
1C3
100
AcDbEntity
  8
LC-001-100-D00-0
 62
     7
370
    50
100
AcDbLine
 10
238.351378
 20
169.014659
 30
0.0
 11
238.351378
 21
169.014659
 31
0.0
  0
LINE
  5
1E5
330
1C3
100
AcDbEntity
  8
LC-001-100-D00-0
 62
     7
370
    50
100
AcDbLine
 10
238.351378
 20
169.014659
 30
0.0
 11
238.470683
 21
169.153518
 31
0.0
  0
LINE
  5
1E6
330
1C3
100
AcDbEntity
  8
LC-001-100-D00-0
 62
     7
370
    50
100
AcDbLine
 10
238.470683
 20
169.153518
 30
0.0
 11
238.470683
 21
169.153518
 31
0.0
  0
LINE
  5
1E7
330
1C3
100
AcDbEntity
  8
LC-001-100-D00-0
 62
     7
370
    50
100
AcDbLine
 10
238.470683
 20
169.153518
 30
0.0
 11
238.592962
 21
169.294708
 31
0.0
  0
LINE
  5
1E8
330
1C3
100
AcDbEntity
  8
LC-001-100-D00-0
 62
     7
370
    50
100
AcDbLine
 10
238.592962
 20
169.294708
 30
0.0
 11
238.592962
 21
169.294708
 31
0.0
  0
LINE
  5
1E9
330
1C3
100
AcDbEntity
  8
LC-001-100-D00-0
 62
     7
370
    50
100
AcDbLine
 10
238.592962
 20
169.294708
 30
0.0
 11
238.675959
 21
169.389482
 31
0.0
  0
LINE
  5
1EA
330
1C3
100
AcDbEntity
  8
LC-001-100-D00-0
 62
     7
370
    50
100
AcDbLine
 10
238.675959
 20
169.389482
 30
0.0
 11
238.675959
 21
169.389482
 31
0.0
  0
LINE
  5
1EB
330
1C3
100
AcDbEntity
  8
LC-001-100-D00-0
 62
     7
370
    50
100
AcDbLine
 10
238.675959
 20
169.389482
 30
0.0
 11
238.717569
 21
169.436994
 31
0.0
  0
ENDBLK
  5
1C5
330
1C3
100
AcDbEntity
  8
0
100
AcDbBlockEnd
  0
BLOCK
  5
1EF
330
1EE
100
AcDbEntity
  8
0
100
AcDbBlockBegin
  2
POLY15
 70
     0
 71
     0
 10
0.0
 20
0.0
 30
0.0
  3
POLY15
  1

  4
POLY15
  0
LINE
  5
1F1
330
1EE
100
AcDbEntity
  8
LC-001-100-D00-0
 62
     7
370
    50
100
AcDbLine
 10
365.353569
 20
113.536994
 30
0.0
 11
365.353569
 21
113.536994
 31
0.0
  0
LINE
  5
1F2
330
1EE
100
AcDbEntity
  8
LC-001-100-D00-0
 62
     7
370
    50
100
AcDbLine
 10
365.353569
 20
113.536994
 30
0.0
 11
365.344058
 21
113.525104
 31
0.0
  0
LINE
  5
1F3
330
1EE
100
AcDbEntity
  8
LC-001-100-D00-0
 62
     7
370
    50
100
AcDbLine
 10
365.344058
 20
113.525104
 30
0.0
 11
365.344058
 21
113.525104
 31
0.0
  0
LINE
  5
1F4
330
1EE
100
AcDbEntity
  8
LC-001-100-D00-0
 62
     7
370
    50
100
AcDbLine
 10
365.344058
 20
113.525104
 30
0.0
 11
365.325065
 21
113.501361
 31
0.0
  0
LINE
  5
1F5
330
1EE
100
AcDbEntity
  8
LC-001-100-D00-0
 62
     7
370
    50
100
AcDbLine
 10
365.325065
 20
113.501361
 30
0.0
 11
365.325065
 21
113.501361
 31
0.0
  0
LINE
  5
1F6
330
1EE
100
AcDbEntity
  8
LC-001-100-D00-0
 62
     7
370
    50
100
AcDbLine
 10
365.325065
 20
113.501361
 30
0.0
 11
365.181258
 21
113.322818
 31
0.0
  0
LINE
  5
1F7
330
1EE
100
AcDbEntity
  8
LC-001-100-D00-0
 62
     7
370
    50
100
AcDbLine
 10
365.181258
 20
113.322818
 30
0.0
 11
365.181258
 21
113.322818
 31
0.0
  0
LINE
  5
1F8
330
1EE
100
AcDbEntity
  8
LC-001-100-D00-0
 62
     7
370
    50
100
AcDbLine
 10
365.181258
 20
113.322818
 30
0.0
 11
364.940508
 21
113.028197
 31
0.0
  0
LINE
  5
1F9
330
1EE
100
AcDbEntity
  8
LC-001-100-D00-0
 62
     7
370
    50
100
AcDbLine
 10
364.940508
 20
113.028197
 30
0.0
 11
364.940508
 21
113.028197
 31
0.0
  0
LINE
  5
1FA
330
1EE
100
AcDbEntity
  8
LC-001-100-D00-0
 62
     7
370
    50
100
AcDbLine
 10
364.940508
 20
113.028197
 30
0.0
 11
364.570987
 21
112.584383
 31
0.0
  0
LINE
  5
1FB
330
1EE
100
AcDbEntity
  8
LC-001-100-D00-0
 62
     7
370
    50
100
AcDbLine
 10
364.570987
 20
112.584383
 30
0.0
 11
364.570987
 21
112.584383
 31
0.0
  0
LINE
  5
1FC
330
1EE
100
AcDbEntity
  8
LC-001-100-D00-0
 62
     7
370
    50
100
AcDbLine
 10
364.570987
 20
112.584383
 30
0.0
 11
364.258654
 21
112.225015
 31
0.0
  0
LINE
  5
1FD
330
1EE
100
AcDbEntity
  8
LC-001-100-D00-0
 62
     7
370
    50
100
AcDbLine
 10
364.258654
 20
112.225015
 30
0.0
 11
364.258654
 21
112.225015
 31
0.0
  0
LINE
  5
1FE
330
1EE
100
AcDbEntity
  8
LC-001-100-D00-0
 62
     7
370
    50
100
AcDbLine
 10
364.258654
 20
112.225015
 30
0.0
 11
364.095241
 21
112.036994
 31
0.0
  0
ENDBLK
  5
1F0
330
1EE
100
AcDbEntity
  8
0
100
AcDbBlockEnd
  0
BLOCK
  5
201
330
200
100
AcDbEntity
  8
0
100
AcDbBlockBegin
  2
POLY16
 70
     0
 71
     0
 10
0.0
 20
0.0
 30
0.0
  3
POLY16
  1

  4
POLY16
  0
LINE
  5
203
330
200
100
AcDbEntity
  8
LC-001-100-D00-0
 62
     7
370
    50
100
AcDbLine
 10
359.981919
 20
112.036994
 30
0.0
 11
359.981919
 21
112.036994
 31
0.0
  0
LINE
  5
204
330
200
100
AcDbEntity
  8
LC-001-100-D00-0
 62
     7
370
    50
100
AcDbLine
 10
359.981919
 20
112.036994
 30
0.0
 11
360.206493
 21
112.263699
 31
0.0
  0
LINE
  5
205
330
200
100
AcDbEntity
  8
LC-001-100-D00-0
 62
     7
370
    50
100
AcDbLine
 10
360.206493
 20
112.263699
 30
0.0
 11
360.206493
 21
112.263699
 31
0.0
  0
LINE
  5
206
330
200
100
AcDbEntity
  8
LC-001-100-D00-0
 62
     7
370
    50
100
AcDbLine
 10
360.206493
 20
112.263699
 30
0.0
 11
360.586094
 21
112.6469
 31
0.0
  0
LINE
  5
207
330
200
100
AcDbEntity
  8
LC-001-100-D00-0
 62
     7
370
    50
100
AcDbLine
 10
360.586094
 20
112.6469
 30
0.0
 11
360.586094
 21
112.6469
 31
0.0
  0
LINE
  5
208
330
200
100
AcDbEntity
  8
LC-001-100-D00-0
 62
     7
370
    50
100
AcDbLine
 10
360.586094
 20
112.6469
 30
0.0
 11
361.022203
 21
113.110606
 31
0.0
  0
LINE
  5
209
330
200
100
AcDbEntity
  8
LC-001-100-D00-0
 62
     7
370
    50
100
AcDbLine
 10
361.022203
 20
113.110606
 30
0.0
 11
361.022203
 21
113.110606
 31
0.0
  0
LINE
  5
20A
330
200
100
AcDbEntity
  8
LC-001-100-D00-0
 62
     7
370
    50
100
AcDbLine
 10
361.022203
 20
113.110606
 30
0.0
 11
361.273594
 21
113.38328
 31
0.0
  0
LINE
  5
20B
330
200
100
AcDbEntity
  8
LC-001-100-D00-0
 62
     7
370
    50
100
AcDbLine
 10
361.273594
 20
113.38328
 30
0.0
 11
361.273594
 21
113.38328
 31
0.0
  0
LINE
  5
20C
330
200
100
AcDbEntity
  8
LC-001-100-D00-0
 62
     7
370
    50
100
AcDbLine
 10
361.273594
 20
113.38328
 30
0.0
 11
361.395729
 21
113.517668
 31
0.0
  0
LINE
  5
20D
330
200
100
AcDbEntity
  8
LC-001-100-D00-0
 62
     7
370
    50
100
AcDbLine
 10
361.395729
 20
113.517668
 30
0.0
 11
361.395729
 21
113.517668
 31
0.0
  0
LINE
  5
20E
330
200
100
AcDbEntity
  8
LC-001-100-D00-0
 62
     7
370
    50
100
AcDbLine
 10
361.395729
 20
113.517668
 30
0.0
 11
361.40812
 21
113.531346
 31
0.0
  0
LINE
  5
20F
330
200
100
AcDbEntity
  8
LC-001-100-D00-0
 62
     7
370
    50
100
AcDbLine
 10
361.40812
 20
113.531346
 30
0.0
 11
361.40812
 21
113.531346
 31
0.0
  0
LINE
  5
210
330
200
100
AcDbEntity
  8
LC-001-100-D00-0
 62
     7
370
    50
100
AcDbLine
 10
361.40812
 20
113.531346
 30
0.0
 11
361.413237
 21
113.536994
 31
0.0
  0
ENDBLK
  5
202
330
200
100
AcDbEntity
  8
0
100
AcDbBlockEnd
  0
BLOCK
  5
21E
330
21D
100
AcDbEntity
  8
0
100
AcDbBlockBegin
  2
POLY17
 70
     0
 71
     0
 10
0.0
 20
0.0
 30
0.0
  3
POLY17
  1

  4
POLY17
  0
LINE
  5
220
330
21D
100
AcDbEntity
  8
LC-001-100-D00-0
 62
     7
370
    50
100
AcDbLine
 10
238.717569
 20
112.036994
 30
0.0
 11
238.717569
 21
112.036994
 31
0.0
  0
LINE
  5
221
330
21D
100
AcDbEntity
  8
LC-001-100-D00-0
 62
     7
370
    50
100
AcDbLine
 10
238.717569
 20
112.036994
 30
0.0
 11
238.551124
 21
112.228542
 31
0.0
  0
LINE
  5
222
330
21D
100
AcDbEntity
  8
LC-001-100-D00-0
 62
     7
370
    50
100
AcDbLine
 10
238.551124
 20
112.228542
 30
0.0
 11
238.551124
 21
112.228542
 31
0.0
  0
LINE
  5
223
330
21D
100
AcDbEntity
  8
LC-001-100-D00-0
 62
     7
370
    50
100
AcDbLine
 10
238.551124
 20
112.228542
 30
0.0
 11
238.238525
 21
112.58829
 31
0.0
  0
LINE
  5
224
330
21D
100
AcDbEntity
  8
LC-001-100-D00-0
 62
     7
370
    50
100
AcDbLine
 10
238.238525
 20
112.58829
 30
0.0
 11
238.238525
 21
112.58829
 31
0.0
  0
LINE
  5
225
330
21D
100
AcDbEntity
  8
LC-001-100-D00-0
 62
     7
370
    50
100
AcDbLine
 10
238.238525
 20
112.58829
 30
0.0
 11
237.856545
 21
113.047152
 31
0.0
  0
LINE
  5
226
330
21D
100
AcDbEntity
  8
LC-001-100-D00-0
 62
     7
370
    50
100
AcDbLine
 10
237.856545
 20
113.047152
 30
0.0
 11
237.856545
 21
113.047152
 31
0.0
  0
LINE
  5
227
330
21D
100
AcDbEntity
  8
LC-001-100-D00-0
 62
     7
370
    50
100
AcDbLine
 10
237.856545
 20
113.047152
 30
0.0
 11
237.608392
 21
113.351356
 31
0.0
  0
LINE
  5
228
330
21D
100
AcDbEntity
  8
LC-001-100-D00-0
 62
     7
370
    50
100
AcDbLine
 10
237.608392
 20
113.351356
 30
0.0
 11
237.608392
 21
113.351356
 31
0.0
  0
LINE
  5
229
330
21D
100
AcDbEntity
  8
LC-001-100-D00-0
 62
     7
370
    50
100
AcDbLine
 10
237.608392
 20
113.351356
 30
0.0
 11
237.479406
 21
113.511803
 31
0.0
  0
LINE
  5
22A
330
21D
100
AcDbEntity
  8
LC-001-100-D00-0
 62
     7
370
    50
100
AcDbLine
 10
237.479406
 20
113.511803
 30
0.0
 11
237.479406
 21
113.511803
 31
0.0
  0
LINE
  5
22B
330
21D
100
AcDbEntity
  8
LC-001-100-D00-0
 62
     7
370
    50
100
AcDbLine
 10
237.479406
 20
113.511803
 30
0.0
 11
237.465384
 21
113.529319
 31
0.0
  0
LINE
  5
22C
330
21D
100
AcDbEntity
  8
LC-001-100-D00-0
 62
     7
370
    50
100
AcDbLine
 10
237.465384
 20
113.529319
 30
0.0
 11
237.465384
 21
113.529319
 31
0.0
  0
LINE
  5
22D
330
21D
100
AcDbEntity
  8
LC-001-100-D00-0
 62
     7
370
    50
100
AcDbLine
 10
237.465384
 20
113.529319
 30
0.0
 11
237.45924
 21
113.536994
 31
0.0
  0
ENDBLK
  5
21F
330
21D
100
AcDbEntity
  8
0
100
AcDbBlockEnd
  0
BLOCK
  5
230
330
22F
100
AcDbEntity
  8
0
100
AcDbBlockBegin
  2
POLY18
 70
     0
 71
     0
 10
0.0
 20
0.0
 30
0.0
  3
POLY18
  1

  4
POLY18
  0
LINE
  5
232
330
22F
100
AcDbEntity
  8
LC-001-100-D00-0
 62
     7
370
    50
100
AcDbLine
 10
241.399572
 20
113.536994
 30
0.0
 11
241.399572
 21
113.536994
 31
0.0
  0
LINE
  5
233
330
22F
100
AcDbEntity
  8
LC-001-100-D00-0
 62
     7
370
    50
100
AcDbLine
 10
241.399572
 20
113.536994
 30
0.0
 11
241.409691
 21
113.525812
 31
0.0
  0
LINE
  5
234
330
22F
100
AcDbEntity
  8
LC-001-100-D00-0
 62
     7
370
    50
100
AcDbLine
 10
241.409691
 20
113.525812
 30
0.0
 11
241.409691
 21
113.525812
 31
0.0
  0
LINE
  5
235
330
22F
100
AcDbEntity
  8
LC-001-100-D00-0
 62
     7
370
    50
100
AcDbLine
 10
241.409691
 20
113.525812
 30
0.0
 11
241.429891
 21
113.503492
 31
0.0
  0
LINE
  5
236
330
22F
100
AcDbEntity
  8
LC-001-100-D00-0
 62
     7
370
    50
100
AcDbLine
 10
241.429891
 20
113.503492
 30
0.0
 11
241.429891
 21
113.503492
 31
0.0
  0
LINE
  5
237
330
22F
100
AcDbEntity
  8
LC-001-100-D00-0
 62
     7
370
    50
100
AcDbLine
 10
241.429891
 20
113.503492
 30
0.0
 11
241.594369
 21
113.323021
 31
0.0
  0
LINE
  5
238
330
22F
100
AcDbEntity
  8
LC-001-100-D00-0
 62
     7
370
    50
100
AcDbLine
 10
241.594369
 20
113.323021
 30
0.0
 11
241.594369
 21
113.323021
 31
0.0
  0
LINE
  5
239
330
22F
100
AcDbEntity
  8
LC-001-100-D00-0
 62
     7
370
    50
100
AcDbLine
 10
241.594369
 20
113.323021
 30
0.0
 11
241.889525
 21
113.004405
 31
0.0
  0
LINE
  5
23A
330
22F
100
AcDbEntity
  8
LC-001-100-D00-0
 62
     7
370
    50
100
AcDbLine
 10
241.889525
 20
113.004405
 30
0.0
 11
241.889525
 21
113.004405
 31
0.0
  0
LINE
  5
23B
330
22F
100
AcDbEntity
  8
LC-001-100-D00-0
 62
     7
370
    50
100
AcDbLine
 10
241.889525
 20
113.004405
 30
0.0
 11
242.323795
 21
112.547056
 31
0.0
  0
LINE
  5
23C
330
22F
100
AcDbEntity
  8
LC-001-100-D00-0
 62
     7
370
    50
100
AcDbLine
 10
242.323795
 20
112.547056
 30
0.0
 11
242.323795
 21
112.547056
 31
0.0
  0
LINE
  5
23D
330
22F
100
AcDbEntity
  8
LC-001-100-D00-0
 62
     7
370
    50
100
AcDbLine
 10
242.323795
 20
112.547056
 30
0.0
 11
242.66507
 21
112.203784
 31
0.0
  0
LINE
  5
23E
330
22F
100
AcDbEntity
  8
LC-001-100-D00-0
 62
     7
370
    50
100
AcDbLine
 10
242.66507
 20
112.203784
 30
0.0
 11
242.66507
 21
112.203784
 31
0.0
  0
LINE
  5
23F
330
22F
100
AcDbEntity
  8
LC-001-100-D00-0
 62
     7
370
    50
100
AcDbLine
 10
242.66507
 20
112.203784
 30
0.0
 11
242.830891
 21
112.036994
 31
0.0
  0
ENDBLK
  5
231
330
22F
100
AcDbEntity
  8
0
100
AcDbBlockEnd
  0
BLOCK
  5
242
330
241
100
AcDbEntity
  8
0
100
AcDbBlockBegin
  2
POLY19
 70
     0
 71
     0
 10
0.0
 20
0.0
 30
0.0
  3
POLY19
  1

  4
POLY19
  0
LINE
  5
244
330
241
100
AcDbEntity
  8
LC-001-100-D00-0
 62
     7
370
    50
100
AcDbLine
 10
252.664318
 20
180.736994
 30
0.0
 11
252.664318
 21
180.736994
 31
0.0
  0
LINE
  5
245
330
241
100
AcDbEntity
  8
LC-001-100-D00-0
 62
     7
370
    50
100
AcDbLine
 10
252.664318
 20
180.736994
 30
0.0
 11
252.831029
 21
180.736994
 31
0.0
  0
LINE
  5
246
330
241
100
AcDbEntity
  8
LC-001-100-D00-0
 62
     7
370
    50
100
AcDbLine
 10
252.831029
 20
180.736994
 30
0.0
 11
252.831029
 21
180.736994
 31
0.0
  0
LINE
  5
247
330
241
100
AcDbEntity
  8
LC-001-100-D00-0
 62
     7
370
    50
100
AcDbLine
 10
252.831029
 20
180.736994
 30
0.0
 11
253.332219
 21
180.736994
 31
0.0
  0
LINE
  5
248
330
241
100
AcDbEntity
  8
LC-001-100-D00-0
 62
     7
370
    50
100
AcDbLine
 10
253.332219
 20
180.736994
 30
0.0
 11
253.332219
 21
180.736994
 31
0.0
  0
LINE
  5
249
330
241
100
AcDbEntity
  8
LC-001-100-D00-0
 62
     7
370
    50
100
AcDbLine
 10
253.332219
 20
180.736994
 30
0.0
 11
253.999479
 21
180.736994
 31
0.0
  0
LINE
  5
24A
330
241
100
AcDbEntity
  8
LC-001-100-D00-0
 62
     7
370
    50
100
AcDbLine
 10
253.999479
 20
180.736994
 30
0.0
 11
253.999479
 21
180.736994
 31
0.0
  0
LINE
  5
24B
330
241
100
AcDbEntity
  8
LC-001-100-D00-0
 62
     7
370
    50
100
AcDbLine
 10
253.999479
 20
180.736994
 30
0.0
 11
254.682132
 21
180.736994
 31
0.0
  0
LINE
  5
24C
330
241
100
AcDbEntity
  8
LC-001-100-D00-0
 62
     7
370
    50
100
AcDbLine
 10
254.682132
 20
180.736994
 30
0.0
 11
254.682132
 21
180.736994
 31
0.0
  0
LINE
  5
24D
330
241
100
AcDbEntity
  8
LC-001-100-D00-0
 62
     7
370
    50
100
AcDbLine
 10
254.682132
 20
180.736994
 30
0.0
 11
255.215194
 21
180.736994
 31
0.0
  0
LINE
  5
24E
330
241
100
AcDbEntity
  8
LC-001-100-D00-0
 62
     7
370
    50
100
AcDbLine
 10
255.215194
 20
180.736994
 30
0.0
 11
255.215194
 21
180.736994
 31
0.0
  0
LINE
  5
24F
330
241
100
AcDbEntity
  8
LC-001-100-D00-0
 62
     7
370
    50
100
AcDbLine
 10
255.215194
 20
180.736994
 30
0.0
 11
255.947462
 21
180.736994
 31
0.0
  0
LINE
  5
250
330
241
100
AcDbEntity
  8
LC-001-100-D00-0
 62
     7
370
    50
100
AcDbLine
 10
255.947462
 20
180.736994
 30
0.0
 11
255.947462
 21
180.736994
 31
0.0
  0
LINE
  5
251
330
241
100
AcDbEntity
  8
LC-001-100-D00-0
 62
     7
370
    50
100
AcDbLine
 10
255.947462
 20
180.736994
 30
0.0
 11
256.859836
 21
180.736994
 31
0.0
  0
LINE
  5
252
330
241
100
AcDbEntity
  8
LC-001-100-D00-0
 62
     7
370
    50
100
AcDbLine
 10
256.859836
 20
180.736994
 30
0.0
 11
256.859836
 21
180.736994
 31
0.0
  0
LINE
  5
253
330
241
100
AcDbEntity
  8
LC-001-100-D00-0
 62
     7
370
    50
100
AcDbLine
 10
256.859836
 20
180.736994
 30
0.0
 11
257.950728
 21
180.736994
 31
0.0
  0
LINE
  5
254
330
241
100
AcDbEntity
  8
LC-001-100-D00-0
 62
     7
370
    50
100
AcDbLine
 10
257.950728
 20
180.736994
 30
0.0
 11
257.950728
 21
180.736994
 31
0.0
  0
LINE
  5
255
330
241
100
AcDbEntity
  8
LC-001-100-D00-0
 62
     7
370
    50
100
AcDbLine
 10
257.950728
 20
180.736994
 30
0.0
 11
258.685993
 21
180.736994
 31
0.0
  0
LINE
  5
256
330
241
100
AcDbEntity
  8
LC-001-100-D00-0
 62
     7
370
    50
100
AcDbLine
 10
258.685993
 20
180.736994
 30
0.0
 11
258.685993
 21
180.736994
 31
0.0
  0
LINE
  5
257
330
241
100
AcDbEntity
  8
LC-001-100-D00-0
 62
     7
370
    50
100
AcDbLine
 10
258.685993
 20
180.736994
 30
0.0
 11
259.058241
 21
180.736994
 31
0.0
  0
LINE
  5
258
330
241
100
AcDbEntity
  8
LC-001-100-D00-0
 62
     7
370
    50
100
AcDbLine
 10
259.058241
 20
180.736994
 30
0.0
 11
259.058241
 21
180.736994
 31
0.0
  0
LINE
  5
259
330
241
100
AcDbEntity
  8
LC-001-100-D00-0
 62
     7
370
    50
100
AcDbLine
 10
259.058241
 20
180.736994
 30
0.0
 11
259.067442
 21
180.736994
 31
0.0
  0
ENDBLK
  5
243
330
241
100
AcDbEntity
  8
0
100
AcDbBlockEnd
  0
BLOCK
  5
25C
330
25B
100
AcDbEntity
  8
0
100
AcDbBlockBegin
  2
POLY20
 70
     0
 71
     0
 10
0.0
 20
0.0
 30
0.0
  3
POLY20
  1

  4
POLY20
  0
LINE
  5
25E
330
25B
100
AcDbEntity
  8
LC-001-100-D00-0
 62
     7
370
    50
100
AcDbLine
 10
350.148491
 20
100.736994
 30
0.0
 11
350.148491
 21
100.736994
 31
0.0
  0
LINE
  5
25F
330
25B
100
AcDbEntity
  8
LC-001-100-D00-0
 62
     7
370
    50
100
AcDbLine
 10
350.148491
 20
100.736994
 30
0.0
 11
349.480195
 21
100.736994
 31
0.0
  0
LINE
  5
260
330
25B
100
AcDbEntity
  8
LC-001-100-D00-0
 62
     7
370
    50
100
AcDbLine
 10
349.480195
 20
100.736994
 30
0.0
 11
349.480195
 21
100.736994
 31
0.0
  0
LINE
  5
261
330
25B
100
AcDbEntity
  8
LC-001-100-D00-0
 62
     7
370
    50
100
AcDbLine
 10
349.480195
 20
100.736994
 30
0.0
 11
348.070075
 21
100.736994
 31
0.0
  0
LINE
  5
262
330
25B
100
AcDbEntity
  8
LC-001-100-D00-0
 62
     7
370
    50
100
AcDbLine
 10
348.070075
 20
100.736994
 30
0.0
 11
348.070075
 21
100.736994
 31
0.0
  0
LINE
  5
263
330
25B
100
AcDbEntity
  8
LC-001-100-D00-0
 62
     7
370
    50
100
AcDbLine
 10
348.070075
 20
100.736994
 30
0.0
 11
345.949425
 21
100.736994
 31
0.0
  0
LINE
  5
264
330
25B
100
AcDbEntity
  8
LC-001-100-D00-0
 62
     7
370
    50
100
AcDbLine
 10
345.949425
 20
100.736994
 30
0.0
 11
345.949425
 21
100.736994
 31
0.0
  0
LINE
  5
265
330
25B
100
AcDbEntity
  8
LC-001-100-D00-0
 62
     7
370
    50
100
AcDbLine
 10
345.949425
 20
100.736994
 30
0.0
 11
344.4898
 21
100.736994
 31
0.0
  0
LINE
  5
266
330
25B
100
AcDbEntity
  8
LC-001-100-D00-0
 62
     7
370
    50
100
AcDbLine
 10
344.4898
 20
100.736994
 30
0.0
 11
344.4898
 21
100.736994
 31
0.0
  0
LINE
  5
267
330
25B
100
AcDbEntity
  8
LC-001-100-D00-0
 62
     7
370
    50
100
AcDbLine
 10
344.4898
 20
100.736994
 30
0.0
 11
343.754568
 21
100.736994
 31
0.0
  0
LINE
  5
268
330
25B
100
AcDbEntity
  8
LC-001-100-D00-0
 62
     7
370
    50
100
AcDbLine
 10
343.754568
 20
100.736994
 30
0.0
 11
343.754568
 21
100.736994
 31
0.0
  0
LINE
  5
269
330
25B
100
AcDbEntity
  8
LC-001-100-D00-0
 62
     7
370
    50
100
AcDbLine
 10
343.754568
 20
100.736994
 30
0.0
 11
343.745367
 21
100.736994
 31
0.0
  0
ENDBLK
  5
25D
330
25B
100
AcDbEntity
  8
0
100
AcDbBlockEnd
  0
BLOCK
  5
26C
330
26B
100
AcDbEntity
  8
0
100
AcDbBlockBegin
  2
POLY21
 70
     0
 71
     0
 10
0.0
 20
0.0
 30
0.0
  3
POLY21
  1

  4
POLY21
  0
LINE
  5
26E
330
26B
100
AcDbEntity
  8
LC-001-100-D00-0
 62
     7
370
    50
100
AcDbLine
 10
343.745367
 20
180.736994
 30
0.0
 11
343.745367
 21
180.736994
 31
0.0
  0
LINE
  5
26F
330
26B
100
AcDbEntity
  8
LC-001-100-D00-0
 62
     7
370
    50
100
AcDbLine
 10
343.745367
 20
180.736994
 30
0.0
 11
343.754568
 21
180.736994
 31
0.0
  0
LINE
  5
270
330
26B
100
AcDbEntity
  8
LC-001-100-D00-0
 62
     7
370
    50
100
AcDbLine
 10
343.754568
 20
180.736994
 30
0.0
 11
343.754568
 21
180.736994
 31
0.0
  0
LINE
  5
271
330
26B
100
AcDbEntity
  8
LC-001-100-D00-0
 62
     7
370
    50
100
AcDbLine
 10
343.754568
 20
180.736994
 30
0.0
 11
344.488389
 21
180.736994
 31
0.0
  0
LINE
  5
272
330
26B
100
AcDbEntity
  8
LC-001-100-D00-0
 62
     7
370
    50
100
AcDbLine
 10
344.488389
 20
180.736994
 30
0.0
 11
344.488389
 21
180.736994
 31
0.0
  0
LINE
  5
273
330
26B
100
AcDbEntity
  8
LC-001-100-D00-0
 62
     7
370
    50
100
AcDbLine
 10
344.488389
 20
180.736994
 30
0.0
 11
345.948012
 21
180.736994
 31
0.0
  0
LINE
  5
274
330
26B
100
AcDbEntity
  8
LC-001-100-D00-0
 62
     7
370
    50
100
AcDbLine
 10
345.948012
 20
180.736994
 30
0.0
 11
345.948012
 21
180.736994
 31
0.0
  0
LINE
  5
275
330
26B
100
AcDbEntity
  8
LC-001-100-D00-0
 62
     7
370
    50
100
AcDbLine
 10
345.948012
 20
180.736994
 30
0.0
 11
348.06863
 21
180.736994
 31
0.0
  0
LINE
  5
276
330
26B
100
AcDbEntity
  8
LC-001-100-D00-0
 62
     7
370
    50
100
AcDbLine
 10
348.06863
 20
180.736994
 30
0.0
 11
348.06863
 21
180.736994
 31
0.0
  0
LINE
  5
277
330
26B
100
AcDbEntity
  8
LC-001-100-D00-0
 62
     7
370
    50
100
AcDbLine
 10
348.06863
 20
180.736994
 30
0.0
 11
349.480195
 21
180.736994
 31
0.0
  0
LINE
  5
278
330
26B
100
AcDbEntity
  8
LC-001-100-D00-0
 62
     7
370
    50
100
AcDbLine
 10
349.480195
 20
180.736994
 30
0.0
 11
349.480195
 21
180.736994
 31
0.0
  0
LINE
  5
279
330
26B
100
AcDbEntity
  8
LC-001-100-D00-0
 62
     7
370
    50
100
AcDbLine
 10
349.480195
 20
180.736994
 30
0.0
 11
350.148491
 21
180.736994
 31
0.0
  0
ENDBLK
  5
26D
330
26B
100
AcDbEntity
  8
0
100
AcDbBlockEnd
  0
BLOCK
  5
27C
330
27B
100
AcDbEntity
  8
0
100
AcDbBlockBegin
  2
POLY22
 70
     0
 71
     0
 10
0.0
 20
0.0
 30
0.0
  3
POLY22
  1

  4
POLY22
  0
LINE
  5
27E
330
27B
100
AcDbEntity
  8
LC-001-100-D00-0
 62
     7
370
    50
100
AcDbLine
 10
259.067442
 20
100.736994
 30
0.0
 11
259.067442
 21
100.736994
 31
0.0
  0
LINE
  5
27F
330
27B
100
AcDbEntity
  8
LC-001-100-D00-0
 62
     7
370
    50
100
AcDbLine
 10
259.067442
 20
100.736994
 30
0.0
 11
259.058241
 21
100.736994
 31
0.0
  0
LINE
  5
280
330
27B
100
AcDbEntity
  8
LC-001-100-D00-0
 62
     7
370
    50
100
AcDbLine
 10
259.058241
 20
100.736994
 30
0.0
 11
259.058241
 21
100.736994
 31
0.0
  0
LINE
  5
281
330
27B
100
AcDbEntity
  8
LC-001-100-D00-0
 62
     7
370
    50
100
AcDbLine
 10
259.058241
 20
100.736994
 30
0.0
 11
258.32442
 21
100.736994
 31
0.0
  0
LINE
  5
282
330
27B
100
AcDbEntity
  8
LC-001-100-D00-0
 62
     7
370
    50
100
AcDbLine
 10
258.32442
 20
100.736994
 30
0.0
 11
258.32442
 21
100.736994
 31
0.0
  0
LINE
  5
283
330
27B
100
AcDbEntity
  8
LC-001-100-D00-0
 62
     7
370
    50
100
AcDbLine
 10
258.32442
 20
100.736994
 30
0.0
 11
256.864797
 21
100.736994
 31
0.0
  0
LINE
  5
284
330
27B
100
AcDbEntity
  8
LC-001-100-D00-0
 62
     7
370
    50
100
AcDbLine
 10
256.864797
 20
100.736994
 30
0.0
 11
256.864797
 21
100.736994
 31
0.0
  0
LINE
  5
285
330
27B
100
AcDbEntity
  8
LC-001-100-D00-0
 62
     7
370
    50
100
AcDbLine
 10
256.864797
 20
100.736994
 30
0.0
 11
254.744179
 21
100.736994
 31
0.0
  0
LINE
  5
286
330
27B
100
AcDbEntity
  8
LC-001-100-D00-0
 62
     7
370
    50
100
AcDbLine
 10
254.744179
 20
100.736994
 30
0.0
 11
254.744179
 21
100.736994
 31
0.0
  0
LINE
  5
287
330
27B
100
AcDbEntity
  8
LC-001-100-D00-0
 62
     7
370
    50
100
AcDbLine
 10
254.744179
 20
100.736994
 30
0.0
 11
253.332614
 21
100.736994
 31
0.0
  0
LINE
  5
288
330
27B
100
AcDbEntity
  8
LC-001-100-D00-0
 62
     7
370
    50
100
AcDbLine
 10
253.332614
 20
100.736994
 30
0.0
 11
253.332614
 21
100.736994
 31
0.0
  0
LINE
  5
289
330
27B
100
AcDbEntity
  8
LC-001-100-D00-0
 62
     7
370
    50
100
AcDbLine
 10
253.332614
 20
100.736994
 30
0.0
 11
252.664318
 21
100.736994
 31
0.0
  0
ENDBLK
  5
27D
330
27B
100
AcDbEntity
  8
0
100
AcDbBlockEnd
  0
BLOCK
  5
28C
330
28B
100
AcDbEntity
  8
0
100
AcDbBlockBegin
  2
POLY23
 70
     0
 71
     0
 10
0.0
 20
0.0
 30
0.0
  3
POLY23
  1

  4
POLY23
  0
LINE
  5
28E
330
28B
100
AcDbEntity
  8
LC-001-100-D00-0
 62
     7
370
    50
100
AcDbLine
 10
366.625859
 20
167.936994
 30
0.0
 11
366.625859
 21
167.936994
 31
0.0
  0
LINE
  5
28F
330
28B
100
AcDbEntity
  8
LC-001-100-D00-0
 62
     7
370
    50
100
AcDbLine
 10
366.625859
 20
167.936994
 30
0.0
 11
366.456278
 21
167.936994
 31
0.0
  0
LINE
  5
290
330
28B
100
AcDbEntity
  8
LC-001-100-D00-0
 62
     7
370
    50
100
AcDbLine
 10
366.456278
 20
167.936994
 30
0.0
 11
366.456278
 21
167.936994
 31
0.0
  0
LINE
  5
291
330
28B
100
AcDbEntity
  8
LC-001-100-D00-0
 62
     7
370
    50
100
AcDbLine
 10
366.456278
 20
167.936994
 30
0.0
 11
366.139709
 21
167.936994
 31
0.0
  0
LINE
  5
292
330
28B
100
AcDbEntity
  8
LC-001-100-D00-0
 62
     7
370
    50
100
AcDbLine
 10
366.139709
 20
167.936994
 30
0.0
 11
366.139709
 21
167.936994
 31
0.0
  0
LINE
  5
293
330
28B
100
AcDbEntity
  8
LC-001-100-D00-0
 62
     7
370
    50
100
AcDbLine
 10
366.139709
 20
167.936994
 30
0.0
 11
365.749064
 21
167.936994
 31
0.0
  0
LINE
  5
294
330
28B
100
AcDbEntity
  8
LC-001-100-D00-0
 62
     7
370
    50
100
AcDbLine
 10
365.749064
 20
167.936994
 30
0.0
 11
365.749064
 21
167.936994
 31
0.0
  0
LINE
  5
295
330
28B
100
AcDbEntity
  8
LC-001-100-D00-0
 62
     7
370
    50
100
AcDbLine
 10
365.749064
 20
167.936994
 30
0.0
 11
365.496839
 21
167.936994
 31
0.0
  0
LINE
  5
296
330
28B
100
AcDbEntity
  8
LC-001-100-D00-0
 62
     7
370
    50
100
AcDbLine
 10
365.496839
 20
167.936994
 30
0.0
 11
365.496839
 21
167.936994
 31
0.0
  0
LINE
  5
297
330
28B
100
AcDbEntity
  8
LC-001-100-D00-0
 62
     7
370
    50
100
AcDbLine
 10
365.496839
 20
167.936994
 30
0.0
 11
365.371664
 21
167.936994
 31
0.0
  0
LINE
  5
298
330
28B
100
AcDbEntity
  8
LC-001-100-D00-0
 62
     7
370
    50
100
AcDbLine
 10
365.371664
 20
167.936994
 30
0.0
 11
365.371664
 21
167.936994
 31
0.0
  0
LINE
  5
299
330
28B
100
AcDbEntity
  8
LC-001-100-D00-0
 62
     7
370
    50
100
AcDbLine
 10
365.371664
 20
167.936994
 30
0.0
 11
365.35886
 21
167.936994
 31
0.0
  0
LINE
  5
29A
330
28B
100
AcDbEntity
  8
LC-001-100-D00-0
 62
     7
370
    50
100
AcDbLine
 10
365.35886
 20
167.936994
 30
0.0
 11
365.35886
 21
167.936994
 31
0.0
  0
LINE
  5
29B
330
28B
100
AcDbEntity
  8
LC-001-100-D00-0
 62
     7
370
    50
100
AcDbLine
 10
365.35886
 20
167.936994
 30
0.0
 11
365.353569
 21
167.936994
 31
0.0
  0
ENDBLK
  5
28D
330
28B
100
AcDbEntity
  8
0
100
AcDbBlockEnd
  0
BLOCK
  5
29E
330
29D
100
AcDbEntity
  8
0
100
AcDbBlockBegin
  2
POLY24
 70
     0
 71
     0
 10
0.0
 20
0.0
 30
0.0
  3
POLY24
  1

  4
POLY24
  0
LINE
  5
2A0
330
29D
100
AcDbEntity
  8
LC-001-100-D00-0
 62
     7
370
    50
100
AcDbLine
 10
236.18695
 20
113.536994
 30
0.0
 11
236.18695
 21
113.536994
 31
0.0
  0
LINE
  5
2A1
330
29D
100
AcDbEntity
  8
LC-001-100-D00-0
 62
     7
370
    50
100
AcDbLine
 10
236.18695
 20
113.536994
 30
0.0
 11
236.270623
 21
113.536994
 31
0.0
  0
LINE
  5
2A2
330
29D
100
AcDbEntity
  8
LC-001-100-D00-0
 62
     7
370
    50
100
AcDbLine
 10
236.270623
 20
113.536994
 30
0.0
 11
236.270623
 21
113.536994
 31
0.0
  0
LINE
  5
2A3
330
29D
100
AcDbEntity
  8
LC-001-100-D00-0
 62
     7
370
    50
100
AcDbLine
 10
236.270623
 20
113.536994
 30
0.0
 11
236.440195
 21
113.536994
 31
0.0
  0
LINE
  5
2A4
330
29D
100
AcDbEntity
  8
LC-001-100-D00-0
 62
     7
370
    50
100
AcDbLine
 10
236.440195
 20
113.536994
 30
0.0
 11
236.440195
 21
113.536994
 31
0.0
  0
LINE
  5
2A5
330
29D
100
AcDbEntity
  8
LC-001-100-D00-0
 62
     7
370
    50
100
AcDbLine
 10
236.440195
 20
113.536994
 30
0.0
 11
236.676317
 21
113.536994
 31
0.0
  0
LINE
  5
2A6
330
29D
100
AcDbEntity
  8
LC-001-100-D00-0
 62
     7
370
    50
100
AcDbLine
 10
236.676317
 20
113.536994
 30
0.0
 11
236.676317
 21
113.536994
 31
0.0
  0
LINE
  5
2A7
330
29D
100
AcDbEntity
  8
LC-001-100-D00-0
 62
     7
370
    50
100
AcDbLine
 10
236.676317
 20
113.536994
 30
0.0
 11
236.891452
 21
113.536994
 31
0.0
  0
LINE
  5
2A8
330
29D
100
AcDbEntity
  8
LC-001-100-D00-0
 62
     7
370
    50
100
AcDbLine
 10
236.891452
 20
113.536994
 30
0.0
 11
236.891452
 21
113.536994
 31
0.0
  0
LINE
  5
2A9
330
29D
100
AcDbEntity
  8
LC-001-100-D00-0
 62
     7
370
    50
100
AcDbLine
 10
236.891452
 20
113.536994
 30
0.0
 11
237.064958
 21
113.536994
 31
0.0
  0
LINE
  5
2AA
330
29D
100
AcDbEntity
  8
LC-001-100-D00-0
 62
     7
370
    50
100
AcDbLine
 10
237.064958
 20
113.536994
 30
0.0
 11
237.064958
 21
113.536994
 31
0.0
  0
LINE
  5
2AB
330
29D
100
AcDbEntity
  8
LC-001-100-D00-0
 62
     7
370
    50
100
AcDbLine
 10
237.064958
 20
113.536994
 30
0.0
 11
237.207415
 21
113.536994
 31
0.0
  0
LINE
  5
2AC
330
29D
100
AcDbEntity
  8
LC-001-100-D00-0
 62
     7
370
    50
100
AcDbLine
 10
237.207415
 20
113.536994
 30
0.0
 11
237.207415
 21
113.536994
 31
0.0
  0
LINE
  5
2AD
330
29D
100
AcDbEntity
  8
LC-001-100-D00-0
 62
     7
370
    50
100
AcDbLine
 10
237.207415
 20
113.536994
 30
0.0
 11
237.311003
 21
113.536994
 31
0.0
  0
LINE
  5
2AE
330
29D
100
AcDbEntity
  8
LC-001-100-D00-0
 62
     7
370
    50
100
AcDbLine
 10
237.311003
 20
113.536994
 30
0.0
 11
237.311003
 21
113.536994
 31
0.0
  0
LINE
  5
2AF
330
29D
100
AcDbEntity
  8
LC-001-100-D00-0
 62
     7
370
    50
100
AcDbLine
 10
237.311003
 20
113.536994
 30
0.0
 11
237.387098
 21
113.536994
 31
0.0
  0
LINE
  5
2B0
330
29D
100
AcDbEntity
  8
LC-001-100-D00-0
 62
     7
370
    50
100
AcDbLine
 10
237.387098
 20
113.536994
 30
0.0
 11
237.387098
 21
113.536994
 31
0.0
  0
LINE
  5
2B1
330
29D
100
AcDbEntity
  8
LC-001-100-D00-0
 62
     7
370
    50
100
AcDbLine
 10
237.387098
 20
113.536994
 30
0.0
 11
237.445441
 21
113.536994
 31
0.0
  0
LINE
  5
2B2
330
29D
100
AcDbEntity
  8
LC-001-100-D00-0
 62
     7
370
    50
100
AcDbLine
 10
237.445441
 20
113.536994
 30
0.0
 11
237.445441
 21
113.536994
 31
0.0
  0
LINE
  5
2B3
330
29D
100
AcDbEntity
  8
LC-001-100-D00-0
 62
     7
370
    50
100
AcDbLine
 10
237.445441
 20
113.536994
 30
0.0
 11
237.454171
 21
113.536994
 31
0.0
  0
LINE
  5
2B4
330
29D
100
AcDbEntity
  8
LC-001-100-D00-0
 62
     7
370
    50
100
AcDbLine
 10
237.454171
 20
113.536994
 30
0.0
 11
237.454171
 21
113.536994
 31
0.0
  0
LINE
  5
2B5
330
29D
100
AcDbEntity
  8
LC-001-100-D00-0
 62
     7
370
    50
100
AcDbLine
 10
237.454171
 20
113.536994
 30
0.0
 11
237.45924
 21
113.536994
 31
0.0
  0
ENDBLK
  5
29F
330
29D
100
AcDbEntity
  8
0
100
AcDbBlockEnd
  0
BLOCK
  5
2B8
330
2B7
100
AcDbEntity
  8
0
100
AcDbBlockBegin
  2
POLY25
 70
     0
 71
     0
 10
0.0
 20
0.0
 30
0.0
  3
POLY25
  1

  4
POLY25
  0
LINE
  5
2BA
330
2B7
100
AcDbEntity
  8
LC-001-100-D00-0
 62
     7
370
    50
100
AcDbLine
 10
237.45924
 20
167.936994
 30
0.0
 11
237.45924
 21
167.936994
 31
0.0
  0
LINE
  5
2BB
330
2B7
100
AcDbEntity
  8
LC-001-100-D00-0
 62
     7
370
    50
100
AcDbLine
 10
237.45924
 20
167.936994
 30
0.0
 11
237.456802
 21
167.936994
 31
0.0
  0
LINE
  5
2BC
330
2B7
100
AcDbEntity
  8
LC-001-100-D00-0
 62
     7
370
    50
100
AcDbLine
 10
237.456802
 20
167.936994
 30
0.0
 11
237.456802
 21
167.936994
 31
0.0
  0
LINE
  5
2BD
330
2B7
100
AcDbEntity
  8
LC-001-100-D00-0
 62
     7
370
    50
100
AcDbLine
 10
237.456802
 20
167.936994
 30
0.0
 11
237.451846
 21
167.936994
 31
0.0
  0
LINE
  5
2BE
330
2B7
100
AcDbEntity
  8
LC-001-100-D00-0
 62
     7
370
    50
100
AcDbLine
 10
237.451846
 20
167.936994
 30
0.0
 11
237.451846
 21
167.936994
 31
0.0
  0
LINE
  5
2BF
330
2B7
100
AcDbEntity
  8
LC-001-100-D00-0
 62
     7
370
    50
100
AcDbLine
 10
237.451846
 20
167.936994
 30
0.0
 11
237.412519
 21
167.936994
 31
0.0
  0
LINE
  5
2C0
330
2B7
100
AcDbEntity
  8
LC-001-100-D00-0
 62
     7
370
    50
100
AcDbLine
 10
237.412519
 20
167.936994
 30
0.0
 11
237.412519
 21
167.936994
 31
0.0
  0
LINE
  5
2C1
330
2B7
100
AcDbEntity
  8
LC-001-100-D00-0
 62
     7
370
    50
100
AcDbLine
 10
237.412519
 20
167.936994
 30
0.0
 11
237.352061
 21
167.936994
 31
0.0
  0
LINE
  5
2C2
330
2B7
100
AcDbEntity
  8
LC-001-100-D00-0
 62
     7
370
    50
100
AcDbLine
 10
237.352061
 20
167.936994
 30
0.0
 11
237.352061
 21
167.936994
 31
0.0
  0
LINE
  5
2C3
330
2B7
100
AcDbEntity
  8
LC-001-100-D00-0
 62
     7
370
    50
100
AcDbLine
 10
237.352061
 20
167.936994
 30
0.0
 11
237.270531
 21
167.936994
 31
0.0
  0
LINE
  5
2C4
330
2B7
100
AcDbEntity
  8
LC-001-100-D00-0
 62
     7
370
    50
100
AcDbLine
 10
237.270531
 20
167.936994
 30
0.0
 11
237.270531
 21
167.936994
 31
0.0
  0
LINE
  5
2C5
330
2B7
100
AcDbEntity
  8
LC-001-100-D00-0
 62
     7
370
    50
100
AcDbLine
 10
237.270531
 20
167.936994
 30
0.0
 11
237.169128
 21
167.936994
 31
0.0
  0
LINE
  5
2C6
330
2B7
100
AcDbEntity
  8
LC-001-100-D00-0
 62
     7
370
    50
100
AcDbLine
 10
237.169128
 20
167.936994
 30
0.0
 11
237.169128
 21
167.936994
 31
0.0
  0
LINE
  5
2C7
330
2B7
100
AcDbEntity
  8
LC-001-100-D00-0
 62
     7
370
    50
100
AcDbLine
 10
237.169128
 20
167.936994
 30
0.0
 11
237.033021
 21
167.936994
 31
0.0
  0
LINE
  5
2C8
330
2B7
100
AcDbEntity
  8
LC-001-100-D00-0
 62
     7
370
    50
100
AcDbLine
 10
237.033021
 20
167.936994
 30
0.0
 11
237.033021
 21
167.936994
 31
0.0
  0
LINE
  5
2C9
330
2B7
100
AcDbEntity
  8
LC-001-100-D00-0
 62
     7
370
    50
100
AcDbLine
 10
237.033021
 20
167.936994
 30
0.0
 11
236.858344
 21
167.936994
 31
0.0
  0
LINE
  5
2CA
330
2B7
100
AcDbEntity
  8
LC-001-100-D00-0
 62
     7
370
    50
100
AcDbLine
 10
236.858344
 20
167.936994
 30
0.0
 11
236.858344
 21
167.936994
 31
0.0
  0
LINE
  5
2CB
330
2B7
100
AcDbEntity
  8
LC-001-100-D00-0
 62
     7
370
    50
100
AcDbLine
 10
236.858344
 20
167.936994
 30
0.0
 11
236.645871
 21
167.936994
 31
0.0
  0
LINE
  5
2CC
330
2B7
100
AcDbEntity
  8
LC-001-100-D00-0
 62
     7
370
    50
100
AcDbLine
 10
236.645871
 20
167.936994
 30
0.0
 11
236.645871
 21
167.936994
 31
0.0
  0
LINE
  5
2CD
330
2B7
100
AcDbEntity
  8
LC-001-100-D00-0
 62
     7
370
    50
100
AcDbLine
 10
236.645871
 20
167.936994
 30
0.0
 11
236.419693
 21
167.936994
 31
0.0
  0
LINE
  5
2CE
330
2B7
100
AcDbEntity
  8
LC-001-100-D00-0
 62
     7
370
    50
100
AcDbLine
 10
236.419693
 20
167.936994
 30
0.0
 11
236.419693
 21
167.936994
 31
0.0
  0
LINE
  5
2CF
330
2B7
100
AcDbEntity
  8
LC-001-100-D00-0
 62
     7
370
    50
100
AcDbLine
 10
236.419693
 20
167.936994
 30
0.0
 11
236.265101
 21
167.936994
 31
0.0
  0
LINE
  5
2D0
330
2B7
100
AcDbEntity
  8
LC-001-100-D00-0
 62
     7
370
    50
100
AcDbLine
 10
236.265101
 20
167.936994
 30
0.0
 11
236.265101
 21
167.936994
 31
0.0
  0
LINE
  5
2D1
330
2B7
100
AcDbEntity
  8
LC-001-100-D00-0
 62
     7
370
    50
100
AcDbLine
 10
236.265101
 20
167.936994
 30
0.0
 11
236.18695
 21
167.936994
 31
0.0
  0
ENDBLK
  5
2B9
330
2B7
100
AcDbEntity
  8
0
100
AcDbBlockEnd
  0
BLOCK
  5
2D4
330
2D3
100
AcDbEntity
  8
0
100
AcDbBlockBegin
  2
POLY26
 70
     0
 71
     0
 10
0.0
 20
0.0
 30
0.0
  3
POLY26
  1

  4
POLY26
  0
LINE
  5
2D6
330
2D3
100
AcDbEntity
  8
LC-001-100-D00-0
 62
     7
370
    50
100
AcDbLine
 10
365.353569
 20
113.536994
 30
0.0
 11
365.353569
 21
113.536994
 31
0.0
  0
LINE
  5
2D7
330
2D3
100
AcDbEntity
  8
LC-001-100-D00-0
 62
     7
370
    50
100
AcDbLine
 10
365.353569
 20
113.536994
 30
0.0
 11
365.363825
 21
113.536994
 31
0.0
  0
LINE
  5
2D8
330
2D3
100
AcDbEntity
  8
LC-001-100-D00-0
 62
     7
370
    50
100
AcDbLine
 10
365.363825
 20
113.536994
 30
0.0
 11
365.363825
 21
113.536994
 31
0.0
  0
LINE
  5
2D9
330
2D3
100
AcDbEntity
  8
LC-001-100-D00-0
 62
     7
370
    50
100
AcDbLine
 10
365.363825
 20
113.536994
 30
0.0
 11
365.3843
 21
113.536994
 31
0.0
  0
LINE
  5
2DA
330
2D3
100
AcDbEntity
  8
LC-001-100-D00-0
 62
     7
370
    50
100
AcDbLine
 10
365.3843
 20
113.536994
 30
0.0
 11
365.3843
 21
113.536994
 31
0.0
  0
LINE
  5
2DB
330
2D3
100
AcDbEntity
  8
LC-001-100-D00-0
 62
     7
370
    50
100
AcDbLine
 10
365.3843
 20
113.536994
 30
0.0
 11
365.538237
 21
113.536994
 31
0.0
  0
LINE
  5
2DC
330
2D3
100
AcDbEntity
  8
LC-001-100-D00-0
 62
     7
370
    50
100
AcDbLine
 10
365.538237
 20
113.536994
 30
0.0
 11
365.538237
 21
113.536994
 31
0.0
  0
LINE
  5
2DD
330
2D3
100
AcDbEntity
  8
LC-001-100-D00-0
 62
     7
370
    50
100
AcDbLine
 10
365.538237
 20
113.536994
 30
0.0
 11
365.79206
 21
113.536994
 31
0.0
  0
LINE
  5
2DE
330
2D3
100
AcDbEntity
  8
LC-001-100-D00-0
 62
     7
370
    50
100
AcDbLine
 10
365.79206
 20
113.536994
 30
0.0
 11
365.79206
 21
113.536994
 31
0.0
  0
LINE
  5
2DF
330
2D3
100
AcDbEntity
  8
LC-001-100-D00-0
 62
     7
370
    50
100
AcDbLine
 10
365.79206
 20
113.536994
 30
0.0
 11
366.166177
 21
113.536994
 31
0.0
  0
LINE
  5
2E0
330
2D3
100
AcDbEntity
  8
LC-001-100-D00-0
 62
     7
370
    50
100
AcDbLine
 10
366.166177
 20
113.536994
 30
0.0
 11
366.166177
 21
113.536994
 31
0.0
  0
LINE
  5
2E1
330
2D3
100
AcDbEntity
  8
LC-001-100-D00-0
 62
     7
370
    50
100
AcDbLine
 10
366.166177
 20
113.536994
 30
0.0
 11
366.471369
 21
113.536994
 31
0.0
  0
LINE
  5
2E2
330
2D3
100
AcDbEntity
  8
LC-001-100-D00-0
 62
     7
370
    50
100
AcDbLine
 10
366.471369
 20
113.536994
 30
0.0
 11
366.471369
 21
113.536994
 31
0.0
  0
LINE
  5
2E3
330
2D3
100
AcDbEntity
  8
LC-001-100-D00-0
 62
     7
370
    50
100
AcDbLine
 10
366.471369
 20
113.536994
 30
0.0
 11
366.625859
 21
113.536994
 31
0.0
  0
ENDBLK
  5
2D5
330
2D3
100
AcDbEntity
  8
0
100
AcDbBlockEnd
  0
BLOCK
  5
2FA
330
2F9
100
AcDbEntity
  8
0
100
AcDbBlockBegin
  2
POLY27
 70
     0
 71
     0
 10
0.0
 20
0.0
 30
0.0
  3
POLY27
  1

  4
POLY27
  0
LINE
  5
2FC
330
2F9
100
AcDbEntity
  8
LC-001-100-D00-0
 62
     7
370
    50
100
AcDbLine
 10
239.437513
 20
163.936994
 30
0.0
 11
239.437513
 21
163.936994
 31
0.0
  0
LINE
  5
2FD
330
2F9
100
AcDbEntity
  8
LC-001-100-D00-0
 62
     7
370
    50
100
AcDbLine
 10
239.437513
 20
163.936994
 30
0.0
 11
239.438052
 21
163.94198
 31
0.0
  0
LINE
  5
2FE
330
2F9
100
AcDbEntity
  8
LC-001-100-D00-0
 62
     7
370
    50
100
AcDbLine
 10
239.438052
 20
163.94198
 30
0.0
 11
239.438052
 21
163.94198
 31
0.0
  0
LINE
  5
2FF
330
2F9
100
AcDbEntity
  8
LC-001-100-D00-0
 62
     7
370
    50
100
AcDbLine
 10
239.438052
 20
163.94198
 30
0.0
 11
239.471354
 21
164.250306
 31
0.0
  0
LINE
  5
300
330
2F9
100
AcDbEntity
  8
LC-001-100-D00-0
 62
     7
370
    50
100
AcDbLine
 10
239.471354
 20
164.250306
 30
0.0
 11
239.471354
 21
164.250306
 31
0.0
  0
LINE
  5
301
330
2F9
100
AcDbEntity
  8
LC-001-100-D00-0
 62
     7
370
    50
100
AcDbLine
 10
239.471354
 20
164.250306
 30
0.0
 11
239.553833
 21
164.911072
 31
0.0
  0
LINE
  5
302
330
2F9
100
AcDbEntity
  8
LC-001-100-D00-0
 62
     7
370
    50
100
AcDbLine
 10
239.553833
 20
164.911072
 30
0.0
 11
239.553833
 21
164.911072
 31
0.0
  0
LINE
  5
303
330
2F9
100
AcDbEntity
  8
LC-001-100-D00-0
 62
     7
370
    50
100
AcDbLine
 10
239.553833
 20
164.911072
 30
0.0
 11
239.753086
 21
165.850973
 31
0.0
  0
LINE
  5
304
330
2F9
100
AcDbEntity
  8
LC-001-100-D00-0
 62
     7
370
    50
100
AcDbLine
 10
239.753086
 20
165.850973
 30
0.0
 11
239.753086
 21
165.850973
 31
0.0
  0
LINE
  5
305
330
2F9
100
AcDbEntity
  8
LC-001-100-D00-0
 62
     7
370
    50
100
AcDbLine
 10
239.753086
 20
165.850973
 30
0.0
 11
240.070853
 21
166.343169
 31
0.0
  0
LINE
  5
306
330
2F9
100
AcDbEntity
  8
LC-001-100-D00-0
 62
     7
370
    50
100
AcDbLine
 10
240.070853
 20
166.343169
 30
0.0
 11
240.070853
 21
166.343169
 31
0.0
  0
LINE
  5
307
330
2F9
100
AcDbEntity
  8
LC-001-100-D00-0
 62
     7
370
    50
100
AcDbLine
 10
240.070853
 20
166.343169
 30
0.0
 11
240.225527
 21
166.582745
 31
0.0
  0
ENDBLK
  5
2FB
330
2F9
100
AcDbEntity
  8
0
100
AcDbBlockEnd
  0
BLOCK
  5
30A
330
309
100
AcDbEntity
  8
0
100
AcDbBlockBegin
  2
POLY28
 70
     0
 71
     0
 10
0.0
 20
0.0
 30
0.0
  3
POLY28
  1

  4
POLY28
  0
LINE
  5
30C
330
309
100
AcDbEntity
  8
LC-001-100-D00-0
 62
     7
370
    50
100
AcDbLine
 10
234.60953
 20
163.936994
 30
0.0
 11
234.60953
 21
163.936994
 31
0.0
  0
LINE
  5
30D
330
309
100
AcDbEntity
  8
LC-001-100-D00-0
 62
     7
370
    50
100
AcDbLine
 10
234.60953
 20
163.936994
 30
0.0
 11
234.980686
 21
164.507829
 31
0.0
  0
LINE
  5
30E
330
309
100
AcDbEntity
  8
LC-001-100-D00-0
 62
     7
370
    50
100
AcDbLine
 10
234.980686
 20
164.507829
 30
0.0
 11
234.980686
 21
164.507829
 31
0.0
  0
LINE
  5
30F
330
309
100
AcDbEntity
  8
LC-001-100-D00-0
 62
     7
370
    50
100
AcDbLine
 10
234.980686
 20
164.507829
 30
0.0
 11
235.698048
 21
165.611127
 31
0.0
  0
LINE
  5
310
330
309
100
AcDbEntity
  8
LC-001-100-D00-0
 62
     7
370
    50
100
AcDbLine
 10
235.698048
 20
165.611127
 30
0.0
 11
235.698048
 21
165.611127
 31
0.0
  0
LINE
  5
311
330
309
100
AcDbEntity
  8
LC-001-100-D00-0
 62
     7
370
    50
100
AcDbLine
 10
235.698048
 20
165.611127
 30
0.0
 11
236.61971
 21
166.862985
 31
0.0
  0
LINE
  5
312
330
309
100
AcDbEntity
  8
LC-001-100-D00-0
 62
     7
370
    50
100
AcDbLine
 10
236.61971
 20
166.862985
 30
0.0
 11
236.61971
 21
166.862985
 31
0.0
  0
LINE
  5
313
330
309
100
AcDbEntity
  8
LC-001-100-D00-0
 62
     7
370
    50
100
AcDbLine
 10
236.61971
 20
166.862985
 30
0.0
 11
237.197041
 21
167.609018
 31
0.0
  0
LINE
  5
314
330
309
100
AcDbEntity
  8
LC-001-100-D00-0
 62
     7
370
    50
100
AcDbLine
 10
237.197041
 20
167.609018
 30
0.0
 11
237.197041
 21
167.609018
 31
0.0
  0
LINE
  5
315
330
309
100
AcDbEntity
  8
LC-001-100-D00-0
 62
     7
370
    50
100
AcDbLine
 10
237.197041
 20
167.609018
 30
0.0
 11
237.433015
 21
167.904259
 31
0.0
  0
LINE
  5
316
330
309
100
AcDbEntity
  8
LC-001-100-D00-0
 62
     7
370
    50
100
AcDbLine
 10
237.433015
 20
167.904259
 30
0.0
 11
237.433015
 21
167.904259
 31
0.0
  0
LINE
  5
317
330
309
100
AcDbEntity
  8
LC-001-100-D00-0
 62
     7
370
    50
100
AcDbLine
 10
237.433015
 20
167.904259
 30
0.0
 11
237.452646
 21
167.928763
 31
0.0
  0
LINE
  5
318
330
309
100
AcDbEntity
  8
LC-001-100-D00-0
 62
     7
370
    50
100
AcDbLine
 10
237.452646
 20
167.928763
 30
0.0
 11
237.452646
 21
167.928763
 31
0.0
  0
LINE
  5
319
330
309
100
AcDbEntity
  8
LC-001-100-D00-0
 62
     7
370
    50
100
AcDbLine
 10
237.452646
 20
167.928763
 30
0.0
 11
237.45924
 21
167.936994
 31
0.0
  0
ENDBLK
  5
30B
330
309
100
AcDbEntity
  8
0
100
AcDbBlockEnd
  0
BLOCK
  5
31C
330
31B
100
AcDbEntity
  8
0
100
AcDbBlockBegin
  2
POLY29
 70
     0
 71
     0
 10
0.0
 20
0.0
 30
0.0
  3
POLY29
  1

  4
POLY29
  0
LINE
  5
31E
330
31B
100
AcDbEntity
  8
LC-001-100-D00-0
 62
     7
370
    50
100
AcDbLine
 10
241.399572
 20
167.936994
 30
0.0
 11
241.399572
 21
167.936994
 31
0.0
  0
LINE
  5
31F
330
31B
100
AcDbEntity
  8
LC-001-100-D00-0
 62
     7
370
    50
100
AcDbLine
 10
241.399572
 20
167.936994
 30
0.0
 11
241.371341
 21
167.905833
 31
0.0
  0
LINE
  5
320
330
31B
100
AcDbEntity
  8
LC-001-100-D00-0
 62
     7
370
    50
100
AcDbLine
 10
241.371341
 20
167.905833
 30
0.0
 11
241.371341
 21
167.905833
 31
0.0
  0
LINE
  5
321
330
31B
100
AcDbEntity
  8
LC-001-100-D00-0
 62
     7
370
    50
100
AcDbLine
 10
241.371341
 20
167.905833
 30
0.0
 11
241.315006
 21
167.843654
 31
0.0
  0
LINE
  5
322
330
31B
100
AcDbEntity
  8
LC-001-100-D00-0
 62
     7
370
    50
100
AcDbLine
 10
241.315006
 20
167.843654
 30
0.0
 11
241.315006
 21
167.843654
 31
0.0
  0
LINE
  5
323
330
31B
100
AcDbEntity
  8
LC-001-100-D00-0
 62
     7
370
    50
100
AcDbLine
 10
241.315006
 20
167.843654
 30
0.0
 11
240.887853
 21
167.367737
 31
0.0
  0
LINE
  5
324
330
31B
100
AcDbEntity
  8
LC-001-100-D00-0
 62
     7
370
    50
100
AcDbLine
 10
240.887853
 20
167.367737
 30
0.0
 11
240.887853
 21
167.367737
 31
0.0
  0
LINE
  5
325
330
31B
100
AcDbEntity
  8
LC-001-100-D00-0
 62
     7
370
    50
100
AcDbLine
 10
240.887853
 20
167.367737
 30
0.0
 11
240.463879
 21
166.865242
 31
0.0
  0
LINE
  5
326
330
31B
100
AcDbEntity
  8
LC-001-100-D00-0
 62
     7
370
    50
100
AcDbLine
 10
240.463879
 20
166.865242
 30
0.0
 11
240.463879
 21
166.865242
 31
0.0
  0
LINE
  5
327
330
31B
100
AcDbEntity
  8
LC-001-100-D00-0
 62
     7
370
    50
100
AcDbLine
 10
240.463879
 20
166.865242
 30
0.0
 11
240.225527
 21
166.582745
 31
0.0
  0
ENDBLK
  5
31D
330
31B
100
AcDbEntity
  8
0
100
AcDbBlockEnd
  0
BLOCK
  5
32A
330
329
100
AcDbEntity
  8
0
100
AcDbBlockBegin
  2
POLY30
 70
     0
 71
     0
 10
0.0
 20
0.0
 30
0.0
  3
POLY30
  1

  4
POLY30
  0
LINE
  5
32C
330
329
100
AcDbEntity
  8
LC-001-100-D00-0
 62
     7
370
    50
100
AcDbLine
 10
363.375296
 20
117.536994
 30
0.0
 11
363.375296
 21
117.536994
 31
0.0
  0
LINE
  5
32D
330
329
100
AcDbEntity
  8
LC-001-100-D00-0
 62
     7
370
    50
100
AcDbLine
 10
363.375296
 20
117.536994
 30
0.0
 11
363.374757
 21
117.532008
 31
0.0
  0
LINE
  5
32E
330
329
100
AcDbEntity
  8
LC-001-100-D00-0
 62
     7
370
    50
100
AcDbLine
 10
363.374757
 20
117.532008
 30
0.0
 11
363.374757
 21
117.532008
 31
0.0
  0
LINE
  5
32F
330
329
100
AcDbEntity
  8
LC-001-100-D00-0
 62
     7
370
    50
100
AcDbLine
 10
363.374757
 20
117.532008
 30
0.0
 11
363.36606
 21
117.451501
 31
0.0
  0
LINE
  5
330
330
329
100
AcDbEntity
  8
LC-001-100-D00-0
 62
     7
370
    50
100
AcDbLine
 10
363.36606
 20
117.451501
 30
0.0
 11
363.36606
 21
117.451501
 31
0.0
  0
LINE
  5
331
330
329
100
AcDbEntity
  8
LC-001-100-D00-0
 62
     7
370
    50
100
AcDbLine
 10
363.36606
 20
117.451501
 30
0.0
 11
363.34025
 21
117.219333
 31
0.0
  0
LINE
  5
332
330
329
100
AcDbEntity
  8
LC-001-100-D00-0
 62
     7
370
    50
100
AcDbLine
 10
363.34025
 20
117.219333
 30
0.0
 11
363.34025
 21
117.219333
 31
0.0
  0
LINE
  5
333
330
329
100
AcDbEntity
  8
LC-001-100-D00-0
 62
     7
370
    50
100
AcDbLine
 10
363.34025
 20
117.219333
 30
0.0
 11
363.302039
 21
116.917314
 31
0.0
  0
LINE
  5
334
330
329
100
AcDbEntity
  8
LC-001-100-D00-0
 62
     7
370
    50
100
AcDbLine
 10
363.302039
 20
116.917314
 30
0.0
 11
363.302039
 21
116.917314
 31
0.0
  0
LINE
  5
335
330
329
100
AcDbEntity
  8
LC-001-100-D00-0
 62
     7
370
    50
100
AcDbLine
 10
363.302039
 20
116.917314
 30
0.0
 11
363.253825
 21
116.609389
 31
0.0
  0
LINE
  5
336
330
329
100
AcDbEntity
  8
LC-001-100-D00-0
 62
     7
370
    50
100
AcDbLine
 10
363.253825
 20
116.609389
 30
0.0
 11
363.253825
 21
116.609389
 31
0.0
  0
LINE
  5
337
330
329
100
AcDbEntity
  8
LC-001-100-D00-0
 62
     7
370
    50
100
AcDbLine
 10
363.253825
 20
116.609389
 30
0.0
 11
363.209287
 21
116.367894
 31
0.0
  0
LINE
  5
338
330
329
100
AcDbEntity
  8
LC-001-100-D00-0
 62
     7
370
    50
100
AcDbLine
 10
363.209287
 20
116.367894
 30
0.0
 11
363.209287
 21
116.367894
 31
0.0
  0
LINE
  5
339
330
329
100
AcDbEntity
  8
LC-001-100-D00-0
 62
     7
370
    50
100
AcDbLine
 10
363.209287
 20
116.367894
 30
0.0
 11
363.154217
 21
116.120589
 31
0.0
  0
LINE
  5
33A
330
329
100
AcDbEntity
  8
LC-001-100-D00-0
 62
     7
370
    50
100
AcDbLine
 10
363.154217
 20
116.120589
 30
0.0
 11
363.154217
 21
116.120589
 31
0.0
  0
LINE
  5
33B
330
329
100
AcDbEntity
  8
LC-001-100-D00-0
 62
     7
370
    50
100
AcDbLine
 10
363.154217
 20
116.120589
 30
0.0
 11
363.088711
 21
115.879224
 31
0.0
  0
LINE
  5
33C
330
329
100
AcDbEntity
  8
LC-001-100-D00-0
 62
     7
370
    50
100
AcDbLine
 10
363.088711
 20
115.879224
 30
0.0
 11
363.088711
 21
115.879224
 31
0.0
  0
LINE
  5
33D
330
329
100
AcDbEntity
  8
LC-001-100-D00-0
 62
     7
370
    50
100
AcDbLine
 10
363.088711
 20
115.879224
 30
0.0
 11
363.013041
 21
115.652204
 31
0.0
  0
LINE
  5
33E
330
329
100
AcDbEntity
  8
LC-001-100-D00-0
 62
     7
370
    50
100
AcDbLine
 10
363.013041
 20
115.652204
 30
0.0
 11
363.013041
 21
115.652204
 31
0.0
  0
LINE
  5
33F
330
329
100
AcDbEntity
  8
LC-001-100-D00-0
 62
     7
370
    50
100
AcDbLine
 10
363.013041
 20
115.652204
 30
0.0
 11
362.927074
 21
115.441034
 31
0.0
  0
LINE
  5
340
330
329
100
AcDbEntity
  8
LC-001-100-D00-0
 62
     7
370
    50
100
AcDbLine
 10
362.927074
 20
115.441034
 30
0.0
 11
362.927074
 21
115.441034
 31
0.0
  0
LINE
  5
341
330
329
100
AcDbEntity
  8
LC-001-100-D00-0
 62
     7
370
    50
100
AcDbLine
 10
362.927074
 20
115.441034
 30
0.0
 11
362.829884
 21
115.245635
 31
0.0
  0
LINE
  5
342
330
329
100
AcDbEntity
  8
LC-001-100-D00-0
 62
     7
370
    50
100
AcDbLine
 10
362.829884
 20
115.245635
 30
0.0
 11
362.829884
 21
115.245635
 31
0.0
  0
LINE
  5
343
330
329
100
AcDbEntity
  8
LC-001-100-D00-0
 62
     7
370
    50
100
AcDbLine
 10
362.829884
 20
115.245635
 30
0.0
 11
362.718829
 21
115.059979
 31
0.0
  0
LINE
  5
344
330
329
100
AcDbEntity
  8
LC-001-100-D00-0
 62
     7
370
    50
100
AcDbLine
 10
362.718829
 20
115.059979
 30
0.0
 11
362.718829
 21
115.059979
 31
0.0
  0
LINE
  5
345
330
329
100
AcDbEntity
  8
LC-001-100-D00-0
 62
     7
370
    50
100
AcDbLine
 10
362.718829
 20
115.059979
 30
0.0
 11
362.631232
 21
114.947618
 31
0.0
  0
LINE
  5
346
330
329
100
AcDbEntity
  8
LC-001-100-D00-0
 62
     7
370
    50
100
AcDbLine
 10
362.631232
 20
114.947618
 30
0.0
 11
362.631232
 21
114.947618
 31
0.0
  0
LINE
  5
347
330
329
100
AcDbEntity
  8
LC-001-100-D00-0
 62
     7
370
    50
100
AcDbLine
 10
362.631232
 20
114.947618
 30
0.0
 11
362.587282
 21
114.891243
 31
0.0
  0
ENDBLK
  5
32B
330
329
100
AcDbEntity
  8
0
100
AcDbBlockEnd
  0
BLOCK
  5
34A
330
349
100
AcDbEntity
  8
0
100
AcDbBlockBegin
  2
POLY31
 70
     0
 71
     0
 10
0.0
 20
0.0
 30
0.0
  3
POLY31
  1

  4
POLY31
  0
LINE
  5
34C
330
349
100
AcDbEntity
  8
LC-001-100-D00-0
 62
     7
370
    50
100
AcDbLine
 10
368.203279
 20
117.536994
 30
0.0
 11
368.203279
 21
117.536994
 31
0.0
  0
LINE
  5
34D
330
349
100
AcDbEntity
  8
LC-001-100-D00-0
 62
     7
370
    50
100
AcDbLine
 10
368.203279
 20
117.536994
 30
0.0
 11
368.158654
 21
117.466488
 31
0.0
  0
LINE
  5
34E
330
349
100
AcDbEntity
  8
LC-001-100-D00-0
 62
     7
370
    50
100
AcDbLine
 10
368.158654
 20
117.466488
 30
0.0
 11
368.158654
 21
117.466488
 31
0.0
  0
LINE
  5
34F
330
349
100
AcDbEntity
  8
LC-001-100-D00-0
 62
     7
370
    50
100
AcDbLine
 10
368.158654
 20
117.466488
 30
0.0
 11
368.024207
 21
117.254067
 31
0.0
  0
LINE
  5
350
330
349
100
AcDbEntity
  8
LC-001-100-D00-0
 62
     7
370
    50
100
AcDbLine
 10
368.024207
 20
117.254067
 30
0.0
 11
368.024207
 21
117.254067
 31
0.0
  0
LINE
  5
351
330
349
100
AcDbEntity
  8
LC-001-100-D00-0
 62
     7
370
    50
100
AcDbLine
 10
368.024207
 20
117.254067
 30
0.0
 11
367.795623
 21
116.900988
 31
0.0
  0
LINE
  5
352
330
349
100
AcDbEntity
  8
LC-001-100-D00-0
 62
     7
370
    50
100
AcDbLine
 10
367.795623
 20
116.900988
 30
0.0
 11
367.795623
 21
116.900988
 31
0.0
  0
LINE
  5
353
330
349
100
AcDbEntity
  8
LC-001-100-D00-0
 62
     7
370
    50
100
AcDbLine
 10
367.795623
 20
116.900988
 30
0.0
 11
367.51735
 21
116.481375
 31
0.0
  0
LINE
  5
354
330
349
100
AcDbEntity
  8
LC-001-100-D00-0
 62
     7
370
    50
100
AcDbLine
 10
367.51735
 20
116.481375
 30
0.0
 11
367.51735
 21
116.481375
 31
0.0
  0
LINE
  5
355
330
349
100
AcDbEntity
  8
LC-001-100-D00-0
 62
     7
370
    50
100
AcDbLine
 10
367.51735
 20
116.481375
 30
0.0
 11
367.283807
 21
116.138028
 31
0.0
  0
LINE
  5
356
330
349
100
AcDbEntity
  8
LC-001-100-D00-0
 62
     7
370
    50
100
AcDbLine
 10
367.283807
 20
116.138028
 30
0.0
 11
367.283807
 21
116.138028
 31
0.0
  0
LINE
  5
357
330
349
100
AcDbEntity
  8
LC-001-100-D00-0
 62
     7
370
    50
100
AcDbLine
 10
367.283807
 20
116.138028
 30
0.0
 11
367.102377
 21
115.876073
 31
0.0
  0
LINE
  5
358
330
349
100
AcDbEntity
  8
LC-001-100-D00-0
 62
     7
370
    50
100
AcDbLine
 10
367.102377
 20
115.876073
 30
0.0
 11
367.102377
 21
115.876073
 31
0.0
  0
LINE
  5
359
330
349
100
AcDbEntity
  8
LC-001-100-D00-0
 62
     7
370
    50
100
AcDbLine
 10
367.102377
 20
115.876073
 30
0.0
 11
366.931119
 21
115.631594
 31
0.0
  0
LINE
  5
35A
330
349
100
AcDbEntity
  8
LC-001-100-D00-0
 62
     7
370
    50
100
AcDbLine
 10
366.931119
 20
115.631594
 30
0.0
 11
366.931119
 21
115.631594
 31
0.0
  0
LINE
  5
35B
330
349
100
AcDbEntity
  8
LC-001-100-D00-0
 62
     7
370
    50
100
AcDbLine
 10
366.931119
 20
115.631594
 30
0.0
 11
366.724916
 21
115.341892
 31
0.0
  0
LINE
  5
35C
330
349
100
AcDbEntity
  8
LC-001-100-D00-0
 62
     7
370
    50
100
AcDbLine
 10
366.724916
 20
115.341892
 30
0.0
 11
366.724916
 21
115.341892
 31
0.0
  0
LINE
  5
35D
330
349
100
AcDbEntity
  8
LC-001-100-D00-0
 62
     7
370
    50
100
AcDbLine
 10
366.724916
 20
115.341892
 30
0.0
 11
366.483354
 21
115.009351
 31
0.0
  0
LINE
  5
35E
330
349
100
AcDbEntity
  8
LC-001-100-D00-0
 62
     7
370
    50
100
AcDbLine
 10
366.483354
 20
115.009351
 30
0.0
 11
366.483354
 21
115.009351
 31
0.0
  0
LINE
  5
35F
330
349
100
AcDbEntity
  8
LC-001-100-D00-0
 62
     7
370
    50
100
AcDbLine
 10
366.483354
 20
115.009351
 30
0.0
 11
366.289727
 21
114.747933
 31
0.0
  0
LINE
  5
360
330
349
100
AcDbEntity
  8
LC-001-100-D00-0
 62
     7
370
    50
100
AcDbLine
 10
366.289727
 20
114.747933
 30
0.0
 11
366.289727
 21
114.747933
 31
0.0
  0
LINE
  5
361
330
349
100
AcDbEntity
  8
LC-001-100-D00-0
 62
     7
370
    50
100
AcDbLine
 10
366.289727
 20
114.747933
 30
0.0
 11
366.128392
 21
114.533005
 31
0.0
  0
LINE
  5
362
330
349
100
AcDbEntity
  8
LC-001-100-D00-0
 62
     7
370
    50
100
AcDbLine
 10
366.128392
 20
114.533005
 30
0.0
 11
366.128392
 21
114.533005
 31
0.0
  0
LINE
  5
363
330
349
100
AcDbEntity
  8
LC-001-100-D00-0
 62
     7
370
    50
100
AcDbLine
 10
366.128392
 20
114.533005
 30
0.0
 11
365.996817
 21
114.359523
 31
0.0
  0
LINE
  5
364
330
349
100
AcDbEntity
  8
LC-001-100-D00-0
 62
     7
370
    50
100
AcDbLine
 10
365.996817
 20
114.359523
 30
0.0
 11
365.996817
 21
114.359523
 31
0.0
  0
LINE
  5
365
330
349
100
AcDbEntity
  8
LC-001-100-D00-0
 62
     7
370
    50
100
AcDbLine
 10
365.996817
 20
114.359523
 30
0.0
 11
365.861514
 21
114.183075
 31
0.0
  0
LINE
  5
366
330
349
100
AcDbEntity
  8
LC-001-100-D00-0
 62
     7
370
    50
100
AcDbLine
 10
365.861514
 20
114.183075
 30
0.0
 11
365.861514
 21
114.183075
 31
0.0
  0
LINE
  5
367
330
349
100
AcDbEntity
  8
LC-001-100-D00-0
 62
     7
370
    50
100
AcDbLine
 10
365.861514
 20
114.183075
 30
0.0
 11
365.736785
 21
114.022064
 31
0.0
  0
LINE
  5
368
330
349
100
AcDbEntity
  8
LC-001-100-D00-0
 62
     7
370
    50
100
AcDbLine
 10
365.736785
 20
114.022064
 30
0.0
 11
365.736785
 21
114.022064
 31
0.0
  0
LINE
  5
369
330
349
100
AcDbEntity
  8
LC-001-100-D00-0
 62
     7
370
    50
100
AcDbLine
 10
365.736785
 20
114.022064
 30
0.0
 11
365.600916
 21
113.848287
 31
0.0
  0
LINE
  5
36A
330
349
100
AcDbEntity
  8
LC-001-100-D00-0
 62
     7
370
    50
100
AcDbLine
 10
365.600916
 20
113.848287
 30
0.0
 11
365.600916
 21
113.848287
 31
0.0
  0
LINE
  5
36B
330
349
100
AcDbEntity
  8
LC-001-100-D00-0
 62
     7
370
    50
100
AcDbLine
 10
365.600916
 20
113.848287
 30
0.0
 11
365.471805
 21
113.684971
 31
0.0
  0
LINE
  5
36C
330
349
100
AcDbEntity
  8
LC-001-100-D00-0
 62
     7
370
    50
100
AcDbLine
 10
365.471805
 20
113.684971
 30
0.0
 11
365.471805
 21
113.684971
 31
0.0
  0
LINE
  5
36D
330
349
100
AcDbEntity
  8
LC-001-100-D00-0
 62
     7
370
    50
100
AcDbLine
 10
365.471805
 20
113.684971
 30
0.0
 11
365.372596
 21
113.560711
 31
0.0
  0
LINE
  5
36E
330
349
100
AcDbEntity
  8
LC-001-100-D00-0
 62
     7
370
    50
100
AcDbLine
 10
365.372596
 20
113.560711
 30
0.0
 11
365.372596
 21
113.560711
 31
0.0
  0
LINE
  5
36F
330
349
100
AcDbEntity
  8
LC-001-100-D00-0
 62
     7
370
    50
100
AcDbLine
 10
365.372596
 20
113.560711
 30
0.0
 11
365.359911
 21
113.544899
 31
0.0
  0
LINE
  5
370
330
349
100
AcDbEntity
  8
LC-001-100-D00-0
 62
     7
370
    50
100
AcDbLine
 10
365.359911
 20
113.544899
 30
0.0
 11
365.359911
 21
113.544899
 31
0.0
  0
LINE
  5
371
330
349
100
AcDbEntity
  8
LC-001-100-D00-0
 62
     7
370
    50
100
AcDbLine
 10
365.359911
 20
113.544899
 30
0.0
 11
365.353569
 21
113.536994
 31
0.0
  0
ENDBLK
  5
34B
330
349
100
AcDbEntity
  8
0
100
AcDbBlockEnd
  0
BLOCK
  5
374
330
373
100
AcDbEntity
  8
0
100
AcDbBlockBegin
  2
POLY32
 70
     0
 71
     0
 10
0.0
 20
0.0
 30
0.0
  3
POLY32
  1

  4
POLY32
  0
LINE
  5
376
330
373
100
AcDbEntity
  8
LC-001-100-D00-0
 62
     7
370
    50
100
AcDbLine
 10
361.413237
 20
113.536994
 30
0.0
 11
361.413237
 21
113.536994
 31
0.0
  0
LINE
  5
377
330
373
100
AcDbEntity
  8
LC-001-100-D00-0
 62
     7
370
    50
100
AcDbLine
 10
361.413237
 20
113.536994
 30
0.0
 11
361.441469
 21
113.568155
 31
0.0
  0
LINE
  5
378
330
373
100
AcDbEntity
  8
LC-001-100-D00-0
 62
     7
370
    50
100
AcDbLine
 10
361.441469
 20
113.568155
 30
0.0
 11
361.441469
 21
113.568155
 31
0.0
  0
LINE
  5
379
330
373
100
AcDbEntity
  8
LC-001-100-D00-0
 62
     7
370
    50
100
AcDbLine
 10
361.441469
 20
113.568155
 30
0.0
 11
361.497803
 21
113.630334
 31
0.0
  0
LINE
  5
37A
330
373
100
AcDbEntity
  8
LC-001-100-D00-0
 62
     7
370
    50
100
AcDbLine
 10
361.497803
 20
113.630334
 30
0.0
 11
361.497803
 21
113.630334
 31
0.0
  0
LINE
  5
37B
330
373
100
AcDbEntity
  8
LC-001-100-D00-0
 62
     7
370
    50
100
AcDbLine
 10
361.497803
 20
113.630334
 30
0.0
 11
361.924956
 21
114.106251
 31
0.0
  0
LINE
  5
37C
330
373
100
AcDbEntity
  8
LC-001-100-D00-0
 62
     7
370
    50
100
AcDbLine
 10
361.924956
 20
114.106251
 30
0.0
 11
361.924956
 21
114.106251
 31
0.0
  0
LINE
  5
37D
330
373
100
AcDbEntity
  8
LC-001-100-D00-0
 62
     7
370
    50
100
AcDbLine
 10
361.924956
 20
114.106251
 30
0.0
 11
362.34893
 21
114.608747
 31
0.0
  0
LINE
  5
37E
330
373
100
AcDbEntity
  8
LC-001-100-D00-0
 62
     7
370
    50
100
AcDbLine
 10
362.34893
 20
114.608747
 30
0.0
 11
362.34893
 21
114.608747
 31
0.0
  0
LINE
  5
37F
330
373
100
AcDbEntity
  8
LC-001-100-D00-0
 62
     7
370
    50
100
AcDbLine
 10
362.34893
 20
114.608747
 30
0.0
 11
362.587282
 21
114.891243
 31
0.0
  0
ENDBLK
  5
375
330
373
100
AcDbEntity
  8
0
100
AcDbBlockEnd
  0
BLOCK
  5
382
330
381
100
AcDbEntity
  8
0
100
AcDbBlockBegin
  2
POLY33
 70
     0
 71
     0
 10
0.0
 20
0.0
 30
0.0
  3
POLY33
  1

  4
POLY33
  0
LINE
  5
384
330
381
100
AcDbEntity
  8
LC-001-100-D00-0
 62
     7
370
    50
100
AcDbLine
 10
362.587282
 20
166.582745
 30
0.0
 11
362.587282
 21
166.582745
 31
0.0
  0
LINE
  5
385
330
381
100
AcDbEntity
  8
LC-001-100-D00-0
 62
     7
370
    50
100
AcDbLine
 10
362.587282
 20
166.582745
 30
0.0
 11
362.62988
 21
166.528209
 31
0.0
  0
LINE
  5
386
330
381
100
AcDbEntity
  8
LC-001-100-D00-0
 62
     7
370
    50
100
AcDbLine
 10
362.62988
 20
166.528209
 30
0.0
 11
362.62988
 21
166.528209
 31
0.0
  0
LINE
  5
387
330
381
100
AcDbEntity
  8
LC-001-100-D00-0
 62
     7
370
    50
100
AcDbLine
 10
362.62988
 20
166.528209
 30
0.0
 11
362.715361
 21
166.418768
 31
0.0
  0
LINE
  5
388
330
381
100
AcDbEntity
  8
LC-001-100-D00-0
 62
     7
370
    50
100
AcDbLine
 10
362.715361
 20
166.418768
 30
0.0
 11
362.715361
 21
166.418768
 31
0.0
  0
LINE
  5
389
330
381
100
AcDbEntity
  8
LC-001-100-D00-0
 62
     7
370
    50
100
AcDbLine
 10
362.715361
 20
166.418768
 30
0.0
 11
362.825884
 21
166.235644
 31
0.0
  0
LINE
  5
38A
330
381
100
AcDbEntity
  8
LC-001-100-D00-0
 62
     7
370
    50
100
AcDbLine
 10
362.825884
 20
166.235644
 30
0.0
 11
362.825884
 21
166.235644
 31
0.0
  0
LINE
  5
38B
330
381
100
AcDbEntity
  8
LC-001-100-D00-0
 62
     7
370
    50
100
AcDbLine
 10
362.825884
 20
166.235644
 30
0.0
 11
362.924677
 21
166.038627
 31
0.0
  0
LINE
  5
38C
330
381
100
AcDbEntity
  8
LC-001-100-D00-0
 62
     7
370
    50
100
AcDbLine
 10
362.924677
 20
166.038627
 30
0.0
 11
362.924677
 21
166.038627
 31
0.0
  0
LINE
  5
38D
330
381
100
AcDbEntity
  8
LC-001-100-D00-0
 62
     7
370
    50
100
AcDbLine
 10
362.924677
 20
166.038627
 30
0.0
 11
363.011447
 21
165.826109
 31
0.0
  0
LINE
  5
38E
330
381
100
AcDbEntity
  8
LC-001-100-D00-0
 62
     7
370
    50
100
AcDbLine
 10
363.011447
 20
165.826109
 30
0.0
 11
363.011447
 21
165.826109
 31
0.0
  0
LINE
  5
38F
330
381
100
AcDbEntity
  8
LC-001-100-D00-0
 62
     7
370
    50
100
AcDbLine
 10
363.011447
 20
165.826109
 30
0.0
 11
363.086932
 21
165.600328
 31
0.0
  0
LINE
  5
390
330
381
100
AcDbEntity
  8
LC-001-100-D00-0
 62
     7
370
    50
100
AcDbLine
 10
363.086932
 20
165.600328
 30
0.0
 11
363.086932
 21
165.600328
 31
0.0
  0
LINE
  5
391
330
381
100
AcDbEntity
  8
LC-001-100-D00-0
 62
     7
370
    50
100
AcDbLine
 10
363.086932
 20
165.600328
 30
0.0
 11
363.152235
 21
165.361467
 31
0.0
  0
LINE
  5
392
330
381
100
AcDbEntity
  8
LC-001-100-D00-0
 62
     7
370
    50
100
AcDbLine
 10
363.152235
 20
165.361467
 30
0.0
 11
363.152235
 21
165.361467
 31
0.0
  0
LINE
  5
393
330
381
100
AcDbEntity
  8
LC-001-100-D00-0
 62
     7
370
    50
100
AcDbLine
 10
363.152235
 20
165.361467
 30
0.0
 11
363.208139
 21
165.112116
 31
0.0
  0
LINE
  5
394
330
381
100
AcDbEntity
  8
LC-001-100-D00-0
 62
     7
370
    50
100
AcDbLine
 10
363.208139
 20
165.112116
 30
0.0
 11
363.208139
 21
165.112116
 31
0.0
  0
LINE
  5
395
330
381
100
AcDbEntity
  8
LC-001-100-D00-0
 62
     7
370
    50
100
AcDbLine
 10
363.208139
 20
165.112116
 30
0.0
 11
363.253258
 21
164.86803
 31
0.0
  0
LINE
  5
396
330
381
100
AcDbEntity
  8
LC-001-100-D00-0
 62
     7
370
    50
100
AcDbLine
 10
363.253258
 20
164.86803
 30
0.0
 11
363.253258
 21
164.86803
 31
0.0
  0
LINE
  5
397
330
381
100
AcDbEntity
  8
LC-001-100-D00-0
 62
     7
370
    50
100
AcDbLine
 10
363.253258
 20
164.86803
 30
0.0
 11
363.30172
 21
164.558886
 31
0.0
  0
LINE
  5
398
330
381
100
AcDbEntity
  8
LC-001-100-D00-0
 62
     7
370
    50
100
AcDbLine
 10
363.30172
 20
164.558886
 30
0.0
 11
363.30172
 21
164.558886
 31
0.0
  0
LINE
  5
399
330
381
100
AcDbEntity
  8
LC-001-100-D00-0
 62
     7
370
    50
100
AcDbLine
 10
363.30172
 20
164.558886
 30
0.0
 11
363.339994
 21
164.256904
 31
0.0
  0
LINE
  5
39A
330
381
100
AcDbEntity
  8
LC-001-100-D00-0
 62
     7
370
    50
100
AcDbLine
 10
363.339994
 20
164.256904
 30
0.0
 11
363.339994
 21
164.256904
 31
0.0
  0
LINE
  5
39B
330
381
100
AcDbEntity
  8
LC-001-100-D00-0
 62
     7
370
    50
100
AcDbLine
 10
363.339994
 20
164.256904
 30
0.0
 11
363.365939
 21
164.023606
 31
0.0
  0
LINE
  5
39C
330
381
100
AcDbEntity
  8
LC-001-100-D00-0
 62
     7
370
    50
100
AcDbLine
 10
363.365939
 20
164.023606
 30
0.0
 11
363.365939
 21
164.023606
 31
0.0
  0
LINE
  5
39D
330
381
100
AcDbEntity
  8
LC-001-100-D00-0
 62
     7
370
    50
100
AcDbLine
 10
363.365939
 20
164.023606
 30
0.0
 11
363.374757
 21
163.94198
 31
0.0
  0
LINE
  5
39E
330
381
100
AcDbEntity
  8
LC-001-100-D00-0
 62
     7
370
    50
100
AcDbLine
 10
363.374757
 20
163.94198
 30
0.0
 11
363.374757
 21
163.94198
 31
0.0
  0
LINE
  5
39F
330
381
100
AcDbEntity
  8
LC-001-100-D00-0
 62
     7
370
    50
100
AcDbLine
 10
363.374757
 20
163.94198
 30
0.0
 11
363.375296
 21
163.936994
 31
0.0
  0
ENDBLK
  5
383
330
381
100
AcDbEntity
  8
0
100
AcDbBlockEnd
  0
BLOCK
  5
3A2
330
3A1
100
AcDbEntity
  8
0
100
AcDbBlockBegin
  2
POLY34
 70
     0
 71
     0
 10
0.0
 20
0.0
 30
0.0
  3
POLY34
  1

  4
POLY34
  0
LINE
  5
3A4
330
3A1
100
AcDbEntity
  8
LC-001-100-D00-0
 62
     7
370
    50
100
AcDbLine
 10
365.353569
 20
167.936994
 30
0.0
 11
365.353569
 21
167.936994
 31
0.0
  0
LINE
  5
3A5
330
3A1
100
AcDbEntity
  8
LC-001-100-D00-0
 62
     7
370
    50
100
AcDbLine
 10
365.353569
 20
167.936994
 30
0.0
 11
365.359856
 21
167.929158
 31
0.0
  0
LINE
  5
3A6
330
3A1
100
AcDbEntity
  8
LC-001-100-D00-0
 62
     7
370
    50
100
AcDbLine
 10
365.359856
 20
167.929158
 30
0.0
 11
365.359856
 21
167.929158
 31
0.0
  0
LINE
  5
3A7
330
3A1
100
AcDbEntity
  8
LC-001-100-D00-0
 62
     7
370
    50
100
AcDbLine
 10
365.359856
 20
167.929158
 30
0.0
 11
365.372532
 21
167.913357
 31
0.0
  0
LINE
  5
3A8
330
3A1
100
AcDbEntity
  8
LC-001-100-D00-0
 62
     7
370
    50
100
AcDbLine
 10
365.372532
 20
167.913357
 30
0.0
 11
365.372532
 21
167.913357
 31
0.0
  0
LINE
  5
3A9
330
3A1
100
AcDbEntity
  8
LC-001-100-D00-0
 62
     7
370
    50
100
AcDbLine
 10
365.372532
 20
167.913357
 30
0.0
 11
365.472338
 21
167.788352
 31
0.0
  0
LINE
  5
3AA
330
3A1
100
AcDbEntity
  8
LC-001-100-D00-0
 62
     7
370
    50
100
AcDbLine
 10
365.472338
 20
167.788352
 30
0.0
 11
365.472338
 21
167.788352
 31
0.0
  0
LINE
  5
3AB
330
3A1
100
AcDbEntity
  8
LC-001-100-D00-0
 62
     7
370
    50
100
AcDbLine
 10
365.472338
 20
167.788352
 30
0.0
 11
365.623412
 21
167.597239
 31
0.0
  0
LINE
  5
3AC
330
3A1
100
AcDbEntity
  8
LC-001-100-D00-0
 62
     7
370
    50
100
AcDbLine
 10
365.623412
 20
167.597239
 30
0.0
 11
365.623412
 21
167.597239
 31
0.0
  0
LINE
  5
3AD
330
3A1
100
AcDbEntity
  8
LC-001-100-D00-0
 62
     7
370
    50
100
AcDbLine
 10
365.623412
 20
167.597239
 30
0.0
 11
365.790553
 21
167.382941
 31
0.0
  0
LINE
  5
3AE
330
3A1
100
AcDbEntity
  8
LC-001-100-D00-0
 62
     7
370
    50
100
AcDbLine
 10
365.790553
 20
167.382941
 30
0.0
 11
365.790553
 21
167.382941
 31
0.0
  0
LINE
  5
3AF
330
3A1
100
AcDbEntity
  8
LC-001-100-D00-0
 62
     7
370
    50
100
AcDbLine
 10
365.790553
 20
167.382941
 30
0.0
 11
365.946863
 21
167.179782
 31
0.0
  0
LINE
  5
3B0
330
3A1
100
AcDbEntity
  8
LC-001-100-D00-0
 62
     7
370
    50
100
AcDbLine
 10
365.946863
 20
167.179782
 30
0.0
 11
365.946863
 21
167.179782
 31
0.0
  0
LINE
  5
3B1
330
3A1
100
AcDbEntity
  8
LC-001-100-D00-0
 62
     7
370
    50
100
AcDbLine
 10
365.946863
 20
167.179782
 30
0.0
 11
366.077841
 21
167.007857
 31
0.0
  0
LINE
  5
3B2
330
3A1
100
AcDbEntity
  8
LC-001-100-D00-0
 62
     7
370
    50
100
AcDbLine
 10
366.077841
 20
167.007857
 30
0.0
 11
366.077841
 21
167.007857
 31
0.0
  0
LINE
  5
3B3
330
3A1
100
AcDbEntity
  8
LC-001-100-D00-0
 62
     7
370
    50
100
AcDbLine
 10
366.077841
 20
167.007857
 30
0.0
 11
366.217741
 21
166.82224
 31
0.0
  0
LINE
  5
3B4
330
3A1
100
AcDbEntity
  8
LC-001-100-D00-0
 62
     7
370
    50
100
AcDbLine
 10
366.217741
 20
166.82224
 30
0.0
 11
366.217741
 21
166.82224
 31
0.0
  0
LINE
  5
3B5
330
3A1
100
AcDbEntity
  8
LC-001-100-D00-0
 62
     7
370
    50
100
AcDbLine
 10
366.217741
 20
166.82224
 30
0.0
 11
366.374342
 21
166.612058
 31
0.0
  0
LINE
  5
3B6
330
3A1
100
AcDbEntity
  8
LC-001-100-D00-0
 62
     7
370
    50
100
AcDbLine
 10
366.374342
 20
166.612058
 30
0.0
 11
366.374342
 21
166.612058
 31
0.0
  0
LINE
  5
3B7
330
3A1
100
AcDbEntity
  8
LC-001-100-D00-0
 62
     7
370
    50
100
AcDbLine
 10
366.374342
 20
166.612058
 30
0.0
 11
366.547909
 21
166.37599
 31
0.0
  0
LINE
  5
3B8
330
3A1
100
AcDbEntity
  8
LC-001-100-D00-0
 62
     7
370
    50
100
AcDbLine
 10
366.547909
 20
166.37599
 30
0.0
 11
366.547909
 21
166.37599
 31
0.0
  0
LINE
  5
3B9
330
3A1
100
AcDbEntity
  8
LC-001-100-D00-0
 62
     7
370
    50
100
AcDbLine
 10
366.547909
 20
166.37599
 30
0.0
 11
366.738732
 21
166.112448
 31
0.0
  0
LINE
  5
3BA
330
3A1
100
AcDbEntity
  8
LC-001-100-D00-0
 62
     7
370
    50
100
AcDbLine
 10
366.738732
 20
166.112448
 30
0.0
 11
366.738732
 21
166.112448
 31
0.0
  0
LINE
  5
3BB
330
3A1
100
AcDbEntity
  8
LC-001-100-D00-0
 62
     7
370
    50
100
AcDbLine
 10
366.738732
 20
166.112448
 30
0.0
 11
366.936337
 21
165.835087
 31
0.0
  0
LINE
  5
3BC
330
3A1
100
AcDbEntity
  8
LC-001-100-D00-0
 62
     7
370
    50
100
AcDbLine
 10
366.936337
 20
165.835087
 30
0.0
 11
366.936337
 21
165.835087
 31
0.0
  0
LINE
  5
3BD
330
3A1
100
AcDbEntity
  8
LC-001-100-D00-0
 62
     7
370
    50
100
AcDbLine
 10
366.936337
 20
165.835087
 30
0.0
 11
367.114574
 21
165.580623
 31
0.0
  0
LINE
  5
3BE
330
3A1
100
AcDbEntity
  8
LC-001-100-D00-0
 62
     7
370
    50
100
AcDbLine
 10
367.114574
 20
165.580623
 30
0.0
 11
367.114574
 21
165.580623
 31
0.0
  0
LINE
  5
3BF
330
3A1
100
AcDbEntity
  8
LC-001-100-D00-0
 62
     7
370
    50
100
AcDbLine
 10
367.114574
 20
165.580623
 30
0.0
 11
367.314098
 21
165.291614
 31
0.0
  0
LINE
  5
3C0
330
3A1
100
AcDbEntity
  8
LC-001-100-D00-0
 62
     7
370
    50
100
AcDbLine
 10
367.314098
 20
165.291614
 30
0.0
 11
367.314098
 21
165.291614
 31
0.0
  0
LINE
  5
3C1
330
3A1
100
AcDbEntity
  8
LC-001-100-D00-0
 62
     7
370
    50
100
AcDbLine
 10
367.314098
 20
165.291614
 30
0.0
 11
367.535432
 21
164.965508
 31
0.0
  0
LINE
  5
3C2
330
3A1
100
AcDbEntity
  8
LC-001-100-D00-0
 62
     7
370
    50
100
AcDbLine
 10
367.535432
 20
164.965508
 30
0.0
 11
367.535432
 21
164.965508
 31
0.0
  0
LINE
  5
3C3
330
3A1
100
AcDbEntity
  8
LC-001-100-D00-0
 62
     7
370
    50
100
AcDbLine
 10
367.535432
 20
164.965508
 30
0.0
 11
367.803046
 21
164.561572
 31
0.0
  0
LINE
  5
3C4
330
3A1
100
AcDbEntity
  8
LC-001-100-D00-0
 62
     7
370
    50
100
AcDbLine
 10
367.803046
 20
164.561572
 30
0.0
 11
367.803046
 21
164.561572
 31
0.0
  0
LINE
  5
3C5
330
3A1
100
AcDbEntity
  8
LC-001-100-D00-0
 62
     7
370
    50
100
AcDbLine
 10
367.803046
 20
164.561572
 30
0.0
 11
368.026263
 21
164.21668
 31
0.0
  0
LINE
  5
3C6
330
3A1
100
AcDbEntity
  8
LC-001-100-D00-0
 62
     7
370
    50
100
AcDbLine
 10
368.026263
 20
164.21668
 30
0.0
 11
368.026263
 21
164.21668
 31
0.0
  0
LINE
  5
3C7
330
3A1
100
AcDbEntity
  8
LC-001-100-D00-0
 62
     7
370
    50
100
AcDbLine
 10
368.026263
 20
164.21668
 30
0.0
 11
368.158918
 21
164.007085
 31
0.0
  0
LINE
  5
3C8
330
3A1
100
AcDbEntity
  8
LC-001-100-D00-0
 62
     7
370
    50
100
AcDbLine
 10
368.158918
 20
164.007085
 30
0.0
 11
368.158918
 21
164.007085
 31
0.0
  0
LINE
  5
3C9
330
3A1
100
AcDbEntity
  8
LC-001-100-D00-0
 62
     7
370
    50
100
AcDbLine
 10
368.158918
 20
164.007085
 30
0.0
 11
368.203279
 21
163.936994
 31
0.0
  0
ENDBLK
  5
3A3
330
3A1
100
AcDbEntity
  8
0
100
AcDbBlockEnd
  0
BLOCK
  5
3CC
330
3CB
100
AcDbEntity
  8
0
100
AcDbBlockBegin
  2
POLY35
 70
     0
 71
     0
 10
0.0
 20
0.0
 30
0.0
  3
POLY35
  1

  4
POLY35
  0
LINE
  5
3CE
330
3CB
100
AcDbEntity
  8
LC-001-100-D00-0
 62
     7
370
    50
100
AcDbLine
 10
362.587282
 20
166.582745
 30
0.0
 11
362.587282
 21
166.582745
 31
0.0
  0
LINE
  5
3CF
330
3CB
100
AcDbEntity
  8
LC-001-100-D00-0
 62
     7
370
    50
100
AcDbLine
 10
362.587282
 20
166.582745
 30
0.0
 11
362.539039
 21
166.640752
 31
0.0
  0
LINE
  5
3D0
330
3CB
100
AcDbEntity
  8
LC-001-100-D00-0
 62
     7
370
    50
100
AcDbLine
 10
362.539039
 20
166.640752
 30
0.0
 11
362.539039
 21
166.640752
 31
0.0
  0
LINE
  5
3D1
330
3CB
100
AcDbEntity
  8
LC-001-100-D00-0
 62
     7
370
    50
100
AcDbLine
 10
362.539039
 20
166.640752
 30
0.0
 11
362.442407
 21
166.75694
 31
0.0
  0
LINE
  5
3D2
330
3CB
100
AcDbEntity
  8
LC-001-100-D00-0
 62
     7
370
    50
100
AcDbLine
 10
362.442407
 20
166.75694
 30
0.0
 11
362.442407
 21
166.75694
 31
0.0
  0
LINE
  5
3D3
330
3CB
100
AcDbEntity
  8
LC-001-100-D00-0
 62
     7
370
    50
100
AcDbLine
 10
362.442407
 20
166.75694
 30
0.0
 11
362.294677
 21
166.93205
 31
0.0
  0
LINE
  5
3D4
330
3CB
100
AcDbEntity
  8
LC-001-100-D00-0
 62
     7
370
    50
100
AcDbLine
 10
362.294677
 20
166.93205
 30
0.0
 11
362.294677
 21
166.93205
 31
0.0
  0
LINE
  5
3D5
330
3CB
100
AcDbEntity
  8
LC-001-100-D00-0
 62
     7
370
    50
100
AcDbLine
 10
362.294677
 20
166.93205
 30
0.0
 11
362.144579
 21
167.108072
 31
0.0
  0
LINE
  5
3D6
330
3CB
100
AcDbEntity
  8
LC-001-100-D00-0
 62
     7
370
    50
100
AcDbLine
 10
362.144579
 20
167.108072
 30
0.0
 11
362.144579
 21
167.108072
 31
0.0
  0
LINE
  5
3D7
330
3CB
100
AcDbEntity
  8
LC-001-100-D00-0
 62
     7
370
    50
100
AcDbLine
 10
362.144579
 20
167.108072
 30
0.0
 11
361.994968
 21
167.281407
 31
0.0
  0
LINE
  5
3D8
330
3CB
100
AcDbEntity
  8
LC-001-100-D00-0
 62
     7
370
    50
100
AcDbLine
 10
361.994968
 20
167.281407
 30
0.0
 11
361.994968
 21
167.281407
 31
0.0
  0
LINE
  5
3D9
330
3CB
100
AcDbEntity
  8
LC-001-100-D00-0
 62
     7
370
    50
100
AcDbLine
 10
361.994968
 20
167.281407
 30
0.0
 11
361.856028
 21
167.440626
 31
0.0
  0
LINE
  5
3DA
330
3CB
100
AcDbEntity
  8
LC-001-100-D00-0
 62
     7
370
    50
100
AcDbLine
 10
361.856028
 20
167.440626
 30
0.0
 11
361.856028
 21
167.440626
 31
0.0
  0
LINE
  5
3DB
330
3CB
100
AcDbEntity
  8
LC-001-100-D00-0
 62
     7
370
    50
100
AcDbLine
 10
361.856028
 20
167.440626
 30
0.0
 11
361.739202
 21
167.573159
 31
0.0
  0
LINE
  5
3DC
330
3CB
100
AcDbEntity
  8
LC-001-100-D00-0
 62
     7
370
    50
100
AcDbLine
 10
361.739202
 20
167.573159
 30
0.0
 11
361.739202
 21
167.573159
 31
0.0
  0
LINE
  5
3DD
330
3CB
100
AcDbEntity
  8
LC-001-100-D00-0
 62
     7
370
    50
100
AcDbLine
 10
361.739202
 20
167.573159
 30
0.0
 11
361.643863
 21
167.680475
 31
0.0
  0
LINE
  5
3DE
330
3CB
100
AcDbEntity
  8
LC-001-100-D00-0
 62
     7
370
    50
100
AcDbLine
 10
361.643863
 20
167.680475
 30
0.0
 11
361.643863
 21
167.680475
 31
0.0
  0
LINE
  5
3DF
330
3CB
100
AcDbEntity
  8
LC-001-100-D00-0
 62
     7
370
    50
100
AcDbLine
 10
361.643863
 20
167.680475
 30
0.0
 11
361.56765
 21
167.765737
 31
0.0
  0
LINE
  5
3E0
330
3CB
100
AcDbEntity
  8
LC-001-100-D00-0
 62
     7
370
    50
100
AcDbLine
 10
361.56765
 20
167.765737
 30
0.0
 11
361.56765
 21
167.765737
 31
0.0
  0
LINE
  5
3E1
330
3CB
100
AcDbEntity
  8
LC-001-100-D00-0
 62
     7
370
    50
100
AcDbLine
 10
361.56765
 20
167.765737
 30
0.0
 11
361.504474
 21
167.836044
 31
0.0
  0
LINE
  5
3E2
330
3CB
100
AcDbEntity
  8
LC-001-100-D00-0
 62
     7
370
    50
100
AcDbLine
 10
361.504474
 20
167.836044
 30
0.0
 11
361.504474
 21
167.836044
 31
0.0
  0
LINE
  5
3E3
330
3CB
100
AcDbEntity
  8
LC-001-100-D00-0
 62
     7
370
    50
100
AcDbLine
 10
361.504474
 20
167.836044
 30
0.0
 11
361.454502
 21
167.891427
 31
0.0
  0
LINE
  5
3E4
330
3CB
100
AcDbEntity
  8
LC-001-100-D00-0
 62
     7
370
    50
100
AcDbLine
 10
361.454502
 20
167.891427
 30
0.0
 11
361.454502
 21
167.891427
 31
0.0
  0
LINE
  5
3E5
330
3CB
100
AcDbEntity
  8
LC-001-100-D00-0
 62
     7
370
    50
100
AcDbLine
 10
361.454502
 20
167.891427
 30
0.0
 11
361.420006
 21
167.92953
 31
0.0
  0
LINE
  5
3E6
330
3CB
100
AcDbEntity
  8
LC-001-100-D00-0
 62
     7
370
    50
100
AcDbLine
 10
361.420006
 20
167.92953
 30
0.0
 11
361.420006
 21
167.92953
 31
0.0
  0
LINE
  5
3E7
330
3CB
100
AcDbEntity
  8
LC-001-100-D00-0
 62
     7
370
    50
100
AcDbLine
 10
361.420006
 20
167.92953
 30
0.0
 11
361.415502
 21
167.934497
 31
0.0
  0
LINE
  5
3E8
330
3CB
100
AcDbEntity
  8
LC-001-100-D00-0
 62
     7
370
    50
100
AcDbLine
 10
361.415502
 20
167.934497
 30
0.0
 11
361.415502
 21
167.934497
 31
0.0
  0
LINE
  5
3E9
330
3CB
100
AcDbEntity
  8
LC-001-100-D00-0
 62
     7
370
    50
100
AcDbLine
 10
361.415502
 20
167.934497
 30
0.0
 11
361.413237
 21
167.936994
 31
0.0
  0
ENDBLK
  5
3CD
330
3CB
100
AcDbEntity
  8
0
100
AcDbBlockEnd
  0
BLOCK
  5
3EC
330
3EB
100
AcDbEntity
  8
0
100
AcDbBlockBegin
  2
POLY36
 70
     0
 71
     0
 10
0.0
 20
0.0
 30
0.0
  3
POLY36
  1

  4
POLY36
  0
LINE
  5
3EE
330
3EB
100
AcDbEntity
  8
LC-001-100-D00-0
 62
     7
370
    50
100
AcDbLine
 10
240.225527
 20
114.891243
 30
0.0
 11
240.225527
 21
114.891243
 31
0.0
  0
LINE
  5
3EF
330
3EB
100
AcDbEntity
  8
LC-001-100-D00-0
 62
     7
370
    50
100
AcDbLine
 10
240.225527
 20
114.891243
 30
0.0
 11
240.070853
 21
115.130819
 31
0.0
  0
LINE
  5
3F0
330
3EB
100
AcDbEntity
  8
LC-001-100-D00-0
 62
     7
370
    50
100
AcDbLine
 10
240.070853
 20
115.130819
 30
0.0
 11
240.070853
 21
115.130819
 31
0.0
  0
LINE
  5
3F1
330
3EB
100
AcDbEntity
  8
LC-001-100-D00-0
 62
     7
370
    50
100
AcDbLine
 10
240.070853
 20
115.130819
 30
0.0
 11
239.753086
 21
115.623015
 31
0.0
  0
LINE
  5
3F2
330
3EB
100
AcDbEntity
  8
LC-001-100-D00-0
 62
     7
370
    50
100
AcDbLine
 10
239.753086
 20
115.623015
 30
0.0
 11
239.753086
 21
115.623015
 31
0.0
  0
LINE
  5
3F3
330
3EB
100
AcDbEntity
  8
LC-001-100-D00-0
 62
     7
370
    50
100
AcDbLine
 10
239.753086
 20
115.623015
 30
0.0
 11
239.553833
 21
116.562916
 31
0.0
  0
LINE
  5
3F4
330
3EB
100
AcDbEntity
  8
LC-001-100-D00-0
 62
     7
370
    50
100
AcDbLine
 10
239.553833
 20
116.562916
 30
0.0
 11
239.553833
 21
116.562916
 31
0.0
  0
LINE
  5
3F5
330
3EB
100
AcDbEntity
  8
LC-001-100-D00-0
 62
     7
370
    50
100
AcDbLine
 10
239.553833
 20
116.562916
 30
0.0
 11
239.471354
 21
117.223682
 31
0.0
  0
LINE
  5
3F6
330
3EB
100
AcDbEntity
  8
LC-001-100-D00-0
 62
     7
370
    50
100
AcDbLine
 10
239.471354
 20
117.223682
 30
0.0
 11
239.471354
 21
117.223682
 31
0.0
  0
LINE
  5
3F7
330
3EB
100
AcDbEntity
  8
LC-001-100-D00-0
 62
     7
370
    50
100
AcDbLine
 10
239.471354
 20
117.223682
 30
0.0
 11
239.438052
 21
117.532008
 31
0.0
  0
LINE
  5
3F8
330
3EB
100
AcDbEntity
  8
LC-001-100-D00-0
 62
     7
370
    50
100
AcDbLine
 10
239.438052
 20
117.532008
 30
0.0
 11
239.438052
 21
117.532008
 31
0.0
  0
LINE
  5
3F9
330
3EB
100
AcDbEntity
  8
LC-001-100-D00-0
 62
     7
370
    50
100
AcDbLine
 10
239.438052
 20
117.532008
 30
0.0
 11
239.437513
 21
117.536994
 31
0.0
  0
ENDBLK
  5
3ED
330
3EB
100
AcDbEntity
  8
0
100
AcDbBlockEnd
  0
BLOCK
  5
3FC
330
3FB
100
AcDbEntity
  8
0
100
AcDbBlockBegin
  2
POLY37
 70
     0
 71
     0
 10
0.0
 20
0.0
 30
0.0
  3
POLY37
  1

  4
POLY37
  0
LINE
  5
3FE
330
3FB
100
AcDbEntity
  8
LC-001-100-D00-0
 62
     7
370
    50
100
AcDbLine
 10
237.45924
 20
113.536994
 30
0.0
 11
237.45924
 21
113.536994
 31
0.0
  0
LINE
  5
3FF
330
3FB
100
AcDbEntity
  8
LC-001-100-D00-0
 62
     7
370
    50
100
AcDbLine
 10
237.45924
 20
113.536994
 30
0.0
 11
237.433112
 21
113.569464
 31
0.0
  0
LINE
  5
400
330
3FB
100
AcDbEntity
  8
LC-001-100-D00-0
 62
     7
370
    50
100
AcDbLine
 10
237.433112
 20
113.569464
 30
0.0
 11
237.433112
 21
113.569464
 31
0.0
  0
LINE
  5
401
330
3FB
100
AcDbEntity
  8
LC-001-100-D00-0
 62
     7
370
    50
100
AcDbLine
 10
237.433112
 20
113.569464
 30
0.0
 11
237.380956
 21
113.634279
 31
0.0
  0
LINE
  5
402
330
3FB
100
AcDbEntity
  8
LC-001-100-D00-0
 62
     7
370
    50
100
AcDbLine
 10
237.380956
 20
113.634279
 30
0.0
 11
237.380956
 21
113.634279
 31
0.0
  0
LINE
  5
403
330
3FB
100
AcDbEntity
  8
LC-001-100-D00-0
 62
     7
370
    50
100
AcDbLine
 10
237.380956
 20
113.634279
 30
0.0
 11
236.995125
 21
114.122727
 31
0.0
  0
LINE
  5
404
330
3FB
100
AcDbEntity
  8
LC-001-100-D00-0
 62
     7
370
    50
100
AcDbLine
 10
236.995125
 20
114.122727
 30
0.0
 11
236.995125
 21
114.122727
 31
0.0
  0
LINE
  5
405
330
3FB
100
AcDbEntity
  8
LC-001-100-D00-0
 62
     7
370
    50
100
AcDbLine
 10
236.995125
 20
114.122727
 30
0.0
 11
236.423611
 21
114.875584
 31
0.0
  0
LINE
  5
406
330
3FB
100
AcDbEntity
  8
LC-001-100-D00-0
 62
     7
370
    50
100
AcDbLine
 10
236.423611
 20
114.875584
 30
0.0
 11
236.423611
 21
114.875584
 31
0.0
  0
LINE
  5
407
330
3FB
100
AcDbEntity
  8
LC-001-100-D00-0
 62
     7
370
    50
100
AcDbLine
 10
236.423611
 20
114.875584
 30
0.0
 11
235.596753
 21
116.016386
 31
0.0
  0
LINE
  5
408
330
3FB
100
AcDbEntity
  8
LC-001-100-D00-0
 62
     7
370
    50
100
AcDbLine
 10
235.596753
 20
116.016386
 30
0.0
 11
235.596753
 21
116.016386
 31
0.0
  0
LINE
  5
409
330
3FB
100
AcDbEntity
  8
LC-001-100-D00-0
 62
     7
370
    50
100
AcDbLine
 10
235.596753
 20
116.016386
 30
0.0
 11
234.966385
 21
116.987334
 31
0.0
  0
LINE
  5
40A
330
3FB
100
AcDbEntity
  8
LC-001-100-D00-0
 62
     7
370
    50
100
AcDbLine
 10
234.966385
 20
116.987334
 30
0.0
 11
234.966385
 21
116.987334
 31
0.0
  0
LINE
  5
40B
330
3FB
100
AcDbEntity
  8
LC-001-100-D00-0
 62
     7
370
    50
100
AcDbLine
 10
234.966385
 20
116.987334
 30
0.0
 11
234.60953
 21
117.536994
 31
0.0
  0
ENDBLK
  5
3FD
330
3FB
100
AcDbEntity
  8
0
100
AcDbBlockEnd
  0
BLOCK
  5
40E
330
40D
100
AcDbEntity
  8
0
100
AcDbBlockBegin
  2
POLY38
 70
     0
 71
     0
 10
0.0
 20
0.0
 30
0.0
  3
POLY38
  1

  4
POLY38
  0
LINE
  5
410
330
40D
100
AcDbEntity
  8
LC-001-100-D00-0
 62
     7
370
    50
100
AcDbLine
 10
240.225527
 20
114.891243
 30
0.0
 11
240.225527
 21
114.891243
 31
0.0
  0
LINE
  5
411
330
40D
100
AcDbEntity
  8
LC-001-100-D00-0
 62
     7
370
    50
100
AcDbLine
 10
240.225527
 20
114.891243
 30
0.0
 11
240.321239
 21
114.7766
 31
0.0
  0
LINE
  5
412
330
40D
100
AcDbEntity
  8
LC-001-100-D00-0
 62
     7
370
    50
100
AcDbLine
 10
240.321239
 20
114.7766
 30
0.0
 11
240.321239
 21
114.7766
 31
0.0
  0
LINE
  5
413
330
40D
100
AcDbEntity
  8
LC-001-100-D00-0
 62
     7
370
    50
100
AcDbLine
 10
240.321239
 20
114.7766
 30
0.0
 11
240.647927
 21
114.385299
 31
0.0
  0
LINE
  5
414
330
40D
100
AcDbEntity
  8
LC-001-100-D00-0
 62
     7
370
    50
100
AcDbLine
 10
240.647927
 20
114.385299
 30
0.0
 11
240.647927
 21
114.385299
 31
0.0
  0
LINE
  5
415
330
40D
100
AcDbEntity
  8
LC-001-100-D00-0
 62
     7
370
    50
100
AcDbLine
 10
240.647927
 20
114.385299
 30
0.0
 11
241.08491
 21
113.885958
 31
0.0
  0
LINE
  5
416
330
40D
100
AcDbEntity
  8
LC-001-100-D00-0
 62
     7
370
    50
100
AcDbLine
 10
241.08491
 20
113.885958
 30
0.0
 11
241.08491
 21
113.885958
 31
0.0
  0
LINE
  5
417
330
40D
100
AcDbEntity
  8
LC-001-100-D00-0
 62
     7
370
    50
100
AcDbLine
 10
241.08491
 20
113.885958
 30
0.0
 11
241.364908
 21
113.57515
 31
0.0
  0
LINE
  5
418
330
40D
100
AcDbEntity
  8
LC-001-100-D00-0
 62
     7
370
    50
100
AcDbLine
 10
241.364908
 20
113.57515
 30
0.0
 11
241.364908
 21
113.57515
 31
0.0
  0
LINE
  5
419
330
40D
100
AcDbEntity
  8
LC-001-100-D00-0
 62
     7
370
    50
100
AcDbLine
 10
241.364908
 20
113.57515
 30
0.0
 11
241.390246
 21
113.547259
 31
0.0
  0
LINE
  5
41A
330
40D
100
AcDbEntity
  8
LC-001-100-D00-0
 62
     7
370
    50
100
AcDbLine
 10
241.390246
 20
113.547259
 30
0.0
 11
241.390246
 21
113.547259
 31
0.0
  0
LINE
  5
41B
330
40D
100
AcDbEntity
  8
LC-001-100-D00-0
 62
     7
370
    50
100
AcDbLine
 10
241.390246
 20
113.547259
 30
0.0
 11
241.399572
 21
113.536994
 31
0.0
  0
ENDBLK
  5
40F
330
40D
100
AcDbEntity
  8
0
100
AcDbBlockEnd
  0
BLOCK
  5
42F
330
42E
100
AcDbEntity
  8
0
100
AcDbBlockBegin
  2
KLON1
 70
     0
 71
     0
 10
0.0
 20
0.0
 30
0.0
  3
KLON1
  1

  4
KLON1
  0
LINE
  5
431
330
42E
100
AcDbEntity
  8
LC-001-100-D00-0
 62
     7
370
    15
100
AcDbLine
 10
240.36626
 20
114.722394
 30
0.0
 11
240.861695
 21
114.142432
 31
0.0
  0
LINE
  5
432
330
42E
100
AcDbEntity
  8
LC-001-100-D00-0
 62
     7
370
    15
100
AcDbLine
 10
240.861695
 20
114.142432
 30
0.0
 11
242.830891
 21
112.036994
 31
0.0
  0
ENDBLK
  5
430
330
42E
100
AcDbEntity
  8
0
100
AcDbBlockEnd
  0
BLOCK
  5
436
330
435
100
AcDbEntity
  8
0
100
AcDbBlockBegin
  2
KLON2
 70
     0
 71
     0
 10
0.0
 20
0.0
 30
0.0
  3
KLON2
  1

  4
KLON2
  0
LINE
  5
438
330
435
100
AcDbEntity
  8
LC-001-100-D00-0
 62
     7
370
    15
100
AcDbLine
 10
362.515736
 20
166.668818
 30
0.0
 11
361.951114
 21
167.331556
 31
0.0
  0
LINE
  5
439
330
435
100
AcDbEntity
  8
LC-001-100-D00-0
 62
     7
370
    15
100
AcDbLine
 10
361.951114
 20
167.331556
 30
0.0
 11
359.981919
 21
169.436994
 31
0.0
  0
ENDBLK
  5
437
330
435
100
AcDbEntity
  8
0
100
AcDbBlockEnd
  0
BLOCK
  5
458
330
44E
100
AcDbEntity
  8
0
100
AcDbBlockBegin
  2
*D43
 70
     1
 71
     0
 10
0.0
 20
0.0
 30
0.0
  3
*D43
  1

  0
LINE
  5
44F
330
44E
100
AcDbEntity
  8
LC-001-100-D00-0
 62
     2
370
    -2
100
AcDbLine
 10
371.406405
 20
180.736994
 30
0.0
 11
433.107434
 21
180.736994
 31
0.0
  0
LINE
  5
450
330
44E
100
AcDbEntity
  8
LC-001-100-D00-0
 62
     2
370
    -2
100
AcDbLine
 10
371.406405
 20
100.736994
 30
0.0
 11
433.107434
 21
100.736994
 31
0.0
  0
LINE
  5
451
330
44E
100
AcDbEntity
  8
LC-001-100-D00-0
 62
     2
370
    -2
100
AcDbLine
 10
429.507434
 20
152.736994
 30
0.0
 11
429.507434
 21
128.736994
 31
0.0
  0
SOLID
  5
452
330
44E
100
AcDbEntity
  8
LC-001-100-D00-0
 62
     2
100
AcDbTrace
 10
434.1741
 20
152.736994
 30
0.0
 11
424.840767
 21
152.736994
 31
0.0
 12
429.507434
 22
180.736994
 32
0.0
 13
429.507434
 23
180.736994
 33
0.0
  0
SOLID
  5
453
330
44E
100
AcDbEntity
  8
LC-001-100-D00-0
 62
     2
100
AcDbTrace
 10
424.840767
 20
128.736994
 30
0.0
 11
434.1741
 21
128.736994
 31
0.0
 12
429.507434
 22
100.736994
 32
0.0
 13
429.507434
 23
100.736994
 33
0.0
  0
MTEXT
  5
454
330
44E
100
AcDbEntity
  8
LC-001-100-D00-0
 62
     2
100
AcDbMText
 10
398.707434
 20
140.912249
 30
0.0
 40
28.0
 41
0.0
 71
     5
 72
     1
  1
\A1;80
  7
LCTX15-400-0-0pDIN-Schrift
 11
6.123031769111886E-17
 21
1.0
 31
0.0
 73
     1
 44
1.0
  0
POINT
  5
455
330
44E
100
AcDbEntity
  8
Defpoints
 62
     0
100
AcDbPoint
 10
371.406405
 20
180.736994
 30
0.0
  0
POINT
  5
456
330
44E
100
AcDbEntity
  8
Defpoints
 62
     0
100
AcDbPoint
 10
371.406405
 20
100.736994
 30
0.0
  0
POINT
  5
457
330
44E
100
AcDbEntity
  8
Defpoints
 62
     0
100
AcDbPoint
 10
429.507434
 20
100.736994
 30
0.0
  0
ENDBLK
  5
459
330
44E
100
AcDbEntity
  8
0
100
AcDbBlockEnd
  0
BLOCK
  5
491
330
490
100
AcDbEntity
  8
0
100
AcDbBlockBegin
  2
POLY39
 70
     0
 71
     0
 10
0.0
 20
0.0
 30
0.0
  3
POLY39
  1

  4
POLY39
  0
LINE
  5
493
330
490
100
AcDbEntity
  8
LC-001-100-D00-0
 62
     7
370
    50
100
AcDbLine
 10
163.851717
 20
279.801146
 30
0.0
 11
163.851717
 21
279.801146
 31
0.0
  0
LINE
  5
494
330
490
100
AcDbEntity
  8
LC-001-100-D00-0
 62
     7
370
    50
100
AcDbLine
 10
163.851717
 20
279.801146
 30
0.0
 11
163.856703
 21
279.801152
 31
0.0
  0
LINE
  5
495
330
490
100
AcDbEntity
  8
LC-001-100-D00-0
 62
     7
370
    50
100
AcDbLine
 10
163.856703
 20
279.801152
 30
0.0
 11
163.856703
 21
279.801152
 31
0.0
  0
LINE
  5
496
330
490
100
AcDbEntity
  8
LC-001-100-D00-0
 62
     7
370
    50
100
AcDbLine
 10
163.856703
 20
279.801152
 30
0.0
 11
164.165029
 21
279.801531
 31
0.0
  0
LINE
  5
497
330
490
100
AcDbEntity
  8
LC-001-100-D00-0
 62
     7
370
    50
100
AcDbLine
 10
164.165029
 20
279.801531
 30
0.0
 11
164.165029
 21
279.801531
 31
0.0
  0
LINE
  5
498
330
490
100
AcDbEntity
  8
LC-001-100-D00-0
 62
     7
370
    50
100
AcDbLine
 10
164.165029
 20
279.801531
 30
0.0
 11
164.825795
 21
279.880788
 31
0.0
  0
LINE
  5
499
330
490
100
AcDbEntity
  8
LC-001-100-D00-0
 62
     7
370
    50
100
AcDbLine
 10
164.825795
 20
279.880788
 30
0.0
 11
164.825795
 21
279.880788
 31
0.0
  0
LINE
  5
49A
330
490
100
AcDbEntity
  8
LC-001-100-D00-0
 62
     7
370
    50
100
AcDbLine
 10
164.825795
 20
279.880788
 30
0.0
 11
165.765695
 21
280.232334
 31
0.0
  0
LINE
  5
49B
330
490
100
AcDbEntity
  8
LC-001-100-D00-0
 62
     7
370
    50
100
AcDbLine
 10
165.765695
 20
280.232334
 30
0.0
 11
165.765695
 21
280.232334
 31
0.0
  0
LINE
  5
49C
330
490
100
AcDbEntity
  8
LC-001-100-D00-0
 62
     7
370
    50
100
AcDbLine
 10
165.765695
 20
280.232334
 30
0.0
 11
166.257891
 21
280.614922
 31
0.0
  0
LINE
  5
49D
330
490
100
AcDbEntity
  8
LC-001-100-D00-0
 62
     7
370
    50
100
AcDbLine
 10
166.257891
 20
280.614922
 30
0.0
 11
166.257891
 21
280.614922
 31
0.0
  0
LINE
  5
49E
330
490
100
AcDbEntity
  8
LC-001-100-D00-0
 62
     7
370
    50
100
AcDbLine
 10
166.257891
 20
280.614922
 30
0.0
 11
166.497467
 21
280.801146
 31
0.0
  0
ENDBLK
  5
492
330
490
100
AcDbEntity
  8
0
100
AcDbBlockEnd
  0
BLOCK
  5
4A1
330
4A0
100
AcDbEntity
  8
0
100
AcDbBlockBegin
  2
POLY40
 70
     0
 71
     0
 10
0.0
 20
0.0
 30
0.0
  3
POLY40
  1

  4
POLY40
  0
LINE
  5
4A3
330
4A0
100
AcDbEntity
  8
LC-001-100-D00-0
 62
     7
370
    50
100
AcDbLine
 10
114.805965
 20
280.801146
 30
0.0
 11
114.805965
 21
280.801146
 31
0.0
  0
LINE
  5
4A4
330
4A0
100
AcDbEntity
  8
LC-001-100-D00-0
 62
     7
370
    50
100
AcDbLine
 10
114.805965
 20
280.801146
 30
0.0
 11
115.045541
 21
280.614922
 31
0.0
  0
LINE
  5
4A5
330
4A0
100
AcDbEntity
  8
LC-001-100-D00-0
 62
     7
370
    50
100
AcDbLine
 10
115.045541
 20
280.614922
 30
0.0
 11
115.045541
 21
280.614922
 31
0.0
  0
LINE
  5
4A6
330
4A0
100
AcDbEntity
  8
LC-001-100-D00-0
 62
     7
370
    50
100
AcDbLine
 10
115.045541
 20
280.614922
 30
0.0
 11
115.537737
 21
280.232334
 31
0.0
  0
LINE
  5
4A7
330
4A0
100
AcDbEntity
  8
LC-001-100-D00-0
 62
     7
370
    50
100
AcDbLine
 10
115.537737
 20
280.232334
 30
0.0
 11
115.537737
 21
280.232334
 31
0.0
  0
LINE
  5
4A8
330
4A0
100
AcDbEntity
  8
LC-001-100-D00-0
 62
     7
370
    50
100
AcDbLine
 10
115.537737
 20
280.232334
 30
0.0
 11
116.477638
 21
279.880789
 31
0.0
  0
LINE
  5
4A9
330
4A0
100
AcDbEntity
  8
LC-001-100-D00-0
 62
     7
370
    50
100
AcDbLine
 10
116.477638
 20
279.880789
 30
0.0
 11
116.477638
 21
279.880789
 31
0.0
  0
LINE
  5
4AA
330
4A0
100
AcDbEntity
  8
LC-001-100-D00-0
 62
     7
370
    50
100
AcDbLine
 10
116.477638
 20
279.880789
 30
0.0
 11
117.138404
 21
279.801531
 31
0.0
  0
LINE
  5
4AB
330
4A0
100
AcDbEntity
  8
LC-001-100-D00-0
 62
     7
370
    50
100
AcDbLine
 10
117.138404
 20
279.801531
 30
0.0
 11
117.138404
 21
279.801531
 31
0.0
  0
LINE
  5
4AC
330
4A0
100
AcDbEntity
  8
LC-001-100-D00-0
 62
     7
370
    50
100
AcDbLine
 10
117.138404
 20
279.801531
 30
0.0
 11
117.44673
 21
279.801152
 31
0.0
  0
LINE
  5
4AD
330
4A0
100
AcDbEntity
  8
LC-001-100-D00-0
 62
     7
370
    50
100
AcDbLine
 10
117.44673
 20
279.801152
 30
0.0
 11
117.44673
 21
279.801152
 31
0.0
  0
LINE
  5
4AE
330
4A0
100
AcDbEntity
  8
LC-001-100-D00-0
 62
     7
370
    50
100
AcDbLine
 10
117.44673
 20
279.801152
 30
0.0
 11
117.451716
 21
279.801146
 31
0.0
  0
ENDBLK
  5
4A2
330
4A0
100
AcDbEntity
  8
0
100
AcDbBlockEnd
  0
BLOCK
  5
4B4
330
4B3
100
AcDbEntity
  8
0
100
AcDbBlockBegin
  2
POLY41
 70
     0
 71
     0
 10
0.0
 20
0.0
 30
0.0
  3
POLY41
  1

  4
POLY41
  0
LINE
  5
4B6
330
4B3
100
AcDbEntity
  8
LC-001-100-D00-0
 62
     7
370
    50
100
AcDbLine
 10
169.351717
 20
305.301145
 30
0.0
 11
169.351717
 21
305.301145
 31
0.0
  0
LINE
  5
4B7
330
4B3
100
AcDbEntity
  8
LC-001-100-D00-0
 62
     7
370
    50
100
AcDbLine
 10
169.351717
 20
305.301145
 30
0.0
 11
169.125013
 21
305.273238
 31
0.0
  0
LINE
  5
4B8
330
4B3
100
AcDbEntity
  8
LC-001-100-D00-0
 62
     7
370
    50
100
AcDbLine
 10
169.125013
 20
305.273238
 30
0.0
 11
169.125013
 21
305.273238
 31
0.0
  0
LINE
  5
4B9
330
4B3
100
AcDbEntity
  8
LC-001-100-D00-0
 62
     7
370
    50
100
AcDbLine
 10
169.125013
 20
305.273238
 30
0.0
 11
168.741813
 21
305.226066
 31
0.0
  0
LINE
  5
4BA
330
4B3
100
AcDbEntity
  8
LC-001-100-D00-0
 62
     7
370
    50
100
AcDbLine
 10
168.741813
 20
305.226066
 30
0.0
 11
168.741813
 21
305.226066
 31
0.0
  0
LINE
  5
4BB
330
4B3
100
AcDbEntity
  8
LC-001-100-D00-0
 62
     7
370
    50
100
AcDbLine
 10
168.741813
 20
305.226066
 30
0.0
 11
168.278103
 21
304.886293
 31
0.0
  0
LINE
  5
4BC
330
4B3
100
AcDbEntity
  8
LC-001-100-D00-0
 62
     7
370
    50
100
AcDbLine
 10
168.278103
 20
304.886293
 30
0.0
 11
168.278103
 21
304.886293
 31
0.0
  0
LINE
  5
4BD
330
4B3
100
AcDbEntity
  8
LC-001-100-D00-0
 62
     7
370
    50
100
AcDbLine
 10
168.278103
 20
304.886293
 30
0.0
 11
168.005434
 21
304.505965
 31
0.0
  0
LINE
  5
4BE
330
4B3
100
AcDbEntity
  8
LC-001-100-D00-0
 62
     7
370
    50
100
AcDbLine
 10
168.005434
 20
304.505965
 30
0.0
 11
168.005434
 21
304.505965
 31
0.0
  0
LINE
  5
4BF
330
4B3
100
AcDbEntity
  8
LC-001-100-D00-0
 62
     7
370
    50
100
AcDbLine
 10
168.005434
 20
304.505965
 30
0.0
 11
167.871039
 21
304.133442
 31
0.0
  0
LINE
  5
4C0
330
4B3
100
AcDbEntity
  8
LC-001-100-D00-0
 62
     7
370
    50
100
AcDbLine
 10
167.871039
 20
304.133442
 30
0.0
 11
167.871039
 21
304.133442
 31
0.0
  0
LINE
  5
4C1
330
4B3
100
AcDbEntity
  8
LC-001-100-D00-0
 62
     7
370
    50
100
AcDbLine
 10
167.871039
 20
304.133442
 30
0.0
 11
167.857362
 21
303.898259
 31
0.0
  0
LINE
  5
4C2
330
4B3
100
AcDbEntity
  8
LC-001-100-D00-0
 62
     7
370
    50
100
AcDbLine
 10
167.857362
 20
303.898259
 30
0.0
 11
167.857362
 21
303.898259
 31
0.0
  0
LINE
  5
4C3
330
4B3
100
AcDbEntity
  8
LC-001-100-D00-0
 62
     7
370
    50
100
AcDbLine
 10
167.857362
 20
303.898259
 30
0.0
 11
167.851714
 21
303.801146
 31
0.0
  0
ENDBLK
  5
4B5
330
4B3
100
AcDbEntity
  8
0
100
AcDbBlockEnd
  0
BLOCK
  5
4C6
330
4C5
100
AcDbEntity
  8
0
100
AcDbBlockBegin
  2
POLY42
 70
     0
 71
     0
 10
0.0
 20
0.0
 30
0.0
  3
POLY42
  1

  4
POLY42
  0
LINE
  5
4C8
330
4C5
100
AcDbEntity
  8
LC-001-100-D00-0
 62
     7
370
    50
100
AcDbLine
 10
167.851714
 20
283.801146
 30
0.0
 11
167.851714
 21
283.801146
 31
0.0
  0
LINE
  5
4C9
330
4C5
100
AcDbEntity
  8
LC-001-100-D00-0
 62
     7
370
    50
100
AcDbLine
 10
167.851714
 20
283.801146
 30
0.0
 11
167.820554
 21
283.431363
 31
0.0
  0
LINE
  5
4CA
330
4C5
100
AcDbEntity
  8
LC-001-100-D00-0
 62
     7
370
    50
100
AcDbLine
 10
167.820554
 20
283.431363
 30
0.0
 11
167.820554
 21
283.431363
 31
0.0
  0
LINE
  5
4CB
330
4C5
100
AcDbEntity
  8
LC-001-100-D00-0
 62
     7
370
    50
100
AcDbLine
 10
167.820554
 20
283.431363
 30
0.0
 11
167.758374
 21
282.693486
 31
0.0
  0
LINE
  5
4CC
330
4C5
100
AcDbEntity
  8
LC-001-100-D00-0
 62
     7
370
    50
100
AcDbLine
 10
167.758374
 20
282.693486
 30
0.0
 11
167.758374
 21
282.693486
 31
0.0
  0
LINE
  5
4CD
330
4C5
100
AcDbEntity
  8
LC-001-100-D00-0
 62
     7
370
    50
100
AcDbLine
 10
167.758374
 20
282.693486
 30
0.0
 11
167.282457
 21
281.624466
 31
0.0
  0
LINE
  5
4CE
330
4C5
100
AcDbEntity
  8
LC-001-100-D00-0
 62
     7
370
    50
100
AcDbLine
 10
167.282457
 20
281.624466
 30
0.0
 11
167.282457
 21
281.624466
 31
0.0
  0
LINE
  5
4CF
330
4C5
100
AcDbEntity
  8
LC-001-100-D00-0
 62
     7
370
    50
100
AcDbLine
 10
167.282457
 20
281.624466
 30
0.0
 11
166.779963
 21
281.097436
 31
0.0
  0
LINE
  5
4D0
330
4C5
100
AcDbEntity
  8
LC-001-100-D00-0
 62
     7
370
    50
100
AcDbLine
 10
166.779963
 20
281.097436
 30
0.0
 11
166.779963
 21
281.097436
 31
0.0
  0
LINE
  5
4D1
330
4C5
100
AcDbEntity
  8
LC-001-100-D00-0
 62
     7
370
    50
100
AcDbLine
 10
166.779963
 20
281.097436
 30
0.0
 11
166.497467
 21
280.801146
 31
0.0
  0
ENDBLK
  5
4C7
330
4C5
100
AcDbEntity
  8
0
100
AcDbBlockEnd
  0
BLOCK
  5
4D5
330
4D4
100
AcDbEntity
  8
0
100
AcDbBlockBegin
  2
POLY43
 70
     0
 71
     0
 10
0.0
 20
0.0
 30
0.0
  3
POLY43
  1

  4
POLY43
  0
LINE
  5
4D7
330
4D4
100
AcDbEntity
  8
LC-001-100-D00-0
 62
     7
370
    50
100
AcDbLine
 10
113.451716
 20
303.801146
 30
0.0
 11
113.451716
 21
303.801146
 31
0.0
  0
LINE
  5
4D8
330
4D4
100
AcDbEntity
  8
LC-001-100-D00-0
 62
     7
370
    50
100
AcDbLine
 10
113.451716
 20
303.801146
 30
0.0
 11
113.440534
 21
303.938177
 31
0.0
  0
LINE
  5
4D9
330
4D4
100
AcDbEntity
  8
LC-001-100-D00-0
 62
     7
370
    50
100
AcDbLine
 10
113.440534
 20
303.938177
 30
0.0
 11
113.440534
 21
303.938177
 31
0.0
  0
LINE
  5
4DA
330
4D4
100
AcDbEntity
  8
LC-001-100-D00-0
 62
     7
370
    50
100
AcDbLine
 10
113.440534
 20
303.938177
 30
0.0
 11
113.418213
 21
304.211709
 31
0.0
  0
LINE
  5
4DB
330
4D4
100
AcDbEntity
  8
LC-001-100-D00-0
 62
     7
370
    50
100
AcDbLine
 10
113.418213
 20
304.211709
 30
0.0
 11
113.418213
 21
304.211709
 31
0.0
  0
LINE
  5
4DC
330
4D4
100
AcDbEntity
  8
LC-001-100-D00-0
 62
     7
370
    50
100
AcDbLine
 10
113.418213
 20
304.211709
 30
0.0
 11
113.237744
 21
304.611751
 31
0.0
  0
LINE
  5
4DD
330
4D4
100
AcDbEntity
  8
LC-001-100-D00-0
 62
     7
370
    50
100
AcDbLine
 10
113.237744
 20
304.611751
 30
0.0
 11
113.237744
 21
304.611751
 31
0.0
  0
LINE
  5
4DE
330
4D4
100
AcDbEntity
  8
LC-001-100-D00-0
 62
     7
370
    50
100
AcDbLine
 10
113.237744
 20
304.611751
 30
0.0
 11
112.919125
 21
304.988213
 31
0.0
  0
LINE
  5
4DF
330
4D4
100
AcDbEntity
  8
LC-001-100-D00-0
 62
     7
370
    50
100
AcDbLine
 10
112.919125
 20
304.988213
 30
0.0
 11
112.919125
 21
304.988213
 31
0.0
  0
LINE
  5
4E0
330
4D4
100
AcDbEntity
  8
LC-001-100-D00-0
 62
     7
370
    50
100
AcDbLine
 10
112.919125
 20
304.988213
 30
0.0
 11
112.461779
 21
305.252903
 31
0.0
  0
LINE
  5
4E1
330
4D4
100
AcDbEntity
  8
LC-001-100-D00-0
 62
     7
370
    50
100
AcDbLine
 10
112.461779
 20
305.252903
 30
0.0
 11
112.461779
 21
305.252903
 31
0.0
  0
LINE
  5
4E2
330
4D4
100
AcDbEntity
  8
LC-001-100-D00-0
 62
     7
370
    50
100
AcDbLine
 10
112.461779
 20
305.252903
 30
0.0
 11
112.118507
 21
305.28537
 31
0.0
  0
LINE
  5
4E3
330
4D4
100
AcDbEntity
  8
LC-001-100-D00-0
 62
     7
370
    50
100
AcDbLine
 10
112.118507
 20
305.28537
 30
0.0
 11
112.118507
 21
305.28537
 31
0.0
  0
LINE
  5
4E4
330
4D4
100
AcDbEntity
  8
LC-001-100-D00-0
 62
     7
370
    50
100
AcDbLine
 10
112.118507
 20
305.28537
 30
0.0
 11
111.951716
 21
305.301145
 31
0.0
  0
ENDBLK
  5
4D6
330
4D4
100
AcDbEntity
  8
0
100
AcDbBlockEnd
  0
BLOCK
  5
4E8
330
4E7
100
AcDbEntity
  8
0
100
AcDbBlockBegin
  2
POLY44
 70
     0
 71
     0
 10
0.0
 20
0.0
 30
0.0
  3
POLY44
  1

  4
POLY44
  0
LINE
  5
4EA
330
4E7
100
AcDbEntity
  8
LC-001-100-D00-0
 62
     7
370
    50
100
AcDbLine
 10
114.805965
 20
280.801146
 30
0.0
 11
114.805965
 21
280.801146
 31
0.0
  0
LINE
  5
4EB
330
4E7
100
AcDbEntity
  8
LC-001-100-D00-0
 62
     7
370
    50
100
AcDbLine
 10
114.805965
 20
280.801146
 30
0.0
 11
114.691322
 21
280.909671
 31
0.0
  0
LINE
  5
4EC
330
4E7
100
AcDbEntity
  8
LC-001-100-D00-0
 62
     7
370
    50
100
AcDbLine
 10
114.691322
 20
280.909671
 30
0.0
 11
114.691322
 21
280.909671
 31
0.0
  0
LINE
  5
4ED
330
4E7
100
AcDbEntity
  8
LC-001-100-D00-0
 62
     7
370
    50
100
AcDbLine
 10
114.691322
 20
280.909671
 30
0.0
 11
114.300021
 21
281.280092
 31
0.0
  0
LINE
  5
4EE
330
4E7
100
AcDbEntity
  8
LC-001-100-D00-0
 62
     7
370
    50
100
AcDbLine
 10
114.300021
 20
281.280092
 30
0.0
 11
114.300021
 21
281.280092
 31
0.0
  0
LINE
  5
4EF
330
4E7
100
AcDbEntity
  8
LC-001-100-D00-0
 62
     7
370
    50
100
AcDbLine
 10
114.300021
 20
281.280092
 30
0.0
 11
113.80068
 21
282.045244
 31
0.0
  0
LINE
  5
4F0
330
4E7
100
AcDbEntity
  8
LC-001-100-D00-0
 62
     7
370
    50
100
AcDbLine
 10
113.80068
 20
282.045244
 30
0.0
 11
113.80068
 21
282.045244
 31
0.0
  0
LINE
  5
4F1
330
4E7
100
AcDbEntity
  8
LC-001-100-D00-0
 62
     7
370
    50
100
AcDbLine
 10
113.80068
 20
282.045244
 30
0.0
 11
113.489871
 21
283.00762
 31
0.0
  0
LINE
  5
4F2
330
4E7
100
AcDbEntity
  8
LC-001-100-D00-0
 62
     7
370
    50
100
AcDbLine
 10
113.489871
 20
283.00762
 30
0.0
 11
113.489871
 21
283.00762
 31
0.0
  0
LINE
  5
4F3
330
4E7
100
AcDbEntity
  8
LC-001-100-D00-0
 62
     7
370
    50
100
AcDbLine
 10
113.489871
 20
283.00762
 30
0.0
 11
113.461981
 21
283.587656
 31
0.0
  0
LINE
  5
4F4
330
4E7
100
AcDbEntity
  8
LC-001-100-D00-0
 62
     7
370
    50
100
AcDbLine
 10
113.461981
 20
283.587656
 30
0.0
 11
113.461981
 21
283.587656
 31
0.0
  0
LINE
  5
4F5
330
4E7
100
AcDbEntity
  8
LC-001-100-D00-0
 62
     7
370
    50
100
AcDbLine
 10
113.461981
 20
283.587656
 30
0.0
 11
113.451716
 21
283.801146
 31
0.0
  0
ENDBLK
  5
4E9
330
4E7
100
AcDbEntity
  8
0
100
AcDbBlockEnd
  0
BLOCK
  5
50E
330
50D
100
AcDbEntity
  8
0
100
AcDbBlockBegin
  2
POLY45
 70
     0
 71
     0
 10
0.0
 20
0.0
 30
0.0
  3
POLY45
  1

  4
POLY45
  0
LINE
  5
510
330
50D
100
AcDbEntity
  8
LC-001-100-D00-0
 62
     7
370
    50
100
AcDbLine
 10
110.651716
 20
241.301146
 30
0.0
 11
110.651716
 21
241.301146
 31
0.0
  0
LINE
  5
511
330
50D
100
AcDbEntity
  8
LC-001-100-D00-0
 62
     7
370
    50
100
AcDbLine
 10
110.651716
 20
241.301146
 30
0.0
 11
110.646858
 21
241.301149
 31
0.0
  0
LINE
  5
512
330
50D
100
AcDbEntity
  8
LC-001-100-D00-0
 62
     7
370
    50
100
AcDbLine
 10
110.646858
 20
241.301149
 30
0.0
 11
110.646858
 21
241.301149
 31
0.0
  0
LINE
  5
513
330
50D
100
AcDbEntity
  8
LC-001-100-D00-0
 62
     7
370
    50
100
AcDbLine
 10
110.646858
 20
241.301149
 30
0.0
 11
110.175013
 21
241.301467
 31
0.0
  0
LINE
  5
514
330
50D
100
AcDbEntity
  8
LC-001-100-D00-0
 62
     7
370
    50
100
AcDbLine
 10
110.175013
 20
241.301467
 30
0.0
 11
110.175013
 21
241.301467
 31
0.0
  0
LINE
  5
515
330
50D
100
AcDbEntity
  8
LC-001-100-D00-0
 62
     7
370
    50
100
AcDbLine
 10
110.175013
 20
241.301467
 30
0.0
 11
109.233876
 21
241.397793
 31
0.0
  0
LINE
  5
516
330
50D
100
AcDbEntity
  8
LC-001-100-D00-0
 62
     7
370
    50
100
AcDbLine
 10
109.233876
 20
241.397793
 30
0.0
 11
109.233876
 21
241.397793
 31
0.0
  0
LINE
  5
517
330
50D
100
AcDbEntity
  8
LC-001-100-D00-0
 62
     7
370
    50
100
AcDbLine
 10
109.233876
 20
241.397793
 30
0.0
 11
107.867505
 21
241.824033
 31
0.0
  0
LINE
  5
518
330
50D
100
AcDbEntity
  8
LC-001-100-D00-0
 62
     7
370
    50
100
AcDbLine
 10
107.867505
 20
241.824033
 30
0.0
 11
107.867505
 21
241.824033
 31
0.0
  0
LINE
  5
519
330
50D
100
AcDbEntity
  8
LC-001-100-D00-0
 62
     7
370
    50
100
AcDbLine
 10
107.867505
 20
241.824033
 30
0.0
 11
106.518322
 21
242.576692
 31
0.0
  0
LINE
  5
51A
330
50D
100
AcDbEntity
  8
LC-001-100-D00-0
 62
     7
370
    50
100
AcDbLine
 10
106.518322
 20
242.576692
 30
0.0
 11
106.518322
 21
242.576692
 31
0.0
  0
LINE
  5
51B
330
50D
100
AcDbEntity
  8
LC-001-100-D00-0
 62
     7
370
    50
100
AcDbLine
 10
106.518322
 20
242.576692
 30
0.0
 11
105.249526
 21
243.720081
 31
0.0
  0
LINE
  5
51C
330
50D
100
AcDbEntity
  8
LC-001-100-D00-0
 62
     7
370
    50
100
AcDbLine
 10
105.249526
 20
243.720081
 30
0.0
 11
105.249526
 21
243.720081
 31
0.0
  0
LINE
  5
51D
330
50D
100
AcDbEntity
  8
LC-001-100-D00-0
 62
     7
370
    50
100
AcDbLine
 10
105.249526
 20
243.720081
 30
0.0
 11
104.322509
 21
245.168563
 31
0.0
  0
LINE
  5
51E
330
50D
100
AcDbEntity
  8
LC-001-100-D00-0
 62
     7
370
    50
100
AcDbLine
 10
104.322509
 20
245.168563
 30
0.0
 11
104.322509
 21
245.168563
 31
0.0
  0
LINE
  5
51F
330
50D
100
AcDbEntity
  8
LC-001-100-D00-0
 62
     7
370
    50
100
AcDbLine
 10
104.322509
 20
245.168563
 30
0.0
 11
103.760175
 21
246.722395
 31
0.0
  0
LINE
  5
520
330
50D
100
AcDbEntity
  8
LC-001-100-D00-0
 62
     7
370
    50
100
AcDbLine
 10
103.760175
 20
246.722395
 30
0.0
 11
103.760175
 21
246.722395
 31
0.0
  0
LINE
  5
521
330
50D
100
AcDbEntity
  8
LC-001-100-D00-0
 62
     7
370
    50
100
AcDbLine
 10
103.760175
 20
246.722395
 30
0.0
 11
103.687848
 21
247.775194
 31
0.0
  0
LINE
  5
522
330
50D
100
AcDbEntity
  8
LC-001-100-D00-0
 62
     7
370
    50
100
AcDbLine
 10
103.687848
 20
247.775194
 30
0.0
 11
103.687848
 21
247.775194
 31
0.0
  0
LINE
  5
523
330
50D
100
AcDbEntity
  8
LC-001-100-D00-0
 62
     7
370
    50
100
AcDbLine
 10
103.687848
 20
247.775194
 30
0.0
 11
103.651716
 21
248.301145
 31
0.0
  0
ENDBLK
  5
50F
330
50D
100
AcDbEntity
  8
0
100
AcDbBlockEnd
  0
BLOCK
  5
539
330
538
100
AcDbEntity
  8
0
100
AcDbBlockBegin
  2
POLY46
 70
     0
 71
     0
 10
0.0
 20
0.0
 30
0.0
  3
POLY46
  1

  4
POLY46
  0
LINE
  5
53B
330
538
100
AcDbEntity
  8
LC-001-100-D00-0
 62
     7
370
    50
100
AcDbLine
 10
131.808204
 20
272.301146
 30
0.0
 11
131.808204
 21
272.301146
 31
0.0
  0
LINE
  5
53C
330
538
100
AcDbEntity
  8
LC-001-100-D00-0
 62
     7
370
    50
100
AcDbLine
 10
131.808204
 20
272.301146
 30
0.0
 11
131.920389
 21
272.301146
 31
0.0
  0
LINE
  5
53D
330
538
100
AcDbEntity
  8
LC-001-100-D00-0
 62
     7
370
    50
100
AcDbLine
 10
131.920389
 20
272.301146
 30
0.0
 11
131.920389
 21
272.301146
 31
0.0
  0
LINE
  5
53E
330
538
100
AcDbEntity
  8
LC-001-100-D00-0
 62
     7
370
    50
100
AcDbLine
 10
131.920389
 20
272.301146
 30
0.0
 11
132.144758
 21
272.301146
 31
0.0
  0
LINE
  5
53F
330
538
100
AcDbEntity
  8
LC-001-100-D00-0
 62
     7
370
    50
100
AcDbLine
 10
132.144758
 20
272.301146
 30
0.0
 11
132.144758
 21
272.301146
 31
0.0
  0
LINE
  5
540
330
538
100
AcDbEntity
  8
LC-001-100-D00-0
 62
     7
370
    50
100
AcDbLine
 10
132.144758
 20
272.301146
 30
0.0
 11
132.474511
 21
272.301146
 31
0.0
  0
LINE
  5
541
330
538
100
AcDbEntity
  8
LC-001-100-D00-0
 62
     7
370
    50
100
AcDbLine
 10
132.474511
 20
272.301146
 30
0.0
 11
132.474511
 21
272.301146
 31
0.0
  0
LINE
  5
542
330
538
100
AcDbEntity
  8
LC-001-100-D00-0
 62
     7
370
    50
100
AcDbLine
 10
132.474511
 20
272.301146
 30
0.0
 11
132.752261
 21
272.301146
 31
0.0
  0
LINE
  5
543
330
538
100
AcDbEntity
  8
LC-001-100-D00-0
 62
     7
370
    50
100
AcDbLine
 10
132.752261
 20
272.301146
 30
0.0
 11
132.752261
 21
272.301146
 31
0.0
  0
LINE
  5
544
330
538
100
AcDbEntity
  8
LC-001-100-D00-0
 62
     7
370
    50
100
AcDbLine
 10
132.752261
 20
272.301146
 30
0.0
 11
132.947587
 21
272.301146
 31
0.0
  0
LINE
  5
545
330
538
100
AcDbEntity
  8
LC-001-100-D00-0
 62
     7
370
    50
100
AcDbLine
 10
132.947587
 20
272.301146
 30
0.0
 11
132.947587
 21
272.301146
 31
0.0
  0
LINE
  5
546
330
538
100
AcDbEntity
  8
LC-001-100-D00-0
 62
     7
370
    50
100
AcDbLine
 10
132.947587
 20
272.301146
 30
0.0
 11
133.020893
 21
272.301146
 31
0.0
  0
LINE
  5
547
330
538
100
AcDbEntity
  8
LC-001-100-D00-0
 62
     7
370
    50
100
AcDbLine
 10
133.020893
 20
272.301146
 30
0.0
 11
133.020893
 21
272.301146
 31
0.0
  0
LINE
  5
548
330
538
100
AcDbEntity
  8
LC-001-100-D00-0
 62
     7
370
    50
100
AcDbLine
 10
133.020893
 20
272.301146
 30
0.0
 11
133.025602
 21
272.301146
 31
0.0
  0
LINE
  5
549
330
538
100
AcDbEntity
  8
LC-001-100-D00-0
 62
     7
370
    50
100
AcDbLine
 10
133.025602
 20
272.301146
 30
0.0
 11
133.025602
 21
272.301146
 31
0.0
  0
LINE
  5
54A
330
538
100
AcDbEntity
  8
LC-001-100-D00-0
 62
     7
370
    50
100
AcDbLine
 10
133.025602
 20
272.301146
 30
0.0
 11
133.026715
 21
272.301146
 31
0.0
  0
ENDBLK
  5
53A
330
538
100
AcDbEntity
  8
0
100
AcDbBlockEnd
  0
BLOCK
  5
54D
330
54C
100
AcDbEntity
  8
0
100
AcDbBlockBegin
  2
POLY47
 70
     0
 71
     0
 10
0.0
 20
0.0
 30
0.0
  3
POLY47
  1

  4
POLY47
  0
LINE
  5
54F
330
54C
100
AcDbEntity
  8
LC-001-100-D00-0
 62
     7
370
    50
100
AcDbLine
 10
135.026716
 20
272.301146
 30
0.0
 11
135.026716
 21
272.301146
 31
0.0
  0
LINE
  5
550
330
54C
100
AcDbEntity
  8
LC-001-100-D00-0
 62
     7
370
    50
100
AcDbLine
 10
135.026716
 20
272.301146
 30
0.0
 11
135.03777
 21
272.301146
 31
0.0
  0
LINE
  5
551
330
54C
100
AcDbEntity
  8
LC-001-100-D00-0
 62
     7
370
    50
100
AcDbLine
 10
135.03777
 20
272.301146
 30
0.0
 11
135.03777
 21
272.301146
 31
0.0
  0
LINE
  5
552
330
54C
100
AcDbEntity
  8
LC-001-100-D00-0
 62
     7
370
    50
100
AcDbLine
 10
135.03777
 20
272.301146
 30
0.0
 11
135.059879
 21
272.301146
 31
0.0
  0
LINE
  5
553
330
54C
100
AcDbEntity
  8
LC-001-100-D00-0
 62
     7
370
    50
100
AcDbLine
 10
135.059879
 20
272.301146
 30
0.0
 11
135.059879
 21
272.301146
 31
0.0
  0
LINE
  5
554
330
54C
100
AcDbEntity
  8
LC-001-100-D00-0
 62
     7
370
    50
100
AcDbLine
 10
135.059879
 20
272.301146
 30
0.0
 11
135.232284
 21
272.301146
 31
0.0
  0
LINE
  5
555
330
54C
100
AcDbEntity
  8
LC-001-100-D00-0
 62
     7
370
    50
100
AcDbLine
 10
135.232284
 20
272.301146
 30
0.0
 11
135.232284
 21
272.301146
 31
0.0
  0
LINE
  5
556
330
54C
100
AcDbEntity
  8
LC-001-100-D00-0
 62
     7
370
    50
100
AcDbLine
 10
135.232284
 20
272.301146
 30
0.0
 11
135.486009
 21
272.301146
 31
0.0
  0
LINE
  5
557
330
54C
100
AcDbEntity
  8
LC-001-100-D00-0
 62
     7
370
    50
100
AcDbLine
 10
135.486009
 20
272.301146
 30
0.0
 11
135.486009
 21
272.301146
 31
0.0
  0
LINE
  5
558
330
54C
100
AcDbEntity
  8
LC-001-100-D00-0
 62
     7
370
    50
100
AcDbLine
 10
135.486009
 20
272.301146
 30
0.0
 11
135.730436
 21
272.301146
 31
0.0
  0
LINE
  5
559
330
54C
100
AcDbEntity
  8
LC-001-100-D00-0
 62
     7
370
    50
100
AcDbLine
 10
135.730436
 20
272.301146
 30
0.0
 11
135.730436
 21
272.301146
 31
0.0
  0
LINE
  5
55A
330
54C
100
AcDbEntity
  8
LC-001-100-D00-0
 62
     7
370
    50
100
AcDbLine
 10
135.730436
 20
272.301146
 30
0.0
 11
135.875472
 21
272.301146
 31
0.0
  0
LINE
  5
55B
330
54C
100
AcDbEntity
  8
LC-001-100-D00-0
 62
     7
370
    50
100
AcDbLine
 10
135.875472
 20
272.301146
 30
0.0
 11
135.875472
 21
272.301146
 31
0.0
  0
LINE
  5
55C
330
54C
100
AcDbEntity
  8
LC-001-100-D00-0
 62
     7
370
    50
100
AcDbLine
 10
135.875472
 20
272.301146
 30
0.0
 11
135.909784
 21
272.301146
 31
0.0
  0
ENDBLK
  5
54E
330
54C
100
AcDbEntity
  8
0
100
AcDbBlockEnd
  0
BLOCK
  5
563
330
562
100
AcDbEntity
  8
0
100
AcDbBlockBegin
  2
KLON3
 70
     0
 71
     0
 10
0.0
 20
0.0
 30
0.0
  3
KLON3
  1

  4
KLON3
  0
LINE
  5
565
330
562
100
AcDbEntity
  8
LC-001-100-D00-0
 62
     7
370
    25
100
AcDbLine
 10
166.13548
 20
238.301146
 30
0.0
 11
169.13548
 21
241.301146
 31
0.0
  0
LINE
  5
566
330
562
100
AcDbEntity
  8
LC-001-100-D00-0
 62
     7
370
    25
100
AcDbLine
 10
177.651716
 20
249.817381
 30
0.0
 11
180.651716
 21
252.817381
 31
0.0
  0
LINE
  5
567
330
562
100
AcDbEntity
  8
LC-001-100-D00-0
 62
     7
370
    25
100
AcDbLine
 10
157.155224
 20
238.301146
 30
0.0
 11
160.155224
 21
241.301146
 31
0.0
  0
LINE
  5
568
330
562
100
AcDbEntity
  8
LC-001-100-D00-0
 62
     7
370
    25
100
AcDbLine
 10
177.651716
 20
258.797638
 30
0.0
 11
180.651716
 21
261.797638
 31
0.0
  0
LINE
  5
569
330
562
100
AcDbEntity
  8
LC-001-100-D00-0
 62
     7
370
    25
100
AcDbLine
 10
148.174968
 20
238.301146
 30
0.0
 11
151.174968
 21
241.301146
 31
0.0
  0
LINE
  5
56A
330
562
100
AcDbEntity
  8
LC-001-100-D00-0
 62
     7
370
    25
100
AcDbLine
 10
177.651716
 20
267.777894
 30
0.0
 11
180.651716
 21
270.777894
 31
0.0
  0
LINE
  5
56B
330
562
100
AcDbEntity
  8
LC-001-100-D00-0
 62
     7
370
    25
100
AcDbLine
 10
139.194712
 20
238.301146
 30
0.0
 11
142.194712
 21
241.301146
 31
0.0
  0
LINE
  5
56C
330
562
100
AcDbEntity
  8
LC-001-100-D00-0
 62
     7
370
    25
100
AcDbLine
 10
130.214456
 20
238.301146
 30
0.0
 11
135.527449
 21
243.61414
 31
0.0
  0
LINE
  5
56D
330
562
100
AcDbEntity
  8
LC-001-100-D00-0
 62
     7
370
    25
100
AcDbLine
 10
121.234199
 20
238.301146
 30
0.0
 11
124.234199
 21
241.301146
 31
0.0
  0
LINE
  5
56E
330
562
100
AcDbEntity
  8
LC-001-100-D00-0
 62
     7
370
    25
100
AcDbLine
 10
132.632196
 20
249.699143
 30
0.0
 11
135.373388
 21
252.440334
 31
0.0
  0
LINE
  5
56F
330
562
100
AcDbEntity
  8
LC-001-100-D00-0
 62
     7
370
    25
100
AcDbLine
 10
112.253943
 20
238.301146
 30
0.0
 11
115.253943
 21
241.301146
 31
0.0
  0
LINE
  5
570
330
562
100
AcDbEntity
  8
LC-001-100-D00-0
 62
     7
370
    25
100
AcDbLine
 10
132.791732
 20
258.838934
 30
0.0
 11
135.219326
 21
261.266528
 31
0.0
  0
LINE
  5
571
330
562
100
AcDbEntity
  8
LC-001-100-D00-0
 62
     7
370
    25
100
AcDbLine
 10
103.273687
 20
238.301146
 30
0.0
 11
106.273687
 21
241.301146
 31
0.0
  0
LINE
  5
572
330
562
100
AcDbEntity
  8
LC-001-100-D00-0
 62
     7
370
    25
100
AcDbLine
 10
132.951268
 20
267.978726
 30
0.0
 11
135.065264
 21
270.092722
 31
0.0
  0
LINE
  5
573
330
562
100
AcDbEntity
  8
LC-001-100-D00-0
 62
     7
370
    25
100
AcDbLine
 10
94.293431
 20
238.301146
 30
0.0
 11
97.293431
 21
241.301146
 31
0.0
  0
LINE
  5
574
330
562
100
AcDbEntity
  8
LC-001-100-D00-0
 62
     7
370
    25
100
AcDbLine
 10
85.313175
 20
238.301146
 30
0.0
 11
88.313175
 21
241.301146
 31
0.0
  0
LINE
  5
575
330
562
100
AcDbEntity
  8
LC-001-100-D00-0
 62
     7
370
    25
100
AcDbLine
 10
76.332919
 20
238.301146
 30
0.0
 11
79.332919
 21
241.301146
 31
0.0
  0
LINE
  5
576
330
562
100
AcDbEntity
  8
LC-001-100-D00-0
 62
     7
370
    25
100
AcDbLine
 10
67.352663
 20
238.301146
 30
0.0
 11
70.352663
 21
241.301146
 31
0.0
  0
LINE
  5
577
330
562
100
AcDbEntity
  8
LC-001-100-D00-0
 62
     7
370
    25
100
AcDbLine
 10
58.372407
 20
238.301146
 30
0.0
 11
61.372407
 21
241.301146
 31
0.0
  0
LINE
  5
578
330
562
100
AcDbEntity
  8
LC-001-100-D00-0
 62
     7
370
    25
100
AcDbLine
 10
49.39215
 20
238.301146
 30
0.0
 11
52.39215
 21
241.301146
 31
0.0
  0
LINE
  5
579
330
562
100
AcDbEntity
  8
LC-001-100-D00-0
 62
     7
370
    25
100
AcDbLine
 10
40.411894
 20
238.301146
 30
0.0
 11
43.411894
 21
241.301146
 31
0.0
  0
ENDBLK
  5
564
330
562
100
AcDbEntity
  8
0
100
AcDbBlockEnd
  0
BLOCK
  5
57C
330
57B
100
AcDbEntity
  8
0
100
AcDbBlockBegin
  2
KLON4
 70
     0
 71
     0
 10
0.0
 20
0.0
 30
0.0
  3
KLON4
  1

  4
KLON4
  0
LINE
  5
57E
330
57B
100
AcDbEntity
  8
LC-001-100-D00-0
 62
     7
370
    25
100
AcDbLine
 10
100.852663
 20
271.801146
 30
0.0
 11
103.651716
 21
274.600199
 31
0.0
  0
LINE
  5
57F
330
57B
100
AcDbEntity
  8
LC-001-100-D00-0
 62
     7
370
    25
100
AcDbLine
 10
92.868009
 20
272.796748
 30
0.0
 11
95.080402
 21
275.009141
 31
0.0
  0
LINE
  5
580
330
57B
100
AcDbEntity
  8
LC-001-100-D00-0
 62
     7
370
    25
100
AcDbLine
 10
89.118886
 20
278.027881
 30
0.0
 11
91.315039
 21
280.224034
 31
0.0
  0
LINE
  5
581
330
57B
100
AcDbEntity
  8
LC-001-100-D00-0
 62
     7
370
    25
100
AcDbLine
 10
85.831884
 20
283.721136
 30
0.0
 11
88.028037
 21
285.917288
 31
0.0
  0
LINE
  5
582
330
57B
100
AcDbEntity
  8
LC-001-100-D00-0
 62
     7
370
    25
100
AcDbLine
 10
78.431638
 20
285.301146
 30
0.0
 11
81.431638
 21
288.301146
 31
0.0
  0
LINE
  5
583
330
57B
100
AcDbEntity
  8
LC-001-100-D00-0
 62
     7
370
    25
100
AcDbLine
 10
83.651716
 20
290.521223
 30
0.0
 11
85.431638
 21
292.301146
 31
0.0
  0
LINE
  5
584
330
57B
100
AcDbEntity
  8
LC-001-100-D00-0
 62
     7
370
    25
100
AcDbLine
 10
69.451382
 20
285.301146
 30
0.0
 11
72.451382
 21
288.301146
 31
0.0
  0
LINE
  5
585
330
57B
100
AcDbEntity
  8
LC-001-100-D00-0
 62
     7
370
    25
100
AcDbLine
 10
60.471126
 20
285.301146
 30
0.0
 11
63.471126
 21
288.301146
 31
0.0
  0
LINE
  5
586
330
57B
100
AcDbEntity
  8
LC-001-100-D00-0
 62
     7
370
    25
100
AcDbLine
 10
51.49087
 20
285.301146
 30
0.0
 11
54.49087
 21
288.301146
 31
0.0
  0
LINE
  5
587
330
57B
100
AcDbEntity
  8
LC-001-100-D00-0
 62
     7
370
    25
100
AcDbLine
 10
42.510614
 20
285.301146
 30
0.0
 11
45.510614
 21
288.301146
 31
0.0
  0
LINE
  5
588
330
57B
100
AcDbEntity
  8
LC-001-100-D00-0
 62
     7
370
    25
100
AcDbLine
 10
34.651716
 20
286.422504
 30
0.0
 11
36.119912
 21
287.8907
 31
0.0
  0
ENDBLK
  5
57D
330
57B
100
AcDbEntity
  8
0
100
AcDbBlockEnd
  0
BLOCK
  5
58B
330
58A
100
AcDbEntity
  8
0
100
AcDbBlockBegin
  2
KLON5
 70
     0
 71
     0
 10
0.0
 20
0.0
 30
0.0
  3
KLON5
  1

  4
KLON5
  0
LINE
  5
58D
330
58A
100
AcDbEntity
  8
LC-001-100-D00-0
 62
     7
370
    25
100
AcDbLine
 10
173.694712
 20
272.801146
 30
0.0
 11
174.651716
 21
273.75815
 31
0.0
  0
LINE
  5
58E
330
58A
100
AcDbEntity
  8
LC-001-100-D00-0
 62
     7
370
    25
100
AcDbLine
 10
177.651716
 20
276.75815
 30
0.0
 11
180.651716
 21
279.75815
 31
0.0
  0
LINE
  5
58F
330
58A
100
AcDbEntity
  8
LC-001-100-D00-0
 62
     7
370
    25
100
AcDbLine
 10
171.651716
 20
279.738406
 30
0.0
 11
171.714456
 21
279.801146
 31
0.0
  0
LINE
  5
590
330
58A
100
AcDbEntity
  8
LC-001-100-D00-0
 62
     7
370
    25
100
AcDbLine
 10
177.651716
 20
285.738406
 30
0.0
 11
180.651716
 21
288.738406
 31
0.0
  0
LINE
  5
591
330
58A
100
AcDbEntity
  8
LC-001-100-D00-0
 62
     7
370
    25
100
AcDbLine
 10
177.651716
 20
294.718662
 30
0.0
 11
180.651716
 21
297.718662
 31
0.0
  0
LINE
  5
592
330
58A
100
AcDbEntity
  8
LC-001-100-D00-0
 62
     7
370
    25
100
AcDbLine
 10
177.651716
 20
303.698918
 30
0.0
 11
179.253943
 21
305.301146
 31
0.0
  0
ENDBLK
  5
58C
330
58A
100
AcDbEntity
  8
0
100
AcDbBlockEnd
  0
BLOCK
  5
595
330
594
100
AcDbEntity
  8
0
100
AcDbBlockBegin
  2
KLON6
 70
     0
 71
     0
 10
0.0
 20
0.0
 30
0.0
  3
KLON6
  1

  4
KLON6
  0
LINE
  5
597
330
594
100
AcDbEntity
  8
LC-001-100-D00-0
 62
     7
370
    25
100
AcDbLine
 10
110.832919
 20
272.801146
 30
0.0
 11
112.651716
 21
274.619943
 31
0.0
  0
LINE
  5
598
330
594
100
AcDbEntity
  8
LC-001-100-D00-0
 62
     7
370
    25
100
AcDbLine
 10
105.852663
 20
276.801146
 30
0.0
 11
108.852663
 21
279.801146
 31
0.0
  0
LINE
  5
599
330
594
100
AcDbEntity
  8
LC-001-100-D00-0
 62
     7
370
    25
100
AcDbLine
 10
100.651716
 20
280.580455
 30
0.0
 11
103.651716
 21
283.580455
 31
0.0
  0
LINE
  5
59A
330
594
100
AcDbEntity
  8
LC-001-100-D00-0
 62
     7
370
    25
100
AcDbLine
 10
100.651716
 20
289.560711
 30
0.0
 11
103.651716
 21
292.560711
 31
0.0
  0
LINE
  5
59B
330
594
100
AcDbEntity
  8
LC-001-100-D00-0
 62
     7
370
    25
100
AcDbLine
 10
100.651716
 20
298.540967
 30
0.0
 11
103.651716
 21
301.540967
 31
0.0
  0
ENDBLK
  5
596
330
594
100
AcDbEntity
  8
0
100
AcDbBlockEnd
  0
BLOCK
  5
5AC
330
5A0
100
AcDbEntity
  8
0
100
AcDbBlockBegin
  2
*D57
 70
     1
 71
     0
 10
0.0
 20
0.0
 30
0.0
  3
*D57
  1

  0
LINE
  5
5A1
330
5A0
100
AcDbEntity
  8
LC-001-100-D00-0
 62
     2
370
    -2
100
AcDbLine
 10
37.651716
 20
288.301146
 30
0.0
 11
14.909052
 21
288.301146
 31
0.0
  0
LINE
  5
5A2
330
5A0
100
AcDbEntity
  8
LC-001-100-D00-0
 62
     2
370
    -2
100
AcDbLine
 10
37.651716
 20
238.301146
 30
0.0
 11
14.909052
 21
238.301146
 31
0.0
  0
LINE
  5
5A3
330
5A0
100
AcDbEntity
  8
LC-001-100-D00-0
 62
     2
370
    -2
100
AcDbLine
 10
18.509052
 20
316.301146
 30
0.0
 11
18.509052
 21
344.301146
 31
0.0
  0
LINE
  5
5A4
330
5A0
100
AcDbEntity
  8
LC-001-100-D00-0
 62
     2
370
    -2
100
AcDbLine
 10
18.509052
 20
210.301146
 30
0.0
 11
18.509052
 21
182.301146
 31
0.0
  0
LINE
  5
5A5
330
5A0
100
AcDbEntity
  8
LC-001-100-D00-0
 62
     2
370
    -2
100
AcDbLine
 10
18.509052
 20
288.301146
 30
0.0
 11
18.509052
 21
238.301146
 31
0.0
  0
SOLID
  5
5A6
330
5A0
100
AcDbEntity
  8
LC-001-100-D00-0
 62
     2
100
AcDbTrace
 10
13.842385
 20
316.301146
 30
0.0
 11
23.175719
 21
316.301146
 31
0.0
 12
18.509052
 22
288.301146
 32
0.0
 13
18.509052
 23
288.301146
 33
0.0
  0
SOLID
  5
5A7
330
5A0
100
AcDbEntity
  8
LC-001-100-D00-0
 62
     2
100
AcDbTrace
 10
23.175719
 20
210.301146
 30
0.0
 11
13.842385
 21
210.301146
 31
0.0
 12
18.509052
 22
238.301146
 32
0.0
 13
18.509052
 23
238.301146
 33
0.0
  0
MTEXT
  5
5A8
330
5A0
100
AcDbEntity
  8
LC-001-100-D00-0
 62
     2
100
AcDbMText
 10
-12.290948
 20
260.621462
 30
0.0
 40
28.0
 41
0.0
 71
     5
 72
     1
  1
\A1;DN50
  7
LCTX15-400-0-0pDIN-Schrift
 11
6.123031769111886E-17
 21
1.0
 31
0.0
 73
     1
 44
1.0
  0
POINT
  5
5A9
330
5A0
100
AcDbEntity
  8
Defpoints
 62
     0
100
AcDbPoint
 10
37.651716
 20
288.301146
 30
0.0
  0
POINT
  5
5AA
330
5A0
100
AcDbEntity
  8
Defpoints
 62
     0
100
AcDbPoint
 10
37.651716
 20
238.301146
 30
0.0
  0
POINT
  5
5AB
330
5A0
100
AcDbEntity
  8
Defpoints
 62
     0
100
AcDbPoint
 10
18.509052
 20
238.301146
 30
0.0
  0
ENDBLK
  5
5AD
330
5A0
100
AcDbEntity
  8
0
100
AcDbBlockEnd
  0
BLOCK
  5
5B9
330
5AF
100
AcDbEntity
  8
0
100
AcDbBlockBegin
  2
*D58
 70
     1
 71
     0
 10
0.0
 20
0.0
 30
0.0
  3
*D58
  1

  0
LINE
  5
5B0
330
5AF
100
AcDbEntity
  8
LC-001-100-D00-0
 62
     2
370
    -2
100
AcDbLine
 10
34.651716
 20
287.497298
 30
0.0
 11
34.651716
 21
324.343962
 31
0.0
  0
LINE
  5
5B1
330
5AF
100
AcDbEntity
  8
LC-001-100-D00-0
 62
     2
370
    -2
100
AcDbLine
 10
140.651716
 20
309.301146
 30
0.0
 11
140.651716
 21
324.343962
 31
0.0
  0
LINE
  5
5B2
330
5AF
100
AcDbEntity
  8
LC-001-100-D00-0
 62
     2
370
    -2
100
AcDbLine
 10
62.651716
 20
320.743962
 30
0.0
 11
112.651716
 21
320.743962
 31
0.0
  0
SOLID
  5
5B3
330
5AF
100
AcDbEntity
  8
LC-001-100-D00-0
 62
     2
100
AcDbTrace
 10
62.651716
 20
325.410629
 30
0.0
 11
62.651716
 21
316.077295
 31
0.0
 12
34.651716
 22
320.743962
 32
0.0
 13
34.651716
 23
320.743962
 33
0.0
  0
SOLID
  5
5B4
330
5AF
100
AcDbEntity
  8
LC-001-100-D00-0
 62
     2
100
AcDbTrace
 10
112.651716
 20
316.077295
 30
0.0
 11
112.651716
 21
325.410629
 31
0.0
 12
140.651716
 22
320.743962
 32
0.0
 13
140.651716
 23
320.743962
 33
0.0
  0
MTEXT
  5
5B5
330
5AF
100
AcDbEntity
  8
LC-001-100-D00-0
 62
     2
100
AcDbMText
 10
84.564693
 20
351.543962
 30
0.0
 40
28.0
 41
0.0
 71
     5
 72
     1
  1
\A1;106
  7
LCTX15-400-0-0pDIN-Schrift
 73
     1
 44
1.0
  0
POINT
  5
5B6
330
5AF
100
AcDbEntity
  8
Defpoints
 62
     0
100
AcDbPoint
 10
34.651716
 20
287.497298
 30
0.0
  0
POINT
  5
5B7
330
5AF
100
AcDbEntity
  8
Defpoints
 62
     0
100
AcDbPoint
 10
140.651716
 20
309.301146
 30
0.0
  0
POINT
  5
5B8
330
5AF
100
AcDbEntity
  8
Defpoints
 62
     0
100
AcDbPoint
 10
140.651716
 20
320.743962
 30
0.0
  0
ENDBLK
  5
5BA
330
5AF
100
AcDbEntity
  8
0
100
AcDbBlockEnd
  0
BLOCK
  5
5E3
330
5E2
100
AcDbEntity
  8
0
100
AcDbBlockBegin
  2
KLON7
 70
     0
 71
     0
 10
0.0
 20
0.0
 30
0.0
  3
KLON7
  1

  4
KLON7
  0
LINE
  5
5E5
330
5E2
100
AcDbEntity
  8
LC-001-100-D00-0
 62
     7
370
    25
100
AcDbLine
 10
121.216006
 20
289.187773
 30
0.0
 11
121.752162
 21
289.723929
 31
0.0
  0
LINE
  5
5E6
330
5E2
100
AcDbEntity
  8
LC-001-100-D00-0
 62
     7
370
    25
100
AcDbLine
 10
119.31002
 20
278.301531
 30
0.0
 11
120.81002
 21
279.801531
 31
0.0
  0
LINE
  5
5E7
330
5E2
100
AcDbEntity
  8
LC-001-100-D00-0
 62
     7
370
    25
100
AcDbLine
 10
121.138404
 20
280.129914
 30
0.0
 11
130.81002
 21
289.801531
 31
0.0
  0
LINE
  5
5E8
330
5E2
100
AcDbEntity
  8
LC-001-100-D00-0
 62
     7
370
    25
100
AcDbLine
 10
123.290276
 20
273.301531
 30
0.0
 11
139.790276
 21
289.801531
 31
0.0
  0
LINE
  5
5E9
330
5E2
100
AcDbEntity
  8
LC-001-100-D00-0
 62
     7
370
    25
100
AcDbLine
 10
132.270533
 20
273.301531
 30
0.0
 11
157.85253
 21
298.883529
 31
0.0
  0
LINE
  5
5EA
330
5E2
100
AcDbEntity
  8
LC-001-100-D00-0
 62
     7
370
    25
100
AcDbLine
 10
141.250789
 20
273.301531
 30
0.0
 11
160.138404
 21
292.189146
 31
0.0
  0
LINE
  5
5EB
330
5E2
100
AcDbEntity
  8
LC-001-100-D00-0
 62
     7
370
    25
100
AcDbLine
 10
146.388404
 20
269.45889
 30
0.0
 11
147.888404
 21
270.95889
 31
0.0
  0
LINE
  5
5EC
330
5E2
100
AcDbEntity
  8
LC-001-100-D00-0
 62
     7
370
    25
100
AcDbLine
 10
150.231045
 20
273.301531
 30
0.0
 11
160.138404
 21
283.20889
 31
0.0
  0
LINE
  5
5ED
330
5E2
100
AcDbEntity
  8
LC-001-100-D00-0
 62
     7
370
    25
100
AcDbLine
 10
146.388404
 20
260.478634
 30
0.0
 11
147.888404
 21
261.978634
 31
0.0
  0
LINE
  5
5EE
330
5E2
100
AcDbEntity
  8
LC-001-100-D00-0
 62
     7
370
    25
100
AcDbLine
 10
159.211301
 20
273.301531
 30
0.0
 11
162.838404
 21
276.928634
 31
0.0
  0
LINE
  5
5EF
330
5E2
100
AcDbEntity
  8
LC-001-100-D00-0
 62
     7
370
    25
100
AcDbLine
 10
164.211301
 20
278.301531
 30
0.0
 11
165.138404
 21
279.228634
 31
0.0
  0
LINE
  5
5F0
330
5E2
100
AcDbEntity
  8
LC-001-100-D00-0
 62
     7
370
    25
100
AcDbLine
 10
146.388404
 20
251.498378
 30
0.0
 11
147.888404
 21
252.998378
 31
0.0
  0
LINE
  5
5F1
330
5E2
100
AcDbEntity
  8
LC-001-100-D00-0
 62
     7
370
    25
100
AcDbLine
 10
159.638404
 20
264.748378
 30
0.0
 11
161.138404
 21
266.248378
 31
0.0
  0
LINE
  5
5F2
330
5E2
100
AcDbEntity
  8
LC-001-100-D00-0
 62
     7
370
    25
100
AcDbLine
 10
159.638404
 20
255.768122
 30
0.0
 11
161.138404
 21
257.268122
 31
0.0
  0
ENDBLK
  5
5E4
330
5E2
100
AcDbEntity
  8
0
100
AcDbBlockEnd
  0
BLOCK
  5
60F
330
603
100
AcDbEntity
  8
0
100
AcDbBlockBegin
  2
*D60
 70
     1
 71
     0
 10
0.0
 20
0.0
 30
0.0
  3
*D60
  1

  0
LINE
  5
604
330
603
100
AcDbEntity
  8
LC-002-003-----0
 62
     2
370
    -2
100
AcDbLine
 10
161.138404
 20
249.301531
 30
0.0
 11
211.208937
 21
249.301531
 31
0.0
  0
LINE
  5
605
330
603
100
AcDbEntity
  8
LC-002-003-----0
 62
     2
370
    -2
100
AcDbLine
 10
161.138404
 20
273.301531
 30
0.0
 11
211.208937
 21
273.301531
 31
0.0
  0
LINE
  5
606
330
603
100
AcDbEntity
  8
LC-002-003-----0
 62
     2
370
    -2
100
AcDbLine
 10
207.608937
 20
221.301531
 30
0.0
 11
207.608937
 21
193.301531
 31
0.0
  0
LINE
  5
607
330
603
100
AcDbEntity
  8
LC-002-003-----0
 62
     2
370
    -2
100
AcDbLine
 10
207.608937
 20
301.301531
 30
0.0
 11
207.608937
 21
329.301531
 31
0.0
  0
LINE
  5
608
330
603
100
AcDbEntity
  8
LC-002-003-----0
 62
     2
370
    -2
100
AcDbLine
 10
207.608937
 20
249.301531
 30
0.0
 11
207.608937
 21
273.301531
 31
0.0
  0
SOLID
  5
609
330
603
100
AcDbEntity
  8
LC-002-003-----0
 62
     2
100
AcDbTrace
 10
212.275603
 20
221.301531
 30
0.0
 11
202.94227
 21
221.301531
 31
0.0
 12
207.608937
 22
249.301531
 32
0.0
 13
207.608937
 23
249.301531
 33
0.0
  0
SOLID
  5
60A
330
603
100
AcDbEntity
  8
LC-002-003-----0
 62
     2
100
AcDbTrace
 10
202.94227
 20
301.301531
 30
0.0
 11
212.275603
 21
301.301531
 31
0.0
 12
207.608937
 22
273.301531
 32
0.0
 13
207.608937
 23
273.301531
 33
0.0
  0
MTEXT
  5
60B
330
603
100
AcDbEntity
  8
LC-002-003-----0
 62
     2
100
AcDbMText
 10
176.808937
 20
261.067482
 30
0.0
 40
28.0
 41
0.0
 71
     5
 72
     1
  1
\A1;24
  7
LCTX15-400-0-0pDIN-Schrift
 11
6.123031769111886E-17
 21
1.0
 31
0.0
 73
     1
 44
1.0
  0
POINT
  5
60C
330
603
100
AcDbEntity
  8
Defpoints
 62
     0
100
AcDbPoint
 10
161.138404
 20
249.301531
 30
0.0
  0
POINT
  5
60D
330
603
100
AcDbEntity
  8
Defpoints
 62
     0
100
AcDbPoint
 10
161.138404
 20
273.301531
 30
0.0
  0
POINT
  5
60E
330
603
100
AcDbEntity
  8
Defpoints
 62
     0
100
AcDbPoint
 10
207.608937
 20
273.301531
 30
0.0
  0
ENDBLK
  5
610
330
603
100
AcDbEntity
  8
0
100
AcDbBlockEnd
  0
ENDSEC
  0
SECTION
  2
ENTITIES
  0
ARC
  5
31
330
1F
100
AcDbEntity
  8
LC-001-100-D00-0
 62
     7
370
    50
100
AcDbCircle
 10
238.306405
 20
280.901146
 30
0.0
 40
0.6000000000000227
100
AcDbArc
 50
270.0
 51
0.0
  0
ARC
  5
32
330
1F
100
AcDbEntity
  8
LC-001-100-D00-0
 62
     7
370
    50
100
AcDbCircle
 10
229.506405
 20
280.901146
 30
0.0
 40
0.6000000000000227
100
AcDbArc
 50
180.0
 51
270.0
  0
LINE
  5
33
330
1F
100
AcDbEntity
  8
LC-001-100-D00-0
 62
     7
370
    50
100
AcDbLine
 10
238.906405
 20
280.901146
 30
0.0
 11
238.906405
 21
284.301146
 31
0.0
  0
LINE
  5
34
330
1F
100
AcDbEntity
  8
LC-001-100-D00-0
 62
     7
370
    50
100
AcDbLine
 10
228.906405
 20
284.301146
 30
0.0
 11
228.906405
 21
280.901146
 31
0.0
  0
LINE
  5
35
330
1F
100
AcDbEntity
  8
LC-001-100-D00-0
 62
     7
370
    50
100
AcDbLine
 10
236.906405
 20
289.301146
 30
0.0
 11
236.906405
 21
295.746646
 31
0.0
  0
LINE
  5
36
330
1F
100
AcDbEntity
  8
LC-001-100-D00-0
 62
     7
370
    50
100
AcDbLine
 10
230.906405
 20
295.746646
 30
0.0
 11
230.906405
 21
289.301146
 31
0.0
  0
LINE
  5
37
330
1F
100
AcDbEntity
  8
LC-001-100-D00-0
 62
     7
370
    50
100
AcDbLine
 10
236.906405
 20
295.746646
 30
0.0
 11
236.351905
 21
296.301146
 31
0.0
  0
LINE
  5
38
330
1F
100
AcDbEntity
  8
LC-001-100-D00-0
 62
     7
370
    50
100
AcDbLine
 10
231.460905
 20
296.301146
 30
0.0
 11
230.906405
 21
295.746646
 31
0.0
  0
LINE
  5
39
330
1F
100
AcDbEntity
  8
LC-001-100-D00-0
 62
     7
370
    50
100
AcDbLine
 10
373.906405
 20
280.901146
 30
0.0
 11
373.906405
 21
284.301146
 31
0.0
  0
LINE
  5
3A
330
1F
100
AcDbEntity
  8
LC-001-100-D00-0
 62
     7
370
    50
100
AcDbLine
 10
363.906405
 20
284.301146
 30
0.0
 11
363.906405
 21
280.901146
 31
0.0
  0
ARC
  5
3B
330
1F
100
AcDbEntity
  8
LC-001-100-D00-0
 62
     7
370
    50
100
AcDbCircle
 10
373.306405
 20
280.901146
 30
0.0
 40
0.6000000000000227
100
AcDbArc
 50
270.0
 51
0.0
  0
ARC
  5
3C
330
1F
100
AcDbEntity
  8
LC-001-100-D00-0
 62
     7
370
    50
100
AcDbCircle
 10
364.506405
 20
280.901146
 30
0.0
 40
0.6000000000000227
100
AcDbArc
 50
180.0
 51
270.0
  0
LINE
  5
3D
330
1F
100
AcDbEntity
  8
LC-001-100-D00-0
 62
     7
370
    50
100
AcDbLine
 10
371.906405
 20
289.301146
 30
0.0
 11
371.906405
 21
295.746646
 31
0.0
  0
LINE
  5
3E
330
1F
100
AcDbEntity
  8
LC-001-100-D00-0
 62
     7
370
    50
100
AcDbLine
 10
365.906405
 20
295.746646
 30
0.0
 11
365.906405
 21
289.301146
 31
0.0
  0
LINE
  5
3F
330
1F
100
AcDbEntity
  8
LC-001-100-D00-0
 62
     7
370
    50
100
AcDbLine
 10
371.906405
 20
295.746646
 30
0.0
 11
371.351905
 21
296.301146
 31
0.0
  0
LINE
  5
40
330
1F
100
AcDbEntity
  8
LC-001-100-D00-0
 62
     7
370
    50
100
AcDbLine
 10
366.460905
 20
296.301146
 30
0.0
 11
365.906405
 21
295.746646
 31
0.0
  0
LINE
  5
41
330
1F
100
AcDbEntity
  8
LC-001-100-D00-0
 62
     7
370
    50
100
AcDbLine
 10
374.906405
 20
275.301146
 30
0.0
 11
374.906405
 21
279.801146
 31
0.0
  0
LINE
  5
42
330
1F
100
AcDbEntity
  8
LC-001-100-D00-0
 62
     7
370
    50
100
AcDbLine
 10
227.906405
 20
279.801146
 30
0.0
 11
227.906405
 21
275.301146
 31
0.0
  0
LINE
  5
43
330
1F
100
AcDbEntity
  8
LC-001-100-D00-0
 62
     7
370
    50
100
AcDbLine
 10
227.906405
 20
276.301146
 30
0.0
 11
227.906405
 21
248.301146
 31
0.0
  0
ARC
  5
44
330
1F
100
AcDbEntity
  8
LC-001-100-D00-0
 62
     7
370
    50
100
AcDbCircle
 10
237.906405
 20
248.301146
 30
0.0
 40
10.0
100
AcDbArc
 50
180.0
 51
270.0
  0
ARC
  5
45
330
1F
100
AcDbEntity
  8
LC-001-100-D00-0
 62
     7
370
    50
100
AcDbCircle
 10
364.906405
 20
248.301146
 30
0.0
 40
10.0
100
AcDbArc
 50
270.0
 51
0.0
  0
LINE
  5
46
330
1F
100
AcDbEntity
  8
LC-001-100-D00-0
 62
     7
370
    50
100
AcDbLine
 10
374.906405
 20
248.301146
 30
0.0
 11
374.906405
 21
276.301146
 31
0.0
  0
LINE
  5
47
330
1F
100
AcDbEntity
  8
LC-001-100-D00-0
 62
     7
370
    50
100
AcDbLine
 10
374.406405
 20
284.301146
 30
0.0
 11
374.406405
 21
286.301146
 31
0.0
  0
LINE
  5
48
330
1F
100
AcDbEntity
  8
LC-001-100-D00-0
 62
     7
370
    50
100
AcDbLine
 10
363.406405
 20
286.301146
 30
0.0
 11
363.406405
 21
284.301146
 31
0.0
  0
LINE
  5
49
330
1F
100
AcDbEntity
  8
LC-001-100-D00-0
 62
     7
370
    50
100
AcDbLine
 10
239.406405
 20
284.301146
 30
0.0
 11
239.406405
 21
286.301146
 31
0.0
  0
LINE
  5
4A
330
1F
100
AcDbEntity
  8
LC-001-100-D00-0
 62
     7
370
    50
100
AcDbLine
 10
228.406405
 20
286.301146
 30
0.0
 11
228.406405
 21
284.301146
 31
0.0
  0
LINE
  5
4B
330
1F
100
AcDbEntity
  8
LC-001-100-D00-0
 62
     7
370
    50
100
AcDbLine
 10
233.906405
 20
280.301146
 30
0.0
 11
229.506405
 21
280.301146
 31
0.0
  0
LINE
  5
4C
330
1F
100
AcDbEntity
  8
LC-001-100-D00-0
 62
     7
370
    50
100
AcDbLine
 10
238.306405
 20
280.301146
 30
0.0
 11
233.906405
 21
280.301146
 31
0.0
  0
LINE
  5
4D
330
1F
100
AcDbEntity
  8
LC-001-100-D00-0
 62
     7
370
    50
100
AcDbLine
 10
233.906405
 20
295.746646
 30
0.0
 11
230.906405
 21
295.746646
 31
0.0
  0
LINE
  5
4E
330
1F
100
AcDbEntity
  8
LC-001-100-D00-0
 62
     7
370
    50
100
AcDbLine
 10
236.906405
 20
295.746646
 30
0.0
 11
233.906405
 21
295.746646
 31
0.0
  0
LINE
  5
4F
330
1F
100
AcDbEntity
  8
LC-001-100-D00-0
 62
     7
370
    50
100
AcDbLine
 10
233.906405
 20
296.301146
 30
0.0
 11
231.460905
 21
296.301146
 31
0.0
  0
LINE
  5
50
330
1F
100
AcDbEntity
  8
LC-001-100-D00-0
 62
     7
370
    50
100
AcDbLine
 10
236.351905
 20
296.301146
 30
0.0
 11
233.906405
 21
296.301146
 31
0.0
  0
LINE
  5
51
330
1F
100
AcDbEntity
  8
LC-001-100-D00-0
 62
     7
370
    50
100
AcDbLine
 10
368.906405
 20
280.301146
 30
0.0
 11
364.506405
 21
280.301146
 31
0.0
  0
LINE
  5
52
330
1F
100
AcDbEntity
  8
LC-001-100-D00-0
 62
     7
370
    50
100
AcDbLine
 10
373.306405
 20
280.301146
 30
0.0
 11
368.906405
 21
280.301146
 31
0.0
  0
LINE
  5
53
330
1F
100
AcDbEntity
  8
LC-001-100-D00-0
 62
     7
370
    50
100
AcDbLine
 10
368.906405
 20
295.746646
 30
0.0
 11
365.906405
 21
295.746646
 31
0.0
  0
LINE
  5
54
330
1F
100
AcDbEntity
  8
LC-001-100-D00-0
 62
     7
370
    50
100
AcDbLine
 10
371.906405
 20
295.746646
 30
0.0
 11
368.906405
 21
295.746646
 31
0.0
  0
LINE
  5
55
330
1F
100
AcDbEntity
  8
LC-001-100-D00-0
 62
     7
370
    50
100
AcDbLine
 10
368.906405
 20
296.301146
 30
0.0
 11
366.460905
 21
296.301146
 31
0.0
  0
LINE
  5
56
330
1F
100
AcDbEntity
  8
LC-001-100-D00-0
 62
     7
370
    50
100
AcDbLine
 10
371.351905
 20
296.301146
 30
0.0
 11
368.906405
 21
296.301146
 31
0.0
  0
INSERT
  5
66
330
1F
100
AcDbEntity
  8
LC-001-100-D00-0
 62
     7
370
    50
100
AcDbBlockReference
  2
POLY1
 10
0.0
 20
0.0
 30
0.0
  0
INSERT
  5
76
330
1F
100
AcDbEntity
  8
LC-001-100-D00-0
 62
     7
370
    50
100
AcDbBlockReference
  2
POLY2
 10
0.0
 20
0.0
 30
0.0
  0
LINE
  5
77
330
1F
100
AcDbEntity
  8
LC-001-100-D00-0
 62
     7
370
    50
100
AcDbLine
 10
226.406405
 20
286.301146
 30
0.0
 11
226.406405
 21
289.301146
 31
0.0
  0
LINE
  5
78
330
1F
100
AcDbEntity
  8
LC-001-100-D00-0
 62
     7
370
    50
100
AcDbLine
 10
226.406405
 20
289.301146
 30
0.0
 11
231.406405
 21
289.301146
 31
0.0
  0
LINE
  5
79
330
1F
100
AcDbEntity
  8
LC-001-100-D00-0
 62
     7
370
    50
100
AcDbLine
 10
231.406405
 20
286.301146
 30
0.0
 11
226.406405
 21
286.301146
 31
0.0
  0
INSERT
  5
89
330
1F
100
AcDbEntity
  8
LC-001-100-D00-0
 62
     7
370
    50
100
AcDbBlockReference
  2
POLY3
 10
0.0
 20
0.0
 30
0.0
  0
LINE
  5
8A
330
1F
100
AcDbEntity
  8
LC-001-100-D00-0
 62
     7
370
    50
100
AcDbLine
 10
350.148491
 20
289.301146
 30
0.0
 11
371.406405
 21
289.301146
 31
0.0
  0
LINE
  5
8B
330
1F
100
AcDbEntity
  8
LC-001-100-D00-0
 62
     7
370
    50
100
AcDbLine
 10
350.148491
 20
286.301146
 30
0.0
 11
366.615117
 21
286.301146
 31
0.0
  0
LINE
  5
8C
330
1F
100
AcDbEntity
  8
LC-001-100-D00-0
 62
     7
370
    50
100
AcDbLine
 10
371.197692
 20
286.301146
 30
0.0
 11
371.406405
 21
286.301146
 31
0.0
  0
INSERT
  5
9C
330
1F
100
AcDbEntity
  8
LC-001-100-D00-0
 62
     7
370
    50
100
AcDbBlockReference
  2
POLY4
 10
0.0
 20
0.0
 30
0.0
  0
LINE
  5
9D
330
1F
100
AcDbEntity
  8
LC-001-100-D00-0
 62
     7
370
    50
100
AcDbLine
 10
231.406405
 20
289.301146
 30
0.0
 11
252.664318
 21
289.301146
 31
0.0
  0
LINE
  5
9E
330
1F
100
AcDbEntity
  8
LC-001-100-D00-0
 62
     7
370
    50
100
AcDbLine
 10
231.406405
 20
286.301146
 30
0.0
 11
231.615117
 21
286.301146
 31
0.0
  0
LINE
  5
9F
330
1F
100
AcDbEntity
  8
LC-001-100-D00-0
 62
     7
370
    50
100
AcDbLine
 10
236.197692
 20
286.301146
 30
0.0
 11
252.664318
 21
286.301146
 31
0.0
  0
LINE
  5
A0
330
1F
100
AcDbEntity
  8
LC-001-100-D00-0
 62
     7
370
    50
100
AcDbLine
 10
343.745367
 20
275.301146
 30
0.0
 11
323.338117
 21
275.301146
 31
0.0
  0
LINE
  5
A1
330
1F
100
AcDbEntity
  8
LC-001-100-D00-0
 62
     7
370
    50
100
AcDbLine
 10
279.474692
 20
275.301146
 30
0.0
 11
259.067442
 21
275.301146
 31
0.0
  0
LINE
  5
A2
330
1F
100
AcDbEntity
  8
LC-001-100-D00-0
 62
     7
370
    50
100
AcDbLine
 10
343.745367
 20
305.301146
 30
0.0
 11
259.067442
 21
305.301146
 31
0.0
  0
LINE
  5
A3
330
1F
100
AcDbEntity
  8
LC-001-100-D00-0
 62
     7
370
    50
100
AcDbLine
 10
376.406405
 20
289.301146
 30
0.0
 11
376.406405
 21
286.301146
 31
0.0
  0
LINE
  5
A4
330
1F
100
AcDbEntity
  8
LC-001-100-D00-0
 62
     7
370
    50
100
AcDbLine
 10
371.406405
 20
289.301146
 30
0.0
 11
376.406405
 21
289.301146
 31
0.0
  0
LINE
  5
A5
330
1F
100
AcDbEntity
  8
LC-001-100-D00-0
 62
     7
370
    50
100
AcDbLine
 10
376.406405
 20
286.301146
 30
0.0
 11
371.406405
 21
286.301146
 31
0.0
  0
LINE
  5
A6
330
1F
100
AcDbEntity
  8
LC-001-100-D00-0
 62
     7
370
    50
100
AcDbLine
 10
248.566197
 20
305.301146
 30
0.0
 11
259.067442
 21
305.301146
 31
0.0
  0
LINE
  5
A7
330
1F
100
AcDbEntity
  8
LC-001-100-D00-0
 62
     7
370
    50
100
AcDbLine
 10
259.067442
 20
275.301146
 30
0.0
 11
248.566197
 21
275.301146
 31
0.0
  0
LINE
  5
A8
330
1F
100
AcDbEntity
  8
LC-001-100-D00-0
 62
     7
370
    50
100
AcDbLine
 10
354.246612
 20
275.301146
 30
0.0
 11
343.745367
 21
275.301146
 31
0.0
  0
LINE
  5
A9
330
1F
100
AcDbEntity
  8
LC-001-100-D00-0
 62
     7
370
    50
100
AcDbLine
 10
343.745367
 20
305.301146
 30
0.0
 11
354.246612
 21
305.301146
 31
0.0
  0
INSERT
  5
B9
330
1F
100
AcDbEntity
  8
LC-001-100-D00-0
 62
     7
370
    50
100
AcDbBlockReference
  2
POLY5
 10
0.0
 20
0.0
 30
0.0
  0
INSERT
  5
CD
330
1F
100
AcDbEntity
  8
LC-001-100-D00-0
 62
     7
370
    50
100
AcDbBlockReference
  2
POLY6
 10
0.0
 20
0.0
 30
0.0
  0
INSERT
  5
E3
330
1F
100
AcDbEntity
  8
LC-001-100-D00-0
 62
     7
370
    50
100
AcDbBlockReference
  2
POLY7
 10
0.0
 20
0.0
 30
0.0
  0
LINE
  5
E4
330
1F
100
AcDbEntity
  8
LC-001-100-D00-0
 62
     7
370
    50
100
AcDbLine
 10
368.203279
 20
279.801146
 30
0.0
 11
374.906405
 21
279.801146
 31
0.0
  0
LINE
  5
E5
330
1F
100
AcDbEntity
  8
LC-001-100-D00-0
 62
     7
370
    50
100
AcDbLine
 10
374.906405
 20
275.301146
 30
0.0
 11
354.246612
 21
275.301146
 31
0.0
  0
INSERT
  5
F7
330
1F
100
AcDbEntity
  8
LC-001-100-D00-0
 62
     7
370
    50
100
AcDbBlockReference
  2
POLY8
 10
0.0
 20
0.0
 30
0.0
  0
LINE
  5
F8
330
1F
100
AcDbEntity
  8
LC-001-100-D00-0
 62
     7
370
    50
100
AcDbLine
 10
365.353569
 20
290.301146
 30
0.0
 11
365.353569
 21
303.801146
 31
0.0
  0
LINE
  5
F9
330
1F
100
AcDbEntity
  8
LC-001-100-D00-0
 62
     7
370
    50
100
AcDbLine
 10
354.246612
 20
305.301146
 30
0.0
 11
364.095241
 21
305.301146
 31
0.0
  0
LINE
  5
FA
330
1F
100
AcDbEntity
  8
LC-001-100-D00-0
 62
     7
370
    50
100
AcDbLine
 10
227.906405
 20
279.801146
 30
0.0
 11
234.60953
 21
279.801146
 31
0.0
  0
INSERT
  5
106
330
1F
100
AcDbEntity
  8
LC-001-100-D00-0
 62
     7
370
    50
100
AcDbBlockReference
  2
POLY9
 10
0.0
 20
0.0
 30
0.0
  0
LINE
  5
107
330
1F
100
AcDbEntity
  8
LC-001-100-D00-0
 62
     7
370
    50
100
AcDbLine
 10
248.566197
 20
275.301146
 30
0.0
 11
227.906405
 21
275.301146
 31
0.0
  0
INSERT
  5
119
330
1F
100
AcDbEntity
  8
LC-001-100-D00-0
 62
     7
370
    50
100
AcDbBlockReference
  2
POLY10
 10
0.0
 20
0.0
 30
0.0
  0
LINE
  5
11A
330
1F
100
AcDbEntity
  8
LC-001-100-D00-0
 62
     7
370
    50
100
AcDbLine
 10
237.45924
 20
303.801146
 30
0.0
 11
237.45924
 21
290.301146
 31
0.0
  0
LINE
  5
11B
330
1F
100
AcDbEntity
  8
LC-001-100-D00-0
 62
     7
370
    50
100
AcDbLine
 10
238.717569
 20
305.301146
 30
0.0
 11
248.566197
 21
305.301146
 31
0.0
  0
CIRCLE
  5
11C
330
1F
100
AcDbEntity
  8
LC-001-100-D00-0
 62
     7
370
    50
100
AcDbCircle
 10
301.406405
 20
263.301146
 30
0.0
 40
24.19615242218441
  0
CIRCLE
  5
11D
330
1F
100
AcDbEntity
  8
LC-001-100-D00-0
 62
     7
370
    50
100
AcDbCircle
 10
301.406405
 20
263.301146
 30
0.0
 40
25.00000000000006
  0
CIRCLE
  5
11E
330
1F
100
AcDbEntity
  8
LC-001-100-D00-0
 62
     7
370
    50
100
AcDbCircle
 10
301.406405
 20
263.301146
 30
0.0
 40
22.0
  0
ARC
  5
11F
330
1F
100
AcDbEntity
  8
LC-001-100-D00-0
 62
     7
370
    50
100
AcDbCircle
 10
301.406405
 20
263.301146
 30
0.0
 40
28.99999999999999
100
AcDbArc
 50
80.071808
 51
99.928192
  0
LINE
  5
120
330
1F
100
AcDbEntity
  8
LC-001-100-D00-0
 62
     7
370
    50
100
AcDbLine
 10
296.406405
 20
291.866859
 30
0.0
 11
296.406405
 21
287.796043
 31
0.0
  0
LINE
  5
121
330
1F
100
AcDbEntity
  8
LC-001-100-D00-0
 62
     7
370
    50
100
AcDbLine
 10
306.406405
 20
287.796043
 30
0.0
 11
306.406405
 21
291.866859
 31
0.0
  0
LINE
  5
122
330
1F
100
AcDbEntity
  8
LC-001-100-D00-0
 62
     7
370
    50
100
AcDbLine
 10
321.698028
 20
271.801146
 30
0.0
 11
281.114781
 21
271.801146
 31
0.0
  0
LINE
  5
123
330
1F
100
AcDbEntity
  8
LC-001-100-D00-0
 62
     7
370
    50
100
AcDbLine
 10
259.067442
 20
276.301146
 30
0.0
 11
280.052248
 21
276.301146
 31
0.0
  0
LINE
  5
124
330
1F
100
AcDbEntity
  8
LC-001-100-D00-0
 62
     7
370
    50
100
AcDbLine
 10
322.760561
 20
276.301146
 30
0.0
 11
343.745367
 21
276.301146
 31
0.0
  0
LINE
  5
125
330
1F
100
AcDbEntity
  8
LC-001-100-D00-0
 62
     7
370
    50
100
AcDbLine
 10
301.406405
 20
238.301146
 30
0.0
 11
259.067442
 21
238.301146
 31
0.0
  0
LINE
  5
126
330
1F
100
AcDbEntity
  8
LC-001-100-D00-0
 62
     7
370
    50
100
AcDbLine
 10
248.566197
 20
276.301146
 30
0.0
 11
259.067442
 21
276.301146
 31
0.0
  0
LINE
  5
127
330
1F
100
AcDbEntity
  8
LC-001-100-D00-0
 62
     7
370
    50
100
AcDbLine
 10
259.067442
 20
238.301146
 30
0.0
 11
253.816819
 21
238.301146
 31
0.0
  0
LINE
  5
128
330
1F
100
AcDbEntity
  8
LC-001-100-D00-0
 62
     7
370
    50
100
AcDbLine
 10
343.745367
 20
276.301146
 30
0.0
 11
354.246612
 21
276.301146
 31
0.0
  0
LINE
  5
129
330
1F
100
AcDbEntity
  8
LC-001-100-D00-0
 62
     7
370
    50
100
AcDbLine
 10
348.99599
 20
238.301146
 30
0.0
 11
343.745367
 21
238.301146
 31
0.0
  0
LINE
  5
12A
330
1F
100
AcDbEntity
  8
LC-001-100-D00-0
 62
     7
370
    50
100
AcDbLine
 10
343.745367
 20
238.301146
 30
0.0
 11
301.406405
 21
238.301146
 31
0.0
  0
LINE
  5
12B
330
1F
100
AcDbEntity
  8
LC-001-100-D00-0
 62
     7
370
    50
100
AcDbLine
 10
227.906405
 20
276.301146
 30
0.0
 11
248.566197
 21
276.301146
 31
0.0
  0
LINE
  5
12C
330
1F
100
AcDbEntity
  8
LC-001-100-D00-0
 62
     7
370
    50
100
AcDbLine
 10
253.816819
 20
238.301146
 30
0.0
 11
237.906405
 21
238.301146
 31
0.0
  0
LINE
  5
12D
330
1F
100
AcDbEntity
  8
LC-001-100-D00-0
 62
     7
370
    50
100
AcDbLine
 10
364.906405
 20
238.301146
 30
0.0
 11
348.99599
 21
238.301146
 31
0.0
  0
LINE
  5
12E
330
1F
100
AcDbEntity
  8
LC-001-100-D00-0
 62
     7
370
    50
100
AcDbLine
 10
354.246612
 20
276.301146
 30
0.0
 11
374.906405
 21
276.301146
 31
0.0
  0
LINE
  5
12F
330
1F
100
AcDbEntity
  8
LC-001-100-D00-0
 62
     7
370
    50
100
AcDbLine
 10
368.906405
 20
284.301146
 30
0.0
 11
374.406405
 21
284.301146
 31
0.0
  0
LINE
  5
130
330
1F
100
AcDbEntity
  8
LC-001-100-D00-0
 62
     7
370
    50
100
AcDbLine
 10
363.406405
 20
284.301146
 30
0.0
 11
368.906405
 21
284.301146
 31
0.0
  0
LINE
  5
131
330
1F
100
AcDbEntity
  8
LC-001-100-D00-0
 62
     7
370
    50
100
AcDbLine
 10
368.906405
 20
286.301146
 30
0.0
 11
371.197692
 21
286.301146
 31
0.0
  0
LINE
  5
132
330
1F
100
AcDbEntity
  8
LC-001-100-D00-0
 62
     7
370
    50
100
AcDbLine
 10
366.625859
 20
286.301146
 30
0.0
 11
368.906405
 21
286.301146
 31
0.0
  0
LINE
  5
133
330
1F
100
AcDbEntity
  8
LC-001-100-D00-0
 62
     7
370
    50
100
AcDbLine
 10
233.906405
 20
284.301146
 30
0.0
 11
239.406405
 21
284.301146
 31
0.0
  0
LINE
  5
134
330
1F
100
AcDbEntity
  8
LC-001-100-D00-0
 62
     7
370
    50
100
AcDbLine
 10
228.406405
 20
284.301146
 30
0.0
 11
233.906405
 21
284.301146
 31
0.0
  0
LINE
  5
135
330
1F
100
AcDbEntity
  8
LC-001-100-D00-0
 62
     7
370
    50
100
AcDbLine
 10
233.906405
 20
286.301146
 30
0.0
 11
236.18695
 21
286.301146
 31
0.0
  0
LINE
  5
136
330
1F
100
AcDbEntity
  8
LC-001-100-D00-0
 62
     7
370
    50
100
AcDbLine
 10
231.615117
 20
286.301146
 30
0.0
 11
233.906405
 21
286.301146
 31
0.0
  0
DIMENSION
  5
139
330
1F
100
AcDbEntity
  8
LC-001-100-D00-0
 62
     7
370
    25
100
AcDbDimension
  2
*D11
 10
374.906405
 20
325.301146
 30
0.0
 11
301.007389
 21
356.101146
 31
0.0
 70
   160
  1
147
 71
     5
 42
147.0
  3
LC-DIM-L-0140-02-02
100
AcDbAlignedDimension
 13
227.906405
 23
276.301146
 33
0.0
 14
374.906405
 24
276.301146
 34
0.0
100
AcDbRotatedDimension
  0
DIMENSION
  5
147
330
1F
100
AcDbEntity
  8
LC-001-100-D00-0
 62
     7
370
    25
100
AcDbDimension
  2
*D12
 10
431.713493
 20
238.301146
 30
0.0
 11
400.913493
 21
268.10052
 31
0.0
 70
   160
  1
68
 71
     5
 42
67.0
 53
90.0
  3
LC-DIM-L-0140-02-02
100
AcDbAlignedDimension
 13
364.095241
 23
305.301146
 33
0.0
 14
343.745367
 24
238.301146
 34
0.0
 50
90.0
100
AcDbRotatedDimension
  0
LINE
  5
155
330
1F
100
AcDbEntity
  8
LC-001-100-D00-0
  6
DASHDOT
 62
     7
370
    25
100
AcDbLine
 10
301.406405
 20
321.139505
 30
0.0
 11
301.406405
 21
219.089472
 31
0.0
  0
LINE
  5
156
330
1F
100
AcDbEntity
  8
LC-001-100-D00-0
  6
DASHDOT
 62
     7
370
    -2
100
AcDbLine
 10
301.406405
 20
244.301146
 30
0.0
 11
301.406405
 21
304.88929
 31
0.0
  0
LINE
  5
157
330
1F
100
AcDbEntity
  8
LC-001-100-D00-0
 62
     7
370
    50
100
AcDbLine
 10
233.906405
 20
280.551146
 30
0.0
 11
233.906405
 21
299.746646
 31
0.0
  0
LINE
  5
158
330
1F
100
AcDbEntity
  8
LC-001-100-D00-0
 62
     7
370
    50
100
AcDbLine
 10
368.906405
 20
280.551146
 30
0.0
 11
368.906405
 21
299.746646
 31
0.0
  0
LINE
  5
159
330
1F
100
AcDbEntity
  8
LC-001-100-D00-0
 62
     7
370
    50
100
AcDbLine
 10
326.406405
 20
37.736994
 30
0.0
 11
326.406405
 21
100.736994
 31
0.0
  0
LINE
  5
15A
330
1F
100
AcDbEntity
  8
LC-001-100-D00-0
 62
     7
370
    50
100
AcDbLine
 10
276.406405
 20
100.736994
 30
0.0
 11
276.406405
 21
37.736994
 31
0.0
  0
LINE
  5
15B
330
1F
100
AcDbEntity
  8
LC-001-100-D00-0
 62
     7
370
    50
100
AcDbLine
 10
276.406405
 20
37.736994
 30
0.0
 11
277.210252
 21
34.736994
 31
0.0
  0
LINE
  5
15C
330
1F
100
AcDbEntity
  8
LC-001-100-D00-0
 62
     7
370
    50
100
AcDbLine
 10
325.602557
 20
34.736994
 30
0.0
 11
326.406405
 21
37.736994
 31
0.0
  0
LINE
  5
15D
330
1F
100
AcDbEntity
  8
LC-001-100-D00-0
 62
     7
370
    50
100
AcDbLine
 10
270.906405
 20
165.500051
 30
0.0
 11
331.906405
 21
165.500051
 31
0.0
  0
ARC
  5
15E
330
1F
100
AcDbEntity
  8
LC-001-100-D00-0
 62
     7
370
    50
100
AcDbCircle
 10
331.906405
 20
140.736994
 30
0.0
 40
24.76305695180429
100
AcDbArc
 50
270.0
 51
90.0
  0
ARC
  5
15F
330
1F
100
AcDbEntity
  8
LC-001-100-D00-0
 62
     7
370
    50
100
AcDbCircle
 10
270.906405
 20
140.736994
 30
0.0
 40
24.76305695180429
100
AcDbArc
 50
90.0
 51
270.0
  0
LINE
  5
160
330
1F
100
AcDbEntity
  8
LC-001-100-D00-0
 62
     7
370
    50
100
AcDbLine
 10
331.906405
 20
115.973937
 30
0.0
 11
270.906405
 21
115.973937
 31
0.0
  0
CIRCLE
  5
161
330
1F
100
AcDbEntity
  8
LC-001-100-D00-0
 62
     7
370
    50
100
AcDbCircle
 10
233.906405
 20
105.736994
 30
0.0
 40
2.445499999999981
  0
CIRCLE
  5
162
330
1F
100
AcDbEntity
  8
LC-001-100-D00-0
 62
     7
370
    50
100
AcDbCircle
 10
233.906405
 20
105.736994
 30
0.0
 40
2.999999999999943
  0
CIRCLE
  5
163
330
1F
100
AcDbEntity
  8
LC-001-100-D00-0
 62
     7
370
    50
100
AcDbCircle
 10
233.906405
 20
175.736994
 30
0.0
 40
2.445500000000038
  0
CIRCLE
  5
164
330
1F
100
AcDbEntity
  8
LC-001-100-D00-0
 62
     7
370
    50
100
AcDbCircle
 10
233.906405
 20
175.736994
 30
0.0
 40
3.0
  0
CIRCLE
  5
165
330
1F
100
AcDbEntity
  8
LC-001-100-D00-0
 62
     7
370
    50
100
AcDbCircle
 10
368.906405
 20
105.736994
 30
0.0
 40
2.445500000000038
  0
CIRCLE
  5
166
330
1F
100
AcDbEntity
  8
LC-001-100-D00-0
 62
     7
370
    50
100
AcDbCircle
 10
368.906405
 20
105.736994
 30
0.0
 40
3.0
  0
CIRCLE
  5
167
330
1F
100
AcDbEntity
  8
LC-001-100-D00-0
 62
     7
370
    50
100
AcDbCircle
 10
368.906405
 20
175.736994
 30
0.0
 40
2.445500000000038
  0
CIRCLE
  5
168
330
1F
100
AcDbEntity
  8
LC-001-100-D00-0
 62
     7
370
    50
100
AcDbCircle
 10
368.906405
 20
175.736994
 30
0.0
 40
3.0
  0
ARC
  5
169
330
1F
100
AcDbEntity
  8
LC-001-100-D00-0
 62
     7
370
    50
100
AcDbCircle
 10
343.745367
 20
160.736994
 30
0.0
 40
17.00000000000005
100
AcDbArc
 50
58.327567
 51
90.0
  0
LINE
  5
16A
330
1F
100
AcDbEntity
  8
LC-001-100-D00-0
 62
     7
370
    50
100
AcDbLine
 10
259.067442
 20
177.736994
 30
0.0
 11
343.745367
 21
177.736994
 31
0.0
  0
ARC
  5
16B
330
1F
100
AcDbEntity
  8
LC-001-100-D00-0
 62
     7
370
    50
100
AcDbCircle
 10
259.067442
 20
160.736994
 30
0.0
 40
17.00000000000006
100
AcDbArc
 50
90.0
 51
121.672433
  0
ARC
  5
16C
330
1F
100
AcDbEntity
  8
LC-001-100-D00-0
 62
     7
370
    50
100
AcDbCircle
 10
271.406405
 20
140.736994
 30
0.0
 40
40.49999999999999
100
AcDbArc
 50
121.672433
 51
134.87547
  0
ARC
  5
16D
330
1F
100
AcDbEntity
  8
LC-001-100-D00-0
 62
     7
370
    50
100
AcDbCircle
 10
271.406405
 20
140.736994
 30
0.0
 40
43.50000000000002
100
AcDbArc
 50
121.672433
 51
138.717657
  0
ARC
  5
16E
330
1F
100
AcDbEntity
  8
LC-001-100-D00-0
 62
     7
370
    50
100
AcDbCircle
 10
259.067442
 20
160.736994
 30
0.0
 40
20.00000000000006
100
AcDbArc
 50
90.0
 51
121.672433
  0
LINE
  5
16F
330
1F
100
AcDbEntity
  8
LC-001-100-D00-0
 62
     7
370
    50
100
AcDbLine
 10
259.067442
 20
180.736994
 30
0.0
 11
343.745367
 21
180.736994
 31
0.0
  0
ARC
  5
170
330
1F
100
AcDbEntity
  8
LC-001-100-D00-0
 62
     7
370
    50
100
AcDbCircle
 10
331.406405
 20
140.736994
 30
0.0
 40
43.49999999999995
100
AcDbArc
 50
41.282343
 51
58.327567
  0
ARC
  5
171
330
1F
100
AcDbEntity
  8
LC-001-100-D00-0
 62
     7
370
    50
100
AcDbCircle
 10
331.406405
 20
140.736994
 30
0.0
 40
40.4999999999999
100
AcDbArc
 50
45.12453
 51
58.327567
  0
ARC
  5
172
330
1F
100
AcDbEntity
  8
LC-001-100-D00-0
 62
     7
370
    50
100
AcDbCircle
 10
343.745367
 20
160.736994
 30
0.0
 40
20.00000000000009
100
AcDbArc
 50
58.327567
 51
90.0
  0
LINE
  5
173
330
1F
100
AcDbEntity
  8
LC-001-100-D00-0
 62
     7
370
    50
100
AcDbLine
 10
365.353569
 20
167.936994
 30
0.0
 11
361.413237
 21
167.936994
 31
0.0
  0
INSERT
  5
185
330
1F
100
AcDbEntity
  8
LC-001-100-D00-0
 62
     7
370
    50
100
AcDbBlockReference
  2
POLY11
 10
0.0
 20
0.0
 30
0.0
  0
INSERT
  5
197
330
1F
100
AcDbEntity
  8
LC-001-100-D00-0
 62
     7
370
    50
100
AcDbBlockReference
  2
POLY12
 10
0.0
 20
0.0
 30
0.0
  0
LINE
  5
198
330
1F
100
AcDbEntity
  8
LC-001-100-D00-0
 62
     7
370
    50
100
AcDbLine
 10
241.399572
 20
167.936994
 30
0.0
 11
237.45924
 21
167.936994
 31
0.0
  0
INSERT
  5
1C2
330
1F
100
AcDbEntity
  8
LC-001-100-D00-0
 62
     7
370
    50
100
AcDbBlockReference
  2
POLY13
 10
0.0
 20
0.0
 30
0.0
  0
INSERT
  5
1EC
330
1F
100
AcDbEntity
  8
LC-001-100-D00-0
 62
     7
370
    50
100
AcDbBlockReference
  2
POLY14
 10
0.0
 20
0.0
 30
0.0
  0
LINE
  5
1ED
330
1F
100
AcDbEntity
  8
LC-001-100-D00-0
 62
     7
370
    50
100
AcDbLine
 10
361.413237
 20
113.536994
 30
0.0
 11
365.353569
 21
113.536994
 31
0.0
  0
INSERT
  5
1FF
330
1F
100
AcDbEntity
  8
LC-001-100-D00-0
 62
     7
370
    50
100
AcDbBlockReference
  2
POLY15
 10
0.0
 20
0.0
 30
0.0
  0
INSERT
  5
211
330
1F
100
AcDbEntity
  8
LC-001-100-D00-0
 62
     7
370
    50
100
AcDbBlockReference
  2
POLY16
 10
0.0
 20
0.0
 30
0.0
  0
ARC
  5
212
330
1F
100
AcDbEntity
  8
LC-001-100-D00-0
 62
     7
370
    50
100
AcDbCircle
 10
259.067442
 20
120.736994
 30
0.0
 40
17.00000000000005
100
AcDbArc
 50
238.327567
 51
270.0
  0
LINE
  5
213
330
1F
100
AcDbEntity
  8
LC-001-100-D00-0
 62
     7
370
    50
100
AcDbLine
 10
343.745367
 20
103.736994
 30
0.0
 11
259.067442
 21
103.736994
 31
0.0
  0
ARC
  5
214
330
1F
100
AcDbEntity
  8
LC-001-100-D00-0
 62
     7
370
    50
100
AcDbCircle
 10
343.745367
 20
120.736994
 30
0.0
 40
17.00000000000006
100
AcDbArc
 50
270.0
 51
301.672433
  0
ARC
  5
215
330
1F
100
AcDbEntity
  8
LC-001-100-D00-0
 62
     7
370
    50
100
AcDbCircle
 10
343.745367
 20
120.736994
 30
0.0
 40
19.99999999999997
100
AcDbArc
 50
270.0
 51
301.672433
  0
LINE
  5
216
330
1F
100
AcDbEntity
  8
LC-001-100-D00-0
 62
     7
370
    50
100
AcDbLine
 10
343.745367
 20
100.736994
 30
0.0
 11
259.067442
 21
100.736994
 31
0.0
  0
ARC
  5
217
330
1F
100
AcDbEntity
  8
LC-001-100-D00-0
 62
     7
370
    50
100
AcDbCircle
 10
259.067442
 20
120.736994
 30
0.0
 40
20.00000000000001
100
AcDbArc
 50
238.327567
 51
270.0
  0
ARC
  5
218
330
1F
100
AcDbEntity
  8
LC-001-100-D00-0
 62
     7
370
    50
100
AcDbCircle
 10
271.406405
 20
140.736994
 30
0.0
 40
43.49999999999999
100
AcDbArc
 50
221.282343
 51
238.327567
  0
ARC
  5
219
330
1F
100
AcDbEntity
  8
LC-001-100-D00-0
 62
     7
370
    50
100
AcDbCircle
 10
271.406405
 20
140.736994
 30
0.0
 40
40.50000000000002
100
AcDbArc
 50
225.12453
 51
238.327567
  0
ARC
  5
21A
330
1F
100
AcDbEntity
  8
LC-001-100-D00-0
 62
     7
370
    50
100
AcDbCircle
 10
331.406405
 20
140.736994
 30
0.0
 40
43.49999999999996
100
AcDbArc
 50
301.672433
 51
318.717657
  0
ARC
  5
21B
330
1F
100
AcDbEntity
  8
LC-001-100-D00-0
 62
     7
370
    50
100
AcDbCircle
 10
331.406405
 20
140.736994
 30
0.0
 40
40.50000000000001
100
AcDbArc
 50
301.672433
 51
314.87547
  0
LINE
  5
21C
330
1F
100
AcDbEntity
  8
LC-001-100-D00-0
 62
     7
370
    50
100
AcDbLine
 10
237.45924
 20
113.536994
 30
0.0
 11
241.399572
 21
113.536994
 31
0.0
  0
INSERT
  5
22E
330
1F
100
AcDbEntity
  8
LC-001-100-D00-0
 62
     7
370
    50
100
AcDbBlockReference
  2
POLY17
 10
0.0
 20
0.0
 30
0.0
  0
INSERT
  5
240
330
1F
100
AcDbEntity
  8
LC-001-100-D00-0
 62
     7
370
    50
100
AcDbBlockReference
  2
POLY18
 10
0.0
 20
0.0
 30
0.0
  0
INSERT
  5
25A
330
1F
100
AcDbEntity
  8
LC-001-100-D00-0
 62
     7
370
    50
100
AcDbBlockReference
  2
POLY19
 10
0.0
 20
0.0
 30
0.0
  0
INSERT
  5
26A
330
1F
100
AcDbEntity
  8
LC-001-100-D00-0
 62
     7
370
    50
100
AcDbBlockReference
  2
POLY20
 10
0.0
 20
0.0
 30
0.0
  0
INSERT
  5
27A
330
1F
100
AcDbEntity
  8
LC-001-100-D00-0
 62
     7
370
    50
100
AcDbBlockReference
  2
POLY21
 10
0.0
 20
0.0
 30
0.0
  0
INSERT
  5
28A
330
1F
100
AcDbEntity
  8
LC-001-100-D00-0
 62
     7
370
    50
100
AcDbBlockReference
  2
POLY22
 10
0.0
 20
0.0
 30
0.0
  0
INSERT
  5
29C
330
1F
100
AcDbEntity
  8
LC-001-100-D00-0
 62
     7
370
    50
100
AcDbBlockReference
  2
POLY23
 10
0.0
 20
0.0
 30
0.0
  0
INSERT
  5
2B6
330
1F
100
AcDbEntity
  8
LC-001-100-D00-0
 62
     7
370
    50
100
AcDbBlockReference
  2
POLY24
 10
0.0
 20
0.0
 30
0.0
  0
INSERT
  5
2D2
330
1F
100
AcDbEntity
  8
LC-001-100-D00-0
 62
     7
370
    50
100
AcDbBlockReference
  2
POLY25
 10
0.0
 20
0.0
 30
0.0
  0
INSERT
  5
2E4
330
1F
100
AcDbEntity
  8
LC-001-100-D00-0
 62
     7
370
    50
100
AcDbBlockReference
  2
POLY26
 10
0.0
 20
0.0
 30
0.0
  0
ARC
  5
2E5
330
1F
100
AcDbEntity
  8
LC-001-100-D00-0
 62
     7
370
    50
100
AcDbCircle
 10
371.406405
 20
175.736994
 30
0.0
 40
5.0
100
AcDbArc
 50
0.0
 51
90.0
  0
LINE
  5
2E6
330
1F
100
AcDbEntity
  8
LC-001-100-D00-0
 62
     7
370
    50
100
AcDbLine
 10
376.406405
 20
167.936994
 30
0.0
 11
376.406405
 21
175.736994
 31
0.0
  0
CIRCLE
  5
2E7
330
1F
100
AcDbEntity
  8
LC-001-100-D00-0
 62
     7
370
    50
100
AcDbCircle
 10
368.906405
 20
175.736994
 30
0.0
 40
3.499999999999886
  0
LINE
  5
2E8
330
1F
100
AcDbEntity
  8
LC-001-100-D00-0
 62
     7
370
    50
100
AcDbLine
 10
376.406405
 20
167.936994
 30
0.0
 11
366.625859
 21
167.936994
 31
0.0
  0
LINE
  5
2E9
330
1F
100
AcDbEntity
  8
LC-001-100-D00-0
 62
     7
370
    50
100
AcDbLine
 10
371.406405
 20
180.736994
 30
0.0
 11
350.148491
 21
180.736994
 31
0.0
  0
LINE
  5
2EA
330
1F
100
AcDbEntity
  8
LC-001-100-D00-0
 62
     7
370
    50
100
AcDbLine
 10
226.406405
 20
175.736994
 30
0.0
 11
226.406405
 21
167.936994
 31
0.0
  0
ARC
  5
2EB
330
1F
100
AcDbEntity
  8
LC-001-100-D00-0
 62
     7
370
    50
100
AcDbCircle
 10
231.406405
 20
175.736994
 30
0.0
 40
5.0
100
AcDbArc
 50
90.0
 51
180.0
  0
CIRCLE
  5
2EC
330
1F
100
AcDbEntity
  8
LC-001-100-D00-0
 62
     7
370
    50
100
AcDbCircle
 10
233.906405
 20
175.736994
 30
0.0
 40
3.5
  0
LINE
  5
2ED
330
1F
100
AcDbEntity
  8
LC-001-100-D00-0
 62
     7
370
    50
100
AcDbLine
 10
236.18695
 20
167.936994
 30
0.0
 11
226.406405
 21
167.936994
 31
0.0
  0
LINE
  5
2EE
330
1F
100
AcDbEntity
  8
LC-001-100-D00-0
 62
     7
370
    50
100
AcDbLine
 10
252.664318
 20
180.736994
 30
0.0
 11
231.406405
 21
180.736994
 31
0.0
  0
ARC
  5
2EF
330
1F
100
AcDbEntity
  8
LC-001-100-D00-0
 62
     7
370
    50
100
AcDbCircle
 10
371.406405
 20
105.736994
 30
0.0
 40
5.0
100
AcDbArc
 50
270.0
 51
0.0
  0
CIRCLE
  5
2F0
330
1F
100
AcDbEntity
  8
LC-001-100-D00-0
 62
     7
370
    50
100
AcDbCircle
 10
368.906405
 20
105.736994
 30
0.0
 40
3.499999999999886
  0
LINE
  5
2F1
330
1F
100
AcDbEntity
  8
LC-001-100-D00-0
 62
     7
370
    50
100
AcDbLine
 10
376.406405
 20
105.736994
 30
0.0
 11
376.406405
 21
113.536994
 31
0.0
  0
LINE
  5
2F2
330
1F
100
AcDbEntity
  8
LC-001-100-D00-0
 62
     7
370
    50
100
AcDbLine
 10
366.625859
 20
113.536994
 30
0.0
 11
376.406405
 21
113.536994
 31
0.0
  0
LINE
  5
2F3
330
1F
100
AcDbEntity
  8
LC-001-100-D00-0
 62
     7
370
    50
100
AcDbLine
 10
350.148491
 20
100.736994
 30
0.0
 11
371.406405
 21
100.736994
 31
0.0
  0
ARC
  5
2F4
330
1F
100
AcDbEntity
  8
LC-001-100-D00-0
 62
     7
370
    50
100
AcDbCircle
 10
231.406405
 20
105.736994
 30
0.0
 40
5.000000000000057
100
AcDbArc
 50
180.0
 51
270.0
  0
LINE
  5
2F5
330
1F
100
AcDbEntity
  8
LC-001-100-D00-0
 62
     7
370
    50
100
AcDbLine
 10
226.406405
 20
113.536994
 30
0.0
 11
226.406405
 21
105.736994
 31
0.0
  0
CIRCLE
  5
2F6
330
1F
100
AcDbEntity
  8
LC-001-100-D00-0
 62
     7
370
    50
100
AcDbCircle
 10
233.906405
 20
105.736994
 30
0.0
 40
3.5
  0
LINE
  5
2F7
330
1F
100
AcDbEntity
  8
LC-001-100-D00-0
 62
     7
370
    50
100
AcDbLine
 10
226.406405
 20
113.536994
 30
0.0
 11
236.18695
 21
113.536994
 31
0.0
  0
LINE
  5
2F8
330
1F
100
AcDbEntity
  8
LC-001-100-D00-0
 62
     7
370
    50
100
AcDbLine
 10
231.406405
 20
100.736994
 30
0.0
 11
252.664318
 21
100.736994
 31
0.0
  0
INSERT
  5
308
330
1F
100
AcDbEntity
  8
LC-001-100-D00-0
 62
     7
370
    50
100
AcDbBlockReference
  2
POLY27
 10
0.0
 20
0.0
 30
0.0
  0
INSERT
  5
31A
330
1F
100
AcDbEntity
  8
LC-001-100-D00-0
 62
     7
370
    50
100
AcDbBlockReference
  2
POLY28
 10
0.0
 20
0.0
 30
0.0
  0
INSERT
  5
328
330
1F
100
AcDbEntity
  8
LC-001-100-D00-0
 62
     7
370
    50
100
AcDbBlockReference
  2
POLY29
 10
0.0
 20
0.0
 30
0.0
  0
INSERT
  5
348
330
1F
100
AcDbEntity
  8
LC-001-100-D00-0
 62
     7
370
    50
100
AcDbBlockReference
  2
POLY30
 10
0.0
 20
0.0
 30
0.0
  0
INSERT
  5
372
330
1F
100
AcDbEntity
  8
LC-001-100-D00-0
 62
     7
370
    50
100
AcDbBlockReference
  2
POLY31
 10
0.0
 20
0.0
 30
0.0
  0
INSERT
  5
380
330
1F
100
AcDbEntity
  8
LC-001-100-D00-0
 62
     7
370
    50
100
AcDbBlockReference
  2
POLY32
 10
0.0
 20
0.0
 30
0.0
  0
INSERT
  5
3A0
330
1F
100
AcDbEntity
  8
LC-001-100-D00-0
 62
     7
370
    50
100
AcDbBlockReference
  2
POLY33
 10
0.0
 20
0.0
 30
0.0
  0
INSERT
  5
3CA
330
1F
100
AcDbEntity
  8
LC-001-100-D00-0
 62
     7
370
    50
100
AcDbBlockReference
  2
POLY34
 10
0.0
 20
0.0
 30
0.0
  0
INSERT
  5
3EA
330
1F
100
AcDbEntity
  8
LC-001-100-D00-0
 62
     7
370
    50
100
AcDbBlockReference
  2
POLY35
 10
0.0
 20
0.0
 30
0.0
  0
INSERT
  5
3FA
330
1F
100
AcDbEntity
  8
LC-001-100-D00-0
 62
     7
370
    50
100
AcDbBlockReference
  2
POLY36
 10
0.0
 20
0.0
 30
0.0
  0
INSERT
  5
40C
330
1F
100
AcDbEntity
  8
LC-001-100-D00-0
 62
     7
370
    50
100
AcDbBlockReference
  2
POLY37
 10
0.0
 20
0.0
 30
0.0
  0
INSERT
  5
41C
330
1F
100
AcDbEntity
  8
LC-001-100-D00-0
 62
     7
370
    50
100
AcDbBlockReference
  2
POLY38
 10
0.0
 20
0.0
 30
0.0
  0
ARC
  5
41D
330
1F
100
AcDbEntity
  8
LC-001-100-D00-0
 62
     7
370
    50
100
AcDbCircle
 10
259.067442
 20
120.736994
 30
0.0
 40
11.00000000000001
100
AcDbArc
 50
238.327567
 51
270.0
  0
LINE
  5
41E
330
1F
100
AcDbEntity
  8
LC-001-100-D00-0
 62
     7
370
    50
100
AcDbLine
 10
343.745367
 20
109.736994
 30
0.0
 11
259.067442
 21
109.736994
 31
0.0
  0
ARC
  5
41F
330
1F
100
AcDbEntity
  8
LC-001-100-D00-0
 62
     7
370
    50
100
AcDbCircle
 10
343.745367
 20
120.736994
 30
0.0
 40
11.00000000000006
100
AcDbArc
 50
270.0
 51
301.672433
  0
ARC
  5
420
330
1F
100
AcDbEntity
  8
LC-001-100-D00-0
 62
     7
370
    50
100
AcDbCircle
 10
331.406405
 20
140.736994
 30
0.0
 40
34.50000000000001
100
AcDbArc
 50
301.672433
 51
58.327567
  0
ARC
  5
421
330
1F
100
AcDbEntity
  8
LC-001-100-D00-0
 62
     7
370
    50
100
AcDbCircle
 10
343.745367
 20
160.736994
 30
0.0
 40
11.00000000000009
100
AcDbArc
 50
58.327567
 51
90.0
  0
LINE
  5
422
330
1F
100
AcDbEntity
  8
LC-001-100-D00-0
 62
     7
370
    50
100
AcDbLine
 10
259.067442
 20
171.736994
 30
0.0
 11
343.745367
 21
171.736994
 31
0.0
  0
ARC
  5
423
330
1F
100
AcDbEntity
  8
LC-001-100-D00-0
 62
     7
370
    50
100
AcDbCircle
 10
259.067442
 20
160.736994
 30
0.0
 40
11.00000000000006
100
AcDbArc
 50
90.0
 51
121.672433
  0
ARC
  5
424
330
1F
100
AcDbEntity
  8
LC-001-100-D00-0
 62
     7
370
    50
100
AcDbCircle
 10
271.406405
 20
140.736994
 30
0.0
 40
34.50000000000003
100
AcDbArc
 50
121.672433
 51
238.327567
  0
ARC
  5
425
330
1F
100
AcDbEntity
  8
LC-001-100-D00-0
 62
     7
370
    50
100
AcDbCircle
 10
271.406405
 20
140.736994
 30
0.0
 40
43.49999999999997
100
AcDbArc
 50
147.769047
 51
212.230953
  0
ARC
  5
426
330
1F
100
AcDbEntity
  8
LC-001-100-D00-0
 62
     7
370
    50
100
AcDbCircle
 10
331.406405
 20
140.736994
 30
0.0
 40
43.49999999999991
100
AcDbArc
 50
327.769047
 51
32.230953
  0
LINE
  5
427
330
1F
100
AcDbEntity
  8
LC-001-100-D00-0
 62
     7
370
    50
100
AcDbLine
 10
296.406405
 20
86.736994
 30
0.0
 11
296.406405
 21
83.736994
 31
0.0
  0
LINE
  5
428
330
1F
100
AcDbEntity
  8
LC-001-100-D00-0
 62
     7
370
    50
100
AcDbLine
 10
306.406405
 20
86.736994
 30
0.0
 11
306.406405
 21
83.736994
 31
0.0
  0
LINE
  5
429
330
1F
100
AcDbEntity
  8
LC-001-100-D00-0
 62
     7
370
    50
100
AcDbLine
 10
306.406405
 20
83.736994
 30
0.0
 11
296.406405
 21
83.736994
 31
0.0
  0
LINE
  5
42A
330
1F
100
AcDbEntity
  8
LC-001-100-D00-0
 62
     7
370
    50
100
AcDbLine
 10
306.406405
 20
86.736994
 30
0.0
 11
296.406405
 21
86.736994
 31
0.0
  0
LINE
  5
42B
330
1F
100
AcDbEntity
  8
LC-001-100-D00-0
 62
     7
370
    50
100
AcDbLine
 10
276.406405
 20
37.736994
 30
0.0
 11
326.406405
 21
37.736994
 31
0.0
  0
LINE
  5
42C
330
1F
100
AcDbEntity
  8
LC-001-100-D00-0
 62
     7
370
    50
100
AcDbLine
 10
325.602557
 20
34.736994
 30
0.0
 11
277.210252
 21
34.736994
 31
0.0
  0
LINE
  5
42D
330
1F
100
AcDbEntity
  8
LC-001-100-D00-0
 62
     7
370
    50
100
AcDbLine
 10
242.830891
 20
169.436994
 30
0.0
 11
241.047994
 21
167.544025
 31
0.0
  0
INSERT
  5
433
330
1F
100
AcDbEntity
  8
LC-001-100-D00-0
 62
     7
370
    50
100
AcDbBlockReference
  2
KLON1
 10
0.0
 20
0.0
 30
0.0
  0
LINE
  5
434
330
1F
100
AcDbEntity
  8
LC-001-100-D00-0
 62
     7
370
    50
100
AcDbLine
 10
359.981919
 20
112.036994
 30
0.0
 11
361.764815
 21
113.929964
 31
0.0
  0
INSERT
  5
43A
330
1F
100
AcDbEntity
  8
LC-001-100-D00-0
 62
     7
370
    50
100
AcDbBlockReference
  2
KLON2
 10
0.0
 20
0.0
 30
0.0
  0
ARC
  5
43B
330
1F
100
AcDbEntity
  8
LC-001-100-D00-0
 62
     7
370
    50
100
AcDbCircle
 10
259.159064
 20
162.236994
 30
0.0
 40
10.00000000000006
100
AcDbArc
 50
90.0
 51
118.651659
  0
LINE
  5
43C
330
1F
100
AcDbEntity
  8
LC-001-100-D00-0
 62
     7
370
    50
100
AcDbLine
 10
343.653745
 20
172.236994
 30
0.0
 11
259.159064
 21
172.236994
 31
0.0
  0
ARC
  5
43D
330
1F
100
AcDbEntity
  8
LC-001-100-D00-0
 62
     7
370
    50
100
AcDbCircle
 10
343.653745
 20
162.236994
 30
0.0
 40
10.00000000000006
100
AcDbArc
 50
61.348341
 51
90.0
  0
ARC
  5
43E
330
1F
100
AcDbEntity
  8
LC-001-100-D00-0
 62
     7
370
    50
100
AcDbCircle
 10
331.906405
 20
140.736994
 30
0.0
 40
34.50000000000009
100
AcDbArc
 50
298.651659
 51
61.348341
  0
ARC
  5
43F
330
1F
100
AcDbEntity
  8
LC-001-100-D00-0
 62
     7
370
    50
100
AcDbCircle
 10
343.653745
 20
119.236994
 30
0.0
 40
10.00000000000011
100
AcDbArc
 50
270.0
 51
298.651659
  0
LINE
  5
440
330
1F
100
AcDbEntity
  8
LC-001-100-D00-0
 62
     7
370
    50
100
AcDbLine
 10
259.159064
 20
109.236994
 30
0.0
 11
343.653745
 21
109.236994
 31
0.0
  0
ARC
  5
441
330
1F
100
AcDbEntity
  8
LC-001-100-D00-0
 62
     7
370
    50
100
AcDbCircle
 10
259.159064
 20
119.236994
 30
0.0
 40
10.00000000000006
100
AcDbArc
 50
241.348341
 51
270.0
  0
ARC
  5
442
330
1F
100
AcDbEntity
  8
LC-001-100-D00-0
 62
     7
370
    50
100
AcDbCircle
 10
270.906405
 20
140.736994
 30
0.0
 40
34.50000000000001
100
AcDbArc
 50
118.651659
 51
241.348341
  0
CIRCLE
  5
443
330
1F
100
AcDbEntity
  8
LC-001-100-D00-0
 62
     7
370
    50
100
AcDbCircle
 10
368.906405
 20
175.736994
 30
0.0
 40
3.25
  0
ARC
  5
444
330
1F
100
AcDbEntity
  8
LC-001-100-D00-0
 62
     7
370
    50
100
AcDbCircle
 10
368.906405
 20
175.736994
 30
0.0
 40
5.500000000000087
100
AcDbArc
 50
65.380023
 51
114.619977
  0
CIRCLE
  5
445
330
1F
100
AcDbEntity
  8
LC-001-100-D00-0
 62
     7
370
    50
100
AcDbCircle
 10
368.906405
 20
105.736994
 30
0.0
 40
3.25
  0
ARC
  5
446
330
1F
100
AcDbEntity
  8
LC-001-100-D00-0
 62
     7
370
    50
100
AcDbCircle
 10
368.906405
 20
105.736994
 30
0.0
 40
5.499999999999943
100
AcDbArc
 50
270.0
 51
294.619977
  0
ARC
  5
447
330
1F
100
AcDbEntity
  8
LC-001-100-D00-0
 62
     7
370
    50
100
AcDbCircle
 10
368.906405
 20
105.736994
 30
0.0
 40
5.500000000000061
100
AcDbArc
 50
245.380023
 51
270.0
  0
CIRCLE
  5
448
330
1F
100
AcDbEntity
  8
LC-001-100-D00-0
 62
     7
370
    50
100
AcDbCircle
 10
233.906405
 20
175.736994
 30
0.0
 40
3.25
  0
ARC
  5
449
330
1F
100
AcDbEntity
  8
LC-001-100-D00-0
 62
     7
370
    50
100
AcDbCircle
 10
233.906405
 20
175.736994
 30
0.0
 40
5.500000000000012
100
AcDbArc
 50
65.380023
 51
114.619977
  0
CIRCLE
  5
44A
330
1F
100
AcDbEntity
  8
LC-001-100-D00-0
 62
     7
370
    50
100
AcDbCircle
 10
233.906405
 20
105.736994
 30
0.0
 40
3.249999999999943
  0
ARC
  5
44B
330
1F
100
AcDbEntity
  8
LC-001-100-D00-0
 62
     7
370
    50
100
AcDbCircle
 10
233.906405
 20
105.736994
 30
0.0
 40
5.499999999999972
100
AcDbArc
 50
270.0
 51
294.619977
  0
ARC
  5
44C
330
1F
100
AcDbEntity
  8
LC-001-100-D00-0
 62
     7
370
    50
100
AcDbCircle
 10
233.906405
 20
105.736994
 30
0.0
 40
5.499999999999986
100
AcDbArc
 50
245.380023
 51
270.0
  0
DIMENSION
  5
44D
330
1F
100
AcDbEntity
  8
LC-001-100-D00-0
 62
     7
370
    25
100
AcDbDimension
  2
*D43
 10
429.507434
 20
100.736994
 30
0.0
 11
398.707434
 21
140.912249
 31
0.0
 70
   160
  1
80
 71
     5
 42
80.0
 53
90.0
  3
LC-DIM-L-0140-02-02
100
AcDbAlignedDimension
 13
371.406405
 23
180.736994
 33
0.0
 14
371.406405
 24
100.736994
 34
0.0
 50
90.0
100
AcDbRotatedDimension
  0
LINE
  5
45A
330
1F
100
AcDbEntity
  8
LC-001-100-D00-0
  6
DASHDOT
 62
     7
370
    25
100
AcDbLine
 10
301.406405
 20
33.736994
 30
0.0
 11
301.406405
 21
181.117367
 31
0.0
  0
LINE
  5
45B
330
1F
100
AcDbEntity
  8
LC-001-100-D00-0
  6
DASHDOT
 62
     7
370
    25
100
AcDbLine
 10
375.406405
 20
140.736994
 30
0.0
 11
227.406405
 21
140.736994
 31
0.0
  0
LINE
  5
45C
330
1F
100
AcDbEntity
  8
LC-001-100-D00-0
 62
     7
370
    50
100
AcDbLine
 10
100.151716
 20
286.301146
 30
0.0
 11
100.151716
 21
284.301146
 31
0.0
  0
LINE
  5
45D
330
1F
100
AcDbEntity
  8
LC-001-100-D00-0
 62
     7
370
    50
100
AcDbLine
 10
181.151716
 20
284.301146
 30
0.0
 11
181.151716
 21
286.301146
 31
0.0
  0
ARC
  5
45E
330
1F
100
AcDbEntity
  8
LC-001-100-D00-0
 62
     7
370
    50
100
AcDbCircle
 10
165.714773
 20
276.344699
 30
0.0
 40
0.2999999999999738
100
AcDbArc
 50
131.633539
 51
282.528808
  0
LINE
  5
45F
330
1F
100
AcDbEntity
  8
LC-001-100-D00-0
 62
     7
370
    50
100
AcDbLine
 10
165.515465
 20
276.568922
 30
0.0
 11
168.867552
 21
279.548555
 31
0.0
  0
ARC
  5
460
330
1F
100
AcDbEntity
  8
LC-001-100-D00-0
 62
     7
370
    50
100
AcDbCircle
 10
169.531915
 20
278.801146
 30
0.0
 40
1.0
100
AcDbArc
 50
90.0
 51
131.633539
  0
LINE
  5
461
330
1F
100
AcDbEntity
  8
LC-001-100-D00-0
 62
     7
370
    50
100
AcDbLine
 10
169.151718
 20
275.801146
 30
0.0
 11
169.151718
 21
276.427161
 31
0.0
  0
ARC
  5
462
330
1F
100
AcDbEntity
  8
LC-001-100-D00-0
 62
     7
370
    50
100
AcDbCircle
 10
168.851716
 20
276.427161
 30
0.0
 40
0.3000000000000114
100
AcDbArc
 50
0.0
 51
102.528808
  0
LINE
  5
463
330
1F
100
AcDbEntity
  8
LC-001-100-D00-0
 62
     7
370
    50
100
AcDbLine
 10
168.786635
 20
276.720017
 30
0.0
 11
165.779853
 21
276.051842
 31
0.0
  0
LINE
  5
464
330
1F
100
AcDbEntity
  8
LC-001-100-D00-0
 62
     7
370
    50
100
AcDbLine
 10
172.151713
 20
279.801146
 30
0.0
 11
172.151713
 21
275.801146
 31
0.0
  0
LINE
  5
465
330
1F
100
AcDbEntity
  8
LC-001-100-D00-0
 62
     7
370
    50
100
AcDbLine
 10
169.151718
 20
275.801146
 30
0.0
 11
172.151713
 21
275.801146
 31
0.0
  0
LINE
  5
466
330
1F
100
AcDbEntity
  8
LC-001-100-D00-0
 62
     7
370
    50
100
AcDbLine
 10
169.531917
 20
279.801146
 30
0.0
 11
172.151713
 21
279.801146
 31
0.0
  0
LINE
  5
467
330
1F
100
AcDbEntity
  8
LC-001-100-D00-0
 62
     7
370
    50
100
AcDbLine
 10
112.151716
 20
276.427161
 30
0.0
 11
112.151716
 21
275.801146
 31
0.0
  0
LINE
  5
468
330
1F
100
AcDbEntity
  8
LC-001-100-D00-0
 62
     7
370
    50
100
AcDbLine
 10
109.151716
 20
275.801146
 30
0.0
 11
109.151716
 21
279.801146
 31
0.0
  0
ARC
  5
469
330
1F
100
AcDbEntity
  8
LC-001-100-D00-0
 62
     7
370
    50
100
AcDbCircle
 10
111.771517
 20
278.801146
 30
0.0
 40
0.9999999999999897
100
AcDbArc
 50
48.366461
 51
90.0
  0
LINE
  5
46A
330
1F
100
AcDbEntity
  8
LC-001-100-D00-0
 62
     7
370
    50
100
AcDbLine
 10
115.787968
 20
276.568922
 30
0.0
 11
112.43588
 21
279.548555
 31
0.0
  0
ARC
  5
46B
330
1F
100
AcDbEntity
  8
LC-001-100-D00-0
 62
     7
370
    50
100
AcDbCircle
 10
115.588659
 20
276.344699
 30
0.0
 40
0.3000000000000355
100
AcDbArc
 50
257.471192
 51
48.366461
  0
LINE
  5
46C
330
1F
100
AcDbEntity
  8
LC-001-100-D00-0
 62
     7
370
    50
100
AcDbLine
 10
112.516795
 20
276.720017
 30
0.0
 11
115.52358
 21
276.051842
 31
0.0
  0
ARC
  5
46D
330
1F
100
AcDbEntity
  8
LC-001-100-D00-0
 62
     7
370
    50
100
AcDbCircle
 10
112.451716
 20
276.427161
 30
0.0
 40
0.3000000000000355
100
AcDbArc
 50
77.471192
 51
180.0
  0
LINE
  5
46E
330
1F
100
AcDbEntity
  8
LC-001-100-D00-0
 62
     7
370
    50
100
AcDbLine
 10
109.151716
 20
275.801146
 30
0.0
 11
112.151716
 21
275.801146
 31
0.0
  0
LINE
  5
46F
330
1F
100
AcDbEntity
  8
LC-001-100-D00-0
 62
     7
370
    50
100
AcDbLine
 10
109.151716
 20
279.801146
 30
0.0
 11
111.771517
 21
279.801146
 31
0.0
  0
LINE
  5
470
330
1F
100
AcDbEntity
  8
LC-001-100-D00-0
 62
     7
370
    50
100
AcDbLine
 10
111.771517
 20
279.801146
 30
0.0
 11
120.809635
 21
279.801146
 31
0.0
  0
LINE
  5
471
330
1F
100
AcDbEntity
  8
LC-001-100-D00-0
 62
     7
370
    50
100
AcDbLine
 10
168.651717
 20
272.801146
 30
0.0
 11
168.651717
 21
275.801146
 31
0.0
  0
LINE
  5
472
330
1F
100
AcDbEntity
  8
LC-001-100-D00-0
 62
     7
370
    50
100
AcDbLine
 10
168.651717
 20
275.801146
 30
0.0
 11
171.651719
 21
275.801146
 31
0.0
  0
LINE
  5
473
330
1F
100
AcDbEntity
  8
LC-001-100-D00-0
 62
     7
370
    50
100
AcDbLine
 10
171.651719
 20
279.801146
 30
0.0
 11
171.651719
 21
275.801146
 31
0.0
  0
LINE
  5
474
330
1F
100
AcDbEntity
  8
LC-001-100-D00-0
 62
     7
370
    50
100
AcDbLine
 10
171.651719
 20
279.801146
 30
0.0
 11
176.651714
 21
279.801146
 31
0.0
  0
ARC
  5
475
330
1F
100
AcDbEntity
  8
LC-001-100-D00-0
 62
     7
370
    50
100
AcDbCircle
 10
176.651716
 20
280.801146
 30
0.0
 40
1.0
100
AcDbArc
 50
270.0
 51
0.0
  0
LINE
  5
476
330
1F
100
AcDbEntity
  8
LC-001-100-D00-0
 62
     7
370
    50
100
AcDbLine
 10
177.651716
 20
305.301145
 30
0.0
 11
177.651716
 21
280.801146
 31
0.0
  0
LINE
  5
477
330
1F
100
AcDbEntity
  8
LC-001-100-D00-0
 62
     7
370
    50
100
AcDbLine
 10
180.651715
 20
305.301145
 30
0.0
 11
177.651716
 21
305.301145
 31
0.0
  0
LINE
  5
478
330
1F
100
AcDbEntity
  8
LC-001-100-D00-0
 62
     7
370
    50
100
AcDbLine
 10
180.651715
 20
305.301145
 30
0.0
 11
180.651715
 21
275.301146
 31
0.0
  0
LINE
  5
479
330
1F
100
AcDbEntity
  8
LC-001-100-D00-0
 62
     7
370
    50
100
AcDbLine
 10
180.651715
 20
275.301146
 30
0.0
 11
177.651716
 21
275.301146
 31
0.0
  0
LINE
  5
47A
330
1F
100
AcDbEntity
  8
LC-001-100-D00-0
 62
     7
370
    50
100
AcDbLine
 10
177.651716
 20
275.301146
 30
0.0
 11
177.651716
 21
276.801145
 31
0.0
  0
LINE
  5
47B
330
1F
100
AcDbEntity
  8
LC-001-100-D00-0
 62
     7
370
    50
100
AcDbLine
 10
177.651716
 20
276.801145
 30
0.0
 11
174.651718
 21
276.801145
 31
0.0
  0
LINE
  5
47C
330
1F
100
AcDbEntity
  8
LC-001-100-D00-0
 62
     7
370
    50
100
AcDbLine
 10
174.651718
 20
272.801146
 30
0.0
 11
174.651718
 21
276.801145
 31
0.0
  0
LINE
  5
47D
330
1F
100
AcDbEntity
  8
LC-001-100-D00-0
 62
     7
370
    50
100
AcDbLine
 10
174.651718
 20
272.801146
 30
0.0
 11
168.651717
 21
272.801146
 31
0.0
  0
LINE
  5
47E
330
1F
100
AcDbEntity
  8
LC-001-100-D00-0
 62
     7
370
    50
100
AcDbLine
 10
103.651716
 20
276.801145
 30
0.0
 11
103.651716
 21
275.301146
 31
0.0
  0
LINE
  5
47F
330
1F
100
AcDbEntity
  8
LC-001-100-D00-0
 62
     7
370
    50
100
AcDbLine
 10
100.651716
 20
275.301146
 30
0.0
 11
100.651716
 21
305.301145
 31
0.0
  0
LINE
  5
480
330
1F
100
AcDbEntity
  8
LC-001-100-D00-0
 62
     7
370
    50
100
AcDbLine
 10
103.651716
 20
305.301145
 30
0.0
 11
100.651716
 21
305.301145
 31
0.0
  0
LINE
  5
481
330
1F
100
AcDbEntity
  8
LC-001-100-D00-0
 62
     7
370
    50
100
AcDbLine
 10
103.651716
 20
280.801146
 30
0.0
 11
103.651716
 21
305.301145
 31
0.0
  0
ARC
  5
482
330
1F
100
AcDbEntity
  8
LC-001-100-D00-0
 62
     7
370
    50
100
AcDbCircle
 10
104.651716
 20
280.801146
 30
0.0
 40
1.0
100
AcDbArc
 50
180.0
 51
270.0
  0
LINE
  5
483
330
1F
100
AcDbEntity
  8
LC-001-100-D00-0
 62
     7
370
    50
100
AcDbLine
 10
109.651716
 20
275.801146
 30
0.0
 11
109.651716
 21
279.801146
 31
0.0
  0
LINE
  5
484
330
1F
100
AcDbEntity
  8
LC-001-100-D00-0
 62
     7
370
    50
100
AcDbLine
 10
106.651716
 20
276.801145
 30
0.0
 11
106.651716
 21
272.801146
 31
0.0
  0
LINE
  5
485
330
1F
100
AcDbEntity
  8
LC-001-100-D00-0
 62
     7
370
    50
100
AcDbLine
 10
112.651716
 20
275.801146
 30
0.0
 11
112.651716
 21
272.801146
 31
0.0
  0
LINE
  5
486
330
1F
100
AcDbEntity
  8
LC-001-100-D00-0
 62
     7
370
    50
100
AcDbLine
 10
109.651716
 20
275.801146
 30
0.0
 11
112.651716
 21
275.801146
 31
0.0
  0
LINE
  5
487
330
1F
100
AcDbEntity
  8
LC-001-100-D00-0
 62
     7
370
    50
100
AcDbLine
 10
112.651716
 20
272.801146
 30
0.0
 11
106.651716
 21
272.801146
 31
0.0
  0
LINE
  5
488
330
1F
100
AcDbEntity
  8
LC-001-100-D00-0
 62
     7
370
    50
100
AcDbLine
 10
104.651716
 20
279.801146
 30
0.0
 11
109.651716
 21
279.801146
 31
0.0
  0
LINE
  5
489
330
1F
100
AcDbEntity
  8
LC-001-100-D00-0
 62
     7
370
    50
100
AcDbLine
 10
106.651716
 20
276.801145
 30
0.0
 11
103.651716
 21
276.801145
 31
0.0
  0
LINE
  5
48A
330
1F
100
AcDbEntity
  8
LC-001-100-D00-0
 62
     7
370
    50
100
AcDbLine
 10
103.651716
 20
275.301146
 30
0.0
 11
100.651716
 21
275.301146
 31
0.0
  0
LINE
  5
48B
330
1F
100
AcDbEntity
  8
LC-001-100-D00-0
 62
     7
370
    50
100
AcDbLine
 10
175.1198
 20
275.301146
 30
0.0
 11
177.651716
 21
275.301146
 31
0.0
  0
LINE
  5
48C
330
1F
100
AcDbEntity
  8
LC-001-100-D00-0
 62
     7
370
    50
100
AcDbLine
 10
177.651716
 20
305.301145
 30
0.0
 11
175.1198
 21
305.301145
 31
0.0
  0
LINE
  5
48D
330
1F
100
AcDbEntity
  8
LC-001-100-D00-0
 62
     7
370
    50
100
AcDbLine
 10
112.651716
 20
272.801146
 30
0.0
 11
113.843205
 21
272.801146
 31
0.0
  0
LINE
  5
48E
330
1F
100
AcDbEntity
  8
LC-001-100-D00-0
 62
     7
370
    50
100
AcDbLine
 10
103.651716
 20
275.301146
 30
0.0
 11
106.183631
 21
275.301146
 31
0.0
  0
LINE
  5
48F
330
1F
100
AcDbEntity
  8
LC-001-100-D00-0
 62
     7
370
    50
100
AcDbLine
 10
106.183631
 20
305.301145
 30
0.0
 11
103.651716
 21
305.301145
 31
0.0
  0
INSERT
  5
49F
330
1F
100
AcDbEntity
  8
LC-001-100-D00-0
 62
     7
370
    50
100
AcDbBlockReference
  2
POLY39
 10
0.0
 20
0.0
 30
0.0
  0
INSERT
  5
4AF
330
1F
100
AcDbEntity
  8
LC-001-100-D00-0
 62
     7
370
    50
100
AcDbBlockReference
  2
POLY40
 10
0.0
 20
0.0
 30
0.0
  0
LINE
  5
4B0
330
1F
100
AcDbEntity
  8
LC-001-100-D00-0
 62
     7
370
    50
100
AcDbLine
 10
106.183631
 20
275.301146
 30
0.0
 11
106.651716
 21
275.301146
 31
0.0
  0
LINE
  5
4B1
330
1F
100
AcDbEntity
  8
LC-001-100-D00-0
 62
     7
370
    50
100
AcDbLine
 10
174.651718
 20
275.301146
 30
0.0
 11
175.1198
 21
275.301146
 31
0.0
  0
LINE
  5
4B2
330
1F
100
AcDbEntity
  8
LC-001-100-D00-0
 62
     7
370
    50
100
AcDbLine
 10
167.851714
 20
283.801146
 30
0.0
 11
167.851714
 21
303.801146
 31
0.0
  0
INSERT
  5
4C4
330
1F
100
AcDbEntity
  8
LC-001-100-D00-0
 62
     7
370
    50
100
AcDbBlockReference
  2
POLY41
 10
0.0
 20
0.0
 30
0.0
  0
INSERT
  5
4D2
330
1F
100
AcDbEntity
  8
LC-001-100-D00-0
 62
     7
370
    50
100
AcDbBlockReference
  2
POLY42
 10
0.0
 20
0.0
 30
0.0
  0
LINE
  5
4D3
330
1F
100
AcDbEntity
  8
LC-001-100-D00-0
 62
     7
370
    50
100
AcDbLine
 10
175.1198
 20
305.301145
 30
0.0
 11
169.351717
 21
305.301145
 31
0.0
  0
INSERT
  5
4E5
330
1F
100
AcDbEntity
  8
LC-001-100-D00-0
 62
     7
370
    50
100
AcDbBlockReference
  2
POLY43
 10
0.0
 20
0.0
 30
0.0
  0
LINE
  5
4E6
330
1F
100
AcDbEntity
  8
LC-001-100-D00-0
 62
     7
370
    50
100
AcDbLine
 10
113.451716
 20
303.801146
 30
0.0
 11
113.451716
 21
283.801146
 31
0.0
  0
INSERT
  5
4F6
330
1F
100
AcDbEntity
  8
LC-001-100-D00-0
 62
     7
370
    50
100
AcDbBlockReference
  2
POLY44
 10
0.0
 20
0.0
 30
0.0
  0
LINE
  5
4F7
330
1F
100
AcDbEntity
  8
LC-001-100-D00-0
 62
     7
370
    50
100
AcDbLine
 10
111.951716
 20
305.301145
 30
0.0
 11
106.183631
 21
305.301145
 31
0.0
  0
LINE
  5
4F8
330
1F
100
AcDbEntity
  8
LC-001-100-D00-0
 62
     7
370
    50
100
AcDbLine
 10
34.651717
 20
239.104994
 30
0.0
 11
34.651717
 21
241.301146
 31
0.0
  0
LINE
  5
4F9
330
1F
100
AcDbEntity
  8
LC-001-100-D00-0
 62
     7
370
    50
100
AcDbLine
 10
34.651717
 20
241.301146
 30
0.0
 11
110.651716
 21
241.301146
 31
0.0
  0
LINE
  5
4FA
330
1F
100
AcDbEntity
  8
LC-001-100-D00-0
 62
     7
370
    50
100
AcDbLine
 10
110.651716
 20
241.301146
 30
0.0
 11
131.502911
 21
241.301146
 31
0.0
  0
ARC
  5
4FB
330
1F
100
AcDbEntity
  8
LC-001-100-D00-0
 62
     7
370
    50
100
AcDbCircle
 10
131.502912
 20
242.301146
 30
0.0
 40
1.0
100
AcDbArc
 50
270.0
 51
359.0
  0
LINE
  5
4FC
330
1F
100
AcDbEntity
  8
LC-001-100-D00-0
 62
     7
370
    50
100
AcDbLine
 10
132.502759
 20
242.283693
 30
0.0
 11
133.026715
 21
272.301146
 31
0.0
  0
LINE
  5
4FD
330
1F
100
AcDbEntity
  8
LC-001-100-D00-0
 62
     7
370
    50
100
AcDbLine
 10
133.026715
 20
272.301146
 30
0.0
 11
135.026716
 21
272.301146
 31
0.0
  0
LINE
  5
4FE
330
1F
100
AcDbEntity
  8
LC-001-100-D00-0
 62
     7
370
    50
100
AcDbLine
 10
135.026716
 20
272.301146
 30
0.0
 11
135.550672
 21
242.283693
 31
0.0
  0
ARC
  5
4FF
330
1F
100
AcDbEntity
  8
LC-001-100-D00-0
 62
     7
370
    50
100
AcDbCircle
 10
136.55052
 20
242.301146
 30
0.0
 40
1.000000000000013
100
AcDbArc
 50
181.0
 51
270.0
  0
LINE
  5
500
330
1F
100
AcDbEntity
  8
LC-001-100-D00-0
 62
     7
370
    50
100
AcDbLine
 10
136.550519
 20
241.301146
 30
0.0
 11
170.651717
 21
241.301146
 31
0.0
  0
ARC
  5
501
330
1F
100
AcDbEntity
  8
LC-001-100-D00-0
 62
     7
370
    50
100
AcDbCircle
 10
170.651716
 20
248.301146
 30
0.0
 40
7.0
100
AcDbArc
 50
270.0
 51
0.0
  0
LINE
  5
502
330
1F
100
AcDbEntity
  8
LC-001-100-D00-0
 62
     7
370
    50
100
AcDbLine
 10
177.651716
 20
248.301145
 30
0.0
 11
177.651716
 21
276.301146
 31
0.0
  0
LINE
  5
503
330
1F
100
AcDbEntity
  8
LC-001-100-D00-0
 62
     7
370
    50
100
AcDbLine
 10
177.651716
 20
276.301146
 30
0.0
 11
180.651715
 21
276.301146
 31
0.0
  0
LINE
  5
504
330
1F
100
AcDbEntity
  8
LC-001-100-D00-0
 62
     7
370
    50
100
AcDbLine
 10
180.651715
 20
248.301145
 30
0.0
 11
180.651715
 21
276.301146
 31
0.0
  0
ARC
  5
505
330
1F
100
AcDbEntity
  8
LC-001-100-D00-0
 62
     7
370
    50
100
AcDbCircle
 10
170.651716
 20
248.301146
 30
0.0
 40
10.0
100
AcDbArc
 50
270.0
 51
0.0
  0
LINE
  5
506
330
1F
100
AcDbEntity
  8
LC-001-100-D00-0
 62
     7
370
    50
100
AcDbLine
 10
110.651716
 20
238.301144
 30
0.0
 11
170.651717
 21
238.301144
 31
0.0
  0
LINE
  5
507
330
1F
100
AcDbEntity
  8
LC-001-100-D00-0
 62
     7
370
    50
100
AcDbLine
 10
37.651716
 20
238.301144
 30
0.0
 11
110.651716
 21
238.301144
 31
0.0
  0
LINE
  5
508
330
1F
100
AcDbEntity
  8
LC-001-100-D00-0
 62
     7
370
    50
100
AcDbLine
 10
37.651716
 20
238.301144
 30
0.0
 11
34.651717
 21
239.104994
 31
0.0
  0
LINE
  5
509
330
1F
100
AcDbEntity
  8
LC-001-100-D00-0
 62
     7
370
    50
100
AcDbLine
 10
83.651716
 20
288.301146
 30
0.0
 11
37.651716
 21
288.301146
 31
0.0
  0
LINE
  5
50A
330
1F
100
AcDbEntity
  8
LC-001-100-D00-0
 62
     7
370
    50
100
AcDbLine
 10
103.651716
 20
271.801146
 30
0.0
 11
103.651716
 21
248.301145
 31
0.0
  0
LINE
  5
50B
330
1F
100
AcDbEntity
  8
LC-001-100-D00-0
 62
     7
370
    50
100
AcDbLine
 10
34.651717
 20
285.301146
 30
0.0
 11
34.651717
 21
241.301146
 31
0.0
  0
LINE
  5
50C
330
1F
100
AcDbEntity
  8
LC-001-100-D00-0
 62
     7
370
    50
100
AcDbLine
 10
84.919665
 20
285.301146
 30
0.0
 11
34.651717
 21
285.301146
 31
0.0
  0
INSERT
  5
524
330
1F
100
AcDbEntity
  8
LC-001-100-D00-0
 62
     7
370
    50
100
AcDbBlockReference
  2
POLY45
 10
0.0
 20
0.0
 30
0.0
  0
LINE
  5
525
330
1F
100
AcDbEntity
  8
LC-001-100-D00-0
 62
     7
370
    50
100
AcDbLine
 10
100.651716
 20
274.801146
 30
0.0
 11
96.177995
 21
274.801146
 31
0.0
  0
LINE
  5
526
330
1F
100
AcDbEntity
  8
LC-001-100-D00-0
 62
     7
370
    50
100
AcDbLine
 10
100.651716
 20
276.301146
 30
0.0
 11
100.651716
 21
274.801146
 31
0.0
  0
LINE
  5
527
330
1F
100
AcDbEntity
  8
LC-001-100-D00-0
 62
     7
370
    50
100
AcDbLine
 10
103.651716
 20
276.301146
 30
0.0
 11
103.651716
 21
271.801146
 31
0.0
  0
LINE
  5
528
330
1F
100
AcDbEntity
  8
LC-001-100-D00-0
 62
     7
370
    50
100
AcDbLine
 10
103.651716
 20
271.801146
 30
0.0
 11
96.177995
 21
271.801146
 31
0.0
  0
ARC
  5
529
330
1F
100
AcDbEntity
  8
LC-001-100-D00-0
 62
     7
370
    50
100
AcDbCircle
 10
96.177995
 20
277.801146
 30
0.0
 40
5.99999999999999
100
AcDbArc
 50
210.0
 51
270.0
  0
LINE
  5
52A
330
1F
100
AcDbEntity
  8
LC-001-100-D00-0
 62
     7
370
    50
100
AcDbLine
 10
90.981843
 20
274.801146
 30
0.0
 11
84.919665
 21
285.301146
 31
0.0
  0
LINE
  5
52B
330
1F
100
AcDbEntity
  8
LC-001-100-D00-0
 62
     7
370
    50
100
AcDbLine
 10
34.651717
 20
285.301146
 30
0.0
 11
34.651717
 21
287.497298
 31
0.0
  0
LINE
  5
52C
330
1F
100
AcDbEntity
  8
LC-001-100-D00-0
 62
     7
370
    50
100
AcDbLine
 10
34.651717
 20
287.497298
 30
0.0
 11
37.651716
 21
288.301146
 31
0.0
  0
LINE
  5
52D
330
1F
100
AcDbEntity
  8
LC-001-100-D00-0
 62
     7
370
    50
100
AcDbLine
 10
83.651716
 20
288.301146
 30
0.0
 11
83.651716
 21
292.301145
 31
0.0
  0
LINE
  5
52E
330
1F
100
AcDbEntity
  8
LC-001-100-D00-0
 62
     7
370
    50
100
AcDbLine
 10
83.651716
 20
292.301145
 30
0.0
 11
86.651716
 21
292.301145
 31
0.0
  0
LINE
  5
52F
330
1F
100
AcDbEntity
  8
LC-001-100-D00-0
 62
     7
370
    50
100
AcDbLine
 10
86.651716
 20
287.750636
 30
0.0
 11
86.651716
 21
292.301145
 31
0.0
  0
ARC
  5
530
330
1F
100
AcDbEntity
  8
LC-001-100-D00-0
 62
     7
370
    50
100
AcDbCircle
 10
84.919665
 20
285.301146
 30
0.0
 40
3.000000000000009
100
AcDbArc
 50
30.0
 51
54.73561
  0
LINE
  5
531
330
1F
100
AcDbEntity
  8
LC-001-100-D00-0
 62
     7
370
    50
100
AcDbLine
 10
93.579919
 20
276.301146
 30
0.0
 11
87.517742
 21
286.801145
 31
0.0
  0
ARC
  5
532
330
1F
100
AcDbEntity
  8
LC-001-100-D00-0
 62
     7
370
    50
100
AcDbCircle
 10
96.177995
 20
277.801146
 30
0.0
 40
3.000000000044703
100
AcDbArc
 50
210.0
 51
270.0
  0
LINE
  5
533
330
1F
100
AcDbEntity
  8
LC-001-100-D00-0
 62
     7
370
    50
100
AcDbLine
 10
100.651716
 20
276.301146
 30
0.0
 11
103.651716
 21
276.301146
 31
0.0
  0
LINE
  5
534
330
1F
100
AcDbEntity
  8
LC-001-100-D00-0
 62
     7
370
    50
100
AcDbLine
 10
177.651716
 20
276.301146
 30
0.0
 11
175.1198
 21
276.301146
 31
0.0
  0
LINE
  5
535
330
1F
100
AcDbEntity
  8
LC-001-100-D00-0
 62
     7
370
    50
100
AcDbLine
 10
106.183631
 20
276.301146
 30
0.0
 11
103.651716
 21
276.301146
 31
0.0
  0
LINE
  5
536
330
1F
100
AcDbEntity
  8
LC-001-100-D00-0
 62
     7
370
    50
100
AcDbLine
 10
175.1198
 20
276.301146
 30
0.0
 11
174.651718
 21
276.301146
 31
0.0
  0
LINE
  5
537
330
1F
100
AcDbEntity
  8
LC-001-100-D00-0
 62
     7
370
    50
100
AcDbLine
 10
106.651716
 20
276.301146
 30
0.0
 11
106.183631
 21
276.301146
 31
0.0
  0
INSERT
  5
54B
330
1F
100
AcDbEntity
  8
LC-001-100-D00-0
 62
     7
370
    50
100
AcDbBlockReference
  2
POLY46
 10
0.0
 20
0.0
 30
0.0
  0
INSERT
  5
55D
330
1F
100
AcDbEntity
  8
LC-001-100-D00-0
 62
     7
370
    50
100
AcDbBlockReference
  2
POLY47
 10
0.0
 20
0.0
 30
0.0
  0
LINE
  5
55E
330
1F
100
AcDbEntity
  8
LC-001-100-D00-0
 62
     7
370
    50
100
AcDbLine
 10
100.151716
 20
286.301146
 30
0.0
 11
100.651716
 21
286.301146
 31
0.0
  0
LINE
  5
55F
330
1F
100
AcDbEntity
  8
LC-001-100-D00-0
 62
     7
370
    50
100
AcDbLine
 10
100.151716
 20
284.301146
 30
0.0
 11
100.651716
 21
284.301146
 31
0.0
  0
LINE
  5
560
330
1F
100
AcDbEntity
  8
LC-001-100-D00-0
 62
     7
370
    50
100
AcDbLine
 10
180.651715
 20
284.301146
 30
0.0
 11
181.151716
 21
284.301146
 31
0.0
  0
LINE
  5
561
330
1F
100
AcDbEntity
  8
LC-001-100-D00-0
 62
     7
370
    50
100
AcDbLine
 10
180.651715
 20
286.301146
 30
0.0
 11
181.151716
 21
286.301146
 31
0.0
  0
INSERT
  5
57A
330
1F
100
AcDbEntity
  8
LC-001-100-D00-0
 62
     7
370
    25
100
AcDbBlockReference
  2
KLON3
 10
0.0
 20
0.0
 30
0.0
  0
INSERT
  5
589
330
1F
100
AcDbEntity
  8
LC-001-100-D00-0
 62
     7
370
    25
100
AcDbBlockReference
  2
KLON4
 10
0.0
 20
0.0
 30
0.0
  0
INSERT
  5
593
330
1F
100
AcDbEntity
  8
LC-001-100-D00-0
 62
     7
370
    25
100
AcDbBlockReference
  2
KLON5
 10
0.0
 20
0.0
 30
0.0
  0
INSERT
  5
59C
330
1F
100
AcDbEntity
  8
LC-001-100-D00-0
 62
     7
370
    25
100
AcDbBlockReference
  2
KLON6
 10
0.0
 20
0.0
 30
0.0
  0
LINE
  5
59D
330
1F
100
AcDbEntity
  8
LC-001-100-D00-0
 62
     7
370
    25
100
AcDbLine
 10
168.589524
 20
276.676214
 30
0.0
 11
171.714456
 21
279.801146
 31
0.0
  0
LINE
  5
59E
330
1F
100
AcDbEntity
  8
LC-001-100-D00-0
 62
     7
370
    50
100
AcDbLine
 10
114.345427
 20
276.313654
 30
0.0
 11
115.159412
 21
277.127638
 31
0.0
  0
DIMENSION
  5
59F
330
1F
100
AcDbEntity
  8
LC-001-100-D00-0
 62
     7
370
    25
100
AcDbDimension
  2
*D57
 10
18.509052
 20
238.301146
 30
0.0
 11
-12.290948
 21
260.621462
 31
0.0
 70
   160
  1
DN50
 71
     5
 42
50.0
 53
90.0
  3
LC-DIM-L-0140-02-02
100
AcDbAlignedDimension
 13
37.651716
 23
288.301146
 33
0.0
 14
37.651716
 24
238.301146
 34
0.0
 50
90.0
100
AcDbRotatedDimension
  0
DIMENSION
  5
5AE
330
1F
100
AcDbEntity
  8
LC-001-100-D00-0
 62
     7
370
    25
100
AcDbDimension
  2
*D58
 10
140.651716
 20
320.743962
 30
0.0
 11
84.564693
 21
351.543962
 31
0.0
 70
   160
  1
106
 71
     5
 42
106.0
  3
LC-DIM-L-0140-02-02
100
AcDbAlignedDimension
 13
34.651716
 23
287.497298
 33
0.0
 14
140.651716
 24
309.301146
 34
0.0
100
AcDbRotatedDimension
  0
LINE
  5
5BB
330
1F
100
AcDbEntity
  8
LC-001-100-D00-0
  6
DASHDOT
 62
     7
370
    25
100
AcDbLine
 10
33.651716
 20
263.301146
 30
0.0
 11
131.151716
 21
263.301146
 31
0.0
  0
LINE
  5
5BC
330
1F
100
AcDbEntity
  8
LC-001-100-D00-0
  6
DASHDOT
 62
     7
370
    25
100
AcDbLine
 10
140.651716
 20
309.301146
 30
0.0
 11
140.651716
 21
271.301146
 31
0.0
  0
LINE
  5
5BD
330
1F
100
AcDbEntity
  8
LC-001-100-D00-0
 62
     7
370
    50
100
AcDbLine
 10
117.670432
 20
278.301515
 30
0.0
 11
119.438404
 21
278.29385
 31
0.0
  0
LINE
  5
5BE
330
1F
100
AcDbEntity
  8
LC-001-100-D00-0
 62
     7
370
    50
100
AcDbLine
 10
162.838404
 20
278.105702
 30
0.0
 11
165.169986
 21
278.095594
 31
0.0
  0
CIRCLE
  5
5BF
330
1F
100
AcDbEntity
  8
LC-001-100-D00-0
 62
     7
370
    50
100
AcDbCircle
 10
165.162399
 20
276.34561
 30
0.0
 40
1.75
  0
CIRCLE
  5
5C0
330
1F
100
AcDbEntity
  8
LC-001-100-D00-0
 62
     7
370
    50
100
AcDbCircle
 10
117.662846
 20
276.551531
 30
0.0
 40
1.75
  0
LINE
  5
5C1
330
1F
100
AcDbEntity
  8
LC-001-100-D00-0
 62
     7
370
    50
100
AcDbLine
 10
138.421578
 20
289.901531
 30
0.0
 11
134.421682
 21
289.901531
 31
0.0
  0
LINE
  5
5C2
330
1F
100
AcDbEntity
  8
LC-001-100-D00-0
 62
     7
370
    50
100
AcDbLine
 10
134.421682
 20
289.901531
 30
0.0
 11
134.421682
 21
289.801531
 31
0.0
  0
LINE
  5
5C3
330
1F
100
AcDbEntity
  8
LC-001-100-D00-0
 62
     7
370
    50
100
AcDbLine
 10
122.138404
 20
289.801531
 30
0.0
 11
134.421682
 21
289.801531
 31
0.0
  0
ARC
  5
5C4
330
1F
100
AcDbEntity
  8
LC-001-100-D00-0
 62
     7
370
    50
100
AcDbCircle
 10
122.138404
 20
288.801531
 30
0.0
 40
1.0
100
AcDbArc
 50
90.0
 51
180.0
  0
LINE
  5
5C5
330
1F
100
AcDbEntity
  8
LC-001-100-D00-0
 62
     7
370
    50
100
AcDbLine
 10
121.138404
 20
288.801531
 30
0.0
 11
121.138404
 21
279.801531
 31
0.0
  0
LINE
  5
5C6
330
1F
100
AcDbEntity
  8
LC-001-100-D00-0
 62
     7
370
    50
100
AcDbLine
 10
121.138404
 20
279.801531
 30
0.0
 11
117.138404
 21
279.801531
 31
0.0
  0
LINE
  5
5C7
330
1F
100
AcDbEntity
  8
LC-001-100-D00-0
 62
     7
370
    50
100
AcDbLine
 10
117.138404
 20
278.301531
 30
0.0
 11
117.138404
 21
279.801531
 31
0.0
  0
LINE
  5
5C8
330
1F
100
AcDbEntity
  8
LC-001-100-D00-0
 62
     7
370
    50
100
AcDbLine
 10
119.438404
 20
278.301531
 30
0.0
 11
117.138404
 21
278.301531
 31
0.0
  0
LINE
  5
5C9
330
1F
100
AcDbEntity
  8
LC-001-100-D00-0
 62
     7
370
    50
100
AcDbLine
 10
119.438404
 20
278.301531
 30
0.0
 11
119.438404
 21
274.801531
 31
0.0
  0
LINE
  5
5CA
330
1F
100
AcDbEntity
  8
LC-001-100-D00-0
 62
     7
370
    50
100
AcDbLine
 10
119.438404
 20
274.801531
 30
0.0
 11
117.138404
 21
274.801531
 31
0.0
  0
LINE
  5
5CB
330
1F
100
AcDbEntity
  8
LC-001-100-D00-0
 62
     7
370
    50
100
AcDbLine
 10
117.138404
 20
274.801531
 30
0.0
 11
117.138404
 21
273.301531
 31
0.0
  0
LINE
  5
5CC
330
1F
100
AcDbEntity
  8
LC-001-100-D00-0
 62
     7
370
    50
100
AcDbLine
 10
146.388404
 20
273.301531
 30
0.0
 11
117.138404
 21
273.301531
 31
0.0
  0
LINE
  5
5CD
330
1F
100
AcDbEntity
  8
LC-001-100-D00-0
 62
     7
370
    50
100
AcDbLine
 10
146.388404
 20
273.301531
 30
0.0
 11
146.388404
 21
249.301531
 31
0.0
  0
LINE
  5
5CE
330
1F
100
AcDbEntity
  8
LC-001-100-D00-0
 62
     7
370
    50
100
AcDbLine
 10
147.888404
 20
249.301531
 30
0.0
 11
146.388404
 21
249.301531
 31
0.0
  0
LINE
  5
5CF
330
1F
100
AcDbEntity
  8
LC-001-100-D00-0
 62
     7
370
    50
100
AcDbLine
 10
147.888404
 20
273.301531
 30
0.0
 11
147.888404
 21
249.301531
 31
0.0
  0
LINE
  5
5D0
330
1F
100
AcDbEntity
  8
LC-001-100-D00-0
 62
     7
370
    50
100
AcDbLine
 10
147.888404
 20
273.301531
 30
0.0
 11
159.638404
 21
273.301531
 31
0.0
  0
LINE
  5
5D1
330
1F
100
AcDbEntity
  8
LC-001-100-D00-0
 62
     7
370
    50
100
AcDbLine
 10
159.638404
 20
249.301531
 30
0.0
 11
159.638404
 21
273.301531
 31
0.0
  0
LINE
  5
5D2
330
1F
100
AcDbEntity
  8
LC-001-100-D00-0
 62
     7
370
    50
100
AcDbLine
 10
161.138404
 20
249.301531
 30
0.0
 11
159.638404
 21
249.301531
 31
0.0
  0
LINE
  5
5D3
330
1F
100
AcDbEntity
  8
LC-001-100-D00-0
 62
     7
370
    50
100
AcDbLine
 10
161.138404
 20
249.301531
 30
0.0
 11
161.138404
 21
273.301531
 31
0.0
  0
LINE
  5
5D4
330
1F
100
AcDbEntity
  8
LC-001-100-D00-0
 62
     7
370
    50
100
AcDbLine
 10
165.138404
 20
273.301531
 30
0.0
 11
161.138404
 21
273.301531
 31
0.0
  0
LINE
  5
5D5
330
1F
100
AcDbEntity
  8
LC-001-100-D00-0
 62
     7
370
    50
100
AcDbLine
 10
165.138404
 20
273.301531
 30
0.0
 11
165.138404
 21
274.801531
 31
0.0
  0
LINE
  5
5D6
330
1F
100
AcDbEntity
  8
LC-001-100-D00-0
 62
     7
370
    50
100
AcDbLine
 10
165.138404
 20
274.801531
 30
0.0
 11
162.838404
 21
274.801531
 31
0.0
  0
LINE
  5
5D7
330
1F
100
AcDbEntity
  8
LC-001-100-D00-0
 62
     7
370
    50
100
AcDbLine
 10
162.838404
 20
274.801531
 30
0.0
 11
162.838404
 21
278.301531
 31
0.0
  0
LINE
  5
5D8
330
1F
100
AcDbEntity
  8
LC-001-100-D00-0
 62
     7
370
    50
100
AcDbLine
 10
165.138404
 20
278.301531
 30
0.0
 11
162.838404
 21
278.301531
 31
0.0
  0
LINE
  5
5D9
330
1F
100
AcDbEntity
  8
LC-001-100-D00-0
 62
     7
370
    50
100
AcDbLine
 10
165.138404
 20
279.801531
 30
0.0
 11
165.138404
 21
278.301531
 31
0.0
  0
LINE
  5
5DA
330
1F
100
AcDbEntity
  8
LC-001-100-D00-0
 62
     7
370
    50
100
AcDbLine
 10
165.138404
 20
279.801531
 30
0.0
 11
160.138404
 21
279.801531
 31
0.0
  0
LINE
  5
5DB
330
1F
100
AcDbEntity
  8
LC-001-100-D00-0
 62
     7
370
    50
100
AcDbLine
 10
160.138404
 20
279.801531
 30
0.0
 11
160.138404
 21
294.051531
 31
0.0
  0
ARC
  5
5DC
330
1F
100
AcDbEntity
  8
LC-001-100-D00-0
 62
     7
370
    50
100
AcDbCircle
 10
153.888404
 20
294.051531
 30
0.0
 40
6.249999999999972
100
AcDbArc
 50
0.0
 51
180.0
  0
LINE
  5
5DD
330
1F
100
AcDbEntity
  8
LC-001-100-D00-0
 62
     7
370
    50
100
AcDbLine
 10
147.638404
 20
294.051531
 30
0.0
 11
147.638404
 21
289.462969
 31
0.0
  0
ARC
  5
5DE
330
1F
100
AcDbEntity
  8
LC-001-100-D00-0
 62
     7
370
    50
100
AcDbCircle
 10
146.888404
 20
288.801531
 30
0.0
 40
1.000000000000006
100
AcDbArc
 50
41.409622
 51
90.0
  0
LINE
  5
5DF
330
1F
100
AcDbEntity
  8
LC-001-100-D00-0
 62
     7
370
    50
100
AcDbLine
 10
138.421578
 20
289.801531
 30
0.0
 11
146.888404
 21
289.801531
 31
0.0
  0
LINE
  5
5E0
330
1F
100
AcDbEntity
  8
LC-001-100-D00-0
 62
     7
370
    50
100
AcDbLine
 10
138.421578
 20
289.901531
 30
0.0
 11
138.421578
 21
289.801531
 31
0.0
  0
LINE
  5
5E1
330
1F
100
AcDbEntity
  8
LC-001-100-D00-0
 62
     7
370
    50
100
AcDbLine
 10
159.638404
 20
249.301531
 30
0.0
 11
147.888404
 21
249.301531
 31
0.0
  0
INSERT
  5
5F3
330
1F
100
AcDbEntity
  8
LC-001-100-D00-0
 62
     7
370
    25
100
AcDbBlockReference
  2
KLON7
 10
0.0
 20
0.0
 30
0.0
  0
LINE
  5
5F4
330
1F
100
AcDbEntity
  8
LC-001-100-D00-0
 62
     7
370
    25
100
AcDbLine
 10
116.375065
 20
275.366575
 30
0.0
 11
118.847801
 21
277.839312
 31
0.0
  0
LINE
  5
5F5
330
1F
100
AcDbEntity
  8
LC-001-100-D00-0
 62
     7
370
    50
100
AcDbLine
 10
160.138404
 20
279.801146
 30
0.0
 11
169.531917
 21
279.801146
 31
0.0
  0
LINE
  5
5F6
330
1F
100
AcDbEntity
  8
LC-001-100-D00-0
 62
     7
370
    50
100
AcDbLine
 10
302.406404
 20
159.736994
 30
0.0
 11
300.406404
 21
159.736994
 31
0.0
  0
LINE
  5
5F7
330
1F
100
AcDbEntity
  8
LC-001-100-D00-0
 62
     7
370
    50
100
AcDbLine
 10
302.406404
 20
147.236995
 30
0.0
 11
300.406404
 21
147.236995
 31
0.0
  0
LINE
  5
5F8
330
1F
100
AcDbEntity
  8
LC-001-100-D00-0
 62
     7
370
    50
100
AcDbLine
 10
300.406404
 20
159.736994
 30
0.0
 11
300.406404
 21
147.236995
 31
0.0
  0
LINE
  5
5F9
330
1F
100
AcDbEntity
  8
LC-001-100-D00-0
 62
     7
370
    50
100
AcDbLine
 10
302.406404
 20
159.736994
 30
0.0
 11
302.406404
 21
147.236995
 31
0.0
  0
LINE
  5
5FA
330
1F
100
AcDbEntity
  8
LC-001-100-D00-0
 62
     7
370
    50
100
AcDbLine
 10
252.797359
 20
147.486992
 30
0.0
 11
300.406404
 21
147.486992
 31
0.0
  0
ARC
  5
5FB
330
1F
100
AcDbEntity
  8
LC-001-100-D00-0
 62
     7
370
    50
100
AcDbCircle
 10
252.79736
 20
146.486993
 30
0.0
 40
1.000000000000057
100
AcDbArc
 50
90.0
 51
162.384269
  0
ARC
  5
5FC
330
1F
100
AcDbEntity
  8
LC-001-100-D00-0
 62
     7
370
    50
100
AcDbCircle
 10
270.906404
 20
140.736993
 30
0.0
 40
20.0000000000001
100
AcDbArc
 50
162.384269
 51
270.0
  0
LINE
  5
5FD
330
1F
100
AcDbEntity
  8
LC-001-100-D00-0
 62
     7
370
    50
100
AcDbLine
 10
331.906406
 20
120.736993
 30
0.0
 11
270.906405
 21
120.736993
 31
0.0
  0
ARC
  5
5FE
330
1F
100
AcDbEntity
  8
LC-001-100-D00-0
 62
     7
370
    50
100
AcDbCircle
 10
331.906404
 20
140.736993
 30
0.0
 40
20.00000000000006
100
AcDbArc
 50
270.0
 51
17.615731
  0
ARC
  5
5FF
330
1F
100
AcDbEntity
  8
LC-001-100-D00-0
 62
     7
370
    50
100
AcDbCircle
 10
350.015449
 20
146.486993
 30
0.0
 40
0.9999999999999681
100
AcDbArc
 50
17.615731
 51
90.0
  0
LINE
  5
600
330
1F
100
AcDbEntity
  8
LC-001-100-D00-0
 62
     7
370
    50
100
AcDbLine
 10
302.406404
 20
147.486992
 30
0.0
 11
350.015448
 21
147.486992
 31
0.0
  0
DIMENSION
  5
602
330
1F
100
AcDbEntity
  8
LC-002-003-----0
 62
     7
370
    25
100
AcDbDimension
  2
*D60
 10
207.608937
 20
273.301531
 30
0.0
 11
176.808937
 21
261.067482
 31
0.0
 70
   160
 71
     5
 42
24.0
 53
90.0
  3
LC-DIM-L-0140-02-02
100
AcDbAlignedDimension
 13
161.138404
 23
249.301531
 33
0.0
 14
161.138404
 24
273.301531
 34
0.0
 50
90.0
100
AcDbRotatedDimension
  0
ENDSEC
  0
SECTION
  2
OBJECTS
  0
DICTIONARY
  5
C
330
0
100
AcDbDictionary
281
     1
  3
ACAD_GROUP
350
D
  3
ACAD_LAYOUT
350
1A
  3
ACAD_MLINESTYLE
350
17
  3
ACAD_PLOTSETTINGS
350
19
  3
ACAD_PLOTSTYLENAME
350
E
  0
DICTIONARY
  5
D
102
{ACAD_REACTORS
330
C
102
}
330
C
100
AcDbDictionary
281
     1
  0
DICTIONARY
  5
1A
102
{ACAD_REACTORS
330
C
102
}
330
C
100
AcDbDictionary
281
     1
  3
Layout1
350
1E
  3
Layout2
350
26
  3
Model
350
22
  0
DICTIONARY
  5
17
102
{ACAD_REACTORS
330
C
102
}
330
C
100
AcDbDictionary
281
     1
  3
Standard
350
18
  0
DICTIONARY
  5
19
102
{ACAD_REACTORS
330
C
102
}
330
C
100
AcDbDictionary
281
     1
  0
ACDBDICTIONARYWDFLT
  5
E
102
{ACAD_REACTORS
330
C
102
}
330
C
100
AcDbDictionary
281
     1
  3
Normal
350
F
100
AcDbDictionaryWithDefault
340
F
  0
LAYOUT
  5
1E
102
{ACAD_REACTORS
330
1A
102
}
330
1A
100
AcDbPlotSettings
  1

  2

  4

  6

 40
0.0
 41
0.0
 42
0.0
 43
0.0
 44
0.0
 45
0.0
 46
0.0
 47
0.0
 48
0.0
 49
0.0
140
0.0
141
0.0
142
1.0
143
1.0
 70
   688
 72
     0
 73
     0
 74
     5
  7

 75
    16
147
1.0
148
0.0
149
0.0
100
AcDbLayout
  1
Layout1
 70
     1
 71
     1
 10
-218.193868
 20
-126.073292
 11
621.806132
 21
467.926708
 12
0.0
 22
0.0
 32
0.0
 14
-218.193868
 24
-126.073292
 34
0.0
 15
621.806132
 25
467.926708
 35
0.0
146
0.0
 13
0.0
 23
0.0
 33
0.0
 16
1.0
 26
0.0
 36
0.0
 17
0.0
 27
1.0
 37
0.0
 76
     0
330
1B
  0
LAYOUT
  5
26
102
{ACAD_REACTORS
330
1A
102
}
330
1A
100
AcDbPlotSettings
  1

  2

  4

  6

 40
0.0
 41
0.0
 42
0.0
 43
0.0
 44
0.0
 45
0.0
 46
0.0
 47
0.0
 48
0.0
 49
0.0
140
0.0
141
0.0
142
1.0
143
1.0
 70
   688
 72
     0
 73
     0
 74
     5
  7

 75
    16
147
1.0
148
0.0
149
0.0
100
AcDbLayout
  1
Layout2
 70
     1
 71
     2
 10
0.0
 20
0.0
 11
0.0
 21
0.0
 12
0.0
 22
0.0
 32
0.0
 14
0.0
 24
0.0
 34
0.0
 15
0.0
 25
0.0
 35
0.0
146
0.0
 13
0.0
 23
0.0
 33
0.0
 16
1.0
 26
0.0
 36
0.0
 17
0.0
 27
1.0
 37
0.0
 76
     0
330
23
  0
LAYOUT
  5
22
102
{ACAD_REACTORS
330
1A
102
}
330
1A
100
AcDbPlotSettings
  1

  2

  4

  6

 40
0.0
 41
0.0
 42
0.0
 43
0.0
 44
0.0
 45
0.0
 46
0.0
 47
0.0
 48
0.0
 49
0.0
140
0.0
141
0.0
142
1.0
143
1.0
 70
  1776
 72
     0
 73
     0
 74
     0
  7

 75
     0
147
1.0
148
0.0
149
0.0
100
AcDbLayout
  1
Model
 70
     1
 71
     0
 10
-218.193868
 20
-126.073292
 11
621.806132
 21
467.926708
 12
0.0
 22
0.0
 32
0.0
 14
-218.193868
 24
-126.073292
 34
0.0
 15
621.806132
 25
467.926708
 35
0.0
146
0.0
 13
0.0
 23
0.0
 33
0.0
 16
1.0
 26
0.0
 36
0.0
 17
0.0
 27
1.0
 37
0.0
 76
     0
330
1F
  0
MLINESTYLE
  5
18
102
{ACAD_REACTORS
330
17
102
}
330
17
100
AcDbMlineStyle
  2
Standard
 70
     0
  3

 62
   256
 51
90.0
 52
90.0
 71
     2
 49
0.5
 62
   256
  6
BYLAYER
 49
-0.5
 62
   256
  6
BYLAYER
  0
ACDBPLACEHOLDER
  5
F
102
{ACAD_REACTORS
330
E
102
}
330
E
  0
ENDSEC
  0
EOF
