  0
SECTION
  2
HEADER
  9
$ACADVER
  1
AC1015
  9
$ACADMAINTVER
 70
     6
  9
$DWGCODEPAGE
  3
ANSI_1252
  9
$INSBASE
 10
0.0
 20
0.0
 30
0.0
  9
$EXTMIN
 10
-671.381365
 20
-424.64501
 30
0.0
  9
$EXTMAX
 10
1010.618635
 20
763.35499
 30
0.0
  9
$LIMMIN
 10
-671.381365
 20
-424.64501
  9
$LIMMAX
 10
1010.618635
 20
763.35499
  9
$ORTHOMODE
 70
     0
  9
$REGENMODE
 70
     1
  9
$FILLMODE
 70
     1
  9
$QTEXTMODE
 70
     0
  9
$MIRRTEXT
 70
     1
  9
$LTSCALE
 40
2.0
  9
$ATTMODE
 70
     1
  9
$TEXTSIZE
 40
2.5
  9
$TRACEWID
 40
1.0
  9
$TEXTSTYLE
  7
Standard
  9
$CLAYER
  8
0
  9
$CELTYPE
  6
ByLayer
  9
$CECOLOR
 62
     7
  9
$CELTSCALE
 40
1.0
  9
$DISPSILH
 70
     0
  9
$DIMSCALE
 40
2.0
  9
$DIMASZ
 40
3.5
  9
$DIMEXO
 40
0.625
  9
$DIMDLI
 40
3.75
  9
$DIMRND
 40
0.0
  9
$DIMDLE
 40
0.0
  9
$DIMEXE
 40
1.25
  9
$DIMTP
 40
0.0
  9
$DIMTM
 40
0.0
  9
$DIMTXT
 40
3.5
  9
$DIMCEN
 40
2.5
  9
$DIMTSZ
 40
0.0
  9
$DIMTOL
 70
     0
  9
$DIMLIM
 70
     0
  9
$DIMTIH
 70
     0
  9
$DIMTOH
 70
     0
  9
$DIMSE1
 70
     0
  9
$DIMSE2
 70
     0
  9
$DIMTAD
 70
     1
  9
$DIMZIN
 70
     8
  9
$DIMBLK
  1

  9
$DIMASO
 70
     1
  9
$DIMSHO
 70
     1
  9
$DIMPOST
  1

  9
$DIMAPOST
  1

  9
$DIMALT
 70
     0
  9
$DIMALTD
 70
     3
  9
$DIMALTF
 40
0.03937
  9
$DIMLFAC
 40
1.0
  9
$DIMTOFL
 70
     1
  9
$DIMTVP
 40
0.0
  9
$DIMTIX
 70
     0
  9
$DIMSOXD
 70
     0
  9
$DIMSAH
 70
     0
  9
$DIMBLK1
  1

  9
$DIMBLK2
  1

  9
$DIMSTYLE
  2
ISO-25
  9
$DIMCLRD
 70
     0
  9
$DIMCLRE
 70
     0
  9
$DIMCLRT
 70
     0
  9
$DIMTFAC
 40
1.0
  9
$DIMGAP
 40
0.625
  9
$DIMJUST
 70
     0
  9
$DIMSD1
 70
     0
  9
$DIMSD2
 70
     0
  9
$DIMTOLJ
 70
     0
  9
$DIMTZIN
 70
     8
  9
$DIMALTZ
 70
     0
  9
$DIMALTTZ
 70
     0
  9
$DIMUPT
 70
     0
  9
$DIMDEC
 70
     2
  9
$DIMTDEC
 70
     2
  9
$DIMALTU
 70
     2
  9
$DIMALTTD
 70
     3
  9
$DIMTXSTY
  7
Standard
  9
$DIMAUNIT
 70
     0
  9
$DIMADEC
 70
     0
  9
$DIMALTRND
 40
0.0
  9
$DIMAZIN
 70
     0
  9
$DIMDSEP
 70
    44
  9
$DIMATFIT
 70
     3
  9
$DIMFRAC
 70
     0
  9
$DIMLDRBLK
  1

  9
$DIMLUNIT
 70
     2
  9
$DIMLWD
 70
    -2
  9
$DIMLWE
 70
    -2
  9
$DIMTMOVE
 70
     0
  9
$LUNITS
 70
     2
  9
$LUPREC
 70
     4
  9
$SKETCHINC
 40
1.0
  9
$FILLETRAD
 40
10.0
  9
$AUNITS
 70
     0
  9
$AUPREC
 70
     0
  9
$MENU
  1
.
  9
$ELEVATION
 40
0.0
  9
$PELEVATION
 40
0.0
  9
$THICKNESS
 40
0.0
  9
$LIMCHECK
 70
     0
  9
$CHAMFERA
 40
10.0
  9
$CHAMFERB
 40
10.0
  9
$CHAMFERC
 40
20.0
  9
$CHAMFERD
 40
0.0
  9
$SKPOLY
 70
     0
  9
$TDCREATE
 40
2455282.388237928
  9
$TDUCREATE
 40
2455282.346571262
  9
$TDUPDATE
 40
2455282.38823794
  9
$TDUUPDATE
 40
2455282.346571273
  9
$TDINDWG
 40
0.0000000116
  9
$TDUSRTIMER
 40
0.0000000116
  9
$USRTIMER
 70
     1
  9
$ANGBASE
 50
0.0
  9
$ANGDIR
 70
     0
  9
$PDMODE
 70
     0
  9
$PDSIZE
 40
0.0
  9
$PLINEWID
 40
0.0
  9
$SPLFRAME
 70
     0
  9
$SPLINETYPE
 70
     6
  9
$SPLINESEGS
 70
     8
  9
$HANDSEED
  5
740
  9
$SURFTAB1
 70
     6
  9
$SURFTAB2
 70
     6
  9
$SURFTYPE
 70
     6
  9
$SURFU
 70
     6
  9
$SURFV
 70
     6
  9
$UCSBASE
  2

  9
$UCSNAME
  2

  9
$UCSORG
 10
0.0
 20
0.0
 30
0.0
  9
$UCSXDIR
 10
1.0
 20
0.0
 30
0.0
  9
$UCSYDIR
 10
0.0
 20
1.0
 30
0.0
  9
$UCSORTHOREF
  2

  9
$UCSORTHOVIEW
 70
     0
  9
$UCSORGTOP
 10
0.0
 20
0.0
 30
0.0
  9
$UCSORGBOTTOM
 10
0.0
 20
0.0
 30
0.0
  9
$UCSORGLEFT
 10
0.0
 20
0.0
 30
0.0
  9
$UCSORGRIGHT
 10
0.0
 20
0.0
 30
0.0
  9
$UCSORGFRONT
 10
0.0
 20
0.0
 30
0.0
  9
$UCSORGBACK
 10
0.0
 20
0.0
 30
0.0
  9
$PUCSBASE
  2

  9
$PUCSNAME
  2

  9
$PUCSORG
 10
0.0
 20
0.0
 30
0.0
  9
$PUCSXDIR
 10
1.0
 20
0.0
 30
0.0
  9
$PUCSYDIR
 10
0.0
 20
1.0
 30
0.0
  9
$PUCSORTHOREF
  2

  9
$PUCSORTHOVIEW
 70
     0
  9
$PUCSORGTOP
 10
0.0
 20
0.0
 30
0.0
  9
$PUCSORGBOTTOM
 10
0.0
 20
0.0
 30
0.0
  9
$PUCSORGLEFT
 10
0.0
 20
0.0
 30
0.0
  9
$PUCSORGRIGHT
 10
0.0
 20
0.0
 30
0.0
  9
$PUCSORGFRONT
 10
0.0
 20
0.0
 30
0.0
  9
$PUCSORGBACK
 10
0.0
 20
0.0
 30
0.0
  9
$USERI1
 70
     0
  9
$USERI2
 70
     0
  9
$USERI3
 70
     0
  9
$USERI4
 70
     0
  9
$USERI5
 70
     0
  9
$USERR1
 40
0.0
  9
$USERR2
 40
0.0
  9
$USERR3
 40
0.0
  9
$USERR4
 40
0.0
  9
$USERR5
 40
0.0
  9
$WORLDVIEW
 70
     1
  9
$SHADEDGE
 70
     3
  9
$SHADEDIF
 70
    70
  9
$TILEMODE
 70
     1
  9
$MAXACTVP
 70
    64
  9
$PINSBASE
 10
0.0
 20
0.0
 30
0.0
  9
$PLIMCHECK
 70
     0
  9
$PEXTMIN
 10
-671.381365
 20
-424.64501
 30
0.0
  9
$PEXTMAX
 10
1010.618635
 20
763.35499
 30
0.0
  9
$PLIMMIN
 10
-671.381365
 20
-424.64501
  9
$PLIMMAX
 10
1010.618635
 20
763.35499
  9
$UNITMODE
 70
     0
  9
$VISRETAIN
 70
     1
  9
$PLINEGEN
 70
     0
  9
$PSLTSCALE
 70
     1
  9
$TREEDEPTH
 70
  3020
  9
$CMLSTYLE
  2
Standard
  9
$CMLJUST
 70
     0
  9
$CMLSCALE
 40
20.0
  9
$PROXYGRAPHICS
 70
     1
  9
$MEASUREMENT
 70
     1
  9
$CELWEIGHT
370
    -1
  9
$ENDCAPS
280
     0
  9
$JOINSTYLE
280
     0
  9
$LWDISPLAY
290
     0
  9
$INSUNITS
 70
     4
  9
$HYPERLINKBASE
  1

  9
$STYLESHEET
  1

  9
$XEDIT
290
     1
  9
$CEPSNTYPE
380
     0
  9
$PSTYLEMODE
290
     1
  9
$FINGERPRINTGUID
  2
{FAEB1C30-E019-11D5-929B-00C0DF256EC4}
  9
$VERSIONGUID
  2
{FAEB1C32-E019-11D5-929B-00C0DF256EC4}
  9
$EXTNAMES
290
     1
  9
$PSVPSCALE
 40
0.0
  9
$OLESTARTUP
290
     0
  0
ENDSEC
  0
SECTION
  2
CLASSES
  0
CLASS
  1
ACDBDICTIONARYWDFLT
  2
AcDbDictionaryWithDefault
  3
ObjectDBX Classes
 90
        0
280
     0
281
     0
  0
CLASS
  1
ACDBPLACEHOLDER
  2
AcDbPlaceHolder
  3
ObjectDBX Classes
 90
        0
280
     0
281
     0
  0
CLASS
  1
LAYOUT
  2
AcDbLayout
  3
ObjectDBX Classes
 90
        0
280
     0
281
     0
  0
ENDSEC
  0
SECTION
  2
TABLES
  0
TABLE
  2
VPORT
  5
8
330
0
100
AcDbSymbolTable
 70
     2
  0
VPORT
  5
29
330
8
100
AcDbSymbolTableRecord
100
AcDbViewportTableRecord
  2
*ACTIVE
 70
     0
 10
0.0
 20
0.0
 11
1.0
 21
1.0
 12
169.618635
 22
169.35499
 13
0.0
 23
0.0
 14
1.0
 24
1.0
 15
0.0
 25
0.0
 16
0.0
 26
0.0
 36
1.0
 17
0.0
 27
0.0
 37
0.0
 40
1188.0
 41
1.415825
 42
50.0
 43
0.0
 44
0.0
 50
0.0
 51
0.0
 71
    16
 72
   100
 73
     1
 74
     0
 75
     0
 76
     0
 77
     0
 78
     0
281
     0
 65
     0
110
0.0
120
0.0
130
0.0
111
1.0
121
0.0
131
0.0
112
0.0
122
1.0
132
0.0
 79
     0
146
0.0
  0
ENDTAB
  0
TABLE
  2
LTYPE
  5
5
330
0
100
AcDbSymbolTable
 70
     3
  0
LTYPE
  5
14
330
5
100
AcDbSymbolTableRecord
100
AcDbLinetypeTableRecord
  2
ByBlock
 70
     0
  3

 72
    65
 73
     0
 40
0.0
  0
LTYPE
  5
15
330
5
100
AcDbSymbolTableRecord
100
AcDbLinetypeTableRecord
  2
ByLayer
 70
     0
  3

 72
    65
 73
     0
 40
0.0
  0
LTYPE
  5
16
330
5
100
AcDbSymbolTableRecord
100
AcDbLinetypeTableRecord
  2
Continuous
 70
     0
  3
Solid line
 72
    65
 73
     0
 40
0.0
  0
LTYPE
  5
2A
330
5
100
AcDbSymbolTableRecord
100
AcDbLinetypeTableRecord
  2
DASHED
 70
     0
  3
__ __ __ __ __
 72
    65
 73
     2
 40
6.25
 49
5.0
 74
     4
 75
     0
340
0
 46
1.0
 50
0.0
 44
0.0
 45
0.0
 49
-1.25
 74
     4
 75
     0
340
0
 46
1.0
 50
0.0
 44
0.0
 45
0.0
  0
LTYPE
  5
325
330
5
100
AcDbSymbolTableRecord
100
AcDbLinetypeTableRecord
  2
DASHDOT
 70
     0
  3
__ . __ . __ . __ . __
 72
    65
 73
     4
 40
7.5
 49
5.0
 74
     4
 75
     0
340
0
 46
1.0
 50
0.0
 44
0.0
 45
0.0
 49
-1.25
 74
     4
 75
     0
340
0
 46
1.0
 50
0.0
 44
0.0
 45
0.0
 49
0.0
 74
     4
 75
     0
340
0
 46
1.0
 50
0.0
 44
0.0
 45
0.0
 49
-1.25
 74
     4
 75
     0
340
0
 46
1.0
 50
0.0
 44
0.0
 45
0.0
  0
ENDTAB
  0
TABLE
  2
LAYER
  5
2
330
0
100
AcDbSymbolTable
 70
     8
  0
LAYER
  5
10
330
2
100
AcDbSymbolTableRecord
100
AcDbLayerTableRecord
  2
0
 70
     0
 62
     7
  6
Continuous
370
    -3
390
F
  0
LAYER
  5
2B
330
2
100
AcDbSymbolTableRecord
100
AcDbLayerTableRecord
  2
LC-INFO-1-2-mm-A1-0
 70
     1
 62
     7
  6
ByBlock
370
    -3
390
F
  0
LAYER
  5
2C
330
2
100
AcDbSymbolTableRecord
100
AcDbLayerTableRecord
  2
LC-CUT-HIDDEN
 70
     0
 62
     7
  6
DASHED
370
    -3
390
F
  0
LAYER
  5
2D
330
2
100
AcDbSymbolTableRecord
100
AcDbLayerTableRecord
  2
LC-VIEWPORT
 70
     0
 62
     7
  6
ByBlock
370
    -3
390
F
  0
LAYER
  5
2E
330
2
100
AcDbSymbolTableRecord
100
AcDbLayerTableRecord
  2
LC-3D-HIDDEN
 70
     0
 62
     9
  6
DASHED
370
    -3
390
F
  0
LAYER
  5
30
330
2
100
AcDbSymbolTableRecord
100
AcDbLayerTableRecord
  2
LC-001-100-D00-0
 70
     0
 62
     1
  6
ByBlock
370
    -3
390
F
  0
LAYER
  5
439
330
2
100
AcDbSymbolTableRecord
100
AcDbLayerTableRecord
  2
Defpoints
 70
     0
 62
     7
  6
Continuous
290
     0
370
    -3
390
F
  0
LAYER
  5
6B9
330
2
100
AcDbSymbolTableRecord
100
AcDbLayerTableRecord
  2
LC-002-003-----0
 70
     0
 62
     2
  6
ByBlock
370
    -3
390
F
  0
ENDTAB
  0
TABLE
  2
STYLE
  5
3
330
0
100
AcDbSymbolTable
 70
     3
  0
STYLE
  5
11
330
3
100
AcDbSymbolTableRecord
100
AcDbTextStyleTableRecord
  2
Standard
 70
     0
 40
0.0
 41
1.0
 50
0.0
 71
     0
 42
2.5
  3
txt
  4

  0
STYLE
  5
2F
330
3
100
AcDbSymbolTableRecord
100
AcDbTextStyleTableRecord
  2
LCTX15-400-0-0-Arial
 70
     0
 40
0.0
 41
0.8
 50
0.0
 71
     0
 42
3.5
  3

  4

1001
ACAD
1000
Arial
1071
 16777218
  0
STYLE
  5
436
330
3
100
AcDbSymbolTableRecord
100
AcDbTextStyleTableRecord
  2
LCTX15-400-0-0pDIN-Schrift
 70
     0
 40
2.5
 41
0.8
 50
15.0
 71
     0
 42
3.5
  3
STANDARD
  4

  0
ENDTAB
  0
TABLE
  2
VIEW
  5
6
330
0
100
AcDbSymbolTable
 70
     0
  0
ENDTAB
  0
TABLE
  2
UCS
  5
7
330
0
100
AcDbSymbolTable
 70
     0
  0
ENDTAB
  0
TABLE
  2
APPID
  5
9
330
0
100
AcDbSymbolTable
 70
     1
  0
APPID
  5
12
330
9
100
AcDbSymbolTableRecord
100
AcDbRegAppTableRecord
  2
ACAD
 70
     0
  0
ENDTAB
  0
TABLE
  2
DIMSTYLE
  5
A
330
0
100
AcDbSymbolTable
 70
     2
100
AcDbDimStyleTable
  0
DIMSTYLE
105
27
330
A
100
AcDbSymbolTableRecord
100
AcDbDimStyleTableRecord
  2
ISO-25
 70
     0
 41
2.5
 42
0.625
 43
3.75
 44
1.25
 73
     0
 74
     0
 77
     1
 78
     8
140
2.5
141
2.5
143
0.03937
147
0.625
171
     3
172
     1
271
     2
272
     2
274
     3
278
    44
283
     0
284
     8
340
11
  0
DIMSTYLE
105
437
102
{ACAD_REACTORS
330
438
330
6BA
330
6C7
330
6D4
330
6E1
330
6F0
330
6FD
330
70A
330
717
330
724
330
731
102
}
330
A
100
AcDbSymbolTableRecord
100
AcDbDimStyleTableRecord
  2
LC-DIM-L-0140-02-02
 70
     0
 40
2.0
 41
14.0
 42
0.0
 43
7.5
 44
1.8
 73
     0
 74
     0
 77
     1
 78
     8
 79
     2
140
14.0
141
0.0
146
0.71
147
1.5
176
     2
177
     2
178
     2
179
     2
271
     2
278
    44
289
     1
340
436
  0
ENDTAB
  0
TABLE
  2
BLOCK_RECORD
  5
1
330
0
100
AcDbSymbolTable
 70
    52
  0
BLOCK_RECORD
  5
1F
330
1
100
AcDbSymbolTableRecord
100
AcDbBlockTableRecord
  2
*Model_Space
340
22
  0
BLOCK_RECORD
  5
1B
330
1
100
AcDbSymbolTableRecord
100
AcDbBlockTableRecord
  2
*Paper_Space
340
1E
  0
BLOCK_RECORD
  5
23
330
1
100
AcDbSymbolTableRecord
100
AcDbBlockTableRecord
  2
*Paper_Space0
340
26
  0
BLOCK_RECORD
  5
1CB
330
1
100
AcDbSymbolTableRecord
100
AcDbBlockTableRecord
  2
POLY1
340
0
102
{BLKREFS
331
1D8
102
}
  0
BLOCK_RECORD
  5
1DA
330
1
100
AcDbSymbolTableRecord
100
AcDbBlockTableRecord
  2
POLY2
340
0
102
{BLKREFS
331
1E7
102
}
  0
BLOCK_RECORD
  5
20D
330
1
100
AcDbSymbolTableRecord
100
AcDbBlockTableRecord
  2
POLY3
340
0
102
{BLKREFS
331
216
102
}
  0
BLOCK_RECORD
  5
218
330
1
100
AcDbSymbolTableRecord
100
AcDbBlockTableRecord
  2
POLY4
340
0
102
{BLKREFS
331
221
102
}
  0
BLOCK_RECORD
  5
22C
330
1
100
AcDbSymbolTableRecord
100
AcDbBlockTableRecord
  2
POLY5
340
0
102
{BLKREFS
331
23D
102
}
  0
BLOCK_RECORD
  5
23E
330
1
100
AcDbSymbolTableRecord
100
AcDbBlockTableRecord
  2
POLY6
340
0
102
{BLKREFS
331
24D
102
}
  0
BLOCK_RECORD
  5
24E
330
1
100
AcDbSymbolTableRecord
100
AcDbBlockTableRecord
  2
KLON1
340
0
102
{BLKREFS
331
26B
102
}
  0
BLOCK_RECORD
  5
26C
330
1
100
AcDbSymbolTableRecord
100
AcDbBlockTableRecord
  2
KLON2
340
0
102
{BLKREFS
331
279
102
}
  0
BLOCK_RECORD
  5
27A
330
1
100
AcDbSymbolTableRecord
100
AcDbBlockTableRecord
  2
KLON3
340
0
102
{BLKREFS
331
287
102
}
  0
BLOCK_RECORD
  5
28A
330
1
100
AcDbSymbolTableRecord
100
AcDbBlockTableRecord
  2
KLON4
340
0
102
{BLKREFS
331
29B
102
}
  0
BLOCK_RECORD
  5
29C
330
1
100
AcDbSymbolTableRecord
100
AcDbBlockTableRecord
  2
KLON5
340
0
102
{BLKREFS
331
2AD
102
}
  0
BLOCK_RECORD
  5
2AE
330
1
100
AcDbSymbolTableRecord
100
AcDbBlockTableRecord
  2
KLON6
340
0
102
{BLKREFS
331
2C1
102
}
  0
BLOCK_RECORD
  5
2C2
330
1
100
AcDbSymbolTableRecord
100
AcDbBlockTableRecord
  2
KLON7
340
0
102
{BLKREFS
331
2D6
102
}
  0
BLOCK_RECORD
  5
2D7
330
1
100
AcDbSymbolTableRecord
100
AcDbBlockTableRecord
  2
KLON8
340
0
102
{BLKREFS
331
2DE
102
}
  0
BLOCK_RECORD
  5
2DF
330
1
100
AcDbSymbolTableRecord
100
AcDbBlockTableRecord
  2
KLON9
340
0
102
{BLKREFS
331
2E4
102
}
  0
BLOCK_RECORD
  5
2E7
330
1
100
AcDbSymbolTableRecord
100
AcDbBlockTableRecord
  2
KLON10
340
0
102
{BLKREFS
331
307
102
}
  0
BLOCK_RECORD
  5
308
330
1
100
AcDbSymbolTableRecord
100
AcDbBlockTableRecord
  2
KLON11
340
0
102
{BLKREFS
331
324
102
}
  0
BLOCK_RECORD
  5
33C
330
1
100
AcDbSymbolTableRecord
100
AcDbBlockTableRecord
  2
KLON12
340
0
102
{BLKREFS
331
341
102
}
  0
BLOCK_RECORD
  5
344
330
1
100
AcDbSymbolTableRecord
100
AcDbBlockTableRecord
  2
KLON13
340
0
102
{BLKREFS
331
34B
102
}
  0
BLOCK_RECORD
  5
34D
330
1
100
AcDbSymbolTableRecord
100
AcDbBlockTableRecord
  2
KLON14
340
0
102
{BLKREFS
331
352
102
}
  0
BLOCK_RECORD
  5
353
330
1
100
AcDbSymbolTableRecord
100
AcDbBlockTableRecord
  2
KLON15
340
0
102
{BLKREFS
331
358
102
}
  0
BLOCK_RECORD
  5
359
330
1
100
AcDbSymbolTableRecord
100
AcDbBlockTableRecord
  2
KLON16
340
0
102
{BLKREFS
331
35E
102
}
  0
BLOCK_RECORD
  5
360
330
1
100
AcDbSymbolTableRecord
100
AcDbBlockTableRecord
  2
KLON17
340
0
102
{BLKREFS
331
367
102
}
  0
BLOCK_RECORD
  5
377
330
1
100
AcDbSymbolTableRecord
100
AcDbBlockTableRecord
  2
KLON18
340
0
102
{BLKREFS
331
37C
102
}
  0
BLOCK_RECORD
  5
37D
330
1
100
AcDbSymbolTableRecord
100
AcDbBlockTableRecord
  2
KLON19
340
0
102
{BLKREFS
331
382
102
}
  0
BLOCK_RECORD
  5
384
330
1
100
AcDbSymbolTableRecord
100
AcDbBlockTableRecord
  2
KLON20
340
0
102
{BLKREFS
331
38A
102
}
  0
BLOCK_RECORD
  5
38B
330
1
100
AcDbSymbolTableRecord
100
AcDbBlockTableRecord
  2
KLON21
340
0
102
{BLKREFS
331
390
102
}
  0
BLOCK_RECORD
  5
391
330
1
100
AcDbSymbolTableRecord
100
AcDbBlockTableRecord
  2
KLON22
340
0
102
{BLKREFS
331
397
102
}
  0
BLOCK_RECORD
  5
398
330
1
100
AcDbSymbolTableRecord
100
AcDbBlockTableRecord
  2
KLON23
340
0
102
{BLKREFS
331
39E
102
}
  0
BLOCK_RECORD
  5
39F
330
1
100
AcDbSymbolTableRecord
100
AcDbBlockTableRecord
  2
KLON24
340
0
102
{BLKREFS
331
3A5
102
}
  0
BLOCK_RECORD
  5
3A6
330
1
100
AcDbSymbolTableRecord
100
AcDbBlockTableRecord
  2
KLON25
340
0
102
{BLKREFS
331
3AB
102
}
  0
BLOCK_RECORD
  5
43A
330
1
100
AcDbSymbolTableRecord
100
AcDbBlockTableRecord
  2
*D32
340
0
  0
BLOCK_RECORD
  5
5E4
330
1
100
AcDbSymbolTableRecord
100
AcDbBlockTableRecord
  2
KLON26
340
0
102
{BLKREFS
331
5ED
102
}
  0
BLOCK_RECORD
  5
5EE
330
1
100
AcDbSymbolTableRecord
100
AcDbBlockTableRecord
  2
KLON27
340
0
102
{BLKREFS
331
5F7
102
}
  0
BLOCK_RECORD
  5
602
330
1
100
AcDbSymbolTableRecord
100
AcDbBlockTableRecord
  2
KLON28
340
0
102
{BLKREFS
331
60E
102
}
  0
BLOCK_RECORD
  5
60F
330
1
100
AcDbSymbolTableRecord
100
AcDbBlockTableRecord
  2
KLON29
340
0
102
{BLKREFS
331
61B
102
}
  0
BLOCK_RECORD
  5
670
330
1
100
AcDbSymbolTableRecord
100
AcDbBlockTableRecord
  2
KLON30
340
0
102
{BLKREFS
331
682
102
}
  0
BLOCK_RECORD
  5
683
330
1
100
AcDbSymbolTableRecord
100
AcDbBlockTableRecord
  2
KLON31
340
0
102
{BLKREFS
331
696
102
}
  0
BLOCK_RECORD
  5
698
330
1
100
AcDbSymbolTableRecord
100
AcDbBlockTableRecord
  2
KLON32
340
0
102
{BLKREFS
331
69D
102
}
  0
BLOCK_RECORD
  5
6A0
330
1
100
AcDbSymbolTableRecord
100
AcDbBlockTableRecord
  2
KLON33
340
0
102
{BLKREFS
331
6A5
102
}
  0
BLOCK_RECORD
  5
6A8
330
1
100
AcDbSymbolTableRecord
100
AcDbBlockTableRecord
  2
KLON34
340
0
102
{BLKREFS
331
6AD
102
}
  0
BLOCK_RECORD
  5
6BB
330
1
100
AcDbSymbolTableRecord
100
AcDbBlockTableRecord
  2
*D42
340
0
  0
BLOCK_RECORD
  5
6C8
330
1
100
AcDbSymbolTableRecord
100
AcDbBlockTableRecord
  2
*D43
340
0
  0
BLOCK_RECORD
  5
6D5
330
1
100
AcDbSymbolTableRecord
100
AcDbBlockTableRecord
  2
*D44
340
0
  0
BLOCK_RECORD
  5
6E2
330
1
100
AcDbSymbolTableRecord
100
AcDbBlockTableRecord
  2
*D45
340
0
  0
BLOCK_RECORD
  5
6F1
330
1
100
AcDbSymbolTableRecord
100
AcDbBlockTableRecord
  2
*D46
340
0
  0
BLOCK_RECORD
  5
6FE
330
1
100
AcDbSymbolTableRecord
100
AcDbBlockTableRecord
  2
*D47
340
0
  0
BLOCK_RECORD
  5
70B
330
1
100
AcDbSymbolTableRecord
100
AcDbBlockTableRecord
  2
*D48
340
0
  0
BLOCK_RECORD
  5
718
330
1
100
AcDbSymbolTableRecord
100
AcDbBlockTableRecord
  2
*D49
340
0
  0
BLOCK_RECORD
  5
725
330
1
100
AcDbSymbolTableRecord
100
AcDbBlockTableRecord
  2
*D50
340
0
  0
BLOCK_RECORD
  5
732
330
1
100
AcDbSymbolTableRecord
100
AcDbBlockTableRecord
  2
*D51
340
0
  0
ENDTAB
  0
ENDSEC
  0
SECTION
  2
BLOCKS
  0
BLOCK
  5
20
330
1F
100
AcDbEntity
  8
0
100
AcDbBlockBegin
  2
*Model_Space
 70
     0
 71
     0
 10
0.0
 20
0.0
 30
0.0
  3
*Model_Space
  1

  0
ENDBLK
  5
21
330
1F
100
AcDbEntity
  8
0
100
AcDbBlockEnd
  0
BLOCK
  5
1C
330
1B
100
AcDbEntity
 67
     1
  8
0
100
AcDbBlockBegin
  2
*Paper_Space
 70
     0
 71
     0
 10
0.0
 20
0.0
 30
0.0
  3
*Paper_Space
  1

  0
ENDBLK
  5
1D
330
1B
100
AcDbEntity
 67
     1
  8
0
100
AcDbBlockEnd
  0
BLOCK
  5
24
330
23
100
AcDbEntity
  8
0
100
AcDbBlockBegin
  2
*Paper_Space0
 70
     0
 71
     0
 10
0.0
 20
0.0
 30
0.0
  3
*Paper_Space0
  1

  0
ENDBLK
  5
25
330
23
100
AcDbEntity
  8
0
100
AcDbBlockEnd
  0
BLOCK
  5
1CC
330
1CB
100
AcDbEntity
  8
0
100
AcDbBlockBegin
  2
POLY1
 70
     0
 71
     0
 10
0.0
 20
0.0
 30
0.0
  3
POLY1
  1

  4
POLY1
  0
LINE
  5
1CE
330
1CB
100
AcDbEntity
  8
LC-001-100-D00-0
 62
     7
370
    50
100
AcDbLine
 10
160.72712
 20
370.340378
 30
0.0
 11
160.72712
 21
370.340378
 31
0.0
  0
LINE
  5
1CF
330
1CB
100
AcDbEntity
  8
LC-001-100-D00-0
 62
     7
370
    50
100
AcDbLine
 10
160.72712
 20
370.340378
 30
0.0
 11
160.738381
 21
370.452542
 31
0.0
  0
LINE
  5
1D0
330
1CB
100
AcDbEntity
  8
LC-001-100-D00-0
 62
     7
370
    50
100
AcDbLine
 10
160.738381
 20
370.452542
 30
0.0
 11
160.738381
 21
370.452542
 31
0.0
  0
LINE
  5
1D1
330
1CB
100
AcDbEntity
  8
LC-001-100-D00-0
 62
     7
370
    50
100
AcDbLine
 10
160.738381
 20
370.452542
 30
0.0
 11
160.760903
 21
370.676869
 31
0.0
  0
LINE
  5
1D2
330
1CB
100
AcDbEntity
  8
LC-001-100-D00-0
 62
     7
370
    50
100
AcDbLine
 10
160.760903
 20
370.676869
 30
0.0
 11
160.760903
 21
370.676869
 31
0.0
  0
LINE
  5
1D3
330
1CB
100
AcDbEntity
  8
LC-001-100-D00-0
 62
     7
370
    50
100
AcDbLine
 10
160.760903
 20
370.676869
 30
0.0
 11
160.917501
 21
370.957848
 31
0.0
  0
LINE
  5
1D4
330
1CB
100
AcDbEntity
  8
LC-001-100-D00-0
 62
     7
370
    50
100
AcDbLine
 10
160.917501
 20
370.957848
 30
0.0
 11
160.917501
 21
370.957848
 31
0.0
  0
LINE
  5
1D5
330
1CB
100
AcDbEntity
  8
LC-001-100-D00-0
 62
     7
370
    50
100
AcDbLine
 10
160.917501
 20
370.957848
 30
0.0
 11
161.067834
 21
371.088294
 31
0.0
  0
LINE
  5
1D6
330
1CB
100
AcDbEntity
  8
LC-001-100-D00-0
 62
     7
370
    50
100
AcDbLine
 10
161.067834
 20
371.088294
 30
0.0
 11
161.067834
 21
371.088294
 31
0.0
  0
LINE
  5
1D7
330
1CB
100
AcDbEntity
  8
LC-001-100-D00-0
 62
     7
370
    50
100
AcDbLine
 10
161.067834
 20
371.088294
 30
0.0
 11
161.133374
 21
371.145164
 31
0.0
  0
ENDBLK
  5
1CD
330
1CB
100
AcDbEntity
  8
0
100
AcDbBlockEnd
  0
BLOCK
  5
1DB
330
1DA
100
AcDbEntity
  8
0
100
AcDbBlockBegin
  2
POLY2
 70
     0
 71
     0
 10
0.0
 20
0.0
 30
0.0
  3
POLY2
  1

  4
POLY2
  0
LINE
  5
1DD
330
1DA
100
AcDbEntity
  8
LC-001-100-D00-0
 62
     7
370
    50
100
AcDbLine
 10
81.335108
 20
371.145164
 30
0.0
 11
81.335108
 21
371.145164
 31
0.0
  0
LINE
  5
1DE
330
1DA
100
AcDbEntity
  8
LC-001-100-D00-0
 62
     7
370
    50
100
AcDbLine
 10
81.335108
 20
371.145164
 30
0.0
 11
81.418682
 21
371.069469
 31
0.0
  0
LINE
  5
1DF
330
1DA
100
AcDbEntity
  8
LC-001-100-D00-0
 62
     7
370
    50
100
AcDbLine
 10
81.418682
 20
371.069469
 30
0.0
 11
81.418682
 21
371.069469
 31
0.0
  0
LINE
  5
1E0
330
1DA
100
AcDbEntity
  8
LC-001-100-D00-0
 62
     7
370
    50
100
AcDbLine
 10
81.418682
 20
371.069469
 30
0.0
 11
81.585832
 21
370.918081
 31
0.0
  0
LINE
  5
1E1
330
1DA
100
AcDbEntity
  8
LC-001-100-D00-0
 62
     7
370
    50
100
AcDbLine
 10
81.585832
 20
370.918081
 30
0.0
 11
81.585832
 21
370.918081
 31
0.0
  0
LINE
  5
1E2
330
1DA
100
AcDbEntity
  8
LC-001-100-D00-0
 62
     7
370
    50
100
AcDbLine
 10
81.585832
 20
370.918081
 30
0.0
 11
81.718886
 21
370.625212
 31
0.0
  0
LINE
  5
1E3
330
1DA
100
AcDbEntity
  8
LC-001-100-D00-0
 62
     7
370
    50
100
AcDbLine
 10
81.718886
 20
370.625212
 30
0.0
 11
81.718886
 21
370.625212
 31
0.0
  0
LINE
  5
1E4
330
1DA
100
AcDbEntity
  8
LC-001-100-D00-0
 62
     7
370
    50
100
AcDbLine
 10
81.718886
 20
370.625212
 30
0.0
 11
81.734541
 21
370.426821
 31
0.0
  0
LINE
  5
1E5
330
1DA
100
AcDbEntity
  8
LC-001-100-D00-0
 62
     7
370
    50
100
AcDbLine
 10
81.734541
 20
370.426821
 30
0.0
 11
81.734541
 21
370.426821
 31
0.0
  0
LINE
  5
1E6
330
1DA
100
AcDbEntity
  8
LC-001-100-D00-0
 62
     7
370
    50
100
AcDbLine
 10
81.734541
 20
370.426821
 30
0.0
 11
81.741362
 21
370.340378
 31
0.0
  0
ENDBLK
  5
1DC
330
1DA
100
AcDbEntity
  8
0
100
AcDbBlockEnd
  0
BLOCK
  5
20E
330
20D
100
AcDbEntity
  8
0
100
AcDbBlockBegin
  2
POLY3
 70
     0
 71
     0
 10
0.0
 20
0.0
 30
0.0
  3
POLY3
  1

  4
POLY3
  0
LINE
  5
210
330
20D
100
AcDbEntity
  8
LC-001-100-D00-0
 62
     7
370
    50
100
AcDbLine
 10
166.384156
 20
375.47099
 30
0.0
 11
166.384156
 21
375.47099
 31
0.0
  0
LINE
  5
211
330
20D
100
AcDbEntity
  8
LC-001-100-D00-0
 62
     7
370
    50
100
AcDbLine
 10
166.384156
 20
375.47099
 30
0.0
 11
166.417919
 21
375.47099
 31
0.0
  0
LINE
  5
212
330
20D
100
AcDbEntity
  8
LC-001-100-D00-0
 62
     7
370
    50
100
AcDbLine
 10
166.417919
 20
375.47099
 30
0.0
 11
166.417919
 21
375.47099
 31
0.0
  0
LINE
  5
213
330
20D
100
AcDbEntity
  8
LC-001-100-D00-0
 62
     7
370
    50
100
AcDbLine
 10
166.417919
 20
375.47099
 30
0.0
 11
166.449775
 21
375.473694
 31
0.0
  0
LINE
  5
214
330
20D
100
AcDbEntity
  8
LC-001-100-D00-0
 62
     7
370
    50
100
AcDbLine
 10
166.449775
 20
375.473694
 30
0.0
 11
166.449775
 21
375.473694
 31
0.0
  0
LINE
  5
215
330
20D
100
AcDbEntity
  8
LC-001-100-D00-0
 62
     7
370
    50
100
AcDbLine
 10
166.449775
 20
375.473694
 30
0.0
 11
166.479745
 21
375.479051
 31
0.0
  0
ENDBLK
  5
20F
330
20D
100
AcDbEntity
  8
0
100
AcDbBlockEnd
  0
BLOCK
  5
219
330
218
100
AcDbEntity
  8
0
100
AcDbBlockBegin
  2
POLY4
 70
     0
 71
     0
 10
0.0
 20
0.0
 30
0.0
  3
POLY4
  1

  4
POLY4
  0
LINE
  5
21B
330
218
100
AcDbEntity
  8
LC-001-100-D00-0
 62
     7
370
    50
100
AcDbLine
 10
75.988737
 20
375.479051
 30
0.0
 11
75.988737
 21
375.479051
 31
0.0
  0
LINE
  5
21C
330
218
100
AcDbEntity
  8
LC-001-100-D00-0
 62
     7
370
    50
100
AcDbLine
 10
75.988737
 20
375.479051
 30
0.0
 11
76.018707
 21
375.473694
 31
0.0
  0
LINE
  5
21D
330
218
100
AcDbEntity
  8
LC-001-100-D00-0
 62
     7
370
    50
100
AcDbLine
 10
76.018707
 20
375.473694
 30
0.0
 11
76.018707
 21
375.473694
 31
0.0
  0
LINE
  5
21E
330
218
100
AcDbEntity
  8
LC-001-100-D00-0
 62
     7
370
    50
100
AcDbLine
 10
76.018707
 20
375.473694
 30
0.0
 11
76.050562
 21
375.47099
 31
0.0
  0
LINE
  5
21F
330
218
100
AcDbEntity
  8
LC-001-100-D00-0
 62
     7
370
    50
100
AcDbLine
 10
76.050562
 20
375.47099
 30
0.0
 11
76.050562
 21
375.47099
 31
0.0
  0
LINE
  5
220
330
218
100
AcDbEntity
  8
LC-001-100-D00-0
 62
     7
370
    50
100
AcDbLine
 10
76.050562
 20
375.47099
 30
0.0
 11
76.084325
 21
375.47099
 31
0.0
  0
ENDBLK
  5
21A
330
218
100
AcDbEntity
  8
0
100
AcDbBlockEnd
  0
BLOCK
  5
22D
330
22C
100
AcDbEntity
  8
0
100
AcDbBlockBegin
  2
POLY5
 70
     0
 71
     0
 10
0.0
 20
0.0
 30
0.0
  3
POLY5
  1

  4
POLY5
  0
LINE
  5
22F
330
22C
100
AcDbEntity
  8
LC-001-100-D00-0
 62
     7
370
    50
100
AcDbLine
 10
75.114625
 20
376.970989
 30
0.0
 11
75.114625
 21
376.970989
 31
0.0
  0
LINE
  5
230
330
22C
100
AcDbEntity
  8
LC-001-100-D00-0
 62
     7
370
    50
100
AcDbLine
 10
75.114625
 20
376.970989
 30
0.0
 11
75.118382
 21
376.917678
 31
0.0
  0
LINE
  5
231
330
22C
100
AcDbEntity
  8
LC-001-100-D00-0
 62
     7
370
    50
100
AcDbLine
 10
75.118382
 20
376.917678
 30
0.0
 11
75.118382
 21
376.917678
 31
0.0
  0
LINE
  5
232
330
22C
100
AcDbEntity
  8
LC-001-100-D00-0
 62
     7
370
    50
100
AcDbLine
 10
75.118382
 20
376.917678
 30
0.0
 11
75.137729
 21
376.643123
 31
0.0
  0
LINE
  5
233
330
22C
100
AcDbEntity
  8
LC-001-100-D00-0
 62
     7
370
    50
100
AcDbLine
 10
75.137729
 20
376.643123
 30
0.0
 11
75.137729
 21
376.643123
 31
0.0
  0
LINE
  5
234
330
22C
100
AcDbEntity
  8
LC-001-100-D00-0
 62
     7
370
    50
100
AcDbLine
 10
75.137729
 20
376.643123
 30
0.0
 11
75.2811
 21
376.205531
 31
0.0
  0
LINE
  5
235
330
22C
100
AcDbEntity
  8
LC-001-100-D00-0
 62
     7
370
    50
100
AcDbLine
 10
75.2811
 20
376.205531
 30
0.0
 11
75.2811
 21
376.205531
 31
0.0
  0
LINE
  5
236
330
22C
100
AcDbEntity
  8
LC-001-100-D00-0
 62
     7
370
    50
100
AcDbLine
 10
75.2811
 20
376.205531
 30
0.0
 11
75.528792
 21
375.749557
 31
0.0
  0
LINE
  5
237
330
22C
100
AcDbEntity
  8
LC-001-100-D00-0
 62
     7
370
    50
100
AcDbLine
 10
75.528792
 20
375.749557
 30
0.0
 11
75.528792
 21
375.749557
 31
0.0
  0
LINE
  5
238
330
22C
100
AcDbEntity
  8
LC-001-100-D00-0
 62
     7
370
    50
100
AcDbLine
 10
75.528792
 20
375.749557
 30
0.0
 11
75.785228
 21
375.532746
 31
0.0
  0
LINE
  5
239
330
22C
100
AcDbEntity
  8
LC-001-100-D00-0
 62
     7
370
    50
100
AcDbLine
 10
75.785228
 20
375.532746
 30
0.0
 11
75.785228
 21
375.532746
 31
0.0
  0
LINE
  5
23A
330
22C
100
AcDbEntity
  8
LC-001-100-D00-0
 62
     7
370
    50
100
AcDbLine
 10
75.785228
 20
375.532746
 30
0.0
 11
75.94271
 21
375.491195
 31
0.0
  0
LINE
  5
23B
330
22C
100
AcDbEntity
  8
LC-001-100-D00-0
 62
     7
370
    50
100
AcDbLine
 10
75.94271
 20
375.491195
 30
0.0
 11
75.94271
 21
375.491195
 31
0.0
  0
LINE
  5
23C
330
22C
100
AcDbEntity
  8
LC-001-100-D00-0
 62
     7
370
    50
100
AcDbLine
 10
75.94271
 20
375.491195
 30
0.0
 11
75.988739
 21
375.479051
 31
0.0
  0
ENDBLK
  5
22E
330
22C
100
AcDbEntity
  8
0
100
AcDbBlockEnd
  0
BLOCK
  5
23F
330
23E
100
AcDbEntity
  8
0
100
AcDbBlockBegin
  2
POLY6
 70
     0
 71
     0
 10
0.0
 20
0.0
 30
0.0
  3
POLY6
  1

  4
POLY6
  0
LINE
  5
241
330
23E
100
AcDbEntity
  8
LC-001-100-D00-0
 62
     7
370
    50
100
AcDbLine
 10
166.479743
 20
375.479051
 30
0.0
 11
166.479743
 21
375.479051
 31
0.0
  0
LINE
  5
242
330
23E
100
AcDbEntity
  8
LC-001-100-D00-0
 62
     7
370
    50
100
AcDbLine
 10
166.479743
 20
375.479051
 30
0.0
 11
166.592283
 21
375.521347
 31
0.0
  0
LINE
  5
243
330
23E
100
AcDbEntity
  8
LC-001-100-D00-0
 62
     7
370
    50
100
AcDbLine
 10
166.592283
 20
375.521347
 30
0.0
 11
166.592283
 21
375.521347
 31
0.0
  0
LINE
  5
244
330
23E
100
AcDbEntity
  8
LC-001-100-D00-0
 62
     7
370
    50
100
AcDbLine
 10
166.592283
 20
375.521347
 30
0.0
 11
166.817382
 21
375.605945
 31
0.0
  0
LINE
  5
245
330
23E
100
AcDbEntity
  8
LC-001-100-D00-0
 62
     7
370
    50
100
AcDbLine
 10
166.817382
 20
375.605945
 30
0.0
 11
166.817382
 21
375.605945
 31
0.0
  0
LINE
  5
246
330
23E
100
AcDbEntity
  8
LC-001-100-D00-0
 62
     7
370
    50
100
AcDbLine
 10
166.817382
 20
375.605945
 30
0.0
 11
167.099421
 21
376.008595
 31
0.0
  0
LINE
  5
247
330
23E
100
AcDbEntity
  8
LC-001-100-D00-0
 62
     7
370
    50
100
AcDbLine
 10
167.099421
 20
376.008595
 30
0.0
 11
167.099421
 21
376.008595
 31
0.0
  0
LINE
  5
248
330
23E
100
AcDbEntity
  8
LC-001-100-D00-0
 62
     7
370
    50
100
AcDbLine
 10
167.099421
 20
376.008595
 30
0.0
 11
167.290276
 21
376.481615
 31
0.0
  0
LINE
  5
249
330
23E
100
AcDbEntity
  8
LC-001-100-D00-0
 62
     7
370
    50
100
AcDbLine
 10
167.290276
 20
376.481615
 30
0.0
 11
167.290276
 21
376.481615
 31
0.0
  0
LINE
  5
24A
330
23E
100
AcDbEntity
  8
LC-001-100-D00-0
 62
     7
370
    50
100
AcDbLine
 10
167.290276
 20
376.481615
 30
0.0
 11
167.333983
 21
376.836602
 31
0.0
  0
LINE
  5
24B
330
23E
100
AcDbEntity
  8
LC-001-100-D00-0
 62
     7
370
    50
100
AcDbLine
 10
167.333983
 20
376.836602
 30
0.0
 11
167.333983
 21
376.836602
 31
0.0
  0
LINE
  5
24C
330
23E
100
AcDbEntity
  8
LC-001-100-D00-0
 62
     7
370
    50
100
AcDbLine
 10
167.333983
 20
376.836602
 30
0.0
 11
167.350529
 21
376.970989
 31
0.0
  0
ENDBLK
  5
240
330
23E
100
AcDbEntity
  8
0
100
AcDbBlockEnd
  0
BLOCK
  5
24F
330
24E
100
AcDbEntity
  8
0
100
AcDbBlockBegin
  2
KLON1
 70
     0
 71
     0
 10
0.0
 20
0.0
 30
0.0
  3
KLON1
  1

  4
KLON1
  0
LINE
  5
251
330
24E
100
AcDbEntity
  8
LC-001-100-D00-0
 62
     7
370
    25
100
AcDbLine
 10
151.151888
 20
303.47099
 30
0.0
 11
152.651888
 21
304.97099
 31
0.0
  0
LINE
  5
252
330
24E
100
AcDbEntity
  8
LC-001-100-D00-0
 62
     7
370
    25
100
AcDbLine
 10
160.734241
 20
313.053344
 30
0.0
 11
162.234241
 21
314.553344
 31
0.0
  0
LINE
  5
253
330
24E
100
AcDbEntity
  8
LC-001-100-D00-0
 62
     7
370
    25
100
AcDbLine
 10
142.171631
 20
303.47099
 30
0.0
 11
143.671631
 21
304.97099
 31
0.0
  0
LINE
  5
254
330
24E
100
AcDbEntity
  8
LC-001-100-D00-0
 62
     7
370
    25
100
AcDbLine
 10
160.734241
 20
322.0336
 30
0.0
 11
162.234241
 21
323.5336
 31
0.0
  0
LINE
  5
255
330
24E
100
AcDbEntity
  8
LC-001-100-D00-0
 62
     7
370
    25
100
AcDbLine
 10
133.191375
 20
303.47099
 30
0.0
 11
134.691375
 21
304.97099
 31
0.0
  0
LINE
  5
256
330
24E
100
AcDbEntity
  8
LC-001-100-D00-0
 62
     7
370
    25
100
AcDbLine
 10
160.734241
 20
331.013856
 30
0.0
 11
162.234241
 21
332.513856
 31
0.0
  0
LINE
  5
257
330
24E
100
AcDbEntity
  8
LC-001-100-D00-0
 62
     7
370
    25
100
AcDbLine
 10
124.211119
 20
303.47099
 30
0.0
 11
125.711119
 21
304.97099
 31
0.0
  0
LINE
  5
258
330
24E
100
AcDbEntity
  8
LC-001-100-D00-0
 62
     7
370
    25
100
AcDbLine
 10
160.734241
 20
339.994112
 30
0.0
 11
162.234241
 21
341.494112
 31
0.0
  0
LINE
  5
259
330
24E
100
AcDbEntity
  8
LC-001-100-D00-0
 62
     7
370
    25
100
AcDbLine
 10
115.230863
 20
303.47099
 30
0.0
 11
116.730863
 21
304.97099
 31
0.0
  0
LINE
  5
25A
330
24E
100
AcDbEntity
  8
LC-001-100-D00-0
 62
     7
370
    25
100
AcDbLine
 10
160.734241
 20
348.974368
 30
0.0
 11
162.234241
 21
350.474368
 31
0.0
  0
LINE
  5
25B
330
24E
100
AcDbEntity
  8
LC-001-100-D00-0
 62
     7
370
    25
100
AcDbLine
 10
106.250607
 20
303.47099
 30
0.0
 11
107.750607
 21
304.97099
 31
0.0
  0
LINE
  5
25C
330
24E
100
AcDbEntity
  8
LC-001-100-D00-0
 62
     7
370
    25
100
AcDbLine
 10
160.734241
 20
357.954624
 30
0.0
 11
162.234241
 21
359.454624
 31
0.0
  0
LINE
  5
25D
330
24E
100
AcDbEntity
  8
LC-001-100-D00-0
 62
     7
370
    25
100
AcDbLine
 10
164.54155
 20
361.761933
 30
0.0
 11
174.984241
 21
372.204624
 31
0.0
  0
LINE
  5
25E
330
24E
100
AcDbEntity
  8
LC-001-100-D00-0
 62
     7
370
    25
100
AcDbLine
 10
97.270351
 20
303.47099
 30
0.0
 11
98.770351
 21
304.97099
 31
0.0
  0
LINE
  5
25F
330
24E
100
AcDbEntity
  8
LC-001-100-D00-0
 62
     7
370
    25
100
AcDbLine
 10
160.734241
 20
366.93488
 30
0.0
 11
172.770351
 21
378.97099
 31
0.0
  0
LINE
  5
260
330
24E
100
AcDbEntity
  8
LC-001-100-D00-0
 62
     7
370
    25
100
AcDbLine
 10
88.290095
 20
303.47099
 30
0.0
 11
89.790095
 21
304.97099
 31
0.0
  0
LINE
  5
261
330
24E
100
AcDbEntity
  8
LC-001-100-D00-0
 62
     7
370
    25
100
AcDbLine
 10
81.266848
 20
305.428
 30
0.0
 11
82.340709
 21
306.501861
 31
0.0
  0
LINE
  5
262
330
24E
100
AcDbEntity
  8
LC-001-100-D00-0
 62
     7
370
    25
100
AcDbLine
 10
80.234241
 20
313.375649
 30
0.0
 11
81.734241
 21
314.875649
 31
0.0
  0
LINE
  5
263
330
24E
100
AcDbEntity
  8
LC-001-100-D00-0
 62
     7
370
    25
100
AcDbLine
 10
80.234241
 20
322.355905
 30
0.0
 11
81.734241
 21
323.855905
 31
0.0
  0
LINE
  5
264
330
24E
100
AcDbEntity
  8
LC-001-100-D00-0
 62
     7
370
    25
100
AcDbLine
 10
80.234241
 20
331.336161
 30
0.0
 11
81.734241
 21
332.836161
 31
0.0
  0
LINE
  5
265
330
24E
100
AcDbEntity
  8
LC-001-100-D00-0
 62
     7
370
    25
100
AcDbLine
 10
80.234241
 20
340.316417
 30
0.0
 11
81.734241
 21
341.816417
 31
0.0
  0
LINE
  5
266
330
24E
100
AcDbEntity
  8
LC-001-100-D00-0
 62
     7
370
    25
100
AcDbLine
 10
80.234241
 20
349.296673
 30
0.0
 11
81.734241
 21
350.796673
 31
0.0
  0
LINE
  5
267
330
24E
100
AcDbEntity
  8
LC-001-100-D00-0
 62
     7
370
    25
100
AcDbLine
 10
80.234241
 20
358.276929
 30
0.0
 11
81.734241
 21
359.776929
 31
0.0
  0
LINE
  5
268
330
24E
100
AcDbEntity
  8
LC-001-100-D00-0
 62
     7
370
    25
100
AcDbLine
 10
76.09291
 20
363.115854
 30
0.0
 11
81.734241
 21
368.757185
 31
0.0
  0
LINE
  5
269
330
24E
100
AcDbEntity
  8
LC-001-100-D00-0
 62
     7
370
    25
100
AcDbLine
 10
70.926573
 20
366.929774
 30
0.0
 11
77.772195
 21
373.775396
 31
0.0
  0
LINE
  5
26A
330
24E
100
AcDbEntity
  8
LC-001-100-D00-0
 62
     7
370
    25
100
AcDbLine
 10
67.484241
 20
372.467698
 30
0.0
 11
72.605858
 21
377.589315
 31
0.0
  0
ENDBLK
  5
250
330
24E
100
AcDbEntity
  8
0
100
AcDbBlockEnd
  0
BLOCK
  5
26D
330
26C
100
AcDbEntity
  8
0
100
AcDbBlockBegin
  2
KLON2
 70
     0
 71
     0
 10
0.0
 20
0.0
 30
0.0
  3
KLON2
  1

  4
KLON2
  0
LINE
  5
26F
330
26C
100
AcDbEntity
  8
LC-001-100-D00-0
 62
     7
370
    25
100
AcDbLine
 10
148.791375
 20
319.07099
 30
0.0
 11
150.234241
 21
320.513856
 31
0.0
  0
LINE
  5
270
330
26C
100
AcDbEntity
  8
LC-001-100-D00-0
 62
     7
370
    25
100
AcDbLine
 10
148.734241
 20
327.994112
 30
0.0
 11
150.234241
 21
329.494112
 31
0.0
  0
LINE
  5
271
330
26C
100
AcDbEntity
  8
LC-001-100-D00-0
 62
     7
370
    25
100
AcDbLine
 10
148.734241
 20
336.974368
 30
0.0
 11
150.234241
 21
338.474368
 31
0.0
  0
LINE
  5
272
330
26C
100
AcDbEntity
  8
LC-001-100-D00-0
 62
     7
370
    25
100
AcDbLine
 10
148.734241
 20
345.954624
 30
0.0
 11
150.234241
 21
347.454624
 31
0.0
  0
LINE
  5
273
330
26C
100
AcDbEntity
  8
LC-001-100-D00-0
 62
     7
370
    25
100
AcDbLine
 10
148.734241
 20
354.93488
 30
0.0
 11
150.234241
 21
356.43488
 31
0.0
  0
LINE
  5
274
330
26C
100
AcDbEntity
  8
LC-001-100-D00-0
 62
     7
370
    25
100
AcDbLine
 10
172.770351
 20
378.97099
 30
0.0
 11
173.770351
 21
379.97099
 31
0.0
  0
LINE
  5
275
330
26C
100
AcDbEntity
  8
LC-001-100-D00-0
 62
     7
370
    25
100
AcDbLine
 10
148.734241
 20
363.915136
 30
0.0
 11
150.234241
 21
365.415136
 31
0.0
  0
LINE
  5
276
330
26C
100
AcDbEntity
  8
LC-001-100-D00-0
 62
     7
370
    25
100
AcDbLine
 10
163.790095
 20
378.97099
 30
0.0
 11
169.790095
 21
384.97099
 31
0.0
  0
LINE
  5
277
330
26C
100
AcDbEntity
  8
LC-001-100-D00-0
 62
     7
370
    25
100
AcDbLine
 10
148.734241
 20
372.895393
 30
0.0
 11
160.809839
 21
384.97099
 31
0.0
  0
LINE
  5
278
330
26C
100
AcDbEntity
  8
LC-001-100-D00-0
 62
     7
370
    25
100
AcDbLine
 10
148.734241
 20
381.875649
 30
0.0
 11
151.829582
 21
384.97099
 31
0.0
  0
ENDBLK
  5
26E
330
26C
100
AcDbEntity
  8
0
100
AcDbBlockEnd
  0
BLOCK
  5
27B
330
27A
100
AcDbEntity
  8
0
100
AcDbBlockBegin
  2
KLON3
 70
     0
 71
     0
 10
0.0
 20
0.0
 30
0.0
  3
KLON3
  1

  4
KLON3
  0
LINE
  5
27D
330
27A
100
AcDbEntity
  8
LC-001-100-D00-0
 62
     7
370
    25
100
AcDbLine
 10
92.234241
 20
325.375649
 30
0.0
 11
93.734241
 21
326.875649
 31
0.0
  0
LINE
  5
27E
330
27A
100
AcDbEntity
  8
LC-001-100-D00-0
 62
     7
370
    25
100
AcDbLine
 10
92.234241
 20
334.355905
 30
0.0
 11
93.734241
 21
335.855905
 31
0.0
  0
LINE
  5
27F
330
27A
100
AcDbEntity
  8
LC-001-100-D00-0
 62
     7
370
    25
100
AcDbLine
 10
92.234241
 20
343.336161
 30
0.0
 11
93.734241
 21
344.836161
 31
0.0
  0
LINE
  5
280
330
27A
100
AcDbEntity
  8
LC-001-100-D00-0
 62
     7
370
    25
100
AcDbLine
 10
92.234241
 20
352.316417
 30
0.0
 11
93.734241
 21
353.816417
 31
0.0
  0
LINE
  5
281
330
27A
100
AcDbEntity
  8
LC-001-100-D00-0
 62
     7
370
    25
100
AcDbLine
 10
92.234241
 20
361.296673
 30
0.0
 11
93.734241
 21
362.796673
 31
0.0
  0
LINE
  5
282
330
27A
100
AcDbEntity
  8
LC-001-100-D00-0
 62
     7
370
    25
100
AcDbLine
 10
92.158307
 20
370.200995
 30
0.0
 11
93.734241
 21
371.776929
 31
0.0
  0
LINE
  5
283
330
27A
100
AcDbEntity
  8
LC-001-100-D00-0
 62
     7
370
    25
100
AcDbLine
 10
89.160763
 20
376.183708
 30
0.0
 11
93.734241
 21
380.757185
 31
0.0
  0
LINE
  5
284
330
27A
100
AcDbEntity
  8
LC-001-100-D00-0
 62
     7
370
    25
100
AcDbLine
 10
82.942665
 20
378.945866
 30
0.0
 11
88.96779
 21
384.97099
 31
0.0
  0
LINE
  5
285
330
27A
100
AcDbEntity
  8
LC-001-100-D00-0
 62
     7
370
    25
100
AcDbLine
 10
73.987534
 20
378.97099
 30
0.0
 11
79.987534
 21
384.97099
 31
0.0
  0
LINE
  5
286
330
27A
100
AcDbEntity
  8
LC-001-100-D00-0
 62
     7
370
    25
100
AcDbLine
 10
68.734241
 20
382.697954
 30
0.0
 11
71.007277
 21
384.97099
 31
0.0
  0
ENDBLK
  5
27C
330
27A
100
AcDbEntity
  8
0
100
AcDbBlockEnd
  0
BLOCK
  5
28B
330
28A
100
AcDbEntity
  8
0
100
AcDbBlockBegin
  2
KLON4
 70
     0
 71
     0
 10
0.0
 20
0.0
 30
0.0
  3
KLON4
  1

  4
KLON4
  0
LINE
  5
28D
330
28A
100
AcDbEntity
  8
LC-001-100-D00-0
 62
     7
370
    25
100
AcDbLine
 10
175.384241
 20
282.802063
 30
0.0
 11
178.384241
 21
285.802063
 31
0.0
  0
LINE
  5
28E
330
28A
100
AcDbEntity
  8
LC-001-100-D00-0
 62
     7
370
    25
100
AcDbLine
 10
175.384241
 20
291.782319
 30
0.0
 11
178.384241
 21
294.782319
 31
0.0
  0
LINE
  5
28F
330
28A
100
AcDbEntity
  8
LC-001-100-D00-0
 62
     7
370
    25
100
AcDbLine
 10
175.384241
 20
300.762575
 30
0.0
 11
178.384241
 21
303.762575
 31
0.0
  0
LINE
  5
290
330
28A
100
AcDbEntity
  8
LC-001-100-D00-0
 62
     7
370
    25
100
AcDbLine
 10
175.384241
 20
309.742831
 30
0.0
 11
178.384241
 21
312.742831
 31
0.0
  0
LINE
  5
291
330
28A
100
AcDbEntity
  8
LC-001-100-D00-0
 62
     7
370
    25
100
AcDbLine
 10
175.384241
 20
318.723087
 30
0.0
 11
178.384241
 21
321.723087
 31
0.0
  0
LINE
  5
292
330
28A
100
AcDbEntity
  8
LC-001-100-D00-0
 62
     7
370
    25
100
AcDbLine
 10
175.384241
 20
327.703344
 30
0.0
 11
178.384241
 21
330.703344
 31
0.0
  0
LINE
  5
293
330
28A
100
AcDbEntity
  8
LC-001-100-D00-0
 62
     7
370
    25
100
AcDbLine
 10
175.384241
 20
336.6836
 30
0.0
 11
178.384241
 21
339.6836
 31
0.0
  0
LINE
  5
294
330
28A
100
AcDbEntity
  8
LC-001-100-D00-0
 62
     7
370
    25
100
AcDbLine
 10
175.384241
 20
345.663856
 30
0.0
 11
178.384241
 21
348.663856
 31
0.0
  0
LINE
  5
295
330
28A
100
AcDbEntity
  8
LC-001-100-D00-0
 62
     7
370
    25
100
AcDbLine
 10
175.384241
 20
354.644112
 30
0.0
 11
178.384241
 21
357.644112
 31
0.0
  0
LINE
  5
296
330
28A
100
AcDbEntity
  8
LC-001-100-D00-0
 62
     7
370
    25
100
AcDbLine
 10
194.711119
 20
373.97099
 30
0.0
 11
194.984241
 21
374.244112
 31
0.0
  0
LINE
  5
297
330
28A
100
AcDbEntity
  8
LC-001-100-D00-0
 62
     7
370
    25
100
AcDbLine
 10
175.384241
 20
363.624368
 30
0.0
 11
178.384241
 21
366.624368
 31
0.0
  0
LINE
  5
298
330
28A
100
AcDbEntity
  8
LC-001-100-D00-0
 62
     7
370
    25
100
AcDbLine
 10
185.730863
 20
373.97099
 30
0.0
 11
188.730863
 21
376.97099
 31
0.0
  0
LINE
  5
299
330
28A
100
AcDbEntity
  8
LC-001-100-D00-0
 62
     7
370
    25
100
AcDbLine
 10
191.984241
 20
380.224368
 30
0.0
 11
193.230863
 21
381.47099
 31
0.0
  0
LINE
  5
29A
330
28A
100
AcDbEntity
  8
LC-001-100-D00-0
 62
     7
370
    25
100
AcDbLine
 10
175.384241
 20
372.604624
 30
0.0
 11
179.750607
 21
376.97099
 31
0.0
  0
ENDBLK
  5
28C
330
28A
100
AcDbEntity
  8
0
100
AcDbBlockEnd
  0
BLOCK
  5
29D
330
29C
100
AcDbEntity
  8
0
100
AcDbBlockBegin
  2
KLON5
 70
     0
 71
     0
 10
0.0
 20
0.0
 30
0.0
  3
KLON5
  1

  4
KLON5
  0
LINE
  5
29F
330
29C
100
AcDbEntity
  8
LC-001-100-D00-0
 62
     7
370
    25
100
AcDbLine
 10
64.084241
 20
279.265136
 30
0.0
 11
67.084241
 21
282.265136
 31
0.0
  0
LINE
  5
2A0
330
29C
100
AcDbEntity
  8
LC-001-100-D00-0
 62
     7
370
    25
100
AcDbLine
 10
64.084241
 20
288.245393
 30
0.0
 11
67.084241
 21
291.245393
 31
0.0
  0
LINE
  5
2A1
330
29C
100
AcDbEntity
  8
LC-001-100-D00-0
 62
     7
370
    25
100
AcDbLine
 10
64.084241
 20
297.225649
 30
0.0
 11
67.084241
 21
300.225649
 31
0.0
  0
LINE
  5
2A2
330
29C
100
AcDbEntity
  8
LC-001-100-D00-0
 62
     7
370
    25
100
AcDbLine
 10
64.084241
 20
306.205905
 30
0.0
 11
67.084241
 21
309.205905
 31
0.0
  0
LINE
  5
2A3
330
29C
100
AcDbEntity
  8
LC-001-100-D00-0
 62
     7
370
    25
100
AcDbLine
 10
64.084241
 20
315.186161
 30
0.0
 11
67.084241
 21
318.186161
 31
0.0
  0
LINE
  5
2A4
330
29C
100
AcDbEntity
  8
LC-001-100-D00-0
 62
     7
370
    25
100
AcDbLine
 10
64.084241
 20
324.166417
 30
0.0
 11
67.084241
 21
327.166417
 31
0.0
  0
LINE
  5
2A5
330
29C
100
AcDbEntity
  8
LC-001-100-D00-0
 62
     7
370
    25
100
AcDbLine
 10
64.084241
 20
333.146673
 30
0.0
 11
67.084241
 21
336.146673
 31
0.0
  0
LINE
  5
2A6
330
29C
100
AcDbEntity
  8
LC-001-100-D00-0
 62
     7
370
    25
100
AcDbLine
 10
64.084241
 20
342.126929
 30
0.0
 11
67.084241
 21
345.126929
 31
0.0
  0
LINE
  5
2A7
330
29C
100
AcDbEntity
  8
LC-001-100-D00-0
 62
     7
370
    25
100
AcDbLine
 10
64.084241
 20
351.107185
 30
0.0
 11
67.084241
 21
354.107185
 31
0.0
  0
LINE
  5
2A8
330
29C
100
AcDbEntity
  8
LC-001-100-D00-0
 62
     7
370
    25
100
AcDbLine
 10
64.084241
 20
360.087442
 30
0.0
 11
67.084241
 21
363.087442
 31
0.0
  0
LINE
  5
2A9
330
29C
100
AcDbEntity
  8
LC-001-100-D00-0
 62
     7
370
    25
100
AcDbLine
 10
64.084241
 20
369.067698
 30
0.0
 11
67.084241
 21
372.067698
 31
0.0
  0
LINE
  5
2AA
330
29C
100
AcDbEntity
  8
LC-001-100-D00-0
 62
     7
370
    25
100
AcDbLine
 10
60.007277
 20
373.97099
 30
0.0
 11
63.007277
 21
376.97099
 31
0.0
  0
LINE
  5
2AB
330
29C
100
AcDbEntity
  8
LC-001-100-D00-0
 62
     7
370
    25
100
AcDbLine
 10
51.027021
 20
373.97099
 30
0.0
 11
54.027021
 21
376.97099
 31
0.0
  0
LINE
  5
2AC
330
29C
100
AcDbEntity
  8
LC-001-100-D00-0
 62
     7
370
    25
100
AcDbLine
 10
47.484241
 20
379.408466
 30
0.0
 11
49.546765
 21
381.47099
 31
0.0
  0
ENDBLK
  5
29E
330
29C
100
AcDbEntity
  8
0
100
AcDbBlockEnd
  0
BLOCK
  5
2AF
330
2AE
100
AcDbEntity
  8
0
100
AcDbBlockBegin
  2
KLON6
 70
     0
 71
     0
 10
0.0
 20
0.0
 30
0.0
  3
KLON6
  1

  4
KLON6
  0
LINE
  5
2B1
330
2AE
100
AcDbEntity
  8
LC-001-100-D00-0
 62
     7
370
    50
100
AcDbLine
 10
178.533424
 20
276.97099
 30
0.0
 11
179.984241
 21
278.421807
 31
0.0
  0
LINE
  5
2B2
330
2AE
100
AcDbEntity
  8
LC-001-100-D00-0
 62
     7
370
    50
100
AcDbLine
 10
181.905141
 20
280.342707
 30
0.0
 11
183.033424
 21
281.47099
 31
0.0
  0
LINE
  5
2B3
330
2AE
100
AcDbEntity
  8
LC-001-100-D00-0
 62
     7
370
    50
100
AcDbLine
 10
178.234241
 20
285.652063
 30
0.0
 11
181.553168
 21
288.97099
 31
0.0
  0
LINE
  5
2B4
330
2AE
100
AcDbEntity
  8
LC-001-100-D00-0
 62
     7
370
    50
100
AcDbLine
 10
178.234241
 20
294.632319
 30
0.0
 11
180.072912
 21
296.47099
 31
0.0
  0
LINE
  5
2B5
330
2AE
100
AcDbEntity
  8
LC-001-100-D00-0
 62
     7
370
    50
100
AcDbLine
 10
178.234241
 20
303.612575
 30
0.0
 11
179.984241
 21
305.362575
 31
0.0
  0
LINE
  5
2B6
330
2AE
100
AcDbEntity
  8
LC-001-100-D00-0
 62
     7
370
    50
100
AcDbLine
 10
178.234241
 20
312.592831
 30
0.0
 11
179.984241
 21
314.342831
 31
0.0
  0
LINE
  5
2B7
330
2AE
100
AcDbEntity
  8
LC-001-100-D00-0
 62
     7
370
    50
100
AcDbLine
 10
183.69897
 20
318.057561
 30
0.0
 11
184.229248
 21
318.587838
 31
0.0
  0
LINE
  5
2B8
330
2AE
100
AcDbEntity
  8
LC-001-100-D00-0
 62
     7
370
    50
100
AcDbLine
 10
178.234241
 20
321.573087
 30
0.0
 11
179.984241
 21
323.323087
 31
0.0
  0
LINE
  5
2B9
330
2AE
100
AcDbEntity
  8
LC-001-100-D00-0
 62
     7
370
    50
100
AcDbLine
 10
182.017293
 20
325.35614
 30
0.0
 11
183.132144
 21
326.47099
 31
0.0
  0
LINE
  5
2BA
330
2AE
100
AcDbEntity
  8
LC-001-100-D00-0
 62
     7
370
    50
100
AcDbLine
 10
178.234241
 20
330.553344
 30
0.0
 11
181.651888
 21
333.97099
 31
0.0
  0
LINE
  5
2BB
330
2AE
100
AcDbEntity
  8
LC-001-100-D00-0
 62
     7
370
    50
100
AcDbLine
 10
178.234241
 20
339.5336
 30
0.0
 11
180.171631
 21
341.47099
 31
0.0
  0
LINE
  5
2BC
330
2AE
100
AcDbEntity
  8
LC-001-100-D00-0
 62
     7
370
    50
100
AcDbLine
 10
178.234241
 20
348.513856
 30
0.0
 11
179.984241
 21
350.263856
 31
0.0
  0
LINE
  5
2BD
330
2AE
100
AcDbEntity
  8
LC-001-100-D00-0
 62
     7
370
    50
100
AcDbLine
 10
178.234241
 20
357.494112
 30
0.0
 11
179.984241
 21
359.244112
 31
0.0
  0
LINE
  5
2BE
330
2AE
100
AcDbEntity
  8
LC-001-100-D00-0
 62
     7
370
    50
100
AcDbLine
 10
183.811123
 20
363.070994
 30
0.0
 11
184.233385
 21
363.493256
 31
0.0
  0
LINE
  5
2BF
330
2AE
100
AcDbEntity
  8
LC-001-100-D00-0
 62
     7
370
    50
100
AcDbLine
 10
178.234241
 20
366.474368
 30
0.0
 11
179.984241
 21
368.224368
 31
0.0
  0
LINE
  5
2C0
330
2AE
100
AcDbEntity
  8
LC-001-100-D00-0
 62
     7
370
    50
100
AcDbLine
 10
182.129446
 20
370.369573
 30
0.0
 11
183.230863
 21
371.47099
 31
0.0
  0
ENDBLK
  5
2B0
330
2AE
100
AcDbEntity
  8
0
100
AcDbBlockEnd
  0
BLOCK
  5
2C3
330
2C2
100
AcDbEntity
  8
0
100
AcDbBlockBegin
  2
KLON7
 70
     0
 71
     0
 10
0.0
 20
0.0
 30
0.0
  3
KLON7
  1

  4
KLON7
  0
LINE
  5
2C5
330
2C2
100
AcDbEntity
  8
LC-001-100-D00-0
 62
     7
370
    25
100
AcDbLine
 10
62.521099
 20
277.701995
 30
0.0
 11
64.234241
 21
279.415136
 31
0.0
  0
LINE
  5
2C6
330
2C2
100
AcDbEntity
  8
LC-001-100-D00-0
 62
     7
370
    25
100
AcDbLine
 10
62.484241
 20
286.645393
 30
0.0
 11
64.234241
 21
288.395393
 31
0.0
  0
LINE
  5
2C7
330
2C2
100
AcDbEntity
  8
LC-001-100-D00-0
 62
     7
370
    25
100
AcDbLine
 10
61.962222
 20
295.10363
 30
0.0
 11
64.234241
 21
297.375649
 31
0.0
  0
LINE
  5
2C8
330
2C2
100
AcDbEntity
  8
LC-001-100-D00-0
 62
     7
370
    25
100
AcDbLine
 10
60.704175
 20
302.825839
 30
0.0
 11
61.849326
 21
303.97099
 31
0.0
  0
LINE
  5
2C9
330
2C2
100
AcDbEntity
  8
LC-001-100-D00-0
 62
     7
370
    25
100
AcDbLine
 10
62.484241
 20
304.605905
 30
0.0
 11
64.234241
 21
306.355905
 31
0.0
  0
LINE
  5
2CA
330
2C2
100
AcDbEntity
  8
LC-001-100-D00-0
 62
     7
370
    25
100
AcDbLine
 10
59.382251
 20
310.484171
 30
0.0
 11
60.36907
 21
311.47099
 31
0.0
  0
LINE
  5
2CB
330
2C2
100
AcDbEntity
  8
LC-001-100-D00-0
 62
     7
370
    25
100
AcDbLine
 10
62.484241
 20
313.586161
 30
0.0
 11
64.234241
 21
315.336161
 31
0.0
  0
LINE
  5
2CC
330
2C2
100
AcDbEntity
  8
LC-001-100-D00-0
 62
     7
370
    25
100
AcDbLine
 10
58.267944
 20
318.35012
 30
0.0
 11
58.888814
 21
318.97099
 31
0.0
  0
LINE
  5
2CD
330
2C2
100
AcDbEntity
  8
LC-001-100-D00-0
 62
     7
370
    25
100
AcDbLine
 10
62.484241
 20
322.566417
 30
0.0
 11
64.234241
 21
324.316417
 31
0.0
  0
LINE
  5
2CE
330
2C2
100
AcDbEntity
  8
LC-001-100-D00-0
 62
     7
370
    25
100
AcDbLine
 10
62.484241
 20
331.546673
 30
0.0
 11
64.234241
 21
333.296673
 31
0.0
  0
LINE
  5
2CF
330
2C2
100
AcDbEntity
  8
LC-001-100-D00-0
 62
     7
370
    25
100
AcDbLine
 10
62.024238
 20
340.066927
 30
0.0
 11
64.234241
 21
342.276929
 31
0.0
  0
LINE
  5
2D0
330
2C2
100
AcDbEntity
  8
LC-001-100-D00-0
 62
     7
370
    25
100
AcDbLine
 10
60.792335
 20
347.81528
 30
0.0
 11
61.948046
 21
348.97099
 31
0.0
  0
LINE
  5
2D1
330
2C2
100
AcDbEntity
  8
LC-001-100-D00-0
 62
     7
370
    25
100
AcDbLine
 10
62.484241
 20
349.507185
 30
0.0
 11
64.234241
 21
351.257185
 31
0.0
  0
LINE
  5
2D2
330
2C2
100
AcDbEntity
  8
LC-001-100-D00-0
 62
     7
370
    25
100
AcDbLine
 10
59.470411
 20
355.473612
 30
0.0
 11
60.46779
 21
356.47099
 31
0.0
  0
LINE
  5
2D3
330
2C2
100
AcDbEntity
  8
LC-001-100-D00-0
 62
     7
370
    25
100
AcDbLine
 10
62.484241
 20
358.487442
 30
0.0
 11
64.234241
 21
360.237442
 31
0.0
  0
LINE
  5
2D4
330
2C2
100
AcDbEntity
  8
LC-001-100-D00-0
 62
     7
370
    25
100
AcDbLine
 10
58.30126
 20
363.284716
 30
0.0
 11
58.987534
 21
363.97099
 31
0.0
  0
LINE
  5
2D5
330
2C2
100
AcDbEntity
  8
LC-001-100-D00-0
 62
     7
370
    25
100
AcDbLine
 10
62.484241
 20
367.467698
 30
0.0
 11
64.234241
 21
369.217698
 31
0.0
  0
ENDBLK
  5
2C4
330
2C2
100
AcDbEntity
  8
0
100
AcDbBlockEnd
  0
BLOCK
  5
2D8
330
2D7
100
AcDbEntity
  8
0
100
AcDbBlockBegin
  2
KLON8
 70
     0
 71
     0
 10
0.0
 20
0.0
 30
0.0
  3
KLON8
  1

  4
KLON8
  0
LINE
  5
2DA
330
2D7
100
AcDbEntity
  8
LC-001-100-D00-0
 62
     7
370
    50
100
AcDbLine
 10
188.730863
 20
376.97099
 30
0.0
 11
188.734241
 21
376.974368
 31
0.0
  0
LINE
  5
2DB
330
2D7
100
AcDbEntity
  8
LC-001-100-D00-0
 62
     7
370
    50
100
AcDbLine
 10
191.734241
 20
379.974368
 30
0.0
 11
194.734241
 21
382.974368
 31
0.0
  0
LINE
  5
2DC
330
2D7
100
AcDbEntity
  8
LC-001-100-D00-0
 62
     7
370
    50
100
AcDbLine
 10
182.734241
 20
379.954624
 30
0.0
 11
182.750607
 21
379.97099
 31
0.0
  0
LINE
  5
2DD
330
2D7
100
AcDbEntity
  8
LC-001-100-D00-0
 62
     7
370
    50
100
AcDbLine
 10
185.734241
 20
382.954624
 30
0.0
 11
186.750607
 21
383.97099
 31
0.0
  0
ENDBLK
  5
2D9
330
2D7
100
AcDbEntity
  8
0
100
AcDbBlockEnd
  0
BLOCK
  5
2E0
330
2DF
100
AcDbEntity
  8
0
100
AcDbBlockBegin
  2
KLON9
 70
     0
 71
     0
 10
0.0
 20
0.0
 30
0.0
  3
KLON9
  1

  4
KLON9
  0
LINE
  5
2E2
330
2DF
100
AcDbEntity
  8
LC-001-100-D00-0
 62
     7
370
    50
100
AcDbLine
 10
54.027021
 20
376.97099
 30
0.0
 11
57.027021
 21
379.97099
 31
0.0
  0
LINE
  5
2E3
330
2DF
100
AcDbEntity
  8
LC-001-100-D00-0
 62
     7
370
    50
100
AcDbLine
 10
47.734241
 20
379.658466
 30
0.0
 11
52.046765
 21
383.97099
 31
0.0
  0
ENDBLK
  5
2E1
330
2DF
100
AcDbEntity
  8
0
100
AcDbBlockEnd
  0
BLOCK
  5
2E8
330
2E7
100
AcDbEntity
  8
0
100
AcDbBlockBegin
  2
KLON10
 70
     0
 71
     0
 10
0.0
 20
0.0
 30
0.0
  3
KLON10
  1

  4
KLON10
  0
LINE
  5
2EA
330
2E7
100
AcDbEntity
  8
LC-001-100-D00-0
 62
     7
370
    25
100
AcDbLine
 10
99.07146
 20
152.607745
 30
0.0
 11
99.234241
 21
152.770526
 31
0.0
  0
LINE
  5
2EB
330
2E7
100
AcDbEntity
  8
LC-001-100-D00-0
 62
     7
370
    25
100
AcDbLine
 10
96.234241
 20
158.750782
 30
0.0
 11
99.234241
 21
161.750782
 31
0.0
  0
LINE
  5
2EC
330
2E7
100
AcDbEntity
  8
LC-001-100-D00-0
 62
     7
370
    25
100
AcDbLine
 10
96.234241
 20
167.731038
 30
0.0
 11
99.234241
 21
170.731038
 31
0.0
  0
LINE
  5
2ED
330
2E7
100
AcDbEntity
  8
LC-001-100-D00-0
 62
     7
370
    25
100
AcDbLine
 10
96.234241
 20
176.711295
 30
0.0
 11
99.234241
 21
179.711295
 31
0.0
  0
LINE
  5
2EE
330
2E7
100
AcDbEntity
  8
LC-001-100-D00-0
 62
     7
370
    25
100
AcDbLine
 10
96.234241
 20
185.691551
 30
0.0
 11
99.234241
 21
188.691551
 31
0.0
  0
LINE
  5
2EF
330
2E7
100
AcDbEntity
  8
LC-001-100-D00-0
 62
     7
370
    25
100
AcDbLine
 10
96.234241
 20
194.671807
 30
0.0
 11
99.234241
 21
197.671807
 31
0.0
  0
LINE
  5
2F0
330
2E7
100
AcDbEntity
  8
LC-001-100-D00-0
 62
     7
370
    25
100
AcDbLine
 10
96.234241
 20
203.652063
 30
0.0
 11
99.234241
 21
206.652063
 31
0.0
  0
LINE
  5
2F1
330
2E7
100
AcDbEntity
  8
LC-001-100-D00-0
 62
     7
370
    25
100
AcDbLine
 10
94.209667
 20
210.607745
 30
0.0
 11
96.709667
 21
213.107745
 31
0.0
  0
LINE
  5
2F2
330
2E7
100
AcDbEntity
  8
LC-001-100-D00-0
 62
     7
370
    25
100
AcDbLine
 10
85.229411
 20
210.607745
 30
0.0
 11
87.729411
 21
213.107745
 31
0.0
  0
LINE
  5
2F3
330
2E7
100
AcDbEntity
  8
LC-001-100-D00-0
 62
     7
370
    25
100
AcDbLine
 10
76.249155
 20
210.607745
 30
0.0
 11
78.749155
 21
213.107745
 31
0.0
  0
LINE
  5
2F4
330
2E7
100
AcDbEntity
  8
LC-001-100-D00-0
 62
     7
370
    25
100
AcDbLine
 10
69.558596
 20
212.897443
 30
0.0
 11
71.925309
 21
215.264155
 31
0.0
  0
LINE
  5
2F5
330
2E7
100
AcDbEntity
  8
LC-001-100-D00-0
 62
     7
370
    25
100
AcDbLine
 10
67.660833
 20
219.979936
 30
0.0
 11
70.026864
 21
222.345967
 31
0.0
  0
LINE
  5
2F6
330
2E7
100
AcDbEntity
  8
LC-001-100-D00-0
 62
     7
370
    25
100
AcDbLine
 10
66.234241
 20
227.5336
 30
0.0
 11
69.234241
 21
230.5336
 31
0.0
  0
LINE
  5
2F7
330
2E7
100
AcDbEntity
  8
LC-001-100-D00-0
 62
     7
370
    25
100
AcDbLine
 10
66.234241
 20
236.513856
 30
0.0
 11
69.234241
 21
239.513856
 31
0.0
  0
LINE
  5
2F8
330
2E7
100
AcDbEntity
  8
LC-001-100-D00-0
 62
     7
370
    25
100
AcDbLine
 10
66.234241
 20
245.494112
 30
0.0
 11
69.234241
 21
248.494112
 31
0.0
  0
LINE
  5
2F9
330
2E7
100
AcDbEntity
  8
LC-001-100-D00-0
 62
     7
370
    25
100
AcDbLine
 10
66.234241
 20
254.474368
 30
0.0
 11
69.234241
 21
257.474368
 31
0.0
  0
LINE
  5
2FA
330
2E7
100
AcDbEntity
  8
LC-001-100-D00-0
 62
     7
370
    25
100
AcDbLine
 10
66.234241
 20
263.454624
 30
0.0
 11
69.234241
 21
266.454624
 31
0.0
  0
LINE
  5
2FB
330
2E7
100
AcDbEntity
  8
LC-001-100-D00-0
 62
     7
370
    25
100
AcDbLine
 10
61.407106
 20
267.607745
 30
0.0
 11
64.407106
 21
270.607745
 31
0.0
  0
LINE
  5
2FC
330
2E7
100
AcDbEntity
  8
LC-001-100-D00-0
 62
     7
370
    25
100
AcDbLine
 10
58.234241
 20
273.415136
 30
0.0
 11
61.234241
 21
276.415136
 31
0.0
  0
LINE
  5
2FD
330
2E7
100
AcDbEntity
  8
LC-001-100-D00-0
 62
     7
370
    25
100
AcDbLine
 10
58.234241
 20
282.395393
 30
0.0
 11
61.234241
 21
285.395393
 31
0.0
  0
LINE
  5
2FE
330
2E7
100
AcDbEntity
  8
LC-001-100-D00-0
 62
     7
370
    25
100
AcDbLine
 10
57.891795
 20
291.033203
 30
0.0
 11
61.234241
 21
294.375649
 31
0.0
  0
LINE
  5
2FF
330
2E7
100
AcDbEntity
  8
LC-001-100-D00-0
 62
     7
370
    25
100
AcDbLine
 10
48.911539
 20
291.033203
 30
0.0
 11
54.751086
 21
296.87275
 31
0.0
  0
LINE
  5
300
330
2E7
100
AcDbEntity
  8
LC-001-100-D00-0
 62
     7
370
    25
100
AcDbLine
 10
39.931282
 20
291.033203
 30
0.0
 11
42.27083
 21
293.37275
 31
0.0
  0
LINE
  5
301
330
2E7
100
AcDbEntity
  8
LC-001-100-D00-0
 62
     7
370
    25
100
AcDbLine
 10
45.234241
 20
296.336161
 30
0.0
 11
45.77083
 21
296.87275
 31
0.0
  0
LINE
  5
302
330
2E7
100
AcDbEntity
  8
LC-001-100-D00-0
 62
     7
370
    25
100
AcDbLine
 10
46.184259
 20
297.286179
 30
0.0
 11
46.247633
 21
297.349553
 31
0.0
  0
LINE
  5
303
330
2E7
100
AcDbEntity
  8
LC-001-100-D00-0
 62
     7
370
    25
100
AcDbLine
 10
33.857343
 20
293.939519
 30
0.0
 11
36.790574
 21
296.87275
 31
0.0
  0
LINE
  5
304
330
2E7
100
AcDbEntity
  8
LC-001-100-D00-0
 62
     7
370
    25
100
AcDbLine
 10
26.979772
 20
296.042204
 30
0.0
 11
29.78274
 21
298.845172
 31
0.0
  0
LINE
  5
305
330
2E7
100
AcDbEntity
  8
LC-001-100-D00-0
 62
     7
370
    25
100
AcDbLine
 10
20.1022
 20
298.144889
 30
0.0
 11
22.905168
 21
300.947857
 31
0.0
  0
LINE
  5
306
330
2E7
100
AcDbEntity
  8
LC-001-100-D00-0
 62
     7
370
    25
100
AcDbLine
 10
12.571222
 20
299.594166
 30
0.0
 11
16.015091
 21
303.038036
 31
0.0
  0
ENDBLK
  5
2E9
330
2E7
100
AcDbEntity
  8
0
100
AcDbBlockEnd
  0
BLOCK
  5
309
330
308
100
AcDbEntity
  8
0
100
AcDbBlockBegin
  2
KLON11
 70
     0
 71
     0
 10
0.0
 20
0.0
 30
0.0
  3
KLON11
  1

  4
KLON11
  0
LINE
  5
30B
330
308
100
AcDbEntity
  8
LC-001-100-D00-0
 62
     7
370
    25
100
AcDbLine
 10
143.972741
 20
152.607745
 30
0.0
 11
145.780918
 21
154.415923
 31
0.0
  0
LINE
  5
30C
330
308
100
AcDbEntity
  8
LC-001-100-D00-0
 62
     7
370
    25
100
AcDbLine
 10
143.234241
 20
160.849502
 30
0.0
 11
146.234241
 21
163.849502
 31
0.0
  0
LINE
  5
30D
330
308
100
AcDbEntity
  8
LC-001-100-D00-0
 62
     7
370
    25
100
AcDbLine
 10
143.234241
 20
169.829758
 30
0.0
 11
146.234241
 21
172.829758
 31
0.0
  0
LINE
  5
30E
330
308
100
AcDbEntity
  8
LC-001-100-D00-0
 62
     7
370
    25
100
AcDbLine
 10
143.234241
 20
178.810014
 30
0.0
 11
146.234241
 21
181.810014
 31
0.0
  0
LINE
  5
30F
330
308
100
AcDbEntity
  8
LC-001-100-D00-0
 62
     7
370
    25
100
AcDbLine
 10
143.234241
 20
187.79027
 30
0.0
 11
146.234241
 21
190.79027
 31
0.0
  0
LINE
  5
310
330
308
100
AcDbEntity
  8
LC-001-100-D00-0
 62
     7
370
    25
100
AcDbLine
 10
166.051716
 20
210.607745
 30
0.0
 11
168.758353
 21
213.314382
 31
0.0
  0
LINE
  5
311
330
308
100
AcDbEntity
  8
LC-001-100-D00-0
 62
     7
370
    25
100
AcDbLine
 10
170.457586
 20
215.013615
 30
0.0
 11
174.582079
 21
219.138109
 31
0.0
  0
LINE
  5
312
330
308
100
AcDbEntity
  8
LC-001-100-D00-0
 62
     7
370
    25
100
AcDbLine
 10
143.234241
 20
196.770526
 30
0.0
 11
146.234241
 21
199.770526
 31
0.0
  0
LINE
  5
313
330
308
100
AcDbEntity
  8
LC-001-100-D00-0
 62
     7
370
    25
100
AcDbLine
 10
157.07146
 20
210.607745
 30
0.0
 11
159.57146
 21
213.107745
 31
0.0
  0
LINE
  5
314
330
308
100
AcDbEntity
  8
LC-001-100-D00-0
 62
     7
370
    25
100
AcDbLine
 10
173.234241
 20
226.770526
 30
0.0
 11
176.234241
 21
229.770526
 31
0.0
  0
LINE
  5
315
330
308
100
AcDbEntity
  8
LC-001-100-D00-0
 62
     7
370
    25
100
AcDbLine
 10
143.234241
 20
205.750782
 30
0.0
 11
146.234241
 21
208.750782
 31
0.0
  0
LINE
  5
316
330
308
100
AcDbEntity
  8
LC-001-100-D00-0
 62
     7
370
    25
100
AcDbLine
 10
148.091204
 20
210.607745
 30
0.0
 11
150.591204
 21
213.107745
 31
0.0
  0
LINE
  5
317
330
308
100
AcDbEntity
  8
LC-001-100-D00-0
 62
     7
370
    25
100
AcDbLine
 10
173.234241
 20
235.750782
 30
0.0
 11
176.234241
 21
238.750782
 31
0.0
  0
LINE
  5
318
330
308
100
AcDbEntity
  8
LC-001-100-D00-0
 62
     7
370
    25
100
AcDbLine
 10
173.234241
 20
244.731038
 30
0.0
 11
176.234241
 21
247.731038
 31
0.0
  0
LINE
  5
319
330
308
100
AcDbEntity
  8
LC-001-100-D00-0
 62
     7
370
    25
100
AcDbLine
 10
228.033139
 20
299.529936
 30
0.0
 11
231.715655
 21
303.212452
 31
0.0
  0
LINE
  5
31A
330
308
100
AcDbEntity
  8
LC-001-100-D00-0
 62
     7
370
    25
100
AcDbLine
 10
173.234241
 20
253.711295
 30
0.0
 11
176.234241
 21
256.711295
 31
0.0
  0
LINE
  5
31B
330
308
100
AcDbEntity
  8
LC-001-100-D00-0
 62
     7
370
    25
100
AcDbLine
 10
215.598812
 20
296.075866
 30
0.0
 11
220.870428
 21
301.347481
 31
0.0
  0
LINE
  5
31C
330
308
100
AcDbEntity
  8
LC-001-100-D00-0
 62
     7
370
    25
100
AcDbLine
 10
173.234241
 20
262.691551
 30
0.0
 11
176.234241
 21
265.691551
 31
0.0
  0
LINE
  5
31D
330
308
100
AcDbEntity
  8
LC-001-100-D00-0
 62
     7
370
    25
100
AcDbLine
 10
178.150435
 20
267.607745
 30
0.0
 11
181.150435
 21
270.607745
 31
0.0
  0
LINE
  5
31E
330
308
100
AcDbEntity
  8
LC-001-100-D00-0
 62
     7
370
    25
100
AcDbLine
 10
181.234241
 20
270.691551
 30
0.0
 11
184.234241
 21
273.691551
 31
0.0
  0
LINE
  5
31F
330
308
100
AcDbEntity
  8
LC-001-100-D00-0
 62
     7
370
    25
100
AcDbLine
 10
201.575893
 20
291.033203
 30
0.0
 11
203.91544
 21
293.37275
 31
0.0
  0
LINE
  5
320
330
308
100
AcDbEntity
  8
LC-001-100-D00-0
 62
     7
370
    25
100
AcDbLine
 10
204.234241
 20
293.691551
 30
0.0
 11
207.935597
 21
297.392907
 31
0.0
  0
LINE
  5
321
330
308
100
AcDbEntity
  8
LC-001-100-D00-0
 62
     7
370
    25
100
AcDbLine
 10
181.234241
 20
279.671807
 30
0.0
 11
184.234241
 21
282.671807
 31
0.0
  0
LINE
  5
322
330
308
100
AcDbEntity
  8
LC-001-100-D00-0
 62
     7
370
    25
100
AcDbLine
 10
192.595636
 20
291.033203
 30
0.0
 11
197.234241
 21
295.671807
 31
0.0
  0
LINE
  5
323
330
308
100
AcDbEntity
  8
LC-001-100-D00-0
 62
     7
370
    25
100
AcDbLine
 10
181.234241
 20
288.652063
 30
0.0
 11
189.454928
 21
296.87275
 31
0.0
  0
ENDBLK
  5
30A
330
308
100
AcDbEntity
  8
0
100
AcDbBlockEnd
  0
BLOCK
  5
33D
330
33C
100
AcDbEntity
  8
0
100
AcDbBlockBegin
  2
KLON12
 70
     0
 71
     0
 10
0.0
 20
0.0
 30
0.0
  3
KLON12
  1

  4
KLON12
  0
LINE
  5
33F
330
33C
100
AcDbEntity
  8
LC-001-100-D00-0
 62
     7
370
    15
100
AcDbLine
 10
413.20804
 20
-147.86349
 30
0.0
 11
413.215461
 21
-147.901663
 31
0.0
  0
LINE
  5
340
330
33C
100
AcDbEntity
  8
LC-001-100-D00-0
 62
     7
370
    15
100
AcDbLine
 10
413.215461
 20
-147.901663
 30
0.0
 11
413.234236
 21
-147.934147
 31
0.0
  0
ENDBLK
  5
33E
330
33C
100
AcDbEntity
  8
0
100
AcDbBlockEnd
  0
BLOCK
  5
345
330
344
100
AcDbEntity
  8
0
100
AcDbBlockBegin
  2
KLON13
 70
     0
 71
     0
 10
0.0
 20
0.0
 30
0.0
  3
KLON13
  1

  4
KLON13
  0
LINE
  5
347
330
344
100
AcDbEntity
  8
LC-001-100-D00-0
 62
     7
370
    15
100
AcDbLine
 10
413.20804
 20
-112.040822
 30
0.0
 11
413.220706
 21
-112.121702
 31
0.0
  0
LINE
  5
348
330
344
100
AcDbEntity
  8
LC-001-100-D00-0
 62
     7
370
    15
100
AcDbLine
 10
413.220706
 20
-112.121702
 30
0.0
 11
413.229498
 21
-112.177911
 31
0.0
  0
LINE
  5
349
330
344
100
AcDbEntity
  8
LC-001-100-D00-0
 62
     7
370
    15
100
AcDbLine
 10
413.229498
 20
-112.177911
 30
0.0
 11
413.232001
 21
-112.19401
 31
0.0
  0
LINE
  5
34A
330
344
100
AcDbEntity
  8
LC-001-100-D00-0
 62
     7
370
    15
100
AcDbLine
 10
413.232001
 20
-112.19401
 30
0.0
 11
413.234236
 21
-112.208296
 31
0.0
  0
ENDBLK
  5
346
330
344
100
AcDbEntity
  8
0
100
AcDbBlockEnd
  0
BLOCK
  5
34E
330
34D
100
AcDbEntity
  8
0
100
AcDbBlockBegin
  2
KLON14
 70
     0
 71
     0
 10
0.0
 20
0.0
 30
0.0
  3
KLON14
  1

  4
KLON14
  0
LINE
  5
350
330
34D
100
AcDbEntity
  8
LC-001-100-D00-0
 62
     7
370
    15
100
AcDbLine
 10
413.20804
 20
-100.87813
 30
0.0
 11
413.21862
 21
-100.87222
 31
0.0
  0
LINE
  5
351
330
34D
100
AcDbEntity
  8
LC-001-100-D00-0
 62
     7
370
    15
100
AcDbLine
 10
413.21862
 20
-100.87222
 30
0.0
 11
413.234236
 21
-100.863491
 31
0.0
  0
ENDBLK
  5
34F
330
34D
100
AcDbEntity
  8
0
100
AcDbBlockEnd
  0
BLOCK
  5
354
330
353
100
AcDbEntity
  8
0
100
AcDbBlockBegin
  2
KLON15
 70
     0
 71
     0
 10
0.0
 20
0.0
 30
0.0
  3
KLON15
  1

  4
KLON15
  0
LINE
  5
356
330
353
100
AcDbEntity
  8
LC-001-100-D00-0
 62
     7
370
    15
100
AcDbLine
 10
-170.739559
 20
-147.86349
 30
0.0
 11
-170.74698
 21
-147.901663
 31
0.0
  0
LINE
  5
357
330
353
100
AcDbEntity
  8
LC-001-100-D00-0
 62
     7
370
    15
100
AcDbLine
 10
-170.74698
 20
-147.901663
 30
0.0
 11
-170.765755
 21
-147.934147
 31
0.0
  0
ENDBLK
  5
355
330
353
100
AcDbEntity
  8
0
100
AcDbBlockEnd
  0
BLOCK
  5
35A
330
359
100
AcDbEntity
  8
0
100
AcDbBlockBegin
  2
KLON16
 70
     0
 71
     0
 10
0.0
 20
0.0
 30
0.0
  3
KLON16
  1

  4
KLON16
  0
LINE
  5
35C
330
359
100
AcDbEntity
  8
LC-001-100-D00-0
 62
     7
370
    15
100
AcDbLine
 10
-170.739559
 20
-100.87813
 30
0.0
 11
-170.750139
 21
-100.87222
 31
0.0
  0
LINE
  5
35D
330
359
100
AcDbEntity
  8
LC-001-100-D00-0
 62
     7
370
    15
100
AcDbLine
 10
-170.750139
 20
-100.87222
 30
0.0
 11
-170.765755
 21
-100.863491
 31
0.0
  0
ENDBLK
  5
35B
330
359
100
AcDbEntity
  8
0
100
AcDbBlockEnd
  0
BLOCK
  5
361
330
360
100
AcDbEntity
  8
0
100
AcDbBlockBegin
  2
KLON17
 70
     0
 71
     0
 10
0.0
 20
0.0
 30
0.0
  3
KLON17
  1

  4
KLON17
  0
LINE
  5
363
330
360
100
AcDbEntity
  8
LC-001-100-D00-0
 62
     7
370
    15
100
AcDbLine
 10
-170.739559
 20
-112.040822
 30
0.0
 11
-170.752225
 21
-112.121702
 31
0.0
  0
LINE
  5
364
330
360
100
AcDbEntity
  8
LC-001-100-D00-0
 62
     7
370
    15
100
AcDbLine
 10
-170.752225
 20
-112.121702
 30
0.0
 11
-170.761016
 21
-112.177911
 31
0.0
  0
LINE
  5
365
330
360
100
AcDbEntity
  8
LC-001-100-D00-0
 62
     7
370
    15
100
AcDbLine
 10
-170.761016
 20
-112.177911
 30
0.0
 11
-170.76352
 21
-112.19401
 31
0.0
  0
LINE
  5
366
330
360
100
AcDbEntity
  8
LC-001-100-D00-0
 62
     7
370
    15
100
AcDbLine
 10
-170.76352
 20
-112.19401
 30
0.0
 11
-170.765755
 21
-112.208296
 31
0.0
  0
ENDBLK
  5
362
330
360
100
AcDbEntity
  8
0
100
AcDbBlockEnd
  0
BLOCK
  5
378
330
377
100
AcDbEntity
  8
0
100
AcDbBlockBegin
  2
KLON18
 70
     0
 71
     0
 10
0.0
 20
0.0
 30
0.0
  3
KLON18
  1

  4
KLON18
  0
LINE
  5
37A
330
377
100
AcDbEntity
  8
LC-001-100-D00-0
 62
     7
370
    15
100
AcDbLine
 10
413.179519
 20
-136.696899
 30
0.0
 11
413.195702
 21
-136.690815
 31
0.0
  0
LINE
  5
37B
330
377
100
AcDbEntity
  8
LC-001-100-D00-0
 62
     7
370
    15
100
AcDbLine
 10
413.195702
 20
-136.690815
 30
0.0
 11
413.20804
 21
-136.686159
 31
0.0
  0
ENDBLK
  5
379
330
377
100
AcDbEntity
  8
0
100
AcDbBlockEnd
  0
BLOCK
  5
37E
330
37D
100
AcDbEntity
  8
0
100
AcDbBlockBegin
  2
KLON19
 70
     0
 71
     0
 10
0.0
 20
0.0
 30
0.0
  3
KLON19
  1

  4
KLON19
  0
LINE
  5
380
330
37D
100
AcDbEntity
  8
LC-001-100-D00-0
 62
     7
370
    15
100
AcDbLine
 10
-170.711038
 20
-136.696899
 30
0.0
 11
-170.727221
 21
-136.690815
 31
0.0
  0
LINE
  5
381
330
37D
100
AcDbEntity
  8
LC-001-100-D00-0
 62
     7
370
    15
100
AcDbLine
 10
-170.727221
 20
-136.690815
 30
0.0
 11
-170.739559
 21
-136.686159
 31
0.0
  0
ENDBLK
  5
37F
330
37D
100
AcDbEntity
  8
0
100
AcDbBlockEnd
  0
BLOCK
  5
385
330
384
100
AcDbEntity
  8
0
100
AcDbBlockBegin
  2
KLON20
 70
     0
 71
     0
 10
0.0
 20
0.0
 30
0.0
  3
KLON20
  1

  4
KLON20
  0
LINE
  5
387
330
384
100
AcDbEntity
  8
LC-001-100-D00-0
 62
     7
370
    15
100
AcDbLine
 10
276.221174
 20
-130.222708
 30
0.0
 11
276.232573
 21
-129.809234
 31
0.0
  0
LINE
  5
388
330
384
100
AcDbEntity
  8
LC-001-100-D00-0
 62
     7
370
    15
100
AcDbLine
 10
276.232573
 20
-129.809234
 30
0.0
 11
276.244255
 21
-129.385975
 31
0.0
  0
LINE
  5
389
330
384
100
AcDbEntity
  8
LC-001-100-D00-0
 62
     7
370
    15
100
AcDbLine
 10
276.244255
 20
-129.385975
 30
0.0
 11
276.256057
 21
-128.957797
 31
0.0
  0
ENDBLK
  5
386
330
384
100
AcDbEntity
  8
0
100
AcDbBlockEnd
  0
BLOCK
  5
38C
330
38B
100
AcDbEntity
  8
0
100
AcDbBlockBegin
  2
KLON21
 70
     0
 71
     0
 10
0.0
 20
0.0
 30
0.0
  3
KLON21
  1

  4
KLON21
  0
LINE
  5
38E
330
38B
100
AcDbEntity
  8
LC-001-100-D00-0
 62
     7
370
    15
100
AcDbLine
 10
413.179519
 20
-112.030082
 30
0.0
 11
413.195702
 21
-112.036166
 31
0.0
  0
LINE
  5
38F
330
38B
100
AcDbEntity
  8
LC-001-100-D00-0
 62
     7
370
    15
100
AcDbLine
 10
413.195702
 20
-112.036166
 30
0.0
 11
413.20804
 21
-112.040822
 31
0.0
  0
ENDBLK
  5
38D
330
38B
100
AcDbEntity
  8
0
100
AcDbBlockEnd
  0
BLOCK
  5
392
330
391
100
AcDbEntity
  8
0
100
AcDbBlockBegin
  2
KLON22
 70
     0
 71
     0
 10
0.0
 20
0.0
 30
0.0
  3
KLON22
  1

  4
KLON22
  0
LINE
  5
394
330
391
100
AcDbEntity
  8
LC-001-100-D00-0
 62
     7
370
    15
100
AcDbLine
 10
276.256057
 20
-119.769185
 30
0.0
 11
276.244255
 21
-119.341006
 31
0.0
  0
LINE
  5
395
330
391
100
AcDbEntity
  8
LC-001-100-D00-0
 62
     7
370
    15
100
AcDbLine
 10
276.244255
 20
-119.341006
 30
0.0
 11
276.232573
 21
-118.917748
 31
0.0
  0
LINE
  5
396
330
391
100
AcDbEntity
  8
LC-001-100-D00-0
 62
     7
370
    15
100
AcDbLine
 10
276.232573
 20
-118.917748
 30
0.0
 11
276.221174
 21
-118.504273
 31
0.0
  0
ENDBLK
  5
393
330
391
100
AcDbEntity
  8
0
100
AcDbBlockEnd
  0
BLOCK
  5
399
330
398
100
AcDbEntity
  8
0
100
AcDbBlockBegin
  2
KLON23
 70
     0
 71
     0
 10
0.0
 20
0.0
 30
0.0
  3
KLON23
  1

  4
KLON23
  0
LINE
  5
39B
330
398
100
AcDbEntity
  8
LC-001-100-D00-0
 62
     7
370
    15
100
AcDbLine
 10
-33.752692
 20
-130.222708
 30
0.0
 11
-33.764092
 21
-129.809234
 31
0.0
  0
LINE
  5
39C
330
398
100
AcDbEntity
  8
LC-001-100-D00-0
 62
     7
370
    15
100
AcDbLine
 10
-33.764092
 20
-129.809234
 30
0.0
 11
-33.775774
 21
-129.385975
 31
0.0
  0
LINE
  5
39D
330
398
100
AcDbEntity
  8
LC-001-100-D00-0
 62
     7
370
    15
100
AcDbLine
 10
-33.775774
 20
-129.385975
 30
0.0
 11
-33.787576
 21
-128.957797
 31
0.0
  0
ENDBLK
  5
39A
330
398
100
AcDbEntity
  8
0
100
AcDbBlockEnd
  0
BLOCK
  5
3A0
330
39F
100
AcDbEntity
  8
0
100
AcDbBlockBegin
  2
KLON24
 70
     0
 71
     0
 10
0.0
 20
0.0
 30
0.0
  3
KLON24
  1

  4
KLON24
  0
LINE
  5
3A2
330
39F
100
AcDbEntity
  8
LC-001-100-D00-0
 62
     7
370
    15
100
AcDbLine
 10
-33.787576
 20
-119.769185
 30
0.0
 11
-33.775774
 21
-119.341006
 31
0.0
  0
LINE
  5
3A3
330
39F
100
AcDbEntity
  8
LC-001-100-D00-0
 62
     7
370
    15
100
AcDbLine
 10
-33.775774
 20
-119.341006
 30
0.0
 11
-33.764092
 21
-118.917748
 31
0.0
  0
LINE
  5
3A4
330
39F
100
AcDbEntity
  8
LC-001-100-D00-0
 62
     7
370
    15
100
AcDbLine
 10
-33.764092
 20
-118.917748
 30
0.0
 11
-33.752692
 21
-118.504273
 31
0.0
  0
ENDBLK
  5
3A1
330
39F
100
AcDbEntity
  8
0
100
AcDbBlockEnd
  0
BLOCK
  5
3A7
330
3A6
100
AcDbEntity
  8
0
100
AcDbBlockBegin
  2
KLON25
 70
     0
 71
     0
 10
0.0
 20
0.0
 30
0.0
  3
KLON25
  1

  4
KLON25
  0
LINE
  5
3A9
330
3A6
100
AcDbEntity
  8
LC-001-100-D00-0
 62
     7
370
    15
100
AcDbLine
 10
-170.711038
 20
-112.030082
 30
0.0
 11
-170.727221
 21
-112.036166
 31
0.0
  0
LINE
  5
3AA
330
3A6
100
AcDbEntity
  8
LC-001-100-D00-0
 62
     7
370
    15
100
AcDbLine
 10
-170.727221
 20
-112.036166
 30
0.0
 11
-170.739559
 21
-112.040822
 31
0.0
  0
ENDBLK
  5
3A8
330
3A6
100
AcDbEntity
  8
0
100
AcDbBlockEnd
  0
BLOCK
  5
444
330
43A
100
AcDbEntity
  8
0
100
AcDbBlockBegin
  2
*D32
 70
     1
 71
     0
 10
0.0
 20
0.0
 30
0.0
  3
*D32
  1

  0
LINE
  5
43B
330
43A
100
AcDbEntity
  8
LC-001-100-D00-0
 62
     2
370
    -2
100
AcDbLine
 10
466.234241
 20
-46.863491
 30
0.0
 11
517.478309
 21
-46.863491
 31
0.0
  0
LINE
  5
43C
330
43A
100
AcDbEntity
  8
LC-001-100-D00-0
 62
     2
370
    -2
100
AcDbLine
 10
466.234241
 20
-201.863491
 30
0.0
 11
517.478309
 21
-201.863491
 31
0.0
  0
LINE
  5
43D
330
43A
100
AcDbEntity
  8
LC-001-100-D00-0
 62
     2
370
    -2
100
AcDbLine
 10
513.878309
 20
-74.863491
 30
0.0
 11
513.878309
 21
-173.863491
 31
0.0
  0
SOLID
  5
43E
330
43A
100
AcDbEntity
  8
LC-001-100-D00-0
 62
     2
100
AcDbTrace
 10
518.544975
 20
-74.863491
 30
0.0
 11
509.211642
 21
-74.863491
 31
0.0
 12
513.878309
 22
-46.863491
 32
0.0
 13
513.878309
 23
-46.863491
 33
0.0
  0
SOLID
  5
43F
330
43A
100
AcDbEntity
  8
LC-001-100-D00-0
 62
     2
100
AcDbTrace
 10
509.211642
 20
-173.863491
 30
0.0
 11
518.544975
 21
-173.863491
 31
0.0
 12
513.878309
 22
-201.863491
 32
0.0
 13
513.878309
 23
-201.863491
 33
0.0
  0
MTEXT
  5
440
330
43A
100
AcDbEntity
  8
LC-001-100-D00-0
 62
     2
100
AcDbMText
 10
483.078309
 20
-122.853321
 30
0.0
 40
28.0
 41
0.0
 71
     5
 72
     1
  1
\A1;155
  7
LCTX15-400-0-0pDIN-Schrift
 11
6.123031769111886E-17
 21
1.0
 31
0.0
 73
     1
 44
1.0
  0
POINT
  5
441
330
43A
100
AcDbEntity
  8
Defpoints
 62
     0
100
AcDbPoint
 10
466.234241
 20
-46.863491
 30
0.0
  0
POINT
  5
442
330
43A
100
AcDbEntity
  8
Defpoints
 62
     0
100
AcDbPoint
 10
466.234241
 20
-201.863491
 30
0.0
  0
POINT
  5
443
330
43A
100
AcDbEntity
  8
Defpoints
 62
     0
100
AcDbPoint
 10
513.878309
 20
-201.863491
 30
0.0
  0
ENDBLK
  5
445
330
43A
100
AcDbEntity
  8
0
100
AcDbBlockEnd
  0
BLOCK
  5
5E5
330
5E4
100
AcDbEntity
  8
0
100
AcDbBlockBegin
  2
KLON26
 70
     0
 71
     0
 10
0.0
 20
0.0
 30
0.0
  3
KLON26
  1

  4
KLON26
  0
LINE
  5
5E7
330
5E4
100
AcDbEntity
  8
LC-001-100-D00-0
 62
     7
370
    15
100
AcDbLine
 10
404.141937
 20
388.639155
 30
0.0
 11
406.698231
 21
388.732451
 31
0.0
  0
LINE
  5
5E8
330
5E4
100
AcDbEntity
  8
LC-001-100-D00-0
 62
     7
370
    15
100
AcDbLine
 10
406.698231
 20
388.732451
 30
0.0
 11
408.844028
 21
388.810764
 31
0.0
  0
LINE
  5
5E9
330
5E4
100
AcDbEntity
  8
LC-001-100-D00-0
 62
     7
370
    15
100
AcDbLine
 10
408.844028
 20
388.810764
 30
0.0
 11
410.574172
 21
388.873908
 31
0.0
  0
LINE
  5
5EA
330
5E4
100
AcDbEntity
  8
LC-001-100-D00-0
 62
     7
370
    15
100
AcDbLine
 10
410.574172
 20
388.873908
 30
0.0
 11
411.884491
 21
388.92173
 31
0.0
  0
LINE
  5
5EB
330
5E4
100
AcDbEntity
  8
LC-001-100-D00-0
 62
     7
370
    15
100
AcDbLine
 10
411.884491
 20
388.92173
 30
0.0
 11
412.771915
 21
388.954117
 31
0.0
  0
LINE
  5
5EC
330
5E4
100
AcDbEntity
  8
LC-001-100-D00-0
 62
     7
370
    15
100
AcDbLine
 10
412.771915
 20
388.954117
 30
0.0
 11
413.234238
 21
388.970991
 31
0.0
  0
ENDBLK
  5
5E6
330
5E4
100
AcDbEntity
  8
0
100
AcDbBlockEnd
  0
BLOCK
  5
5EF
330
5EE
100
AcDbEntity
  8
0
100
AcDbBlockBegin
  2
KLON27
 70
     0
 71
     0
 10
0.0
 20
0.0
 30
0.0
  3
KLON27
  1

  4
KLON27
  0
LINE
  5
5F1
330
5EE
100
AcDbEntity
  8
LC-001-100-D00-0
 62
     7
370
    15
100
AcDbLine
 10
-161.673452
 20
388.639155
 30
0.0
 11
-164.229747
 21
388.732451
 31
0.0
  0
LINE
  5
5F2
330
5EE
100
AcDbEntity
  8
LC-001-100-D00-0
 62
     7
370
    15
100
AcDbLine
 10
-164.229747
 20
388.732451
 30
0.0
 11
-166.375544
 21
388.810764
 31
0.0
  0
LINE
  5
5F3
330
5EE
100
AcDbEntity
  8
LC-001-100-D00-0
 62
     7
370
    15
100
AcDbLine
 10
-166.375544
 20
388.810764
 30
0.0
 11
-168.105688
 21
388.873908
 31
0.0
  0
LINE
  5
5F4
330
5EE
100
AcDbEntity
  8
LC-001-100-D00-0
 62
     7
370
    15
100
AcDbLine
 10
-168.105688
 20
388.873908
 30
0.0
 11
-169.416006
 21
388.92173
 31
0.0
  0
LINE
  5
5F5
330
5EE
100
AcDbEntity
  8
LC-001-100-D00-0
 62
     7
370
    15
100
AcDbLine
 10
-169.416006
 20
388.92173
 30
0.0
 11
-170.30343
 21
388.954117
 31
0.0
  0
LINE
  5
5F6
330
5EE
100
AcDbEntity
  8
LC-001-100-D00-0
 62
     7
370
    15
100
AcDbLine
 10
-170.30343
 20
388.954117
 30
0.0
 11
-170.765753
 21
388.970991
 31
0.0
  0
ENDBLK
  5
5F0
330
5EE
100
AcDbEntity
  8
0
100
AcDbBlockEnd
  0
BLOCK
  5
603
330
602
100
AcDbEntity
  8
0
100
AcDbBlockBegin
  2
KLON28
 70
     0
 71
     0
 10
0.0
 20
0.0
 30
0.0
  3
KLON28
  1

  4
KLON28
  0
LINE
  5
605
330
602
100
AcDbEntity
  8
LC-001-100-D00-0
 62
     7
370
    15
100
AcDbLine
 10
413.206879
 20
390.47099
 30
0.0
 11
413.206194
 21
390.508972
 31
0.0
  0
LINE
  5
606
330
602
100
AcDbEntity
  8
LC-001-100-D00-0
 62
     7
370
    15
100
AcDbLine
 10
413.206194
 20
390.508972
 30
0.0
 11
413.204138
 21
390.621758
 31
0.0
  0
LINE
  5
607
330
602
100
AcDbEntity
  8
LC-001-100-D00-0
 62
     7
370
    15
100
AcDbLine
 10
413.204138
 20
390.621758
 30
0.0
 11
413.20077
 21
390.805927
 31
0.0
  0
LINE
  5
608
330
602
100
AcDbEntity
  8
LC-001-100-D00-0
 62
     7
370
    15
100
AcDbLine
 10
413.20077
 20
390.805927
 30
0.0
 11
413.19621
 21
391.05588
 31
0.0
  0
LINE
  5
609
330
602
100
AcDbEntity
  8
LC-001-100-D00-0
 62
     7
370
    15
100
AcDbLine
 10
413.19621
 20
391.05588
 30
0.0
 11
413.190578
 21
391.364023
 31
0.0
  0
LINE
  5
60A
330
602
100
AcDbEntity
  8
LC-001-100-D00-0
 62
     7
370
    15
100
AcDbLine
 10
413.190578
 20
391.364023
 30
0.0
 11
413.184081
 21
391.720991
 31
0.0
  0
LINE
  5
60B
330
602
100
AcDbEntity
  8
LC-001-100-D00-0
 62
     7
370
    15
100
AcDbLine
 10
413.184081
 20
391.720991
 30
0.0
 11
413.176868
 21
392.115941
 31
0.0
  0
LINE
  5
60C
330
602
100
AcDbEntity
  8
LC-001-100-D00-0
 62
     7
370
    15
100
AcDbLine
 10
413.176868
 20
392.115941
 30
0.0
 11
413.169179
 21
392.536871
 31
0.0
  0
LINE
  5
60D
330
602
100
AcDbEntity
  8
LC-001-100-D00-0
 62
     7
370
    15
100
AcDbLine
 10
413.169179
 20
392.536871
 30
0.0
 11
413.161282
 21
392.970992
 31
0.0
  0
ENDBLK
  5
604
330
602
100
AcDbEntity
  8
0
100
AcDbBlockEnd
  0
BLOCK
  5
610
330
60F
100
AcDbEntity
  8
0
100
AcDbBlockBegin
  2
KLON29
 70
     0
 71
     0
 10
0.0
 20
0.0
 30
0.0
  3
KLON29
  1

  4
KLON29
  0
LINE
  5
612
330
60F
100
AcDbEntity
  8
LC-001-100-D00-0
 62
     7
370
    15
100
AcDbLine
 10
-170.738395
 20
390.47099
 30
0.0
 11
-170.737709
 21
390.508972
 31
0.0
  0
LINE
  5
613
330
60F
100
AcDbEntity
  8
LC-001-100-D00-0
 62
     7
370
    15
100
AcDbLine
 10
-170.737709
 20
390.508972
 30
0.0
 11
-170.735653
 21
390.621758
 31
0.0
  0
LINE
  5
614
330
60F
100
AcDbEntity
  8
LC-001-100-D00-0
 62
     7
370
    15
100
AcDbLine
 10
-170.735653
 20
390.621758
 30
0.0
 11
-170.732285
 21
390.805927
 31
0.0
  0
LINE
  5
615
330
60F
100
AcDbEntity
  8
LC-001-100-D00-0
 62
     7
370
    15
100
AcDbLine
 10
-170.732285
 20
390.805927
 30
0.0
 11
-170.727726
 21
391.05588
 31
0.0
  0
LINE
  5
616
330
60F
100
AcDbEntity
  8
LC-001-100-D00-0
 62
     7
370
    15
100
AcDbLine
 10
-170.727726
 20
391.05588
 30
0.0
 11
-170.722093
 21
391.364023
 31
0.0
  0
LINE
  5
617
330
60F
100
AcDbEntity
  8
LC-001-100-D00-0
 62
     7
370
    15
100
AcDbLine
 10
-170.722093
 20
391.364023
 30
0.0
 11
-170.715596
 21
391.720991
 31
0.0
  0
LINE
  5
618
330
60F
100
AcDbEntity
  8
LC-001-100-D00-0
 62
     7
370
    15
100
AcDbLine
 10
-170.715596
 20
391.720991
 30
0.0
 11
-170.708384
 21
392.115941
 31
0.0
  0
LINE
  5
619
330
60F
100
AcDbEntity
  8
LC-001-100-D00-0
 62
     7
370
    15
100
AcDbLine
 10
-170.708384
 20
392.115941
 30
0.0
 11
-170.700695
 21
392.536871
 31
0.0
  0
LINE
  5
61A
330
60F
100
AcDbEntity
  8
LC-001-100-D00-0
 62
     7
370
    15
100
AcDbLine
 10
-170.700695
 20
392.536871
 30
0.0
 11
-170.692797
 21
392.970992
 31
0.0
  0
ENDBLK
  5
611
330
60F
100
AcDbEntity
  8
0
100
AcDbBlockEnd
  0
BLOCK
  5
671
330
670
100
AcDbEntity
  8
0
100
AcDbBlockBegin
  2
KLON30
 70
     0
 71
     0
 10
0.0
 20
0.0
 30
0.0
  3
KLON30
  1

  4
KLON30
  0
LINE
  5
673
330
670
100
AcDbEntity
  8
LC-001-100-D00-0
 62
     7
370
    25
100
AcDbLine
 10
459.546816
 20
409.470991
 30
0.0
 11
461.046816
 21
410.970991
 31
0.0
  0
LINE
  5
674
330
670
100
AcDbEntity
  8
LC-001-100-D00-0
 62
     7
370
    25
100
AcDbLine
 10
417.724166
 20
390.098979
 30
0.0
 11
421.606255
 21
393.981068
 31
0.0
  0
LINE
  5
675
330
670
100
AcDbEntity
  8
LC-001-100-D00-0
 62
     7
370
    25
100
AcDbLine
 10
437.096176
 20
409.470991
 30
0.0
 11
438.596176
 21
410.970991
 31
0.0
  0
LINE
  5
676
330
670
100
AcDbEntity
  8
LC-001-100-D00-0
 62
     7
370
    25
100
AcDbLine
 10
394.145538
 20
388.970991
 30
0.0
 11
395.734242
 21
390.559695
 31
0.0
  0
LINE
  5
677
330
670
100
AcDbEntity
  8
LC-001-100-D00-0
 62
     7
370
    25
100
AcDbLine
 10
371.694899
 20
388.970991
 30
0.0
 11
373.194899
 21
390.470991
 31
0.0
  0
LINE
  5
678
330
670
100
AcDbEntity
  8
LC-001-100-D00-0
 62
     7
370
    25
100
AcDbLine
 10
387.234242
 20
404.510335
 30
0.0
 11
393.194897
 21
410.470991
 31
0.0
  0
LINE
  5
679
330
670
100
AcDbEntity
  8
LC-001-100-D00-0
 62
     7
370
    25
100
AcDbLine
 10
349.244259
 20
388.970991
 30
0.0
 11
350.744259
 21
390.470991
 31
0.0
  0
LINE
  5
67A
330
670
100
AcDbEntity
  8
LC-001-100-D00-0
 62
     7
370
    25
100
AcDbLine
 10
326.79362
 20
388.970991
 30
0.0
 11
328.29362
 21
390.470991
 31
0.0
  0
LINE
  5
67B
330
670
100
AcDbEntity
  8
LC-001-100-D00-0
 62
     7
370
    25
100
AcDbLine
 10
304.34298
 20
388.970991
 30
0.0
 11
305.84298
 21
390.470991
 31
0.0
  0
LINE
  5
67C
330
670
100
AcDbEntity
  8
LC-001-100-D00-0
 62
     7
370
    25
100
AcDbLine
 10
281.892341
 20
388.970991
 30
0.0
 11
283.392341
 21
390.470991
 31
0.0
  0
LINE
  5
67D
330
670
100
AcDbEntity
  8
LC-001-100-D00-0
 62
     7
370
    25
100
AcDbLine
 10
259.441701
 20
388.970991
 30
0.0
 11
260.941701
 21
390.470991
 31
0.0
  0
LINE
  5
67E
330
670
100
AcDbEntity
  8
LC-001-100-D00-0
 62
     7
370
    25
100
AcDbLine
 10
236.991062
 20
388.970991
 30
0.0
 11
238.491062
 21
390.470991
 31
0.0
  0
LINE
  5
67F
330
670
100
AcDbEntity
  8
LC-001-100-D00-0
 62
     7
370
    25
100
AcDbLine
 10
214.410823
 20
388.841391
 30
0.0
 11
216.040422
 21
390.470991
 31
0.0
  0
LINE
  5
680
330
670
100
AcDbEntity
  8
LC-001-100-D00-0
 62
     7
370
    25
100
AcDbLine
 10
216.734242
 20
391.164811
 30
0.0
 11
225.234242
 21
399.664811
 31
0.0
  0
LINE
  5
681
330
670
100
AcDbEntity
  8
LC-001-100-D00-0
 62
     7
370
    25
100
AcDbLine
 10
187.089783
 20
383.970991
 30
0.0
 11
188.589783
 21
385.470991
 31
0.0
  0
ENDBLK
  5
672
330
670
100
AcDbEntity
  8
0
100
AcDbBlockEnd
  0
BLOCK
  5
684
330
683
100
AcDbEntity
  8
0
100
AcDbBlockBegin
  2
KLON31
 70
     0
 71
     0
 10
0.0
 20
0.0
 30
0.0
  3
KLON31
  1

  4
KLON31
  0
LINE
  5
686
330
683
100
AcDbEntity
  8
LC-001-100-D00-0
 62
     7
370
    25
100
AcDbLine
 10
52.385947
 20
383.970991
 30
0.0
 11
53.785946
 21
385.370991
 31
0.0
  0
LINE
  5
687
330
683
100
AcDbEntity
  8
LC-001-100-D00-0
 62
     7
370
    25
100
AcDbLine
 10
33.379677
 20
387.415361
 30
0.0
 11
34.604422
 21
388.640106
 31
0.0
  0
LINE
  5
688
330
683
100
AcDbEntity
  8
LC-001-100-D00-0
 62
     7
370
    25
100
AcDbLine
 10
12.484667
 20
388.970991
 30
0.0
 11
13.984667
 21
390.470991
 31
0.0
  0
LINE
  5
689
330
683
100
AcDbEntity
  8
LC-001-100-D00-0
 62
     7
370
    25
100
AcDbLine
 10
17.792028
 20
394.278352
 30
0.0
 11
25.234242
 21
401.720567
 31
0.0
  0
LINE
  5
68A
330
683
100
AcDbEntity
  8
LC-001-100-D00-0
 62
     7
370
    25
100
AcDbLine
 10
-9.965972
 20
388.970991
 30
0.0
 11
-8.465972
 21
390.470991
 31
0.0
  0
LINE
  5
68B
330
683
100
AcDbEntity
  8
LC-001-100-D00-0
 62
     7
370
    25
100
AcDbLine
 10
-32.416612
 20
388.970991
 30
0.0
 11
-30.916612
 21
390.470991
 31
0.0
  0
LINE
  5
68C
330
683
100
AcDbEntity
  8
LC-001-100-D00-0
 62
     7
370
    25
100
AcDbLine
 10
-54.867251
 20
388.970991
 30
0.0
 11
-53.367251
 21
390.470991
 31
0.0
  0
LINE
  5
68D
330
683
100
AcDbEntity
  8
LC-001-100-D00-0
 62
     7
370
    25
100
AcDbLine
 10
-77.317891
 20
388.970991
 30
0.0
 11
-75.817891
 21
390.470991
 31
0.0
  0
LINE
  5
68E
330
683
100
AcDbEntity
  8
LC-001-100-D00-0
 62
     7
370
    25
100
AcDbLine
 10
-99.76853
 20
388.970991
 30
0.0
 11
-98.26853
 21
390.470991
 31
0.0
  0
LINE
  5
68F
330
683
100
AcDbEntity
  8
LC-001-100-D00-0
 62
     7
370
    25
100
AcDbLine
 10
-122.21917
 20
388.970991
 30
0.0
 11
-120.71917
 21
390.470991
 31
0.0
  0
LINE
  5
690
330
683
100
AcDbEntity
  8
LC-001-100-D00-0
 62
     7
370
    25
100
AcDbLine
 10
-144.669809
 20
388.970991
 30
0.0
 11
-143.169809
 21
390.470991
 31
0.0
  0
LINE
  5
691
330
683
100
AcDbEntity
  8
LC-001-100-D00-0
 62
     7
370
    25
100
AcDbLine
 10
-167.120449
 20
388.970991
 30
0.0
 11
-165.620449
 21
390.470991
 31
0.0
  0
LINE
  5
692
330
683
100
AcDbEntity
  8
LC-001-100-D00-0
 62
     7
370
    25
100
AcDbLine
 10
-152.765758
 20
403.325683
 30
0.0
 11
-145.693104
 21
410.398337
 31
0.0
  0
LINE
  5
693
330
683
100
AcDbEntity
  8
LC-001-100-D00-0
 62
     7
370
    25
100
AcDbLine
 10
-180.263803
 20
398.278277
 30
0.0
 11
-178.765758
 21
399.776322
 31
0.0
  0
LINE
  5
694
330
683
100
AcDbEntity
  8
LC-001-100-D00-0
 62
     7
370
    25
100
AcDbLine
 10
-191.521729
 20
409.470991
 30
0.0
 11
-190.021729
 21
410.970991
 31
0.0
  0
LINE
  5
695
330
683
100
AcDbEntity
  8
LC-001-100-D00-0
 62
     7
370
    25
100
AcDbLine
 10
-213.972369
 20
409.470991
 30
0.0
 11
-212.472369
 21
410.970991
 31
0.0
  0
ENDBLK
  5
685
330
683
100
AcDbEntity
  8
0
100
AcDbBlockEnd
  0
BLOCK
  5
699
330
698
100
AcDbEntity
  8
0
100
AcDbBlockBegin
  2
KLON32
 70
     0
 71
     0
 10
0.0
 20
0.0
 30
0.0
  3
KLON32
  1

  4
KLON32
  0
LINE
  5
69B
330
698
100
AcDbEntity
  8
LC-001-100-D00-0
 62
     7
370
    25
100
AcDbLine
 10
397.585095
 20
392.410548
 30
0.0
 11
400.984242
 21
395.809695
 31
0.0
  0
LINE
  5
69C
330
698
100
AcDbEntity
  8
LC-001-100-D00-0
 62
     7
370
    25
100
AcDbLine
 10
409.145537
 20
403.970991
 30
0.0
 11
409.484242
 21
404.309696
 31
0.0
  0
ENDBLK
  5
69A
330
698
100
AcDbEntity
  8
0
100
AcDbBlockEnd
  0
BLOCK
  5
6A1
330
6A0
100
AcDbEntity
  8
0
100
AcDbBlockBegin
  2
KLON33
 70
     0
 71
     0
 10
0.0
 20
0.0
 30
0.0
  3
KLON33
  1

  4
KLON33
  0
LINE
  5
6A3
330
6A0
100
AcDbEntity
  8
LC-001-100-D00-0
 62
     7
370
    50
100
AcDbLine
 10
225.540422
 20
399.970991
 30
0.0
 11
230.984242
 21
405.414812
 31
0.0
  0
LINE
  5
6A4
330
6A0
100
AcDbEntity
  8
LC-001-100-D00-0
 62
     7
370
    50
100
AcDbLine
 10
233.540421
 20
407.970991
 30
0.0
 11
236.540421
 21
410.970991
 31
0.0
  0
ENDBLK
  5
6A2
330
6A0
100
AcDbEntity
  8
0
100
AcDbBlockEnd
  0
BLOCK
  5
6A9
330
6A8
100
AcDbEntity
  8
0
100
AcDbBlockBegin
  2
KLON34
 70
     0
 71
     0
 10
0.0
 20
0.0
 30
0.0
  3
KLON34
  1

  4
KLON34
  0
LINE
  5
6AB
330
6A8
100
AcDbEntity
  8
LC-001-100-D00-0
 62
     7
370
    25
100
AcDbLine
 10
5.034027
 20
403.970991
 30
0.0
 11
5.984242
 21
404.921207
 31
0.0
  0
LINE
  5
6AC
330
6A8
100
AcDbEntity
  8
LC-001-100-D00-0
 62
     7
370
    25
100
AcDbLine
 10
9.034026
 20
407.970991
 30
0.0
 11
12.034026
 21
410.970991
 31
0.0
  0
ENDBLK
  5
6AA
330
6A8
100
AcDbEntity
  8
0
100
AcDbBlockEnd
  0
BLOCK
  5
6C5
330
6BB
100
AcDbEntity
  8
0
100
AcDbBlockBegin
  2
*D42
 70
     1
 71
     0
 10
0.0
 20
0.0
 30
0.0
  3
*D42
  1

  0
LINE
  5
6BC
330
6BB
100
AcDbEntity
  8
LC-002-003-----0
 62
     2
370
    -2
100
AcDbLine
 10
-228.765752
 20
410.970991
 30
0.0
 11
-228.765752
 21
490.15099
 31
0.0
  0
LINE
  5
6BD
330
6BB
100
AcDbEntity
  8
LC-002-003-----0
 62
     2
370
    -2
100
AcDbLine
 10
471.234236
 20
410.970991
 30
0.0
 11
471.234236
 21
490.15099
 31
0.0
  0
LINE
  5
6BE
330
6BB
100
AcDbEntity
  8
LC-002-003-----0
 62
     2
370
    -2
100
AcDbLine
 10
-200.765752
 20
486.55099
 30
0.0
 11
443.234236
 21
486.55099
 31
0.0
  0
SOLID
  5
6BF
330
6BB
100
AcDbEntity
  8
LC-002-003-----0
 62
     2
100
AcDbTrace
 10
-200.765752
 20
491.217657
 30
0.0
 11
-200.765752
 21
481.884324
 31
0.0
 12
-228.765752
 22
486.55099
 32
0.0
 13
-228.765752
 23
486.55099
 33
0.0
  0
SOLID
  5
6C0
330
6BB
100
AcDbEntity
  8
LC-002-003-----0
 62
     2
100
AcDbTrace
 10
443.234236
 20
481.884324
 30
0.0
 11
443.234236
 21
491.217657
 31
0.0
 12
471.234236
 22
486.55099
 32
0.0
 13
471.234236
 23
486.55099
 33
0.0
  0
MTEXT
  5
6C1
330
6BB
100
AcDbEntity
  8
LC-002-003-----0
 62
     2
100
AcDbMText
 10
116.430176
 20
517.35099
 30
0.0
 40
28.0
 41
0.0
 71
     5
 72
     1
  1
\A1;700
  7
LCTX15-400-0-0pDIN-Schrift
 73
     1
 44
1.0
  0
POINT
  5
6C2
330
6BB
100
AcDbEntity
  8
Defpoints
 62
     0
100
AcDbPoint
 10
-228.765752
 20
410.970991
 30
0.0
  0
POINT
  5
6C3
330
6BB
100
AcDbEntity
  8
Defpoints
 62
     0
100
AcDbPoint
 10
471.234236
 20
410.970991
 30
0.0
  0
POINT
  5
6C4
330
6BB
100
AcDbEntity
  8
Defpoints
 62
     0
100
AcDbPoint
 10
471.234236
 20
486.55099
 30
0.0
  0
ENDBLK
  5
6C6
330
6BB
100
AcDbEntity
  8
0
100
AcDbBlockEnd
  0
BLOCK
  5
6D2
330
6C8
100
AcDbEntity
  8
0
100
AcDbBlockBegin
  2
*D43
 70
     1
 71
     0
 10
0.0
 20
0.0
 30
0.0
  3
*D43
  1

  0
LINE
  5
6C9
330
6C8
100
AcDbEntity
  8
LC-002-003-----0
 62
     2
370
    -2
100
AcDbLine
 10
-178.765758
 20
403.220991
 30
0.0
 11
-178.765758
 21
437.572668
 31
0.0
  0
LINE
  5
6CA
330
6C8
100
AcDbEntity
  8
LC-002-003-----0
 62
     2
370
    -2
100
AcDbLine
 10
421.234242
 20
403.220991
 30
0.0
 11
421.234242
 21
437.572668
 31
0.0
  0
LINE
  5
6CB
330
6C8
100
AcDbEntity
  8
LC-002-003-----0
 62
     2
370
    -2
100
AcDbLine
 10
-150.765758
 20
433.972668
 30
0.0
 11
393.234242
 21
433.972668
 31
0.0
  0
SOLID
  5
6CC
330
6C8
100
AcDbEntity
  8
LC-002-003-----0
 62
     2
100
AcDbTrace
 10
-150.765758
 20
438.639335
 30
0.0
 11
-150.765758
 21
429.306001
 31
0.0
 12
-178.765758
 22
433.972668
 32
0.0
 13
-178.765758
 23
433.972668
 33
0.0
  0
SOLID
  5
6CD
330
6C8
100
AcDbEntity
  8
LC-002-003-----0
 62
     2
100
AcDbTrace
 10
393.234242
 20
429.306001
 30
0.0
 11
393.234242
 21
438.639335
 31
0.0
 12
421.234242
 22
433.972668
 32
0.0
 13
421.234242
 23
433.972668
 33
0.0
  0
MTEXT
  5
6CE
330
6C8
100
AcDbEntity
  8
LC-002-003-----0
 62
     2
100
AcDbMText
 10
120.952968
 20
464.772668
 30
0.0
 40
28.0
 41
0.0
 71
     5
 72
     1
  1
\A1;600
  7
LCTX15-400-0-0pDIN-Schrift
 73
     1
 44
1.0
  0
POINT
  5
6CF
330
6C8
100
AcDbEntity
  8
Defpoints
 62
     0
100
AcDbPoint
 10
-178.765758
 20
403.220991
 30
0.0
  0
POINT
  5
6D0
330
6C8
100
AcDbEntity
  8
Defpoints
 62
     0
100
AcDbPoint
 10
421.234242
 20
403.220991
 30
0.0
  0
POINT
  5
6D1
330
6C8
100
AcDbEntity
  8
Defpoints
 62
     0
100
AcDbPoint
 10
421.234242
 20
433.972668
 30
0.0
  0
ENDBLK
  5
6D3
330
6C8
100
AcDbEntity
  8
0
100
AcDbBlockEnd
  0
BLOCK
  5
6DF
330
6D5
100
AcDbEntity
  8
0
100
AcDbBlockBegin
  2
*D44
 70
     1
 71
     0
 10
0.0
 20
0.0
 30
0.0
  3
*D44
  1

  0
LINE
  5
6D6
330
6D5
100
AcDbEntity
  8
LC-002-003-----0
 62
     2
370
    -2
100
AcDbLine
 10
-228.765752
 20
410.970991
 30
0.0
 11
-239.929867
 21
410.970991
 31
0.0
  0
LINE
  5
6D7
330
6D5
100
AcDbEntity
  8
LC-002-003-----0
 62
     2
370
    -2
100
AcDbLine
 10
8.734241
 20
303.27826
 30
0.0
 11
-239.929867
 21
303.27826
 31
0.0
  0
LINE
  5
6D8
330
6D5
100
AcDbEntity
  8
LC-002-003-----0
 62
     2
370
    -2
100
AcDbLine
 10
-236.329867
 20
382.970991
 30
0.0
 11
-236.329867
 21
331.27826
 31
0.0
  0
SOLID
  5
6D9
330
6D5
100
AcDbEntity
  8
LC-002-003-----0
 62
     2
100
AcDbTrace
 10
-231.663201
 20
382.970991
 30
0.0
 11
-240.996534
 21
382.970991
 31
0.0
 12
-236.329867
 22
410.970991
 32
0.0
 13
-236.329867
 23
410.970991
 33
0.0
  0
SOLID
  5
6DA
330
6D5
100
AcDbEntity
  8
LC-002-003-----0
 62
     2
100
AcDbTrace
 10
-240.996534
 20
331.27826
 30
0.0
 11
-231.663201
 21
331.27826
 31
0.0
 12
-236.329867
 22
303.27826
 32
0.0
 13
-236.329867
 23
303.27826
 33
0.0
  0
MTEXT
  5
6DB
330
6D5
100
AcDbEntity
  8
LC-002-003-----0
 62
     2
100
AcDbMText
 10
-267.129867
 20
358.12317
 30
0.0
 40
28.0
 41
0.0
 71
     5
 72
     1
  1
\A1;31-100
  7
LCTX15-400-0-0pDIN-Schrift
 11
6.123031769111886E-17
 21
1.0
 31
0.0
 73
     1
 44
1.0
  0
POINT
  5
6DC
330
6D5
100
AcDbEntity
  8
Defpoints
 62
     0
100
AcDbPoint
 10
-228.765752
 20
410.970991
 30
0.0
  0
POINT
  5
6DD
330
6D5
100
AcDbEntity
  8
Defpoints
 62
     0
100
AcDbPoint
 10
8.734241
 20
303.27826
 30
0.0
  0
POINT
  5
6DE
330
6D5
100
AcDbEntity
  8
Defpoints
 62
     0
100
AcDbPoint
 10
-236.329867
 20
303.27826
 30
0.0
  0
ENDBLK
  5
6E0
330
6D5
100
AcDbEntity
  8
0
100
AcDbBlockEnd
  0
BLOCK
  5
6EE
330
6E2
100
AcDbEntity
  8
0
100
AcDbBlockBegin
  2
*D45
 70
     1
 71
     0
 10
0.0
 20
0.0
 30
0.0
  3
*D45
  1

  0
LINE
  5
6E3
330
6E2
100
AcDbEntity
  8
LC-002-003-----0
 62
     2
370
    -2
100
AcDbLine
 10
92.234242
 20
319.070992
 30
0.0
 11
16.739183
 21
319.070992
 31
0.0
  0
LINE
  5
6E4
330
6E2
100
AcDbEntity
  8
LC-002-003-----0
 62
     2
370
    -2
100
AcDbLine
 10
81.741362
 20
369.470992
 30
0.0
 11
16.739183
 21
369.470992
 31
0.0
  0
LINE
  5
6E5
330
6E2
100
AcDbEntity
  8
LC-002-003-----0
 62
     2
370
    -2
100
AcDbLine
 10
20.339183
 20
291.070992
 30
0.0
 11
20.339183
 21
263.070992
 31
0.0
  0
LINE
  5
6E6
330
6E2
100
AcDbEntity
  8
LC-002-003-----0
 62
     2
370
    -2
100
AcDbLine
 10
20.339183
 20
397.470992
 30
0.0
 11
20.339183
 21
425.470992
 31
0.0
  0
LINE
  5
6E7
330
6E2
100
AcDbEntity
  8
LC-002-003-----0
 62
     2
370
    -2
100
AcDbLine
 10
20.339183
 20
319.070992
 30
0.0
 11
20.339183
 21
369.470992
 31
0.0
  0
SOLID
  5
6E8
330
6E2
100
AcDbEntity
  8
LC-002-003-----0
 62
     2
100
AcDbTrace
 10
25.005849
 20
291.070992
 30
0.0
 11
15.672516
 21
291.070992
 31
0.0
 12
20.339183
 22
319.070992
 32
0.0
 13
20.339183
 23
319.070992
 33
0.0
  0
SOLID
  5
6E9
330
6E2
100
AcDbEntity
  8
LC-002-003-----0
 62
     2
100
AcDbTrace
 10
15.672516
 20
397.470992
 30
0.0
 11
25.005849
 21
397.470992
 31
0.0
 12
20.339183
 22
369.470992
 32
0.0
 13
20.339183
 23
369.470992
 33
0.0
  0
MTEXT
  5
6EA
330
6E2
100
AcDbEntity
  8
LC-002-003-----0
 62
     2
100
AcDbMText
 10
-10.460817
 20
350.655218
 30
0.0
 40
28.0
 41
0.0
 71
     5
 72
     1
  1
\A1;50
  7
LCTX15-400-0-0pDIN-Schrift
 11
6.123031769111886E-17
 21
1.0
 31
0.0
 73
     1
 44
1.0
  0
POINT
  5
6EB
330
6E2
100
AcDbEntity
  8
Defpoints
 62
     0
100
AcDbPoint
 10
92.234242
 20
319.070992
 30
0.0
  0
POINT
  5
6EC
330
6E2
100
AcDbEntity
  8
Defpoints
 62
     0
100
AcDbPoint
 10
81.741362
 20
369.470992
 30
0.0
  0
POINT
  5
6ED
330
6E2
100
AcDbEntity
  8
Defpoints
 62
     0
100
AcDbPoint
 10
20.339183
 20
369.470992
 30
0.0
  0
ENDBLK
  5
6EF
330
6E2
100
AcDbEntity
  8
0
100
AcDbBlockEnd
  0
BLOCK
  5
6FB
330
6F1
100
AcDbEntity
  8
0
100
AcDbBlockBegin
  2
*D46
 70
     1
 71
     0
 10
0.0
 20
0.0
 30
0.0
  3
*D46
  1

  0
LINE
  5
6F2
330
6F1
100
AcDbEntity
  8
LC-002-003-----0
 62
     2
370
    -2
100
AcDbLine
 10
8.800494
 20
303.277162
 30
0.0
 11
-21.91392
 21
303.277162
 31
0.0
  0
LINE
  5
6F3
330
6F1
100
AcDbEntity
  8
LC-002-003-----0
 62
     2
370
    -2
100
AcDbLine
 10
76.249155
 20
210.607745
 30
0.0
 11
-21.91392
 21
210.607745
 31
0.0
  0
LINE
  5
6F4
330
6F1
100
AcDbEntity
  8
LC-002-003-----0
 62
     2
370
    -2
100
AcDbLine
 10
-18.31392
 20
275.277162
 30
0.0
 11
-18.31392
 21
238.607745
 31
0.0
  0
SOLID
  5
6F5
330
6F1
100
AcDbEntity
  8
LC-002-003-----0
 62
     2
100
AcDbTrace
 10
-13.647253
 20
275.277162
 30
0.0
 11
-22.980587
 21
275.277162
 31
0.0
 12
-18.31392
 22
303.277162
 32
0.0
 13
-18.31392
 23
303.277162
 33
0.0
  0
SOLID
  5
6F6
330
6F1
100
AcDbEntity
  8
LC-002-003-----0
 62
     2
100
AcDbTrace
 10
-22.980587
 20
238.607745
 30
0.0
 11
-13.647253
 21
238.607745
 31
0.0
 12
-18.31392
 22
210.607745
 32
0.0
 13
-18.31392
 23
210.607745
 33
0.0
  0
MTEXT
  5
6F7
330
6F1
100
AcDbEntity
  8
LC-002-003-----0
 62
     2
100
AcDbMText
 10
-49.11392
 20
262.01899
 30
0.0
 40
28.0
 41
0.0
 71
     5
 72
     1
  1
\A1;93
  7
LCTX15-400-0-0pDIN-Schrift
 11
6.123031769111886E-17
 21
1.0
 31
0.0
 73
     1
 44
1.0
  0
POINT
  5
6F8
330
6F1
100
AcDbEntity
  8
Defpoints
 62
     0
100
AcDbPoint
 10
8.800494
 20
303.277162
 30
0.0
  0
POINT
  5
6F9
330
6F1
100
AcDbEntity
  8
Defpoints
 62
     0
100
AcDbPoint
 10
76.249155
 20
210.607745
 30
0.0
  0
POINT
  5
6FA
330
6F1
100
AcDbEntity
  8
Defpoints
 62
     0
100
AcDbPoint
 10
-18.31392
 20
210.607745
 30
0.0
  0
ENDBLK
  5
6FC
330
6F1
100
AcDbEntity
  8
0
100
AcDbBlockEnd
  0
BLOCK
  5
708
330
6FE
100
AcDbEntity
  8
0
100
AcDbBlockBegin
  2
*D47
 70
     1
 71
     0
 10
0.0
 20
0.0
 30
0.0
  3
*D47
  1

  0
LINE
  5
6FF
330
6FE
100
AcDbEntity
  8
LC-002-003-----0
 62
     2
370
    -2
100
AcDbLine
 10
471.234236
 20
410.970991
 30
0.0
 11
499.441183
 21
410.970991
 31
0.0
  0
LINE
  5
700
330
6FE
100
AcDbEntity
  8
LC-002-003-----0
 62
     2
370
    -2
100
AcDbLine
 10
330.734242
 20
276.470991
 30
0.0
 11
499.441183
 21
276.470991
 31
0.0
  0
LINE
  5
701
330
6FE
100
AcDbEntity
  8
LC-002-003-----0
 62
     2
370
    -2
100
AcDbLine
 10
495.841183
 20
382.970991
 30
0.0
 11
495.841183
 21
304.470991
 31
0.0
  0
SOLID
  5
702
330
6FE
100
AcDbEntity
  8
LC-002-003-----0
 62
     2
100
AcDbTrace
 10
500.507849
 20
382.970991
 30
0.0
 11
491.174516
 21
382.970991
 31
0.0
 12
495.841183
 22
410.970991
 32
0.0
 13
495.841183
 23
410.970991
 33
0.0
  0
SOLID
  5
703
330
6FE
100
AcDbEntity
  8
LC-002-003-----0
 62
     2
100
AcDbTrace
 10
491.174516
 20
304.470991
 30
0.0
 11
500.507849
 21
304.470991
 31
0.0
 12
495.841183
 22
276.470991
 32
0.0
 13
495.841183
 23
276.470991
 33
0.0
  0
MTEXT
  5
704
330
6FE
100
AcDbEntity
  8
LC-002-003-----0
 62
     2
100
AcDbMText
 10
465.041183
 20
343.99099
 30
0.0
 40
28.0
 41
0.0
 71
     5
 72
     1
  1
\A1;129,5
  7
LCTX15-400-0-0pDIN-Schrift
 11
6.123031769111886E-17
 21
1.0
 31
0.0
 73
     1
 44
1.0
  0
POINT
  5
705
330
6FE
100
AcDbEntity
  8
Defpoints
 62
     0
100
AcDbPoint
 10
471.234236
 20
410.970991
 30
0.0
  0
POINT
  5
706
330
6FE
100
AcDbEntity
  8
Defpoints
 62
     0
100
AcDbPoint
 10
330.734242
 20
276.470991
 30
0.0
  0
POINT
  5
707
330
6FE
100
AcDbEntity
  8
Defpoints
 62
     0
100
AcDbPoint
 10
495.841183
 20
276.470991
 30
0.0
  0
ENDBLK
  5
709
330
6FE
100
AcDbEntity
  8
0
100
AcDbBlockEnd
  0
BLOCK
  5
715
330
70B
100
AcDbEntity
  8
0
100
AcDbBlockBegin
  2
*D48
 70
     1
 71
     0
 10
0.0
 20
0.0
 30
0.0
  3
*D48
  1

  0
LINE
  5
70C
330
70B
100
AcDbEntity
  8
LC-002-003-----0
 62
     2
370
    -2
100
AcDbLine
 10
6.73424
 20
299.795282
 30
0.0
 11
6.73424
 21
1.143281
 31
0.0
  0
LINE
  5
70D
330
70B
100
AcDbEntity
  8
LC-002-003-----0
 62
     2
370
    -2
100
AcDbLine
 10
235.734242
 20
299.795282
 30
0.0
 11
235.734242
 21
1.143281
 31
0.0
  0
LINE
  5
70E
330
70B
100
AcDbEntity
  8
LC-002-003-----0
 62
     2
370
    -2
100
AcDbLine
 10
34.73424
 20
4.743281
 30
0.0
 11
207.734242
 21
4.743281
 31
0.0
  0
SOLID
  5
70F
330
70B
100
AcDbEntity
  8
LC-002-003-----0
 62
     2
100
AcDbTrace
 10
34.73424
 20
9.409948
 30
0.0
 11
34.73424
 21
0.076614
 31
0.0
 12
6.73424
 22
4.743281
 32
0.0
 13
6.73424
 23
4.743281
 33
0.0
  0
SOLID
  5
710
330
70B
100
AcDbEntity
  8
LC-002-003-----0
 62
     2
100
AcDbTrace
 10
207.734242
 20
0.076614
 30
0.0
 11
207.734242
 21
9.409948
 31
0.0
 12
235.734242
 22
4.743281
 32
0.0
 13
235.734242
 23
4.743281
 33
0.0
  0
MTEXT
  5
711
330
70B
100
AcDbEntity
  8
LC-002-003-----0
 62
     2
100
AcDbMText
 10
117.873356
 20
35.543281
 30
0.0
 40
28.0
 41
0.0
 71
     5
 72
     1
  1
\A1;%%c230
  7
LCTX15-400-0-0pDIN-Schrift
 73
     1
 44
1.0
  0
POINT
  5
712
330
70B
100
AcDbEntity
  8
Defpoints
 62
     0
100
AcDbPoint
 10
6.73424
 20
299.795282
 30
0.0
  0
POINT
  5
713
330
70B
100
AcDbEntity
  8
Defpoints
 62
     0
100
AcDbPoint
 10
235.734242
 20
299.795282
 30
0.0
  0
POINT
  5
714
330
70B
100
AcDbEntity
  8
Defpoints
 62
     0
100
AcDbPoint
 10
235.734242
 20
4.743281
 30
0.0
  0
ENDBLK
  5
716
330
70B
100
AcDbEntity
  8
0
100
AcDbBlockEnd
  0
BLOCK
  5
722
330
718
100
AcDbEntity
  8
0
100
AcDbBlockBegin
  2
*D49
 70
     1
 71
     0
 10
0.0
 20
0.0
 30
0.0
  3
*D49
  1

  0
LINE
  5
719
330
718
100
AcDbEntity
  8
LC-002-003-----0
 62
     2
370
    -2
100
AcDbLine
 10
58.234241
 20
270.607745
 30
0.0
 11
58.234241
 21
52.486509
 31
0.0
  0
LINE
  5
71A
330
718
100
AcDbEntity
  8
LC-002-003-----0
 62
     2
370
    -2
100
AcDbLine
 10
184.234242
 20
270.607744
 30
0.0
 11
184.234242
 21
52.486509
 31
0.0
  0
LINE
  5
71B
330
718
100
AcDbEntity
  8
LC-002-003-----0
 62
     2
370
    -2
100
AcDbLine
 10
86.234241
 20
56.086509
 30
0.0
 11
156.234242
 21
56.086509
 31
0.0
  0
SOLID
  5
71C
330
718
100
AcDbEntity
  8
LC-002-003-----0
 62
     2
100
AcDbTrace
 10
86.234241
 20
60.753176
 30
0.0
 11
86.234241
 21
51.419843
 31
0.0
 12
58.234241
 22
56.086509
 32
0.0
 13
58.234241
 23
56.086509
 33
0.0
  0
SOLID
  5
71D
330
718
100
AcDbEntity
  8
LC-002-003-----0
 62
     2
100
AcDbTrace
 10
156.234242
 20
51.419843
 30
0.0
 11
156.234242
 21
60.753176
 31
0.0
 12
184.234242
 22
56.086509
 32
0.0
 13
184.234242
 23
56.086509
 33
0.0
  0
MTEXT
  5
71E
330
718
100
AcDbEntity
  8
LC-002-003-----0
 62
     2
100
AcDbMText
 10
120.952968
 20
86.886509
 30
0.0
 40
28.0
 41
0.0
 71
     5
 72
     1
  1
\A1;%%c126
  7
LCTX15-400-0-0pDIN-Schrift
 73
     1
 44
1.0
  0
POINT
  5
71F
330
718
100
AcDbEntity
  8
Defpoints
 62
     0
100
AcDbPoint
 10
58.234241
 20
270.607745
 30
0.0
  0
POINT
  5
720
330
718
100
AcDbEntity
  8
Defpoints
 62
     0
100
AcDbPoint
 10
184.234242
 20
270.607744
 30
0.0
  0
POINT
  5
721
330
718
100
AcDbEntity
  8
Defpoints
 62
     0
100
AcDbPoint
 10
184.234242
 20
56.086509
 30
0.0
  0
ENDBLK
  5
723
330
718
100
AcDbEntity
  8
0
100
AcDbBlockEnd
  0
BLOCK
  5
72F
330
725
100
AcDbEntity
  8
0
100
AcDbBlockBegin
  2
*D50
 70
     1
 71
     0
 10
0.0
 20
0.0
 30
0.0
  3
*D50
  1

  0
LINE
  5
726
330
725
100
AcDbEntity
  8
LC-002-003-----0
 62
     2
370
    -2
100
AcDbLine
 10
66.234241
 20
227.5336
 30
0.0
 11
66.234241
 21
100.996203
 31
0.0
  0
LINE
  5
727
330
725
100
AcDbEntity
  8
LC-002-003-----0
 62
     2
370
    -2
100
AcDbLine
 10
176.234241
 20
229.770526
 30
0.0
 11
176.234241
 21
100.996203
 31
0.0
  0
LINE
  5
728
330
725
100
AcDbEntity
  8
LC-002-003-----0
 62
     2
370
    -2
100
AcDbLine
 10
94.234241
 20
104.596203
 30
0.0
 11
148.234241
 21
104.596203
 31
0.0
  0
SOLID
  5
729
330
725
100
AcDbEntity
  8
LC-002-003-----0
 62
     2
100
AcDbTrace
 10
94.234241
 20
109.26287
 30
0.0
 11
94.234241
 21
99.929536
 31
0.0
 12
66.234241
 22
104.596203
 32
0.0
 13
66.234241
 23
104.596203
 33
0.0
  0
SOLID
  5
72A
330
725
100
AcDbEntity
  8
LC-002-003-----0
 62
     2
100
AcDbTrace
 10
148.234241
 20
99.929536
 30
0.0
 11
148.234241
 21
109.26287
 31
0.0
 12
176.234241
 22
104.596203
 32
0.0
 13
176.234241
 23
104.596203
 33
0.0
  0
MTEXT
  5
72B
330
725
100
AcDbEntity
  8
LC-002-003-----0
 62
     2
100
AcDbMText
 10
117.174935
 20
135.396203
 30
0.0
 40
28.0
 41
0.0
 71
     5
 72
     1
  1
%%c\A1;110
  7
LCTX15-400-0-0pDIN-Schrift
 73
     1
 44
1.0
  0
POINT
  5
72C
330
725
100
AcDbEntity
  8
Defpoints
 62
     0
100
AcDbPoint
 10
66.234241
 20
227.5336
 30
0.0
  0
POINT
  5
72D
330
725
100
AcDbEntity
  8
Defpoints
 62
     0
100
AcDbPoint
 10
176.234241
 20
229.770526
 30
0.0
  0
POINT
  5
72E
330
725
100
AcDbEntity
  8
Defpoints
 62
     0
100
AcDbPoint
 10
176.234241
 20
104.596203
 30
0.0
  0
ENDBLK
  5
730
330
725
100
AcDbEntity
  8
0
100
AcDbBlockEnd
  0
BLOCK
  5
73D
330
732
100
AcDbEntity
  8
0
100
AcDbBlockBegin
  2
*D51
 70
     1
 71
     0
 10
0.0
 20
0.0
 30
0.0
  3
*D51
  1

  0
LINE
  5
733
330
732
100
AcDbEntity
  8
LC-002-003-----0
 62
     2
370
    -2
100
AcDbLine
 10
96.23424
 20
156.107758
 30
0.0
 11
96.23424
 21
170.587882
 31
0.0
  0
LINE
  5
734
330
732
100
AcDbEntity
  8
LC-002-003-----0
 62
     2
370
    -2
100
AcDbLine
 10
146.234241
 20
156.107758
 30
0.0
 11
146.234241
 21
170.587882
 31
0.0
  0
LINE
  5
735
330
732
100
AcDbEntity
  8
LC-002-003-----0
 62
     2
370
    -2
100
AcDbLine
 10
68.23424
 20
166.987882
 30
0.0
 11
40.23424
 21
166.987882
 31
0.0
  0
LINE
  5
736
330
732
100
AcDbEntity
  8
LC-002-003-----0
 62
     2
370
    -2
100
AcDbLine
 10
174.234241
 20
166.987882
 30
0.0
 11
271.696526
 21
166.987882
 31
0.0
  0
SOLID
  5
737
330
732
100
AcDbEntity
  8
LC-002-003-----0
 62
     2
100
AcDbTrace
 10
68.23424
 20
162.321215
 30
0.0
 11
68.23424
 21
171.654549
 31
0.0
 12
96.23424
 22
166.987882
 32
0.0
 13
96.23424
 23
166.987882
 33
0.0
  0
SOLID
  5
738
330
732
100
AcDbEntity
  8
LC-002-003-----0
 62
     2
100
AcDbTrace
 10
174.234241
 20
171.654549
 30
0.0
 11
174.234241
 21
162.321215
 31
0.0
 12
146.234241
 22
166.987882
 32
0.0
 13
146.234241
 23
166.987882
 33
0.0
  0
MTEXT
  5
739
330
732
100
AcDbEntity
  8
LC-002-003-----0
 62
     2
100
AcDbMText
 10
225.659768
 20
197.787882
 30
0.0
 40
28.0
 41
0.0
 71
     5
 72
     1
  1
\A1;DN50
  7
LCTX15-400-0-0pDIN-Schrift
 73
     1
 44
1.0
  0
POINT
  5
73A
330
732
100
AcDbEntity
  8
Defpoints
 62
     0
100
AcDbPoint
 10
96.23424
 20
156.107758
 30
0.0
  0
POINT
  5
73B
330
732
100
AcDbEntity
  8
Defpoints
 62
     0
100
AcDbPoint
 10
146.234241
 20
156.107758
 30
0.0
  0
POINT
  5
73C
330
732
100
AcDbEntity
  8
Defpoints
 62
     0
100
AcDbPoint
 10
146.234241
 20
166.987882
 30
0.0
  0
ENDBLK
  5
73E
330
732
100
AcDbEntity
  8
0
100
AcDbBlockEnd
  0
ENDSEC
  0
SECTION
  2
ENTITIES
  0
LINE
  5
31
102
{ACAD_REACTORS
330
73F
102
}
330
1F
100
AcDbEntity
  8
LC-001-100-D00-0
 62
     7
370
    50
100
AcDbLine
 10
48.079158
 20
291.033205
 30
0.0
 11
48.079158
 21
281.533201
 31
0.0
  0
ARC
  5
32
102
{ACAD_REACTORS
330
73F
102
}
330
1F
100
AcDbEntity
  8
LC-001-100-D00-0
 62
     7
370
    50
100
AcDbCircle
 10
54.079161
 20
285.607745
 30
0.0
 40
5.000000000000018
100
AcDbArc
 50
234.578322
 51
305.421678
  0
LINE
  5
33
102
{ACAD_REACTORS
330
73F
102
}
330
1F
100
AcDbEntity
  8
LC-001-100-D00-0
 62
     7
370
    50
100
AcDbLine
 10
160.948655
 20
376.970989
 30
0.0
 11
160.948655
 21
375.470989
 31
0.0
  0
LINE
  5
34
102
{ACAD_REACTORS
330
73F
102
}
330
1F
100
AcDbEntity
  8
LC-001-100-D00-0
 62
     7
370
    50
100
AcDbLine
 10
81.519826
 20
375.470989
 30
0.0
 11
81.519826
 21
376.970989
 31
0.0
  0
LINE
  5
35
102
{ACAD_REACTORS
330
73F
102
}
330
1F
100
AcDbEntity
  8
LC-001-100-D00-0
 62
     7
370
    50
100
AcDbLine
 10
6.73424
 20
299.795282
 30
0.0
 11
6.73424
 21
301.27826
 31
0.0
  0
LINE
  5
36
102
{ACAD_REACTORS
330
73F
102
}
330
1F
100
AcDbEntity
  8
LC-001-100-D00-0
 62
     7
370
    50
100
AcDbLine
 10
235.734242
 20
301.27826
 30
0.0
 11
235.734242
 21
299.795282
 31
0.0
  0
LINE
  5
37
102
{ACAD_REACTORS
330
73F
102
}
330
1F
100
AcDbEntity
  8
LC-001-100-D00-0
 62
     7
370
    50
100
AcDbLine
 10
8.800494
 20
303.277162
 30
0.0
 11
58.306026
 21
303.277162
 31
0.0
  0
LINE
  5
38
102
{ACAD_REACTORS
330
73F
102
}
330
1F
100
AcDbEntity
  8
LC-001-100-D00-0
 62
     7
370
    50
100
AcDbLine
 10
184.162455
 20
303.277162
 30
0.0
 11
233.667987
 21
303.277162
 31
0.0
  0
ARC
  5
39
102
{ACAD_REACTORS
330
73F
102
}
330
1F
100
AcDbEntity
  8
LC-001-100-D00-0
 62
     7
370
    50
100
AcDbCircle
 10
8.734241
 20
301.27826
 30
0.0
 40
1.999999999999932
100
AcDbArc
 50
88.101637
 51
180.0
  0
ARC
  5
3A
102
{ACAD_REACTORS
330
73F
102
}
330
1F
100
AcDbEntity
  8
LC-001-100-D00-0
 62
     7
370
    50
100
AcDbCircle
 10
233.734241
 20
301.27826
 30
0.0
 40
2.000000000000057
100
AcDbArc
 50
0.0
 51
91.898363
  0
LINE
  5
3B
102
{ACAD_REACTORS
330
73F
102
}
330
1F
100
AcDbEntity
  8
LC-001-100-D00-0
 62
     7
370
    50
100
AcDbLine
 10
226.752209
 20
299.4858
 30
0.0
 11
235.734242
 21
299.795282
 31
0.0
  0
LINE
  5
3C
102
{ACAD_REACTORS
330
73F
102
}
330
1F
100
AcDbEntity
  8
LC-001-100-D00-0
 62
     7
370
    50
100
AcDbLine
 10
6.73424
 20
299.795282
 30
0.0
 11
15.716272
 21
299.4858
 31
0.0
  0
LINE
  5
3D
102
{ACAD_REACTORS
330
73F
102
}
330
1F
100
AcDbEntity
  8
LC-001-100-D00-0
 62
     7
370
    50
100
AcDbLine
 10
226.393486
 20
303.036054
 30
0.0
 11
233.667987
 21
303.277162
 31
0.0
  0
LINE
  5
3E
102
{ACAD_REACTORS
330
73F
102
}
330
1F
100
AcDbEntity
  8
LC-001-100-D00-0
 62
     7
370
    50
100
AcDbLine
 10
16.074995
 20
303.036054
 30
0.0
 11
58.949108
 21
303.036054
 31
0.0
  0
LINE
  5
3F
102
{ACAD_REACTORS
330
73F
102
}
330
1F
100
AcDbEntity
  8
LC-001-100-D00-0
 62
     7
370
    50
100
AcDbLine
 10
183.519373
 20
303.036054
 30
0.0
 11
226.393486
 21
303.036054
 31
0.0
  0
LINE
  5
40
102
{ACAD_REACTORS
330
73F
102
}
330
1F
100
AcDbEntity
  8
LC-001-100-D00-0
 62
     7
370
    50
100
AcDbLine
 10
8.800494
 20
303.277162
 30
0.0
 11
16.074995
 21
303.036054
 31
0.0
  0
LINE
  5
41
102
{ACAD_REACTORS
330
73F
102
}
330
1F
100
AcDbEntity
  8
LC-001-100-D00-0
 62
     7
370
    50
100
AcDbLine
 10
206.885512
 20
293.411945
 30
0.0
 11
226.752209
 21
299.4858
 31
0.0
  0
LINE
  5
42
102
{ACAD_REACTORS
330
73F
102
}
330
1F
100
AcDbEntity
  8
LC-001-100-D00-0
 62
     7
370
    50
100
AcDbLine
 10
15.716272
 20
299.4858
 30
0.0
 11
35.58297
 21
293.411945
 31
0.0
  0
LINE
  5
43
102
{ACAD_REACTORS
330
73F
102
}
330
1F
100
AcDbEntity
  8
LC-001-100-D00-0
 62
     7
370
    50
100
AcDbLine
 10
206.234242
 20
296.872747
 30
0.0
 11
226.393486
 21
303.036054
 31
0.0
  0
LINE
  5
44
102
{ACAD_REACTORS
330
73F
102
}
330
1F
100
AcDbEntity
  8
LC-001-100-D00-0
 62
     7
370
    50
100
AcDbLine
 10
16.074995
 20
303.036054
 30
0.0
 11
36.23424
 21
296.872747
 31
0.0
  0
LINE
  5
45
102
{ACAD_REACTORS
330
73F
102
}
330
1F
100
AcDbEntity
  8
LC-001-100-D00-0
 62
     7
370
    50
100
AcDbLine
 10
204.20711
 20
291.033205
 30
0.0
 11
206.885512
 21
293.411945
 31
0.0
  0
LINE
  5
46
102
{ACAD_REACTORS
330
73F
102
}
330
1F
100
AcDbEntity
  8
LC-001-100-D00-0
 62
     7
370
    50
100
AcDbLine
 10
35.58297
 20
293.411945
 30
0.0
 11
38.261371
 21
291.033205
 31
0.0
  0
LINE
  5
47
102
{ACAD_REACTORS
330
73F
102
}
330
1F
100
AcDbEntity
  8
LC-001-100-D00-0
 62
     7
370
    50
100
AcDbLine
 10
38.234244
 20
296.872747
 30
0.0
 11
38.234244
 21
293.372747
 31
0.0
  0
LINE
  5
48
102
{ACAD_REACTORS
330
73F
102
}
330
1F
100
AcDbEntity
  8
LC-001-100-D00-0
 62
     7
370
    50
100
AcDbLine
 10
204.234238
 20
293.372747
 30
0.0
 11
204.234238
 21
296.872747
 31
0.0
  0
LINE
  5
49
102
{ACAD_REACTORS
330
73F
102
}
330
1F
100
AcDbEntity
  8
LC-001-100-D00-0
 62
     7
370
    50
100
AcDbLine
 10
38.234244
 20
296.872747
 30
0.0
 11
45.234243
 21
296.872747
 31
0.0
  0
LINE
  5
4A
102
{ACAD_REACTORS
330
73F
102
}
330
1F
100
AcDbEntity
  8
LC-001-100-D00-0
 62
     7
370
    50
100
AcDbLine
 10
197.234238
 20
296.872747
 30
0.0
 11
204.234238
 21
296.872747
 31
0.0
  0
LINE
  5
4B
102
{ACAD_REACTORS
330
73F
102
}
330
1F
100
AcDbEntity
  8
LC-001-100-D00-0
 62
     7
370
    50
100
AcDbLine
 10
45.234243
 20
293.372747
 30
0.0
 11
45.234243
 21
296.872747
 31
0.0
  0
LINE
  5
4C
102
{ACAD_REACTORS
330
73F
102
}
330
1F
100
AcDbEntity
  8
LC-001-100-D00-0
 62
     7
370
    50
100
AcDbLine
 10
197.234238
 20
296.872747
 30
0.0
 11
197.234238
 21
293.372747
 31
0.0
  0
LINE
  5
4D
102
{ACAD_REACTORS
330
73F
102
}
330
1F
100
AcDbEntity
  8
LC-001-100-D00-0
 62
     7
370
    50
100
AcDbLine
 10
50.158481
 20
297.372748
 30
0.0
 11
50.234238
 21
297.372748
 31
0.0
  0
LINE
  5
4E
102
{ACAD_REACTORS
330
73F
102
}
330
1F
100
AcDbEntity
  8
LC-001-100-D00-0
 62
     7
370
    50
100
AcDbLine
 10
51.89282
 20
297.372748
 30
0.0
 11
52.234235
 21
297.372748
 31
0.0
  0
LINE
  5
4F
102
{ACAD_REACTORS
330
73F
102
}
330
1F
100
AcDbEntity
  8
LC-001-100-D00-0
 62
     7
370
    50
100
AcDbLine
 10
46.234238
 20
297.372748
 30
0.0
 11
48.234242
 21
297.372748
 31
0.0
  0
LINE
  5
50
102
{ACAD_REACTORS
330
73F
102
}
330
1F
100
AcDbEntity
  8
LC-001-100-D00-0
 62
     7
370
    50
100
AcDbLine
 10
45.945565
 20
296.872747
 30
0.0
 11
46.234238
 21
297.372748
 31
0.0
  0
LINE
  5
51
102
{ACAD_REACTORS
330
73F
102
}
330
1F
100
AcDbEntity
  8
LC-001-100-D00-0
 62
     7
370
    50
100
AcDbLine
 10
196.234244
 20
297.372748
 30
0.0
 11
196.522916
 21
296.872747
 31
0.0
  0
LINE
  5
52
102
{ACAD_REACTORS
330
73F
102
}
330
1F
100
AcDbEntity
  8
LC-001-100-D00-0
 62
     7
370
    50
100
AcDbLine
 10
194.23424
 20
297.372748
 30
0.0
 11
196.234244
 21
297.372748
 31
0.0
  0
LINE
  5
53
102
{ACAD_REACTORS
330
73F
102
}
330
1F
100
AcDbEntity
  8
LC-001-100-D00-0
 62
     7
370
    50
100
AcDbLine
 10
55.945675
 20
296.872747
 30
0.0
 11
56.234347
 21
297.372748
 31
0.0
  0
LINE
  5
54
102
{ACAD_REACTORS
330
73F
102
}
330
1F
100
AcDbEntity
  8
LC-001-100-D00-0
 62
     7
370
    50
100
AcDbLine
 10
186.234134
 20
297.372748
 30
0.0
 11
186.522807
 21
296.872747
 31
0.0
  0
LINE
  5
55
102
{ACAD_REACTORS
330
73F
102
}
330
1F
100
AcDbEntity
  8
LC-001-100-D00-0
 62
     7
370
    50
100
AcDbLine
 10
56.234347
 20
297.372748
 30
0.0
 11
57.234238
 21
297.372748
 31
0.0
  0
LINE
  5
56
102
{ACAD_REACTORS
330
73F
102
}
330
1F
100
AcDbEntity
  8
LC-001-100-D00-0
 62
     7
370
    50
100
AcDbLine
 10
185.234244
 20
297.372748
 30
0.0
 11
186.234134
 21
297.372748
 31
0.0
  0
LINE
  5
57
102
{ACAD_REACTORS
330
73F
102
}
330
1F
100
AcDbEntity
  8
LC-001-100-D00-0
 62
     7
370
    50
100
AcDbLine
 10
185.945461
 20
296.872747
 30
0.0
 11
186.234134
 21
297.372748
 31
0.0
  0
LINE
  5
58
102
{ACAD_REACTORS
330
73F
102
}
330
1F
100
AcDbEntity
  8
LC-001-100-D00-0
 62
     7
370
    50
100
AcDbLine
 10
56.234347
 20
297.372748
 30
0.0
 11
56.52302
 21
296.872747
 31
0.0
  0
LINE
  5
59
102
{ACAD_REACTORS
330
73F
102
}
330
1F
100
AcDbEntity
  8
LC-001-100-D00-0
 62
     7
370
    50
100
AcDbLine
 10
57.234238
 20
296.872747
 30
0.0
 11
57.234238
 21
298.372825
 31
0.0
  0
LINE
  5
5A
102
{ACAD_REACTORS
330
73F
102
}
330
1F
100
AcDbEntity
  8
LC-001-100-D00-0
 62
     7
370
    50
100
AcDbLine
 10
185.234244
 20
298.372825
 30
0.0
 11
185.234244
 21
296.872747
 31
0.0
  0
LINE
  5
5B
102
{ACAD_REACTORS
330
73F
102
}
330
1F
100
AcDbEntity
  8
LC-001-100-D00-0
 62
     7
370
    50
100
AcDbLine
 10
58.23424
 20
291.033205
 30
0.0
 11
58.23424
 21
270.607744
 31
0.0
  0
LINE
  5
5C
102
{ACAD_REACTORS
330
73F
102
}
330
1F
100
AcDbEntity
  8
LC-001-100-D00-0
 62
     7
370
    50
100
AcDbLine
 10
184.234242
 20
270.607744
 30
0.0
 11
184.234242
 21
291.033205
 31
0.0
  0
ARC
  5
5D
102
{ACAD_REACTORS
330
73F
102
}
330
1F
100
AcDbEntity
  8
LC-001-100-D00-0
 62
     7
370
    50
100
AcDbCircle
 10
181.234241
 20
270.607745
 30
0.0
 40
3.0
100
AcDbArc
 50
270.0
 51
0.0
  0
ARC
  5
5E
102
{ACAD_REACTORS
330
73F
102
}
330
1F
100
AcDbEntity
  8
LC-001-100-D00-0
 62
     7
370
    50
100
AcDbCircle
 10
61.234241
 20
270.607745
 30
0.0
 40
3.0
100
AcDbArc
 50
180.0
 51
270.0
  0
LINE
  5
5F
102
{ACAD_REACTORS
330
73F
102
}
330
1F
100
AcDbEntity
  8
LC-001-100-D00-0
 62
     7
370
    50
100
AcDbLine
 10
181.234239
 20
297.372748
 30
0.0
 11
182.234346
 21
298.372825
 31
0.0
  0
LINE
  5
60
102
{ACAD_REACTORS
330
73F
102
}
330
1F
100
AcDbEntity
  8
LC-001-100-D00-0
 62
     7
370
    50
100
AcDbLine
 10
61.234242
 20
297.372748
 30
0.0
 11
62.484241
 21
297.372748
 31
0.0
  0
LINE
  5
61
102
{ACAD_REACTORS
330
73F
102
}
330
1F
100
AcDbEntity
  8
LC-001-100-D00-0
 62
     7
370
    50
100
AcDbLine
 10
179.984241
 20
297.372748
 30
0.0
 11
181.234239
 21
297.372748
 31
0.0
  0
LINE
  5
62
102
{ACAD_REACTORS
330
73F
102
}
330
1F
100
AcDbEntity
  8
LC-001-100-D00-0
 62
     7
370
    50
100
AcDbLine
 10
60.234136
 20
298.372825
 30
0.0
 11
61.234242
 21
297.372748
 31
0.0
  0
LINE
  5
63
102
{ACAD_REACTORS
330
73F
102
}
330
1F
100
AcDbEntity
  8
LC-001-100-D00-0
 62
     7
370
    50
100
AcDbLine
 10
60.234136
 20
298.372825
 30
0.0
 11
62.484241
 21
298.372825
 31
0.0
  0
LINE
  5
64
102
{ACAD_REACTORS
330
73F
102
}
330
1F
100
AcDbEntity
  8
LC-001-100-D00-0
 62
     7
370
    50
100
AcDbLine
 10
179.984241
 20
298.372825
 30
0.0
 11
182.234346
 21
298.372825
 31
0.0
  0
LINE
  5
65
102
{ACAD_REACTORS
330
73F
102
}
330
1F
100
AcDbEntity
  8
LC-001-100-D00-0
 62
     7
370
    50
100
AcDbLine
 10
61.234242
 20
297.372748
 30
0.0
 11
61.234242
 21
270.607744
 31
0.0
  0
LINE
  5
66
102
{ACAD_REACTORS
330
73F
102
}
330
1F
100
AcDbEntity
  8
LC-001-100-D00-0
 62
     7
370
    50
100
AcDbLine
 10
181.234239
 20
270.607744
 30
0.0
 11
181.234239
 21
297.372748
 31
0.0
  0
LINE
  5
67
102
{ACAD_REACTORS
330
73F
102
}
330
1F
100
AcDbEntity
  8
LC-001-100-D00-0
 62
     7
370
    50
100
AcDbLine
 10
66.234241
 20
225.304012
 30
0.0
 11
66.234241
 21
267.607738
 31
0.0
  0
LINE
  5
68
102
{ACAD_REACTORS
330
73F
102
}
330
1F
100
AcDbEntity
  8
LC-001-100-D00-0
 62
     7
370
    50
100
AcDbLine
 10
176.23424
 20
267.607738
 30
0.0
 11
176.23424
 21
225.304012
 31
0.0
  0
LINE
  5
69
102
{ACAD_REACTORS
330
73F
102
}
330
1F
100
AcDbEntity
  8
LC-001-100-D00-0
 62
     7
370
    50
100
AcDbLine
 10
176.23424
 20
225.304012
 30
0.0
 11
172.892156
 21
212.831278
 31
0.0
  0
LINE
  5
6A
102
{ACAD_REACTORS
330
73F
102
}
330
1F
100
AcDbEntity
  8
LC-001-100-D00-0
 62
     7
370
    50
100
AcDbLine
 10
69.576326
 20
212.831278
 30
0.0
 11
66.234241
 21
225.304012
 31
0.0
  0
LINE
  5
6B
102
{ACAD_REACTORS
330
73F
102
}
330
1F
100
AcDbEntity
  8
LC-001-100-D00-0
 62
     7
370
    50
100
AcDbLine
 10
69.23424
 20
225.501497
 30
0.0
 11
69.23424
 21
270.607744
 31
0.0
  0
LINE
  5
6C
102
{ACAD_REACTORS
330
73F
102
}
330
1F
100
AcDbEntity
  8
LC-001-100-D00-0
 62
     7
370
    50
100
AcDbLine
 10
173.234242
 20
270.607744
 30
0.0
 11
173.234242
 21
225.501497
 31
0.0
  0
LINE
  5
6D
102
{ACAD_REACTORS
330
73F
102
}
330
1F
100
AcDbEntity
  8
LC-001-100-D00-0
 62
     7
370
    50
100
AcDbLine
 10
69.23424
 20
270.607744
 30
0.0
 11
173.234242
 21
270.607744
 31
0.0
  0
ARC
  5
6E
102
{ACAD_REACTORS
330
73F
102
}
330
1F
100
AcDbEntity
  8
LC-001-100-D00-0
 62
     7
370
    50
100
AcDbCircle
 10
70.734241
 20
225.501495
 30
0.0
 40
1.5
100
AcDbArc
 50
180.0
 51
195.000309
  0
ARC
  5
6F
102
{ACAD_REACTORS
330
73F
102
}
330
1F
100
AcDbEntity
  8
LC-001-100-D00-0
 62
     7
370
    50
100
AcDbCircle
 10
171.734241
 20
225.501495
 30
0.0
 40
1.50000000000004
100
AcDbArc
 50
344.999691
 51
0.0
  0
LINE
  5
70
102
{ACAD_REACTORS
330
73F
102
}
330
1F
100
AcDbEntity
  8
LC-001-100-D00-0
 62
     7
370
    50
100
AcDbLine
 10
173.183127
 20
225.113262
 30
0.0
 11
170.561994
 21
215.331276
 31
0.0
  0
LINE
  5
71
102
{ACAD_REACTORS
330
73F
102
}
330
1F
100
AcDbEntity
  8
LC-001-100-D00-0
 62
     7
370
    50
100
AcDbLine
 10
71.906487
 20
215.331276
 30
0.0
 11
69.285354
 21
225.113262
 31
0.0
  0
ARC
  5
72
102
{ACAD_REACTORS
330
73F
102
}
330
1F
100
AcDbEntity
  8
LC-001-100-D00-0
 62
     7
370
    50
100
AcDbCircle
 10
72.4741
 20
213.607745
 30
0.0
 40
3.000000000000007
100
AcDbArc
 50
195.000108
 51
270.0
  0
ARC
  5
73
102
{ACAD_REACTORS
330
73F
102
}
330
1F
100
AcDbEntity
  8
LC-001-100-D00-0
 62
     7
370
    50
100
AcDbCircle
 10
169.994382
 20
213.607745
 30
0.0
 40
3.000000000000057
100
AcDbArc
 50
270.0
 51
344.999892
  0
ARC
  5
74
102
{ACAD_REACTORS
330
73F
102
}
330
1F
100
AcDbEntity
  8
LC-001-100-D00-0
 62
     7
370
    50
100
AcDbCircle
 10
74.804259
 20
216.107745
 30
0.0
 40
3.00000000000001
100
AcDbArc
 50
195.000309
 51
270.0
  0
ARC
  5
75
102
{ACAD_REACTORS
330
73F
102
}
330
1F
100
AcDbEntity
  8
LC-001-100-D00-0
 62
     7
370
    50
100
AcDbCircle
 10
167.664222
 20
216.107745
 30
0.0
 40
3.0
100
AcDbArc
 50
270.0
 51
344.999691
  0
LINE
  5
76
102
{ACAD_REACTORS
330
73F
102
}
330
1F
100
AcDbEntity
  8
LC-001-100-D00-0
 62
     7
370
    50
100
AcDbLine
 10
187.945458
 20
296.872747
 30
0.0
 11
188.234131
 21
297.372748
 31
0.0
  0
LINE
  5
77
102
{ACAD_REACTORS
330
73F
102
}
330
1F
100
AcDbEntity
  8
LC-001-100-D00-0
 62
     7
370
    50
100
AcDbLine
 10
188.234131
 20
297.372748
 30
0.0
 11
188.522811
 21
296.872747
 31
0.0
  0
LINE
  5
78
102
{ACAD_REACTORS
330
73F
102
}
330
1F
100
AcDbEntity
  8
LC-001-100-D00-0
 62
     7
370
    50
100
AcDbLine
 10
189.945566
 20
296.872747
 30
0.0
 11
190.234246
 21
297.372748
 31
0.0
  0
LINE
  5
79
102
{ACAD_REACTORS
330
73F
102
}
330
1F
100
AcDbEntity
  8
LC-001-100-D00-0
 62
     7
370
    50
100
AcDbLine
 10
190.234246
 20
297.372748
 30
0.0
 11
190.522919
 21
296.872747
 31
0.0
  0
LINE
  5
7A
102
{ACAD_REACTORS
330
73F
102
}
330
1F
100
AcDbEntity
  8
LC-001-100-D00-0
 62
     7
370
    50
100
AcDbLine
 10
191.945563
 20
296.872747
 30
0.0
 11
192.234243
 21
297.372748
 31
0.0
  0
LINE
  5
7B
102
{ACAD_REACTORS
330
73F
102
}
330
1F
100
AcDbEntity
  8
LC-001-100-D00-0
 62
     7
370
    50
100
AcDbLine
 10
192.234243
 20
297.372748
 30
0.0
 11
192.522916
 21
296.872747
 31
0.0
  0
LINE
  5
7C
102
{ACAD_REACTORS
330
73F
102
}
330
1F
100
AcDbEntity
  8
LC-001-100-D00-0
 62
     7
370
    50
100
AcDbLine
 10
193.945567
 20
296.872747
 30
0.0
 11
194.23424
 21
297.372748
 31
0.0
  0
LINE
  5
7D
102
{ACAD_REACTORS
330
73F
102
}
330
1F
100
AcDbEntity
  8
LC-001-100-D00-0
 62
     7
370
    50
100
AcDbLine
 10
194.23424
 20
297.372748
 30
0.0
 11
194.522912
 21
296.872747
 31
0.0
  0
LINE
  5
7E
102
{ACAD_REACTORS
330
73F
102
}
330
1F
100
AcDbEntity
  8
LC-001-100-D00-0
 62
     7
370
    50
100
AcDbLine
 10
195.945564
 20
296.872747
 30
0.0
 11
196.234244
 21
297.372748
 31
0.0
  0
LINE
  5
7F
102
{ACAD_REACTORS
330
73F
102
}
330
1F
100
AcDbEntity
  8
LC-001-100-D00-0
 62
     7
370
    50
100
AcDbLine
 10
146.234241
 20
210.607742
 30
0.0
 11
146.234241
 21
156.107758
 31
0.0
  0
LINE
  5
80
102
{ACAD_REACTORS
330
73F
102
}
330
1F
100
AcDbEntity
  8
LC-001-100-D00-0
 62
     7
370
    50
100
AcDbLine
 10
145.296418
 20
152.607744
 30
0.0
 11
146.234241
 21
156.107758
 31
0.0
  0
LINE
  5
81
102
{ACAD_REACTORS
330
73F
102
}
330
1F
100
AcDbEntity
  8
LC-001-100-D00-0
 62
     7
370
    50
100
AcDbLine
 10
143.234241
 20
152.607744
 30
0.0
 11
145.296418
 21
152.607744
 31
0.0
  0
LINE
  5
82
102
{ACAD_REACTORS
330
73F
102
}
330
1F
100
AcDbEntity
  8
LC-001-100-D00-0
 62
     7
370
    50
100
AcDbLine
 10
143.234241
 20
152.607744
 30
0.0
 11
143.234241
 21
213.107739
 31
0.0
  0
LINE
  5
83
102
{ACAD_REACTORS
330
73F
102
}
330
1F
100
AcDbEntity
  8
LC-001-100-D00-0
 62
     7
370
    50
100
AcDbLine
 10
167.664221
 20
213.107739
 30
0.0
 11
143.234241
 21
213.107739
 31
0.0
  0
LINE
  5
84
102
{ACAD_REACTORS
330
73F
102
}
330
1F
100
AcDbEntity
  8
LC-001-100-D00-0
 62
     7
370
    50
100
AcDbLine
 10
169.994383
 20
210.607742
 30
0.0
 11
146.234241
 21
210.607742
 31
0.0
  0
LINE
  5
85
102
{ACAD_REACTORS
330
73F
102
}
330
1F
100
AcDbEntity
  8
LC-001-100-D00-0
 62
     7
370
    50
100
AcDbLine
 10
181.234239
 20
267.607738
 30
0.0
 11
176.23424
 21
267.607738
 31
0.0
  0
LINE
  5
86
102
{ACAD_REACTORS
330
73F
102
}
330
1F
100
AcDbEntity
  8
LC-001-100-D00-0
 62
     7
370
    50
100
AcDbLine
 10
173.234242
 20
270.607744
 30
0.0
 11
181.234239
 21
270.607744
 31
0.0
  0
LINE
  5
87
102
{ACAD_REACTORS
330
73F
102
}
330
1F
100
AcDbEntity
  8
LC-001-100-D00-0
 62
     7
370
    50
100
AcDbLine
 10
185.234244
 20
298.372825
 30
0.0
 11
182.234346
 21
298.372825
 31
0.0
  0
LINE
  5
88
102
{ACAD_REACTORS
330
73F
102
}
330
1F
100
AcDbEntity
  8
LC-001-100-D00-0
 62
     7
370
    50
100
AcDbLine
 10
185.234244
 20
296.872747
 30
0.0
 11
185.945461
 21
296.872747
 31
0.0
  0
LINE
  5
89
102
{ACAD_REACTORS
330
73F
102
}
330
1F
100
AcDbEntity
  8
LC-001-100-D00-0
 62
     7
370
    50
100
AcDbLine
 10
194.522912
 20
296.872747
 30
0.0
 11
195.945564
 21
296.872747
 31
0.0
  0
LINE
  5
8A
102
{ACAD_REACTORS
330
73F
102
}
330
1F
100
AcDbEntity
  8
LC-001-100-D00-0
 62
     7
370
    50
100
AcDbLine
 10
192.522916
 20
296.872747
 30
0.0
 11
193.945567
 21
296.872747
 31
0.0
  0
LINE
  5
8B
102
{ACAD_REACTORS
330
73F
102
}
330
1F
100
AcDbEntity
  8
LC-001-100-D00-0
 62
     7
370
    50
100
AcDbLine
 10
190.522919
 20
296.872747
 30
0.0
 11
191.945563
 21
296.872747
 31
0.0
  0
LINE
  5
8C
102
{ACAD_REACTORS
330
73F
102
}
330
1F
100
AcDbEntity
  8
LC-001-100-D00-0
 62
     7
370
    50
100
AcDbLine
 10
188.522811
 20
296.872747
 30
0.0
 11
189.945566
 21
296.872747
 31
0.0
  0
LINE
  5
8D
102
{ACAD_REACTORS
330
73F
102
}
330
1F
100
AcDbEntity
  8
LC-001-100-D00-0
 62
     7
370
    50
100
AcDbLine
 10
186.522807
 20
296.872747
 30
0.0
 11
187.945458
 21
296.872747
 31
0.0
  0
LINE
  5
8E
102
{ACAD_REACTORS
330
73F
102
}
330
1F
100
AcDbEntity
  8
LC-001-100-D00-0
 62
     7
370
    50
100
AcDbLine
 10
196.522916
 20
296.872747
 30
0.0
 11
197.234238
 21
296.872747
 31
0.0
  0
LINE
  5
8F
102
{ACAD_REACTORS
330
73F
102
}
330
1F
100
AcDbEntity
  8
LC-001-100-D00-0
 62
     7
370
    50
100
AcDbLine
 10
184.234242
 20
291.033205
 30
0.0
 11
204.20711
 21
291.033205
 31
0.0
  0
LINE
  5
90
102
{ACAD_REACTORS
330
73F
102
}
330
1F
100
AcDbEntity
  8
LC-001-100-D00-0
 62
     7
370
    50
100
AcDbLine
 10
197.234238
 20
293.372747
 30
0.0
 11
204.234238
 21
293.372747
 31
0.0
  0
LINE
  5
91
102
{ACAD_REACTORS
330
73F
102
}
330
1F
100
AcDbEntity
  8
LC-001-100-D00-0
 62
     7
370
    50
100
AcDbLine
 10
204.234238
 20
296.872747
 30
0.0
 11
206.234242
 21
296.872747
 31
0.0
  0
LINE
  5
92
102
{ACAD_REACTORS
330
73F
102
}
330
1F
100
AcDbEntity
  8
LC-001-100-D00-0
 62
     7
370
    50
100
AcDbLine
 10
99.234241
 20
213.107739
 30
0.0
 11
99.234241
 21
152.607744
 31
0.0
  0
LINE
  5
93
102
{ACAD_REACTORS
330
73F
102
}
330
1F
100
AcDbEntity
  8
LC-001-100-D00-0
 62
     7
370
    50
100
AcDbLine
 10
97.172064
 20
152.607744
 30
0.0
 11
99.234241
 21
152.607744
 31
0.0
  0
LINE
  5
94
102
{ACAD_REACTORS
330
73F
102
}
330
1F
100
AcDbEntity
  8
LC-001-100-D00-0
 62
     7
370
    50
100
AcDbLine
 10
96.23424
 20
156.107758
 30
0.0
 11
97.172064
 21
152.607744
 31
0.0
  0
LINE
  5
95
102
{ACAD_REACTORS
330
73F
102
}
330
1F
100
AcDbEntity
  8
LC-001-100-D00-0
 62
     7
370
    50
100
AcDbLine
 10
96.23424
 20
156.107758
 30
0.0
 11
96.23424
 21
210.607742
 31
0.0
  0
LINE
  5
96
102
{ACAD_REACTORS
330
73F
102
}
330
1F
100
AcDbEntity
  8
LC-001-100-D00-0
 62
     7
370
    50
100
AcDbLine
 10
46.234238
 20
297.372748
 30
0.0
 11
46.522918
 21
296.872747
 31
0.0
  0
LINE
  5
97
102
{ACAD_REACTORS
330
73F
102
}
330
1F
100
AcDbEntity
  8
LC-001-100-D00-0
 62
     7
370
    50
100
AcDbLine
 10
47.945569
 20
296.872747
 30
0.0
 11
48.234242
 21
297.372748
 31
0.0
  0
LINE
  5
98
102
{ACAD_REACTORS
330
73F
102
}
330
1F
100
AcDbEntity
  8
LC-001-100-D00-0
 62
     7
370
    50
100
AcDbLine
 10
48.234242
 20
297.372748
 30
0.0
 11
48.522915
 21
296.872747
 31
0.0
  0
LINE
  5
99
102
{ACAD_REACTORS
330
73F
102
}
330
1F
100
AcDbEntity
  8
LC-001-100-D00-0
 62
     7
370
    50
100
AcDbLine
 10
49.945566
 20
296.872747
 30
0.0
 11
50.234238
 21
297.372748
 31
0.0
  0
LINE
  5
9A
102
{ACAD_REACTORS
330
73F
102
}
330
1F
100
AcDbEntity
  8
LC-001-100-D00-0
 62
     7
370
    50
100
AcDbLine
 10
50.234238
 20
297.372748
 30
0.0
 11
50.522919
 21
296.872747
 31
0.0
  0
LINE
  5
9B
102
{ACAD_REACTORS
330
73F
102
}
330
1F
100
AcDbEntity
  8
LC-001-100-D00-0
 62
     7
370
    50
100
AcDbLine
 10
51.945562
 20
296.872747
 30
0.0
 11
52.234235
 21
297.372748
 31
0.0
  0
LINE
  5
9C
102
{ACAD_REACTORS
330
73F
102
}
330
1F
100
AcDbEntity
  8
LC-001-100-D00-0
 62
     7
370
    50
100
AcDbLine
 10
52.234235
 20
297.372748
 30
0.0
 11
52.522915
 21
296.872747
 31
0.0
  0
LINE
  5
9D
102
{ACAD_REACTORS
330
73F
102
}
330
1F
100
AcDbEntity
  8
LC-001-100-D00-0
 62
     7
370
    50
100
AcDbLine
 10
53.945671
 20
296.872747
 30
0.0
 11
54.234351
 21
297.372748
 31
0.0
  0
LINE
  5
9E
102
{ACAD_REACTORS
330
73F
102
}
330
1F
100
AcDbEntity
  8
LC-001-100-D00-0
 62
     7
370
    50
100
AcDbLine
 10
54.234351
 20
297.372748
 30
0.0
 11
54.523024
 21
296.872747
 31
0.0
  0
LINE
  5
9F
102
{ACAD_REACTORS
330
73F
102
}
330
1F
100
AcDbEntity
  8
LC-001-100-D00-0
 62
     7
370
    50
100
AcDbLine
 10
99.234241
 20
213.107739
 30
0.0
 11
74.80426
 21
213.107739
 31
0.0
  0
LINE
  5
A0
102
{ACAD_REACTORS
330
73F
102
}
330
1F
100
AcDbEntity
  8
LC-001-100-D00-0
 62
     7
370
    50
100
AcDbLine
 10
96.23424
 20
210.607742
 30
0.0
 11
72.474099
 21
210.607742
 31
0.0
  0
LINE
  5
A1
102
{ACAD_REACTORS
330
73F
102
}
330
1F
100
AcDbEntity
  8
LC-001-100-D00-0
 62
     7
370
    50
100
AcDbLine
 10
66.234241
 20
267.607738
 30
0.0
 11
61.234242
 21
267.607738
 31
0.0
  0
LINE
  5
A2
102
{ACAD_REACTORS
330
73F
102
}
330
1F
100
AcDbEntity
  8
LC-001-100-D00-0
 62
     7
370
    50
100
AcDbLine
 10
61.234242
 20
270.607744
 30
0.0
 11
69.23424
 21
270.607744
 31
0.0
  0
LINE
  5
A3
102
{ACAD_REACTORS
330
73F
102
}
330
1F
100
AcDbEntity
  8
LC-001-100-D00-0
 62
     7
370
    50
100
AcDbLine
 10
60.234136
 20
298.372825
 30
0.0
 11
57.234238
 21
298.372825
 31
0.0
  0
LINE
  5
A4
102
{ACAD_REACTORS
330
73F
102
}
330
1F
100
AcDbEntity
  8
LC-001-100-D00-0
 62
     7
370
    50
100
AcDbLine
 10
56.52302
 20
296.872747
 30
0.0
 11
57.234238
 21
296.872747
 31
0.0
  0
LINE
  5
A5
102
{ACAD_REACTORS
330
73F
102
}
330
1F
100
AcDbEntity
  8
LC-001-100-D00-0
 62
     7
370
    50
100
AcDbLine
 10
54.523024
 20
296.872747
 30
0.0
 11
55.945675
 21
296.872747
 31
0.0
  0
LINE
  5
A6
102
{ACAD_REACTORS
330
73F
102
}
330
1F
100
AcDbEntity
  8
LC-001-100-D00-0
 62
     7
370
    50
100
AcDbLine
 10
52.522915
 20
296.872747
 30
0.0
 11
53.945671
 21
296.872747
 31
0.0
  0
LINE
  5
A7
102
{ACAD_REACTORS
330
73F
102
}
330
1F
100
AcDbEntity
  8
LC-001-100-D00-0
 62
     7
370
    50
100
AcDbLine
 10
50.522919
 20
296.872747
 30
0.0
 11
51.945562
 21
296.872747
 31
0.0
  0
LINE
  5
A8
102
{ACAD_REACTORS
330
73F
102
}
330
1F
100
AcDbEntity
  8
LC-001-100-D00-0
 62
     7
370
    50
100
AcDbLine
 10
48.522915
 20
296.872747
 30
0.0
 11
49.945566
 21
296.872747
 31
0.0
  0
LINE
  5
A9
102
{ACAD_REACTORS
330
73F
102
}
330
1F
100
AcDbEntity
  8
LC-001-100-D00-0
 62
     7
370
    50
100
AcDbLine
 10
46.522918
 20
296.872747
 30
0.0
 11
47.945569
 21
296.872747
 31
0.0
  0
LINE
  5
AA
102
{ACAD_REACTORS
330
73F
102
}
330
1F
100
AcDbEntity
  8
LC-001-100-D00-0
 62
     7
370
    50
100
AcDbLine
 10
45.234243
 20
296.872747
 30
0.0
 11
45.945565
 21
296.872747
 31
0.0
  0
LINE
  5
AB
102
{ACAD_REACTORS
330
73F
102
}
330
1F
100
AcDbEntity
  8
LC-001-100-D00-0
 62
     7
370
    50
100
AcDbLine
 10
38.261371
 20
291.033205
 30
0.0
 11
58.23424
 21
291.033205
 31
0.0
  0
LINE
  5
AC
102
{ACAD_REACTORS
330
73F
102
}
330
1F
100
AcDbEntity
  8
LC-001-100-D00-0
 62
     7
370
    50
100
AcDbLine
 10
38.234244
 20
293.372747
 30
0.0
 11
45.234243
 21
293.372747
 31
0.0
  0
LINE
  5
AD
102
{ACAD_REACTORS
330
73F
102
}
330
1F
100
AcDbEntity
  8
LC-001-100-D00-0
 62
     7
370
    50
100
AcDbLine
 10
36.23424
 20
296.872747
 30
0.0
 11
38.234244
 21
296.872747
 31
0.0
  0
LINE
  5
AE
102
{ACAD_REACTORS
330
73F
102
}
330
1F
100
AcDbEntity
  8
LC-001-100-D00-0
 62
     7
370
    50
100
AcDbLine
 10
99.234241
 20
152.607744
 30
0.0
 11
143.234241
 21
152.607744
 31
0.0
  0
LINE
  5
AF
102
{ACAD_REACTORS
330
73F
102
}
330
1F
100
AcDbEntity
  8
LC-001-100-D00-0
 62
     7
370
    50
100
AcDbLine
 10
99.234241
 20
213.107739
 30
0.0
 11
143.234241
 21
213.107739
 31
0.0
  0
LINE
  5
B0
102
{ACAD_REACTORS
330
73F
102
}
330
1F
100
AcDbEntity
  8
LC-001-100-D00-0
 62
     7
370
    50
100
AcDbLine
 10
192.234243
 20
297.372748
 30
0.0
 11
194.23424
 21
297.372748
 31
0.0
  0
LINE
  5
B1
102
{ACAD_REACTORS
330
73F
102
}
330
1F
100
AcDbEntity
  8
LC-001-100-D00-0
 62
     7
370
    50
100
AcDbLine
 10
186.234134
 20
297.372748
 30
0.0
 11
188.234131
 21
297.372748
 31
0.0
  0
LINE
  5
B2
102
{ACAD_REACTORS
330
73F
102
}
330
1F
100
AcDbEntity
  8
LC-001-100-D00-0
 62
     7
370
    50
100
AcDbLine
 10
190.234246
 20
297.372748
 30
0.0
 11
192.234243
 21
297.372748
 31
0.0
  0
LINE
  5
B3
102
{ACAD_REACTORS
330
73F
102
}
330
1F
100
AcDbEntity
  8
LC-001-100-D00-0
 62
     7
370
    50
100
AcDbLine
 10
188.234131
 20
297.372748
 30
0.0
 11
190.234246
 21
297.372748
 31
0.0
  0
LINE
  5
B4
102
{ACAD_REACTORS
330
73F
102
}
330
1F
100
AcDbEntity
  8
LC-001-100-D00-0
 62
     7
370
    50
100
AcDbLine
 10
53.831289
 20
297.372748
 30
0.0
 11
54.034742
 21
297.027026
 31
0.0
  0
LINE
  5
B5
102
{ACAD_REACTORS
330
73F
102
}
330
1F
100
AcDbEntity
  8
LC-001-100-D00-0
 62
     7
370
    50
100
AcDbLine
 10
52.234235
 20
297.372748
 30
0.0
 11
53.831289
 21
297.372748
 31
0.0
  0
LINE
  5
B6
102
{ACAD_REACTORS
330
73F
102
}
330
1F
100
AcDbEntity
  8
LC-001-100-D00-0
 62
     7
370
    50
100
AcDbLine
 10
48.234242
 20
297.372748
 30
0.0
 11
50.158481
 21
297.372748
 31
0.0
  0
LINE
  5
B7
102
{ACAD_REACTORS
330
73F
102
}
330
1F
100
AcDbEntity
  8
LC-001-100-D00-0
 62
     7
370
    50
100
AcDbLine
 10
50.234238
 20
297.372748
 30
0.0
 11
51.89282
 21
297.372748
 31
0.0
  0
LINE
  5
B8
102
{ACAD_REACTORS
330
73F
102
}
330
1F
100
AcDbEntity
  8
LC-001-100-D00-0
 62
     7
370
    50
100
AcDbLine
 10
54.234351
 20
297.372748
 30
0.0
 11
55.963161
 21
297.372748
 31
0.0
  0
LINE
  5
B9
102
{ACAD_REACTORS
330
73F
102
}
330
1F
100
AcDbEntity
  8
LC-001-100-D00-0
 62
     7
370
    50
100
AcDbLine
 10
51.89282
 20
297.372748
 30
0.0
 11
52.057492
 21
297.066619
 31
0.0
  0
LINE
  5
BA
102
{ACAD_REACTORS
330
73F
102
}
330
1F
100
AcDbEntity
  8
LC-001-100-D00-0
 62
     7
370
    50
100
AcDbLine
 10
55.963161
 20
297.372748
 30
0.0
 11
56.10806
 21
297.154006
 31
0.0
  0
LINE
  5
BB
102
{ACAD_REACTORS
330
73F
102
}
330
1F
100
AcDbEntity
  8
LC-001-100-D00-0
 62
     7
370
    50
100
AcDbLine
 10
58.23424
 20
281.533201
 30
0.0
 11
52.386018
 21
281.533201
 31
0.0
  0
LINE
  5
BC
102
{ACAD_REACTORS
330
73F
102
}
330
1F
100
AcDbEntity
  8
LC-001-100-D00-0
 62
     7
370
    50
100
AcDbLine
 10
52.386018
 20
281.533201
 30
0.0
 11
48.079158
 21
281.533201
 31
0.0
  0
LINE
  5
BD
102
{ACAD_REACTORS
330
73F
102
}
330
1F
100
AcDbEntity
  8
LC-001-100-D00-0
 62
     7
370
    50
100
AcDbLine
 10
53.831289
 20
297.372748
 30
0.0
 11
54.234351
 21
297.372748
 31
0.0
  0
LINE
  5
BE
102
{ACAD_REACTORS
330
73F
102
}
330
1F
100
AcDbEntity
  8
LC-001-100-D00-0
 62
     7
370
    50
100
AcDbLine
 10
55.963161
 20
297.372748
 30
0.0
 11
56.234347
 21
297.372748
 31
0.0
  0
LINE
  5
BF
102
{ACAD_REACTORS
330
73F
102
}
330
1F
100
AcDbEntity
  8
LC-001-100-D00-0
 62
     7
370
    50
100
AcDbLine
 10
62.23424
 20
379.970991
 30
0.0
 11
62.23424
 21
380.597005
 31
0.0
  0
LINE
  5
C0
102
{ACAD_REACTORS
330
73F
102
}
330
1F
100
AcDbEntity
  8
LC-001-100-D00-0
 62
     7
370
    50
100
AcDbLine
 10
64.43424
 20
379.970991
 30
0.0
 11
62.23424
 21
379.970991
 31
0.0
  0
LINE
  5
C1
102
{ACAD_REACTORS
330
73F
102
}
330
1F
100
AcDbEntity
  8
LC-001-100-D00-0
 62
     7
370
    50
100
AcDbLine
 10
56.234243
 20
379.970991
 30
0.0
 11
56.234243
 21
383.97099
 31
0.0
  0
ARC
  5
C2
102
{ACAD_REACTORS
330
73F
102
}
330
1F
100
AcDbEntity
  8
LC-001-100-D00-0
 62
     7
370
    50
100
AcDbCircle
 10
61.854041
 20
382.97099
 30
0.0
 40
1.000000000000032
100
AcDbArc
 50
48.366461
 51
90.0
  0
LINE
  5
C3
102
{ACAD_REACTORS
330
73F
102
}
330
1F
100
AcDbEntity
  8
LC-001-100-D00-0
 62
     7
370
    50
100
AcDbLine
 10
65.870492
 20
380.738766
 30
0.0
 11
62.518406
 21
383.7184
 31
0.0
  0
ARC
  5
C4
102
{ACAD_REACTORS
330
73F
102
}
330
1F
100
AcDbEntity
  8
LC-001-100-D00-0
 62
     7
370
    50
100
AcDbCircle
 10
65.671184
 20
380.514543
 30
0.0
 40
0.2999999999999245
100
AcDbArc
 50
257.471192
 51
48.366461
  0
LINE
  5
C5
102
{ACAD_REACTORS
330
73F
102
}
330
1F
100
AcDbEntity
  8
LC-001-100-D00-0
 62
     7
370
    50
100
AcDbLine
 10
62.599319
 20
380.889862
 30
0.0
 11
65.606105
 21
380.221688
 31
0.0
  0
ARC
  5
C6
102
{ACAD_REACTORS
330
73F
102
}
330
1F
100
AcDbEntity
  8
LC-001-100-D00-0
 62
     7
370
    50
100
AcDbCircle
 10
62.534241
 20
380.597006
 30
0.0
 40
0.3000000000000355
100
AcDbArc
 50
77.471192
 51
180.0
  0
LINE
  5
C7
102
{ACAD_REACTORS
330
73F
102
}
330
1F
100
AcDbEntity
  8
LC-001-100-D00-0
 62
     7
370
    50
100
AcDbLine
 10
62.23424
 20
379.970991
 30
0.0
 11
56.234243
 21
379.970991
 31
0.0
  0
LINE
  5
C8
102
{ACAD_REACTORS
330
73F
102
}
330
1F
100
AcDbEntity
  8
LC-001-100-D00-0
 62
     7
370
    50
100
AcDbLine
 10
61.854041
 20
383.97099
 30
0.0
 11
61.027021
 21
383.97099
 31
0.0
  0
LINE
  5
C9
102
{ACAD_REACTORS
330
73F
102
}
330
1F
100
AcDbEntity
  8
LC-001-100-D00-0
 62
     7
370
    50
100
AcDbLine
 10
176.862377
 20
380.221688
 30
0.0
 11
179.869163
 21
380.889862
 31
0.0
  0
ARC
  5
CA
102
{ACAD_REACTORS
330
73F
102
}
330
1F
100
AcDbEntity
  8
LC-001-100-D00-0
 62
     7
370
    50
100
AcDbCircle
 10
176.797298
 20
380.514543
 30
0.0
 40
0.3000000000000965
100
AcDbArc
 50
131.633539
 51
282.528808
  0
LINE
  5
CB
102
{ACAD_REACTORS
330
73F
102
}
330
1F
100
AcDbEntity
  8
LC-001-100-D00-0
 62
     7
370
    50
100
AcDbLine
 10
179.950076
 20
383.7184
 30
0.0
 11
176.597989
 21
380.738766
 31
0.0
  0
ARC
  5
CC
102
{ACAD_REACTORS
330
73F
102
}
330
1F
100
AcDbEntity
  8
LC-001-100-D00-0
 62
     7
370
    50
100
AcDbCircle
 10
180.61444
 20
382.97099
 30
0.0
 40
1.0
100
AcDbArc
 50
90.0
 51
131.633539
  0
LINE
  5
CD
102
{ACAD_REACTORS
330
73F
102
}
330
1F
100
AcDbEntity
  8
LC-001-100-D00-0
 62
     7
370
    50
100
AcDbLine
 10
186.234238
 20
383.97099
 30
0.0
 11
186.234238
 21
379.970991
 31
0.0
  0
LINE
  5
CE
102
{ACAD_REACTORS
330
73F
102
}
330
1F
100
AcDbEntity
  8
LC-001-100-D00-0
 62
     7
370
    50
100
AcDbLine
 10
180.234241
 20
380.597005
 30
0.0
 11
180.234241
 21
379.970991
 31
0.0
  0
ARC
  5
CF
102
{ACAD_REACTORS
330
73F
102
}
330
1F
100
AcDbEntity
  8
LC-001-100-D00-0
 62
     7
370
    50
100
AcDbCircle
 10
179.934241
 20
380.597006
 30
0.0
 40
0.3000000000000682
100
AcDbArc
 50
0.0
 51
102.528808
  0
LINE
  5
D0
102
{ACAD_REACTORS
330
73F
102
}
330
1F
100
AcDbEntity
  8
LC-001-100-D00-0
 62
     7
370
    50
100
AcDbLine
 10
186.234238
 20
379.970991
 30
0.0
 11
180.234241
 21
379.970991
 31
0.0
  0
LINE
  5
D1
102
{ACAD_REACTORS
330
73F
102
}
330
1F
100
AcDbEntity
  8
LC-001-100-D00-0
 62
     7
370
    50
100
AcDbLine
 10
186.234238
 20
383.97099
 30
0.0
 11
180.61444
 21
383.97099
 31
0.0
  0
LINE
  5
D2
102
{ACAD_REACTORS
330
73F
102
}
330
1F
100
AcDbEntity
  8
LC-001-100-D00-0
 62
     7
370
    50
100
AcDbLine
 10
180.234241
 20
379.970991
 30
0.0
 11
178.034241
 21
379.970991
 31
0.0
  0
LINE
  5
D3
102
{ACAD_REACTORS
330
73F
102
}
330
1F
100
AcDbEntity
  8
LC-001-100-D00-0
 62
     7
370
    50
100
AcDbLine
 10
53.734238
 20
376.970989
 30
0.0
 11
53.734238
 21
380.970991
 31
0.0
  0
LINE
  5
D4
102
{ACAD_REACTORS
330
73F
102
}
330
1F
100
AcDbEntity
  8
LC-001-100-D00-0
 62
     7
370
    50
100
AcDbLine
 10
59.734239
 20
376.970989
 30
0.0
 11
59.734239
 21
379.970991
 31
0.0
  0
LINE
  5
D5
102
{ACAD_REACTORS
330
73F
102
}
330
1F
100
AcDbEntity
  8
LC-001-100-D00-0
 62
     7
370
    50
100
AcDbLine
 10
194.734241
 20
383.97099
 30
0.0
 11
185.734237
 21
383.97099
 31
0.0
  0
LINE
  5
D6
102
{ACAD_REACTORS
330
73F
102
}
330
1F
100
AcDbEntity
  8
LC-001-100-D00-0
 62
     7
370
    50
100
AcDbLine
 10
194.734241
 20
383.97099
 30
0.0
 11
194.734241
 21
379.47099
 31
0.0
  0
LINE
  5
D7
102
{ACAD_REACTORS
330
73F
102
}
330
1F
100
AcDbEntity
  8
LC-001-100-D00-0
 62
     7
370
    50
100
AcDbLine
 10
191.734242
 20
380.970991
 30
0.0
 11
191.734242
 21
379.47099
 31
0.0
  0
LINE
  5
D8
102
{ACAD_REACTORS
330
73F
102
}
330
1F
100
AcDbEntity
  8
LC-001-100-D00-0
 62
     7
370
    50
100
AcDbLine
 10
188.734243
 20
380.970991
 30
0.0
 11
188.734243
 21
376.970989
 31
0.0
  0
LINE
  5
D9
102
{ACAD_REACTORS
330
73F
102
}
330
1F
100
AcDbEntity
  8
LC-001-100-D00-0
 62
     7
370
    50
100
AcDbLine
 10
182.734242
 20
379.970991
 30
0.0
 11
182.734242
 21
376.970989
 31
0.0
  0
LINE
  5
DA
102
{ACAD_REACTORS
330
73F
102
}
330
1F
100
AcDbEntity
  8
LC-001-100-D00-0
 62
     7
370
    50
100
AcDbLine
 10
185.734237
 20
379.970991
 30
0.0
 11
185.734237
 21
383.97099
 31
0.0
  0
LINE
  5
DB
102
{ACAD_REACTORS
330
73F
102
}
330
1F
100
AcDbEntity
  8
LC-001-100-D00-0
 62
     7
370
    50
100
AcDbLine
 10
185.734237
 20
379.970991
 30
0.0
 11
182.734242
 21
379.970991
 31
0.0
  0
LINE
  5
DC
102
{ACAD_REACTORS
330
73F
102
}
330
1F
100
AcDbEntity
  8
LC-001-100-D00-0
 62
     7
370
    50
100
AcDbLine
 10
191.734242
 20
379.47099
 30
0.0
 11
194.734241
 21
379.47099
 31
0.0
  0
LINE
  5
DD
102
{ACAD_REACTORS
330
73F
102
}
330
1F
100
AcDbEntity
  8
LC-001-100-D00-0
 62
     7
370
    50
100
AcDbLine
 10
182.734242
 20
376.970989
 30
0.0
 11
188.734243
 21
376.970989
 31
0.0
  0
LINE
  5
DE
102
{ACAD_REACTORS
330
73F
102
}
330
1F
100
AcDbEntity
  8
LC-001-100-D00-0
 62
     7
370
    50
100
AcDbLine
 10
188.734243
 20
380.970991
 30
0.0
 11
191.734242
 21
380.970991
 31
0.0
  0
LINE
  5
DF
102
{ACAD_REACTORS
330
73F
102
}
330
1F
100
AcDbEntity
  8
LC-001-100-D00-0
 62
     7
370
    50
100
AcDbLine
 10
50.734239
 20
379.47099
 30
0.0
 11
50.734239
 21
380.970991
 31
0.0
  0
LINE
  5
E0
102
{ACAD_REACTORS
330
73F
102
}
330
1F
100
AcDbEntity
  8
LC-001-100-D00-0
 62
     7
370
    50
100
AcDbLine
 10
47.734241
 20
379.47099
 30
0.0
 11
47.734241
 21
383.97099
 31
0.0
  0
LINE
  5
E1
102
{ACAD_REACTORS
330
73F
102
}
330
1F
100
AcDbEntity
  8
LC-001-100-D00-0
 62
     7
370
    50
100
AcDbLine
 10
56.734244
 20
383.97099
 30
0.0
 11
47.734241
 21
383.97099
 31
0.0
  0
LINE
  5
E2
102
{ACAD_REACTORS
330
73F
102
}
330
1F
100
AcDbEntity
  8
LC-001-100-D00-0
 62
     7
370
    50
100
AcDbLine
 10
56.734244
 20
383.97099
 30
0.0
 11
56.734244
 21
379.970991
 31
0.0
  0
LINE
  5
E3
102
{ACAD_REACTORS
330
73F
102
}
330
1F
100
AcDbEntity
  8
LC-001-100-D00-0
 62
     7
370
    50
100
AcDbLine
 10
59.734239
 20
379.970991
 30
0.0
 11
56.734244
 21
379.970991
 31
0.0
  0
LINE
  5
E4
102
{ACAD_REACTORS
330
73F
102
}
330
1F
100
AcDbEntity
  8
LC-001-100-D00-0
 62
     7
370
    50
100
AcDbLine
 10
47.734241
 20
379.47099
 30
0.0
 11
50.734239
 21
379.47099
 31
0.0
  0
LINE
  5
E5
102
{ACAD_REACTORS
330
73F
102
}
330
1F
100
AcDbEntity
  8
LC-001-100-D00-0
 62
     7
370
    50
100
AcDbLine
 10
53.734238
 20
376.970989
 30
0.0
 11
59.734239
 21
376.970989
 31
0.0
  0
LINE
  5
E6
102
{ACAD_REACTORS
330
73F
102
}
330
1F
100
AcDbEntity
  8
LC-001-100-D00-0
 62
     7
370
    50
100
AcDbLine
 10
50.734239
 20
380.970991
 30
0.0
 11
53.734238
 21
380.970991
 31
0.0
  0
LINE
  5
E7
102
{ACAD_REACTORS
330
73F
102
}
330
1F
100
AcDbEntity
  8
LC-001-100-D00-0
 62
     7
370
    50
100
AcDbLine
 10
50.734239
 20
379.47099
 30
0.0
 11
53.734238
 21
379.47099
 31
0.0
  0
LINE
  5
E8
102
{ACAD_REACTORS
330
73F
102
}
330
1F
100
AcDbEntity
  8
LC-001-100-D00-0
 62
     7
370
    50
100
AcDbLine
 10
188.734243
 20
379.47099
 30
0.0
 11
191.734242
 21
379.47099
 31
0.0
  0
ARC
  5
E9
102
{ACAD_REACTORS
330
73F
102
}
330
1F
100
AcDbEntity
  8
LC-001-100-D00-0
 62
     7
370
    50
100
AcDbCircle
 10
183.784241
 20
371.02099
 30
0.0
 40
0.4499999999999494
100
AcDbArc
 50
276.83
 51
90.0
  0
ARC
  5
EA
102
{ACAD_REACTORS
330
73F
102
}
330
1F
100
AcDbEntity
  8
LC-001-100-D00-0
 62
     7
370
    50
100
AcDbCircle
 10
58.684241
 20
371.02099
 30
0.0
 40
0.4500000000000455
100
AcDbArc
 50
90.0
 51
263.17
  0
ARC
  5
EB
102
{ACAD_REACTORS
330
73F
102
}
330
1F
100
AcDbEntity
  8
LC-001-100-D00-0
 62
     7
370
    50
100
AcDbCircle
 10
183.784241
 20
333.52099
 30
0.0
 40
0.4500000000000624
100
AcDbArc
 50
276.83
 51
90.0
  0
ARC
  5
EC
102
{ACAD_REACTORS
330
73F
102
}
330
1F
100
AcDbEntity
  8
LC-001-100-D00-0
 62
     7
370
    50
100
AcDbCircle
 10
58.684241
 20
333.52099
 30
0.0
 40
0.4500000000000455
100
AcDbArc
 50
90.0
 51
263.17
  0
ARC
  5
ED
102
{ACAD_REACTORS
330
73F
102
}
330
1F
100
AcDbEntity
  8
LC-001-100-D00-0
 62
     7
370
    50
100
AcDbCircle
 10
183.784241
 20
356.02099
 30
0.0
 40
0.4500000000000624
100
AcDbArc
 50
276.83
 51
90.0
  0
ARC
  5
EE
102
{ACAD_REACTORS
330
73F
102
}
330
1F
100
AcDbEntity
  8
LC-001-100-D00-0
 62
     7
370
    50
100
AcDbCircle
 10
58.684241
 20
356.02099
 30
0.0
 40
0.4500000000000455
100
AcDbArc
 50
90.0
 51
263.17
  0
ARC
  5
EF
102
{ACAD_REACTORS
330
73F
102
}
330
1F
100
AcDbEntity
  8
LC-001-100-D00-0
 62
     7
370
    50
100
AcDbCircle
 10
183.784241
 20
363.52099
 30
0.0
 40
0.4499999999999494
100
AcDbArc
 50
276.83
 51
90.0
  0
ARC
  5
F0
102
{ACAD_REACTORS
330
73F
102
}
330
1F
100
AcDbEntity
  8
LC-001-100-D00-0
 62
     7
370
    50
100
AcDbCircle
 10
58.684241
 20
363.52099
 30
0.0
 40
0.4500000000000455
100
AcDbArc
 50
90.0
 51
263.17
  0
ARC
  5
F1
102
{ACAD_REACTORS
330
73F
102
}
330
1F
100
AcDbEntity
  8
LC-001-100-D00-0
 62
     7
370
    50
100
AcDbCircle
 10
183.784241
 20
341.02099
 30
0.0
 40
0.4500000000000624
100
AcDbArc
 50
276.83
 51
90.0
  0
ARC
  5
F2
102
{ACAD_REACTORS
330
73F
102
}
330
1F
100
AcDbEntity
  8
LC-001-100-D00-0
 62
     7
370
    50
100
AcDbCircle
 10
58.684241
 20
341.02099
 30
0.0
 40
0.4500000000000455
100
AcDbArc
 50
90.0
 51
263.17
  0
ARC
  5
F3
102
{ACAD_REACTORS
330
73F
102
}
330
1F
100
AcDbEntity
  8
LC-001-100-D00-0
 62
     7
370
    50
100
AcDbCircle
 10
183.784241
 20
348.52099
 30
0.0
 40
0.4499999999999494
100
AcDbArc
 50
276.83
 51
90.0
  0
ARC
  5
F4
102
{ACAD_REACTORS
330
73F
102
}
330
1F
100
AcDbEntity
  8
LC-001-100-D00-0
 62
     7
370
    50
100
AcDbCircle
 10
58.684241
 20
348.52099
 30
0.0
 40
0.4500000000000455
100
AcDbArc
 50
90.0
 51
263.17
  0
ARC
  5
F5
102
{ACAD_REACTORS
330
73F
102
}
330
1F
100
AcDbEntity
  8
LC-001-100-D00-0
 62
     7
370
    50
100
AcDbCircle
 10
183.784241
 20
326.02099
 30
0.0
 40
0.4500000000000624
100
AcDbArc
 50
276.83
 51
90.0
  0
ARC
  5
F6
102
{ACAD_REACTORS
330
73F
102
}
330
1F
100
AcDbEntity
  8
LC-001-100-D00-0
 62
     7
370
    50
100
AcDbCircle
 10
58.684241
 20
326.02099
 30
0.0
 40
0.4500000000000455
100
AcDbArc
 50
90.0
 51
263.17
  0
ARC
  5
F7
102
{ACAD_REACTORS
330
73F
102
}
330
1F
100
AcDbEntity
  8
LC-001-100-D00-0
 62
     7
370
    50
100
AcDbCircle
 10
183.784241
 20
318.52099
 30
0.0
 40
0.4500000000000624
100
AcDbArc
 50
276.83
 51
90.0
  0
ARC
  5
F8
102
{ACAD_REACTORS
330
73F
102
}
330
1F
100
AcDbEntity
  8
LC-001-100-D00-0
 62
     7
370
    50
100
AcDbCircle
 10
58.684241
 20
318.52099
 30
0.0
 40
0.4499999999999318
100
AcDbArc
 50
90.0
 51
263.17
  0
ARC
  5
F9
102
{ACAD_REACTORS
330
73F
102
}
330
1F
100
AcDbEntity
  8
LC-001-100-D00-0
 62
     7
370
    50
100
AcDbCircle
 10
183.784241
 20
311.02099
 30
0.0
 40
0.4500000000000624
100
AcDbArc
 50
276.83
 51
90.0
  0
ARC
  5
FA
102
{ACAD_REACTORS
330
73F
102
}
330
1F
100
AcDbEntity
  8
LC-001-100-D00-0
 62
     7
370
    50
100
AcDbCircle
 10
58.684241
 20
311.02099
 30
0.0
 40
0.4500000000000455
100
AcDbArc
 50
90.0
 51
263.17
  0
ARC
  5
FB
102
{ACAD_REACTORS
330
73F
102
}
330
1F
100
AcDbEntity
  8
LC-001-100-D00-0
 62
     7
370
    50
100
AcDbCircle
 10
183.784241
 20
296.02099
 30
0.0
 40
0.4500000000000624
100
AcDbArc
 50
276.83
 51
90.0
  0
ARC
  5
FC
102
{ACAD_REACTORS
330
73F
102
}
330
1F
100
AcDbEntity
  8
LC-001-100-D00-0
 62
     7
370
    50
100
AcDbCircle
 10
58.684241
 20
296.02099
 30
0.0
 40
0.4499999999999318
100
AcDbArc
 50
90.0
 51
263.17
  0
ARC
  5
FD
102
{ACAD_REACTORS
330
73F
102
}
330
1F
100
AcDbEntity
  8
LC-001-100-D00-0
 62
     7
370
    50
100
AcDbCircle
 10
183.784241
 20
288.52099
 30
0.0
 40
0.4500000000000624
100
AcDbArc
 50
276.83
 51
90.0
  0
ARC
  5
FE
102
{ACAD_REACTORS
330
73F
102
}
330
1F
100
AcDbEntity
  8
LC-001-100-D00-0
 62
     7
370
    50
100
AcDbCircle
 10
58.684241
 20
288.52099
 30
0.0
 40
0.4499999999999318
100
AcDbArc
 50
90.0
 51
263.17
  0
ARC
  5
FF
102
{ACAD_REACTORS
330
73F
102
}
330
1F
100
AcDbEntity
  8
LC-001-100-D00-0
 62
     7
370
    50
100
AcDbCircle
 10
183.784241
 20
303.52099
 30
0.0
 40
0.4500000000000624
100
AcDbArc
 50
276.83
 51
90.0
  0
ARC
  5
100
102
{ACAD_REACTORS
330
73F
102
}
330
1F
100
AcDbEntity
  8
LC-001-100-D00-0
 62
     7
370
    50
100
AcDbCircle
 10
58.684241
 20
303.52099
 30
0.0
 40
0.4499999999999318
100
AcDbArc
 50
90.0
 51
263.17
  0
ARC
  5
101
102
{ACAD_REACTORS
330
73F
102
}
330
1F
100
AcDbEntity
  8
LC-001-100-D00-0
 62
     7
370
    50
100
AcDbCircle
 10
183.784241
 20
281.02099
 30
0.0
 40
0.4500000000000624
100
AcDbArc
 50
276.83
 51
90.0
  0
ARC
  5
102
102
{ACAD_REACTORS
330
73F
102
}
330
1F
100
AcDbEntity
  8
LC-001-100-D00-0
 62
     7
370
    50
100
AcDbCircle
 10
58.684241
 20
281.02099
 30
0.0
 40
0.4499999999999318
100
AcDbArc
 50
90.0
 51
263.17
  0
LINE
  5
103
102
{ACAD_REACTORS
330
73F
102
}
330
1F
100
AcDbEntity
  8
LC-001-100-D00-0
 62
     7
370
    50
100
AcDbLine
 10
180.865316
 20
370.218162
 30
0.0
 11
183.837759
 21
370.574185
 31
0.0
  0
LINE
  5
104
102
{ACAD_REACTORS
330
73F
102
}
330
1F
100
AcDbEntity
  8
LC-001-100-D00-0
 62
     7
370
    50
100
AcDbLine
 10
58.630722
 20
370.574185
 30
0.0
 11
61.603165
 21
370.218162
 31
0.0
  0
LINE
  5
105
102
{ACAD_REACTORS
330
73F
102
}
330
1F
100
AcDbEntity
  8
LC-001-100-D00-0
 62
     7
370
    50
100
AcDbLine
 10
180.865316
 20
332.718161
 30
0.0
 11
183.837759
 21
333.074187
 31
0.0
  0
LINE
  5
106
102
{ACAD_REACTORS
330
73F
102
}
330
1F
100
AcDbEntity
  8
LC-001-100-D00-0
 62
     7
370
    50
100
AcDbLine
 10
58.630722
 20
333.074187
 30
0.0
 11
61.603165
 21
332.718161
 31
0.0
  0
LINE
  5
107
102
{ACAD_REACTORS
330
73F
102
}
330
1F
100
AcDbEntity
  8
LC-001-100-D00-0
 62
     7
370
    50
100
AcDbLine
 10
180.865316
 20
362.718162
 30
0.0
 11
183.837759
 21
363.074184
 31
0.0
  0
LINE
  5
108
102
{ACAD_REACTORS
330
73F
102
}
330
1F
100
AcDbEntity
  8
LC-001-100-D00-0
 62
     7
370
    50
100
AcDbLine
 10
58.630722
 20
363.074184
 30
0.0
 11
61.603165
 21
362.718162
 31
0.0
  0
LINE
  5
109
102
{ACAD_REACTORS
330
73F
102
}
330
1F
100
AcDbEntity
  8
LC-001-100-D00-0
 62
     7
370
    50
100
AcDbLine
 10
180.865316
 20
347.718161
 30
0.0
 11
183.837759
 21
348.074187
 31
0.0
  0
LINE
  5
10A
102
{ACAD_REACTORS
330
73F
102
}
330
1F
100
AcDbEntity
  8
LC-001-100-D00-0
 62
     7
370
    50
100
AcDbLine
 10
58.630722
 20
348.074187
 30
0.0
 11
61.603165
 21
347.718161
 31
0.0
  0
LINE
  5
10B
102
{ACAD_REACTORS
330
73F
102
}
330
1F
100
AcDbEntity
  8
LC-001-100-D00-0
 62
     7
370
    50
100
AcDbLine
 10
180.865316
 20
295.218167
 30
0.0
 11
183.837759
 21
295.574185
 31
0.0
  0
LINE
  5
10C
102
{ACAD_REACTORS
330
73F
102
}
330
1F
100
AcDbEntity
  8
LC-001-100-D00-0
 62
     7
370
    50
100
AcDbLine
 10
58.630722
 20
295.574185
 30
0.0
 11
61.603165
 21
295.218167
 31
0.0
  0
LINE
  5
10D
102
{ACAD_REACTORS
330
73F
102
}
330
1F
100
AcDbEntity
  8
LC-001-100-D00-0
 62
     7
370
    50
100
AcDbLine
 10
180.865316
 20
325.218161
 30
0.0
 11
183.837759
 21
325.574187
 31
0.0
  0
LINE
  5
10E
102
{ACAD_REACTORS
330
73F
102
}
330
1F
100
AcDbEntity
  8
LC-001-100-D00-0
 62
     7
370
    50
100
AcDbLine
 10
58.630722
 20
325.574187
 30
0.0
 11
61.603165
 21
325.218161
 31
0.0
  0
LINE
  5
10F
102
{ACAD_REACTORS
330
73F
102
}
330
1F
100
AcDbEntity
  8
LC-001-100-D00-0
 62
     7
370
    50
100
AcDbLine
 10
180.865316
 20
310.21816
 30
0.0
 11
183.837759
 21
310.574186
 31
0.0
  0
LINE
  5
110
102
{ACAD_REACTORS
330
73F
102
}
330
1F
100
AcDbEntity
  8
LC-001-100-D00-0
 62
     7
370
    50
100
AcDbLine
 10
58.630722
 20
310.574186
 30
0.0
 11
61.603165
 21
310.21816
 31
0.0
  0
LINE
  5
111
102
{ACAD_REACTORS
330
73F
102
}
330
1F
100
AcDbEntity
  8
LC-001-100-D00-0
 62
     7
370
    50
100
AcDbLine
 10
180.865316
 20
287.718166
 30
0.0
 11
183.837759
 21
288.074185
 31
0.0
  0
LINE
  5
112
102
{ACAD_REACTORS
330
73F
102
}
330
1F
100
AcDbEntity
  8
LC-001-100-D00-0
 62
     7
370
    50
100
AcDbLine
 10
58.630722
 20
288.074185
 30
0.0
 11
61.603165
 21
287.718166
 31
0.0
  0
LINE
  5
113
102
{ACAD_REACTORS
330
73F
102
}
330
1F
100
AcDbEntity
  8
LC-001-100-D00-0
 62
     7
370
    50
100
AcDbLine
 10
180.865316
 20
340.218161
 30
0.0
 11
183.837759
 21
340.574187
 31
0.0
  0
LINE
  5
114
102
{ACAD_REACTORS
330
73F
102
}
330
1F
100
AcDbEntity
  8
LC-001-100-D00-0
 62
     7
370
    50
100
AcDbLine
 10
58.630722
 20
340.574187
 30
0.0
 11
61.603165
 21
340.218161
 31
0.0
  0
LINE
  5
115
102
{ACAD_REACTORS
330
73F
102
}
330
1F
100
AcDbEntity
  8
LC-001-100-D00-0
 62
     7
370
    50
100
AcDbLine
 10
180.865316
 20
317.71816
 30
0.0
 11
183.837759
 21
318.074186
 31
0.0
  0
LINE
  5
116
102
{ACAD_REACTORS
330
73F
102
}
330
1F
100
AcDbEntity
  8
LC-001-100-D00-0
 62
     7
370
    50
100
AcDbLine
 10
58.630722
 20
318.074186
 30
0.0
 11
61.603165
 21
317.71816
 31
0.0
  0
LINE
  5
117
102
{ACAD_REACTORS
330
73F
102
}
330
1F
100
AcDbEntity
  8
LC-001-100-D00-0
 62
     7
370
    50
100
AcDbLine
 10
180.865316
 20
302.718167
 30
0.0
 11
183.837759
 21
303.074186
 31
0.0
  0
LINE
  5
118
102
{ACAD_REACTORS
330
73F
102
}
330
1F
100
AcDbEntity
  8
LC-001-100-D00-0
 62
     7
370
    50
100
AcDbLine
 10
58.630722
 20
303.074186
 30
0.0
 11
61.603165
 21
302.718167
 31
0.0
  0
LINE
  5
119
102
{ACAD_REACTORS
330
73F
102
}
330
1F
100
AcDbEntity
  8
LC-001-100-D00-0
 62
     7
370
    50
100
AcDbLine
 10
180.865316
 20
280.218159
 30
0.0
 11
183.837759
 21
280.574177
 31
0.0
  0
LINE
  5
11A
102
{ACAD_REACTORS
330
73F
102
}
330
1F
100
AcDbEntity
  8
LC-001-100-D00-0
 62
     7
370
    50
100
AcDbLine
 10
58.630722
 20
280.574177
 30
0.0
 11
61.603165
 21
280.218159
 31
0.0
  0
LINE
  5
11B
102
{ACAD_REACTORS
330
73F
102
}
330
1F
100
AcDbEntity
  8
LC-001-100-D00-0
 62
     7
370
    50
100
AcDbLine
 10
180.865316
 20
355.218162
 30
0.0
 11
183.837759
 21
355.574184
 31
0.0
  0
LINE
  5
11C
102
{ACAD_REACTORS
330
73F
102
}
330
1F
100
AcDbEntity
  8
LC-001-100-D00-0
 62
     7
370
    50
100
AcDbLine
 10
58.630722
 20
355.574184
 30
0.0
 11
61.603165
 21
355.218162
 31
0.0
  0
ARC
  5
11D
102
{ACAD_REACTORS
330
73F
102
}
330
1F
100
AcDbEntity
  8
LC-001-100-D00-0
 62
     7
370
    50
100
AcDbCircle
 10
180.984241
 20
286.72526
 30
0.0
 40
0.9999999999999709
100
AcDbArc
 50
96.83
 51
180.0
  0
ARC
  5
11E
102
{ACAD_REACTORS
330
73F
102
}
330
1F
100
AcDbEntity
  8
LC-001-100-D00-0
 62
     7
370
    50
100
AcDbCircle
 10
61.484241
 20
286.72526
 30
0.0
 40
1.0
100
AcDbArc
 50
0.0
 51
83.17
  0
ARC
  5
11F
102
{ACAD_REACTORS
330
73F
102
}
330
1F
100
AcDbEntity
  8
LC-001-100-D00-0
 62
     7
370
    50
100
AcDbCircle
 10
180.984241
 20
324.22526
 30
0.0
 40
0.9999999999999709
100
AcDbArc
 50
96.83
 51
180.0
  0
ARC
  5
120
102
{ACAD_REACTORS
330
73F
102
}
330
1F
100
AcDbEntity
  8
LC-001-100-D00-0
 62
     7
370
    50
100
AcDbCircle
 10
61.484241
 20
324.22526
 30
0.0
 40
1.0
100
AcDbArc
 50
0.0
 51
83.17
  0
ARC
  5
121
102
{ACAD_REACTORS
330
73F
102
}
330
1F
100
AcDbEntity
  8
LC-001-100-D00-0
 62
     7
370
    50
100
AcDbCircle
 10
180.984241
 20
339.22526
 30
0.0
 40
1.000000000000084
100
AcDbArc
 50
96.83
 51
180.0
  0
ARC
  5
122
102
{ACAD_REACTORS
330
73F
102
}
330
1F
100
AcDbEntity
  8
LC-001-100-D00-0
 62
     7
370
    50
100
AcDbCircle
 10
61.484241
 20
339.22526
 30
0.0
 40
0.9999999999999432
100
AcDbArc
 50
0.0
 51
83.17
  0
ARC
  5
123
102
{ACAD_REACTORS
330
73F
102
}
330
1F
100
AcDbEntity
  8
LC-001-100-D00-0
 62
     7
370
    50
100
AcDbCircle
 10
180.984241
 20
309.22526
 30
0.0
 40
0.9999999999999709
100
AcDbArc
 50
96.83
 51
180.0
  0
ARC
  5
124
102
{ACAD_REACTORS
330
73F
102
}
330
1F
100
AcDbEntity
  8
LC-001-100-D00-0
 62
     7
370
    50
100
AcDbCircle
 10
61.484241
 20
309.22526
 30
0.0
 40
1.0
100
AcDbArc
 50
0.0
 51
83.17
  0
ARC
  5
125
102
{ACAD_REACTORS
330
73F
102
}
330
1F
100
AcDbEntity
  8
LC-001-100-D00-0
 62
     7
370
    50
100
AcDbCircle
 10
180.984241
 20
361.72526
 30
0.0
 40
1.000000000000084
100
AcDbArc
 50
96.83
 51
180.0
  0
ARC
  5
126
102
{ACAD_REACTORS
330
73F
102
}
330
1F
100
AcDbEntity
  8
LC-001-100-D00-0
 62
     7
370
    50
100
AcDbCircle
 10
61.484241
 20
361.72526
 30
0.0
 40
1.0
100
AcDbArc
 50
0.0
 51
83.17
  0
ARC
  5
127
102
{ACAD_REACTORS
330
73F
102
}
330
1F
100
AcDbEntity
  8
LC-001-100-D00-0
 62
     7
370
    50
100
AcDbCircle
 10
180.984241
 20
294.22526
 30
0.0
 40
0.9999999999999709
100
AcDbArc
 50
96.83
 51
180.0
  0
ARC
  5
128
102
{ACAD_REACTORS
330
73F
102
}
330
1F
100
AcDbEntity
  8
LC-001-100-D00-0
 62
     7
370
    50
100
AcDbCircle
 10
61.484241
 20
294.22526
 30
0.0
 40
0.9999999999999432
100
AcDbArc
 50
0.0
 51
83.17
  0
ARC
  5
129
102
{ACAD_REACTORS
330
73F
102
}
330
1F
100
AcDbEntity
  8
LC-001-100-D00-0
 62
     7
370
    50
100
AcDbCircle
 10
180.984241
 20
279.22526
 30
0.0
 40
0.9999999999999709
100
AcDbArc
 50
96.83
 51
180.0
  0
ARC
  5
12A
102
{ACAD_REACTORS
330
73F
102
}
330
1F
100
AcDbEntity
  8
LC-001-100-D00-0
 62
     7
370
    50
100
AcDbCircle
 10
61.484241
 20
279.22526
 30
0.0
 40
1.0
100
AcDbArc
 50
0.0
 51
83.17
  0
ARC
  5
12B
102
{ACAD_REACTORS
330
73F
102
}
330
1F
100
AcDbEntity
  8
LC-001-100-D00-0
 62
     7
370
    50
100
AcDbCircle
 10
180.984241
 20
331.72526
 30
0.0
 40
1.000000000000084
100
AcDbArc
 50
96.83
 51
180.0
  0
ARC
  5
12C
102
{ACAD_REACTORS
330
73F
102
}
330
1F
100
AcDbEntity
  8
LC-001-100-D00-0
 62
     7
370
    50
100
AcDbCircle
 10
61.484241
 20
331.72526
 30
0.0
 40
1.0
100
AcDbArc
 50
0.0
 51
83.17
  0
ARC
  5
12D
102
{ACAD_REACTORS
330
73F
102
}
330
1F
100
AcDbEntity
  8
LC-001-100-D00-0
 62
     7
370
    50
100
AcDbCircle
 10
180.984241
 20
346.72526
 30
0.0
 40
1.000000000000084
100
AcDbArc
 50
96.83
 51
180.0
  0
ARC
  5
12E
102
{ACAD_REACTORS
330
73F
102
}
330
1F
100
AcDbEntity
  8
LC-001-100-D00-0
 62
     7
370
    50
100
AcDbCircle
 10
61.484241
 20
346.72526
 30
0.0
 40
1.0
100
AcDbArc
 50
0.0
 51
83.17
  0
ARC
  5
12F
102
{ACAD_REACTORS
330
73F
102
}
330
1F
100
AcDbEntity
  8
LC-001-100-D00-0
 62
     7
370
    50
100
AcDbCircle
 10
180.984241
 20
316.72526
 30
0.0
 40
0.9999999999999709
100
AcDbArc
 50
96.83
 51
180.0
  0
ARC
  5
130
102
{ACAD_REACTORS
330
73F
102
}
330
1F
100
AcDbEntity
  8
LC-001-100-D00-0
 62
     7
370
    50
100
AcDbCircle
 10
61.484241
 20
316.72526
 30
0.0
 40
1.0
100
AcDbArc
 50
0.0
 51
83.17
  0
ARC
  5
131
102
{ACAD_REACTORS
330
73F
102
}
330
1F
100
AcDbEntity
  8
LC-001-100-D00-0
 62
     7
370
    50
100
AcDbCircle
 10
180.984241
 20
369.22526
 30
0.0
 40
1.000000000000084
100
AcDbArc
 50
96.83
 51
180.0
  0
ARC
  5
132
102
{ACAD_REACTORS
330
73F
102
}
330
1F
100
AcDbEntity
  8
LC-001-100-D00-0
 62
     7
370
    50
100
AcDbCircle
 10
61.484241
 20
369.22526
 30
0.0
 40
1.000000000000057
100
AcDbArc
 50
0.0
 51
83.17
  0
ARC
  5
133
102
{ACAD_REACTORS
330
73F
102
}
330
1F
100
AcDbEntity
  8
LC-001-100-D00-0
 62
     7
370
    50
100
AcDbCircle
 10
180.984241
 20
301.72526
 30
0.0
 40
0.999999999999858
100
AcDbArc
 50
96.83
 51
180.0
  0
ARC
  5
134
102
{ACAD_REACTORS
330
73F
102
}
330
1F
100
AcDbEntity
  8
LC-001-100-D00-0
 62
     7
370
    50
100
AcDbCircle
 10
61.484241
 20
301.72526
 30
0.0
 40
0.9999999999999432
100
AcDbArc
 50
0.0
 51
83.17
  0
ARC
  5
135
102
{ACAD_REACTORS
330
73F
102
}
330
1F
100
AcDbEntity
  8
LC-001-100-D00-0
 62
     7
370
    50
100
AcDbCircle
 10
180.984241
 20
354.22526
 30
0.0
 40
0.9999999999999709
100
AcDbArc
 50
96.83
 51
180.0
  0
ARC
  5
136
102
{ACAD_REACTORS
330
73F
102
}
330
1F
100
AcDbEntity
  8
LC-001-100-D00-0
 62
     7
370
    50
100
AcDbCircle
 10
61.484241
 20
354.22526
 30
0.0
 40
1.0
100
AcDbArc
 50
0.0
 51
83.17
  0
LINE
  5
137
102
{ACAD_REACTORS
330
73F
102
}
330
1F
100
AcDbEntity
  8
LC-001-100-D00-0
 62
     7
370
    50
100
AcDbLine
 10
62.484241
 20
286.725257
 30
0.0
 11
62.484241
 21
281.470989
 31
0.0
  0
LINE
  5
138
102
{ACAD_REACTORS
330
73F
102
}
330
1F
100
AcDbEntity
  8
LC-001-100-D00-0
 62
     7
370
    50
100
AcDbLine
 10
179.984241
 20
281.470989
 30
0.0
 11
179.984241
 21
286.725257
 31
0.0
  0
LINE
  5
139
102
{ACAD_REACTORS
330
73F
102
}
330
1F
100
AcDbEntity
  8
LC-001-100-D00-0
 62
     7
370
    50
100
AcDbLine
 10
62.484241
 20
294.225258
 30
0.0
 11
62.484241
 21
288.970989
 31
0.0
  0
LINE
  5
13A
102
{ACAD_REACTORS
330
73F
102
}
330
1F
100
AcDbEntity
  8
LC-001-100-D00-0
 62
     7
370
    50
100
AcDbLine
 10
179.984241
 20
288.970989
 30
0.0
 11
179.984241
 21
294.225258
 31
0.0
  0
LINE
  5
13B
102
{ACAD_REACTORS
330
73F
102
}
330
1F
100
AcDbEntity
  8
LC-001-100-D00-0
 62
     7
370
    50
100
AcDbLine
 10
62.484241
 20
301.725258
 30
0.0
 11
62.484241
 21
296.470989
 31
0.0
  0
LINE
  5
13C
102
{ACAD_REACTORS
330
73F
102
}
330
1F
100
AcDbEntity
  8
LC-001-100-D00-0
 62
     7
370
    50
100
AcDbLine
 10
179.984241
 20
296.470989
 30
0.0
 11
179.984241
 21
301.725258
 31
0.0
  0
LINE
  5
13D
102
{ACAD_REACTORS
330
73F
102
}
330
1F
100
AcDbEntity
  8
LC-001-100-D00-0
 62
     7
370
    50
100
AcDbLine
 10
62.484241
 20
309.225258
 30
0.0
 11
62.484241
 21
303.97099
 31
0.0
  0
LINE
  5
13E
102
{ACAD_REACTORS
330
73F
102
}
330
1F
100
AcDbEntity
  8
LC-001-100-D00-0
 62
     7
370
    50
100
AcDbLine
 10
179.984241
 20
303.97099
 30
0.0
 11
179.984241
 21
309.225258
 31
0.0
  0
LINE
  5
13F
102
{ACAD_REACTORS
330
73F
102
}
330
1F
100
AcDbEntity
  8
LC-001-100-D00-0
 62
     7
370
    50
100
AcDbLine
 10
62.484241
 20
316.725259
 30
0.0
 11
62.484241
 21
311.47099
 31
0.0
  0
LINE
  5
140
102
{ACAD_REACTORS
330
73F
102
}
330
1F
100
AcDbEntity
  8
LC-001-100-D00-0
 62
     7
370
    50
100
AcDbLine
 10
179.984241
 20
311.47099
 30
0.0
 11
179.984241
 21
316.725259
 31
0.0
  0
LINE
  5
141
102
{ACAD_REACTORS
330
73F
102
}
330
1F
100
AcDbEntity
  8
LC-001-100-D00-0
 62
     7
370
    50
100
AcDbLine
 10
62.484241
 20
324.225259
 30
0.0
 11
62.484241
 21
318.97099
 31
0.0
  0
LINE
  5
142
102
{ACAD_REACTORS
330
73F
102
}
330
1F
100
AcDbEntity
  8
LC-001-100-D00-0
 62
     7
370
    50
100
AcDbLine
 10
179.984241
 20
318.97099
 30
0.0
 11
179.984241
 21
324.225259
 31
0.0
  0
LINE
  5
143
102
{ACAD_REACTORS
330
73F
102
}
330
1F
100
AcDbEntity
  8
LC-001-100-D00-0
 62
     7
370
    50
100
AcDbLine
 10
62.484241
 20
331.725259
 30
0.0
 11
62.484241
 21
326.470991
 31
0.0
  0
LINE
  5
144
102
{ACAD_REACTORS
330
73F
102
}
330
1F
100
AcDbEntity
  8
LC-001-100-D00-0
 62
     7
370
    50
100
AcDbLine
 10
179.984241
 20
326.470991
 30
0.0
 11
179.984241
 21
331.725259
 31
0.0
  0
LINE
  5
145
102
{ACAD_REACTORS
330
73F
102
}
330
1F
100
AcDbEntity
  8
LC-001-100-D00-0
 62
     7
370
    50
100
AcDbLine
 10
62.484241
 20
339.225259
 30
0.0
 11
62.484241
 21
333.970991
 31
0.0
  0
LINE
  5
146
102
{ACAD_REACTORS
330
73F
102
}
330
1F
100
AcDbEntity
  8
LC-001-100-D00-0
 62
     7
370
    50
100
AcDbLine
 10
179.984241
 20
333.970991
 30
0.0
 11
179.984241
 21
339.225259
 31
0.0
  0
LINE
  5
147
102
{ACAD_REACTORS
330
73F
102
}
330
1F
100
AcDbEntity
  8
LC-001-100-D00-0
 62
     7
370
    50
100
AcDbLine
 10
62.484241
 20
346.72526
 30
0.0
 11
62.484241
 21
341.470991
 31
0.0
  0
LINE
  5
148
102
{ACAD_REACTORS
330
73F
102
}
330
1F
100
AcDbEntity
  8
LC-001-100-D00-0
 62
     7
370
    50
100
AcDbLine
 10
179.984241
 20
341.470991
 30
0.0
 11
179.984241
 21
346.72526
 31
0.0
  0
LINE
  5
149
102
{ACAD_REACTORS
330
73F
102
}
330
1F
100
AcDbEntity
  8
LC-001-100-D00-0
 62
     7
370
    50
100
AcDbLine
 10
62.484241
 20
354.22526
 30
0.0
 11
62.484241
 21
348.970991
 31
0.0
  0
LINE
  5
14A
102
{ACAD_REACTORS
330
73F
102
}
330
1F
100
AcDbEntity
  8
LC-001-100-D00-0
 62
     7
370
    50
100
AcDbLine
 10
179.984241
 20
348.970991
 30
0.0
 11
179.984241
 21
354.22526
 31
0.0
  0
LINE
  5
14B
102
{ACAD_REACTORS
330
73F
102
}
330
1F
100
AcDbEntity
  8
LC-001-100-D00-0
 62
     7
370
    50
100
AcDbLine
 10
62.484241
 20
361.72526
 30
0.0
 11
62.484241
 21
356.470992
 31
0.0
  0
LINE
  5
14C
102
{ACAD_REACTORS
330
73F
102
}
330
1F
100
AcDbEntity
  8
LC-001-100-D00-0
 62
     7
370
    50
100
AcDbLine
 10
179.984241
 20
356.470992
 30
0.0
 11
179.984241
 21
361.72526
 31
0.0
  0
LINE
  5
14D
102
{ACAD_REACTORS
330
73F
102
}
330
1F
100
AcDbEntity
  8
LC-001-100-D00-0
 62
     7
370
    50
100
AcDbLine
 10
62.484241
 20
369.225261
 30
0.0
 11
62.484241
 21
363.970992
 31
0.0
  0
LINE
  5
14E
102
{ACAD_REACTORS
330
73F
102
}
330
1F
100
AcDbEntity
  8
LC-001-100-D00-0
 62
     7
370
    50
100
AcDbLine
 10
179.984241
 20
363.970992
 30
0.0
 11
179.984241
 21
369.225261
 31
0.0
  0
LINE
  5
14F
102
{ACAD_REACTORS
330
73F
102
}
330
1F
100
AcDbEntity
  8
LC-001-100-D00-0
 62
     7
370
    50
100
AcDbLine
 10
62.484241
 20
373.97099
 30
0.0
 11
62.484241
 21
371.470989
 31
0.0
  0
LINE
  5
150
102
{ACAD_REACTORS
330
73F
102
}
330
1F
100
AcDbEntity
  8
LC-001-100-D00-0
 62
     7
370
    50
100
AcDbLine
 10
179.984241
 20
371.470989
 30
0.0
 11
179.984241
 21
373.97099
 31
0.0
  0
ARC
  5
151
102
{ACAD_REACTORS
330
73F
102
}
330
1F
100
AcDbEntity
  8
LC-001-100-D00-0
 62
     7
370
    50
100
AcDbCircle
 10
63.484241
 20
277.97099
 30
0.0
 40
1.000000000000057
100
AcDbArc
 50
180.0
 51
270.0
  0
ARC
  5
152
102
{ACAD_REACTORS
330
73F
102
}
330
1F
100
AcDbEntity
  8
LC-001-100-D00-0
 62
     7
370
    50
100
AcDbCircle
 10
178.984241
 20
277.97099
 30
0.0
 40
1.0
100
AcDbArc
 50
270.0
 51
0.0
  0
LINE
  5
153
102
{ACAD_REACTORS
330
73F
102
}
330
1F
100
AcDbEntity
  8
LC-001-100-D00-0
 62
     7
370
    50
100
AcDbLine
 10
62.484241
 20
279.225265
 30
0.0
 11
62.484241
 21
277.970989
 31
0.0
  0
LINE
  5
154
102
{ACAD_REACTORS
330
73F
102
}
330
1F
100
AcDbEntity
  8
LC-001-100-D00-0
 62
     7
370
    50
100
AcDbLine
 10
179.984241
 20
277.970989
 30
0.0
 11
179.984241
 21
279.225265
 31
0.0
  0
LINE
  5
155
102
{ACAD_REACTORS
330
73F
102
}
330
1F
100
AcDbEntity
  8
LC-001-100-D00-0
 62
     7
370
    50
100
AcDbLine
 10
178.234241
 20
277.970989
 30
0.0
 11
178.234241
 21
373.97099
 31
0.0
  0
LINE
  5
156
102
{ACAD_REACTORS
330
73F
102
}
330
1F
100
AcDbEntity
  8
LC-001-100-D00-0
 62
     7
370
    50
100
AcDbLine
 10
64.234241
 20
373.97099
 30
0.0
 11
64.234241
 21
277.970989
 31
0.0
  0
LINE
  5
157
102
{ACAD_REACTORS
330
73F
102
}
330
1F
100
AcDbEntity
  8
LC-001-100-D00-0
 62
     7
370
    50
100
AcDbLine
 10
67.084241
 20
277.970989
 30
0.0
 11
67.084241
 21
276.970987
 31
0.0
  0
LINE
  5
158
102
{ACAD_REACTORS
330
73F
102
}
330
1F
100
AcDbEntity
  8
LC-001-100-D00-0
 62
     7
370
    50
100
AcDbLine
 10
175.384241
 20
276.970987
 30
0.0
 11
175.384241
 21
277.970989
 31
0.0
  0
LINE
  5
159
102
{ACAD_REACTORS
330
73F
102
}
330
1F
100
AcDbEntity
  8
LC-001-100-D00-0
 62
     7
370
    50
100
AcDbLine
 10
67.084241
 20
277.970989
 30
0.0
 11
175.384241
 21
277.970989
 31
0.0
  0
LINE
  5
15A
102
{ACAD_REACTORS
330
73F
102
}
330
1F
100
AcDbEntity
  8
LC-001-100-D00-0
 62
     7
370
    50
100
AcDbLine
 10
67.084241
 20
276.970987
 30
0.0
 11
175.384241
 21
276.970987
 31
0.0
  0
LINE
  5
15B
102
{ACAD_REACTORS
330
73F
102
}
330
1F
100
AcDbEntity
  8
LC-001-100-D00-0
 62
     7
370
    50
100
AcDbLine
 10
64.234241
 20
277.970989
 30
0.0
 11
67.084241
 21
277.970989
 31
0.0
  0
LINE
  5
15C
102
{ACAD_REACTORS
330
73F
102
}
330
1F
100
AcDbEntity
  8
LC-001-100-D00-0
 62
     7
370
    50
100
AcDbLine
 10
63.484239
 20
276.970987
 30
0.0
 11
67.084241
 21
276.970987
 31
0.0
  0
LINE
  5
15D
102
{ACAD_REACTORS
330
73F
102
}
330
1F
100
AcDbEntity
  8
LC-001-100-D00-0
 62
     7
370
    50
100
AcDbLine
 10
62.484241
 20
373.97099
 30
0.0
 11
64.234241
 21
373.97099
 31
0.0
  0
LINE
  5
15E
102
{ACAD_REACTORS
330
73F
102
}
330
1F
100
AcDbEntity
  8
LC-001-100-D00-0
 62
     7
370
    50
100
AcDbLine
 10
62.484241
 20
371.470989
 30
0.0
 11
58.68424
 21
371.470989
 31
0.0
  0
LINE
  5
15F
102
{ACAD_REACTORS
330
73F
102
}
330
1F
100
AcDbEntity
  8
LC-001-100-D00-0
 62
     7
370
    50
100
AcDbLine
 10
62.484241
 20
363.970992
 30
0.0
 11
58.68424
 21
363.970992
 31
0.0
  0
LINE
  5
160
102
{ACAD_REACTORS
330
73F
102
}
330
1F
100
AcDbEntity
  8
LC-001-100-D00-0
 62
     7
370
    50
100
AcDbLine
 10
62.484241
 20
356.470992
 30
0.0
 11
58.68424
 21
356.470992
 31
0.0
  0
LINE
  5
161
102
{ACAD_REACTORS
330
73F
102
}
330
1F
100
AcDbEntity
  8
LC-001-100-D00-0
 62
     7
370
    50
100
AcDbLine
 10
62.484241
 20
348.970991
 30
0.0
 11
58.68424
 21
348.970991
 31
0.0
  0
LINE
  5
162
102
{ACAD_REACTORS
330
73F
102
}
330
1F
100
AcDbEntity
  8
LC-001-100-D00-0
 62
     7
370
    50
100
AcDbLine
 10
62.484241
 20
341.470991
 30
0.0
 11
58.68424
 21
341.470991
 31
0.0
  0
LINE
  5
163
102
{ACAD_REACTORS
330
73F
102
}
330
1F
100
AcDbEntity
  8
LC-001-100-D00-0
 62
     7
370
    50
100
AcDbLine
 10
62.484241
 20
333.970991
 30
0.0
 11
58.68424
 21
333.970991
 31
0.0
  0
LINE
  5
164
102
{ACAD_REACTORS
330
73F
102
}
330
1F
100
AcDbEntity
  8
LC-001-100-D00-0
 62
     7
370
    50
100
AcDbLine
 10
62.484241
 20
326.470991
 30
0.0
 11
58.68424
 21
326.470991
 31
0.0
  0
LINE
  5
165
102
{ACAD_REACTORS
330
73F
102
}
330
1F
100
AcDbEntity
  8
LC-001-100-D00-0
 62
     7
370
    50
100
AcDbLine
 10
62.484241
 20
318.97099
 30
0.0
 11
58.68424
 21
318.97099
 31
0.0
  0
LINE
  5
166
102
{ACAD_REACTORS
330
73F
102
}
330
1F
100
AcDbEntity
  8
LC-001-100-D00-0
 62
     7
370
    50
100
AcDbLine
 10
62.484241
 20
311.47099
 30
0.0
 11
58.68424
 21
311.47099
 31
0.0
  0
LINE
  5
167
102
{ACAD_REACTORS
330
73F
102
}
330
1F
100
AcDbEntity
  8
LC-001-100-D00-0
 62
     7
370
    50
100
AcDbLine
 10
62.484241
 20
303.97099
 30
0.0
 11
58.68424
 21
303.97099
 31
0.0
  0
LINE
  5
168
102
{ACAD_REACTORS
330
73F
102
}
330
1F
100
AcDbEntity
  8
LC-001-100-D00-0
 62
     7
370
    50
100
AcDbLine
 10
62.484241
 20
296.470989
 30
0.0
 11
58.68424
 21
296.470989
 31
0.0
  0
LINE
  5
169
102
{ACAD_REACTORS
330
73F
102
}
330
1F
100
AcDbEntity
  8
LC-001-100-D00-0
 62
     7
370
    50
100
AcDbLine
 10
62.484241
 20
288.970989
 30
0.0
 11
58.68424
 21
288.970989
 31
0.0
  0
LINE
  5
16A
102
{ACAD_REACTORS
330
73F
102
}
330
1F
100
AcDbEntity
  8
LC-001-100-D00-0
 62
     7
370
    50
100
AcDbLine
 10
62.484241
 20
281.470989
 30
0.0
 11
58.68424
 21
281.470989
 31
0.0
  0
LINE
  5
16B
102
{ACAD_REACTORS
330
73F
102
}
330
1F
100
AcDbEntity
  8
LC-001-100-D00-0
 62
     7
370
    50
100
AcDbLine
 10
175.384241
 20
277.970989
 30
0.0
 11
178.234241
 21
277.970989
 31
0.0
  0
LINE
  5
16C
102
{ACAD_REACTORS
330
73F
102
}
330
1F
100
AcDbEntity
  8
LC-001-100-D00-0
 62
     7
370
    50
100
AcDbLine
 10
175.384241
 20
276.970987
 30
0.0
 11
178.984242
 21
276.970987
 31
0.0
  0
LINE
  5
16D
102
{ACAD_REACTORS
330
73F
102
}
330
1F
100
AcDbEntity
  8
LC-001-100-D00-0
 62
     7
370
    50
100
AcDbLine
 10
178.234241
 20
373.97099
 30
0.0
 11
179.984241
 21
373.97099
 31
0.0
  0
LINE
  5
16E
102
{ACAD_REACTORS
330
73F
102
}
330
1F
100
AcDbEntity
  8
LC-001-100-D00-0
 62
     7
370
    50
100
AcDbLine
 10
183.784242
 20
371.470989
 30
0.0
 11
179.984241
 21
371.470989
 31
0.0
  0
LINE
  5
16F
102
{ACAD_REACTORS
330
73F
102
}
330
1F
100
AcDbEntity
  8
LC-001-100-D00-0
 62
     7
370
    50
100
AcDbLine
 10
183.784242
 20
363.970992
 30
0.0
 11
179.984241
 21
363.970992
 31
0.0
  0
LINE
  5
170
102
{ACAD_REACTORS
330
73F
102
}
330
1F
100
AcDbEntity
  8
LC-001-100-D00-0
 62
     7
370
    50
100
AcDbLine
 10
183.784242
 20
356.470992
 30
0.0
 11
179.984241
 21
356.470992
 31
0.0
  0
LINE
  5
171
102
{ACAD_REACTORS
330
73F
102
}
330
1F
100
AcDbEntity
  8
LC-001-100-D00-0
 62
     7
370
    50
100
AcDbLine
 10
183.784242
 20
348.970991
 30
0.0
 11
179.984241
 21
348.970991
 31
0.0
  0
LINE
  5
172
102
{ACAD_REACTORS
330
73F
102
}
330
1F
100
AcDbEntity
  8
LC-001-100-D00-0
 62
     7
370
    50
100
AcDbLine
 10
183.784242
 20
341.470991
 30
0.0
 11
179.984241
 21
341.470991
 31
0.0
  0
LINE
  5
173
102
{ACAD_REACTORS
330
73F
102
}
330
1F
100
AcDbEntity
  8
LC-001-100-D00-0
 62
     7
370
    50
100
AcDbLine
 10
183.784242
 20
333.970991
 30
0.0
 11
179.984241
 21
333.970991
 31
0.0
  0
LINE
  5
174
102
{ACAD_REACTORS
330
73F
102
}
330
1F
100
AcDbEntity
  8
LC-001-100-D00-0
 62
     7
370
    50
100
AcDbLine
 10
183.784242
 20
326.470991
 30
0.0
 11
179.984241
 21
326.470991
 31
0.0
  0
LINE
  5
175
102
{ACAD_REACTORS
330
73F
102
}
330
1F
100
AcDbEntity
  8
LC-001-100-D00-0
 62
     7
370
    50
100
AcDbLine
 10
183.784242
 20
318.97099
 30
0.0
 11
179.984241
 21
318.97099
 31
0.0
  0
LINE
  5
176
102
{ACAD_REACTORS
330
73F
102
}
330
1F
100
AcDbEntity
  8
LC-001-100-D00-0
 62
     7
370
    50
100
AcDbLine
 10
183.784242
 20
311.47099
 30
0.0
 11
179.984241
 21
311.47099
 31
0.0
  0
LINE
  5
177
102
{ACAD_REACTORS
330
73F
102
}
330
1F
100
AcDbEntity
  8
LC-001-100-D00-0
 62
     7
370
    50
100
AcDbLine
 10
183.784242
 20
303.97099
 30
0.0
 11
179.984241
 21
303.97099
 31
0.0
  0
LINE
  5
178
102
{ACAD_REACTORS
330
73F
102
}
330
1F
100
AcDbEntity
  8
LC-001-100-D00-0
 62
     7
370
    50
100
AcDbLine
 10
183.784242
 20
296.470989
 30
0.0
 11
179.984241
 21
296.470989
 31
0.0
  0
LINE
  5
179
102
{ACAD_REACTORS
330
73F
102
}
330
1F
100
AcDbEntity
  8
LC-001-100-D00-0
 62
     7
370
    50
100
AcDbLine
 10
183.784242
 20
288.970989
 30
0.0
 11
179.984241
 21
288.970989
 31
0.0
  0
LINE
  5
17A
102
{ACAD_REACTORS
330
73F
102
}
330
1F
100
AcDbEntity
  8
LC-001-100-D00-0
 62
     7
370
    50
100
AcDbLine
 10
183.784242
 20
281.470989
 30
0.0
 11
179.984241
 21
281.470989
 31
0.0
  0
LINE
  5
17B
102
{ACAD_REACTORS
330
73F
102
}
330
1F
100
AcDbEntity
  8
LC-001-100-D00-0
 62
     7
370
    50
100
AcDbLine
 10
67.084241
 20
376.970989
 30
0.0
 11
67.084241
 21
277.970989
 31
0.0
  0
LINE
  5
17C
102
{ACAD_REACTORS
330
73F
102
}
330
1F
100
AcDbEntity
  8
LC-001-100-D00-0
 62
     7
370
    50
100
AcDbLine
 10
81.696632
 20
373.97099
 30
0.0
 11
81.696632
 21
376.970989
 31
0.0
  0
LINE
  5
17D
102
{ACAD_REACTORS
330
73F
102
}
330
1F
100
AcDbEntity
  8
LC-001-100-D00-0
 62
     7
370
    50
100
AcDbLine
 10
160.771849
 20
373.97099
 30
0.0
 11
160.771849
 21
376.970989
 31
0.0
  0
LINE
  5
17E
102
{ACAD_REACTORS
330
73F
102
}
330
1F
100
AcDbEntity
  8
LC-001-100-D00-0
 62
     7
370
    50
100
AcDbLine
 10
175.384241
 20
277.970989
 30
0.0
 11
175.384241
 21
376.970989
 31
0.0
  0
LINE
  5
17F
102
{ACAD_REACTORS
330
73F
102
}
330
1F
100
AcDbEntity
  8
LC-001-100-D00-0
 62
     7
370
    50
100
AcDbLine
 10
178.38424
 20
373.97099
 30
0.0
 11
178.38424
 21
277.970989
 31
0.0
  0
LINE
  5
180
102
{ACAD_REACTORS
330
73F
102
}
330
1F
100
AcDbEntity
  8
LC-001-100-D00-0
 62
     7
370
    50
100
AcDbLine
 10
64.084242
 20
277.970989
 30
0.0
 11
64.084242
 21
373.97099
 31
0.0
  0
LINE
  5
181
102
{ACAD_REACTORS
330
73F
102
}
330
1F
100
AcDbEntity
  8
LC-001-100-D00-0
 62
     7
370
    50
100
AcDbLine
 10
191.984239
 20
381.47099
 30
0.0
 11
191.984239
 21
376.970989
 31
0.0
  0
LINE
  5
182
102
{ACAD_REACTORS
330
73F
102
}
330
1F
100
AcDbEntity
  8
LC-001-100-D00-0
 62
     7
370
    50
100
AcDbLine
 10
194.984237
 20
381.47099
 30
0.0
 11
191.984239
 21
381.47099
 31
0.0
  0
LINE
  5
183
102
{ACAD_REACTORS
330
73F
102
}
330
1F
100
AcDbEntity
  8
LC-001-100-D00-0
 62
     7
370
    50
100
AcDbLine
 10
194.984237
 20
373.97099
 30
0.0
 11
194.984237
 21
381.47099
 31
0.0
  0
LINE
  5
184
102
{ACAD_REACTORS
330
73F
102
}
330
1F
100
AcDbEntity
  8
LC-001-100-D00-0
 62
     7
370
    50
100
AcDbLine
 10
194.984237
 20
373.97099
 30
0.0
 11
178.38424
 21
373.97099
 31
0.0
  0
LINE
  5
185
102
{ACAD_REACTORS
330
73F
102
}
330
1F
100
AcDbEntity
  8
LC-001-100-D00-0
 62
     7
370
    50
100
AcDbLine
 10
175.384241
 20
277.970989
 30
0.0
 11
178.38424
 21
277.970989
 31
0.0
  0
LINE
  5
186
102
{ACAD_REACTORS
330
73F
102
}
330
1F
100
AcDbEntity
  8
LC-001-100-D00-0
 62
     7
370
    50
100
AcDbLine
 10
191.984239
 20
376.970989
 30
0.0
 11
175.384241
 21
376.970989
 31
0.0
  0
LINE
  5
187
102
{ACAD_REACTORS
330
73F
102
}
330
1F
100
AcDbEntity
  8
LC-001-100-D00-0
 62
     7
370
    50
100
AcDbLine
 10
47.484244
 20
381.47099
 30
0.0
 11
47.484244
 21
373.97099
 31
0.0
  0
LINE
  5
188
102
{ACAD_REACTORS
330
73F
102
}
330
1F
100
AcDbEntity
  8
LC-001-100-D00-0
 62
     7
370
    50
100
AcDbLine
 10
50.484243
 20
381.47099
 30
0.0
 11
47.484244
 21
381.47099
 31
0.0
  0
LINE
  5
189
102
{ACAD_REACTORS
330
73F
102
}
330
1F
100
AcDbEntity
  8
LC-001-100-D00-0
 62
     7
370
    50
100
AcDbLine
 10
50.484243
 20
376.970989
 30
0.0
 11
50.484243
 21
381.47099
 31
0.0
  0
LINE
  5
18A
102
{ACAD_REACTORS
330
73F
102
}
330
1F
100
AcDbEntity
  8
LC-001-100-D00-0
 62
     7
370
    50
100
AcDbLine
 10
64.084242
 20
373.97099
 30
0.0
 11
47.484244
 21
373.97099
 31
0.0
  0
LINE
  5
18B
102
{ACAD_REACTORS
330
73F
102
}
330
1F
100
AcDbEntity
  8
LC-001-100-D00-0
 62
     7
370
    50
100
AcDbLine
 10
64.084242
 20
277.970989
 30
0.0
 11
67.084241
 21
277.970989
 31
0.0
  0
LINE
  5
18C
102
{ACAD_REACTORS
330
73F
102
}
330
1F
100
AcDbEntity
  8
LC-001-100-D00-0
 62
     7
370
    50
100
AcDbLine
 10
67.084241
 20
376.970989
 30
0.0
 11
50.484243
 21
376.970989
 31
0.0
  0
LINE
  5
18D
102
{ACAD_REACTORS
330
73F
102
}
330
1F
100
AcDbEntity
  8
LC-001-100-D00-0
 62
     7
370
    50
100
AcDbLine
 10
160.771849
 20
373.97099
 30
0.0
 11
154.162607
 21
373.97099
 31
0.0
  0
LINE
  5
18E
102
{ACAD_REACTORS
330
73F
102
}
330
1F
100
AcDbEntity
  8
LC-001-100-D00-0
 62
     7
370
    50
100
AcDbLine
 10
88.305875
 20
373.97099
 30
0.0
 11
81.696632
 21
373.97099
 31
0.0
  0
CIRCLE
  5
18F
102
{ACAD_REACTORS
330
73F
102
}
330
1F
100
AcDbEntity
  8
LC-001-100-D00-0
 62
     7
370
    50
100
AcDbCircle
 10
66.984241
 20
381.72099
 30
0.0
 40
1.75
  0
CIRCLE
  5
190
102
{ACAD_REACTORS
330
73F
102
}
330
1F
100
AcDbEntity
  8
LC-001-100-D00-0
 62
     7
370
    50
100
AcDbCircle
 10
175.484241
 20
381.72099
 30
0.0
 40
1.750000000000057
  0
LINE
  5
191
102
{ACAD_REACTORS
330
73F
102
}
330
1F
100
AcDbEntity
  8
LC-001-100-D00-0
 62
     7
370
    50
100
AcDbLine
 10
175.734239
 20
383.470991
 30
0.0
 11
175.734239
 21
384.97099
 31
0.0
  0
LINE
  5
192
102
{ACAD_REACTORS
330
73F
102
}
330
1F
100
AcDbEntity
  8
LC-001-100-D00-0
 62
     7
370
    50
100
AcDbLine
 10
173.734239
 20
383.470991
 30
0.0
 11
175.734239
 21
383.470991
 31
0.0
  0
LINE
  5
193
102
{ACAD_REACTORS
330
73F
102
}
330
1F
100
AcDbEntity
  8
LC-001-100-D00-0
 62
     7
370
    50
100
AcDbLine
 10
173.734239
 20
383.470991
 30
0.0
 11
173.734239
 21
379.970991
 31
0.0
  0
LINE
  5
194
102
{ACAD_REACTORS
330
73F
102
}
330
1F
100
AcDbEntity
  8
LC-001-100-D00-0
 62
     7
370
    50
100
AcDbLine
 10
173.734239
 20
379.970991
 30
0.0
 11
175.734239
 21
379.970991
 31
0.0
  0
LINE
  5
195
102
{ACAD_REACTORS
330
73F
102
}
330
1F
100
AcDbEntity
  8
LC-001-100-D00-0
 62
     7
370
    50
100
AcDbLine
 10
175.734239
 20
379.970991
 30
0.0
 11
175.734239
 21
378.970989
 31
0.0
  0
LINE
  5
196
102
{ACAD_REACTORS
330
73F
102
}
330
1F
100
AcDbEntity
  8
LC-001-100-D00-0
 62
     7
370
    50
100
AcDbLine
 10
160.234242
 20
378.970989
 30
0.0
 11
175.734239
 21
378.970989
 31
0.0
  0
ARC
  5
197
102
{ACAD_REACTORS
330
73F
102
}
330
1F
100
AcDbEntity
  8
LC-001-100-D00-0
 62
     7
370
    50
100
AcDbCircle
 10
160.234241
 20
368.97099
 30
0.0
 40
10.0
100
AcDbArc
 50
90.0
 51
180.0
  0
LINE
  5
198
102
{ACAD_REACTORS
330
73F
102
}
330
1F
100
AcDbEntity
  8
LC-001-100-D00-0
 62
     7
370
    50
100
AcDbLine
 10
150.23424
 20
368.970991
 30
0.0
 11
150.23424
 21
319.070992
 31
0.0
  0
LINE
  5
199
102
{ACAD_REACTORS
330
73F
102
}
330
1F
100
AcDbEntity
  8
LC-001-100-D00-0
 62
     7
370
    50
100
AcDbLine
 10
148.734241
 20
319.070992
 30
0.0
 11
150.23424
 21
319.070992
 31
0.0
  0
LINE
  5
19A
102
{ACAD_REACTORS
330
73F
102
}
330
1F
100
AcDbEntity
  8
LC-001-100-D00-0
 62
     7
370
    50
100
AcDbLine
 10
148.734241
 20
382.97099
 30
0.0
 11
148.734241
 21
319.070992
 31
0.0
  0
ARC
  5
19B
102
{ACAD_REACTORS
330
73F
102
}
330
1F
100
AcDbEntity
  8
LC-001-100-D00-0
 62
     7
370
    50
100
AcDbCircle
 10
150.734241
 20
382.97099
 30
0.0
 40
2.0
100
AcDbArc
 50
90.0
 51
180.0
  0
LINE
  5
19C
102
{ACAD_REACTORS
330
73F
102
}
330
1F
100
AcDbEntity
  8
LC-001-100-D00-0
 62
     7
370
    50
100
AcDbLine
 10
150.734241
 20
384.97099
 30
0.0
 11
175.734239
 21
384.97099
 31
0.0
  0
LINE
  5
19D
102
{ACAD_REACTORS
330
73F
102
}
330
1F
100
AcDbEntity
  8
LC-001-100-D00-0
 62
     7
370
    50
100
AcDbLine
 10
91.734241
 20
384.97099
 30
0.0
 11
109.734241
 21
384.97099
 31
0.0
  0
ARC
  5
19E
102
{ACAD_REACTORS
330
73F
102
}
330
1F
100
AcDbEntity
  8
LC-001-100-D00-0
 62
     7
370
    50
100
AcDbCircle
 10
91.734241
 20
382.97099
 30
0.0
 40
2.0
100
AcDbArc
 50
0.0
 51
90.0
  0
LINE
  5
19F
102
{ACAD_REACTORS
330
73F
102
}
330
1F
100
AcDbEntity
  8
LC-001-100-D00-0
 62
     7
370
    50
100
AcDbLine
 10
132.734241
 20
384.97099
 30
0.0
 11
150.734241
 21
384.97099
 31
0.0
  0
LINE
  5
1A0
102
{ACAD_REACTORS
330
73F
102
}
330
1F
100
AcDbEntity
  8
LC-001-100-D00-0
 62
     7
370
    50
100
AcDbLine
 10
93.734241
 20
319.070992
 30
0.0
 11
93.734241
 21
382.97099
 31
0.0
  0
LINE
  5
1A1
102
{ACAD_REACTORS
330
73F
102
}
330
1F
100
AcDbEntity
  8
LC-001-100-D00-0
 62
     7
370
    50
100
AcDbLine
 10
92.234242
 20
319.070992
 30
0.0
 11
93.734241
 21
319.070992
 31
0.0
  0
LINE
  5
1A2
102
{ACAD_REACTORS
330
73F
102
}
330
1F
100
AcDbEntity
  8
LC-001-100-D00-0
 62
     7
370
    50
100
AcDbLine
 10
92.234242
 20
319.070992
 30
0.0
 11
92.234242
 21
368.970991
 31
0.0
  0
ARC
  5
1A3
102
{ACAD_REACTORS
330
73F
102
}
330
1F
100
AcDbEntity
  8
LC-001-100-D00-0
 62
     7
370
    50
100
AcDbCircle
 10
82.234241
 20
368.97099
 30
0.0
 40
10.0
100
AcDbArc
 50
0.0
 51
90.0
  0
LINE
  5
1A4
102
{ACAD_REACTORS
330
73F
102
}
330
1F
100
AcDbEntity
  8
LC-001-100-D00-0
 62
     7
370
    50
100
AcDbLine
 10
66.734242
 20
378.970989
 30
0.0
 11
82.23424
 21
378.970989
 31
0.0
  0
LINE
  5
1A5
102
{ACAD_REACTORS
330
73F
102
}
330
1F
100
AcDbEntity
  8
LC-001-100-D00-0
 62
     7
370
    50
100
AcDbLine
 10
66.734242
 20
378.970989
 30
0.0
 11
66.734242
 21
379.970991
 31
0.0
  0
LINE
  5
1A6
102
{ACAD_REACTORS
330
73F
102
}
330
1F
100
AcDbEntity
  8
LC-001-100-D00-0
 62
     7
370
    50
100
AcDbLine
 10
66.734242
 20
379.970991
 30
0.0
 11
68.734242
 21
379.970991
 31
0.0
  0
LINE
  5
1A7
102
{ACAD_REACTORS
330
73F
102
}
330
1F
100
AcDbEntity
  8
LC-001-100-D00-0
 62
     7
370
    50
100
AcDbLine
 10
68.734242
 20
379.970991
 30
0.0
 11
68.734242
 21
383.470991
 31
0.0
  0
LINE
  5
1A8
102
{ACAD_REACTORS
330
73F
102
}
330
1F
100
AcDbEntity
  8
LC-001-100-D00-0
 62
     7
370
    50
100
AcDbLine
 10
66.734242
 20
383.470991
 30
0.0
 11
68.734242
 21
383.470991
 31
0.0
  0
LINE
  5
1A9
102
{ACAD_REACTORS
330
73F
102
}
330
1F
100
AcDbEntity
  8
LC-001-100-D00-0
 62
     7
370
    50
100
AcDbLine
 10
66.734242
 20
384.97099
 30
0.0
 11
66.734242
 21
383.470991
 31
0.0
  0
LINE
  5
1AA
102
{ACAD_REACTORS
330
73F
102
}
330
1F
100
AcDbEntity
  8
LC-001-100-D00-0
 62
     7
370
    50
100
AcDbLine
 10
66.734242
 20
384.97099
 30
0.0
 11
91.734241
 21
384.97099
 31
0.0
  0
LINE
  5
1AB
102
{ACAD_REACTORS
330
73F
102
}
330
1F
100
AcDbEntity
  8
LC-001-100-D00-0
 62
     7
370
    50
100
AcDbLine
 10
93.734241
 20
319.070992
 30
0.0
 11
109.734241
 21
319.070992
 31
0.0
  0
LINE
  5
1AC
102
{ACAD_REACTORS
330
73F
102
}
330
1F
100
AcDbEntity
  8
LC-001-100-D00-0
 62
     7
370
    50
100
AcDbLine
 10
132.734241
 20
319.070992
 30
0.0
 11
148.734241
 21
319.070992
 31
0.0
  0
LINE
  5
1AD
102
{ACAD_REACTORS
330
73F
102
}
330
1F
100
AcDbEntity
  8
LC-001-100-D00-0
 62
     7
370
    50
100
AcDbLine
 10
109.734241
 20
384.97099
 30
0.0
 11
132.734241
 21
384.97099
 31
0.0
  0
LINE
  5
1AE
102
{ACAD_REACTORS
330
73F
102
}
330
1F
100
AcDbEntity
  8
LC-001-100-D00-0
 62
     7
370
    50
100
AcDbLine
 10
109.734241
 20
319.070992
 30
0.0
 11
132.734241
 21
319.070992
 31
0.0
  0
LINE
  5
1AF
102
{ACAD_REACTORS
330
73F
102
}
330
1F
100
AcDbEntity
  8
LC-001-100-D00-0
 62
     7
370
    50
100
AcDbLine
 10
162.234242
 20
360.058621
 30
0.0
 11
162.234242
 21
308.470991
 31
0.0
  0
LINE
  5
1B0
102
{ACAD_REACTORS
330
73F
102
}
330
1F
100
AcDbEntity
  8
LC-001-100-D00-0
 62
     7
370
    50
100
AcDbLine
 10
67.48424
 20
369.470992
 30
0.0
 11
80.23424
 21
360.058621
 31
0.0
  0
LINE
  5
1B1
102
{ACAD_REACTORS
330
73F
102
}
330
1F
100
AcDbEntity
  8
LC-001-100-D00-0
 62
     7
370
    50
100
AcDbLine
 10
67.48424
 20
369.470992
 30
0.0
 11
67.48424
 21
376.970989
 31
0.0
  0
LINE
  5
1B2
102
{ACAD_REACTORS
330
73F
102
}
330
1F
100
AcDbEntity
  8
LC-001-100-D00-0
 62
     7
370
    50
100
AcDbLine
 10
65.984241
 20
376.970989
 30
0.0
 11
67.48424
 21
376.970989
 31
0.0
  0
LINE
  5
1B3
102
{ACAD_REACTORS
330
73F
102
}
330
1F
100
AcDbEntity
  8
LC-001-100-D00-0
 62
     7
370
    50
100
AcDbLine
 10
65.984241
 20
376.970989
 30
0.0
 11
65.984241
 21
378.970989
 31
0.0
  0
LINE
  5
1B4
102
{ACAD_REACTORS
330
73F
102
}
330
1F
100
AcDbEntity
  8
LC-001-100-D00-0
 62
     7
370
    50
100
AcDbLine
 10
65.984241
 20
378.970989
 30
0.0
 11
69.746854
 21
378.970989
 31
0.0
  0
ARC
  5
1B5
102
{ACAD_REACTORS
330
73F
102
}
330
1F
100
AcDbEntity
  8
LC-001-100-D00-0
 62
     7
370
    50
100
AcDbCircle
 10
69.746856
 20
375.97099
 30
0.0
 40
2.999999999999949
100
AcDbArc
 50
53.564324
 51
90.0
  0
LINE
  5
1B6
102
{ACAD_REACTORS
330
73F
102
}
330
1F
100
AcDbEntity
  8
LC-001-100-D00-0
 62
     7
370
    50
100
AcDbLine
 10
71.528616
 20
378.384561
 30
0.0
 11
81.32816
 21
371.150293
 31
0.0
  0
ARC
  5
1B7
102
{ACAD_REACTORS
330
73F
102
}
330
1F
100
AcDbEntity
  8
LC-001-100-D00-0
 62
     7
370
    50
100
AcDbCircle
 10
80.734241
 20
370.345768
 30
0.0
 40
1.000000000000057
100
AcDbArc
 50
0.0
 51
53.564324
  0
LINE
  5
1B8
102
{ACAD_REACTORS
330
73F
102
}
330
1F
100
AcDbEntity
  8
LC-001-100-D00-0
 62
     7
370
    50
100
AcDbLine
 10
81.734239
 20
308.470991
 30
0.0
 11
81.734239
 21
370.345768
 31
0.0
  0
ARC
  5
1B9
102
{ACAD_REACTORS
330
73F
102
}
330
1F
100
AcDbEntity
  8
LC-001-100-D00-0
 62
     7
370
    50
100
AcDbCircle
 10
85.234241
 20
308.47099
 30
0.0
 40
3.5
100
AcDbArc
 50
180.0
 51
270.0
  0
LINE
  5
1BA
102
{ACAD_REACTORS
330
73F
102
}
330
1F
100
AcDbEntity
  8
LC-001-100-D00-0
 62
     7
370
    50
100
AcDbLine
 10
157.234239
 20
304.970992
 30
0.0
 11
85.234242
 21
304.970992
 31
0.0
  0
ARC
  5
1BB
102
{ACAD_REACTORS
330
73F
102
}
330
1F
100
AcDbEntity
  8
LC-001-100-D00-0
 62
     7
370
    50
100
AcDbCircle
 10
157.234241
 20
308.47099
 30
0.0
 40
3.5
100
AcDbArc
 50
270.0
 51
0.0
  0
LINE
  5
1BC
102
{ACAD_REACTORS
330
73F
102
}
330
1F
100
AcDbEntity
  8
LC-001-100-D00-0
 62
     7
370
    50
100
AcDbLine
 10
160.734243
 20
370.345768
 30
0.0
 11
160.734243
 21
308.470991
 31
0.0
  0
ARC
  5
1BD
102
{ACAD_REACTORS
330
73F
102
}
330
1F
100
AcDbEntity
  8
LC-001-100-D00-0
 62
     7
370
    50
100
AcDbCircle
 10
161.734241
 20
370.345768
 30
0.0
 40
0.999999999999994
100
AcDbArc
 50
126.435676
 51
180.0
  0
LINE
  5
1BE
102
{ACAD_REACTORS
330
73F
102
}
330
1F
100
AcDbEntity
  8
LC-001-100-D00-0
 62
     7
370
    50
100
AcDbLine
 10
170.939865
 20
378.384561
 30
0.0
 11
161.140322
 21
371.150293
 31
0.0
  0
ARC
  5
1BF
102
{ACAD_REACTORS
330
73F
102
}
330
1F
100
AcDbEntity
  8
LC-001-100-D00-0
 62
     7
370
    50
100
AcDbCircle
 10
172.721626
 20
375.97099
 30
0.0
 40
3.0
100
AcDbArc
 50
90.0
 51
126.435676
  0
LINE
  5
1C0
102
{ACAD_REACTORS
330
73F
102
}
330
1F
100
AcDbEntity
  8
LC-001-100-D00-0
 62
     7
370
    50
100
AcDbLine
 10
172.721627
 20
378.970989
 30
0.0
 11
176.484241
 21
378.970989
 31
0.0
  0
LINE
  5
1C1
102
{ACAD_REACTORS
330
73F
102
}
330
1F
100
AcDbEntity
  8
LC-001-100-D00-0
 62
     7
370
    50
100
AcDbLine
 10
176.484241
 20
378.970989
 30
0.0
 11
176.484241
 21
376.970989
 31
0.0
  0
LINE
  5
1C2
102
{ACAD_REACTORS
330
73F
102
}
330
1F
100
AcDbEntity
  8
LC-001-100-D00-0
 62
     7
370
    50
100
AcDbLine
 10
174.984242
 20
376.970989
 30
0.0
 11
176.484241
 21
376.970989
 31
0.0
  0
LINE
  5
1C3
102
{ACAD_REACTORS
330
73F
102
}
330
1F
100
AcDbEntity
  8
LC-001-100-D00-0
 62
     7
370
    50
100
AcDbLine
 10
174.984242
 20
369.470992
 30
0.0
 11
174.984242
 21
376.970989
 31
0.0
  0
LINE
  5
1C4
102
{ACAD_REACTORS
330
73F
102
}
330
1F
100
AcDbEntity
  8
LC-001-100-D00-0
 62
     7
370
    50
100
AcDbLine
 10
174.984242
 20
369.470992
 30
0.0
 11
162.234242
 21
360.058621
 31
0.0
  0
ARC
  5
1C5
102
{ACAD_REACTORS
330
73F
102
}
330
1F
100
AcDbEntity
  8
LC-001-100-D00-0
 62
     7
370
    50
100
AcDbCircle
 10
157.234241
 20
308.47099
 30
0.0
 40
5.0
100
AcDbArc
 50
270.0
 51
0.0
  0
LINE
  5
1C6
102
{ACAD_REACTORS
330
73F
102
}
330
1F
100
AcDbEntity
  8
LC-001-100-D00-0
 62
     7
370
    50
100
AcDbLine
 10
157.234239
 20
303.470989
 30
0.0
 11
85.234242
 21
303.470989
 31
0.0
  0
ARC
  5
1C7
102
{ACAD_REACTORS
330
73F
102
}
330
1F
100
AcDbEntity
  8
LC-001-100-D00-0
 62
     7
370
    50
100
AcDbCircle
 10
85.234241
 20
308.47099
 30
0.0
 40
5.0
100
AcDbArc
 50
180.0
 51
270.0
  0
LINE
  5
1C8
102
{ACAD_REACTORS
330
73F
102
}
330
1F
100
AcDbEntity
  8
LC-001-100-D00-0
 62
     7
370
    50
100
AcDbLine
 10
80.23424
 20
308.470991
 30
0.0
 11
80.23424
 21
360.058621
 31
0.0
  0
LINE
  5
1C9
102
{ACAD_REACTORS
330
73F
102
}
330
1F
100
AcDbEntity
  8
LC-001-100-D00-0
 62
     7
370
    50
100
AcDbLine
 10
160.72712
 20
369.470992
 30
0.0
 11
156.313634
 21
369.470992
 31
0.0
  0
LINE
  5
1CA
102
{ACAD_REACTORS
330
73F
102
}
330
1F
100
AcDbEntity
  8
LC-001-100-D00-0
 62
     7
370
    50
100
AcDbLine
 10
160.72712
 20
370.340378
 30
0.0
 11
160.72712
 21
369.470992
 31
0.0
  0
INSERT
  5
1D8
102
{ACAD_REACTORS
330
73F
102
}
330
1F
100
AcDbEntity
  8
LC-001-100-D00-0
 62
     7
370
    50
100
AcDbBlockReference
  2
POLY1
 10
0.0
 20
0.0
 30
0.0
  0
LINE
  5
1D9
102
{ACAD_REACTORS
330
73F
102
}
330
1F
100
AcDbEntity
  8
LC-001-100-D00-0
 62
     7
370
    50
100
AcDbLine
 10
161.133374
 20
371.145164
 30
0.0
 11
161.140322
 21
371.150293
 31
0.0
  0
INSERT
  5
1E7
102
{ACAD_REACTORS
330
73F
102
}
330
1F
100
AcDbEntity
  8
LC-001-100-D00-0
 62
     7
370
    50
100
AcDbBlockReference
  2
POLY2
 10
0.0
 20
0.0
 30
0.0
  0
LINE
  5
1E8
102
{ACAD_REACTORS
330
73F
102
}
330
1F
100
AcDbEntity
  8
LC-001-100-D00-0
 62
     7
370
    50
100
AcDbLine
 10
81.741362
 20
370.340378
 30
0.0
 11
81.741362
 21
369.470992
 31
0.0
  0
LINE
  5
1E9
102
{ACAD_REACTORS
330
73F
102
}
330
1F
100
AcDbEntity
  8
LC-001-100-D00-0
 62
     7
370
    50
100
AcDbLine
 10
86.154847
 20
369.470992
 30
0.0
 11
81.741362
 21
369.470992
 31
0.0
  0
LINE
  5
1EA
102
{ACAD_REACTORS
330
73F
102
}
330
1F
100
AcDbEntity
  8
LC-001-100-D00-0
 62
     7
370
    50
100
AcDbLine
 10
88.305875
 20
376.91676
 30
0.0
 11
88.305875
 21
369.470992
 31
0.0
  0
LINE
  5
1EB
102
{ACAD_REACTORS
330
73F
102
}
330
1F
100
AcDbEntity
  8
LC-001-100-D00-0
 62
     7
370
    50
100
AcDbLine
 10
73.443441
 20
376.970989
 30
0.0
 11
77.055539
 21
376.970989
 31
0.0
  0
LINE
  5
1EC
102
{ACAD_REACTORS
330
73F
102
}
330
1F
100
AcDbEntity
  8
LC-001-100-D00-0
 62
     7
370
    50
100
AcDbLine
 10
81.519826
 20
376.970989
 30
0.0
 11
88.305875
 21
376.970989
 31
0.0
  0
LINE
  5
1ED
102
{ACAD_REACTORS
330
73F
102
}
330
1F
100
AcDbEntity
  8
LC-001-100-D00-0
 62
     7
370
    50
100
AcDbLine
 10
154.162607
 20
376.91676
 30
0.0
 11
154.162607
 21
369.470992
 31
0.0
  0
LINE
  5
1EE
102
{ACAD_REACTORS
330
73F
102
}
330
1F
100
AcDbEntity
  8
LC-001-100-D00-0
 62
     7
370
    50
100
AcDbLine
 10
154.162607
 20
376.970989
 30
0.0
 11
160.948655
 21
376.970989
 31
0.0
  0
LINE
  5
1EF
102
{ACAD_REACTORS
330
73F
102
}
330
1F
100
AcDbEntity
  8
LC-001-100-D00-0
 62
     7
370
    50
100
AcDbLine
 10
165.412943
 20
376.970989
 30
0.0
 11
169.02504
 21
376.970989
 31
0.0
  0
LINE
  5
1F0
102
{ACAD_REACTORS
330
73F
102
}
330
1F
100
AcDbEntity
  8
LC-001-100-D00-0
 62
     7
370
    50
100
AcDbLine
 10
92.221732
 20
369.470992
 30
0.0
 11
86.154847
 21
369.470992
 31
0.0
  0
LINE
  5
1F1
102
{ACAD_REACTORS
330
73F
102
}
330
1F
100
AcDbEntity
  8
LC-001-100-D00-0
 62
     7
370
    50
100
AcDbLine
 10
156.313634
 20
369.470992
 30
0.0
 11
150.246749
 21
369.470992
 31
0.0
  0
LINE
  5
1F2
102
{ACAD_REACTORS
330
73F
102
}
330
1F
100
AcDbEntity
  8
LC-001-100-D00-0
 62
     7
370
    50
100
AcDbLine
 10
65.984241
 20
378.970989
 30
0.0
 11
65.93424
 21
378.970989
 31
0.0
  0
LINE
  5
1F3
102
{ACAD_REACTORS
330
73F
102
}
330
1F
100
AcDbEntity
  8
LC-001-100-D00-0
 62
     7
370
    50
100
AcDbLine
 10
65.93424
 20
378.970989
 30
0.0
 11
65.93424
 21
382.97099
 31
0.0
  0
LINE
  5
1F4
102
{ACAD_REACTORS
330
73F
102
}
330
1F
100
AcDbEntity
  8
LC-001-100-D00-0
 62
     7
370
    50
100
AcDbLine
 10
176.534242
 20
378.970989
 30
0.0
 11
176.484241
 21
378.970989
 31
0.0
  0
LINE
  5
1F5
102
{ACAD_REACTORS
330
73F
102
}
330
1F
100
AcDbEntity
  8
LC-001-100-D00-0
 62
     7
370
    50
100
AcDbLine
 10
176.534242
 20
382.97099
 30
0.0
 11
176.534242
 21
378.970989
 31
0.0
  0
LINE
  5
1F6
102
{ACAD_REACTORS
330
73F
102
}
330
1F
100
AcDbEntity
  8
LC-001-100-D00-0
 62
     7
370
    50
100
AcDbLine
 10
195.707629
 20
383.97099
 30
0.0
 11
179.034239
 21
383.97099
 31
0.0
  0
ARC
  5
1F7
102
{ACAD_REACTORS
330
73F
102
}
330
1F
100
AcDbEntity
  8
LC-001-100-D00-0
 62
     7
370
    50
100
AcDbCircle
 10
179.034241
 20
382.97099
 30
0.0
 40
1.0
100
AcDbArc
 50
90.0
 51
180.0
  0
LINE
  5
1F8
102
{ACAD_REACTORS
330
73F
102
}
330
1F
100
AcDbEntity
  8
LC-001-100-D00-0
 62
     7
370
    50
100
AcDbLine
 10
178.034241
 20
382.97099
 30
0.0
 11
178.034241
 21
378.970989
 31
0.0
  0
LINE
  5
1F9
102
{ACAD_REACTORS
330
73F
102
}
330
1F
100
AcDbEntity
  8
LC-001-100-D00-0
 62
     7
370
    50
100
AcDbLine
 10
178.034241
 20
378.970989
 30
0.0
 11
176.534242
 21
378.970989
 31
0.0
  0
ARC
  5
1FA
102
{ACAD_REACTORS
330
73F
102
}
330
1F
100
AcDbEntity
  8
LC-001-100-D00-0
 62
     7
370
    50
100
AcDbCircle
 10
179.034241
 20
382.97099
 30
0.0
 40
2.5
100
AcDbArc
 50
90.0
 51
180.0
  0
LINE
  5
1FB
102
{ACAD_REACTORS
330
73F
102
}
330
1F
100
AcDbEntity
  8
LC-001-100-D00-0
 62
     7
370
    50
100
AcDbLine
 10
195.707629
 20
385.470991
 30
0.0
 11
179.034239
 21
385.470991
 31
0.0
  0
LINE
  5
1FC
102
{ACAD_REACTORS
330
73F
102
}
330
1F
100
AcDbEntity
  8
LC-001-100-D00-0
 62
     7
370
    50
100
AcDbLine
 10
64.43424
 20
378.970989
 30
0.0
 11
64.43424
 21
382.97099
 31
0.0
  0
LINE
  5
1FD
102
{ACAD_REACTORS
330
73F
102
}
330
1F
100
AcDbEntity
  8
LC-001-100-D00-0
 62
     7
370
    50
100
AcDbLine
 10
52.157032
 20
385.470991
 30
0.0
 11
46.760852
 21
385.470991
 31
0.0
  0
LINE
  5
1FE
102
{ACAD_REACTORS
330
73F
102
}
330
1F
100
AcDbEntity
  8
LC-001-100-D00-0
 62
     7
370
    50
100
AcDbLine
 10
52.157032
 20
385.370991
 30
0.0
 11
52.157032
 21
385.470991
 31
0.0
  0
LINE
  5
1FF
102
{ACAD_REACTORS
330
73F
102
}
330
1F
100
AcDbEntity
  8
LC-001-100-D00-0
 62
     7
370
    50
100
AcDbLine
 10
52.680867
 20
385.370991
 30
0.0
 11
52.157032
 21
385.370991
 31
0.0
  0
LINE
  5
200
102
{ACAD_REACTORS
330
73F
102
}
330
1F
100
AcDbEntity
  8
LC-001-100-D00-0
 62
     7
370
    50
100
AcDbLine
 10
52.680867
 20
385.470991
 30
0.0
 11
52.680867
 21
385.370991
 31
0.0
  0
LINE
  5
201
102
{ACAD_REACTORS
330
73F
102
}
330
1F
100
AcDbEntity
  8
LC-001-100-D00-0
 62
     7
370
    50
100
AcDbLine
 10
53.375113
 20
385.470991
 30
0.0
 11
52.680867
 21
385.470991
 31
0.0
  0
LINE
  5
202
102
{ACAD_REACTORS
330
73F
102
}
330
1F
100
AcDbEntity
  8
LC-001-100-D00-0
 62
     7
370
    50
100
AcDbLine
 10
53.375113
 20
385.370991
 30
0.0
 11
53.375113
 21
385.470991
 31
0.0
  0
LINE
  5
203
102
{ACAD_REACTORS
330
73F
102
}
330
1F
100
AcDbEntity
  8
LC-001-100-D00-0
 62
     7
370
    50
100
AcDbLine
 10
53.899462
 20
385.370991
 30
0.0
 11
53.375113
 21
385.370991
 31
0.0
  0
LINE
  5
204
102
{ACAD_REACTORS
330
73F
102
}
330
1F
100
AcDbEntity
  8
LC-001-100-D00-0
 62
     7
370
    50
100
AcDbLine
 10
53.899462
 20
385.470991
 30
0.0
 11
53.899462
 21
385.370991
 31
0.0
  0
LINE
  5
205
102
{ACAD_REACTORS
330
73F
102
}
330
1F
100
AcDbEntity
  8
LC-001-100-D00-0
 62
     7
370
    50
100
AcDbLine
 10
63.434242
 20
385.470991
 30
0.0
 11
53.899462
 21
385.470991
 31
0.0
  0
ARC
  5
206
102
{ACAD_REACTORS
330
73F
102
}
330
1F
100
AcDbEntity
  8
LC-001-100-D00-0
 62
     7
370
    50
100
AcDbCircle
 10
63.434241
 20
382.97099
 30
0.0
 40
2.5
100
AcDbArc
 50
0.0
 51
90.0
  0
ARC
  5
207
102
{ACAD_REACTORS
330
73F
102
}
330
1F
100
AcDbEntity
  8
LC-001-100-D00-0
 62
     7
370
    50
100
AcDbCircle
 10
63.434241
 20
382.97099
 30
0.0
 40
1.0
100
AcDbArc
 50
0.0
 51
90.0
  0
LINE
  5
208
102
{ACAD_REACTORS
330
73F
102
}
330
1F
100
AcDbEntity
  8
LC-001-100-D00-0
 62
     7
370
    50
100
AcDbLine
 10
63.434242
 20
383.97099
 30
0.0
 11
46.760852
 21
383.97099
 31
0.0
  0
LINE
  5
209
102
{ACAD_REACTORS
330
73F
102
}
330
1F
100
AcDbEntity
  8
LC-001-100-D00-0
 62
     7
370
    50
100
AcDbLine
 10
65.93424
 20
378.970989
 30
0.0
 11
64.43424
 21
378.970989
 31
0.0
  0
LINE
  5
20A
102
{ACAD_REACTORS
330
73F
102
}
330
1F
100
AcDbEntity
  8
LC-001-100-D00-0
 62
     7
370
    50
100
AcDbLine
 10
53.375113
 20
385.470991
 30
0.0
 11
53.899462
 21
385.470991
 31
0.0
  0
LINE
  5
20B
102
{ACAD_REACTORS
330
73F
102
}
330
1F
100
AcDbEntity
  8
LC-001-100-D00-0
 62
     7
370
    50
100
AcDbLine
 10
52.157032
 20
385.470991
 30
0.0
 11
52.680867
 21
385.470991
 31
0.0
  0
LINE
  5
20C
102
{ACAD_REACTORS
330
73F
102
}
330
1F
100
AcDbEntity
  8
LC-001-100-D00-0
 62
     7
370
    50
100
AcDbLine
 10
163.020397
 20
376.970989
 30
0.0
 11
165.412943
 21
376.970989
 31
0.0
  0
INSERT
  5
216
102
{ACAD_REACTORS
330
73F
102
}
330
1F
100
AcDbEntity
  8
LC-001-100-D00-0
 62
     7
370
    50
100
AcDbBlockReference
  2
POLY3
 10
0.0
 20
0.0
 30
0.0
  0
LINE
  5
217
102
{ACAD_REACTORS
330
73F
102
}
330
1F
100
AcDbEntity
  8
LC-001-100-D00-0
 62
     7
370
    50
100
AcDbLine
 10
166.384156
 20
375.470989
 30
0.0
 11
163.020397
 21
375.470989
 31
0.0
  0
INSERT
  5
221
102
{ACAD_REACTORS
330
73F
102
}
330
1F
100
AcDbEntity
  8
LC-001-100-D00-0
 62
     7
370
    50
100
AcDbBlockReference
  2
POLY4
 10
0.0
 20
0.0
 30
0.0
  0
LINE
  5
222
102
{ACAD_REACTORS
330
73F
102
}
330
1F
100
AcDbEntity
  8
LC-001-100-D00-0
 62
     7
370
    50
100
AcDbLine
 10
79.448084
 20
375.470989
 30
0.0
 11
76.084326
 21
375.470989
 31
0.0
  0
LINE
  5
223
102
{ACAD_REACTORS
330
73F
102
}
330
1F
100
AcDbEntity
  8
LC-001-100-D00-0
 62
     7
370
    50
100
AcDbLine
 10
77.055539
 20
376.970989
 30
0.0
 11
79.448084
 21
376.970989
 31
0.0
  0
LINE
  5
224
102
{ACAD_REACTORS
330
73F
102
}
330
1F
100
AcDbEntity
  8
LC-001-100-D00-0
 62
     7
370
    50
100
AcDbLine
 10
163.020397
 20
375.470989
 30
0.0
 11
162.243469
 21
375.470989
 31
0.0
  0
LINE
  5
225
102
{ACAD_REACTORS
330
73F
102
}
330
1F
100
AcDbEntity
  8
LC-001-100-D00-0
 62
     7
370
    50
100
AcDbLine
 10
163.020397
 20
376.970989
 30
0.0
 11
162.243469
 21
376.970989
 31
0.0
  0
LINE
  5
226
102
{ACAD_REACTORS
330
73F
102
}
330
1F
100
AcDbEntity
  8
LC-001-100-D00-0
 62
     7
370
    50
100
AcDbLine
 10
79.448084
 20
375.470989
 30
0.0
 11
80.225012
 21
375.470989
 31
0.0
  0
LINE
  5
227
102
{ACAD_REACTORS
330
73F
102
}
330
1F
100
AcDbEntity
  8
LC-001-100-D00-0
 62
     7
370
    50
100
AcDbLine
 10
79.448084
 20
376.970989
 30
0.0
 11
80.225012
 21
376.970989
 31
0.0
  0
LINE
  5
228
102
{ACAD_REACTORS
330
73F
102
}
330
1F
100
AcDbEntity
  8
LC-001-100-D00-0
 62
     7
370
    50
100
AcDbLine
 10
162.243469
 20
375.470989
 30
0.0
 11
160.948655
 21
375.470989
 31
0.0
  0
LINE
  5
229
102
{ACAD_REACTORS
330
73F
102
}
330
1F
100
AcDbEntity
  8
LC-001-100-D00-0
 62
     7
370
    50
100
AcDbLine
 10
160.964588
 20
376.970989
 30
0.0
 11
162.243469
 21
376.970989
 31
0.0
  0
LINE
  5
22A
102
{ACAD_REACTORS
330
73F
102
}
330
1F
100
AcDbEntity
  8
LC-001-100-D00-0
 62
     7
370
    50
100
AcDbLine
 10
81.519826
 20
375.470989
 30
0.0
 11
80.225012
 21
375.470989
 31
0.0
  0
LINE
  5
22B
102
{ACAD_REACTORS
330
73F
102
}
330
1F
100
AcDbEntity
  8
LC-001-100-D00-0
 62
     7
370
    50
100
AcDbLine
 10
80.225012
 20
376.970989
 30
0.0
 11
81.503893
 21
376.970989
 31
0.0
  0
INSERT
  5
23D
102
{ACAD_REACTORS
330
73F
102
}
330
1F
100
AcDbEntity
  8
LC-001-100-D00-0
 62
     7
370
    50
100
AcDbBlockReference
  2
POLY5
 10
0.0
 20
0.0
 30
0.0
  0
INSERT
  5
24D
102
{ACAD_REACTORS
330
73F
102
}
330
1F
100
AcDbEntity
  8
LC-001-100-D00-0
 62
     7
370
    50
100
AcDbBlockReference
  2
POLY6
 10
0.0
 20
0.0
 30
0.0
  0
INSERT
  5
26B
102
{ACAD_REACTORS
330
73F
102
}
330
1F
100
AcDbEntity
  8
LC-001-100-D00-0
 62
     7
370
    25
100
AcDbBlockReference
  2
KLON1
 10
0.0
 20
0.0
 30
0.0
  0
INSERT
  5
279
102
{ACAD_REACTORS
330
73F
102
}
330
1F
100
AcDbEntity
  8
LC-001-100-D00-0
 62
     7
370
    25
100
AcDbBlockReference
  2
KLON2
 10
0.0
 20
0.0
 30
0.0
  0
INSERT
  5
287
102
{ACAD_REACTORS
330
73F
102
}
330
1F
100
AcDbEntity
  8
LC-001-100-D00-0
 62
     7
370
    25
100
AcDbBlockReference
  2
KLON3
 10
0.0
 20
0.0
 30
0.0
  0
LINE
  5
288
102
{ACAD_REACTORS
330
73F
102
}
330
1F
100
AcDbEntity
  8
LC-001-100-D00-0
 62
     7
370
    50
100
AcDbLine
 10
66.195236
 20
380.158949
 30
0.0
 11
68.546282
 21
382.509995
 31
0.0
  0
LINE
  5
289
102
{ACAD_REACTORS
330
73F
102
}
330
1F
100
AcDbEntity
  8
LC-001-100-D00-0
 62
     7
370
    50
100
AcDbLine
 10
174.264991
 20
380.46563
 30
0.0
 11
176.739601
 21
382.940241
 31
0.0
  0
INSERT
  5
29B
102
{ACAD_REACTORS
330
73F
102
}
330
1F
100
AcDbEntity
  8
LC-001-100-D00-0
 62
     7
370
    25
100
AcDbBlockReference
  2
KLON4
 10
0.0
 20
0.0
 30
0.0
  0
INSERT
  5
2AD
102
{ACAD_REACTORS
330
73F
102
}
330
1F
100
AcDbEntity
  8
LC-001-100-D00-0
 62
     7
370
    25
100
AcDbBlockReference
  2
KLON5
 10
0.0
 20
0.0
 30
0.0
  0
INSERT
  5
2C1
102
{ACAD_REACTORS
330
73F
102
}
330
1F
100
AcDbEntity
  8
LC-001-100-D00-0
 62
     7
370
    50
100
AcDbBlockReference
  2
KLON6
 10
0.0
 20
0.0
 30
0.0
  0
INSERT
  5
2D6
102
{ACAD_REACTORS
330
73F
102
}
330
1F
100
AcDbEntity
  8
LC-001-100-D00-0
 62
     7
370
    25
100
AcDbBlockReference
  2
KLON7
 10
0.0
 20
0.0
 30
0.0
  0
INSERT
  5
2DE
102
{ACAD_REACTORS
330
73F
102
}
330
1F
100
AcDbEntity
  8
LC-001-100-D00-0
 62
     7
370
    50
100
AcDbBlockReference
  2
KLON8
 10
0.0
 20
0.0
 30
0.0
  0
INSERT
  5
2E4
102
{ACAD_REACTORS
330
73F
102
}
330
1F
100
AcDbEntity
  8
LC-001-100-D00-0
 62
     7
370
    50
100
AcDbBlockReference
  2
KLON9
 10
0.0
 20
0.0
 30
0.0
  0
LINE
  5
2E5
102
{ACAD_REACTORS
330
73F
102
}
330
1F
100
AcDbEntity
  8
LC-001-100-D00-0
 62
     7
370
    50
100
AcDbLine
 10
57.027021
 20
379.97099
 30
0.0
 11
61.027021
 21
383.97099
 31
0.0
  0
LINE
  5
2E6
102
{ACAD_REACTORS
330
73F
102
}
330
1F
100
AcDbEntity
  8
LC-001-100-D00-0
 62
     7
370
    50
100
AcDbLine
 10
182.750607
 20
379.97099
 30
0.0
 11
186.234241
 21
383.454624
 31
0.0
  0
INSERT
  5
307
102
{ACAD_REACTORS
330
73F
102
}
330
1F
100
AcDbEntity
  8
LC-001-100-D00-0
 62
     7
370
    25
100
AcDbBlockReference
  2
KLON10
 10
0.0
 20
0.0
 30
0.0
  0
INSERT
  5
324
102
{ACAD_REACTORS
330
73F
102
}
330
1F
100
AcDbEntity
  8
LC-001-100-D00-0
 62
     7
370
    25
100
AcDbBlockReference
  2
KLON11
 10
0.0
 20
0.0
 30
0.0
  0
LINE
  5
326
102
{ACAD_REACTORS
330
73F
102
}
330
1F
100
AcDbEntity
  8
LC-001-100-D00-0
  6
DASHDOT
 62
     7
370
    25
100
AcDbLine
 10
121.234241
 20
410.97099
 30
0.0
 11
121.234241
 21
152.607744
 31
0.0
  0
LINE
  5
327
102
{ACAD_REACTORS
330
73F
102
}
330
1F
100
AcDbEntity
  8
LC-001-100-D00-0
 62
     7
370
    50
100
AcDbLine
 10
56.734244
 20
383.97099
 30
0.0
 11
56.234243
 21
383.97099
 31
0.0
  0
ARC
  5
328
330
1F
100
AcDbEntity
  8
LC-001-100-D00-0
 62
     7
370
    50
100
AcDbCircle
 10
418.734241
 20
-147.863491
 30
0.0
 40
2.5
100
AcDbArc
 50
270.0
 51
0.0
  0
LINE
  5
329
330
1F
100
AcDbEntity
  8
LC-001-100-D00-0
 62
     7
370
    50
100
AcDbLine
 10
421.234241
 20
-147.863491
 30
0.0
 11
421.234241
 21
-100.863491
 31
0.0
  0
ARC
  5
32A
330
1F
100
AcDbEntity
  8
LC-001-100-D00-0
 62
     7
370
    50
100
AcDbCircle
 10
418.734241
 20
-100.863491
 30
0.0
 40
2.5
100
AcDbArc
 50
0.0
 51
90.0
  0
LINE
  5
32B
330
1F
100
AcDbEntity
  8
LC-001-100-D00-0
 62
     7
370
    50
100
AcDbLine
 10
418.734241
 20
-150.363491
 30
0.0
 11
-176.265759
 21
-150.363491
 31
0.0
  0
LINE
  5
32C
330
1F
100
AcDbEntity
  8
LC-001-100-D00-0
 62
     7
370
    50
100
AcDbLine
 10
-176.265759
 20
-98.363491
 30
0.0
 11
418.734241
 21
-98.363491
 31
0.0
  0
ARC
  5
32D
330
1F
100
AcDbEntity
  8
LC-001-100-D00-0
 62
     7
370
    50
100
AcDbCircle
 10
-176.265759
 20
-100.863491
 30
0.0
 40
2.5
100
AcDbArc
 50
90.0
 51
180.0
  0
ARC
  5
32E
330
1F
100
AcDbEntity
  8
LC-001-100-D00-0
 62
     7
370
    50
100
AcDbCircle
 10
-176.265759
 20
-147.863491
 30
0.0
 40
2.5
100
AcDbArc
 50
180.0
 51
270.0
  0
LINE
  5
32F
330
1F
100
AcDbEntity
  8
LC-001-100-D00-0
 62
     7
370
    50
100
AcDbLine
 10
-178.765759
 20
-147.863491
 30
0.0
 11
-178.765759
 21
-100.863491
 31
0.0
  0
ARC
  5
330
330
1F
100
AcDbEntity
  8
LC-001-100-D00-0
 62
     7
370
    50
100
AcDbCircle
 10
-223.765759
 20
-51.863491
 30
0.0
 40
5.0
100
AcDbArc
 50
90.0
 51
180.0
  0
LINE
  5
331
330
1F
100
AcDbEntity
  8
LC-001-100-D00-0
 62
     7
370
    50
100
AcDbLine
 10
466.234241
 20
-46.863491
 30
0.0
 11
-223.765759
 21
-46.863491
 31
0.0
  0
ARC
  5
332
330
1F
100
AcDbEntity
  8
LC-001-100-D00-0
 62
     7
370
    50
100
AcDbCircle
 10
466.234241
 20
-51.863491
 30
0.0
 40
5.0
100
AcDbArc
 50
0.0
 51
90.0
  0
LINE
  5
333
330
1F
100
AcDbEntity
  8
LC-001-100-D00-0
 62
     7
370
    50
100
AcDbLine
 10
471.234241
 20
-51.863491
 30
0.0
 11
471.234241
 21
-196.863491
 31
0.0
  0
ARC
  5
334
330
1F
100
AcDbEntity
  8
LC-001-100-D00-0
 62
     7
370
    50
100
AcDbCircle
 10
466.234241
 20
-196.863491
 30
0.0
 40
4.999999999999943
100
AcDbArc
 50
270.0
 51
0.0
  0
LINE
  5
335
330
1F
100
AcDbEntity
  8
LC-001-100-D00-0
 62
     7
370
    50
100
AcDbLine
 10
-223.765759
 20
-201.863491
 30
0.0
 11
466.234241
 21
-201.863491
 31
0.0
  0
ARC
  5
336
330
1F
100
AcDbEntity
  8
LC-001-100-D00-0
 62
     7
370
    50
100
AcDbCircle
 10
-223.765759
 20
-196.863491
 30
0.0
 40
5.0
100
AcDbArc
 50
180.0
 51
270.0
  0
LINE
  5
337
330
1F
100
AcDbEntity
  8
LC-001-100-D00-0
 62
     7
370
    50
100
AcDbLine
 10
-228.765759
 20
-51.863491
 30
0.0
 11
-228.765759
 21
-196.863491
 31
0.0
  0
CIRCLE
  5
338
330
1F
100
AcDbEntity
  8
LC-001-100-D00-0
 62
     7
370
    50
100
AcDbCircle
 10
391.234241
 20
-124.363491
 30
0.0
 40
2.999999999999886
  0
CIRCLE
  5
339
330
1F
100
AcDbEntity
  8
LC-001-100-D00-0
 62
     7
370
    50
100
AcDbCircle
 10
221.234241
 20
-124.363491
 30
0.0
 40
2.999999999999886
  0
CIRCLE
  5
33A
330
1F
100
AcDbEntity
  8
LC-001-100-D00-0
 62
     7
370
    50
100
AcDbCircle
 10
21.234241
 20
-124.363491
 30
0.0
 40
3.0
  0
CIRCLE
  5
33B
330
1F
100
AcDbEntity
  8
LC-001-100-D00-0
 62
     7
370
    50
100
AcDbCircle
 10
-148.765759
 20
-124.363491
 30
0.0
 40
2.999999999999886
  0
INSERT
  5
341
330
1F
100
AcDbEntity
  8
LC-001-100-D00-0
 62
     7
370
    50
100
AcDbBlockReference
  2
KLON12
 10
0.0
 20
0.0
 30
0.0
  0
LINE
  5
342
330
1F
100
AcDbEntity
  8
LC-001-100-D00-0
 62
     7
370
    50
100
AcDbLine
 10
413.20804
 20
-136.686159
 30
0.0
 11
413.20804
 21
-147.86349
 31
0.0
  0
ARC
  5
343
330
1F
100
AcDbEntity
  8
LC-001-100-D00-0
 62
     7
370
    50
100
AcDbCircle
 10
1176.39423
 20
-255.97766
 30
0.0
 40
772.4529903793141
100
AcDbArc
 50
171.103568
 51
171.116141
  0
INSERT
  5
34B
330
1F
100
AcDbEntity
  8
LC-001-100-D00-0
 62
     7
370
    50
100
AcDbBlockReference
  2
KLON13
 10
0.0
 20
0.0
 30
0.0
  0
LINE
  5
34C
330
1F
100
AcDbEntity
  8
LC-001-100-D00-0
 62
     7
370
    50
100
AcDbLine
 10
413.20804
 20
-100.87813
 30
0.0
 11
413.20804
 21
-112.040822
 31
0.0
  0
INSERT
  5
352
330
1F
100
AcDbEntity
  8
LC-001-100-D00-0
 62
     7
370
    50
100
AcDbBlockReference
  2
KLON14
 10
0.0
 20
0.0
 30
0.0
  0
INSERT
  5
358
330
1F
100
AcDbEntity
  8
LC-001-100-D00-0
 62
     7
370
    50
100
AcDbBlockReference
  2
KLON15
 10
0.0
 20
0.0
 30
0.0
  0
INSERT
  5
35E
330
1F
100
AcDbEntity
  8
LC-001-100-D00-0
 62
     7
370
    50
100
AcDbBlockReference
  2
KLON16
 10
0.0
 20
0.0
 30
0.0
  0
LINE
  5
35F
330
1F
100
AcDbEntity
  8
LC-001-100-D00-0
 62
     7
370
    50
100
AcDbLine
 10
-170.739559
 20
-100.87813
 30
0.0
 11
-170.739559
 21
-112.040822
 31
0.0
  0
INSERT
  5
367
330
1F
100
AcDbEntity
  8
LC-001-100-D00-0
 62
     7
370
    50
100
AcDbBlockReference
  2
KLON17
 10
0.0
 20
0.0
 30
0.0
  0
ARC
  5
368
330
1F
100
AcDbEntity
  8
LC-001-100-D00-0
 62
     7
370
    50
100
AcDbCircle
 10
-933.925749
 20
-255.97766
 30
0.0
 40
772.4529903793724
100
AcDbArc
 50
8.883859
 51
8.896432
  0
LINE
  5
369
330
1F
100
AcDbEntity
  8
LC-001-100-D00-0
 62
     7
370
    50
100
AcDbLine
 10
-170.739559
 20
-136.686159
 30
0.0
 11
-170.739559
 21
-147.86349
 31
0.0
  0
ELLIPSE
  5
36A
330
1F
100
AcDbEntity
  8
LC-001-100-D00-0
 62
     7
370
    50
100
AcDbEllipse
 10
413.161272
 20
-147.863491
 30
0.0
 11
0.0
 21
-2.499999038696104
 31
0.0
210
0.0
220
0.0
230
1.0
 40
0.018242
 41
3.141592653594779
 42
4.712388980377232
  0
ELLIPSE
  5
36B
330
1F
100
AcDbEntity
  8
LC-001-100-D00-0
 62
     7
370
    50
100
AcDbEllipse
 10
276.161272
 20
-147.863491
 30
0.0
 11
0.0
 21
-2.500000091552733
 31
0.0
210
0.0
220
0.0
230
0.9999999999999999
 40
0.018242
 41
3.1415926535873
 42
4.712388980380961
  0
ELLIPSE
  5
36C
330
1F
100
AcDbEntity
  8
LC-001-100-D00-0
 62
     7
370
    50
100
AcDbEllipse
 10
481.706878
 20
-147.863491
 30
0.0
 11
68.49999999979565
 21
0.0
 31
0.0
210
0.0
220
0.0
230
1.0
 40
0.036496
 41
3.141592653597433
 42
3.169858841660611
  0
ELLIPSE
  5
36D
330
1F
100
AcDbEntity
  8
LC-001-100-D00-0
 62
     7
370
    50
100
AcDbEllipse
 10
-170.692791
 20
-147.863491
 30
0.0
 11
0.0
 21
-2.499999652862525
 31
0.0
210
0.0
220
0.0
230
1.0
 40
0.018242
 41
1.570796326802309
 42
3.141592653592909
  0
ELLIPSE
  5
36E
330
1F
100
AcDbEntity
  8
LC-001-100-D00-0
 62
     7
370
    50
100
AcDbEllipse
 10
-33.692791
 20
-147.863491
 30
0.0
 11
0.0
 21
-2.499999649047827
 31
0.0
210
0.0
220
0.0
230
1.0
 40
0.018242
 41
1.570796326798603
 42
3.141592653593532
  0
ELLIPSE
  5
36F
330
1F
100
AcDbEntity
  8
LC-001-100-D00-0
 62
     7
370
    50
100
AcDbEllipse
 10
-239.238396
 20
-147.863491
 30
0.0
 11
68.49999999979571
 21
0.0
 31
0.0
210
0.0
220
0.0
230
1.0
 40
0.036496
 41
6.254919119109599
 42
6.283185307179688
  0
ELLIPSE
  5
370
330
1F
100
AcDbEntity
  8
LC-001-100-D00-0
 62
     7
370
    50
100
AcDbEllipse
 10
481.706878
 20
-100.863491
 30
0.0
 11
68.50000000121207
 21
0.0
 31
0.0
210
0.0
220
0.0
230
1.0
 40
0.036496
 41
3.141592653589731
 42
3.147448628039308
  0
ELLIPSE
  5
371
330
1F
100
AcDbEntity
  8
LC-001-100-D00-0
 62
     7
370
    50
100
AcDbEllipse
 10
413.161272
 20
-100.863491
 30
0.0
 11
0.0
 21
-2.499999893188474
 31
0.0
210
0.0
220
0.0
230
1.0
 40
0.018242
 41
4.712388980384713
 42
6.28318535752758
  0
ELLIPSE
  5
372
330
1F
100
AcDbEntity
  8
LC-001-100-D00-0
 62
     7
370
    50
100
AcDbEllipse
 10
-239.238396
 20
-100.863491
 30
0.0
 11
68.4999999999998
 21
0.0
 31
0.0
210
0.0
220
0.0
230
1.0
 40
0.036496
 41
6.277329332730768
 42
6.283185307179609
  0
ELLIPSE
  5
373
330
1F
100
AcDbEntity
  8
LC-001-100-D00-0
 62
     7
370
    50
100
AcDbEllipse
 10
-170.692791
 20
-100.863491
 30
0.0
 11
0.0
 21
-2.500000015258789
 31
0.0
210
0.0
220
0.0
230
1.0
 40
0.018242
 41
6.2831852568478
 42
7.85398163397446
  0
ELLIPSE
  5
374
330
1F
100
AcDbEntity
  8
LC-001-100-D00-0
 62
     7
370
    50
100
AcDbEllipse
 10
276.161272
 20
-100.863491
 30
0.0
 11
0.0
 21
-2.500000022888183
 31
0.0
210
0.0
220
0.0
230
0.9999999999999999
 40
0.018242
 41
4.712388980388299
 42
6.283185315673956
  0
ELLIPSE
  5
375
330
1F
100
AcDbEntity
  8
LC-001-100-D00-0
 62
     7
370
    50
100
AcDbEllipse
 10
-33.692791
 20
-100.863491
 30
0.0
 11
0.0
 21
-2.499999649047827
 31
0.0
210
0.0
220
0.0
230
1.0
 40
0.018242
 41
6.283185298685216
 42
7.853981633970816
  0
LINE
  5
376
330
1F
100
AcDbEntity
  8
LC-001-100-D00-0
 62
     7
370
    50
100
AcDbLine
 10
276.206883
 20
-147.86349
 30
0.0
 11
276.206883
 21
-145.012974
 31
0.0
  0
INSERT
  5
37C
330
1F
100
AcDbEntity
  8
LC-001-100-D00-0
 62
     7
370
    50
100
AcDbBlockReference
  2
KLON18
 10
0.0
 20
0.0
 30
0.0
  0
INSERT
  5
382
330
1F
100
AcDbEntity
  8
LC-001-100-D00-0
 62
     7
370
    50
100
AcDbBlockReference
  2
KLON19
 10
0.0
 20
0.0
 30
0.0
  0
LINE
  5
383
330
1F
100
AcDbEntity
  8
LC-001-100-D00-0
 62
     7
370
    50
100
AcDbLine
 10
-33.738402
 20
-147.86349
 30
0.0
 11
-33.738402
 21
-145.012974
 31
0.0
  0
INSERT
  5
38A
330
1F
100
AcDbEntity
  8
LC-001-100-D00-0
 62
     7
370
    50
100
AcDbBlockReference
  2
KLON20
 10
0.0
 20
0.0
 30
0.0
  0
INSERT
  5
390
330
1F
100
AcDbEntity
  8
LC-001-100-D00-0
 62
     7
370
    50
100
AcDbBlockReference
  2
KLON21
 10
0.0
 20
0.0
 30
0.0
  0
INSERT
  5
397
330
1F
100
AcDbEntity
  8
LC-001-100-D00-0
 62
     7
370
    50
100
AcDbBlockReference
  2
KLON22
 10
0.0
 20
0.0
 30
0.0
  0
INSERT
  5
39E
330
1F
100
AcDbEntity
  8
LC-001-100-D00-0
 62
     7
370
    50
100
AcDbBlockReference
  2
KLON23
 10
0.0
 20
0.0
 30
0.0
  0
INSERT
  5
3A5
330
1F
100
AcDbEntity
  8
LC-001-100-D00-0
 62
     7
370
    50
100
AcDbBlockReference
  2
KLON24
 10
0.0
 20
0.0
 30
0.0
  0
INSERT
  5
3AB
330
1F
100
AcDbEntity
  8
LC-001-100-D00-0
 62
     7
370
    50
100
AcDbBlockReference
  2
KLON25
 10
0.0
 20
0.0
 30
0.0
  0
LINE
  5
3AC
330
1F
100
AcDbEntity
  8
LC-001-100-D00-0
 62
     7
370
    50
100
AcDbLine
 10
276.206883
 20
-103.714007
 30
0.0
 11
276.206883
 21
-100.863491
 31
0.0
  0
LINE
  5
3AD
330
1F
100
AcDbEntity
  8
LC-001-100-D00-0
 62
     7
370
    50
100
AcDbLine
 10
-33.738402
 20
-103.714007
 30
0.0
 11
-33.738402
 21
-100.863491
 31
0.0
  0
LINE
  5
3AE
330
1F
100
AcDbEntity
  8
LC-001-100-D00-0
 62
     7
370
    50
100
AcDbLine
 10
276.221144
 20
-144.219169
 30
0.0
 11
276.221144
 21
-130.224441
 31
0.0
  0
ELLIPSE
  5
3AF
330
1F
100
AcDbEntity
  8
LC-001-100-D00-0
 62
     7
370
    50
100
AcDbEllipse
 10
132.974429
 20
-152.784299
 30
0.0
 11
143.2466513552967
 21
8.567474730288751
 31
0.0
210
0.0
220
0.0
230
1.0
 40
0.016531
 41
6.280994665940508
 42
6.28219662751813
  0
ELLIPSE
  5
3B0
330
1F
100
AcDbEntity
  8
LC-001-100-D00-0
 62
     7
370
    50
100
AcDbEllipse
 10
132.974429
 20
-95.942682
 30
0.0
 11
143.2466513879959
 21
-8.567474732244433
 31
0.0
210
0.0
220
0.0
230
0.9999999999999999
 40
0.016531
 41
0.0009886796639728
 42
0.0021906412414053
  0
LINE
  5
3B1
330
1F
100
AcDbEntity
  8
LC-001-100-D00-0
 62
     7
370
    50
100
AcDbLine
 10
276.221144
 20
-118.50254
 30
0.0
 11
276.221144
 21
-104.507812
 31
0.0
  0
ELLIPSE
  5
3B2
330
1F
100
AcDbEntity
  8
LC-001-100-D00-0
 62
     7
370
    50
100
AcDbEllipse
 10
109.494052
 20
-152.784299
 30
0.0
 11
143.2466512857109
 21
-8.567474726127418
 31
0.0
210
0.0
220
0.0
230
1.0
 40
0.016531
 41
3.142581333256438
 42
3.143783294834241
  0
LINE
  5
3B3
330
1F
100
AcDbEntity
  8
LC-001-100-D00-0
 62
     7
370
    50
100
AcDbLine
 10
-33.752662
 20
-144.219169
 30
0.0
 11
-33.752662
 21
-130.224441
 31
0.0
  0
ELLIPSE
  5
3B4
330
1F
100
AcDbEntity
  8
LC-001-100-D00-0
 62
     7
370
    50
100
AcDbEllipse
 10
109.494052
 20
-95.942682
 30
0.0
 11
143.2466512316273
 21
8.567474722892301
 31
0.0
210
0.0
220
0.0
230
1.0
 40
0.016531
 41
3.139402012346162
 42
3.140603973923676
  0
LINE
  5
3B5
330
1F
100
AcDbEntity
  8
LC-001-100-D00-0
 62
     7
370
    50
100
AcDbLine
 10
-33.752662
 20
-118.50254
 30
0.0
 11
-33.752662
 21
-104.507812
 31
0.0
  0
LINE
  5
3B6
330
1F
100
AcDbEntity
  8
LC-001-100-D00-0
 62
     7
370
    50
100
AcDbLine
 10
276.206883
 20
-145.012601
 30
0.0
 11
276.221054
 21
-144.222032
 31
0.0
  0
LINE
  5
3B7
330
1F
100
AcDbEntity
  8
LC-001-100-D00-0
 62
     7
370
    50
100
AcDbLine
 10
276.206883
 20
-103.71438
 30
0.0
 11
276.221054
 21
-104.50495
 31
0.0
  0
LINE
  5
3B8
330
1F
100
AcDbEntity
  8
LC-001-100-D00-0
 62
     7
370
    50
100
AcDbLine
 10
-33.738402
 20
-145.012601
 30
0.0
 11
-33.752573
 21
-144.222032
 31
0.0
  0
LINE
  5
3B9
330
1F
100
AcDbEntity
  8
LC-001-100-D00-0
 62
     7
370
    50
100
AcDbLine
 10
-33.738402
 20
-103.71438
 30
0.0
 11
-33.752573
 21
-104.50495
 31
0.0
  0
ARC
  5
3BA
330
1F
100
AcDbEntity
  8
LC-001-100-D00-0
 62
     7
370
    50
100
AcDbCircle
 10
151.734233
 20
-124.36347
 30
0.0
 40
24.80002105914423
100
AcDbArc
 50
270.0
 51
300.592807
  0
ARC
  5
3BB
330
1F
100
AcDbEntity
  8
LC-001-100-D00-0
 62
     7
370
    50
100
AcDbCircle
 10
90.734248
 20
-124.36347
 30
0.0
 40
24.80002105914409
100
AcDbArc
 50
239.407193
 51
270.0
  0
ARC
  5
3BC
330
1F
100
AcDbEntity
  8
LC-001-100-D00-0
 62
     7
370
    50
100
AcDbCircle
 10
151.734235
 20
-124.363503
 30
0.0
 40
24.80001358063753
100
AcDbArc
 50
59.407188
 51
90.0
  0
ARC
  5
3BD
330
1F
100
AcDbEntity
  8
LC-001-100-D00-0
 62
     7
370
    50
100
AcDbCircle
 10
90.734246
 20
-124.363503
 30
0.0
 40
24.80001358063703
100
AcDbArc
 50
90.0
 51
120.592812
  0
LINE
  5
3BE
330
1F
100
AcDbEntity
  8
LC-001-100-D00-0
 62
     7
370
    50
100
AcDbLine
 10
90.73424
 20
-99.56349
 30
0.0
 11
151.734241
 21
-99.56349
 31
0.0
  0
LINE
  5
3BF
330
1F
100
AcDbEntity
  8
LC-001-100-D00-0
 62
     7
370
    50
100
AcDbLine
 10
151.734241
 20
-149.163491
 30
0.0
 11
90.73424
 21
-149.163491
 31
0.0
  0
LINE
  5
3C0
330
1F
100
AcDbEntity
  8
LC-001-100-D00-0
 62
     7
370
    50
100
AcDbLine
 10
54.401408
 20
-120.924588
 30
0.0
 11
54.409551
 21
-121.292479
 31
0.0
  0
LINE
  5
3C1
330
1F
100
AcDbEntity
  8
LC-001-100-D00-0
 62
     7
370
    50
100
AcDbLine
 10
53.290131
 20
-120.131619
 30
0.0
 11
54.401408
 21
-120.924588
 31
0.0
  0
LINE
  5
3C2
330
1F
100
AcDbEntity
  8
LC-001-100-D00-0
 62
     7
370
    50
100
AcDbLine
 10
54.401408
 20
-119.33865
 30
0.0
 11
53.290131
 21
-120.131619
 31
0.0
  0
LINE
  5
3C3
330
1F
100
AcDbEntity
  8
LC-001-100-D00-0
 62
     7
370
    50
100
AcDbLine
 10
54.401408
 20
-118.964952
 30
0.0
 11
54.401408
 21
-119.33865
 31
0.0
  0
LINE
  5
3C4
330
1F
100
AcDbEntity
  8
LC-001-100-D00-0
 62
     7
370
    50
100
AcDbLine
 10
53.027908
 20
-119.944419
 30
0.0
 11
54.401408
 21
-118.964952
 31
0.0
  0
LINE
  5
3C5
330
1F
100
AcDbEntity
  8
LC-001-100-D00-0
 62
     7
370
    50
100
AcDbLine
 10
51.843713
 20
-119.099567
 30
0.0
 11
53.027908
 21
-119.944419
 31
0.0
  0
LINE
  5
3C6
330
1F
100
AcDbEntity
  8
LC-001-100-D00-0
 62
     7
370
    50
100
AcDbLine
 10
51.843713
 20
-119.473266
 30
0.0
 11
51.843713
 21
-119.099567
 31
0.0
  0
LINE
  5
3C7
330
1F
100
AcDbEntity
  8
LC-001-100-D00-0
 62
     7
370
    50
100
AcDbLine
 10
52.766393
 20
-120.131619
 30
0.0
 11
51.843713
 21
-119.473266
 31
0.0
  0
LINE
  5
3C8
330
1F
100
AcDbEntity
  8
LC-001-100-D00-0
 62
     7
370
    50
100
AcDbLine
 10
51.843713
 20
-120.789972
 30
0.0
 11
52.766393
 21
-120.131619
 31
0.0
  0
LINE
  5
3C9
330
1F
100
AcDbEntity
  8
LC-001-100-D00-0
 62
     7
370
    50
100
AcDbLine
 10
51.843713
 20
-121.16367
 30
0.0
 11
51.843713
 21
-120.789972
 31
0.0
  0
LINE
  5
3CA
330
1F
100
AcDbEntity
  8
LC-001-100-D00-0
 62
     7
370
    50
100
AcDbLine
 10
53.027908
 20
-120.318117
 30
0.0
 11
51.843713
 21
-121.16367
 31
0.0
  0
LINE
  5
3CB
330
1F
100
AcDbEntity
  8
LC-001-100-D00-0
 62
     7
370
    50
100
AcDbLine
 10
54.409551
 20
-121.292479
 30
0.0
 11
53.027908
 21
-120.318117
 31
0.0
  0
LINE
  5
3CC
330
1F
100
AcDbEntity
  8
LC-001-100-D00-0
 62
     7
370
    50
100
AcDbLine
 10
54.401408
 20
-125.591254
 30
0.0
 11
54.409551
 21
-125.959146
 31
0.0
  0
LINE
  5
3CD
330
1F
100
AcDbEntity
  8
LC-001-100-D00-0
 62
     7
370
    50
100
AcDbLine
 10
53.290131
 20
-124.798285
 30
0.0
 11
54.401408
 21
-125.591254
 31
0.0
  0
LINE
  5
3CE
330
1F
100
AcDbEntity
  8
LC-001-100-D00-0
 62
     7
370
    50
100
AcDbLine
 10
54.401408
 20
-124.005317
 30
0.0
 11
53.290131
 21
-124.798285
 31
0.0
  0
LINE
  5
3CF
330
1F
100
AcDbEntity
  8
LC-001-100-D00-0
 62
     7
370
    50
100
AcDbLine
 10
54.401408
 20
-123.631619
 30
0.0
 11
54.401408
 21
-124.005317
 31
0.0
  0
LINE
  5
3D0
330
1F
100
AcDbEntity
  8
LC-001-100-D00-0
 62
     7
370
    50
100
AcDbLine
 10
53.027908
 20
-124.611086
 30
0.0
 11
54.401408
 21
-123.631619
 31
0.0
  0
LINE
  5
3D1
330
1F
100
AcDbEntity
  8
LC-001-100-D00-0
 62
     7
370
    50
100
AcDbLine
 10
51.843713
 20
-123.766234
 30
0.0
 11
53.027908
 21
-124.611086
 31
0.0
  0
LINE
  5
3D2
330
1F
100
AcDbEntity
  8
LC-001-100-D00-0
 62
     7
370
    50
100
AcDbLine
 10
51.843713
 20
-124.139932
 30
0.0
 11
51.843713
 21
-123.766234
 31
0.0
  0
LINE
  5
3D3
330
1F
100
AcDbEntity
  8
LC-001-100-D00-0
 62
     7
370
    50
100
AcDbLine
 10
52.766393
 20
-124.798285
 30
0.0
 11
51.843713
 21
-124.139932
 31
0.0
  0
LINE
  5
3D4
330
1F
100
AcDbEntity
  8
LC-001-100-D00-0
 62
     7
370
    50
100
AcDbLine
 10
51.843713
 20
-125.456639
 30
0.0
 11
52.766393
 21
-124.798285
 31
0.0
  0
LINE
  5
3D5
330
1F
100
AcDbEntity
  8
LC-001-100-D00-0
 62
     7
370
    50
100
AcDbLine
 10
51.843713
 20
-125.830337
 30
0.0
 11
51.843713
 21
-125.456639
 31
0.0
  0
LINE
  5
3D6
330
1F
100
AcDbEntity
  8
LC-001-100-D00-0
 62
     7
370
    50
100
AcDbLine
 10
53.027908
 20
-124.984784
 30
0.0
 11
51.843713
 21
-125.830337
 31
0.0
  0
LINE
  5
3D7
330
1F
100
AcDbEntity
  8
LC-001-100-D00-0
 62
     7
370
    50
100
AcDbLine
 10
54.409551
 20
-125.959146
 30
0.0
 11
53.027908
 21
-124.984784
 31
0.0
  0
LINE
  5
3D8
330
1F
100
AcDbEntity
  8
LC-001-100-D00-0
 62
     7
370
    50
100
AcDbLine
 10
54.401408
 20
-130.257921
 30
0.0
 11
54.409551
 21
-130.625813
 31
0.0
  0
LINE
  5
3D9
330
1F
100
AcDbEntity
  8
LC-001-100-D00-0
 62
     7
370
    50
100
AcDbLine
 10
53.290131
 20
-129.464952
 30
0.0
 11
54.401408
 21
-130.257921
 31
0.0
  0
LINE
  5
3DA
330
1F
100
AcDbEntity
  8
LC-001-100-D00-0
 62
     7
370
    50
100
AcDbLine
 10
54.401408
 20
-128.671983
 30
0.0
 11
53.290131
 21
-129.464952
 31
0.0
  0
LINE
  5
3DB
330
1F
100
AcDbEntity
  8
LC-001-100-D00-0
 62
     7
370
    50
100
AcDbLine
 10
54.401408
 20
-128.298286
 30
0.0
 11
54.401408
 21
-128.671983
 31
0.0
  0
LINE
  5
3DC
330
1F
100
AcDbEntity
  8
LC-001-100-D00-0
 62
     7
370
    50
100
AcDbLine
 10
53.027908
 20
-129.277752
 30
0.0
 11
54.401408
 21
-128.298286
 31
0.0
  0
LINE
  5
3DD
330
1F
100
AcDbEntity
  8
LC-001-100-D00-0
 62
     7
370
    50
100
AcDbLine
 10
51.843713
 20
-128.432901
 30
0.0
 11
53.027908
 21
-129.277752
 31
0.0
  0
LINE
  5
3DE
330
1F
100
AcDbEntity
  8
LC-001-100-D00-0
 62
     7
370
    50
100
AcDbLine
 10
51.843713
 20
-128.806599
 30
0.0
 11
51.843713
 21
-128.432901
 31
0.0
  0
LINE
  5
3DF
330
1F
100
AcDbEntity
  8
LC-001-100-D00-0
 62
     7
370
    50
100
AcDbLine
 10
52.766393
 20
-129.464952
 30
0.0
 11
51.843713
 21
-128.806599
 31
0.0
  0
LINE
  5
3E0
330
1F
100
AcDbEntity
  8
LC-001-100-D00-0
 62
     7
370
    50
100
AcDbLine
 10
51.843713
 20
-130.123305
 30
0.0
 11
52.766393
 21
-129.464952
 31
0.0
  0
LINE
  5
3E1
330
1F
100
AcDbEntity
  8
LC-001-100-D00-0
 62
     7
370
    50
100
AcDbLine
 10
51.843713
 20
-130.497004
 30
0.0
 11
51.843713
 21
-130.123305
 31
0.0
  0
LINE
  5
3E2
330
1F
100
AcDbEntity
  8
LC-001-100-D00-0
 62
     7
370
    50
100
AcDbLine
 10
53.027908
 20
-129.651451
 30
0.0
 11
51.843713
 21
-130.497004
 31
0.0
  0
LINE
  5
3E3
330
1F
100
AcDbEntity
  8
LC-001-100-D00-0
 62
     7
370
    50
100
AcDbLine
 10
54.409551
 20
-130.625813
 30
0.0
 11
53.027908
 21
-129.651451
 31
0.0
  0
LINE
  5
3E4
330
1F
100
AcDbEntity
  8
LC-001-100-D00-0
 62
     7
370
    50
100
AcDbLine
 10
54.401408
 20
-132.591254
 30
0.0
 11
54.401408
 21
-132.964952
 31
0.0
  0
LINE
  5
3E5
330
1F
100
AcDbEntity
  8
LC-001-100-D00-0
 62
     7
370
    50
100
AcDbLine
 10
53.290131
 20
-131.798286
 30
0.0
 11
54.401408
 21
-132.591254
 31
0.0
  0
LINE
  5
3E6
330
1F
100
AcDbEntity
  8
LC-001-100-D00-0
 62
     7
370
    50
100
AcDbLine
 10
54.401408
 20
-131.005317
 30
0.0
 11
53.290131
 21
-131.798286
 31
0.0
  0
LINE
  5
3E7
330
1F
100
AcDbEntity
  8
LC-001-100-D00-0
 62
     7
370
    50
100
AcDbLine
 10
54.401408
 20
-130.631619
 30
0.0
 11
54.401408
 21
-131.005317
 31
0.0
  0
LINE
  5
3E8
330
1F
100
AcDbEntity
  8
LC-001-100-D00-0
 62
     7
370
    50
100
AcDbLine
 10
53.027908
 20
-131.611086
 30
0.0
 11
54.401408
 21
-130.631619
 31
0.0
  0
LINE
  5
3E9
330
1F
100
AcDbEntity
  8
LC-001-100-D00-0
 62
     7
370
    50
100
AcDbLine
 10
51.843713
 20
-130.766234
 30
0.0
 11
53.027908
 21
-131.611086
 31
0.0
  0
LINE
  5
3EA
330
1F
100
AcDbEntity
  8
LC-001-100-D00-0
 62
     7
370
    50
100
AcDbLine
 10
51.843713
 20
-131.139932
 30
0.0
 11
51.843713
 21
-130.766234
 31
0.0
  0
LINE
  5
3EB
330
1F
100
AcDbEntity
  8
LC-001-100-D00-0
 62
     7
370
    50
100
AcDbLine
 10
52.766393
 20
-131.798286
 30
0.0
 11
51.843713
 21
-131.139932
 31
0.0
  0
LINE
  5
3EC
330
1F
100
AcDbEntity
  8
LC-001-100-D00-0
 62
     7
370
    50
100
AcDbLine
 10
51.843713
 20
-132.456639
 30
0.0
 11
52.766393
 21
-131.798286
 31
0.0
  0
LINE
  5
3ED
330
1F
100
AcDbEntity
  8
LC-001-100-D00-0
 62
     7
370
    50
100
AcDbLine
 10
51.843713
 20
-132.830337
 30
0.0
 11
51.843713
 21
-132.456639
 31
0.0
  0
LINE
  5
3EE
330
1F
100
AcDbEntity
  8
LC-001-100-D00-0
 62
     7
370
    50
100
AcDbLine
 10
53.027908
 20
-131.984784
 30
0.0
 11
51.843713
 21
-132.830337
 31
0.0
  0
LINE
  5
3EF
330
1F
100
AcDbEntity
  8
LC-001-100-D00-0
 62
     7
370
    50
100
AcDbLine
 10
54.401408
 20
-132.964952
 30
0.0
 11
53.027908
 21
-131.984784
 31
0.0
  0
LINE
  5
3F0
330
1F
100
AcDbEntity
  8
LC-001-100-D00-0
 62
     7
370
    50
100
AcDbLine
 10
54.401408
 20
-127.924588
 30
0.0
 11
54.409551
 21
-128.292479
 31
0.0
  0
LINE
  5
3F1
330
1F
100
AcDbEntity
  8
LC-001-100-D00-0
 62
     7
370
    50
100
AcDbLine
 10
53.290131
 20
-127.131619
 30
0.0
 11
54.401408
 21
-127.924588
 31
0.0
  0
LINE
  5
3F2
330
1F
100
AcDbEntity
  8
LC-001-100-D00-0
 62
     7
370
    50
100
AcDbLine
 10
54.401408
 20
-126.33865
 30
0.0
 11
53.290131
 21
-127.131619
 31
0.0
  0
LINE
  5
3F3
330
1F
100
AcDbEntity
  8
LC-001-100-D00-0
 62
     7
370
    50
100
AcDbLine
 10
54.401408
 20
-125.964952
 30
0.0
 11
54.401408
 21
-126.33865
 31
0.0
  0
LINE
  5
3F4
330
1F
100
AcDbEntity
  8
LC-001-100-D00-0
 62
     7
370
    50
100
AcDbLine
 10
53.027908
 20
-126.944419
 30
0.0
 11
54.401408
 21
-125.964952
 31
0.0
  0
LINE
  5
3F5
330
1F
100
AcDbEntity
  8
LC-001-100-D00-0
 62
     7
370
    50
100
AcDbLine
 10
51.843713
 20
-126.099568
 30
0.0
 11
53.027908
 21
-126.944419
 31
0.0
  0
LINE
  5
3F6
330
1F
100
AcDbEntity
  8
LC-001-100-D00-0
 62
     7
370
    50
100
AcDbLine
 10
51.843713
 20
-126.473265
 30
0.0
 11
51.843713
 21
-126.099568
 31
0.0
  0
LINE
  5
3F7
330
1F
100
AcDbEntity
  8
LC-001-100-D00-0
 62
     7
370
    50
100
AcDbLine
 10
52.766393
 20
-127.131619
 30
0.0
 11
51.843713
 21
-126.473265
 31
0.0
  0
LINE
  5
3F8
330
1F
100
AcDbEntity
  8
LC-001-100-D00-0
 62
     7
370
    50
100
AcDbLine
 10
51.843713
 20
-127.789972
 30
0.0
 11
52.766393
 21
-127.131619
 31
0.0
  0
LINE
  5
3F9
330
1F
100
AcDbEntity
  8
LC-001-100-D00-0
 62
     7
370
    50
100
AcDbLine
 10
51.843713
 20
-128.16367
 30
0.0
 11
51.843713
 21
-127.789972
 31
0.0
  0
LINE
  5
3FA
330
1F
100
AcDbEntity
  8
LC-001-100-D00-0
 62
     7
370
    50
100
AcDbLine
 10
53.027908
 20
-127.318117
 30
0.0
 11
51.843713
 21
-128.16367
 31
0.0
  0
LINE
  5
3FB
330
1F
100
AcDbEntity
  8
LC-001-100-D00-0
 62
     7
370
    50
100
AcDbLine
 10
54.409551
 20
-128.292479
 30
0.0
 11
53.027908
 21
-127.318117
 31
0.0
  0
LINE
  5
3FC
330
1F
100
AcDbEntity
  8
LC-001-100-D00-0
 62
     7
370
    50
100
AcDbLine
 10
54.401408
 20
-123.257921
 30
0.0
 11
54.409551
 21
-123.625813
 31
0.0
  0
LINE
  5
3FD
330
1F
100
AcDbEntity
  8
LC-001-100-D00-0
 62
     7
370
    50
100
AcDbLine
 10
53.290131
 20
-122.464952
 30
0.0
 11
54.401408
 21
-123.257921
 31
0.0
  0
LINE
  5
3FE
330
1F
100
AcDbEntity
  8
LC-001-100-D00-0
 62
     7
370
    50
100
AcDbLine
 10
54.401408
 20
-121.671983
 30
0.0
 11
53.290131
 21
-122.464952
 31
0.0
  0
LINE
  5
3FF
330
1F
100
AcDbEntity
  8
LC-001-100-D00-0
 62
     7
370
    50
100
AcDbLine
 10
54.401408
 20
-121.298285
 30
0.0
 11
54.401408
 21
-121.671983
 31
0.0
  0
LINE
  5
400
330
1F
100
AcDbEntity
  8
LC-001-100-D00-0
 62
     7
370
    50
100
AcDbLine
 10
53.027908
 20
-122.277753
 30
0.0
 11
54.401408
 21
-121.298285
 31
0.0
  0
LINE
  5
401
330
1F
100
AcDbEntity
  8
LC-001-100-D00-0
 62
     7
370
    50
100
AcDbLine
 10
51.843713
 20
-121.432901
 30
0.0
 11
53.027908
 21
-122.277753
 31
0.0
  0
LINE
  5
402
330
1F
100
AcDbEntity
  8
LC-001-100-D00-0
 62
     7
370
    50
100
AcDbLine
 10
51.843713
 20
-121.806599
 30
0.0
 11
51.843713
 21
-121.432901
 31
0.0
  0
LINE
  5
403
330
1F
100
AcDbEntity
  8
LC-001-100-D00-0
 62
     7
370
    50
100
AcDbLine
 10
52.766393
 20
-122.464952
 30
0.0
 11
51.843713
 21
-121.806599
 31
0.0
  0
LINE
  5
404
330
1F
100
AcDbEntity
  8
LC-001-100-D00-0
 62
     7
370
    50
100
AcDbLine
 10
51.843713
 20
-123.123306
 30
0.0
 11
52.766393
 21
-122.464952
 31
0.0
  0
LINE
  5
405
330
1F
100
AcDbEntity
  8
LC-001-100-D00-0
 62
     7
370
    50
100
AcDbLine
 10
51.843713
 20
-123.497003
 30
0.0
 11
51.843713
 21
-123.123306
 31
0.0
  0
LINE
  5
406
330
1F
100
AcDbEntity
  8
LC-001-100-D00-0
 62
     7
370
    50
100
AcDbLine
 10
53.027908
 20
-122.651451
 30
0.0
 11
51.843713
 21
-123.497003
 31
0.0
  0
LINE
  5
407
330
1F
100
AcDbEntity
  8
LC-001-100-D00-0
 62
     7
370
    50
100
AcDbLine
 10
54.409551
 20
-123.625813
 30
0.0
 11
53.027908
 21
-122.651451
 31
0.0
  0
ARC
  5
408
330
1F
100
AcDbEntity
  8
LC-001-100-D00-0
 62
     7
370
    50
100
AcDbCircle
 10
151.734241
 20
-124.363491
 30
0.0
 40
24.79999999999436
100
AcDbArc
 50
300.592814
 51
59.407186
  0
ARC
  5
409
330
1F
100
AcDbEntity
  8
LC-001-100-D00-0
 62
     7
370
    50
100
AcDbCircle
 10
90.734241
 20
-124.363491
 30
0.0
 40
24.79999999999443
100
AcDbArc
 50
120.592814
 51
239.407186
  0
ARC
  5
40A
330
1F
100
AcDbEntity
  8
LC-001-100-D00-0
 62
     7
370
    50
100
AcDbCircle
 10
34.484241
 20
-111.113491
 30
0.0
 40
5.0
100
AcDbArc
 50
0.0
 51
90.0
  0
LINE
  5
40B
330
1F
100
AcDbEntity
  8
LC-001-100-D00-0
 62
     7
370
    50
100
AcDbLine
 10
39.484241
 20
-111.113491
 30
0.0
 11
39.484241
 21
-137.613491
 31
0.0
  0
ARC
  5
40C
330
1F
100
AcDbEntity
  8
LC-001-100-D00-0
 62
     7
370
    50
100
AcDbCircle
 10
34.484241
 20
-137.613491
 30
0.0
 40
5.0
100
AcDbArc
 50
270.0
 51
0.0
  0
CIRCLE
  5
40D
330
1F
100
AcDbEntity
  8
LC-001-100-D00-0
 62
     7
370
    50
100
AcDbCircle
 10
21.234241
 20
-124.363491
 30
0.0
 40
3.899999999999977
  0
LINE
  5
40E
330
1F
100
AcDbEntity
  8
LC-001-100-D00-0
 62
     7
370
    50
100
AcDbLine
 10
7.984241
 20
-106.113491
 30
0.0
 11
34.484241
 21
-106.113491
 31
0.0
  0
LINE
  5
40F
330
1F
100
AcDbEntity
  8
LC-001-100-D00-0
 62
     7
370
    50
100
AcDbLine
 10
34.484241
 20
-142.613491
 30
0.0
 11
7.984241
 21
-142.613491
 31
0.0
  0
ARC
  5
410
330
1F
100
AcDbEntity
  8
LC-001-100-D00-0
 62
     7
370
    50
100
AcDbCircle
 10
7.984241
 20
-111.113491
 30
0.0
 40
5.000000000000114
100
AcDbArc
 50
90.0
 51
180.0
  0
ARC
  5
411
330
1F
100
AcDbEntity
  8
LC-001-100-D00-0
 62
     7
370
    50
100
AcDbCircle
 10
7.984241
 20
-137.613491
 30
0.0
 40
5.0
100
AcDbArc
 50
180.0
 51
270.0
  0
LINE
  5
412
330
1F
100
AcDbEntity
  8
LC-001-100-D00-0
 62
     7
370
    50
100
AcDbLine
 10
2.984241
 20
-137.613491
 30
0.0
 11
2.984241
 21
-111.113491
 31
0.0
  0
LINE
  5
413
330
1F
100
AcDbEntity
  8
LC-001-100-D00-0
 62
     7
370
    50
100
AcDbLine
 10
239.484241
 20
-111.113491
 30
0.0
 11
239.484241
 21
-137.613491
 31
0.0
  0
ARC
  5
414
330
1F
100
AcDbEntity
  8
LC-001-100-D00-0
 62
     7
370
    50
100
AcDbCircle
 10
234.484241
 20
-137.613491
 30
0.0
 40
5.0
100
AcDbArc
 50
270.0
 51
0.0
  0
ARC
  5
415
330
1F
100
AcDbEntity
  8
LC-001-100-D00-0
 62
     7
370
    50
100
AcDbCircle
 10
234.484241
 20
-111.113491
 30
0.0
 40
5.0
100
AcDbArc
 50
0.0
 51
90.0
  0
CIRCLE
  5
416
330
1F
100
AcDbEntity
  8
LC-001-100-D00-0
 62
     7
370
    50
100
AcDbCircle
 10
221.234241
 20
-124.363491
 30
0.0
 40
3.899999999999977
  0
LINE
  5
417
330
1F
100
AcDbEntity
  8
LC-001-100-D00-0
 62
     7
370
    50
100
AcDbLine
 10
207.984241
 20
-106.113491
 30
0.0
 11
234.484241
 21
-106.113491
 31
0.0
  0
LINE
  5
418
330
1F
100
AcDbEntity
  8
LC-001-100-D00-0
 62
     7
370
    50
100
AcDbLine
 10
234.484241
 20
-142.613491
 30
0.0
 11
207.984241
 21
-142.613491
 31
0.0
  0
ARC
  5
419
330
1F
100
AcDbEntity
  8
LC-001-100-D00-0
 62
     7
370
    50
100
AcDbCircle
 10
207.984241
 20
-111.113491
 30
0.0
 40
5.000000000000114
100
AcDbArc
 50
90.0
 51
180.0
  0
ARC
  5
41A
330
1F
100
AcDbEntity
  8
LC-001-100-D00-0
 62
     7
370
    50
100
AcDbCircle
 10
207.984241
 20
-137.613491
 30
0.0
 40
5.0
100
AcDbArc
 50
180.0
 51
270.0
  0
LINE
  5
41B
330
1F
100
AcDbEntity
  8
LC-001-100-D00-0
 62
     7
370
    50
100
AcDbLine
 10
202.984241
 20
-137.613491
 30
0.0
 11
202.984241
 21
-111.113491
 31
0.0
  0
LINE
  5
41C
330
1F
100
AcDbEntity
  8
LC-001-100-D00-0
 62
     7
370
    50
100
AcDbLine
 10
409.484241
 20
-111.113491
 30
0.0
 11
409.484241
 21
-137.613491
 31
0.0
  0
ARC
  5
41D
330
1F
100
AcDbEntity
  8
LC-001-100-D00-0
 62
     7
370
    50
100
AcDbCircle
 10
404.484241
 20
-137.613491
 30
0.0
 40
5.0
100
AcDbArc
 50
270.0
 51
0.0
  0
ARC
  5
41E
330
1F
100
AcDbEntity
  8
LC-001-100-D00-0
 62
     7
370
    50
100
AcDbCircle
 10
404.484241
 20
-111.113491
 30
0.0
 40
5.0
100
AcDbArc
 50
0.0
 51
90.0
  0
CIRCLE
  5
41F
330
1F
100
AcDbEntity
  8
LC-001-100-D00-0
 62
     7
370
    50
100
AcDbCircle
 10
391.234241
 20
-124.363491
 30
0.0
 40
3.899999999999977
  0
LINE
  5
420
330
1F
100
AcDbEntity
  8
LC-001-100-D00-0
 62
     7
370
    50
100
AcDbLine
 10
377.984241
 20
-106.113491
 30
0.0
 11
404.484241
 21
-106.113491
 31
0.0
  0
LINE
  5
421
330
1F
100
AcDbEntity
  8
LC-001-100-D00-0
 62
     7
370
    50
100
AcDbLine
 10
404.484241
 20
-142.613491
 30
0.0
 11
377.984241
 21
-142.613491
 31
0.0
  0
ARC
  5
422
330
1F
100
AcDbEntity
  8
LC-001-100-D00-0
 62
     7
370
    50
100
AcDbCircle
 10
377.984241
 20
-111.113491
 30
0.0
 40
5.0
100
AcDbArc
 50
90.0
 51
180.0
  0
ARC
  5
423
330
1F
100
AcDbEntity
  8
LC-001-100-D00-0
 62
     7
370
    50
100
AcDbCircle
 10
377.984241
 20
-137.613491
 30
0.0
 40
5.0
100
AcDbArc
 50
180.0
 51
270.0
  0
LINE
  5
424
330
1F
100
AcDbEntity
  8
LC-001-100-D00-0
 62
     7
370
    50
100
AcDbLine
 10
372.984241
 20
-137.613491
 30
0.0
 11
372.984241
 21
-111.113491
 31
0.0
  0
ARC
  5
425
330
1F
100
AcDbEntity
  8
LC-001-100-D00-0
 62
     7
370
    50
100
AcDbCircle
 10
-135.515759
 20
-111.113491
 30
0.0
 40
5.0
100
AcDbArc
 50
0.0
 51
90.0
  0
LINE
  5
426
330
1F
100
AcDbEntity
  8
LC-001-100-D00-0
 62
     7
370
    50
100
AcDbLine
 10
-130.515759
 20
-111.113491
 30
0.0
 11
-130.515759
 21
-137.613491
 31
0.0
  0
ARC
  5
427
330
1F
100
AcDbEntity
  8
LC-001-100-D00-0
 62
     7
370
    50
100
AcDbCircle
 10
-135.515759
 20
-137.613491
 30
0.0
 40
5.0
100
AcDbArc
 50
270.0
 51
0.0
  0
CIRCLE
  5
428
330
1F
100
AcDbEntity
  8
LC-001-100-D00-0
 62
     7
370
    50
100
AcDbCircle
 10
-148.765759
 20
-124.363491
 30
0.0
 40
3.899999999999977
  0
LINE
  5
429
330
1F
100
AcDbEntity
  8
LC-001-100-D00-0
 62
     7
370
    50
100
AcDbLine
 10
-162.015759
 20
-106.113491
 30
0.0
 11
-135.515759
 21
-106.113491
 31
0.0
  0
LINE
  5
42A
330
1F
100
AcDbEntity
  8
LC-001-100-D00-0
 62
     7
370
    50
100
AcDbLine
 10
-135.515759
 20
-142.613491
 30
0.0
 11
-162.015759
 21
-142.613491
 31
0.0
  0
ARC
  5
42B
330
1F
100
AcDbEntity
  8
LC-001-100-D00-0
 62
     7
370
    50
100
AcDbCircle
 10
-162.015759
 20
-111.113491
 30
0.0
 40
5.0
100
AcDbArc
 50
90.0
 51
180.0
  0
ARC
  5
42C
330
1F
100
AcDbEntity
  8
LC-001-100-D00-0
 62
     7
370
    50
100
AcDbCircle
 10
-162.015759
 20
-137.613491
 30
0.0
 40
5.0
100
AcDbArc
 50
180.0
 51
270.0
  0
LINE
  5
42D
330
1F
100
AcDbEntity
  8
LC-001-100-D00-0
 62
     7
370
    50
100
AcDbLine
 10
-167.015759
 20
-137.613491
 30
0.0
 11
-167.015759
 21
-111.113491
 31
0.0
  0
LINE
  5
42E
330
1F
100
AcDbEntity
  8
LC-001-100-D00-0
 62
     7
370
    50
100
AcDbLine
 10
90.734241
 20
-148.363491
 30
0.0
 11
151.734241
 21
-148.363491
 31
0.0
  0
ARC
  5
42F
330
1F
100
AcDbEntity
  8
LC-001-100-D00-0
 62
     7
370
    50
100
AcDbCircle
 10
90.734241
 20
-124.363491
 30
0.0
 40
24.00000000000011
100
AcDbArc
 50
90.0
 51
270.0
  0
LINE
  5
430
330
1F
100
AcDbEntity
  8
LC-001-100-D00-0
 62
     7
370
    50
100
AcDbLine
 10
151.734241
 20
-100.363491
 30
0.0
 11
90.734241
 21
-100.363491
 31
0.0
  0
ARC
  5
431
330
1F
100
AcDbEntity
  8
LC-001-100-D00-0
 62
     7
370
    50
100
AcDbCircle
 10
151.734241
 20
-124.363491
 30
0.0
 40
24.0
100
AcDbArc
 50
270.0
 51
90.0
  0
ARC
  5
432
330
1F
100
AcDbEntity
  8
LC-001-100-D00-0
 62
     7
370
    50
100
AcDbCircle
 10
132.734241
 20
-124.363491
 30
0.0
 40
15.99999999999989
100
AcDbArc
 50
270.0
 51
90.0
  0
LINE
  5
433
330
1F
100
AcDbEntity
  8
LC-001-100-D00-0
 62
     7
370
    50
100
AcDbLine
 10
109.734241
 20
-140.363491
 30
0.0
 11
132.734241
 21
-140.363491
 31
0.0
  0
LINE
  5
434
330
1F
100
AcDbEntity
  8
LC-001-100-D00-0
 62
     7
370
    50
100
AcDbLine
 10
132.734241
 20
-108.363491
 30
0.0
 11
109.734241
 21
-108.363491
 31
0.0
  0
ARC
  5
435
330
1F
100
AcDbEntity
  8
LC-001-100-D00-0
 62
     7
370
    50
100
AcDbCircle
 10
109.734241
 20
-124.363491
 30
0.0
 40
16.0
100
AcDbArc
 50
90.0
 51
270.0
  0
DIMENSION
  5
438
330
1F
100
AcDbEntity
  8
LC-001-100-D00-0
 62
     7
370
    25
100
AcDbDimension
  2
*D32
 10
513.878309
 20
-201.863491
 30
0.0
 11
483.078309
 21
-122.853321
 31
0.0
 70
   160
  1
155
 71
     5
 42
155.0
 53
90.0
  3
LC-DIM-L-0140-02-02
100
AcDbAlignedDimension
 13
466.234241
 23
-46.863491
 33
0.0
 14
466.234241
 24
-201.863491
 34
0.0
 50
90.0
100
AcDbRotatedDimension
  0
LINE
  5
446
330
1F
100
AcDbEntity
  8
LC-001-100-D00-0
  6
DASHDOT
 62
     7
370
    25
100
AcDbLine
 10
-233.765759
 20
-124.363491
 30
0.0
 11
476.234241
 21
-124.363491
 31
0.0
  0
LINE
  5
447
330
1F
100
AcDbEntity
  8
LC-001-100-D00-0
  6
DASHDOT
 62
     7
370
    25
100
AcDbLine
 10
121.234241
 20
-41.863491
 30
0.0
 11
121.234241
 21
-206.863491
 31
0.0
  0
ARC
  5
448
330
1F
100
AcDbEntity
  8
LC-001-100-D00-0
 62
     7
370
    50
100
AcDbCircle
 10
121.234241
 20
-124.363491
 30
0.0
 40
105.159245999991
100
AcDbArc
 50
47.474579
 51
132.525421
  0
ARC
  5
449
330
1F
100
AcDbEntity
  8
LC-001-100-D00-0
 62
     7
370
    50
100
AcDbCircle
 10
121.234241
 20
-124.363491
 30
0.0
 40
84.99999999999906
100
AcDbArc
 50
65.750371
 51
114.249629
  0
ARC
  5
44A
330
1F
100
AcDbEntity
  8
LC-001-100-D00-0
 62
     7
370
    50
100
AcDbCircle
 10
121.234241
 20
-124.363491
 30
0.0
 40
82.99999999999997
100
AcDbArc
 50
69.024717
 51
110.975283
  0
ARC
  5
44B
330
1F
100
AcDbEntity
  8
LC-001-100-D00-0
 62
     7
370
    50
100
AcDbCircle
 10
121.234241
 20
-124.363491
 30
0.0
 40
114.5000000000001
100
AcDbArc
 50
42.598437
 51
137.401563
  0
ARC
  5
44C
330
1F
100
AcDbEntity
  8
LC-001-100-D00-0
 62
     7
370
    50
100
AcDbCircle
 10
121.234241
 20
-124.363491
 30
0.0
 40
105.159245999991
100
AcDbArc
 50
227.474579
 51
312.525421
  0
ARC
  5
44D
330
1F
100
AcDbEntity
  8
LC-001-100-D00-0
 62
     7
370
    50
100
AcDbCircle
 10
121.234241
 20
-124.363491
 30
0.0
 40
84.99999999999906
100
AcDbArc
 50
245.750371
 51
294.249629
  0
ARC
  5
44E
330
1F
100
AcDbEntity
  8
LC-001-100-D00-0
 62
     7
370
    50
100
AcDbCircle
 10
121.234241
 20
-124.363491
 30
0.0
 40
83.0
100
AcDbArc
 50
249.024717
 51
290.975283
  0
ARC
  5
44F
330
1F
100
AcDbEntity
  8
LC-001-100-D00-0
 62
     7
370
    50
100
AcDbCircle
 10
121.234241
 20
-124.363491
 30
0.0
 40
114.5000000000001
100
AcDbArc
 50
222.598437
 51
317.401563
  0
ARC
  5
450
330
1F
100
AcDbEntity
  8
LC-001-100-D00-0
 62
     7
370
    50
100
AcDbCircle
 10
312.234242
 20
283.970991
 30
0.0
 40
0.4999999999997726
100
AcDbArc
 50
90.0
 51
180.0
  0
ARC
  5
451
330
1F
100
AcDbEntity
  8
LC-001-100-D00-0
 62
     7
370
    50
100
AcDbCircle
 10
330.234242
 20
283.970991
 30
0.0
 40
0.5
100
AcDbArc
 50
0.0
 51
90.0
  0
LINE
  5
452
330
1F
100
AcDbEntity
  8
LC-001-100-D00-0
 62
     7
370
    50
100
AcDbLine
 10
311.734242
 20
283.970991
 30
0.0
 11
311.734242
 21
276.470991
 31
0.0
  0
LINE
  5
453
330
1F
100
AcDbEntity
  8
LC-001-100-D00-0
 62
     7
370
    50
100
AcDbLine
 10
330.734242
 20
276.470991
 30
0.0
 11
330.734242
 21
283.970991
 31
0.0
  0
ARC
  5
454
330
1F
100
AcDbEntity
  8
LC-001-100-D00-0
 62
     7
370
    50
100
AcDbCircle
 10
-87.765758
 20
283.970991
 30
0.0
 40
0.4999999999997726
100
AcDbArc
 50
90.0
 51
180.0
  0
ARC
  5
455
330
1F
100
AcDbEntity
  8
LC-001-100-D00-0
 62
     7
370
    50
100
AcDbCircle
 10
-69.765758
 20
283.970991
 30
0.0
 40
0.4999999999999432
100
AcDbArc
 50
0.0
 51
90.0
  0
LINE
  5
456
330
1F
100
AcDbEntity
  8
LC-001-100-D00-0
 62
     7
370
    50
100
AcDbLine
 10
-88.265758
 20
283.970991
 30
0.0
 11
-88.265758
 21
276.470991
 31
0.0
  0
LINE
  5
457
330
1F
100
AcDbEntity
  8
LC-001-100-D00-0
 62
     7
370
    50
100
AcDbLine
 10
-69.265758
 20
276.470991
 30
0.0
 11
-69.265758
 21
283.970991
 31
0.0
  0
LINE
  5
458
330
1F
100
AcDbEntity
  8
LC-001-100-D00-0
 62
     7
370
    50
100
AcDbLine
 10
-91.53926
 20
378.470992
 30
0.0
 11
-91.53926
 21
353.470991
 31
0.0
  0
LINE
  5
459
330
1F
100
AcDbEntity
  8
LC-001-100-D00-0
 62
     7
370
    50
100
AcDbLine
 10
-65.992255
 20
353.470991
 30
0.0
 11
-65.992262
 21
378.470992
 31
0.0
  0
LINE
  5
45A
330
1F
100
AcDbEntity
  8
LC-001-100-D00-0
 62
     7
370
    50
100
AcDbLine
 10
334.007745
 20
353.470991
 30
0.0
 11
334.007744
 21
378.470992
 31
0.0
  0
LINE
  5
45B
330
1F
100
AcDbEntity
  8
LC-001-100-D00-0
 62
     7
370
    50
100
AcDbLine
 10
-91.53926
 20
386.079514
 30
0.0
 11
-91.53926
 21
382.470991
 31
0.0
  0
LINE
  5
45C
330
1F
100
AcDbEntity
  8
LC-001-100-D00-0
 62
     7
370
    50
100
AcDbLine
 10
-65.992255
 20
382.470991
 30
0.0
 11
-65.992262
 21
385.147141
 31
0.0
  0
LINE
  5
45D
330
1F
100
AcDbEntity
  8
LC-001-100-D00-0
 62
     7
370
    50
100
AcDbLine
 10
308.460746
 20
385.147141
 30
0.0
 11
308.46074
 21
382.470991
 31
0.0
  0
LINE
  5
45E
330
1F
100
AcDbEntity
  8
LC-001-100-D00-0
 62
     7
370
    50
100
AcDbLine
 10
334.007745
 20
382.470991
 30
0.0
 11
334.007744
 21
386.079514
 31
0.0
  0
LINE
  5
45F
330
1F
100
AcDbEntity
  8
LC-001-100-D00-0
 62
     7
370
    50
100
AcDbLine
 10
311.234242
 20
295.970991
 30
0.0
 11
311.234242
 21
285.470991
 31
0.0
  0
LINE
  5
460
330
1F
100
AcDbEntity
  8
LC-001-100-D00-0
 62
     7
370
    50
100
AcDbLine
 10
331.234242
 20
285.470991
 30
0.0
 11
331.234242
 21
295.970991
 31
0.0
  0
LINE
  5
461
330
1F
100
AcDbEntity
  8
LC-001-100-D00-0
 62
     7
370
    50
100
AcDbLine
 10
311.23424
 20
382.470991
 30
0.0
 11
311.23424
 21
382.370991
 31
0.0
  0
LINE
  5
462
330
1F
100
AcDbEntity
  8
LC-001-100-D00-0
 62
     7
370
    50
100
AcDbLine
 10
311.234238
 20
353.470989
 30
0.0
 11
311.234242
 21
299.470991
 31
0.0
  0
LINE
  5
463
330
1F
100
AcDbEntity
  8
LC-001-100-D00-0
 62
     7
370
    50
100
AcDbLine
 10
331.234242
 20
299.470991
 30
0.0
 11
331.234236
 21
353.47099
 31
0.0
  0
LINE
  5
464
330
1F
100
AcDbEntity
  8
LC-001-100-D00-0
 62
     7
370
    50
100
AcDbLine
 10
331.234236
 20
382.370991
 30
0.0
 11
331.234236
 21
382.470991
 31
0.0
  0
LINE
  5
465
330
1F
100
AcDbEntity
  8
LC-001-100-D00-0
 62
     7
370
    50
100
AcDbLine
 10
311.234242
 20
285.470991
 30
0.0
 11
312.234242
 21
284.470991
 31
0.0
  0
LINE
  5
466
330
1F
100
AcDbEntity
  8
LC-001-100-D00-0
 62
     7
370
    50
100
AcDbLine
 10
330.234242
 20
284.470991
 30
0.0
 11
331.234242
 21
285.470991
 31
0.0
  0
LINE
  5
467
330
1F
100
AcDbEntity
  8
LC-001-100-D00-0
 62
     7
370
    50
100
AcDbLine
 10
313.334246
 20
299.470988
 30
0.0
 11
313.334246
 21
295.970989
 31
0.0
  0
LINE
  5
468
330
1F
100
AcDbEntity
  8
LC-001-100-D00-0
 62
     7
370
    50
100
AcDbLine
 10
329.134245
 20
295.970989
 30
0.0
 11
329.134245
 21
299.470988
 31
0.0
  0
LINE
  5
469
330
1F
100
AcDbEntity
  8
LC-001-100-D00-0
 62
     7
370
    50
100
AcDbLine
 10
-88.765751
 20
353.47099
 30
0.0
 11
-88.765758
 21
299.470991
 31
0.0
  0
LINE
  5
46A
330
1F
100
AcDbEntity
  8
LC-001-100-D00-0
 62
     7
370
    50
100
AcDbLine
 10
-68.765758
 20
299.470991
 30
0.0
 11
-68.765755
 21
353.47099
 31
0.0
  0
LINE
  5
46B
330
1F
100
AcDbEntity
  8
LC-001-100-D00-0
 62
     7
370
    50
100
AcDbLine
 10
-88.765758
 20
295.970991
 30
0.0
 11
-88.765758
 21
285.470991
 31
0.0
  0
LINE
  5
46C
330
1F
100
AcDbEntity
  8
LC-001-100-D00-0
 62
     7
370
    50
100
AcDbLine
 10
-68.765758
 20
285.470991
 30
0.0
 11
-68.765758
 21
295.970991
 31
0.0
  0
LINE
  5
46D
330
1F
100
AcDbEntity
  8
LC-001-100-D00-0
 62
     7
370
    50
100
AcDbLine
 10
-88.765758
 20
285.470991
 30
0.0
 11
-87.765758
 21
284.470991
 31
0.0
  0
LINE
  5
46E
330
1F
100
AcDbEntity
  8
LC-001-100-D00-0
 62
     7
370
    50
100
AcDbLine
 10
-69.765758
 20
284.470991
 30
0.0
 11
-68.765758
 21
285.470991
 31
0.0
  0
LINE
  5
46F
330
1F
100
AcDbEntity
  8
LC-001-100-D00-0
 62
     7
370
    50
100
AcDbLine
 10
-86.66576
 20
299.470988
 30
0.0
 11
-86.66576
 21
295.970989
 31
0.0
  0
LINE
  5
470
330
1F
100
AcDbEntity
  8
LC-001-100-D00-0
 62
     7
370
    50
100
AcDbLine
 10
-70.865761
 20
295.970989
 30
0.0
 11
-70.865761
 21
299.470988
 31
0.0
  0
LINE
  5
471
330
1F
100
AcDbEntity
  8
LC-001-100-D00-0
 62
     7
370
    50
100
AcDbLine
 10
226.434242
 20
394.739757
 30
0.0
 11
226.434242
 21
397.202225
 31
0.0
  0
ARC
  5
472
330
1F
100
AcDbEntity
  8
LC-001-100-D00-0
 62
     7
370
    50
100
AcDbCircle
 10
227.034242
 20
394.739757
 30
0.0
 40
0.6000000000002501
100
AcDbArc
 50
180.0
 51
255.0
  0
LINE
  5
473
330
1F
100
AcDbEntity
  8
LC-001-100-D00-0
 62
     7
370
    50
100
AcDbLine
 10
227.585096
 20
393.97099
 30
0.0
 11
226.878951
 21
394.160202
 31
0.0
  0
LINE
  5
474
330
1F
100
AcDbEntity
  8
LC-001-100-D00-0
 62
     7
370
    50
100
AcDbLine
 10
227.585096
 20
393.97099
 30
0.0
 11
227.585096
 21
391.970992
 31
0.0
  0
LINE
  5
475
330
1F
100
AcDbEntity
  8
LC-001-100-D00-0
 62
     7
370
    50
100
AcDbLine
 10
224.634242
 20
392.970991
 30
0.0
 11
225.634242
 21
391.970991
 31
0.0
  0
LINE
  5
476
330
1F
100
AcDbEntity
  8
LC-001-100-D00-0
 62
     7
370
    50
100
AcDbLine
 10
224.634242
 20
392.970991
 30
0.0
 11
224.634242
 21
398.970991
 31
0.0
  0
LINE
  5
477
330
1F
100
AcDbEntity
  8
LC-001-100-D00-0
 62
     7
370
    50
100
AcDbLine
 10
225.634244
 20
399.970991
 30
0.0
 11
224.634242
 21
398.970991
 31
0.0
  0
LINE
  5
478
330
1F
100
AcDbEntity
  8
LC-001-100-D00-0
 62
     7
370
    50
100
AcDbLine
 10
227.585096
 20
399.970991
 30
0.0
 11
227.585096
 21
397.970991
 31
0.0
  0
LINE
  5
479
330
1F
100
AcDbEntity
  8
LC-001-100-D00-0
 62
     7
370
    50
100
AcDbLine
 10
226.878951
 20
397.78178
 30
0.0
 11
227.585096
 21
397.970991
 31
0.0
  0
ARC
  5
47A
330
1F
100
AcDbEntity
  8
LC-001-100-D00-0
 62
     7
370
    50
100
AcDbCircle
 10
227.034242
 20
397.202225
 30
0.0
 40
0.5999999999998983
100
AcDbArc
 50
105.0
 51
180.0
  0
LINE
  5
47B
330
1F
100
AcDbEntity
  8
LC-001-100-D00-0
 62
     7
370
    50
100
AcDbLine
 10
225.634242
 20
391.970991
 30
0.0
 11
227.585096
 21
391.970992
 31
0.0
  0
LINE
  5
47C
330
1F
100
AcDbEntity
  8
LC-001-100-D00-0
 62
     7
370
    50
100
AcDbLine
 10
225.634244
 20
399.970991
 30
0.0
 11
227.585096
 21
399.970991
 31
0.0
  0
LINE
  5
47D
330
1F
100
AcDbEntity
  8
LC-001-100-D00-0
 62
     7
370
    50
100
AcDbLine
 10
216.034242
 20
397.202225
 30
0.0
 11
216.034242
 21
394.739757
 31
0.0
  0
LINE
  5
47E
330
1F
100
AcDbEntity
  8
LC-001-100-D00-0
 62
     7
370
    50
100
AcDbLine
 10
217.834246
 20
398.970991
 30
0.0
 11
216.834244
 21
399.970991
 31
0.0
  0
LINE
  5
47F
330
1F
100
AcDbEntity
  8
LC-001-100-D00-0
 62
     7
370
    50
100
AcDbLine
 10
216.834242
 20
391.970991
 30
0.0
 11
217.834242
 21
392.970991
 31
0.0
  0
LINE
  5
480
330
1F
100
AcDbEntity
  8
LC-001-100-D00-0
 62
     7
370
    50
100
AcDbLine
 10
217.834242
 20
392.970991
 30
0.0
 11
217.992082
 21
392.970991
 31
0.0
  0
LINE
  5
481
330
1F
100
AcDbEntity
  8
LC-001-100-D00-0
 62
     7
370
    50
100
AcDbLine
 10
224.476403
 20
392.970991
 30
0.0
 11
224.634242
 21
392.970991
 31
0.0
  0
LINE
  5
482
330
1F
100
AcDbEntity
  8
LC-001-100-D00-0
 62
     7
370
    50
100
AcDbLine
 10
225.634242
 20
391.970991
 30
0.0
 11
225.098461
 21
391.970991
 31
0.0
  0
LINE
  5
483
330
1F
100
AcDbEntity
  8
LC-001-100-D00-0
 62
     7
370
    50
100
AcDbLine
 10
217.370024
 20
391.970991
 30
0.0
 11
216.834242
 21
391.970991
 31
0.0
  0
LINE
  5
484
330
1F
100
AcDbEntity
  8
LC-001-100-D00-0
 62
     7
370
    50
100
AcDbLine
 10
217.834246
 20
398.970991
 30
0.0
 11
217.834242
 21
392.970991
 31
0.0
  0
LINE
  5
485
330
1F
100
AcDbEntity
  8
LC-001-100-D00-0
 62
     7
370
    50
100
AcDbLine
 10
214.883391
 20
393.97099
 30
0.0
 11
214.883391
 21
391.970992
 31
0.0
  0
LINE
  5
486
330
1F
100
AcDbEntity
  8
LC-001-100-D00-0
 62
     7
370
    50
100
AcDbLine
 10
215.589534
 20
394.160202
 30
0.0
 11
214.883391
 21
393.97099
 31
0.0
  0
ARC
  5
487
330
1F
100
AcDbEntity
  8
LC-001-100-D00-0
 62
     7
370
    50
100
AcDbCircle
 10
215.434242
 20
394.739757
 30
0.0
 40
0.600000000000118
100
AcDbArc
 50
285.0
 51
0.0
  0
ARC
  5
488
330
1F
100
AcDbEntity
  8
LC-001-100-D00-0
 62
     7
370
    50
100
AcDbCircle
 10
215.434242
 20
397.202225
 30
0.0
 40
0.6000000000000227
100
AcDbArc
 50
0.0
 51
75.0
  0
LINE
  5
489
330
1F
100
AcDbEntity
  8
LC-001-100-D00-0
 62
     7
370
    50
100
AcDbLine
 10
214.883391
 20
397.970991
 30
0.0
 11
215.589534
 21
397.78178
 31
0.0
  0
LINE
  5
48A
330
1F
100
AcDbEntity
  8
LC-001-100-D00-0
 62
     7
370
    50
100
AcDbLine
 10
214.883391
 20
399.970991
 30
0.0
 11
214.883391
 21
397.970991
 31
0.0
  0
LINE
  5
48B
330
1F
100
AcDbEntity
  8
LC-001-100-D00-0
 62
     7
370
    50
100
AcDbLine
 10
214.883391
 20
391.970992
 30
0.0
 11
216.834242
 21
391.970991
 31
0.0
  0
LINE
  5
48C
330
1F
100
AcDbEntity
  8
LC-001-100-D00-0
 62
     7
370
    50
100
AcDbLine
 10
214.883391
 20
399.970991
 30
0.0
 11
216.834244
 21
399.970991
 31
0.0
  0
LINE
  5
48D
330
1F
100
AcDbEntity
  8
LC-001-100-D00-0
 62
     7
370
    50
100
AcDbLine
 10
227.585096
 20
399.970991
 30
0.0
 11
225.134243
 21
399.970991
 31
0.0
  0
LINE
  5
48E
330
1F
100
AcDbEntity
  8
LC-001-100-D00-0
 62
     7
370
    50
100
AcDbLine
 10
225.134243
 20
399.970991
 30
0.0
 11
225.134242
 21
410.970991
 31
0.0
  0
LINE
  5
48F
330
1F
100
AcDbEntity
  8
LC-001-100-D00-0
 62
     7
370
    50
100
AcDbLine
 10
225.134242
 20
410.970991
 30
0.0
 11
238.484242
 21
410.970991
 31
0.0
  0
ARC
  5
490
330
1F
100
AcDbEntity
  8
LC-001-100-D00-0
 62
     7
370
    50
100
AcDbCircle
 10
238.484242
 20
409.970991
 30
0.0
 40
1.000000000000114
100
AcDbArc
 50
0.0
 51
90.0
  0
LINE
  5
491
330
1F
100
AcDbEntity
  8
LC-001-100-D00-0
 62
     7
370
    50
100
AcDbLine
 10
239.484242
 20
409.970991
 30
0.0
 11
239.48424
 21
403.970991
 31
0.0
  0
LINE
  5
492
330
1F
100
AcDbEntity
  8
LC-001-100-D00-0
 62
     7
370
    50
100
AcDbLine
 10
236.484242
 20
403.970991
 30
0.0
 11
239.48424
 21
403.970991
 31
0.0
  0
LINE
  5
493
330
1F
100
AcDbEntity
  8
LC-001-100-D00-0
 62
     7
370
    50
100
AcDbLine
 10
236.484242
 20
403.970991
 30
0.0
 11
236.484241
 21
407.970991
 31
0.0
  0
LINE
  5
494
330
1F
100
AcDbEntity
  8
LC-001-100-D00-0
 62
     7
370
    50
100
AcDbLine
 10
231.984242
 20
407.970991
 30
0.0
 11
236.484241
 21
407.970991
 31
0.0
  0
ARC
  5
495
330
1F
100
AcDbEntity
  8
LC-001-100-D00-0
 62
     7
370
    50
100
AcDbCircle
 10
231.984242
 20
406.970991
 30
0.0
 40
1.0
100
AcDbArc
 50
90.0
 51
180.0
  0
LINE
  5
496
330
1F
100
AcDbEntity
  8
LC-001-100-D00-0
 62
     7
370
    50
100
AcDbLine
 10
230.984242
 20
392.970991
 30
0.0
 11
230.984242
 21
406.970991
 31
0.0
  0
ARC
  5
497
330
1F
100
AcDbEntity
  8
LC-001-100-D00-0
 62
     7
370
    50
100
AcDbCircle
 10
229.984242
 20
392.970991
 30
0.0
 40
1.0
100
AcDbArc
 50
270.0
 51
0.0
  0
LINE
  5
498
330
1F
100
AcDbEntity
  8
LC-001-100-D00-0
 62
     7
370
    50
100
AcDbLine
 10
229.984242
 20
391.970991
 30
0.0
 11
227.585096
 21
391.970992
 31
0.0
  0
LINE
  5
499
330
1F
100
AcDbEntity
  8
LC-001-100-D00-0
 62
     7
370
    50
100
AcDbLine
 10
227.585096
 20
393.97099
 30
0.0
 11
227.585096
 21
391.970992
 31
0.0
  0
LINE
  5
49A
330
1F
100
AcDbEntity
  8
LC-001-100-D00-0
 62
     7
370
    50
100
AcDbLine
 10
226.934242
 20
393.970991
 30
0.0
 11
227.585096
 21
393.97099
 31
0.0
  0
ARC
  5
49B
330
1F
100
AcDbEntity
  8
LC-001-100-D00-0
 62
     7
370
    50
100
AcDbCircle
 10
226.934242
 20
394.470991
 30
0.0
 40
0.5
100
AcDbArc
 50
180.0
 51
270.0
  0
LINE
  5
49C
330
1F
100
AcDbEntity
  8
LC-001-100-D00-0
 62
     7
370
    50
100
AcDbLine
 10
226.434242
 20
397.470991
 30
0.0
 11
226.434242
 21
394.470991
 31
0.0
  0
ARC
  5
49D
330
1F
100
AcDbEntity
  8
LC-001-100-D00-0
 62
     7
370
    50
100
AcDbCircle
 10
226.934242
 20
397.470991
 30
0.0
 40
0.5
100
AcDbArc
 50
90.0
 51
180.0
  0
LINE
  5
49E
330
1F
100
AcDbEntity
  8
LC-001-100-D00-0
 62
     7
370
    50
100
AcDbLine
 10
227.585096
 20
397.970991
 30
0.0
 11
226.934242
 21
397.970991
 31
0.0
  0
LINE
  5
49F
330
1F
100
AcDbEntity
  8
LC-001-100-D00-0
 62
     7
370
    50
100
AcDbLine
 10
227.585096
 20
399.970991
 30
0.0
 11
227.585096
 21
397.970991
 31
0.0
  0
ARC
  5
4A0
330
1F
100
AcDbEntity
  8
LC-001-100-D00-0
 62
     7
370
    50
100
AcDbCircle
 10
210.484242
 20
406.970991
 30
0.0
 40
1.0
100
AcDbArc
 50
0.0
 51
90.0
  0
ARC
  5
4A1
330
1F
100
AcDbEntity
  8
LC-001-100-D00-0
 62
     7
370
    50
100
AcDbCircle
 10
212.484242
 20
392.970991
 30
0.0
 40
0.9999999999998863
100
AcDbArc
 50
180.0
 51
270.0
  0
LINE
  5
4A2
330
1F
100
AcDbEntity
  8
LC-001-100-D00-0
 62
     7
370
    50
100
AcDbLine
 10
211.484242
 20
406.970991
 30
0.0
 11
211.484242
 21
392.970991
 31
0.0
  0
LINE
  5
4A3
330
1F
100
AcDbEntity
  8
LC-001-100-D00-0
 62
     7
370
    50
100
AcDbLine
 10
216.034242
 20
394.470991
 30
0.0
 11
216.034242
 21
397.470991
 31
0.0
  0
LINE
  5
4A4
330
1F
100
AcDbEntity
  8
LC-001-100-D00-0
 62
     7
370
    50
100
AcDbLine
 10
217.334242
 20
410.970991
 30
0.0
 11
217.334245
 21
399.970991
 31
0.0
  0
LINE
  5
4A5
330
1F
100
AcDbEntity
  8
LC-001-100-D00-0
 62
     7
370
    50
100
AcDbLine
 10
217.334242
 20
410.970991
 30
0.0
 11
225.134242
 21
410.970991
 31
0.0
  0
LINE
  5
4A6
330
1F
100
AcDbEntity
  8
LC-001-100-D00-0
 62
     7
370
    50
100
AcDbLine
 10
214.883391
 20
393.97099
 30
0.0
 11
214.883391
 21
391.970992
 31
0.0
  0
LINE
  5
4A7
330
1F
100
AcDbEntity
  8
LC-001-100-D00-0
 62
     7
370
    50
100
AcDbLine
 10
214.883391
 20
399.970991
 30
0.0
 11
214.883391
 21
397.970991
 31
0.0
  0
ARC
  5
4A8
330
1F
100
AcDbEntity
  8
LC-001-100-D00-0
 62
     7
370
    50
100
AcDbCircle
 10
215.534242
 20
394.470991
 30
0.0
 40
0.4999999999997726
100
AcDbArc
 50
270.0
 51
0.0
  0
LINE
  5
4A9
330
1F
100
AcDbEntity
  8
LC-001-100-D00-0
 62
     7
370
    50
100
AcDbLine
 10
214.883391
 20
393.97099
 30
0.0
 11
215.534242
 21
393.970991
 31
0.0
  0
LINE
  5
4AA
330
1F
100
AcDbEntity
  8
LC-001-100-D00-0
 62
     7
370
    50
100
AcDbLine
 10
205.984239
 20
407.970991
 30
0.0
 11
205.984242
 21
403.970991
 31
0.0
  0
LINE
  5
4AB
330
1F
100
AcDbEntity
  8
LC-001-100-D00-0
 62
     7
370
    50
100
AcDbLine
 10
202.98424
 20
403.970991
 30
0.0
 11
202.984242
 21
409.970991
 31
0.0
  0
ARC
  5
4AC
330
1F
100
AcDbEntity
  8
LC-001-100-D00-0
 62
     7
370
    50
100
AcDbCircle
 10
203.984242
 20
409.970991
 30
0.0
 40
1.0
100
AcDbArc
 50
90.0
 51
180.0
  0
LINE
  5
4AD
330
1F
100
AcDbEntity
  8
LC-001-100-D00-0
 62
     7
370
    50
100
AcDbLine
 10
215.534242
 20
397.970991
 30
0.0
 11
214.883391
 21
397.970991
 31
0.0
  0
ARC
  5
4AE
330
1F
100
AcDbEntity
  8
LC-001-100-D00-0
 62
     7
370
    50
100
AcDbCircle
 10
215.534242
 20
397.470991
 30
0.0
 40
0.5
100
AcDbArc
 50
0.0
 51
90.0
  0
LINE
  5
4AF
330
1F
100
AcDbEntity
  8
LC-001-100-D00-0
 62
     7
370
    50
100
AcDbLine
 10
217.334245
 20
399.970991
 30
0.0
 11
214.883391
 21
399.970991
 31
0.0
  0
LINE
  5
4B0
330
1F
100
AcDbEntity
  8
LC-001-100-D00-0
 62
     7
370
    50
100
AcDbLine
 10
214.883391
 20
391.970992
 30
0.0
 11
212.484242
 21
391.970991
 31
0.0
  0
LINE
  5
4B1
330
1F
100
AcDbEntity
  8
LC-001-100-D00-0
 62
     7
370
    50
100
AcDbLine
 10
205.984239
 20
407.970991
 30
0.0
 11
210.484242
 21
407.970991
 31
0.0
  0
LINE
  5
4B2
330
1F
100
AcDbEntity
  8
LC-001-100-D00-0
 62
     7
370
    50
100
AcDbLine
 10
203.984242
 20
410.970991
 30
0.0
 11
217.334242
 21
410.970991
 31
0.0
  0
LINE
  5
4B3
330
1F
100
AcDbEntity
  8
LC-001-100-D00-0
 62
     7
370
    50
100
AcDbLine
 10
202.98424
 20
403.970991
 30
0.0
 11
205.984242
 21
403.970991
 31
0.0
  0
LINE
  5
4B4
330
1F
100
AcDbEntity
  8
LC-001-100-D00-0
 62
     7
370
    50
100
AcDbLine
 10
234.484242
 20
403.970991
 30
0.0
 11
236.484242
 21
403.970991
 31
0.0
  0
LINE
  5
4B5
330
1F
100
AcDbEntity
  8
LC-001-100-D00-0
 62
     7
370
    50
100
AcDbLine
 10
205.984242
 20
403.970991
 30
0.0
 11
207.984242
 21
403.970991
 31
0.0
  0
LINE
  5
4B6
330
1F
100
AcDbEntity
  8
LC-001-100-D00-0
 62
     7
370
    50
100
AcDbLine
 10
207.984242
 20
403.970991
 30
0.0
 11
211.484243
 21
403.970991
 31
0.0
  0
LINE
  5
4B7
330
1F
100
AcDbEntity
  8
LC-001-100-D00-0
 62
     7
370
    50
100
AcDbLine
 10
230.984245
 20
403.970991
 30
0.0
 11
234.484242
 21
403.970991
 31
0.0
  0
LINE
  5
4B8
330
1F
100
AcDbEntity
  8
LC-001-100-D00-0
 62
     7
370
    50
100
AcDbLine
 10
-143.565758
 20
394.739757
 30
0.0
 11
-143.565758
 21
397.202225
 31
0.0
  0
ARC
  5
4B9
330
1F
100
AcDbEntity
  8
LC-001-100-D00-0
 62
     7
370
    50
100
AcDbCircle
 10
-142.965758
 20
394.739757
 30
0.0
 40
0.6000000000000227
100
AcDbArc
 50
180.0
 51
255.0
  0
LINE
  5
4BA
330
1F
100
AcDbEntity
  8
LC-001-100-D00-0
 62
     7
370
    50
100
AcDbLine
 10
-142.414894
 20
393.97099
 30
0.0
 11
-143.121049
 21
394.160202
 31
0.0
  0
LINE
  5
4BB
330
1F
100
AcDbEntity
  8
LC-001-100-D00-0
 62
     7
370
    50
100
AcDbLine
 10
-142.414894
 20
393.97099
 30
0.0
 11
-142.414894
 21
391.970992
 31
0.0
  0
LINE
  5
4BC
330
1F
100
AcDbEntity
  8
LC-001-100-D00-0
 62
     7
370
    50
100
AcDbLine
 10
-145.365758
 20
392.970991
 30
0.0
 11
-144.365758
 21
391.970991
 31
0.0
  0
LINE
  5
4BD
330
1F
100
AcDbEntity
  8
LC-001-100-D00-0
 62
     7
370
    50
100
AcDbLine
 10
-145.365758
 20
392.970991
 30
0.0
 11
-145.365771
 21
398.970991
 31
0.0
  0
LINE
  5
4BE
330
1F
100
AcDbEntity
  8
LC-001-100-D00-0
 62
     7
370
    50
100
AcDbLine
 10
-144.365754
 20
399.970991
 30
0.0
 11
-145.365771
 21
398.970991
 31
0.0
  0
LINE
  5
4BF
330
1F
100
AcDbEntity
  8
LC-001-100-D00-0
 62
     7
370
    50
100
AcDbLine
 10
-142.414894
 20
399.970991
 30
0.0
 11
-142.414894
 21
397.970991
 31
0.0
  0
LINE
  5
4C0
330
1F
100
AcDbEntity
  8
LC-001-100-D00-0
 62
     7
370
    50
100
AcDbLine
 10
-143.121049
 20
397.78178
 30
0.0
 11
-142.414894
 21
397.970991
 31
0.0
  0
ARC
  5
4C1
330
1F
100
AcDbEntity
  8
LC-001-100-D00-0
 62
     7
370
    50
100
AcDbCircle
 10
-142.965758
 20
397.202225
 30
0.0
 40
0.5999999999998836
100
AcDbArc
 50
105.0
 51
180.0
  0
LINE
  5
4C2
330
1F
100
AcDbEntity
  8
LC-001-100-D00-0
 62
     7
370
    50
100
AcDbLine
 10
-144.365758
 20
391.970991
 30
0.0
 11
-142.414894
 21
391.970992
 31
0.0
  0
LINE
  5
4C3
330
1F
100
AcDbEntity
  8
LC-001-100-D00-0
 62
     7
370
    50
100
AcDbLine
 10
-144.365754
 20
399.970991
 30
0.0
 11
-142.414894
 21
399.970991
 31
0.0
  0
LINE
  5
4C4
330
1F
100
AcDbEntity
  8
LC-001-100-D00-0
 62
     7
370
    50
100
AcDbLine
 10
-153.965758
 20
397.202225
 30
0.0
 11
-153.965758
 21
394.739757
 31
0.0
  0
LINE
  5
4C5
330
1F
100
AcDbEntity
  8
LC-001-100-D00-0
 62
     7
370
    50
100
AcDbLine
 10
-152.165766
 20
398.970991
 30
0.0
 11
-153.165754
 21
399.970991
 31
0.0
  0
LINE
  5
4C6
330
1F
100
AcDbEntity
  8
LC-001-100-D00-0
 62
     7
370
    50
100
AcDbLine
 10
-152.165766
 20
398.970991
 30
0.0
 11
-152.165758
 21
392.970991
 31
0.0
  0
LINE
  5
4C7
330
1F
100
AcDbEntity
  8
LC-001-100-D00-0
 62
     7
370
    50
100
AcDbLine
 10
-153.165758
 20
391.970991
 30
0.0
 11
-152.165758
 21
392.970991
 31
0.0
  0
LINE
  5
4C8
330
1F
100
AcDbEntity
  8
LC-001-100-D00-0
 62
     7
370
    50
100
AcDbLine
 10
-155.116614
 20
393.97099
 30
0.0
 11
-155.116614
 21
391.970992
 31
0.0
  0
LINE
  5
4C9
330
1F
100
AcDbEntity
  8
LC-001-100-D00-0
 62
     7
370
    50
100
AcDbLine
 10
-154.410466
 20
394.160202
 30
0.0
 11
-155.116614
 21
393.97099
 31
0.0
  0
ARC
  5
4CA
330
1F
100
AcDbEntity
  8
LC-001-100-D00-0
 62
     7
370
    50
100
AcDbCircle
 10
-154.565758
 20
394.739757
 30
0.0
 40
0.6000000000001032
100
AcDbArc
 50
285.0
 51
0.0
  0
ARC
  5
4CB
330
1F
100
AcDbEntity
  8
LC-001-100-D00-0
 62
     7
370
    50
100
AcDbCircle
 10
-154.565758
 20
397.202225
 30
0.0
 40
0.6000000000000227
100
AcDbArc
 50
0.0
 51
75.0
  0
LINE
  5
4CC
330
1F
100
AcDbEntity
  8
LC-001-100-D00-0
 62
     7
370
    50
100
AcDbLine
 10
-155.116614
 20
397.970991
 30
0.0
 11
-154.410466
 21
397.78178
 31
0.0
  0
LINE
  5
4CD
330
1F
100
AcDbEntity
  8
LC-001-100-D00-0
 62
     7
370
    50
100
AcDbLine
 10
-155.116614
 20
399.970991
 30
0.0
 11
-155.116614
 21
397.970991
 31
0.0
  0
LINE
  5
4CE
330
1F
100
AcDbEntity
  8
LC-001-100-D00-0
 62
     7
370
    50
100
AcDbLine
 10
-155.116614
 20
391.970992
 30
0.0
 11
-153.165758
 21
391.970991
 31
0.0
  0
LINE
  5
4CF
330
1F
100
AcDbEntity
  8
LC-001-100-D00-0
 62
     7
370
    50
100
AcDbLine
 10
-155.116614
 20
399.970991
 30
0.0
 11
-153.165754
 21
399.970991
 31
0.0
  0
LINE
  5
4D0
330
1F
100
AcDbEntity
  8
LC-001-100-D00-0
 62
     7
370
    50
100
AcDbLine
 10
-152.165758
 20
392.970991
 30
0.0
 11
-152.007918
 21
392.970991
 31
0.0
  0
LINE
  5
4D1
330
1F
100
AcDbEntity
  8
LC-001-100-D00-0
 62
     7
370
    50
100
AcDbLine
 10
-145.523597
 20
392.970991
 30
0.0
 11
-145.365758
 21
392.970991
 31
0.0
  0
LINE
  5
4D2
330
1F
100
AcDbEntity
  8
LC-001-100-D00-0
 62
     7
370
    50
100
AcDbLine
 10
-144.365758
 20
391.970991
 30
0.0
 11
-144.901539
 21
391.970991
 31
0.0
  0
LINE
  5
4D3
330
1F
100
AcDbEntity
  8
LC-001-100-D00-0
 62
     7
370
    50
100
AcDbLine
 10
-152.629976
 20
391.970991
 30
0.0
 11
-153.165758
 21
391.970991
 31
0.0
  0
LINE
  5
4D4
330
1F
100
AcDbEntity
  8
LC-001-100-D00-0
 62
     7
370
    50
100
AcDbLine
 10
-142.414894
 20
399.970991
 30
0.0
 11
-144.865747
 21
399.970991
 31
0.0
  0
LINE
  5
4D5
330
1F
100
AcDbEntity
  8
LC-001-100-D00-0
 62
     7
370
    50
100
AcDbLine
 10
-144.865747
 20
399.970991
 30
0.0
 11
-144.865758
 21
410.970991
 31
0.0
  0
LINE
  5
4D6
330
1F
100
AcDbEntity
  8
LC-001-100-D00-0
 62
     7
370
    50
100
AcDbLine
 10
-144.865758
 20
410.970991
 30
0.0
 11
-131.515758
 21
410.970991
 31
0.0
  0
ARC
  5
4D7
330
1F
100
AcDbEntity
  8
LC-001-100-D00-0
 62
     7
370
    50
100
AcDbCircle
 10
-131.515758
 20
409.970991
 30
0.0
 40
1.000000000000114
100
AcDbArc
 50
0.0
 51
90.0
  0
LINE
  5
4D8
330
1F
100
AcDbEntity
  8
LC-001-100-D00-0
 62
     7
370
    50
100
AcDbLine
 10
-130.515758
 20
409.970991
 30
0.0
 11
-130.51575
 21
403.970991
 31
0.0
  0
LINE
  5
4D9
330
1F
100
AcDbEntity
  8
LC-001-100-D00-0
 62
     7
370
    50
100
AcDbLine
 10
-133.515758
 20
403.970991
 30
0.0
 11
-130.51575
 21
403.970991
 31
0.0
  0
LINE
  5
4DA
330
1F
100
AcDbEntity
  8
LC-001-100-D00-0
 62
     7
370
    50
100
AcDbLine
 10
-133.515758
 20
403.970991
 30
0.0
 11
-133.515771
 21
407.970991
 31
0.0
  0
LINE
  5
4DB
330
1F
100
AcDbEntity
  8
LC-001-100-D00-0
 62
     7
370
    50
100
AcDbLine
 10
-138.015758
 20
407.970991
 30
0.0
 11
-133.515771
 21
407.970991
 31
0.0
  0
ARC
  5
4DC
330
1F
100
AcDbEntity
  8
LC-001-100-D00-0
 62
     7
370
    50
100
AcDbCircle
 10
-138.015758
 20
406.970991
 30
0.0
 40
1.0
100
AcDbArc
 50
90.0
 51
180.0
  0
LINE
  5
4DD
330
1F
100
AcDbEntity
  8
LC-001-100-D00-0
 62
     7
370
    50
100
AcDbLine
 10
-139.015758
 20
392.970991
 30
0.0
 11
-139.015758
 21
406.970991
 31
0.0
  0
ARC
  5
4DE
330
1F
100
AcDbEntity
  8
LC-001-100-D00-0
 62
     7
370
    50
100
AcDbCircle
 10
-140.015758
 20
392.970991
 30
0.0
 40
1.000000000000227
100
AcDbArc
 50
270.0
 51
0.0
  0
LINE
  5
4DF
330
1F
100
AcDbEntity
  8
LC-001-100-D00-0
 62
     7
370
    50
100
AcDbLine
 10
-140.015758
 20
391.970991
 30
0.0
 11
-142.414894
 21
391.970992
 31
0.0
  0
LINE
  5
4E0
330
1F
100
AcDbEntity
  8
LC-001-100-D00-0
 62
     7
370
    50
100
AcDbLine
 10
-142.414894
 20
393.97099
 30
0.0
 11
-142.414894
 21
391.970992
 31
0.0
  0
LINE
  5
4E1
330
1F
100
AcDbEntity
  8
LC-001-100-D00-0
 62
     7
370
    50
100
AcDbLine
 10
-143.065758
 20
393.970991
 30
0.0
 11
-142.414894
 21
393.97099
 31
0.0
  0
ARC
  5
4E2
330
1F
100
AcDbEntity
  8
LC-001-100-D00-0
 62
     7
370
    50
100
AcDbCircle
 10
-143.065758
 20
394.470991
 30
0.0
 40
0.4999999999999432
100
AcDbArc
 50
180.0
 51
270.0
  0
LINE
  5
4E3
330
1F
100
AcDbEntity
  8
LC-001-100-D00-0
 62
     7
370
    50
100
AcDbLine
 10
-143.565758
 20
397.470991
 30
0.0
 11
-143.565758
 21
394.470991
 31
0.0
  0
ARC
  5
4E4
330
1F
100
AcDbEntity
  8
LC-001-100-D00-0
 62
     7
370
    50
100
AcDbCircle
 10
-143.065758
 20
397.470991
 30
0.0
 40
0.5
100
AcDbArc
 50
90.0
 51
180.0
  0
LINE
  5
4E5
330
1F
100
AcDbEntity
  8
LC-001-100-D00-0
 62
     7
370
    50
100
AcDbLine
 10
-142.414894
 20
397.970991
 30
0.0
 11
-143.065758
 21
397.970991
 31
0.0
  0
LINE
  5
4E6
330
1F
100
AcDbEntity
  8
LC-001-100-D00-0
 62
     7
370
    50
100
AcDbLine
 10
-142.414894
 20
399.970991
 30
0.0
 11
-142.414894
 21
397.970991
 31
0.0
  0
ARC
  5
4E7
330
1F
100
AcDbEntity
  8
LC-001-100-D00-0
 62
     7
370
    50
100
AcDbCircle
 10
-159.515758
 20
406.970991
 30
0.0
 40
1.000000000000057
100
AcDbArc
 50
0.0
 51
90.0
  0
ARC
  5
4E8
330
1F
100
AcDbEntity
  8
LC-001-100-D00-0
 62
     7
370
    50
100
AcDbCircle
 10
-157.515758
 20
392.970991
 30
0.0
 40
1.0
100
AcDbArc
 50
180.0
 51
270.0
  0
LINE
  5
4E9
330
1F
100
AcDbEntity
  8
LC-001-100-D00-0
 62
     7
370
    50
100
AcDbLine
 10
-158.515758
 20
406.970991
 30
0.0
 11
-158.515758
 21
392.970991
 31
0.0
  0
LINE
  5
4EA
330
1F
100
AcDbEntity
  8
LC-001-100-D00-0
 62
     7
370
    50
100
AcDbLine
 10
-153.965758
 20
394.470991
 30
0.0
 11
-153.965758
 21
397.470991
 31
0.0
  0
LINE
  5
4EB
330
1F
100
AcDbEntity
  8
LC-001-100-D00-0
 62
     7
370
    50
100
AcDbLine
 10
-152.665758
 20
410.970991
 30
0.0
 11
-152.66576
 21
399.970991
 31
0.0
  0
LINE
  5
4EC
330
1F
100
AcDbEntity
  8
LC-001-100-D00-0
 62
     7
370
    50
100
AcDbLine
 10
-152.665758
 20
410.970991
 30
0.0
 11
-144.865758
 21
410.970991
 31
0.0
  0
LINE
  5
4ED
330
1F
100
AcDbEntity
  8
LC-001-100-D00-0
 62
     7
370
    50
100
AcDbLine
 10
-155.116614
 20
393.97099
 30
0.0
 11
-155.116614
 21
391.970992
 31
0.0
  0
LINE
  5
4EE
330
1F
100
AcDbEntity
  8
LC-001-100-D00-0
 62
     7
370
    50
100
AcDbLine
 10
-155.116614
 20
399.970991
 30
0.0
 11
-155.116614
 21
397.970991
 31
0.0
  0
ARC
  5
4EF
330
1F
100
AcDbEntity
  8
LC-001-100-D00-0
 62
     7
370
    50
100
AcDbCircle
 10
-154.465758
 20
394.470991
 30
0.0
 40
0.4999999999997726
100
AcDbArc
 50
270.0
 51
0.0
  0
LINE
  5
4F0
330
1F
100
AcDbEntity
  8
LC-001-100-D00-0
 62
     7
370
    50
100
AcDbLine
 10
-155.116614
 20
393.97099
 30
0.0
 11
-154.465758
 21
393.970991
 31
0.0
  0
LINE
  5
4F1
330
1F
100
AcDbEntity
  8
LC-001-100-D00-0
 62
     7
370
    50
100
AcDbLine
 10
-164.015766
 20
407.970991
 30
0.0
 11
-164.015758
 21
403.970991
 31
0.0
  0
LINE
  5
4F2
330
1F
100
AcDbEntity
  8
LC-001-100-D00-0
 62
     7
370
    50
100
AcDbLine
 10
-167.015757
 20
403.970991
 30
0.0
 11
-167.015758
 21
409.970991
 31
0.0
  0
ARC
  5
4F3
330
1F
100
AcDbEntity
  8
LC-001-100-D00-0
 62
     7
370
    50
100
AcDbCircle
 10
-166.015758
 20
409.970991
 30
0.0
 40
1.0
100
AcDbArc
 50
90.0
 51
180.0
  0
LINE
  5
4F4
330
1F
100
AcDbEntity
  8
LC-001-100-D00-0
 62
     7
370
    50
100
AcDbLine
 10
-154.465758
 20
397.970991
 30
0.0
 11
-155.116614
 21
397.970991
 31
0.0
  0
ARC
  5
4F5
330
1F
100
AcDbEntity
  8
LC-001-100-D00-0
 62
     7
370
    50
100
AcDbCircle
 10
-154.465758
 20
397.470991
 30
0.0
 40
0.4999999999999432
100
AcDbArc
 50
0.0
 51
90.0
  0
LINE
  5
4F6
330
1F
100
AcDbEntity
  8
LC-001-100-D00-0
 62
     7
370
    50
100
AcDbLine
 10
-152.66576
 20
399.970991
 30
0.0
 11
-155.116614
 21
399.970991
 31
0.0
  0
LINE
  5
4F7
330
1F
100
AcDbEntity
  8
LC-001-100-D00-0
 62
     7
370
    50
100
AcDbLine
 10
-155.116614
 20
391.970992
 30
0.0
 11
-157.515758
 21
391.970991
 31
0.0
  0
LINE
  5
4F8
330
1F
100
AcDbEntity
  8
LC-001-100-D00-0
 62
     7
370
    50
100
AcDbLine
 10
-167.015757
 20
403.970991
 30
0.0
 11
-164.015758
 21
403.970991
 31
0.0
  0
LINE
  5
4F9
330
1F
100
AcDbEntity
  8
LC-001-100-D00-0
 62
     7
370
    50
100
AcDbLine
 10
-164.015766
 20
407.970991
 30
0.0
 11
-159.515758
 21
407.970991
 31
0.0
  0
LINE
  5
4FA
330
1F
100
AcDbEntity
  8
LC-001-100-D00-0
 62
     7
370
    50
100
AcDbLine
 10
-166.015758
 20
410.970991
 30
0.0
 11
-152.665758
 21
410.970991
 31
0.0
  0
LINE
  5
4FB
330
1F
100
AcDbEntity
  8
LC-001-100-D00-0
 62
     7
370
    50
100
AcDbLine
 10
-135.515758
 20
403.970991
 30
0.0
 11
-133.515758
 21
403.970991
 31
0.0
  0
LINE
  5
4FC
330
1F
100
AcDbEntity
  8
LC-001-100-D00-0
 62
     7
370
    50
100
AcDbLine
 10
-164.015758
 20
403.970991
 30
0.0
 11
-162.015758
 21
403.970991
 31
0.0
  0
LINE
  5
4FD
330
1F
100
AcDbEntity
  8
LC-001-100-D00-0
 62
     7
370
    50
100
AcDbLine
 10
-162.015758
 20
403.970991
 30
0.0
 11
-158.515747
 21
403.970991
 31
0.0
  0
LINE
  5
4FE
330
1F
100
AcDbEntity
  8
LC-001-100-D00-0
 62
     7
370
    50
100
AcDbLine
 10
-139.01576
 20
403.970991
 30
0.0
 11
-135.515758
 21
403.970991
 31
0.0
  0
LINE
  5
4FF
330
1F
100
AcDbEntity
  8
LC-001-100-D00-0
 62
     7
370
    50
100
AcDbLine
 10
26.434242
 20
394.739757
 30
0.0
 11
26.434242
 21
397.202225
 31
0.0
  0
ARC
  5
500
330
1F
100
AcDbEntity
  8
LC-001-100-D00-0
 62
     7
370
    50
100
AcDbCircle
 10
27.034242
 20
394.739757
 30
0.0
 40
0.6000000000000227
100
AcDbArc
 50
180.0
 51
255.0
  0
LINE
  5
501
330
1F
100
AcDbEntity
  8
LC-001-100-D00-0
 62
     7
370
    50
100
AcDbLine
 10
27.585093
 20
393.97099
 30
0.0
 11
26.878951
 21
394.160202
 31
0.0
  0
LINE
  5
502
330
1F
100
AcDbEntity
  8
LC-001-100-D00-0
 62
     7
370
    50
100
AcDbLine
 10
27.585093
 20
393.97099
 30
0.0
 11
27.585093
 21
391.970992
 31
0.0
  0
LINE
  5
503
330
1F
100
AcDbEntity
  8
LC-001-100-D00-0
 62
     7
370
    50
100
AcDbLine
 10
24.634242
 20
392.970991
 30
0.0
 11
25.634242
 21
391.970991
 31
0.0
  0
LINE
  5
504
330
1F
100
AcDbEntity
  8
LC-001-100-D00-0
 62
     7
370
    50
100
AcDbLine
 10
24.634242
 20
392.970991
 30
0.0
 11
24.634239
 21
398.970991
 31
0.0
  0
LINE
  5
505
330
1F
100
AcDbEntity
  8
LC-001-100-D00-0
 62
     7
370
    50
100
AcDbLine
 10
25.634241
 20
399.970991
 30
0.0
 11
24.634239
 21
398.970991
 31
0.0
  0
LINE
  5
506
330
1F
100
AcDbEntity
  8
LC-001-100-D00-0
 62
     7
370
    50
100
AcDbLine
 10
27.585093
 20
399.970991
 30
0.0
 11
27.585093
 21
397.970991
 31
0.0
  0
LINE
  5
507
330
1F
100
AcDbEntity
  8
LC-001-100-D00-0
 62
     7
370
    50
100
AcDbLine
 10
26.878951
 20
397.78178
 30
0.0
 11
27.585093
 21
397.970991
 31
0.0
  0
ARC
  5
508
330
1F
100
AcDbEntity
  8
LC-001-100-D00-0
 62
     7
370
    50
100
AcDbCircle
 10
27.034242
 20
397.202225
 30
0.0
 40
0.5999999999998983
100
AcDbArc
 50
105.0
 51
180.0
  0
LINE
  5
509
330
1F
100
AcDbEntity
  8
LC-001-100-D00-0
 62
     7
370
    50
100
AcDbLine
 10
25.634242
 20
391.970991
 30
0.0
 11
27.585093
 21
391.970992
 31
0.0
  0
LINE
  5
50A
330
1F
100
AcDbEntity
  8
LC-001-100-D00-0
 62
     7
370
    50
100
AcDbLine
 10
25.634241
 20
399.970991
 30
0.0
 11
27.585093
 21
399.970991
 31
0.0
  0
LINE
  5
50B
330
1F
100
AcDbEntity
  8
LC-001-100-D00-0
 62
     7
370
    50
100
AcDbLine
 10
16.034242
 20
397.202225
 30
0.0
 11
16.034242
 21
394.739757
 31
0.0
  0
LINE
  5
50C
330
1F
100
AcDbEntity
  8
LC-001-100-D00-0
 62
     7
370
    50
100
AcDbLine
 10
17.834243
 20
398.970991
 30
0.0
 11
16.834241
 21
399.970991
 31
0.0
  0
LINE
  5
50D
330
1F
100
AcDbEntity
  8
LC-001-100-D00-0
 62
     7
370
    50
100
AcDbLine
 10
16.834242
 20
391.970991
 30
0.0
 11
17.834242
 21
392.970991
 31
0.0
  0
LINE
  5
50E
330
1F
100
AcDbEntity
  8
LC-001-100-D00-0
 62
     7
370
    50
100
AcDbLine
 10
17.834242
 20
392.970991
 30
0.0
 11
17.992082
 21
392.970991
 31
0.0
  0
LINE
  5
50F
330
1F
100
AcDbEntity
  8
LC-001-100-D00-0
 62
     7
370
    50
100
AcDbLine
 10
24.476403
 20
392.970991
 30
0.0
 11
24.634242
 21
392.970991
 31
0.0
  0
LINE
  5
510
330
1F
100
AcDbEntity
  8
LC-001-100-D00-0
 62
     7
370
    50
100
AcDbLine
 10
25.634242
 20
391.970991
 30
0.0
 11
25.098461
 21
391.970991
 31
0.0
  0
LINE
  5
511
330
1F
100
AcDbEntity
  8
LC-001-100-D00-0
 62
     7
370
    50
100
AcDbLine
 10
17.370024
 20
391.970991
 30
0.0
 11
16.834242
 21
391.970991
 31
0.0
  0
LINE
  5
512
330
1F
100
AcDbEntity
  8
LC-001-100-D00-0
 62
     7
370
    50
100
AcDbLine
 10
17.834243
 20
398.970991
 30
0.0
 11
17.834242
 21
392.970991
 31
0.0
  0
LINE
  5
513
330
1F
100
AcDbEntity
  8
LC-001-100-D00-0
 62
     7
370
    50
100
AcDbLine
 10
14.883388
 20
393.97099
 30
0.0
 11
14.883388
 21
391.970992
 31
0.0
  0
LINE
  5
514
330
1F
100
AcDbEntity
  8
LC-001-100-D00-0
 62
     7
370
    50
100
AcDbLine
 10
15.589534
 20
394.160202
 30
0.0
 11
14.883388
 21
393.97099
 31
0.0
  0
ARC
  5
515
330
1F
100
AcDbEntity
  8
LC-001-100-D00-0
 62
     7
370
    50
100
AcDbCircle
 10
15.434242
 20
394.739757
 30
0.0
 40
0.600000000000118
100
AcDbArc
 50
285.0
 51
0.0
  0
ARC
  5
516
330
1F
100
AcDbEntity
  8
LC-001-100-D00-0
 62
     7
370
    50
100
AcDbCircle
 10
15.434242
 20
397.202225
 30
0.0
 40
0.6000000000000227
100
AcDbArc
 50
0.0
 51
75.0
  0
LINE
  5
517
330
1F
100
AcDbEntity
  8
LC-001-100-D00-0
 62
     7
370
    50
100
AcDbLine
 10
14.883388
 20
397.970991
 30
0.0
 11
15.589534
 21
397.78178
 31
0.0
  0
LINE
  5
518
330
1F
100
AcDbEntity
  8
LC-001-100-D00-0
 62
     7
370
    50
100
AcDbLine
 10
14.883388
 20
399.970991
 30
0.0
 11
14.883388
 21
397.970991
 31
0.0
  0
LINE
  5
519
330
1F
100
AcDbEntity
  8
LC-001-100-D00-0
 62
     7
370
    50
100
AcDbLine
 10
14.883388
 20
391.970992
 30
0.0
 11
16.834242
 21
391.970991
 31
0.0
  0
LINE
  5
51A
330
1F
100
AcDbEntity
  8
LC-001-100-D00-0
 62
     7
370
    50
100
AcDbLine
 10
14.883388
 20
399.970991
 30
0.0
 11
16.834241
 21
399.970991
 31
0.0
  0
LINE
  5
51B
330
1F
100
AcDbEntity
  8
LC-001-100-D00-0
 62
     7
370
    50
100
AcDbLine
 10
27.585093
 20
399.970991
 30
0.0
 11
25.13424
 21
399.970991
 31
0.0
  0
LINE
  5
51C
330
1F
100
AcDbEntity
  8
LC-001-100-D00-0
 62
     7
370
    50
100
AcDbLine
 10
25.13424
 20
399.970991
 30
0.0
 11
25.134242
 21
410.970991
 31
0.0
  0
LINE
  5
51D
330
1F
100
AcDbEntity
  8
LC-001-100-D00-0
 62
     7
370
    50
100
AcDbLine
 10
25.134242
 20
410.970991
 30
0.0
 11
38.484242
 21
410.970991
 31
0.0
  0
ARC
  5
51E
330
1F
100
AcDbEntity
  8
LC-001-100-D00-0
 62
     7
370
    50
100
AcDbCircle
 10
38.484242
 20
409.970991
 30
0.0
 40
1.0
100
AcDbArc
 50
0.0
 51
90.0
  0
LINE
  5
51F
330
1F
100
AcDbEntity
  8
LC-001-100-D00-0
 62
     7
370
    50
100
AcDbLine
 10
39.484242
 20
409.970991
 30
0.0
 11
39.484244
 21
403.970991
 31
0.0
  0
LINE
  5
520
330
1F
100
AcDbEntity
  8
LC-001-100-D00-0
 62
     7
370
    50
100
AcDbLine
 10
36.484242
 20
403.970991
 30
0.0
 11
39.484244
 21
403.970991
 31
0.0
  0
LINE
  5
521
330
1F
100
AcDbEntity
  8
LC-001-100-D00-0
 62
     7
370
    50
100
AcDbLine
 10
36.484242
 20
403.970991
 30
0.0
 11
36.484246
 21
407.970991
 31
0.0
  0
LINE
  5
522
330
1F
100
AcDbEntity
  8
LC-001-100-D00-0
 62
     7
370
    50
100
AcDbLine
 10
31.984242
 20
407.970991
 30
0.0
 11
36.484246
 21
407.970991
 31
0.0
  0
ARC
  5
523
330
1F
100
AcDbEntity
  8
LC-001-100-D00-0
 62
     7
370
    50
100
AcDbCircle
 10
31.984242
 20
406.970991
 30
0.0
 40
1.0
100
AcDbArc
 50
90.0
 51
180.0
  0
LINE
  5
524
330
1F
100
AcDbEntity
  8
LC-001-100-D00-0
 62
     7
370
    50
100
AcDbLine
 10
30.984242
 20
392.970991
 30
0.0
 11
30.984242
 21
406.970991
 31
0.0
  0
ARC
  5
525
330
1F
100
AcDbEntity
  8
LC-001-100-D00-0
 62
     7
370
    50
100
AcDbCircle
 10
29.984242
 20
392.970991
 30
0.0
 40
1.0
100
AcDbArc
 50
270.0
 51
0.0
  0
LINE
  5
526
330
1F
100
AcDbEntity
  8
LC-001-100-D00-0
 62
     7
370
    50
100
AcDbLine
 10
29.984242
 20
391.970991
 30
0.0
 11
27.585093
 21
391.970992
 31
0.0
  0
LINE
  5
527
330
1F
100
AcDbEntity
  8
LC-001-100-D00-0
 62
     7
370
    50
100
AcDbLine
 10
27.585093
 20
393.97099
 30
0.0
 11
27.585093
 21
391.970992
 31
0.0
  0
LINE
  5
528
330
1F
100
AcDbEntity
  8
LC-001-100-D00-0
 62
     7
370
    50
100
AcDbLine
 10
26.934242
 20
393.970991
 30
0.0
 11
27.585093
 21
393.97099
 31
0.0
  0
ARC
  5
529
330
1F
100
AcDbEntity
  8
LC-001-100-D00-0
 62
     7
370
    50
100
AcDbCircle
 10
26.934242
 20
394.470991
 30
0.0
 40
0.5
100
AcDbArc
 50
180.0
 51
270.0
  0
LINE
  5
52A
330
1F
100
AcDbEntity
  8
LC-001-100-D00-0
 62
     7
370
    50
100
AcDbLine
 10
26.434242
 20
397.470991
 30
0.0
 11
26.434242
 21
394.470991
 31
0.0
  0
ARC
  5
52B
330
1F
100
AcDbEntity
  8
LC-001-100-D00-0
 62
     7
370
    50
100
AcDbCircle
 10
26.934242
 20
397.470991
 30
0.0
 40
0.5
100
AcDbArc
 50
90.0
 51
180.0
  0
LINE
  5
52C
330
1F
100
AcDbEntity
  8
LC-001-100-D00-0
 62
     7
370
    50
100
AcDbLine
 10
27.585093
 20
397.970991
 30
0.0
 11
26.934242
 21
397.970991
 31
0.0
  0
LINE
  5
52D
330
1F
100
AcDbEntity
  8
LC-001-100-D00-0
 62
     7
370
    50
100
AcDbLine
 10
27.585093
 20
399.970991
 30
0.0
 11
27.585093
 21
397.970991
 31
0.0
  0
ARC
  5
52E
330
1F
100
AcDbEntity
  8
LC-001-100-D00-0
 62
     7
370
    50
100
AcDbCircle
 10
10.484242
 20
406.970991
 30
0.0
 40
1.0
100
AcDbArc
 50
0.0
 51
90.0
  0
ARC
  5
52F
330
1F
100
AcDbEntity
  8
LC-001-100-D00-0
 62
     7
370
    50
100
AcDbCircle
 10
12.484242
 20
392.970991
 30
0.0
 40
0.9999999999998863
100
AcDbArc
 50
180.0
 51
270.0
  0
LINE
  5
530
330
1F
100
AcDbEntity
  8
LC-001-100-D00-0
 62
     7
370
    50
100
AcDbLine
 10
11.484242
 20
406.970991
 30
0.0
 11
11.484242
 21
392.970991
 31
0.0
  0
LINE
  5
531
330
1F
100
AcDbEntity
  8
LC-001-100-D00-0
 62
     7
370
    50
100
AcDbLine
 10
16.034242
 20
394.470991
 30
0.0
 11
16.034242
 21
397.470991
 31
0.0
  0
LINE
  5
532
330
1F
100
AcDbEntity
  8
LC-001-100-D00-0
 62
     7
370
    50
100
AcDbLine
 10
17.334242
 20
410.970991
 30
0.0
 11
17.334242
 21
399.970991
 31
0.0
  0
LINE
  5
533
330
1F
100
AcDbEntity
  8
LC-001-100-D00-0
 62
     7
370
    50
100
AcDbLine
 10
17.334242
 20
410.970991
 30
0.0
 11
25.134242
 21
410.970991
 31
0.0
  0
LINE
  5
534
330
1F
100
AcDbEntity
  8
LC-001-100-D00-0
 62
     7
370
    50
100
AcDbLine
 10
14.883388
 20
393.97099
 30
0.0
 11
14.883388
 21
391.970992
 31
0.0
  0
LINE
  5
535
330
1F
100
AcDbEntity
  8
LC-001-100-D00-0
 62
     7
370
    50
100
AcDbLine
 10
14.883388
 20
399.970991
 30
0.0
 11
14.883388
 21
397.970991
 31
0.0
  0
ARC
  5
536
330
1F
100
AcDbEntity
  8
LC-001-100-D00-0
 62
     7
370
    50
100
AcDbCircle
 10
15.534242
 20
394.470991
 30
0.0
 40
0.4999999999997726
100
AcDbArc
 50
270.0
 51
0.0
  0
LINE
  5
537
330
1F
100
AcDbEntity
  8
LC-001-100-D00-0
 62
     7
370
    50
100
AcDbLine
 10
14.883388
 20
393.97099
 30
0.0
 11
15.534242
 21
393.970991
 31
0.0
  0
LINE
  5
538
330
1F
100
AcDbEntity
  8
LC-001-100-D00-0
 62
     7
370
    50
100
AcDbLine
 10
5.984243
 20
407.970991
 30
0.0
 11
5.984242
 21
403.970991
 31
0.0
  0
LINE
  5
539
330
1F
100
AcDbEntity
  8
LC-001-100-D00-0
 62
     7
370
    50
100
AcDbLine
 10
2.984245
 20
403.970991
 30
0.0
 11
2.984242
 21
409.970991
 31
0.0
  0
ARC
  5
53A
330
1F
100
AcDbEntity
  8
LC-001-100-D00-0
 62
     7
370
    50
100
AcDbCircle
 10
3.984242
 20
409.970991
 30
0.0
 40
1.0
100
AcDbArc
 50
90.0
 51
180.0
  0
LINE
  5
53B
330
1F
100
AcDbEntity
  8
LC-001-100-D00-0
 62
     7
370
    50
100
AcDbLine
 10
15.534242
 20
397.970991
 30
0.0
 11
14.883388
 21
397.970991
 31
0.0
  0
ARC
  5
53C
330
1F
100
AcDbEntity
  8
LC-001-100-D00-0
 62
     7
370
    50
100
AcDbCircle
 10
15.534242
 20
397.470991
 30
0.0
 40
0.5
100
AcDbArc
 50
0.0
 51
90.0
  0
LINE
  5
53D
330
1F
100
AcDbEntity
  8
LC-001-100-D00-0
 62
     7
370
    50
100
AcDbLine
 10
17.334242
 20
399.970991
 30
0.0
 11
14.883388
 21
399.970991
 31
0.0
  0
LINE
  5
53E
330
1F
100
AcDbEntity
  8
LC-001-100-D00-0
 62
     7
370
    50
100
AcDbLine
 10
14.883388
 20
391.970992
 30
0.0
 11
12.484242
 21
391.970991
 31
0.0
  0
LINE
  5
53F
330
1F
100
AcDbEntity
  8
LC-001-100-D00-0
 62
     7
370
    50
100
AcDbLine
 10
5.984243
 20
407.970991
 30
0.0
 11
10.484242
 21
407.970991
 31
0.0
  0
LINE
  5
540
330
1F
100
AcDbEntity
  8
LC-001-100-D00-0
 62
     7
370
    50
100
AcDbLine
 10
3.984242
 20
410.970991
 30
0.0
 11
17.334242
 21
410.970991
 31
0.0
  0
LINE
  5
541
330
1F
100
AcDbEntity
  8
LC-001-100-D00-0
 62
     7
370
    50
100
AcDbLine
 10
2.984245
 20
403.970991
 30
0.0
 11
5.984242
 21
403.970991
 31
0.0
  0
LINE
  5
542
330
1F
100
AcDbEntity
  8
LC-001-100-D00-0
 62
     7
370
    50
100
AcDbLine
 10
34.484242
 20
403.970991
 30
0.0
 11
36.484242
 21
403.970991
 31
0.0
  0
LINE
  5
543
330
1F
100
AcDbEntity
  8
LC-001-100-D00-0
 62
     7
370
    50
100
AcDbLine
 10
5.984242
 20
403.970991
 30
0.0
 11
7.984242
 21
403.970991
 31
0.0
  0
LINE
  5
544
330
1F
100
AcDbEntity
  8
LC-001-100-D00-0
 62
     7
370
    50
100
AcDbLine
 10
7.984242
 20
403.970991
 30
0.0
 11
11.48424
 21
403.970991
 31
0.0
  0
LINE
  5
545
330
1F
100
AcDbEntity
  8
LC-001-100-D00-0
 62
     7
370
    50
100
AcDbLine
 10
30.984242
 20
403.970991
 30
0.0
 11
34.484242
 21
403.970991
 31
0.0
  0
LINE
  5
546
330
1F
100
AcDbEntity
  8
LC-001-100-D00-0
 62
     7
370
    50
100
AcDbLine
 10
396.434242
 20
394.739757
 30
0.0
 11
396.434242
 21
397.202225
 31
0.0
  0
ARC
  5
547
330
1F
100
AcDbEntity
  8
LC-001-100-D00-0
 62
     7
370
    50
100
AcDbCircle
 10
397.034242
 20
394.739757
 30
0.0
 40
0.6000000000002501
100
AcDbArc
 50
180.0
 51
255.0
  0
LINE
  5
548
330
1F
100
AcDbEntity
  8
LC-001-100-D00-0
 62
     7
370
    50
100
AcDbLine
 10
397.585098
 20
393.97099
 30
0.0
 11
396.878951
 21
394.160202
 31
0.0
  0
LINE
  5
549
330
1F
100
AcDbEntity
  8
LC-001-100-D00-0
 62
     7
370
    50
100
AcDbLine
 10
397.585098
 20
393.97099
 30
0.0
 11
397.585098
 21
391.970992
 31
0.0
  0
LINE
  5
54A
330
1F
100
AcDbEntity
  8
LC-001-100-D00-0
 62
     7
370
    50
100
AcDbLine
 10
394.634242
 20
392.970991
 30
0.0
 11
395.634242
 21
391.970991
 31
0.0
  0
LINE
  5
54B
330
1F
100
AcDbEntity
  8
LC-001-100-D00-0
 62
     7
370
    50
100
AcDbLine
 10
394.634242
 20
392.970991
 30
0.0
 11
394.634251
 21
398.970991
 31
0.0
  0
LINE
  5
54C
330
1F
100
AcDbEntity
  8
LC-001-100-D00-0
 62
     7
370
    50
100
AcDbLine
 10
395.634238
 20
399.970991
 30
0.0
 11
394.634251
 21
398.970991
 31
0.0
  0
LINE
  5
54D
330
1F
100
AcDbEntity
  8
LC-001-100-D00-0
 62
     7
370
    50
100
AcDbLine
 10
397.585098
 20
399.970991
 30
0.0
 11
397.585098
 21
397.970991
 31
0.0
  0
LINE
  5
54E
330
1F
100
AcDbEntity
  8
LC-001-100-D00-0
 62
     7
370
    50
100
AcDbLine
 10
396.878951
 20
397.78178
 30
0.0
 11
397.585098
 21
397.970991
 31
0.0
  0
ARC
  5
54F
330
1F
100
AcDbEntity
  8
LC-001-100-D00-0
 62
     7
370
    50
100
AcDbCircle
 10
397.034242
 20
397.202225
 30
0.0
 40
0.5999999999998983
100
AcDbArc
 50
105.0
 51
180.0
  0
LINE
  5
550
330
1F
100
AcDbEntity
  8
LC-001-100-D00-0
 62
     7
370
    50
100
AcDbLine
 10
395.634242
 20
391.970991
 30
0.0
 11
397.585098
 21
391.970992
 31
0.0
  0
LINE
  5
551
330
1F
100
AcDbEntity
  8
LC-001-100-D00-0
 62
     7
370
    50
100
AcDbLine
 10
395.634238
 20
399.970991
 30
0.0
 11
397.585098
 21
399.970991
 31
0.0
  0
LINE
  5
552
330
1F
100
AcDbEntity
  8
LC-001-100-D00-0
 62
     7
370
    50
100
AcDbLine
 10
386.034242
 20
397.202225
 30
0.0
 11
386.034242
 21
394.739757
 31
0.0
  0
LINE
  5
553
330
1F
100
AcDbEntity
  8
LC-001-100-D00-0
 62
     7
370
    50
100
AcDbLine
 10
387.834255
 20
398.970991
 30
0.0
 11
386.834238
 21
399.970991
 31
0.0
  0
LINE
  5
554
330
1F
100
AcDbEntity
  8
LC-001-100-D00-0
 62
     7
370
    50
100
AcDbLine
 10
387.834255
 20
398.970991
 30
0.0
 11
387.834242
 21
392.970991
 31
0.0
  0
LINE
  5
555
330
1F
100
AcDbEntity
  8
LC-001-100-D00-0
 62
     7
370
    50
100
AcDbLine
 10
386.834242
 20
391.970991
 30
0.0
 11
387.834242
 21
392.970991
 31
0.0
  0
LINE
  5
556
330
1F
100
AcDbEntity
  8
LC-001-100-D00-0
 62
     7
370
    50
100
AcDbLine
 10
384.883378
 20
393.97099
 30
0.0
 11
384.883378
 21
391.970992
 31
0.0
  0
LINE
  5
557
330
1F
100
AcDbEntity
  8
LC-001-100-D00-0
 62
     7
370
    50
100
AcDbLine
 10
385.589534
 20
394.160202
 30
0.0
 11
384.883378
 21
393.97099
 31
0.0
  0
ARC
  5
558
330
1F
100
AcDbEntity
  8
LC-001-100-D00-0
 62
     7
370
    50
100
AcDbCircle
 10
385.434242
 20
394.739757
 30
0.0
 40
0.600000000000118
100
AcDbArc
 50
285.0
 51
0.0
  0
ARC
  5
559
330
1F
100
AcDbEntity
  8
LC-001-100-D00-0
 62
     7
370
    50
100
AcDbCircle
 10
385.434242
 20
397.202225
 30
0.0
 40
0.6000000000000227
100
AcDbArc
 50
0.0
 51
75.0
  0
LINE
  5
55A
330
1F
100
AcDbEntity
  8
LC-001-100-D00-0
 62
     7
370
    50
100
AcDbLine
 10
384.883378
 20
397.970991
 30
0.0
 11
385.589534
 21
397.78178
 31
0.0
  0
LINE
  5
55B
330
1F
100
AcDbEntity
  8
LC-001-100-D00-0
 62
     7
370
    50
100
AcDbLine
 10
384.883378
 20
399.970991
 30
0.0
 11
384.883378
 21
397.970991
 31
0.0
  0
LINE
  5
55C
330
1F
100
AcDbEntity
  8
LC-001-100-D00-0
 62
     7
370
    50
100
AcDbLine
 10
384.883378
 20
391.970992
 30
0.0
 11
386.834242
 21
391.970991
 31
0.0
  0
LINE
  5
55D
330
1F
100
AcDbEntity
  8
LC-001-100-D00-0
 62
     7
370
    50
100
AcDbLine
 10
384.883378
 20
399.970991
 30
0.0
 11
386.834238
 21
399.970991
 31
0.0
  0
LINE
  5
55E
330
1F
100
AcDbEntity
  8
LC-001-100-D00-0
 62
     7
370
    50
100
AcDbLine
 10
387.834242
 20
392.970991
 30
0.0
 11
387.992082
 21
392.970991
 31
0.0
  0
LINE
  5
55F
330
1F
100
AcDbEntity
  8
LC-001-100-D00-0
 62
     7
370
    50
100
AcDbLine
 10
394.476403
 20
392.970991
 30
0.0
 11
394.634242
 21
392.970991
 31
0.0
  0
LINE
  5
560
330
1F
100
AcDbEntity
  8
LC-001-100-D00-0
 62
     7
370
    50
100
AcDbLine
 10
395.634242
 20
391.970991
 30
0.0
 11
395.098461
 21
391.970991
 31
0.0
  0
LINE
  5
561
330
1F
100
AcDbEntity
  8
LC-001-100-D00-0
 62
     7
370
    50
100
AcDbLine
 10
387.370024
 20
391.970991
 30
0.0
 11
386.834242
 21
391.970991
 31
0.0
  0
LINE
  5
562
330
1F
100
AcDbEntity
  8
LC-001-100-D00-0
 62
     7
370
    50
100
AcDbLine
 10
397.585098
 20
399.970991
 30
0.0
 11
395.134244
 21
399.970991
 31
0.0
  0
LINE
  5
563
330
1F
100
AcDbEntity
  8
LC-001-100-D00-0
 62
     7
370
    50
100
AcDbLine
 10
395.134244
 20
399.970991
 30
0.0
 11
395.134242
 21
410.970991
 31
0.0
  0
LINE
  5
564
330
1F
100
AcDbEntity
  8
LC-001-100-D00-0
 62
     7
370
    50
100
AcDbLine
 10
395.134242
 20
410.970991
 30
0.0
 11
408.484242
 21
410.970991
 31
0.0
  0
ARC
  5
565
330
1F
100
AcDbEntity
  8
LC-001-100-D00-0
 62
     7
370
    50
100
AcDbCircle
 10
408.484242
 20
409.970991
 30
0.0
 40
1.000000000000114
100
AcDbArc
 50
0.0
 51
90.0
  0
LINE
  5
566
330
1F
100
AcDbEntity
  8
LC-001-100-D00-0
 62
     7
370
    50
100
AcDbLine
 10
409.484242
 20
409.970991
 30
0.0
 11
409.484242
 21
403.970991
 31
0.0
  0
LINE
  5
567
330
1F
100
AcDbEntity
  8
LC-001-100-D00-0
 62
     7
370
    50
100
AcDbLine
 10
406.484242
 20
403.970991
 30
0.0
 11
409.484242
 21
403.970991
 31
0.0
  0
LINE
  5
568
330
1F
100
AcDbEntity
  8
LC-001-100-D00-0
 62
     7
370
    50
100
AcDbLine
 10
406.484242
 20
403.970991
 30
0.0
 11
406.48425
 21
407.970991
 31
0.0
  0
LINE
  5
569
330
1F
100
AcDbEntity
  8
LC-001-100-D00-0
 62
     7
370
    50
100
AcDbLine
 10
401.984242
 20
407.970991
 30
0.0
 11
406.48425
 21
407.970991
 31
0.0
  0
ARC
  5
56A
330
1F
100
AcDbEntity
  8
LC-001-100-D00-0
 62
     7
370
    50
100
AcDbCircle
 10
401.984242
 20
406.970991
 30
0.0
 40
1.0
100
AcDbArc
 50
90.0
 51
180.0
  0
LINE
  5
56B
330
1F
100
AcDbEntity
  8
LC-001-100-D00-0
 62
     7
370
    50
100
AcDbLine
 10
400.984242
 20
392.970991
 30
0.0
 11
400.984242
 21
406.970991
 31
0.0
  0
ARC
  5
56C
330
1F
100
AcDbEntity
  8
LC-001-100-D00-0
 62
     7
370
    50
100
AcDbCircle
 10
399.984242
 20
392.970991
 30
0.0
 40
1.000000000000227
100
AcDbArc
 50
270.0
 51
0.0
  0
LINE
  5
56D
330
1F
100
AcDbEntity
  8
LC-001-100-D00-0
 62
     7
370
    50
100
AcDbLine
 10
399.984242
 20
391.970991
 30
0.0
 11
397.585098
 21
391.970992
 31
0.0
  0
LINE
  5
56E
330
1F
100
AcDbEntity
  8
LC-001-100-D00-0
 62
     7
370
    50
100
AcDbLine
 10
397.585098
 20
393.97099
 30
0.0
 11
397.585098
 21
391.970992
 31
0.0
  0
LINE
  5
56F
330
1F
100
AcDbEntity
  8
LC-001-100-D00-0
 62
     7
370
    50
100
AcDbLine
 10
396.934242
 20
393.970991
 30
0.0
 11
397.585098
 21
393.97099
 31
0.0
  0
ARC
  5
570
330
1F
100
AcDbEntity
  8
LC-001-100-D00-0
 62
     7
370
    50
100
AcDbCircle
 10
396.934242
 20
394.470991
 30
0.0
 40
0.5
100
AcDbArc
 50
180.0
 51
270.0
  0
LINE
  5
571
330
1F
100
AcDbEntity
  8
LC-001-100-D00-0
 62
     7
370
    50
100
AcDbLine
 10
396.434242
 20
397.470991
 30
0.0
 11
396.434242
 21
394.470991
 31
0.0
  0
ARC
  5
572
330
1F
100
AcDbEntity
  8
LC-001-100-D00-0
 62
     7
370
    50
100
AcDbCircle
 10
396.934242
 20
397.470991
 30
0.0
 40
0.5
100
AcDbArc
 50
90.0
 51
180.0
  0
LINE
  5
573
330
1F
100
AcDbEntity
  8
LC-001-100-D00-0
 62
     7
370
    50
100
AcDbLine
 10
397.585098
 20
397.970991
 30
0.0
 11
396.934242
 21
397.970991
 31
0.0
  0
LINE
  5
574
330
1F
100
AcDbEntity
  8
LC-001-100-D00-0
 62
     7
370
    50
100
AcDbLine
 10
397.585098
 20
399.970991
 30
0.0
 11
397.585098
 21
397.970991
 31
0.0
  0
ARC
  5
575
330
1F
100
AcDbEntity
  8
LC-001-100-D00-0
 62
     7
370
    50
100
AcDbCircle
 10
380.484242
 20
406.970991
 30
0.0
 40
1.0
100
AcDbArc
 50
0.0
 51
90.0
  0
ARC
  5
576
330
1F
100
AcDbEntity
  8
LC-001-100-D00-0
 62
     7
370
    50
100
AcDbCircle
 10
382.484242
 20
392.970991
 30
0.0
 40
1.0
100
AcDbArc
 50
180.0
 51
270.0
  0
LINE
  5
577
330
1F
100
AcDbEntity
  8
LC-001-100-D00-0
 62
     7
370
    50
100
AcDbLine
 10
381.484242
 20
406.970991
 30
0.0
 11
381.484242
 21
392.970991
 31
0.0
  0
LINE
  5
578
330
1F
100
AcDbEntity
  8
LC-001-100-D00-0
 62
     7
370
    50
100
AcDbLine
 10
386.034242
 20
394.470991
 30
0.0
 11
386.034242
 21
397.470991
 31
0.0
  0
LINE
  5
579
330
1F
100
AcDbEntity
  8
LC-001-100-D00-0
 62
     7
370
    50
100
AcDbLine
 10
387.334242
 20
410.970991
 30
0.0
 11
387.334232
 21
399.970991
 31
0.0
  0
LINE
  5
57A
330
1F
100
AcDbEntity
  8
LC-001-100-D00-0
 62
     7
370
    50
100
AcDbLine
 10
387.334242
 20
410.970991
 30
0.0
 11
395.134242
 21
410.970991
 31
0.0
  0
LINE
  5
57B
330
1F
100
AcDbEntity
  8
LC-001-100-D00-0
 62
     7
370
    50
100
AcDbLine
 10
384.883378
 20
393.97099
 30
0.0
 11
384.883378
 21
391.970992
 31
0.0
  0
LINE
  5
57C
330
1F
100
AcDbEntity
  8
LC-001-100-D00-0
 62
     7
370
    50
100
AcDbLine
 10
384.883378
 20
399.970991
 30
0.0
 11
384.883378
 21
397.970991
 31
0.0
  0
ARC
  5
57D
330
1F
100
AcDbEntity
  8
LC-001-100-D00-0
 62
     7
370
    50
100
AcDbCircle
 10
385.534242
 20
394.470991
 30
0.0
 40
0.4999999999997726
100
AcDbArc
 50
270.0
 51
0.0
  0
LINE
  5
57E
330
1F
100
AcDbEntity
  8
LC-001-100-D00-0
 62
     7
370
    50
100
AcDbLine
 10
384.883378
 20
393.97099
 30
0.0
 11
385.534242
 21
393.970991
 31
0.0
  0
LINE
  5
57F
330
1F
100
AcDbEntity
  8
LC-001-100-D00-0
 62
     7
370
    50
100
AcDbLine
 10
375.984256
 20
407.970991
 30
0.0
 11
375.984242
 21
403.970991
 31
0.0
  0
LINE
  5
580
330
1F
100
AcDbEntity
  8
LC-001-100-D00-0
 62
     7
370
    50
100
AcDbLine
 10
372.984235
 20
403.970991
 30
0.0
 11
372.984242
 21
409.970991
 31
0.0
  0
ARC
  5
581
330
1F
100
AcDbEntity
  8
LC-001-100-D00-0
 62
     7
370
    50
100
AcDbCircle
 10
373.984242
 20
409.970991
 30
0.0
 40
1.0
100
AcDbArc
 50
90.0
 51
180.0
  0
LINE
  5
582
330
1F
100
AcDbEntity
  8
LC-001-100-D00-0
 62
     7
370
    50
100
AcDbLine
 10
385.534242
 20
397.970991
 30
0.0
 11
384.883378
 21
397.970991
 31
0.0
  0
ARC
  5
583
330
1F
100
AcDbEntity
  8
LC-001-100-D00-0
 62
     7
370
    50
100
AcDbCircle
 10
385.534242
 20
397.470991
 30
0.0
 40
0.5
100
AcDbArc
 50
0.0
 51
90.0
  0
LINE
  5
584
330
1F
100
AcDbEntity
  8
LC-001-100-D00-0
 62
     7
370
    50
100
AcDbLine
 10
387.334232
 20
399.970991
 30
0.0
 11
384.883378
 21
399.970991
 31
0.0
  0
LINE
  5
585
330
1F
100
AcDbEntity
  8
LC-001-100-D00-0
 62
     7
370
    50
100
AcDbLine
 10
384.883378
 20
391.970992
 30
0.0
 11
382.484242
 21
391.970991
 31
0.0
  0
LINE
  5
586
330
1F
100
AcDbEntity
  8
LC-001-100-D00-0
 62
     7
370
    50
100
AcDbLine
 10
372.984235
 20
403.970991
 30
0.0
 11
375.984242
 21
403.970991
 31
0.0
  0
LINE
  5
587
330
1F
100
AcDbEntity
  8
LC-001-100-D00-0
 62
     7
370
    50
100
AcDbLine
 10
375.984256
 20
407.970991
 30
0.0
 11
380.484242
 21
407.970991
 31
0.0
  0
LINE
  5
588
330
1F
100
AcDbEntity
  8
LC-001-100-D00-0
 62
     7
370
    50
100
AcDbLine
 10
373.984242
 20
410.970991
 30
0.0
 11
387.334242
 21
410.970991
 31
0.0
  0
LINE
  5
589
330
1F
100
AcDbEntity
  8
LC-001-100-D00-0
 62
     7
370
    50
100
AcDbLine
 10
404.484242
 20
403.970991
 30
0.0
 11
406.484242
 21
403.970991
 31
0.0
  0
LINE
  5
58A
330
1F
100
AcDbEntity
  8
LC-001-100-D00-0
 62
     7
370
    50
100
AcDbLine
 10
375.984242
 20
403.970991
 30
0.0
 11
377.984242
 21
403.970991
 31
0.0
  0
LINE
  5
58B
330
1F
100
AcDbEntity
  8
LC-001-100-D00-0
 62
     7
370
    50
100
AcDbLine
 10
377.984242
 20
403.970991
 30
0.0
 11
381.484244
 21
403.970991
 31
0.0
  0
LINE
  5
58C
330
1F
100
AcDbEntity
  8
LC-001-100-D00-0
 62
     7
370
    50
100
AcDbLine
 10
400.984232
 20
403.970991
 30
0.0
 11
404.484242
 21
403.970991
 31
0.0
  0
LINE
  5
58D
330
1F
100
AcDbEntity
  8
LC-001-100-D00-0
 62
     7
370
    50
100
AcDbLine
 10
56.234245
 20
383.97099
 30
0.0
 11
47.234241
 21
383.97099
 31
0.0
  0
LINE
  5
58E
330
1F
100
AcDbEntity
  8
LC-001-100-D00-0
 62
     7
370
    50
100
AcDbLine
 10
214.188351
 20
390.334694
 30
0.0
 11
196.35468
 21
385.556176
 31
0.0
  0
ARC
  5
58F
330
1F
100
AcDbEntity
  8
LC-001-100-D00-0
 62
     7
370
    50
100
AcDbCircle
 10
215.223628
 20
386.470991
 30
0.0
 40
3.999999999999773
100
AcDbArc
 50
90.0
 51
105.0
  0
LINE
  5
590
330
1F
100
AcDbEntity
  8
LC-001-100-D00-0
 62
     7
370
    50
100
AcDbLine
 10
215.223628
 20
390.470991
 30
0.0
 11
216.734242
 21
390.47099
 31
0.0
  0
LINE
  5
591
330
1F
100
AcDbEntity
  8
LC-001-100-D00-0
 62
     7
370
    50
100
AcDbLine
 10
216.734242
 20
390.47099
 30
0.0
 11
216.734242
 21
391.870992
 31
0.0
  0
LINE
  5
592
330
1F
100
AcDbEntity
  8
LC-001-100-D00-0
 62
     7
370
    50
100
AcDbLine
 10
217.234242
 20
391.870991
 30
0.0
 11
216.734242
 21
391.870992
 31
0.0
  0
ARC
  5
593
330
1F
100
AcDbEntity
  8
LC-001-100-D00-0
 62
     7
370
    50
100
AcDbCircle
 10
216.234242
 20
393.370991
 30
0.0
 40
1.802775637732121
100
AcDbArc
 50
303.690068
 51
56.309932
  0
LINE
  5
594
330
1F
100
AcDbEntity
  8
LC-001-100-D00-0
 62
     7
370
    50
100
AcDbLine
 10
217.234243
 20
409.470991
 30
0.0
 11
217.234242
 21
394.870991
 31
0.0
  0
LINE
  5
595
330
1F
100
AcDbEntity
  8
LC-001-100-D00-0
 62
     7
370
    50
100
AcDbLine
 10
218.234245
 20
410.470991
 30
0.0
 11
217.234243
 21
409.470991
 31
0.0
  0
LINE
  5
596
330
1F
100
AcDbEntity
  8
LC-001-100-D00-0
 62
     7
370
    50
100
AcDbLine
 10
224.234242
 20
410.470991
 30
0.0
 11
218.234245
 21
410.470991
 31
0.0
  0
LINE
  5
597
330
1F
100
AcDbEntity
  8
LC-001-100-D00-0
 62
     7
370
    50
100
AcDbLine
 10
225.234244
 20
409.470991
 30
0.0
 11
224.234242
 21
410.470991
 31
0.0
  0
LINE
  5
598
330
1F
100
AcDbEntity
  8
LC-001-100-D00-0
 62
     7
370
    50
100
AcDbLine
 10
225.234242
 20
394.870991
 30
0.0
 11
225.234244
 21
409.470991
 31
0.0
  0
ARC
  5
599
330
1F
100
AcDbEntity
  8
LC-001-100-D00-0
 62
     7
370
    50
100
AcDbCircle
 10
226.234242
 20
393.370991
 30
0.0
 40
1.802775637731868
100
AcDbArc
 50
123.690068
 51
236.309932
  0
LINE
  5
59A
330
1F
100
AcDbEntity
  8
LC-001-100-D00-0
 62
     7
370
    50
100
AcDbLine
 10
225.734245
 20
391.870992
 30
0.0
 11
225.234242
 21
391.870991
 31
0.0
  0
LINE
  5
59B
330
1F
100
AcDbEntity
  8
LC-001-100-D00-0
 62
     7
370
    50
100
AcDbLine
 10
225.734245
 20
391.870992
 30
0.0
 11
225.734245
 21
390.47099
 31
0.0
  0
LINE
  5
59C
330
1F
100
AcDbEntity
  8
LC-001-100-D00-0
 62
     7
370
    50
100
AcDbLine
 10
225.734245
 20
390.47099
 30
0.0
 11
386.734251
 21
390.47099
 31
0.0
  0
LINE
  5
59D
330
1F
100
AcDbEntity
  8
LC-001-100-D00-0
 62
     7
370
    50
100
AcDbLine
 10
386.734251
 20
390.47099
 30
0.0
 11
386.734251
 21
391.870992
 31
0.0
  0
LINE
  5
59E
330
1F
100
AcDbEntity
  8
LC-001-100-D00-0
 62
     7
370
    50
100
AcDbLine
 10
387.234242
 20
391.870991
 30
0.0
 11
386.734251
 21
391.870992
 31
0.0
  0
ARC
  5
59F
330
1F
100
AcDbEntity
  8
LC-001-100-D00-0
 62
     7
370
    50
100
AcDbCircle
 10
386.234242
 20
393.370991
 30
0.0
 40
1.802775637731868
100
AcDbArc
 50
303.690068
 51
56.309932
  0
LINE
  5
5A0
330
1F
100
AcDbEntity
  8
LC-001-100-D00-0
 62
     7
370
    50
100
AcDbLine
 10
387.234245
 20
409.470991
 30
0.0
 11
387.234242
 21
394.870991
 31
0.0
  0
LINE
  5
5A1
330
1F
100
AcDbEntity
  8
LC-001-100-D00-0
 62
     7
370
    50
100
AcDbLine
 10
388.234232
 20
410.470991
 30
0.0
 11
387.234245
 21
409.470991
 31
0.0
  0
LINE
  5
5A2
330
1F
100
AcDbEntity
  8
LC-001-100-D00-0
 62
     7
370
    50
100
AcDbLine
 10
394.234244
 20
410.470991
 30
0.0
 11
388.234232
 21
410.470991
 31
0.0
  0
LINE
  5
5A3
330
1F
100
AcDbEntity
  8
LC-001-100-D00-0
 62
     7
370
    50
100
AcDbLine
 10
395.234231
 20
409.470991
 30
0.0
 11
394.234244
 21
410.470991
 31
0.0
  0
LINE
  5
5A4
330
1F
100
AcDbEntity
  8
LC-001-100-D00-0
 62
     7
370
    50
100
AcDbLine
 10
395.234242
 20
394.870991
 30
0.0
 11
395.234231
 21
409.470991
 31
0.0
  0
ARC
  5
5A5
330
1F
100
AcDbEntity
  8
LC-001-100-D00-0
 62
     7
370
    50
100
AcDbCircle
 10
396.234242
 20
393.370991
 30
0.0
 40
1.802775637731805
100
AcDbArc
 50
123.690068
 51
236.309932
  0
LINE
  5
5A6
330
1F
100
AcDbEntity
  8
LC-001-100-D00-0
 62
     7
370
    50
100
AcDbLine
 10
395.734255
 20
391.870992
 30
0.0
 11
395.234242
 21
391.870991
 31
0.0
  0
LINE
  5
5A7
330
1F
100
AcDbEntity
  8
LC-001-100-D00-0
 62
     7
370
    50
100
AcDbLine
 10
395.734255
 20
391.870992
 30
0.0
 11
395.734255
 21
390.47099
 31
0.0
  0
LINE
  5
5A8
330
1F
100
AcDbEntity
  8
LC-001-100-D00-0
 62
     7
370
    50
100
AcDbLine
 10
395.734255
 20
390.47099
 30
0.0
 11
413.234242
 21
390.470991
 31
0.0
  0
ARC
  5
5A9
330
1F
100
AcDbEntity
  8
LC-001-100-D00-0
 62
     7
370
    50
100
AcDbCircle
 10
413.234242
 20
398.470991
 30
0.0
 40
8.0
100
AcDbArc
 50
270.0
 51
0.0
  0
LINE
  5
5AA
330
1F
100
AcDbEntity
  8
LC-001-100-D00-0
 62
     7
370
    50
100
AcDbLine
 10
421.234242
 20
398.470991
 30
0.0
 11
421.234242
 21
407.970991
 31
0.0
  0
ARC
  5
5AB
330
1F
100
AcDbEntity
  8
LC-001-100-D00-0
 62
     7
370
    50
100
AcDbCircle
 10
424.234242
 20
407.970991
 30
0.0
 40
3.0
100
AcDbArc
 50
90.0
 51
180.0
  0
LINE
  5
5AC
330
1F
100
AcDbEntity
  8
LC-001-100-D00-0
 62
     7
370
    50
100
AcDbLine
 10
471.234236
 20
410.970991
 30
0.0
 11
424.234242
 21
410.970991
 31
0.0
  0
LINE
  5
5AD
330
1F
100
AcDbEntity
  8
LC-001-100-D00-0
 62
     7
370
    50
100
AcDbLine
 10
471.234236
 20
409.470991
 30
0.0
 11
471.234236
 21
410.970991
 31
0.0
  0
LINE
  5
5AE
330
1F
100
AcDbEntity
  8
LC-001-100-D00-0
 62
     7
370
    50
100
AcDbLine
 10
471.234236
 20
409.470991
 30
0.0
 11
424.234242
 21
409.470991
 31
0.0
  0
ARC
  5
5AF
330
1F
100
AcDbEntity
  8
LC-001-100-D00-0
 62
     7
370
    50
100
AcDbCircle
 10
424.234242
 20
407.970991
 30
0.0
 40
1.5
100
AcDbArc
 50
90.0
 51
180.0
  0
LINE
  5
5B0
330
1F
100
AcDbEntity
  8
LC-001-100-D00-0
 62
     7
370
    50
100
AcDbLine
 10
422.734242
 20
398.470991
 30
0.0
 11
422.734242
 21
407.970991
 31
0.0
  0
ARC
  5
5B1
330
1F
100
AcDbEntity
  8
LC-001-100-D00-0
 62
     7
370
    50
100
AcDbCircle
 10
413.234242
 20
398.470991
 30
0.0
 40
9.5
100
AcDbArc
 50
270.0
 51
0.0
  0
LINE
  5
5B2
330
1F
100
AcDbEntity
  8
LC-001-100-D00-0
 62
     7
370
    50
100
AcDbLine
 10
215.223628
 20
388.970991
 30
0.0
 11
413.234242
 21
388.970991
 31
0.0
  0
ARC
  5
5B3
330
1F
100
AcDbEntity
  8
LC-001-100-D00-0
 62
     7
370
    50
100
AcDbCircle
 10
215.223628
 20
386.470991
 30
0.0
 40
2.5
100
AcDbArc
 50
90.0
 51
105.0
  0
LINE
  5
5B4
330
1F
100
AcDbEntity
  8
LC-001-100-D00-0
 62
     7
370
    50
100
AcDbLine
 10
214.57658
 20
388.885805
 30
0.0
 11
196.742908
 21
384.107288
 31
0.0
  0
ARC
  5
5B5
330
1F
100
AcDbEntity
  8
LC-001-100-D00-0
 62
     7
370
    50
100
AcDbCircle
 10
195.707632
 20
387.970991
 30
0.0
 40
4.0
100
AcDbArc
 50
270.0
 51
285.0
  0
ARC
  5
5B6
330
1F
100
AcDbEntity
  8
LC-001-100-D00-0
 62
     7
370
    50
100
AcDbCircle
 10
195.707632
 20
387.970991
 30
0.0
 40
2.5
100
AcDbArc
 50
270.0
 51
285.0
  0
LINE
  5
5B7
330
1F
100
AcDbEntity
  8
LC-001-100-D00-0
 62
     7
370
    50
100
AcDbLine
 10
-152.765747
 20
409.470991
 30
0.0
 11
-152.765758
 21
394.870991
 31
0.0
  0
LINE
  5
5B8
330
1F
100
AcDbEntity
  8
LC-001-100-D00-0
 62
     7
370
    50
100
AcDbLine
 10
-151.76576
 20
410.470991
 30
0.0
 11
-152.765747
 21
409.470991
 31
0.0
  0
LINE
  5
5B9
330
1F
100
AcDbEntity
  8
LC-001-100-D00-0
 62
     7
370
    50
100
AcDbLine
 10
-145.765748
 20
410.470991
 30
0.0
 11
-151.76576
 21
410.470991
 31
0.0
  0
LINE
  5
5BA
330
1F
100
AcDbEntity
  8
LC-001-100-D00-0
 62
     7
370
    50
100
AcDbLine
 10
-144.76576
 20
409.470991
 30
0.0
 11
-145.765748
 21
410.470991
 31
0.0
  0
LINE
  5
5BB
330
1F
100
AcDbEntity
  8
LC-001-100-D00-0
 62
     7
370
    50
100
AcDbLine
 10
-144.765758
 20
394.870991
 30
0.0
 11
-144.76576
 21
409.470991
 31
0.0
  0
ARC
  5
5BC
330
1F
100
AcDbEntity
  8
LC-001-100-D00-0
 62
     7
370
    50
100
AcDbCircle
 10
-143.765758
 20
393.370991
 30
0.0
 40
1.802775637731868
100
AcDbArc
 50
123.690068
 51
236.309932
  0
LINE
  5
5BD
330
1F
100
AcDbEntity
  8
LC-001-100-D00-0
 62
     7
370
    50
100
AcDbLine
 10
-144.265767
 20
391.870992
 30
0.0
 11
-144.765758
 21
391.870991
 31
0.0
  0
LINE
  5
5BE
330
1F
100
AcDbEntity
  8
LC-001-100-D00-0
 62
     7
370
    50
100
AcDbLine
 10
-144.265767
 20
391.870992
 30
0.0
 11
-144.265767
 21
390.47099
 31
0.0
  0
LINE
  5
5BF
330
1F
100
AcDbEntity
  8
LC-001-100-D00-0
 62
     7
370
    50
100
AcDbLine
 10
-144.265767
 20
390.47099
 30
0.0
 11
16.734239
 21
390.47099
 31
0.0
  0
LINE
  5
5C0
330
1F
100
AcDbEntity
  8
LC-001-100-D00-0
 62
     7
370
    50
100
AcDbLine
 10
16.734239
 20
390.47099
 30
0.0
 11
16.734239
 21
391.870992
 31
0.0
  0
LINE
  5
5C1
330
1F
100
AcDbEntity
  8
LC-001-100-D00-0
 62
     7
370
    50
100
AcDbLine
 10
17.234242
 20
391.870991
 30
0.0
 11
16.734239
 21
391.870992
 31
0.0
  0
ARC
  5
5C2
330
1F
100
AcDbEntity
  8
LC-001-100-D00-0
 62
     7
370
    50
100
AcDbCircle
 10
16.234242
 20
393.370991
 30
0.0
 40
1.802775637732184
100
AcDbArc
 50
303.690068
 51
56.309932
  0
LINE
  5
5C3
330
1F
100
AcDbEntity
  8
LC-001-100-D00-0
 62
     7
370
    50
100
AcDbLine
 10
17.23424
 20
409.470991
 30
0.0
 11
17.234242
 21
394.870991
 31
0.0
  0
LINE
  5
5C4
330
1F
100
AcDbEntity
  8
LC-001-100-D00-0
 62
     7
370
    50
100
AcDbLine
 10
18.234242
 20
410.470991
 30
0.0
 11
17.23424
 21
409.470991
 31
0.0
  0
LINE
  5
5C5
330
1F
100
AcDbEntity
  8
LC-001-100-D00-0
 62
     7
370
    50
100
AcDbLine
 10
24.234239
 20
410.470991
 30
0.0
 11
18.234242
 21
410.470991
 31
0.0
  0
LINE
  5
5C6
330
1F
100
AcDbEntity
  8
LC-001-100-D00-0
 62
     7
370
    50
100
AcDbLine
 10
25.234241
 20
409.470991
 30
0.0
 11
24.234239
 21
410.470991
 31
0.0
  0
LINE
  5
5C7
330
1F
100
AcDbEntity
  8
LC-001-100-D00-0
 62
     7
370
    50
100
AcDbLine
 10
25.234242
 20
394.870991
 30
0.0
 11
25.234241
 21
409.470991
 31
0.0
  0
ARC
  5
5C8
330
1F
100
AcDbEntity
  8
LC-001-100-D00-0
 62
     7
370
    50
100
AcDbCircle
 10
26.234242
 20
393.370991
 30
0.0
 40
1.802775637731932
100
AcDbArc
 50
123.690068
 51
236.309932
  0
LINE
  5
5C9
330
1F
100
AcDbEntity
  8
LC-001-100-D00-0
 62
     7
370
    50
100
AcDbLine
 10
25.734242
 20
391.870992
 30
0.0
 11
25.234242
 21
391.870991
 31
0.0
  0
LINE
  5
5CA
330
1F
100
AcDbEntity
  8
LC-001-100-D00-0
 62
     7
370
    50
100
AcDbLine
 10
25.734242
 20
391.870992
 30
0.0
 11
25.734242
 21
390.47099
 31
0.0
  0
LINE
  5
5CB
330
1F
100
AcDbEntity
  8
LC-001-100-D00-0
 62
     7
370
    50
100
AcDbLine
 10
25.734242
 20
390.47099
 30
0.0
 11
27.244857
 21
390.470991
 31
0.0
  0
ARC
  5
5CC
330
1F
100
AcDbEntity
  8
LC-001-100-D00-0
 62
     7
370
    50
100
AcDbCircle
 10
27.244857
 20
386.470991
 30
0.0
 40
3.999999999999873
100
AcDbArc
 50
75.0
 51
90.0
  0
LINE
  5
5CD
330
1F
100
AcDbEntity
  8
LC-001-100-D00-0
 62
     7
370
    50
100
AcDbLine
 10
46.113805
 20
385.556176
 30
0.0
 11
28.280133
 21
390.334694
 31
0.0
  0
ARC
  5
5CE
330
1F
100
AcDbEntity
  8
LC-001-100-D00-0
 62
     7
370
    50
100
AcDbCircle
 10
46.760852
 20
387.970991
 30
0.0
 40
2.500000000000062
100
AcDbArc
 50
255.0
 51
270.0
  0
ARC
  5
5CF
330
1F
100
AcDbEntity
  8
LC-001-100-D00-0
 62
     7
370
    50
100
AcDbCircle
 10
46.760852
 20
387.970991
 30
0.0
 40
3.999999999999873
100
AcDbArc
 50
255.0
 51
270.0
  0
LINE
  5
5D0
330
1F
100
AcDbEntity
  8
LC-001-100-D00-0
 62
     7
370
    50
100
AcDbLine
 10
45.725576
 20
384.107288
 30
0.0
 11
27.891905
 21
388.885805
 31
0.0
  0
ARC
  5
5D1
330
1F
100
AcDbEntity
  8
LC-001-100-D00-0
 62
     7
370
    50
100
AcDbCircle
 10
27.244857
 20
386.470991
 30
0.0
 40
2.500000000000062
100
AcDbArc
 50
75.0
 51
90.0
  0
LINE
  5
5D2
330
1F
100
AcDbEntity
  8
LC-001-100-D00-0
 62
     7
370
    50
100
AcDbLine
 10
-170.765758
 20
388.970991
 30
0.0
 11
27.244857
 21
388.970991
 31
0.0
  0
ARC
  5
5D3
330
1F
100
AcDbEntity
  8
LC-001-100-D00-0
 62
     7
370
    50
100
AcDbCircle
 10
-170.765758
 20
398.470991
 30
0.0
 40
9.499999999999943
100
AcDbArc
 50
180.0
 51
270.0
  0
LINE
  5
5D4
330
1F
100
AcDbEntity
  8
LC-001-100-D00-0
 62
     7
370
    50
100
AcDbLine
 10
-180.265758
 20
407.970991
 30
0.0
 11
-180.265758
 21
398.470991
 31
0.0
  0
ARC
  5
5D5
330
1F
100
AcDbEntity
  8
LC-001-100-D00-0
 62
     7
370
    50
100
AcDbCircle
 10
-181.765758
 20
407.970991
 30
0.0
 40
1.5
100
AcDbArc
 50
0.0
 51
90.0
  0
LINE
  5
5D6
330
1F
100
AcDbEntity
  8
LC-001-100-D00-0
 62
     7
370
    50
100
AcDbLine
 10
-228.765752
 20
410.970991
 30
0.0
 11
-228.765752
 21
409.470991
 31
0.0
  0
ARC
  5
5D7
330
1F
100
AcDbEntity
  8
LC-001-100-D00-0
 62
     7
370
    50
100
AcDbCircle
 10
-181.765758
 20
407.970991
 30
0.0
 40
3.000000000000114
100
AcDbArc
 50
0.0
 51
90.0
  0
LINE
  5
5D8
330
1F
100
AcDbEntity
  8
LC-001-100-D00-0
 62
     7
370
    50
100
AcDbLine
 10
-178.765758
 20
407.970991
 30
0.0
 11
-178.765758
 21
398.470991
 31
0.0
  0
ARC
  5
5D9
330
1F
100
AcDbEntity
  8
LC-001-100-D00-0
 62
     7
370
    50
100
AcDbCircle
 10
-170.765758
 20
398.470991
 30
0.0
 40
7.999999999999943
100
AcDbArc
 50
180.0
 51
270.0
  0
LINE
  5
5DA
330
1F
100
AcDbEntity
  8
LC-001-100-D00-0
 62
     7
370
    50
100
AcDbLine
 10
-170.765758
 20
390.470991
 30
0.0
 11
-153.26577
 21
390.47099
 31
0.0
  0
LINE
  5
5DB
330
1F
100
AcDbEntity
  8
LC-001-100-D00-0
 62
     7
370
    50
100
AcDbLine
 10
-153.26577
 20
390.47099
 30
0.0
 11
-153.26577
 21
391.870992
 31
0.0
  0
LINE
  5
5DC
330
1F
100
AcDbEntity
  8
LC-001-100-D00-0
 62
     7
370
    50
100
AcDbLine
 10
-152.765758
 20
391.870991
 30
0.0
 11
-153.26577
 21
391.870992
 31
0.0
  0
ARC
  5
5DD
330
1F
100
AcDbEntity
  8
LC-001-100-D00-0
 62
     7
370
    50
100
AcDbCircle
 10
-153.765758
 20
393.370991
 30
0.0
 40
1.8027756377319
100
AcDbArc
 50
303.690068
 51
56.309932
  0
LINE
  5
5DE
330
1F
100
AcDbEntity
  8
LC-001-100-D00-0
 62
     7
370
    50
100
AcDbLine
 10
-181.765758
 20
410.970991
 30
0.0
 11
-228.765752
 21
410.970991
 31
0.0
  0
LINE
  5
5DF
330
1F
100
AcDbEntity
  8
LC-001-100-D00-0
 62
     7
370
    50
100
AcDbLine
 10
-181.765758
 20
409.470991
 30
0.0
 11
-228.765752
 21
409.470991
 31
0.0
  0
ELLIPSE
  5
5E0
330
1F
100
AcDbEntity
  8
LC-001-100-D00-0
 62
     7
370
    50
100
AcDbEllipse
 10
276.256059
 20
386.470991
 30
0.0
 11
0.0
 21
-2.500000049591064
 31
0.0
210
0.0
220
0.0
230
0.9999999999999999
 40
0.027578
 41
0.0000000000065958
 42
0.3217505544040513
  0
ELLIPSE
  5
5E1
330
1F
100
AcDbEntity
  8
LC-001-100-D00-0
 62
     7
370
    50
100
AcDbEllipse
 10
-33.787575
 20
386.470991
 30
0.0
 11
0.0
 21
-2.50000000011921
 31
0.0
210
0.0
220
0.0
230
1.0
 40
0.027578
 41
5.961434752783313
 42
6.283185307179586
  0
LINE
  5
5E2
330
1F
100
AcDbEntity
  8
LC-001-100-D00-0
 62
     7
370
    50
100
AcDbLine
 10
276.234243
 20
388.842338
 30
0.0
 11
276.234243
 21
384.17695
 31
0.0
  0
LINE
  5
5E3
330
1F
100
AcDbEntity
  8
LC-001-100-D00-0
 62
     7
370
    50
100
AcDbLine
 10
-33.765759
 20
388.842338
 30
0.0
 11
-33.765759
 21
384.17695
 31
0.0
  0
INSERT
  5
5ED
330
1F
100
AcDbEntity
  8
LC-001-100-D00-0
 62
     7
370
    50
100
AcDbBlockReference
  2
KLON26
 10
0.0
 20
0.0
 30
0.0
  0
INSERT
  5
5F7
330
1F
100
AcDbEntity
  8
LC-001-100-D00-0
 62
     7
370
    50
100
AcDbBlockReference
  2
KLON27
 10
0.0
 20
0.0
 30
0.0
  0
LINE
  5
5F8
330
1F
100
AcDbEntity
  8
LC-001-100-D00-0
 62
     7
370
    50
100
AcDbLine
 10
276.234229
 20
383.97099
 30
0.0
 11
276.234214
 21
384.176257
 31
0.0
  0
LINE
  5
5F9
330
1F
100
AcDbEntity
  8
LC-001-100-D00-0
 62
     7
370
    50
100
AcDbLine
 10
276.234243
 20
383.97099
 30
0.0
 11
404.141937
 21
388.639155
 31
0.0
  0
LINE
  5
5FA
330
1F
100
AcDbEntity
  8
LC-001-100-D00-0
 62
     7
370
    50
100
AcDbLine
 10
276.234229
 20
383.97099
 30
0.0
 11
276.234229
 21
383.97099
 31
0.0
  0
LINE
  5
5FB
330
1F
100
AcDbEntity
  8
LC-001-100-D00-0
 62
     7
370
    50
100
AcDbLine
 10
-33.765744
 20
383.97099
 30
0.0
 11
-33.765729
 21
384.176257
 31
0.0
  0
LINE
  5
5FC
330
1F
100
AcDbEntity
  8
LC-001-100-D00-0
 62
     7
370
    50
100
AcDbLine
 10
-33.765759
 20
383.97099
 30
0.0
 11
-161.673452
 21
388.639155
 31
0.0
  0
LINE
  5
5FD
330
1F
100
AcDbEntity
  8
LC-001-100-D00-0
 62
     7
370
    50
100
AcDbLine
 10
-33.765744
 20
383.97099
 30
0.0
 11
-33.765744
 21
383.97099
 31
0.0
  0
LINE
  5
5FE
330
1F
100
AcDbEntity
  8
LC-001-100-D00-0
 62
     7
370
    50
100
AcDbLine
 10
195.707632
 20
383.970991
 30
0.0
 11
197.808233
 21
383.97099
 31
0.0
  0
LINE
  5
5FF
330
1F
100
AcDbEntity
  8
LC-001-100-D00-0
 62
     7
370
    50
100
AcDbLine
 10
46.760852
 20
383.970991
 30
0.0
 11
44.660252
 21
383.97099
 31
0.0
  0
LINE
  5
600
330
1F
100
AcDbEntity
  8
LC-001-100-D00-0
 62
     7
370
    50
100
AcDbLine
 10
197.808233
 20
383.97099
 30
0.0
 11
276.234243
 21
383.97099
 31
0.0
  0
LINE
  5
601
330
1F
100
AcDbEntity
  8
LC-001-100-D00-0
 62
     7
370
    50
100
AcDbLine
 10
44.660252
 20
383.97099
 30
0.0
 11
-33.765744
 21
383.97099
 31
0.0
  0
INSERT
  5
60E
330
1F
100
AcDbEntity
  8
LC-001-100-D00-0
 62
     7
370
    50
100
AcDbBlockReference
  2
KLON28
 10
0.0
 20
0.0
 30
0.0
  0
INSERT
  5
61B
330
1F
100
AcDbEntity
  8
LC-001-100-D00-0
 62
     7
370
    50
100
AcDbBlockReference
  2
KLON29
 10
0.0
 20
0.0
 30
0.0
  0
LINE
  5
61C
330
1F
100
AcDbEntity
  8
LC-001-100-D00-0
 62
     7
370
    50
100
AcDbLine
 10
418.734242
 20
410.970991
 30
0.0
 11
424.234242
 21
410.970991
 31
0.0
  0
LINE
  5
61D
330
1F
100
AcDbEntity
  8
LC-001-100-D00-0
 62
     7
370
    50
100
AcDbLine
 10
-176.265758
 20
410.970991
 30
0.0
 11
-181.765758
 21
410.970991
 31
0.0
  0
LINE
  5
61E
330
1F
100
AcDbEntity
  8
LC-001-100-D00-0
 62
     7
370
    50
100
AcDbLine
 10
418.734242
 20
410.970991
 30
0.0
 11
408.484242
 21
410.970991
 31
0.0
  0
LINE
  5
61F
330
1F
100
AcDbEntity
  8
LC-001-100-D00-0
 62
     7
370
    50
100
AcDbLine
 10
373.984242
 20
410.970991
 30
0.0
 11
238.484242
 21
410.970991
 31
0.0
  0
LINE
  5
620
330
1F
100
AcDbEntity
  8
LC-001-100-D00-0
 62
     7
370
    50
100
AcDbLine
 10
203.984242
 20
410.970991
 30
0.0
 11
38.484242
 21
410.970991
 31
0.0
  0
LINE
  5
621
330
1F
100
AcDbEntity
  8
LC-001-100-D00-0
 62
     7
370
    50
100
AcDbLine
 10
3.984242
 20
410.970991
 30
0.0
 11
-131.515758
 21
410.970991
 31
0.0
  0
LINE
  5
622
330
1F
100
AcDbEntity
  8
LC-001-100-D00-0
 62
     7
370
    50
100
AcDbLine
 10
-166.015758
 20
410.970991
 30
0.0
 11
-176.265758
 21
410.970991
 31
0.0
  0
ARC
  5
623
330
1F
100
AcDbEntity
  8
LC-001-100-D00-0
 62
     7
370
    50
100
AcDbCircle
 10
308.334242
 20
384.370991
 30
0.0
 40
2.000000000000114
100
AcDbArc
 50
180.0
 51
270.0
  0
LINE
  5
624
330
1F
100
AcDbEntity
  8
LC-001-100-D00-0
 62
     7
370
    50
100
AcDbLine
 10
308.334242
 20
382.370991
 30
0.0
 11
334.134242
 21
382.370991
 31
0.0
  0
ARC
  5
625
330
1F
100
AcDbEntity
  8
LC-001-100-D00-0
 62
     7
370
    50
100
AcDbCircle
 10
334.134242
 20
384.370991
 30
0.0
 40
2.0
100
AcDbArc
 50
270.0
 51
0.0
  0
LINE
  5
626
330
1F
100
AcDbEntity
  8
LC-001-100-D00-0
 62
     7
370
    50
100
AcDbLine
 10
336.134242
 20
384.370991
 30
0.0
 11
336.134244
 21
386.157123
 31
0.0
  0
LINE
  5
627
330
1F
100
AcDbEntity
  8
LC-001-100-D00-0
 62
     7
370
    50
100
AcDbLine
 10
338.134248
 20
386.230114
 30
0.0
 11
338.134242
 21
384.370991
 31
0.0
  0
ARC
  5
628
330
1F
100
AcDbEntity
  8
LC-001-100-D00-0
 62
     7
370
    50
100
AcDbCircle
 10
334.134242
 20
384.370991
 30
0.0
 40
4.0
100
AcDbArc
 50
270.0
 51
0.0
  0
LINE
  5
629
330
1F
100
AcDbEntity
  8
LC-001-100-D00-0
 62
     7
370
    50
100
AcDbLine
 10
334.134242
 20
380.370991
 30
0.0
 11
308.334242
 21
380.370991
 31
0.0
  0
ARC
  5
62A
330
1F
100
AcDbEntity
  8
LC-001-100-D00-0
 62
     7
370
    50
100
AcDbCircle
 10
308.334242
 20
384.370991
 30
0.0
 40
3.999999999999886
100
AcDbArc
 50
180.0
 51
270.0
  0
LINE
  5
62B
330
1F
100
AcDbEntity
  8
LC-001-100-D00-0
 62
     7
370
    50
100
AcDbLine
 10
304.334242
 20
384.370991
 30
0.0
 11
304.334242
 21
384.996538
 31
0.0
  0
LINE
  5
62C
330
1F
100
AcDbEntity
  8
LC-001-100-D00-0
 62
     7
370
    50
100
AcDbLine
 10
306.334246
 20
385.069532
 30
0.0
 11
306.334242
 21
384.370991
 31
0.0
  0
LINE
  5
62D
330
1F
100
AcDbEntity
  8
LC-001-100-D00-0
 62
     7
370
    50
100
AcDbLine
 10
-61.865758
 20
384.370991
 30
0.0
 11
-61.865758
 21
384.996538
 31
0.0
  0
ARC
  5
62E
330
1F
100
AcDbEntity
  8
LC-001-100-D00-0
 62
     7
370
    50
100
AcDbCircle
 10
-65.865758
 20
384.370991
 30
0.0
 40
4.0
100
AcDbArc
 50
270.0
 51
0.0
  0
LINE
  5
62F
330
1F
100
AcDbEntity
  8
LC-001-100-D00-0
 62
     7
370
    50
100
AcDbLine
 10
-91.665758
 20
380.370991
 30
0.0
 11
-65.865758
 21
380.370991
 31
0.0
  0
ARC
  5
630
330
1F
100
AcDbEntity
  8
LC-001-100-D00-0
 62
     7
370
    50
100
AcDbCircle
 10
-91.665758
 20
384.370991
 30
0.0
 40
4.000000000000057
100
AcDbArc
 50
180.0
 51
270.0
  0
LINE
  5
631
330
1F
100
AcDbEntity
  8
LC-001-100-D00-0
 62
     7
370
    50
100
AcDbLine
 10
-95.665764
 20
386.230114
 30
0.0
 11
-95.665758
 21
384.370991
 31
0.0
  0
LINE
  5
632
330
1F
100
AcDbEntity
  8
LC-001-100-D00-0
 62
     7
370
    50
100
AcDbLine
 10
-93.665758
 20
384.370991
 30
0.0
 11
-93.66576
 21
386.157123
 31
0.0
  0
ARC
  5
633
330
1F
100
AcDbEntity
  8
LC-001-100-D00-0
 62
     7
370
    50
100
AcDbCircle
 10
-91.665758
 20
384.370991
 30
0.0
 40
1.999999999999886
100
AcDbArc
 50
180.0
 51
270.0
  0
LINE
  5
634
330
1F
100
AcDbEntity
  8
LC-001-100-D00-0
 62
     7
370
    50
100
AcDbLine
 10
-65.865758
 20
382.370991
 30
0.0
 11
-91.665758
 21
382.370991
 31
0.0
  0
ARC
  5
635
330
1F
100
AcDbEntity
  8
LC-001-100-D00-0
 62
     7
370
    50
100
AcDbCircle
 10
-65.865758
 20
384.370991
 30
0.0
 40
2.0
100
AcDbArc
 50
270.0
 51
0.0
  0
LINE
  5
636
330
1F
100
AcDbEntity
  8
LC-001-100-D00-0
 62
     7
370
    50
100
AcDbLine
 10
-63.865762
 20
385.069532
 30
0.0
 11
-63.865758
 21
384.370991
 31
0.0
  0
LINE
  5
637
330
1F
100
AcDbEntity
  8
LC-001-100-D00-0
 62
     7
370
    50
100
AcDbLine
 10
323.069979
 20
284.470995
 30
0.0
 11
312.392313
 21
284.470995
 31
0.0
  0
LINE
  5
638
330
1F
100
AcDbEntity
  8
LC-001-100-D00-0
 62
     7
370
    50
100
AcDbLine
 10
323.069979
 20
284.470995
 30
0.0
 11
330.102135
 21
284.470995
 31
0.0
  0
LINE
  5
639
330
1F
100
AcDbEntity
  8
LC-001-100-D00-0
 62
     7
370
    50
100
AcDbLine
 10
311.93396
 20
276.470991
 30
0.0
 11
311.734242
 21
276.470991
 31
0.0
  0
LINE
  5
63A
330
1F
100
AcDbEntity
  8
LC-001-100-D00-0
 62
     7
370
    50
100
AcDbLine
 10
330.734242
 20
276.470991
 30
0.0
 11
311.93396
 21
276.470991
 31
0.0
  0
LINE
  5
63B
330
1F
100
AcDbEntity
  8
LC-001-100-D00-0
 62
     7
370
    50
100
AcDbLine
 10
-76.930027
 20
284.470995
 30
0.0
 11
-87.607678
 21
284.470995
 31
0.0
  0
LINE
  5
63C
330
1F
100
AcDbEntity
  8
LC-001-100-D00-0
 62
     7
370
    50
100
AcDbLine
 10
-76.930027
 20
284.470995
 30
0.0
 11
-69.897856
 21
284.470995
 31
0.0
  0
LINE
  5
63D
330
1F
100
AcDbEntity
  8
LC-001-100-D00-0
 62
     7
370
    50
100
AcDbLine
 10
-88.06604
 20
276.470991
 30
0.0
 11
-88.265758
 21
276.470991
 31
0.0
  0
LINE
  5
63E
330
1F
100
AcDbEntity
  8
LC-001-100-D00-0
 62
     7
370
    50
100
AcDbLine
 10
-69.265758
 20
276.470991
 30
0.0
 11
-88.06604
 21
276.470991
 31
0.0
  0
LINE
  5
63F
330
1F
100
AcDbEntity
  8
LC-001-100-D00-0
 62
     7
370
    50
100
AcDbLine
 10
-69.765758
 20
378.470991
 30
0.0
 11
-75.879003
 21
378.470992
 31
0.0
  0
LINE
  5
640
330
1F
100
AcDbEntity
  8
LC-001-100-D00-0
 62
     7
370
    50
100
AcDbLine
 10
-81.652503
 20
378.470992
 30
0.0
 11
-87.765758
 21
378.470991
 31
0.0
  0
LINE
  5
641
330
1F
100
AcDbEntity
  8
LC-001-100-D00-0
 62
     7
370
    50
100
AcDbLine
 10
-75.879006
 20
353.470991
 30
0.0
 11
-81.652509
 21
353.470991
 31
0.0
  0
LINE
  5
642
330
1F
100
AcDbEntity
  8
LC-001-100-D00-0
 62
     7
370
    50
100
AcDbLine
 10
-81.652509
 20
353.470991
 30
0.0
 11
-87.714687
 21
353.470991
 31
0.0
  0
LINE
  5
643
330
1F
100
AcDbEntity
  8
LC-001-100-D00-0
 62
     7
370
    50
100
AcDbLine
 10
-64.976938
 20
380.470991
 30
0.0
 11
-63.765758
 21
380.470991
 31
0.0
  0
LINE
  5
644
330
1F
100
AcDbEntity
  8
LC-001-100-D00-0
 62
     7
370
    50
100
AcDbLine
 10
-63.765758
 20
380.470991
 30
0.0
 11
-63.765758
 21
378.470991
 31
0.0
  0
LINE
  5
645
330
1F
100
AcDbEntity
  8
LC-001-100-D00-0
 62
     7
370
    50
100
AcDbLine
 10
-63.765758
 20
378.470991
 30
0.0
 11
-69.765758
 21
378.470991
 31
0.0
  0
LINE
  5
646
330
1F
100
AcDbEntity
  8
LC-001-100-D00-0
 62
     7
370
    50
100
AcDbLine
 10
-69.816829
 20
353.470991
 30
0.0
 11
-75.879006
 21
353.470991
 31
0.0
  0
LINE
  5
647
330
1F
100
AcDbEntity
  8
LC-001-100-D00-0
 62
     7
370
    50
100
AcDbLine
 10
-93.765758
 20
378.470991
 30
0.0
 11
-93.765758
 21
380.470991
 31
0.0
  0
LINE
  5
648
330
1F
100
AcDbEntity
  8
LC-001-100-D00-0
 62
     7
370
    50
100
AcDbLine
 10
-87.765758
 20
378.470991
 30
0.0
 11
-93.765758
 21
378.470991
 31
0.0
  0
LINE
  5
649
330
1F
100
AcDbEntity
  8
LC-001-100-D00-0
 62
     7
370
    50
100
AcDbLine
 10
-93.765758
 20
380.470991
 30
0.0
 11
-92.554577
 21
380.470991
 31
0.0
  0
LINE
  5
64A
330
1F
100
AcDbEntity
  8
LC-001-100-D00-0
 62
     7
370
    50
100
AcDbLine
 10
-66.930077
 20
353.470991
 30
0.0
 11
-69.816829
 21
353.470991
 31
0.0
  0
LINE
  5
64B
330
1F
100
AcDbEntity
  8
LC-001-100-D00-0
 62
     7
370
    50
100
AcDbLine
 10
-87.714687
 20
353.470991
 30
0.0
 11
-90.601438
 21
353.470991
 31
0.0
  0
LINE
  5
64C
330
1F
100
AcDbEntity
  8
LC-001-100-D00-0
 62
     7
370
    50
100
AcDbLine
 10
-90.601438
 20
353.470991
 30
0.0
 11
-91.53926
 21
353.470991
 31
0.0
  0
LINE
  5
64D
330
1F
100
AcDbEntity
  8
LC-001-100-D00-0
 62
     7
370
    50
100
AcDbLine
 10
-65.992255
 20
353.470991
 30
0.0
 11
-66.930077
 21
353.470991
 31
0.0
  0
LINE
  5
64E
330
1F
100
AcDbEntity
  8
LC-001-100-D00-0
 62
     7
370
    50
100
AcDbLine
 10
330.234242
 20
378.470991
 30
0.0
 11
306.234245
 21
378.471
 31
0.0
  0
LINE
  5
64F
330
1F
100
AcDbEntity
  8
LC-001-100-D00-0
 62
     7
370
    50
100
AcDbLine
 10
335.023062
 20
380.470991
 30
0.0
 11
336.234242
 21
380.470991
 31
0.0
  0
LINE
  5
650
330
1F
100
AcDbEntity
  8
LC-001-100-D00-0
 62
     7
370
    50
100
AcDbLine
 10
336.234242
 20
380.470991
 30
0.0
 11
336.234242
 21
378.470991
 31
0.0
  0
LINE
  5
651
330
1F
100
AcDbEntity
  8
LC-001-100-D00-0
 62
     7
370
    50
100
AcDbLine
 10
336.234242
 20
378.470991
 30
0.0
 11
330.234242
 21
378.470991
 31
0.0
  0
LINE
  5
652
330
1F
100
AcDbEntity
  8
LC-001-100-D00-0
 62
     7
370
    50
100
AcDbLine
 10
306.234245
 20
378.470992
 30
0.0
 11
306.234242
 21
380.470991
 31
0.0
  0
LINE
  5
653
330
1F
100
AcDbEntity
  8
LC-001-100-D00-0
 62
     7
370
    50
100
AcDbLine
 10
306.234242
 20
380.470991
 30
0.0
 11
307.445423
 21
380.470991
 31
0.0
  0
LINE
  5
654
330
1F
100
AcDbEntity
  8
LC-001-100-D00-0
 62
     7
370
    50
100
AcDbLine
 10
333.069923
 20
353.470991
 30
0.0
 11
330.734033
 21
353.47099
 31
0.0
  0
LINE
  5
655
330
1F
100
AcDbEntity
  8
LC-001-100-D00-0
 62
     7
370
    50
100
AcDbLine
 10
334.007745
 20
353.470991
 30
0.0
 11
333.069923
 21
353.470991
 31
0.0
  0
LINE
  5
656
330
1F
100
AcDbEntity
  8
LC-001-100-D00-0
 62
     7
370
    50
100
AcDbLine
 10
-75.879006
 20
382.470991
 30
0.0
 11
-81.652509
 21
382.470991
 31
0.0
  0
LINE
  5
657
330
1F
100
AcDbEntity
  8
LC-001-100-D00-0
 62
     7
370
    50
100
AcDbLine
 10
-81.652509
 20
382.470991
 30
0.0
 11
-87.714687
 21
382.470991
 31
0.0
  0
LINE
  5
658
330
1F
100
AcDbEntity
  8
LC-001-100-D00-0
 62
     7
370
    50
100
AcDbLine
 10
-69.816829
 20
382.470991
 30
0.0
 11
-75.879006
 21
382.470991
 31
0.0
  0
LINE
  5
659
330
1F
100
AcDbEntity
  8
LC-001-100-D00-0
 62
     7
370
    50
100
AcDbLine
 10
-66.930077
 20
382.470991
 30
0.0
 11
-69.816829
 21
382.470991
 31
0.0
  0
LINE
  5
65A
330
1F
100
AcDbEntity
  8
LC-001-100-D00-0
 62
     7
370
    50
100
AcDbLine
 10
-87.714687
 20
382.470991
 30
0.0
 11
-90.601438
 21
382.470991
 31
0.0
  0
LINE
  5
65B
330
1F
100
AcDbEntity
  8
LC-001-100-D00-0
 62
     7
370
    50
100
AcDbLine
 10
-90.601438
 20
382.470991
 30
0.0
 11
-91.53926
 21
382.470991
 31
0.0
  0
LINE
  5
65C
330
1F
100
AcDbEntity
  8
LC-001-100-D00-0
 62
     7
370
    50
100
AcDbLine
 10
-65.992255
 20
382.470991
 30
0.0
 11
-66.930077
 21
382.470991
 31
0.0
  0
LINE
  5
65D
330
1F
100
AcDbEntity
  8
LC-001-100-D00-0
 62
     7
370
    50
100
AcDbLine
 10
324.120994
 20
382.470991
 30
0.0
 11
318.347491
 21
382.470991
 31
0.0
  0
LINE
  5
65E
330
1F
100
AcDbEntity
  8
LC-001-100-D00-0
 62
     7
370
    50
100
AcDbLine
 10
318.347491
 20
382.470991
 30
0.0
 11
312.285313
 21
382.470991
 31
0.0
  0
LINE
  5
65F
330
1F
100
AcDbEntity
  8
LC-001-100-D00-0
 62
     7
370
    50
100
AcDbLine
 10
330.183171
 20
382.470991
 30
0.0
 11
324.120994
 21
382.470991
 31
0.0
  0
LINE
  5
660
330
1F
100
AcDbEntity
  8
LC-001-100-D00-0
 62
     7
370
    50
100
AcDbLine
 10
333.069923
 20
382.470991
 30
0.0
 11
330.183171
 21
382.470991
 31
0.0
  0
LINE
  5
661
330
1F
100
AcDbEntity
  8
LC-001-100-D00-0
 62
     7
370
    50
100
AcDbLine
 10
312.285313
 20
382.470991
 30
0.0
 11
309.398562
 21
382.470991
 31
0.0
  0
LINE
  5
662
330
1F
100
AcDbEntity
  8
LC-001-100-D00-0
 62
     7
370
    50
100
AcDbLine
 10
309.398562
 20
382.470991
 30
0.0
 11
308.46074
 21
382.470991
 31
0.0
  0
LINE
  5
663
330
1F
100
AcDbEntity
  8
LC-001-100-D00-0
 62
     7
370
    50
100
AcDbLine
 10
334.007745
 20
382.470991
 30
0.0
 11
333.069923
 21
382.470991
 31
0.0
  0
LINE
  5
664
330
1F
100
AcDbEntity
  8
LC-001-100-D00-0
 62
     7
370
    50
100
AcDbLine
 10
311.444472
 20
285.470991
 30
0.0
 11
331.234242
 21
285.470991
 31
0.0
  0
LINE
  5
665
330
1F
100
AcDbEntity
  8
LC-001-100-D00-0
 62
     7
370
    50
100
AcDbLine
 10
311.234242
 20
285.470991
 30
0.0
 11
311.444472
 21
285.470991
 31
0.0
  0
LINE
  5
666
330
1F
100
AcDbEntity
  8
LC-001-100-D00-0
 62
     7
370
    50
100
AcDbLine
 10
311.234242
 20
295.970991
 30
0.0
 11
331.234242
 21
295.970991
 31
0.0
  0
LINE
  5
667
330
1F
100
AcDbEntity
  8
LC-001-100-D00-0
 62
     7
370
    50
100
AcDbLine
 10
311.234242
 20
299.470991
 30
0.0
 11
331.234242
 21
299.470991
 31
0.0
  0
LINE
  5
668
330
1F
100
AcDbEntity
  8
LC-001-100-D00-0
 62
     7
370
    50
100
AcDbLine
 10
312.423449
 20
284.470991
 30
0.0
 11
312.234242
 21
284.470991
 31
0.0
  0
LINE
  5
669
330
1F
100
AcDbEntity
  8
LC-001-100-D00-0
 62
     7
370
    50
100
AcDbLine
 10
330.234242
 20
284.470991
 30
0.0
 11
312.423449
 21
284.470991
 31
0.0
  0
LINE
  5
66A
330
1F
100
AcDbEntity
  8
LC-001-100-D00-0
 62
     7
370
    50
100
AcDbLine
 10
-88.765758
 20
299.470991
 30
0.0
 11
-68.765758
 21
299.470991
 31
0.0
  0
LINE
  5
66B
330
1F
100
AcDbEntity
  8
LC-001-100-D00-0
 62
     7
370
    50
100
AcDbLine
 10
-88.765758
 20
295.970991
 30
0.0
 11
-68.765758
 21
295.970991
 31
0.0
  0
LINE
  5
66C
330
1F
100
AcDbEntity
  8
LC-001-100-D00-0
 62
     7
370
    50
100
AcDbLine
 10
-88.555528
 20
285.470991
 30
0.0
 11
-68.765758
 21
285.470991
 31
0.0
  0
LINE
  5
66D
330
1F
100
AcDbEntity
  8
LC-001-100-D00-0
 62
     7
370
    50
100
AcDbLine
 10
-88.765758
 20
285.470991
 30
0.0
 11
-88.555528
 21
285.470991
 31
0.0
  0
LINE
  5
66E
330
1F
100
AcDbEntity
  8
LC-001-100-D00-0
 62
     7
370
    50
100
AcDbLine
 10
-87.576551
 20
284.470991
 30
0.0
 11
-87.765758
 21
284.470991
 31
0.0
  0
LINE
  5
66F
330
1F
100
AcDbEntity
  8
LC-001-100-D00-0
 62
     7
370
    50
100
AcDbLine
 10
-69.765758
 20
284.470991
 30
0.0
 11
-87.576551
 21
284.470991
 31
0.0
  0
INSERT
  5
682
330
1F
100
AcDbEntity
  8
LC-001-100-D00-0
 62
     7
370
    25
100
AcDbBlockReference
  2
KLON30
 10
0.0
 20
0.0
 30
0.0
  0
INSERT
  5
696
330
1F
100
AcDbEntity
  8
LC-001-100-D00-0
 62
     7
370
    25
100
AcDbBlockReference
  2
KLON31
 10
0.0
 20
0.0
 30
0.0
  0
LINE
  5
697
330
1F
100
AcDbEntity
  8
LC-001-100-D00-0
 62
     7
370
    50
100
AcDbLine
 10
381.484242
 20
398.760335
 30
0.0
 11
387.334242
 21
404.610335
 31
0.0
  0
INSERT
  5
69D
330
1F
100
AcDbEntity
  8
LC-001-100-D00-0
 62
     7
370
    25
100
AcDbBlockReference
  2
KLON32
 10
0.0
 20
0.0
 30
0.0
  0
LINE
  5
69E
330
1F
100
AcDbEntity
  8
LC-001-100-D00-0
 62
     7
370
    50
100
AcDbLine
 10
397.145538
 20
391.970991
 30
0.0
 11
397.585095
 21
392.410548
 31
0.0
  0
LINE
  5
69F
330
1F
100
AcDbEntity
  8
LC-001-100-D00-0
 62
     7
370
    25
100
AcDbLine
 10
210.966056
 20
407.847265
 30
0.0
 11
214.089781
 21
410.970991
 31
0.0
  0
INSERT
  5
6A5
330
1F
100
AcDbEntity
  8
LC-001-100-D00-0
 62
     7
370
    50
100
AcDbBlockReference
  2
KLON33
 10
0.0
 20
0.0
 30
0.0
  0
LINE
  5
6A6
330
1F
100
AcDbEntity
  8
LC-001-100-D00-0
 62
     7
370
    25
100
AcDbLine
 10
-158.515758
 20
397.575682
 30
0.0
 11
-152.665758
 21
403.425683
 31
0.0
  0
LINE
  5
6A7
330
1F
100
AcDbEntity
  8
LC-001-100-D00-0
 62
     7
370
    25
100
AcDbLine
 10
-141.669809
 20
391.970991
 30
0.0
 11
-139.015758
 21
394.625043
 31
0.0
  0
INSERT
  5
6AD
330
1F
100
AcDbEntity
  8
LC-001-100-D00-0
 62
     7
370
    25
100
AcDbBlockReference
  2
KLON34
 10
0.0
 20
0.0
 30
0.0
  0
LINE
  5
6AE
330
1F
100
AcDbEntity
  8
LC-001-100-D00-0
 62
     7
370
    25
100
AcDbLine
 10
25.134242
 20
401.620567
 30
0.0
 11
34.484666
 21
410.970991
 31
0.0
  0
LINE
  5
6AF
330
1F
100
AcDbEntity
  8
LC-001-100-D00-0
 62
     7
370
    50
100
AcDbLine
 10
15.484667
 20
391.970991
 30
0.0
 11
17.834242
 21
394.320566
 31
0.0
  0
LINE
  5
6B0
330
1F
100
AcDbEntity
  8
LC-001-100-D00-0
  6
DASHDOT
 62
     7
370
    25
100
AcDbLine
 10
-78.765758
 20
289.470991
 30
0.0
 11
-78.765758
 21
387.470991
 31
0.0
  0
LINE
  5
6B1
330
1F
100
AcDbEntity
  8
LC-001-100-D00-0
  6
DASHDOT
 62
     7
370
    25
100
AcDbLine
 10
321.234242
 20
276.470991
 30
0.0
 11
321.234242
 21
390.47099
 31
0.0
  0
LINE
  5
6B2
330
1F
100
AcDbEntity
  8
LC-001-100-D00-0
  6
DASHDOT
 62
     7
370
    25
100
AcDbLine
 10
-148.765758
 20
382.970991
 30
0.0
 11
-148.765758
 21
416.970991
 31
0.0
  0
LINE
  5
6B3
330
1F
100
AcDbEntity
  8
LC-001-100-D00-0
  6
DASHDOT
 62
     7
370
    25
100
AcDbLine
 10
21.234242
 20
382.970991
 30
0.0
 11
21.234242
 21
416.970991
 31
0.0
  0
LINE
  5
6B4
330
1F
100
AcDbEntity
  8
LC-001-100-D00-0
  6
DASHDOT
 62
     7
370
    25
100
AcDbLine
 10
221.234242
 20
382.970991
 30
0.0
 11
221.234242
 21
416.970991
 31
0.0
  0
LINE
  5
6B5
330
1F
100
AcDbEntity
  8
LC-001-100-D00-0
  6
DASHDOT
 62
     7
370
    25
100
AcDbLine
 10
391.234242
 20
382.970991
 30
0.0
 11
391.234242
 21
416.970991
 31
0.0
  0
LINE
  5
6B6
330
1F
100
AcDbEntity
  8
LC-001-100-D00-0
 62
     7
370
    50
100
AcDbLine
 10
309.398562
 20
353.470991
 30
0.0
 11
330.734033
 21
353.470981
 31
0.0
  0
LINE
  5
6B7
330
1F
100
AcDbEntity
  8
LC-001-100-D00-0
 62
     7
370
    50
100
AcDbLine
 10
308.46074
 20
353.470991
 30
0.0
 11
309.398562
 21
353.470991
 31
0.0
  0
LINE
  5
6B8
330
1F
100
AcDbEntity
  8
LC-001-100-D00-0
 62
     7
370
    50
100
AcDbLine
 10
308.46074
 20
353.470991
 30
0.0
 11
308.46074
 21
378.470992
 31
0.0
  0
DIMENSION
  5
6BA
330
1F
100
AcDbEntity
  8
LC-002-003-----0
 62
     7
370
    25
100
AcDbDimension
  2
*D42
 10
471.234236
 20
486.55099
 30
0.0
 11
116.430176
 21
517.35099
 31
0.0
 70
   160
 71
     5
 42
699.999988
  3
LC-DIM-L-0140-02-02
100
AcDbAlignedDimension
 13
-228.765752
 23
410.970991
 33
0.0
 14
471.234236
 24
410.970991
 34
0.0
100
AcDbRotatedDimension
  0
DIMENSION
  5
6C7
330
1F
100
AcDbEntity
  8
LC-002-003-----0
 62
     7
370
    25
100
AcDbDimension
  2
*D43
 10
421.234242
 20
433.972668
 30
0.0
 11
120.952968
 21
464.772668
 31
0.0
 70
   160
 71
     5
 42
600.0
  3
LC-DIM-L-0140-02-02
100
AcDbAlignedDimension
 13
-178.765758
 23
403.220991
 33
0.0
 14
421.234242
 24
403.220991
 34
0.0
100
AcDbRotatedDimension
  0
DIMENSION
  5
6D4
330
1F
100
AcDbEntity
  8
LC-002-003-----0
 62
     7
370
    25
100
AcDbDimension
  2
*D44
 10
-236.329867
 20
303.27826
 30
0.0
 11
-267.129867
 21
358.12317
 31
0.0
 70
   160
  1
31-100
 71
     5
 42
107.692731
 53
90.0
  3
LC-DIM-L-0140-02-02
100
AcDbAlignedDimension
 13
-228.765752
 23
410.970991
 33
0.0
 14
8.734241
 24
303.27826
 34
0.0
 50
90.0
100
AcDbRotatedDimension
  0
DIMENSION
  5
6E1
330
1F
100
AcDbEntity
  8
LC-002-003-----0
 62
     7
370
    25
100
AcDbDimension
  2
*D45
 10
20.339183
 20
369.470992
 30
0.0
 11
-10.460817
 21
350.655218
 31
0.0
 70
   160
  1
50
 71
     5
 42
50.4
 53
90.0
  3
LC-DIM-L-0140-02-02
100
AcDbAlignedDimension
 13
92.234242
 23
319.070992
 33
0.0
 14
81.741362
 24
369.470992
 34
0.0
 50
90.0
100
AcDbRotatedDimension
  0
DIMENSION
  5
6F0
330
1F
100
AcDbEntity
  8
LC-002-003-----0
 62
     7
370
    25
100
AcDbDimension
  2
*D46
 10
-18.31392
 20
210.607745
 30
0.0
 11
-49.11392
 21
262.01899
 31
0.0
 70
   160
  1
93
 71
     5
 42
92.669417
 53
90.0
  3
LC-DIM-L-0140-02-02
100
AcDbAlignedDimension
 13
8.800494
 23
303.277162
 33
0.0
 14
76.249155
 24
210.607745
 34
0.0
 50
90.0
100
AcDbRotatedDimension
  0
DIMENSION
  5
6FD
330
1F
100
AcDbEntity
  8
LC-002-003-----0
 62
     7
370
    25
100
AcDbDimension
  2
*D47
 10
495.841183
 20
276.470991
 30
0.0
 11
465.041183
 21
343.99099
 31
0.0
 70
   160
  1
129,5
 71
     5
 42
134.5
 53
90.0
  3
LC-DIM-L-0140-02-02
100
AcDbAlignedDimension
 13
471.234236
 23
410.970991
 33
0.0
 14
330.734242
 24
276.470991
 34
0.0
 50
90.0
100
AcDbRotatedDimension
  0
DIMENSION
  5
70A
330
1F
100
AcDbEntity
  8
LC-002-003-----0
 62
     7
370
    25
100
AcDbDimension
  2
*D48
 10
235.734242
 20
4.743281
 30
0.0
 11
117.873356
 21
35.543281
 31
0.0
 70
   160
  1
%%c230
 71
     5
 42
229.000002
  3
LC-DIM-L-0140-02-02
100
AcDbAlignedDimension
 13
6.73424
 23
299.795282
 33
0.0
 14
235.734242
 24
299.795282
 34
0.0
100
AcDbRotatedDimension
  0
DIMENSION
  5
717
330
1F
100
AcDbEntity
  8
LC-002-003-----0
 62
     7
370
    25
100
AcDbDimension
  2
*D49
 10
184.234242
 20
56.086509
 30
0.0
 11
120.952968
 21
86.886509
 31
0.0
 70
   160
  1
%%c126
 71
     5
 42
126.000001
  3
LC-DIM-L-0140-02-02
100
AcDbAlignedDimension
 13
58.234241
 23
270.607745
 33
0.0
 14
184.234242
 24
270.607744
 34
0.0
100
AcDbRotatedDimension
  0
DIMENSION
  5
724
330
1F
100
AcDbEntity
  8
LC-002-003-----0
 62
     7
370
    25
100
AcDbDimension
  2
*D50
 10
176.234241
 20
104.596203
 30
0.0
 11
117.174935
 21
135.396203
 31
0.0
 70
   160
  1
%%c<>
 71
     5
 42
110.0
  3
LC-DIM-L-0140-02-02
100
AcDbAlignedDimension
 13
66.234241
 23
227.5336
 33
0.0
 14
176.234241
 24
229.770526
 34
0.0
100
AcDbRotatedDimension
  0
DIMENSION
  5
731
330
1F
100
AcDbEntity
  8
LC-002-003-----0
 62
     7
370
    25
100
AcDbDimension
  2
*D51
 10
146.234241
 20
166.987882
 30
0.0
 11
225.659768
 21
197.787882
 31
0.0
 70
   160
  1
DN50
 71
     5
 42
50.000001
  3
LC-DIM-L-0140-02-02
100
AcDbAlignedDimension
 13
96.23424
 23
156.107758
 33
0.0
 14
146.234241
 24
156.107758
 34
0.0
100
AcDbRotatedDimension
  0
ENDSEC
  0
SECTION
  2
OBJECTS
  0
DICTIONARY
  5
C
330
0
100
AcDbDictionary
281
     1
  3
ACAD_GROUP
350
D
  3
ACAD_LAYOUT
350
1A
  3
ACAD_MLINESTYLE
350
17
  3
ACAD_PLOTSETTINGS
350
19
  3
ACAD_PLOTSTYLENAME
350
E
  0
DICTIONARY
  5
D
102
{ACAD_REACTORS
330
C
102
}
330
C
100
AcDbDictionary
281
     1
  3
LCGROUP36
350
73F
  0
DICTIONARY
  5
1A
102
{ACAD_REACTORS
330
C
102
}
330
C
100
AcDbDictionary
281
     1
  3
Layout1
350
1E
  3
Layout2
350
26
  3
Model
350
22
  0
DICTIONARY
  5
17
102
{ACAD_REACTORS
330
C
102
}
330
C
100
AcDbDictionary
281
     1
  3
Standard
350
18
  0
DICTIONARY
  5
19
102
{ACAD_REACTORS
330
C
102
}
330
C
100
AcDbDictionary
281
     1
  0
ACDBDICTIONARYWDFLT
  5
E
102
{ACAD_REACTORS
330
C
102
}
330
C
100
AcDbDictionary
281
     1
  3
Normal
350
F
100
AcDbDictionaryWithDefault
340
F
  0
GROUP
  5
73F
102
{ACAD_REACTORS
330
D
102
}
330
D
100
AcDbGroup
300
Gehäuse
 70
     1
 71
     1
340
31
340
32
340
33
340
34
340
35
340
36
340
37
340
38
340
39
340
3A
340
3B
340
3C
340
3D
340
3E
340
3F
340
40
340
41
340
42
340
43
340
44
340
45
340
46
340
47
340
48
340
49
340
4A
340
4B
340
4C
340
4D
340
4E
340
4F
340
50
340
51
340
52
340
53
340
54
340
55
340
56
340
57
340
58
340
59
340
5A
340
5B
340
5C
340
5D
340
5E
340
5F
340
60
340
61
340
62
340
63
340
64
340
65
340
66
340
67
340
68
340
69
340
6A
340
6B
340
6C
340
6D
340
6E
340
6F
340
70
340
71
340
72
340
73
340
74
340
75
340
76
340
77
340
78
340
79
340
7A
340
7B
340
7C
340
7D
340
7E
340
7F
340
80
340
81
340
82
340
83
340
84
340
85
340
86
340
87
340
88
340
89
340
8A
340
8B
340
8C
340
8D
340
8E
340
8F
340
90
340
91
340
92
340
93
340
94
340
95
340
96
340
97
340
98
340
99
340
9A
340
9B
340
9C
340
9D
340
9E
340
9F
340
A0
340
A1
340
A2
340
A3
340
A4
340
A5
340
A6
340
A7
340
A8
340
A9
340
AA
340
AB
340
AC
340
AD
340
AE
340
AF
340
B0
340
B1
340
B2
340
B3
340
B4
340
B5
340
B6
340
B7
340
B8
340
B9
340
BA
340
BB
340
BC
340
BD
340
BE
340
BF
340
C0
340
C1
340
C2
340
C3
340
C4
340
C5
340
C6
340
C7
340
C8
340
C9
340
CA
340
CB
340
CC
340
CD
340
CE
340
CF
340
D0
340
D1
340
D2
340
D3
340
D4
340
D5
340
D6
340
D7
340
D8
340
D9
340
DA
340
DB
340
DC
340
DD
340
DE
340
DF
340
E0
340
E1
340
E2
340
E3
340
E4
340
E5
340
E6
340
E7
340
E8
340
E9
340
EA
340
EB
340
EC
340
ED
340
EE
340
EF
340
F0
340
F1
340
F2
340
F3
340
F4
340
F5
340
F6
340
F7
340
F8
340
F9
340
FA
340
FB
340
FC
340
FD
340
FE
340
FF
340
100
340
101
340
102
340
103
340
104
340
105
340
106
340
107
340
108
340
109
340
10A
340
10B
340
10C
340
10D
340
10E
340
10F
340
110
340
111
340
112
340
113
340
114
340
115
340
116
340
117
340
118
340
119
340
11A
340
11B
340
11C
340
11D
340
11E
340
11F
340
120
340
121
340
122
340
123
340
124
340
125
340
126
340
127
340
128
340
129
340
12A
340
12B
340
12C
340
12D
340
12E
340
12F
340
130
340
131
340
132
340
133
340
134
340
135
340
136
340
137
340
138
340
139
340
13A
340
13B
340
13C
340
13D
340
13E
340
13F
340
140
340
141
340
142
340
143
340
144
340
145
340
146
340
147
340
148
340
149
340
14A
340
14B
340
14C
340
14D
340
14E
340
14F
340
150
340
151
340
152
340
153
340
154
340
155
340
156
340
157
340
158
340
159
340
15A
340
15B
340
15C
340
15D
340
15E
340
15F
340
160
340
161
340
162
340
163
340
164
340
165
340
166
340
167
340
168
340
169
340
16A
340
16B
340
16C
340
16D
340
16E
340
16F
340
170
340
171
340
172
340
173
340
174
340
175
340
176
340
177
340
178
340
179
340
17A
340
17B
340
17C
340
17D
340
17E
340
17F
340
180
340
181
340
182
340
183
340
184
340
185
340
186
340
187
340
188
340
189
340
18A
340
18B
340
18C
340
18D
340
18E
340
18F
340
190
340
191
340
192
340
193
340
194
340
195
340
196
340
197
340
198
340
199
340
19A
340
19B
340
19C
340
19D
340
19E
340
19F
340
1A0
340
1A1
340
1A2
340
1A3
340
1A4
340
1A5
340
1A6
340
1A7
340
1A8
340
1A9
340
1AA
340
1AB
340
1AC
340
1AD
340
1AE
340
1AF
340
1B0
340
1B1
340
1B2
340
1B3
340
1B4
340
1B5
340
1B6
340
1B7
340
1B8
340
1B9
340
1BA
340
1BB
340
1BC
340
1BD
340
1BE
340
1BF
340
1C0
340
1C1
340
1C2
340
1C3
340
1C4
340
1C5
340
1C6
340
1C7
340
1C8
340
1C9
340
1CA
340
1D8
340
1D9
340
1E7
340
1E8
340
1E9
340
1EA
340
1EB
340
1EC
340
1ED
340
1EE
340
1EF
340
1F0
340
1F1
340
1F2
340
1F3
340
1F4
340
1F5
340
1F6
340
1F7
340
1F8
340
1F9
340
1FA
340
1FB
340
1FC
340
1FD
340
1FE
340
1FF
340
200
340
201
340
202
340
203
340
204
340
205
340
206
340
207
340
208
340
209
340
20A
340
20B
340
20C
340
216
340
217
340
221
340
222
340
223
340
224
340
225
340
226
340
227
340
228
340
229
340
22A
340
22B
340
23D
340
24D
340
26B
340
279
340
287
340
288
340
289
340
29B
340
2AD
340
2C1
340
2D6
340
2DE
340
2E4
340
2E5
340
2E6
340
307
340
324
340
326
340
327
  0
LAYOUT
  5
1E
102
{ACAD_REACTORS
330
1A
102
}
330
1A
100
AcDbPlotSettings
  1

  2

  4

  6

 40
0.0
 41
0.0
 42
0.0
 43
0.0
 44
0.0
 45
0.0
 46
0.0
 47
0.0
 48
0.0
 49
0.0
140
0.0
141
0.0
142
1.0
143
1.0
 70
   688
 72
     0
 73
     0
 74
     5
  7

 75
    16
147
1.0
148
0.0
149
0.0
100
AcDbLayout
  1
Layout1
 70
     1
 71
     1
 10
-671.381365
 20
-424.64501
 11
1010.618635
 21
763.35499
 12
0.0
 22
0.0
 32
0.0
 14
-671.381365
 24
-424.64501
 34
0.0
 15
1010.618635
 25
763.35499
 35
0.0
146
0.0
 13
0.0
 23
0.0
 33
0.0
 16
1.0
 26
0.0
 36
0.0
 17
0.0
 27
1.0
 37
0.0
 76
     0
330
1B
  0
LAYOUT
  5
26
102
{ACAD_REACTORS
330
1A
102
}
330
1A
100
AcDbPlotSettings
  1

  2

  4

  6

 40
0.0
 41
0.0
 42
0.0
 43
0.0
 44
0.0
 45
0.0
 46
0.0
 47
0.0
 48
0.0
 49
0.0
140
0.0
141
0.0
142
1.0
143
1.0
 70
   688
 72
     0
 73
     0
 74
     5
  7

 75
    16
147
1.0
148
0.0
149
0.0
100
AcDbLayout
  1
Layout2
 70
     1
 71
     2
 10
0.0
 20
0.0
 11
0.0
 21
0.0
 12
0.0
 22
0.0
 32
0.0
 14
0.0
 24
0.0
 34
0.0
 15
0.0
 25
0.0
 35
0.0
146
0.0
 13
0.0
 23
0.0
 33
0.0
 16
1.0
 26
0.0
 36
0.0
 17
0.0
 27
1.0
 37
0.0
 76
     0
330
23
  0
LAYOUT
  5
22
102
{ACAD_REACTORS
330
1A
102
}
330
1A
100
AcDbPlotSettings
  1

  2

  4

  6

 40
0.0
 41
0.0
 42
0.0
 43
0.0
 44
0.0
 45
0.0
 46
0.0
 47
0.0
 48
0.0
 49
0.0
140
0.0
141
0.0
142
1.0
143
1.0
 70
  1776
 72
     0
 73
     0
 74
     0
  7

 75
     0
147
1.0
148
0.0
149
0.0
100
AcDbLayout
  1
Model
 70
     1
 71
     0
 10
-671.381365
 20
-424.64501
 11
1010.618635
 21
763.35499
 12
0.0
 22
0.0
 32
0.0
 14
-671.381365
 24
-424.64501
 34
0.0
 15
1010.618635
 25
763.35499
 35
0.0
146
0.0
 13
0.0
 23
0.0
 33
0.0
 16
1.0
 26
0.0
 36
0.0
 17
0.0
 27
1.0
 37
0.0
 76
     0
330
1F
  0
MLINESTYLE
  5
18
102
{ACAD_REACTORS
330
17
102
}
330
17
100
AcDbMlineStyle
  2
Standard
 70
     0
  3

 62
   256
 51
90.0
 52
90.0
 71
     2
 49
0.5
 62
   256
  6
BYLAYER
 49
-0.5
 62
   256
  6
BYLAYER
  0
ACDBPLACEHOLDER
  5
F
102
{ACAD_REACTORS
330
E
102
}
330
E
  0
ENDSEC
  0
EOF
