  0
SECTION
  2
HEADER
  9
$ACADVER
  1
AC1015
  9
$ACADMAINTVER
 70
     6
  9
$DWGCODEPAGE
  3
ANSI_1252
  9
$INSBASE
 10
0.0
 20
0.0
 30
0.0
  9
$EXTMIN
 10
-838.869441
 20
-601.300707
 30
0.0
  9
$EXTMAX
 10
1261.130559
 20
883.699293
 30
0.0
  9
$LIMMIN
 10
-838.869441
 20
-601.300707
  9
$LIMMAX
 10
1261.130559
 20
883.699293
  9
$ORTHOMODE
 70
     0
  9
$REGENMODE
 70
     1
  9
$FILLMODE
 70
     1
  9
$QTEXTMODE
 70
     0
  9
$MIRRTEXT
 70
     1
  9
$LTSCALE
 40
5.0
  9
$ATTMODE
 70
     1
  9
$TEXTSIZE
 40
2.5
  9
$TRACEWID
 40
1.0
  9
$TEXTSTYLE
  7
Standard
  9
$CLAYER
  8
0
  9
$CELTYPE
  6
ByLayer
  9
$CECOLOR
 62
     7
  9
$CELTSCALE
 40
1.0
  9
$DISPSILH
 70
     0
  9
$DIMSCALE
 40
5.0
  9
$DIMASZ
 40
3.5
  9
$DIMEXO
 40
0.625
  9
$DIMDLI
 40
3.75
  9
$DIMRND
 40
0.0
  9
$DIMDLE
 40
0.0
  9
$DIMEXE
 40
1.25
  9
$DIMTP
 40
0.0
  9
$DIMTM
 40
0.0
  9
$DIMTXT
 40
3.5
  9
$DIMCEN
 40
2.5
  9
$DIMTSZ
 40
0.0
  9
$DIMTOL
 70
     0
  9
$DIMLIM
 70
     0
  9
$DIMTIH
 70
     0
  9
$DIMTOH
 70
     0
  9
$DIMSE1
 70
     0
  9
$DIMSE2
 70
     0
  9
$DIMTAD
 70
     1
  9
$DIMZIN
 70
     8
  9
$DIMBLK
  1

  9
$DIMASO
 70
     1
  9
$DIMSHO
 70
     1
  9
$DIMPOST
  1

  9
$DIMAPOST
  1

  9
$DIMALT
 70
     0
  9
$DIMALTD
 70
     3
  9
$DIMALTF
 40
0.03937
  9
$DIMLFAC
 40
1.0
  9
$DIMTOFL
 70
     1
  9
$DIMTVP
 40
0.0
  9
$DIMTIX
 70
     0
  9
$DIMSOXD
 70
     0
  9
$DIMSAH
 70
     0
  9
$DIMBLK1
  1

  9
$DIMBLK2
  1

  9
$DIMSTYLE
  2
ISO-25
  9
$DIMCLRD
 70
     0
  9
$DIMCLRE
 70
     0
  9
$DIMCLRT
 70
     0
  9
$DIMTFAC
 40
1.0
  9
$DIMGAP
 40
0.625
  9
$DIMJUST
 70
     0
  9
$DIMSD1
 70
     0
  9
$DIMSD2
 70
     0
  9
$DIMTOLJ
 70
     0
  9
$DIMTZIN
 70
     8
  9
$DIMALTZ
 70
     0
  9
$DIMALTTZ
 70
     0
  9
$DIMUPT
 70
     0
  9
$DIMDEC
 70
     2
  9
$DIMTDEC
 70
     2
  9
$DIMALTU
 70
     2
  9
$DIMALTTD
 70
     3
  9
$DIMTXSTY
  7
Standard
  9
$DIMAUNIT
 70
     0
  9
$DIMADEC
 70
     0
  9
$DIMALTRND
 40
0.0
  9
$DIMAZIN
 70
     0
  9
$DIMDSEP
 70
    44
  9
$DIMATFIT
 70
     3
  9
$DIMFRAC
 70
     0
  9
$DIMLDRBLK
  1

  9
$DIMLUNIT
 70
     2
  9
$DIMLWD
 70
    -2
  9
$DIMLWE
 70
    -2
  9
$DIMTMOVE
 70
     0
  9
$LUNITS
 70
     2
  9
$LUPREC
 70
     4
  9
$SKETCHINC
 40
1.0
  9
$FILLETRAD
 40
10.0
  9
$AUNITS
 70
     0
  9
$AUPREC
 70
     0
  9
$MENU
  1
.
  9
$ELEVATION
 40
0.0
  9
$PELEVATION
 40
0.0
  9
$THICKNESS
 40
0.0
  9
$LIMCHECK
 70
     0
  9
$CHAMFERA
 40
10.0
  9
$CHAMFERB
 40
10.0
  9
$CHAMFERC
 40
20.0
  9
$CHAMFERD
 40
0.0
  9
$SKPOLY
 70
     0
  9
$TDCREATE
 40
2456856.471715845
  9
$TDUCREATE
 40
2456856.388382512
  9
$TDUPDATE
 40
2456856.471715856
  9
$TDUUPDATE
 40
2456856.388382523
  9
$TDINDWG
 40
0.0000000116
  9
$TDUSRTIMER
 40
0.0000000116
  9
$USRTIMER
 70
     1
  9
$ANGBASE
 50
0.0
  9
$ANGDIR
 70
     0
  9
$PDMODE
 70
     0
  9
$PDSIZE
 40
0.0
  9
$PLINEWID
 40
0.0
  9
$SPLFRAME
 70
     0
  9
$SPLINETYPE
 70
     6
  9
$SPLINESEGS
 70
     8
  9
$HANDSEED
  5
653
  9
$SURFTAB1
 70
     6
  9
$SURFTAB2
 70
     6
  9
$SURFTYPE
 70
     6
  9
$SURFU
 70
     6
  9
$SURFV
 70
     6
  9
$UCSBASE
  2

  9
$UCSNAME
  2

  9
$UCSORG
 10
0.0
 20
0.0
 30
0.0
  9
$UCSXDIR
 10
1.0
 20
0.0
 30
0.0
  9
$UCSYDIR
 10
0.0
 20
1.0
 30
0.0
  9
$UCSORTHOREF
  2

  9
$UCSORTHOVIEW
 70
     0
  9
$UCSORGTOP
 10
0.0
 20
0.0
 30
0.0
  9
$UCSORGBOTTOM
 10
0.0
 20
0.0
 30
0.0
  9
$UCSORGLEFT
 10
0.0
 20
0.0
 30
0.0
  9
$UCSORGRIGHT
 10
0.0
 20
0.0
 30
0.0
  9
$UCSORGFRONT
 10
0.0
 20
0.0
 30
0.0
  9
$UCSORGBACK
 10
0.0
 20
0.0
 30
0.0
  9
$PUCSBASE
  2

  9
$PUCSNAME
  2

  9
$PUCSORG
 10
0.0
 20
0.0
 30
0.0
  9
$PUCSXDIR
 10
1.0
 20
0.0
 30
0.0
  9
$PUCSYDIR
 10
0.0
 20
1.0
 30
0.0
  9
$PUCSORTHOREF
  2

  9
$PUCSORTHOVIEW
 70
     0
  9
$PUCSORGTOP
 10
0.0
 20
0.0
 30
0.0
  9
$PUCSORGBOTTOM
 10
0.0
 20
0.0
 30
0.0
  9
$PUCSORGLEFT
 10
0.0
 20
0.0
 30
0.0
  9
$PUCSORGRIGHT
 10
0.0
 20
0.0
 30
0.0
  9
$PUCSORGFRONT
 10
0.0
 20
0.0
 30
0.0
  9
$PUCSORGBACK
 10
0.0
 20
0.0
 30
0.0
  9
$USERI1
 70
     0
  9
$USERI2
 70
     0
  9
$USERI3
 70
     0
  9
$USERI4
 70
     0
  9
$USERI5
 70
     0
  9
$USERR1
 40
0.0
  9
$USERR2
 40
0.0
  9
$USERR3
 40
0.0
  9
$USERR4
 40
0.0
  9
$USERR5
 40
0.0
  9
$WORLDVIEW
 70
     1
  9
$SHADEDGE
 70
     3
  9
$SHADEDIF
 70
    70
  9
$TILEMODE
 70
     1
  9
$MAXACTVP
 70
    64
  9
$PINSBASE
 10
0.0
 20
0.0
 30
0.0
  9
$PLIMCHECK
 70
     0
  9
$PEXTMIN
 10
-838.869441
 20
-601.300707
 30
0.0
  9
$PEXTMAX
 10
1261.130559
 20
883.699293
 30
0.0
  9
$PLIMMIN
 10
-838.869441
 20
-601.300707
  9
$PLIMMAX
 10
1261.130559
 20
883.699293
  9
$UNITMODE
 70
     0
  9
$VISRETAIN
 70
     1
  9
$PLINEGEN
 70
     0
  9
$PSLTSCALE
 70
     1
  9
$TREEDEPTH
 70
  3020
  9
$CMLSTYLE
  2
Standard
  9
$CMLJUST
 70
     0
  9
$CMLSCALE
 40
20.0
  9
$PROXYGRAPHICS
 70
     1
  9
$MEASUREMENT
 70
     1
  9
$CELWEIGHT
370
    -1
  9
$ENDCAPS
280
     0
  9
$JOINSTYLE
280
     0
  9
$LWDISPLAY
290
     0
  9
$INSUNITS
 70
     4
  9
$HYPERLINKBASE
  1

  9
$STYLESHEET
  1

  9
$XEDIT
290
     1
  9
$CEPSNTYPE
380
     0
  9
$PSTYLEMODE
290
     1
  9
$FINGERPRINTGUID
  2
{FAEB1C30-E019-11D5-929B-00C0DF256EC4}
  9
$VERSIONGUID
  2
{FAEB1C32-E019-11D5-929B-00C0DF256EC4}
  9
$EXTNAMES
290
     1
  9
$PSVPSCALE
 40
0.0
  9
$OLESTARTUP
290
     0
  0
ENDSEC
  0
SECTION
  2
CLASSES
  0
CLASS
  1
ACDBDICTIONARYWDFLT
  2
AcDbDictionaryWithDefault
  3
ObjectDBX Classes
 90
        0
280
     0
281
     0
  0
CLASS
  1
ACDBPLACEHOLDER
  2
AcDbPlaceHolder
  3
ObjectDBX Classes
 90
        0
280
     0
281
     0
  0
CLASS
  1
LAYOUT
  2
AcDbLayout
  3
ObjectDBX Classes
 90
        0
280
     0
281
     0
  0
ENDSEC
  0
SECTION
  2
TABLES
  0
TABLE
  2
VPORT
  5
8
330
0
100
AcDbSymbolTable
 70
     2
  0
VPORT
  5
29
330
8
100
AcDbSymbolTableRecord
100
AcDbViewportTableRecord
  2
*ACTIVE
 70
     0
 10
0.0
 20
0.0
 11
1.0
 21
1.0
 12
211.130559
 22
141.199293
 13
0.0
 23
0.0
 14
1.0
 24
1.0
 15
0.0
 25
0.0
 16
0.0
 26
0.0
 36
1.0
 17
0.0
 27
0.0
 37
0.0
 40
1485.0
 41
1.414141
 42
50.0
 43
0.0
 44
0.0
 50
0.0
 51
0.0
 71
    16
 72
   100
 73
     1
 74
     0
 75
     0
 76
     0
 77
     0
 78
     0
281
     0
 65
     0
110
0.0
120
0.0
130
0.0
111
1.0
121
0.0
131
0.0
112
0.0
122
1.0
132
0.0
 79
     0
146
0.0
  0
ENDTAB
  0
TABLE
  2
LTYPE
  5
5
330
0
100
AcDbSymbolTable
 70
     3
  0
LTYPE
  5
14
330
5
100
AcDbSymbolTableRecord
100
AcDbLinetypeTableRecord
  2
ByBlock
 70
     0
  3

 72
    65
 73
     0
 40
0.0
  0
LTYPE
  5
15
330
5
100
AcDbSymbolTableRecord
100
AcDbLinetypeTableRecord
  2
ByLayer
 70
     0
  3

 72
    65
 73
     0
 40
0.0
  0
LTYPE
  5
16
330
5
100
AcDbSymbolTableRecord
100
AcDbLinetypeTableRecord
  2
Continuous
 70
     0
  3
Solid line
 72
    65
 73
     0
 40
0.0
  0
LTYPE
  5
2A
330
5
100
AcDbSymbolTableRecord
100
AcDbLinetypeTableRecord
  2
DASHED
 70
     0
  3
__ __ __ __ __
 72
    65
 73
     2
 40
6.25
 49
5.0
 74
     4
 75
     0
340
0
 46
1.0
 50
0.0
 44
0.0
 45
0.0
 49
-1.25
 74
     4
 75
     0
340
0
 46
1.0
 50
0.0
 44
0.0
 45
0.0
  0
LTYPE
  5
E6
330
5
100
AcDbSymbolTableRecord
100
AcDbLinetypeTableRecord
  2
DASHDOT
 70
     0
  3
__ . __ . __ . __ . __
 72
    65
 73
     4
 40
7.5
 49
5.0
 74
     4
 75
     0
340
0
 46
1.0
 50
0.0
 44
0.0
 45
0.0
 49
-1.25
 74
     4
 75
     0
340
0
 46
1.0
 50
0.0
 44
0.0
 45
0.0
 49
0.0
 74
     4
 75
     0
340
0
 46
1.0
 50
0.0
 44
0.0
 45
0.0
 49
-1.25
 74
     4
 75
     0
340
0
 46
1.0
 50
0.0
 44
0.0
 45
0.0
  0
ENDTAB
  0
TABLE
  2
LAYER
  5
2
330
0
100
AcDbSymbolTable
 70
    12
  0
LAYER
  5
10
330
2
100
AcDbSymbolTableRecord
100
AcDbLayerTableRecord
  2
0
 70
     0
 62
     7
  6
Continuous
370
    -3
390
F
  0
LAYER
  5
2B
330
2
100
AcDbSymbolTableRecord
100
AcDbLayerTableRecord
  2
LC-INFO-1-5-mm-A3-0
 70
     1
 62
     7
  6
ByBlock
370
    -3
390
F
  0
LAYER
  5
2C
330
2
100
AcDbSymbolTableRecord
100
AcDbLayerTableRecord
  2
LC-CUT-HIDDEN
 70
     0
 62
     7
  6
DASHED
370
    -3
390
F
  0
LAYER
  5
2D
330
2
100
AcDbSymbolTableRecord
100
AcDbLayerTableRecord
  2
LC-VIEWPORT
 70
     0
 62
     7
  6
ByBlock
370
    -3
390
F
  0
LAYER
  5
2E
330
2
100
AcDbSymbolTableRecord
100
AcDbLayerTableRecord
  2
LC-3D-HIDDEN
 70
     0
 62
     9
  6
DASHED
370
    -3
390
F
  0
LAYER
  5
30
330
2
100
AcDbSymbolTableRecord
100
AcDbLayerTableRecord
  2
LC-001-100-D00-0
 70
     0
 62
     1
  6
ByBlock
370
    -3
390
F
  0
LAYER
  5
D7
330
2
100
AcDbSymbolTableRecord
100
AcDbLayerTableRecord
  2
Defpoints
 70
     0
 62
     7
  6
Continuous
290
     0
370
    -3
390
F
  0
LAYER
  5
5FA
330
2
100
AcDbSymbolTableRecord
100
AcDbLayerTableRecord
  2
LC-002-002-----0
 70
     0
 62
     1
  6
ByBlock
370
    -3
390
F
  0
LAYER
  5
5FE
330
2
100
AcDbSymbolTableRecord
100
AcDbLayerTableRecord
  2
LC-003-207-RND-0
 70
     0
 62
     1
  6
ByBlock
370
    -3
390
F
  0
LAYER
  5
60A
330
2
100
AcDbSymbolTableRecord
100
AcDbLayerTableRecord
  2
LC-004-005-----0
 70
     0
 62
     2
  6
ByBlock
370
    -3
390
F
  0
LAYER
  5
632
330
2
100
AcDbSymbolTableRecord
100
AcDbLayerTableRecord
  2
LC-005-207-----0
 70
     0
 62
     1
  6
ByBlock
370
    -3
390
F
  0
LAYER
  5
636
330
2
100
AcDbSymbolTableRecord
100
AcDbLayerTableRecord
  2
LC-006-003-----0
 70
     0
 62
     2
  6
ByBlock
370
    -3
390
F
  0
ENDTAB
  0
TABLE
  2
STYLE
  5
3
330
0
100
AcDbSymbolTable
 70
     3
  0
STYLE
  5
11
330
3
100
AcDbSymbolTableRecord
100
AcDbTextStyleTableRecord
  2
Standard
 70
     0
 40
0.0
 41
1.0
 50
0.0
 71
     0
 42
2.5
  3
txt
  4

  0
STYLE
  5
2F
330
3
100
AcDbSymbolTableRecord
100
AcDbTextStyleTableRecord
  2
LCTX15-400-0-0-Arial
 70
     0
 40
0.0
 41
0.8
 50
0.0
 71
     0
 42
3.5
  3

  4

1001
ACAD
1000
Arial
1071
 16777218
  0
STYLE
  5
D4
330
3
100
AcDbSymbolTableRecord
100
AcDbTextStyleTableRecord
  2
LCTX15-400-0-0pDIN-Schrift
 70
     0
 40
2.5
 41
0.8
 50
15.0
 71
     0
 42
3.5
  3
STANDARD
  4

  0
ENDTAB
  0
TABLE
  2
VIEW
  5
6
330
0
100
AcDbSymbolTable
 70
     0
  0
ENDTAB
  0
TABLE
  2
UCS
  5
7
330
0
100
AcDbSymbolTable
 70
     0
  0
ENDTAB
  0
TABLE
  2
APPID
  5
9
330
0
100
AcDbSymbolTable
 70
     1
  0
APPID
  5
12
330
9
100
AcDbSymbolTableRecord
100
AcDbRegAppTableRecord
  2
ACAD
 70
     0
  0
ENDTAB
  0
TABLE
  2
DIMSTYLE
  5
A
330
0
100
AcDbSymbolTable
 70
     2
100
AcDbDimStyleTable
  0
DIMSTYLE
105
27
330
A
100
AcDbSymbolTableRecord
100
AcDbDimStyleTableRecord
  2
ISO-25
 70
     0
 41
2.5
 42
0.625
 43
3.75
 44
1.25
 73
     0
 74
     0
 77
     1
 78
     8
140
2.5
141
2.5
143
0.03937
147
0.625
171
     3
172
     1
271
     2
272
     2
274
     3
278
    44
283
     0
284
     8
340
11
  0
DIMSTYLE
105
D5
102
{ACAD_REACTORS
330
D6
330
1FE
330
20C
330
21A
330
513
330
522
330
52F
330
53C
330
54A
330
557
330
566
330
637
330
645
102
}
330
A
100
AcDbSymbolTableRecord
100
AcDbDimStyleTableRecord
  2
LC-DIM-L-0100-02-02
 70
     0
 40
5.0
 41
10.0
 42
0.0
 43
7.5
 44
1.8
 73
     0
 74
     0
 77
     1
 78
     8
 79
     2
140
10.0
141
0.0
146
0.71
147
1.5
176
     2
177
     2
178
     2
179
     2
271
     2
278
    44
289
     1
340
D4
  0
ENDTAB
  0
TABLE
  2
BLOCK_RECORD
  5
1
330
0
100
AcDbSymbolTable
 70
    49
  0
BLOCK_RECORD
  5
1F
330
1
100
AcDbSymbolTableRecord
100
AcDbBlockTableRecord
  2
*Model_Space
340
22
  0
BLOCK_RECORD
  5
1B
330
1
100
AcDbSymbolTableRecord
100
AcDbBlockTableRecord
  2
*Paper_Space
340
1E
  0
BLOCK_RECORD
  5
23
330
1
100
AcDbSymbolTableRecord
100
AcDbBlockTableRecord
  2
*Paper_Space0
340
26
  0
BLOCK_RECORD
  5
D8
330
1
100
AcDbSymbolTableRecord
100
AcDbBlockTableRecord
  2
*D1
340
0
  0
BLOCK_RECORD
  5
104
330
1
100
AcDbSymbolTableRecord
100
AcDbBlockTableRecord
  2
KLON1
340
0
102
{BLKREFS
331
109
102
}
  0
BLOCK_RECORD
  5
10C
330
1
100
AcDbSymbolTableRecord
100
AcDbBlockTableRecord
  2
KLON2
340
0
102
{BLKREFS
331
113
102
}
  0
BLOCK_RECORD
  5
115
330
1
100
AcDbSymbolTableRecord
100
AcDbBlockTableRecord
  2
KLON3
340
0
102
{BLKREFS
331
11A
102
}
  0
BLOCK_RECORD
  5
11B
330
1
100
AcDbSymbolTableRecord
100
AcDbBlockTableRecord
  2
KLON4
340
0
102
{BLKREFS
331
120
102
}
  0
BLOCK_RECORD
  5
121
330
1
100
AcDbSymbolTableRecord
100
AcDbBlockTableRecord
  2
KLON5
340
0
102
{BLKREFS
331
126
102
}
  0
BLOCK_RECORD
  5
128
330
1
100
AcDbSymbolTableRecord
100
AcDbBlockTableRecord
  2
KLON6
340
0
102
{BLKREFS
331
12F
102
}
  0
BLOCK_RECORD
  5
13F
330
1
100
AcDbSymbolTableRecord
100
AcDbBlockTableRecord
  2
KLON7
340
0
102
{BLKREFS
331
144
102
}
  0
BLOCK_RECORD
  5
145
330
1
100
AcDbSymbolTableRecord
100
AcDbBlockTableRecord
  2
KLON8
340
0
102
{BLKREFS
331
14A
102
}
  0
BLOCK_RECORD
  5
14C
330
1
100
AcDbSymbolTableRecord
100
AcDbBlockTableRecord
  2
KLON9
340
0
102
{BLKREFS
331
152
102
}
  0
BLOCK_RECORD
  5
153
330
1
100
AcDbSymbolTableRecord
100
AcDbBlockTableRecord
  2
KLON10
340
0
102
{BLKREFS
331
158
102
}
  0
BLOCK_RECORD
  5
159
330
1
100
AcDbSymbolTableRecord
100
AcDbBlockTableRecord
  2
KLON11
340
0
102
{BLKREFS
331
15F
102
}
  0
BLOCK_RECORD
  5
160
330
1
100
AcDbSymbolTableRecord
100
AcDbBlockTableRecord
  2
KLON12
340
0
102
{BLKREFS
331
166
102
}
  0
BLOCK_RECORD
  5
167
330
1
100
AcDbSymbolTableRecord
100
AcDbBlockTableRecord
  2
KLON13
340
0
102
{BLKREFS
331
16D
102
}
  0
BLOCK_RECORD
  5
16E
330
1
100
AcDbSymbolTableRecord
100
AcDbBlockTableRecord
  2
KLON14
340
0
102
{BLKREFS
331
173
102
}
  0
BLOCK_RECORD
  5
1FF
330
1
100
AcDbSymbolTableRecord
100
AcDbBlockTableRecord
  2
*D16
340
0
  0
BLOCK_RECORD
  5
20D
330
1
100
AcDbSymbolTableRecord
100
AcDbBlockTableRecord
  2
*D17
340
0
  0
BLOCK_RECORD
  5
21B
330
1
100
AcDbSymbolTableRecord
100
AcDbBlockTableRecord
  2
*D18
340
0
  0
BLOCK_RECORD
  5
388
330
1
100
AcDbSymbolTableRecord
100
AcDbBlockTableRecord
  2
KLON15
340
0
102
{BLKREFS
331
398
102
}
  0
BLOCK_RECORD
  5
399
330
1
100
AcDbSymbolTableRecord
100
AcDbBlockTableRecord
  2
KLON16
340
0
102
{BLKREFS
331
3AC
102
}
  0
BLOCK_RECORD
  5
3B0
330
1
100
AcDbSymbolTableRecord
100
AcDbBlockTableRecord
  2
KLON17
340
0
102
{BLKREFS
331
3B5
102
}
  0
BLOCK_RECORD
  5
4B5
330
1
100
AcDbSymbolTableRecord
100
AcDbBlockTableRecord
  2
KLON18
340
0
102
{BLKREFS
331
4BE
102
}
  0
BLOCK_RECORD
  5
4BF
330
1
100
AcDbSymbolTableRecord
100
AcDbBlockTableRecord
  2
KLON19
340
0
102
{BLKREFS
331
4C8
102
}
  0
BLOCK_RECORD
  5
4E2
330
1
100
AcDbSymbolTableRecord
100
AcDbBlockTableRecord
  2
KLON20
340
0
102
{BLKREFS
331
4EA
102
}
  0
BLOCK_RECORD
  5
4EB
330
1
100
AcDbSymbolTableRecord
100
AcDbBlockTableRecord
  2
KLON21
340
0
102
{BLKREFS
331
4F7
102
}
  0
BLOCK_RECORD
  5
4F8
330
1
100
AcDbSymbolTableRecord
100
AcDbBlockTableRecord
  2
KLON22
340
0
102
{BLKREFS
331
504
102
}
  0
BLOCK_RECORD
  5
514
330
1
100
AcDbSymbolTableRecord
100
AcDbBlockTableRecord
  2
*D27
340
0
  0
BLOCK_RECORD
  5
523
330
1
100
AcDbSymbolTableRecord
100
AcDbBlockTableRecord
  2
*D28
340
0
  0
BLOCK_RECORD
  5
530
330
1
100
AcDbSymbolTableRecord
100
AcDbBlockTableRecord
  2
*D29
340
0
  0
BLOCK_RECORD
  5
53D
330
1
100
AcDbSymbolTableRecord
100
AcDbBlockTableRecord
  2
*D30
340
0
  0
BLOCK_RECORD
  5
54B
330
1
100
AcDbSymbolTableRecord
100
AcDbBlockTableRecord
  2
*D31
340
0
  0
BLOCK_RECORD
  5
558
330
1
100
AcDbSymbolTableRecord
100
AcDbBlockTableRecord
  2
*D32
340
0
  0
BLOCK_RECORD
  5
567
330
1
100
AcDbSymbolTableRecord
100
AcDbBlockTableRecord
  2
*D33
340
0
  0
BLOCK_RECORD
  5
575
330
1
100
AcDbSymbolTableRecord
100
AcDbBlockTableRecord
  2
KLON23
340
0
102
{BLKREFS
331
57C
102
}
  0
BLOCK_RECORD
  5
57D
330
1
100
AcDbSymbolTableRecord
100
AcDbBlockTableRecord
  2
KLON24
340
0
102
{BLKREFS
331
584
102
}
  0
BLOCK_RECORD
  5
586
330
1
100
AcDbSymbolTableRecord
100
AcDbBlockTableRecord
  2
KLON25
340
0
102
{BLKREFS
331
58B
102
}
  0
BLOCK_RECORD
  5
58D
330
1
100
AcDbSymbolTableRecord
100
AcDbBlockTableRecord
  2
KLON26
340
0
102
{BLKREFS
331
59C
102
}
  0
BLOCK_RECORD
  5
59D
330
1
100
AcDbSymbolTableRecord
100
AcDbBlockTableRecord
  2
KLON27
340
0
102
{BLKREFS
331
5A2
102
}
  0
BLOCK_RECORD
  5
5A3
330
1
100
AcDbSymbolTableRecord
100
AcDbBlockTableRecord
  2
KLON28
340
0
102
{BLKREFS
331
5B1
102
}
  0
BLOCK_RECORD
  5
5B3
330
1
100
AcDbSymbolTableRecord
100
AcDbBlockTableRecord
  2
KLON29
340
0
102
{BLKREFS
331
5C6
102
}
  0
BLOCK_RECORD
  5
5C7
330
1
100
AcDbSymbolTableRecord
100
AcDbBlockTableRecord
  2
KLON30
340
0
102
{BLKREFS
331
5DA
102
}
  0
BLOCK_RECORD
  5
5DF
330
1
100
AcDbSymbolTableRecord
100
AcDbBlockTableRecord
  2
KLON31
340
0
102
{BLKREFS
331
5E4
102
}
  0
BLOCK_RECORD
  5
5E6
330
1
100
AcDbSymbolTableRecord
100
AcDbBlockTableRecord
  2
KLON32
340
0
102
{BLKREFS
331
5EB
102
}
  0
BLOCK_RECORD
  5
5ED
330
1
100
AcDbSymbolTableRecord
100
AcDbBlockTableRecord
  2
KLON33
340
0
102
{BLKREFS
331
5F2
102
}
  0
BLOCK_RECORD
  5
607
330
1
100
AcDbSymbolTableRecord
100
AcDbBlockTableRecord
  2
*X145
340
0
102
{BLKREFS
331
613
102
}
  0
BLOCK_RECORD
  5
61A
330
1
100
AcDbSymbolTableRecord
100
AcDbBlockTableRecord
  2
*X246
340
0
102
{BLKREFS
331
628
102
}
  0
BLOCK_RECORD
  5
638
330
1
100
AcDbSymbolTableRecord
100
AcDbBlockTableRecord
  2
*D47
340
0
  0
BLOCK_RECORD
  5
646
330
1
100
AcDbSymbolTableRecord
100
AcDbBlockTableRecord
  2
*D48
340
0
  0
ENDTAB
  0
ENDSEC
  0
SECTION
  2
BLOCKS
  0
BLOCK
  5
20
330
1F
100
AcDbEntity
  8
0
100
AcDbBlockBegin
  2
*Model_Space
 70
     0
 71
     0
 10
0.0
 20
0.0
 30
0.0
  3
*Model_Space
  1

  0
ENDBLK
  5
21
330
1F
100
AcDbEntity
  8
0
100
AcDbBlockEnd
  0
BLOCK
  5
1C
330
1B
100
AcDbEntity
 67
     1
  8
0
100
AcDbBlockBegin
  2
*Paper_Space
 70
     0
 71
     0
 10
0.0
 20
0.0
 30
0.0
  3
*Paper_Space
  1

  0
ENDBLK
  5
1D
330
1B
100
AcDbEntity
 67
     1
  8
0
100
AcDbBlockEnd
  0
BLOCK
  5
24
330
23
100
AcDbEntity
  8
0
100
AcDbBlockBegin
  2
*Paper_Space0
 70
     0
 71
     0
 10
0.0
 20
0.0
 30
0.0
  3
*Paper_Space0
  1

  0
ENDBLK
  5
25
330
23
100
AcDbEntity
  8
0
100
AcDbBlockEnd
  0
BLOCK
  5
E4
330
D8
100
AcDbEntity
  8
0
100
AcDbBlockBegin
  2
*D1
 70
     1
 71
     0
 10
0.0
 20
0.0
 30
0.0
  3
*D1
  1

  0
LINE
  5
D9
330
D8
100
AcDbEntity
  8
LC-001-100-D00-0
 62
     2
370
    -2
100
AcDbLine
 10
542.279818
 20
344.446609
 30
0.0
 11
542.279818
 21
275.761896
 31
0.0
  0
LINE
  5
DA
330
D8
100
AcDbEntity
  8
LC-001-100-D00-0
 62
     2
370
    -2
100
AcDbLine
 10
623.279818
 20
344.446609
 30
0.0
 11
623.279818
 21
275.761896
 31
0.0
  0
LINE
  5
DB
330
D8
100
AcDbEntity
  8
LC-001-100-D00-0
 62
     2
370
    -2
100
AcDbLine
 10
492.279818
 20
284.761896
 30
0.0
 11
442.279818
 21
284.761896
 31
0.0
  0
LINE
  5
DC
330
D8
100
AcDbEntity
  8
LC-001-100-D00-0
 62
     2
370
    -2
100
AcDbLine
 10
673.279818
 20
284.761896
 30
0.0
 11
723.279818
 21
284.761896
 31
0.0
  0
LINE
  5
DD
330
D8
100
AcDbEntity
  8
LC-001-100-D00-0
 62
     2
370
    -2
100
AcDbLine
 10
542.279818
 20
284.761896
 30
0.0
 11
623.279818
 21
284.761896
 31
0.0
  0
SOLID
  5
DE
330
D8
100
AcDbEntity
  8
LC-001-100-D00-0
 62
     2
100
AcDbTrace
 10
492.279818
 20
276.428563
 30
0.0
 11
492.279818
 21
293.095229
 31
0.0
 12
542.279818
 22
284.761896
 32
0.0
 13
542.279818
 23
284.761896
 33
0.0
  0
SOLID
  5
DF
330
D8
100
AcDbEntity
  8
LC-001-100-D00-0
 62
     2
100
AcDbTrace
 10
673.279818
 20
293.095229
 30
0.0
 11
673.279818
 21
276.428563
 31
0.0
 12
623.279818
 22
284.761896
 32
0.0
 13
623.279818
 23
284.761896
 33
0.0
  0
MTEXT
  5
E0
330
D8
100
AcDbEntity
  8
LC-001-100-D00-0
 62
     2
100
AcDbMText
 10
586.652026
 20
339.761896
 30
0.0
 40
50.0
 41
0.0
 71
     5
 72
     1
  1
\A1;81
  7
LCTX15-400-0-0pDIN-Schrift
 73
     1
 44
1.0
  0
POINT
  5
E1
330
D8
100
AcDbEntity
  8
Defpoints
 62
     0
100
AcDbPoint
 10
542.279818
 20
344.446609
 30
0.0
  0
POINT
  5
E2
330
D8
100
AcDbEntity
  8
Defpoints
 62
     0
100
AcDbPoint
 10
623.279818
 20
344.446609
 30
0.0
  0
POINT
  5
E3
330
D8
100
AcDbEntity
  8
Defpoints
 62
     0
100
AcDbPoint
 10
623.279818
 20
284.761896
 30
0.0
  0
ENDBLK
  5
E5
330
D8
100
AcDbEntity
  8
0
100
AcDbBlockEnd
  0
BLOCK
  5
105
330
104
100
AcDbEntity
  8
0
100
AcDbBlockBegin
  2
KLON1
 70
     0
 71
     0
 10
0.0
 20
0.0
 30
0.0
  3
KLON1
  1

  4
KLON1
  0
LINE
  5
107
330
104
100
AcDbEntity
  8
LC-001-100-D00-0
 62
     7
370
    15
100
AcDbLine
 10
76.669241
 20
33.666217
 30
0.0
 11
76.676662
 21
33.628044
 31
0.0
  0
LINE
  5
108
330
104
100
AcDbEntity
  8
LC-001-100-D00-0
 62
     7
370
    15
100
AcDbLine
 10
76.676662
 20
33.628044
 30
0.0
 11
76.695437
 21
33.59556
 31
0.0
  0
ENDBLK
  5
106
330
104
100
AcDbEntity
  8
0
100
AcDbBlockEnd
  0
BLOCK
  5
10D
330
10C
100
AcDbEntity
  8
0
100
AcDbBlockBegin
  2
KLON2
 70
     0
 71
     0
 10
0.0
 20
0.0
 30
0.0
  3
KLON2
  1

  4
KLON2
  0
LINE
  5
10F
330
10C
100
AcDbEntity
  8
LC-001-100-D00-0
 62
     7
370
    15
100
AcDbLine
 10
76.669241
 20
69.488885
 30
0.0
 11
76.681907
 21
69.408005
 31
0.0
  0
LINE
  5
110
330
10C
100
AcDbEntity
  8
LC-001-100-D00-0
 62
     7
370
    15
100
AcDbLine
 10
76.681907
 20
69.408005
 30
0.0
 11
76.690698
 21
69.351796
 31
0.0
  0
LINE
  5
111
330
10C
100
AcDbEntity
  8
LC-001-100-D00-0
 62
     7
370
    15
100
AcDbLine
 10
76.690698
 20
69.351796
 30
0.0
 11
76.693202
 21
69.335697
 31
0.0
  0
LINE
  5
112
330
10C
100
AcDbEntity
  8
LC-001-100-D00-0
 62
     7
370
    15
100
AcDbLine
 10
76.693202
 20
69.335697
 30
0.0
 11
76.695437
 21
69.321411
 31
0.0
  0
ENDBLK
  5
10E
330
10C
100
AcDbEntity
  8
0
100
AcDbBlockEnd
  0
BLOCK
  5
116
330
115
100
AcDbEntity
  8
0
100
AcDbBlockBegin
  2
KLON3
 70
     0
 71
     0
 10
0.0
 20
0.0
 30
0.0
  3
KLON3
  1

  4
KLON3
  0
LINE
  5
118
330
115
100
AcDbEntity
  8
LC-001-100-D00-0
 62
     7
370
    15
100
AcDbLine
 10
76.669241
 20
80.651577
 30
0.0
 11
76.679821
 21
80.657487
 31
0.0
  0
LINE
  5
119
330
115
100
AcDbEntity
  8
LC-001-100-D00-0
 62
     7
370
    15
100
AcDbLine
 10
76.679821
 20
80.657487
 30
0.0
 11
76.695437
 21
80.666216
 31
0.0
  0
ENDBLK
  5
117
330
115
100
AcDbEntity
  8
0
100
AcDbBlockEnd
  0
BLOCK
  5
11C
330
11B
100
AcDbEntity
  8
0
100
AcDbBlockBegin
  2
KLON4
 70
     0
 71
     0
 10
0.0
 20
0.0
 30
0.0
  3
KLON4
  1

  4
KLON4
  0
LINE
  5
11E
330
11B
100
AcDbEntity
  8
LC-001-100-D00-0
 62
     7
370
    15
100
AcDbLine
 10
-507.278358
 20
33.666217
 30
0.0
 11
-507.285779
 21
33.628044
 31
0.0
  0
LINE
  5
11F
330
11B
100
AcDbEntity
  8
LC-001-100-D00-0
 62
     7
370
    15
100
AcDbLine
 10
-507.285779
 20
33.628044
 30
0.0
 11
-507.304554
 21
33.59556
 31
0.0
  0
ENDBLK
  5
11D
330
11B
100
AcDbEntity
  8
0
100
AcDbBlockEnd
  0
BLOCK
  5
122
330
121
100
AcDbEntity
  8
0
100
AcDbBlockBegin
  2
KLON5
 70
     0
 71
     0
 10
0.0
 20
0.0
 30
0.0
  3
KLON5
  1

  4
KLON5
  0
LINE
  5
124
330
121
100
AcDbEntity
  8
LC-001-100-D00-0
 62
     7
370
    15
100
AcDbLine
 10
-507.278358
 20
80.651577
 30
0.0
 11
-507.288938
 21
80.657487
 31
0.0
  0
LINE
  5
125
330
121
100
AcDbEntity
  8
LC-001-100-D00-0
 62
     7
370
    15
100
AcDbLine
 10
-507.288938
 20
80.657487
 30
0.0
 11
-507.304554
 21
80.666216
 31
0.0
  0
ENDBLK
  5
123
330
121
100
AcDbEntity
  8
0
100
AcDbBlockEnd
  0
BLOCK
  5
129
330
128
100
AcDbEntity
  8
0
100
AcDbBlockBegin
  2
KLON6
 70
     0
 71
     0
 10
0.0
 20
0.0
 30
0.0
  3
KLON6
  1

  4
KLON6
  0
LINE
  5
12B
330
128
100
AcDbEntity
  8
LC-001-100-D00-0
 62
     7
370
    15
100
AcDbLine
 10
-507.278358
 20
69.488885
 30
0.0
 11
-507.291024
 21
69.408005
 31
0.0
  0
LINE
  5
12C
330
128
100
AcDbEntity
  8
LC-001-100-D00-0
 62
     7
370
    15
100
AcDbLine
 10
-507.291024
 20
69.408005
 30
0.0
 11
-507.299816
 21
69.351796
 31
0.0
  0
LINE
  5
12D
330
128
100
AcDbEntity
  8
LC-001-100-D00-0
 62
     7
370
    15
100
AcDbLine
 10
-507.299816
 20
69.351796
 30
0.0
 11
-507.302319
 21
69.335697
 31
0.0
  0
LINE
  5
12E
330
128
100
AcDbEntity
  8
LC-001-100-D00-0
 62
     7
370
    15
100
AcDbLine
 10
-507.302319
 20
69.335697
 30
0.0
 11
-507.304554
 21
69.321411
 31
0.0
  0
ENDBLK
  5
12A
330
128
100
AcDbEntity
  8
0
100
AcDbBlockEnd
  0
BLOCK
  5
140
330
13F
100
AcDbEntity
  8
0
100
AcDbBlockBegin
  2
KLON7
 70
     0
 71
     0
 10
0.0
 20
0.0
 30
0.0
  3
KLON7
  1

  4
KLON7
  0
LINE
  5
142
330
13F
100
AcDbEntity
  8
LC-001-100-D00-0
 62
     7
370
    15
100
AcDbLine
 10
76.64072
 20
44.832808
 30
0.0
 11
76.656903
 21
44.838892
 31
0.0
  0
LINE
  5
143
330
13F
100
AcDbEntity
  8
LC-001-100-D00-0
 62
     7
370
    15
100
AcDbLine
 10
76.656903
 20
44.838892
 30
0.0
 11
76.669241
 21
44.843548
 31
0.0
  0
ENDBLK
  5
141
330
13F
100
AcDbEntity
  8
0
100
AcDbBlockEnd
  0
BLOCK
  5
146
330
145
100
AcDbEntity
  8
0
100
AcDbBlockBegin
  2
KLON8
 70
     0
 71
     0
 10
0.0
 20
0.0
 30
0.0
  3
KLON8
  1

  4
KLON8
  0
LINE
  5
148
330
145
100
AcDbEntity
  8
LC-001-100-D00-0
 62
     7
370
    15
100
AcDbLine
 10
-507.249837
 20
44.832808
 30
0.0
 11
-507.26602
 21
44.838892
 31
0.0
  0
LINE
  5
149
330
145
100
AcDbEntity
  8
LC-001-100-D00-0
 62
     7
370
    15
100
AcDbLine
 10
-507.26602
 20
44.838892
 30
0.0
 11
-507.278358
 21
44.843548
 31
0.0
  0
ENDBLK
  5
147
330
145
100
AcDbEntity
  8
0
100
AcDbBlockEnd
  0
BLOCK
  5
14D
330
14C
100
AcDbEntity
  8
0
100
AcDbBlockBegin
  2
KLON9
 70
     0
 71
     0
 10
0.0
 20
0.0
 30
0.0
  3
KLON9
  1

  4
KLON9
  0
LINE
  5
14F
330
14C
100
AcDbEntity
  8
LC-001-100-D00-0
 62
     7
370
    15
100
AcDbLine
 10
-60.317626
 20
51.306999
 30
0.0
 11
-60.306226
 21
51.720474
 31
0.0
  0
LINE
  5
150
330
14C
100
AcDbEntity
  8
LC-001-100-D00-0
 62
     7
370
    15
100
AcDbLine
 10
-60.306226
 20
51.720474
 30
0.0
 11
-60.294544
 21
52.143732
 31
0.0
  0
LINE
  5
151
330
14C
100
AcDbEntity
  8
LC-001-100-D00-0
 62
     7
370
    15
100
AcDbLine
 10
-60.294544
 20
52.143732
 30
0.0
 11
-60.282742
 21
52.57191
 31
0.0
  0
ENDBLK
  5
14E
330
14C
100
AcDbEntity
  8
0
100
AcDbBlockEnd
  0
BLOCK
  5
154
330
153
100
AcDbEntity
  8
0
100
AcDbBlockBegin
  2
KLON10
 70
     0
 71
     0
 10
0.0
 20
0.0
 30
0.0
  3
KLON10
  1

  4
KLON10
  0
LINE
  5
156
330
153
100
AcDbEntity
  8
LC-001-100-D00-0
 62
     7
370
    15
100
AcDbLine
 10
76.64072
 20
69.499625
 30
0.0
 11
76.656903
 21
69.493541
 31
0.0
  0
LINE
  5
157
330
153
100
AcDbEntity
  8
LC-001-100-D00-0
 62
     7
370
    15
100
AcDbLine
 10
76.656903
 20
69.493541
 30
0.0
 11
76.669241
 21
69.488885
 31
0.0
  0
ENDBLK
  5
155
330
153
100
AcDbEntity
  8
0
100
AcDbBlockEnd
  0
BLOCK
  5
15A
330
159
100
AcDbEntity
  8
0
100
AcDbBlockBegin
  2
KLON11
 70
     0
 71
     0
 10
0.0
 20
0.0
 30
0.0
  3
KLON11
  1

  4
KLON11
  0
LINE
  5
15C
330
159
100
AcDbEntity
  8
LC-001-100-D00-0
 62
     7
370
    15
100
AcDbLine
 10
-60.282742
 20
61.760522
 30
0.0
 11
-60.294544
 21
62.188701
 31
0.0
  0
LINE
  5
15D
330
159
100
AcDbEntity
  8
LC-001-100-D00-0
 62
     7
370
    15
100
AcDbLine
 10
-60.294544
 20
62.188701
 30
0.0
 11
-60.306226
 21
62.611959
 31
0.0
  0
LINE
  5
15E
330
159
100
AcDbEntity
  8
LC-001-100-D00-0
 62
     7
370
    15
100
AcDbLine
 10
-60.306226
 20
62.611959
 30
0.0
 11
-60.317626
 21
63.025434
 31
0.0
  0
ENDBLK
  5
15B
330
159
100
AcDbEntity
  8
0
100
AcDbBlockEnd
  0
BLOCK
  5
161
330
160
100
AcDbEntity
  8
0
100
AcDbBlockBegin
  2
KLON12
 70
     0
 71
     0
 10
0.0
 20
0.0
 30
0.0
  3
KLON12
  1

  4
KLON12
  0
LINE
  5
163
330
160
100
AcDbEntity
  8
LC-001-100-D00-0
 62
     7
370
    15
100
AcDbLine
 10
-370.291492
 20
51.306999
 30
0.0
 11
-370.302891
 21
51.720474
 31
0.0
  0
LINE
  5
164
330
160
100
AcDbEntity
  8
LC-001-100-D00-0
 62
     7
370
    15
100
AcDbLine
 10
-370.302891
 20
51.720474
 30
0.0
 11
-370.314573
 21
52.143732
 31
0.0
  0
LINE
  5
165
330
160
100
AcDbEntity
  8
LC-001-100-D00-0
 62
     7
370
    15
100
AcDbLine
 10
-370.314573
 20
52.143732
 30
0.0
 11
-370.326375
 21
52.57191
 31
0.0
  0
ENDBLK
  5
162
330
160
100
AcDbEntity
  8
0
100
AcDbBlockEnd
  0
BLOCK
  5
168
330
167
100
AcDbEntity
  8
0
100
AcDbBlockBegin
  2
KLON13
 70
     0
 71
     0
 10
0.0
 20
0.0
 30
0.0
  3
KLON13
  1

  4
KLON13
  0
LINE
  5
16A
330
167
100
AcDbEntity
  8
LC-001-100-D00-0
 62
     7
370
    15
100
AcDbLine
 10
-370.326375
 20
61.760522
 30
0.0
 11
-370.314573
 21
62.188701
 31
0.0
  0
LINE
  5
16B
330
167
100
AcDbEntity
  8
LC-001-100-D00-0
 62
     7
370
    15
100
AcDbLine
 10
-370.314573
 20
62.188701
 30
0.0
 11
-370.302891
 21
62.611959
 31
0.0
  0
LINE
  5
16C
330
167
100
AcDbEntity
  8
LC-001-100-D00-0
 62
     7
370
    15
100
AcDbLine
 10
-370.302891
 20
62.611959
 30
0.0
 11
-370.291492
 21
63.025434
 31
0.0
  0
ENDBLK
  5
169
330
167
100
AcDbEntity
  8
0
100
AcDbBlockEnd
  0
BLOCK
  5
16F
330
16E
100
AcDbEntity
  8
0
100
AcDbBlockBegin
  2
KLON14
 70
     0
 71
     0
 10
0.0
 20
0.0
 30
0.0
  3
KLON14
  1

  4
KLON14
  0
LINE
  5
171
330
16E
100
AcDbEntity
  8
LC-001-100-D00-0
 62
     7
370
    15
100
AcDbLine
 10
-507.249837
 20
69.499625
 30
0.0
 11
-507.26602
 21
69.493541
 31
0.0
  0
LINE
  5
172
330
16E
100
AcDbEntity
  8
LC-001-100-D00-0
 62
     7
370
    15
100
AcDbLine
 10
-507.26602
 20
69.493541
 30
0.0
 11
-507.278358
 21
69.488885
 31
0.0
  0
ENDBLK
  5
170
330
16E
100
AcDbEntity
  8
0
100
AcDbBlockEnd
  0
BLOCK
  5
20A
330
1FF
100
AcDbEntity
  8
0
100
AcDbBlockBegin
  2
*D16
 70
     1
 71
     0
 10
0.0
 20
0.0
 30
0.0
  3
*D16
  1

  0
LINE
  5
200
330
1FF
100
AcDbEntity
  8
LC-001-100-D00-0
 62
     2
370
    -2
100
AcDbLine
 10
129.695441
 20
103.166216
 30
0.0
 11
214.971521
 21
103.166216
 31
0.0
  0
LINE
  5
201
330
1FF
100
AcDbEntity
  8
LC-001-100-D00-0
 62
     2
370
    -2
100
AcDbLine
 10
129.695441
 20
101.666216
 30
0.0
 11
214.971521
 21
101.666216
 31
0.0
  0
LINE
  5
202
330
1FF
100
AcDbEntity
  8
LC-001-100-D00-0
 62
     2
370
    -2
100
AcDbLine
 10
205.971521
 20
153.166216
 30
0.0
 11
205.971521
 21
203.166216
 31
0.0
  0
LINE
  5
203
330
1FF
100
AcDbEntity
  8
LC-001-100-D00-0
 62
     2
370
    -2
100
AcDbLine
 10
205.971521
 20
51.666216
 30
0.0
 11
205.971521
 21
51.554611
 31
0.0
  0
SOLID
  5
204
330
1FF
100
AcDbEntity
  8
LC-001-100-D00-0
 62
     2
100
AcDbTrace
 10
197.638188
 20
153.166216
 30
0.0
 11
214.304855
 21
153.166216
 31
0.0
 12
205.971521
 22
103.166216
 32
0.0
 13
205.971521
 23
103.166216
 33
0.0
  0
SOLID
  5
205
330
1FF
100
AcDbEntity
  8
LC-001-100-D00-0
 62
     2
100
AcDbTrace
 10
214.304855
 20
51.666216
 30
0.0
 11
197.638188
 21
51.666216
 31
0.0
 12
205.971521
 22
101.666216
 32
0.0
 13
205.971521
 23
101.666216
 33
0.0
  0
MTEXT
  5
206
330
1FF
100
AcDbEntity
  8
LC-001-100-D00-0
 62
     2
100
AcDbMText
 10
150.971521
 20
98.134293
 30
0.0
 40
50.0
 41
0.0
 71
     5
 72
     1
  1
\A1;1.5
  7
LCTX15-400-0-0pDIN-Schrift
 11
6.123031769111886E-17
 21
1.0
 31
0.0
 73
     1
 44
1.0
  0
POINT
  5
207
330
1FF
100
AcDbEntity
  8
Defpoints
 62
     0
100
AcDbPoint
 10
129.695441
 20
103.166216
 30
0.0
  0
POINT
  5
208
330
1FF
100
AcDbEntity
  8
Defpoints
 62
     0
100
AcDbPoint
 10
129.695441
 20
101.666216
 30
0.0
  0
POINT
  5
209
330
1FF
100
AcDbEntity
  8
Defpoints
 62
     0
100
AcDbPoint
 10
205.971521
 20
101.666216
 30
0.0
  0
ENDBLK
  5
20B
330
1FF
100
AcDbEntity
  8
0
100
AcDbBlockEnd
  0
BLOCK
  5
218
330
20D
100
AcDbEntity
  8
0
100
AcDbBlockBegin
  2
*D17
 70
     1
 71
     0
 10
0.0
 20
0.0
 30
0.0
  3
*D17
  1

  0
LINE
  5
20E
330
20D
100
AcDbEntity
  8
LC-001-100-D00-0
 62
     2
370
    -2
100
AcDbLine
 10
129.695441
 20
101.666216
 30
0.0
 11
312.993231
 21
101.666216
 31
0.0
  0
LINE
  5
20F
330
20D
100
AcDbEntity
  8
LC-001-100-D00-0
 62
     2
370
    -2
100
AcDbLine
 10
82.195441
 20
83.166216
 30
0.0
 11
312.993231
 21
83.166216
 31
0.0
  0
LINE
  5
210
330
20D
100
AcDbEntity
  8
LC-001-100-D00-0
 62
     2
370
    -2
100
AcDbLine
 10
303.993231
 20
151.666216
 30
0.0
 11
303.993231
 21
201.666216
 31
0.0
  0
LINE
  5
211
330
20D
100
AcDbEntity
  8
LC-001-100-D00-0
 62
     2
370
    -2
100
AcDbLine
 10
303.993231
 20
33.166216
 30
0.0
 11
303.993231
 21
-23.923008
 31
0.0
  0
SOLID
  5
212
330
20D
100
AcDbEntity
  8
LC-001-100-D00-0
 62
     2
100
AcDbTrace
 10
295.659898
 20
151.666216
 30
0.0
 11
312.326565
 21
151.666216
 31
0.0
 12
303.993231
 22
101.666216
 32
0.0
 13
303.993231
 23
101.666216
 33
0.0
  0
SOLID
  5
213
330
20D
100
AcDbEntity
  8
LC-001-100-D00-0
 62
     2
100
AcDbTrace
 10
312.326565
 20
33.166216
 30
0.0
 11
295.659898
 21
33.166216
 31
0.0
 12
303.993231
 22
83.166216
 32
0.0
 13
303.993231
 23
83.166216
 33
0.0
  0
MTEXT
  5
214
330
20D
100
AcDbEntity
  8
LC-001-100-D00-0
 62
     2
100
AcDbMText
 10
248.993231
 20
41.704293
 30
0.0
 40
50.0
 41
0.0
 71
     5
 72
     1
  1
\A1;18,5
  7
LCTX15-400-0-0pDIN-Schrift
 11
6.123031769111886E-17
 21
1.0
 31
0.0
 73
     1
 44
1.0
  0
POINT
  5
215
330
20D
100
AcDbEntity
  8
Defpoints
 62
     0
100
AcDbPoint
 10
129.695441
 20
101.666216
 30
0.0
  0
POINT
  5
216
330
20D
100
AcDbEntity
  8
Defpoints
 62
     0
100
AcDbPoint
 10
82.195441
 20
83.166216
 30
0.0
  0
POINT
  5
217
330
20D
100
AcDbEntity
  8
Defpoints
 62
     0
100
AcDbPoint
 10
303.993231
 20
83.166216
 30
0.0
  0
ENDBLK
  5
219
330
20D
100
AcDbEntity
  8
0
100
AcDbBlockEnd
  0
BLOCK
  5
225
330
21B
100
AcDbEntity
  8
0
100
AcDbBlockBegin
  2
*D18
 70
     1
 71
     0
 10
0.0
 20
0.0
 30
0.0
  3
*D18
  1

  0
LINE
  5
21C
330
21B
100
AcDbEntity
  8
LC-001-100-D00-0
 62
     2
370
    -2
100
AcDbLine
 10
129.695441
 20
103.166216
 30
0.0
 11
367.163124
 21
103.166216
 31
0.0
  0
LINE
  5
21D
330
21B
100
AcDbEntity
  8
LC-001-100-D00-0
 62
     2
370
    -2
100
AcDbLine
 10
129.695441
 20
-20.333784
 30
0.0
 11
367.163124
 21
-20.333784
 31
0.0
  0
LINE
  5
21E
330
21B
100
AcDbEntity
  8
LC-001-100-D00-0
 62
     2
370
    -2
100
AcDbLine
 10
358.163124
 20
53.166216
 30
0.0
 11
358.163124
 21
29.666216
 31
0.0
  0
SOLID
  5
21F
330
21B
100
AcDbEntity
  8
LC-001-100-D00-0
 62
     2
100
AcDbTrace
 10
366.496457
 20
53.166216
 30
0.0
 11
349.82979
 21
53.166216
 31
0.0
 12
358.163124
 22
103.166216
 32
0.0
 13
358.163124
 23
103.166216
 33
0.0
  0
SOLID
  5
220
330
21B
100
AcDbEntity
  8
LC-001-100-D00-0
 62
     2
100
AcDbTrace
 10
349.82979
 20
29.666216
 30
0.0
 11
366.496457
 21
29.666216
 31
0.0
 12
358.163124
 22
-20.333784
 32
0.0
 13
358.163124
 23
-20.333784
 33
0.0
  0
MTEXT
  5
221
330
21B
100
AcDbEntity
  8
LC-001-100-D00-0
 62
     2
100
AcDbMText
 10
303.163124
 20
35.764293
 30
0.0
 40
50.0
 41
0.0
 71
     5
 72
     1
  1
\A1;123.5
  7
LCTX15-400-0-0pDIN-Schrift
 11
6.123031769111886E-17
 21
1.0
 31
0.0
 73
     1
 44
1.0
  0
POINT
  5
222
330
21B
100
AcDbEntity
  8
Defpoints
 62
     0
100
AcDbPoint
 10
129.695441
 20
103.166216
 30
0.0
  0
POINT
  5
223
330
21B
100
AcDbEntity
  8
Defpoints
 62
     0
100
AcDbPoint
 10
129.695441
 20
-20.333784
 30
0.0
  0
POINT
  5
224
330
21B
100
AcDbEntity
  8
Defpoints
 62
     0
100
AcDbPoint
 10
358.163124
 20
-20.333784
 30
0.0
  0
ENDBLK
  5
226
330
21B
100
AcDbEntity
  8
0
100
AcDbBlockEnd
  0
BLOCK
  5
389
330
388
100
AcDbEntity
  8
0
100
AcDbBlockBegin
  2
KLON15
 70
     0
 71
     0
 10
0.0
 20
0.0
 30
0.0
  3
KLON15
  1

  4
KLON15
  0
LINE
  5
38B
330
388
100
AcDbEntity
  8
LC-001-100-D00-0
 62
     7
370
    15
100
AcDbLine
 10
-141.304564
 20
334.946606
 30
0.0
 11
-141.307291
 21
334.946644
 31
0.0
  0
LINE
  5
38C
330
388
100
AcDbEntity
  8
LC-001-100-D00-0
 62
     7
370
    15
100
AcDbLine
 10
-141.307291
 20
334.946644
 30
0.0
 11
-141.311873
 21
334.946837
 31
0.0
  0
LINE
  5
38D
330
388
100
AcDbEntity
  8
LC-001-100-D00-0
 62
     7
370
    15
100
AcDbLine
 10
-141.311873
 20
334.946837
 30
0.0
 11
-141.320746
 21
334.947672
 31
0.0
  0
LINE
  5
38E
330
388
100
AcDbEntity
  8
LC-001-100-D00-0
 62
     7
370
    15
100
AcDbLine
 10
-141.320746
 20
334.947672
 30
0.0
 11
-141.323026
 21
334.947977
 31
0.0
  0
LINE
  5
38F
330
388
100
AcDbEntity
  8
LC-001-100-D00-0
 62
     7
370
    15
100
AcDbLine
 10
-141.323026
 20
334.947977
 30
0.0
 11
-141.3236
 21
334.948059
 31
0.0
  0
LINE
  5
390
330
388
100
AcDbEntity
  8
LC-001-100-D00-0
 62
     7
370
    15
100
AcDbLine
 10
-141.3236
 20
334.948059
 30
0.0
 11
-141.323742
 21
334.948082
 31
0.0
  0
LINE
  5
391
330
388
100
AcDbEntity
  8
LC-001-100-D00-0
 62
     7
370
    15
100
AcDbLine
 10
-141.323742
 20
334.948082
 30
0.0
 11
-141.442921
 21
334.997352
 31
0.0
  0
LINE
  5
392
330
388
100
AcDbEntity
  8
LC-001-100-D00-0
 62
     7
370
    15
100
AcDbLine
 10
-141.442921
 20
334.997352
 30
0.0
 11
-142.283525
 21
335.810248
 31
0.0
  0
LINE
  5
393
330
388
100
AcDbEntity
  8
LC-001-100-D00-0
 62
     7
370
    15
100
AcDbLine
 10
-142.283525
 20
335.810248
 30
0.0
 11
-143.372204
 21
337.135572
 31
0.0
  0
LINE
  5
394
330
388
100
AcDbEntity
  8
LC-001-100-D00-0
 62
     7
370
    15
100
AcDbLine
 10
-143.372204
 20
337.135572
 30
0.0
 11
-144.798066
 21
339.038734
 31
0.0
  0
LINE
  5
395
330
388
100
AcDbEntity
  8
LC-001-100-D00-0
 62
     7
370
    15
100
AcDbLine
 10
-144.798066
 20
339.038734
 30
0.0
 11
-146.850411
 21
342.004392
 31
0.0
  0
LINE
  5
396
330
388
100
AcDbEntity
  8
LC-001-100-D00-0
 62
     7
370
    15
100
AcDbLine
 10
-146.850411
 20
342.004392
 30
0.0
 11
-149.221081
 21
345.645722
 31
0.0
  0
LINE
  5
397
330
388
100
AcDbEntity
  8
LC-001-100-D00-0
 62
     7
370
    15
100
AcDbLine
 10
-149.221081
 20
345.645722
 30
0.0
 11
-149.329271
 21
345.812101
 31
0.0
  0
ENDBLK
  5
38A
330
388
100
AcDbEntity
  8
0
100
AcDbBlockEnd
  0
BLOCK
  5
39A
330
399
100
AcDbEntity
  8
0
100
AcDbBlockBegin
  2
KLON16
 70
     0
 71
     0
 10
0.0
 20
0.0
 30
0.0
  3
KLON16
  1

  4
KLON16
  0
LINE
  5
39C
330
399
100
AcDbEntity
  8
LC-001-100-D00-0
 62
     7
370
    15
100
AcDbLine
 10
-149.329271
 20
345.812101
 30
0.0
 11
-150.07088
 21
348.190654
 31
0.0
  0
LINE
  5
39D
330
399
100
AcDbEntity
  8
LC-001-100-D00-0
 62
     7
370
    15
100
AcDbLine
 10
-150.07088
 20
348.190654
 30
0.0
 11
-150.705617
 21
350.771081
 31
0.0
  0
LINE
  5
39E
330
399
100
AcDbEntity
  8
LC-001-100-D00-0
 62
     7
370
    15
100
AcDbLine
 10
-150.705617
 20
350.771081
 30
0.0
 11
-151.224826
 21
353.90326
 31
0.0
  0
LINE
  5
39F
330
399
100
AcDbEntity
  8
LC-001-100-D00-0
 62
     7
370
    15
100
AcDbLine
 10
-151.224826
 20
353.90326
 30
0.0
 11
-151.461665
 21
357.240137
 31
0.0
  0
LINE
  5
3A0
330
399
100
AcDbEntity
  8
LC-001-100-D00-0
 62
     7
370
    15
100
AcDbLine
 10
-151.461665
 20
357.240137
 30
0.0
 11
-151.370745
 21
360.509906
 31
0.0
  0
LINE
  5
3A1
330
399
100
AcDbEntity
  8
LC-001-100-D00-0
 62
     7
370
    15
100
AcDbLine
 10
-151.370745
 20
360.509906
 30
0.0
 11
-150.958929
 21
363.801282
 31
0.0
  0
LINE
  5
3A2
330
399
100
AcDbEntity
  8
LC-001-100-D00-0
 62
     7
370
    15
100
AcDbLine
 10
-150.958929
 20
363.801282
 30
0.0
 11
-150.315035
 21
366.794069
 31
0.0
  0
LINE
  5
3A3
330
399
100
AcDbEntity
  8
LC-001-100-D00-0
 62
     7
370
    15
100
AcDbLine
 10
-150.315035
 20
366.794069
 30
0.0
 11
-149.476405
 21
369.643998
 31
0.0
  0
LINE
  5
3A4
330
399
100
AcDbEntity
  8
LC-001-100-D00-0
 62
     7
370
    15
100
AcDbLine
 10
-149.476405
 20
369.643998
 30
0.0
 11
-148.408744
 21
372.555021
 31
0.0
  0
LINE
  5
3A5
330
399
100
AcDbEntity
  8
LC-001-100-D00-0
 62
     7
370
    15
100
AcDbLine
 10
-148.408744
 20
372.555021
 30
0.0
 11
-147.284869
 21
375.165127
 31
0.0
  0
LINE
  5
3A6
330
399
100
AcDbEntity
  8
LC-001-100-D00-0
 62
     7
370
    15
100
AcDbLine
 10
-147.284869
 20
375.165127
 30
0.0
 11
-146.136451
 21
377.541837
 31
0.0
  0
LINE
  5
3A7
330
399
100
AcDbEntity
  8
LC-001-100-D00-0
 62
     7
370
    15
100
AcDbLine
 10
-146.136451
 20
377.541837
 30
0.0
 11
-145.164635
 21
379.395951
 31
0.0
  0
LINE
  5
3A8
330
399
100
AcDbEntity
  8
LC-001-100-D00-0
 62
     7
370
    15
100
AcDbLine
 10
-145.164635
 20
379.395951
 30
0.0
 11
-144.622397
 21
380.382221
 31
0.0
  0
LINE
  5
3A9
330
399
100
AcDbEntity
  8
LC-001-100-D00-0
 62
     7
370
    15
100
AcDbLine
 10
-144.622397
 20
380.382221
 30
0.0
 11
-144.335698
 21
380.891748
 31
0.0
  0
LINE
  5
3AA
330
399
100
AcDbEntity
  8
LC-001-100-D00-0
 62
     7
370
    15
100
AcDbLine
 10
-144.335698
 20
380.891748
 30
0.0
 11
-144.304838
 21
380.946126
 31
0.0
  0
LINE
  5
3AB
330
399
100
AcDbEntity
  8
LC-001-100-D00-0
 62
     7
370
    15
100
AcDbLine
 10
-144.304838
 20
380.946126
 30
0.0
 11
-144.304562
 21
380.94661
 31
0.0
  0
ENDBLK
  5
39B
330
399
100
AcDbEntity
  8
0
100
AcDbBlockEnd
  0
BLOCK
  5
3B1
330
3B0
100
AcDbEntity
  8
0
100
AcDbBlockBegin
  2
KLON17
 70
     0
 71
     0
 10
0.0
 20
0.0
 30
0.0
  3
KLON17
  1

  4
KLON17
  0
LINE
  5
3B3
330
3B0
100
AcDbEntity
  8
LC-001-100-D00-0
 62
     7
370
    15
100
AcDbLine
 10
-149.987113
 20
344.446611
 30
0.0
 11
-149.980333
 21
344.460886
 31
0.0
  0
LINE
  5
3B4
330
3B0
100
AcDbEntity
  8
LC-001-100-D00-0
 62
     7
370
    15
100
AcDbLine
 10
-149.980333
 20
344.460886
 30
0.0
 11
-149.329271
 21
345.812101
 31
0.0
  0
ENDBLK
  5
3B2
330
3B0
100
AcDbEntity
  8
0
100
AcDbBlockEnd
  0
BLOCK
  5
4B6
330
4B5
100
AcDbEntity
  8
0
100
AcDbBlockBegin
  2
KLON18
 70
     0
 71
     0
 10
0.0
 20
0.0
 30
0.0
  3
KLON18
  1

  4
KLON18
  0
LINE
  5
4B8
330
4B5
100
AcDbEntity
  8
LC-001-100-D00-0
 62
     7
370
    15
100
AcDbLine
 10
67.60313
 20
413.114773
 30
0.0
 11
70.159424
 21
413.208069
 31
0.0
  0
LINE
  5
4B9
330
4B5
100
AcDbEntity
  8
LC-001-100-D00-0
 62
     7
370
    15
100
AcDbLine
 10
70.159424
 20
413.208069
 30
0.0
 11
72.305221
 21
413.286382
 31
0.0
  0
LINE
  5
4BA
330
4B5
100
AcDbEntity
  8
LC-001-100-D00-0
 62
     7
370
    15
100
AcDbLine
 10
72.305221
 20
413.286382
 30
0.0
 11
74.035365
 21
413.349526
 31
0.0
  0
LINE
  5
4BB
330
4B5
100
AcDbEntity
  8
LC-001-100-D00-0
 62
     7
370
    15
100
AcDbLine
 10
74.035365
 20
413.349526
 30
0.0
 11
75.345684
 21
413.397348
 31
0.0
  0
LINE
  5
4BC
330
4B5
100
AcDbEntity
  8
LC-001-100-D00-0
 62
     7
370
    15
100
AcDbLine
 10
75.345684
 20
413.397348
 30
0.0
 11
76.233108
 21
413.429735
 31
0.0
  0
LINE
  5
4BD
330
4B5
100
AcDbEntity
  8
LC-001-100-D00-0
 62
     7
370
    15
100
AcDbLine
 10
76.233108
 20
413.429735
 30
0.0
 11
76.695431
 21
413.446609
 31
0.0
  0
ENDBLK
  5
4B7
330
4B5
100
AcDbEntity
  8
0
100
AcDbBlockEnd
  0
BLOCK
  5
4C0
330
4BF
100
AcDbEntity
  8
0
100
AcDbBlockBegin
  2
KLON19
 70
     0
 71
     0
 10
0.0
 20
0.0
 30
0.0
  3
KLON19
  1

  4
KLON19
  0
LINE
  5
4C2
330
4BF
100
AcDbEntity
  8
LC-001-100-D00-0
 62
     7
370
    15
100
AcDbLine
 10
-498.212259
 20
413.114773
 30
0.0
 11
-500.768553
 21
413.208069
 31
0.0
  0
LINE
  5
4C3
330
4BF
100
AcDbEntity
  8
LC-001-100-D00-0
 62
     7
370
    15
100
AcDbLine
 10
-500.768553
 20
413.208069
 30
0.0
 11
-502.91435
 21
413.286382
 31
0.0
  0
LINE
  5
4C4
330
4BF
100
AcDbEntity
  8
LC-001-100-D00-0
 62
     7
370
    15
100
AcDbLine
 10
-502.91435
 20
413.286382
 30
0.0
 11
-504.644494
 21
413.349526
 31
0.0
  0
LINE
  5
4C5
330
4BF
100
AcDbEntity
  8
LC-001-100-D00-0
 62
     7
370
    15
100
AcDbLine
 10
-504.644494
 20
413.349526
 30
0.0
 11
-505.954813
 21
413.397348
 31
0.0
  0
LINE
  5
4C6
330
4BF
100
AcDbEntity
  8
LC-001-100-D00-0
 62
     7
370
    15
100
AcDbLine
 10
-505.954813
 20
413.397348
 30
0.0
 11
-506.842237
 21
413.429735
 31
0.0
  0
LINE
  5
4C7
330
4BF
100
AcDbEntity
  8
LC-001-100-D00-0
 62
     7
370
    15
100
AcDbLine
 10
-506.842237
 20
413.429735
 30
0.0
 11
-507.30456
 21
413.446609
 31
0.0
  0
ENDBLK
  5
4C1
330
4BF
100
AcDbEntity
  8
0
100
AcDbBlockEnd
  0
BLOCK
  5
4E3
330
4E2
100
AcDbEntity
  8
0
100
AcDbBlockBegin
  2
KLON20
 70
     0
 71
     0
 10
0.0
 20
0.0
 30
0.0
  3
KLON20
  1

  4
KLON20
  0
LINE
  5
4E5
330
4E2
100
AcDbEntity
  8
LC-001-100-D00-0
 62
     7
370
    15
100
AcDbLine
 10
-261.42418
 20
401.446607
 30
0.0
 11
-261.41065
 21
401.287902
 31
0.0
  0
LINE
  5
4E6
330
4E2
100
AcDbEntity
  8
LC-001-100-D00-0
 62
     7
370
    15
100
AcDbLine
 10
-261.41065
 20
401.287902
 30
0.0
 11
-261.248726
 21
400.703482
 31
0.0
  0
LINE
  5
4E7
330
4E2
100
AcDbEntity
  8
LC-001-100-D00-0
 62
     7
370
    15
100
AcDbLine
 10
-261.248726
 20
400.703482
 30
0.0
 11
-260.99886
 21
400.257178
 31
0.0
  0
LINE
  5
4E8
330
4E2
100
AcDbEntity
  8
LC-001-100-D00-0
 62
     7
370
    15
100
AcDbLine
 10
-260.99886
 20
400.257178
 30
0.0
 11
-260.68756
 21
399.998427
 31
0.0
  0
LINE
  5
4E9
330
4E2
100
AcDbEntity
  8
LC-001-100-D00-0
 62
     7
370
    15
100
AcDbLine
 10
-260.68756
 20
399.998427
 30
0.0
 11
-260.550067
 21
399.954669
 31
0.0
  0
ENDBLK
  5
4E4
330
4E2
100
AcDbEntity
  8
0
100
AcDbBlockEnd
  0
BLOCK
  5
4EC
330
4EB
100
AcDbEntity
  8
0
100
AcDbBlockBegin
  2
KLON21
 70
     0
 71
     0
 10
0.0
 20
0.0
 30
0.0
  3
KLON21
  1

  4
KLON21
  0
LINE
  5
4EE
330
4EB
100
AcDbEntity
  8
LC-001-100-D00-0
 62
     7
370
    15
100
AcDbLine
 10
76.668073
 20
414.946608
 30
0.0
 11
76.667387
 21
414.98459
 31
0.0
  0
LINE
  5
4EF
330
4EB
100
AcDbEntity
  8
LC-001-100-D00-0
 62
     7
370
    15
100
AcDbLine
 10
76.667387
 20
414.98459
 30
0.0
 11
76.665331
 21
415.097376
 31
0.0
  0
LINE
  5
4F0
330
4EB
100
AcDbEntity
  8
LC-001-100-D00-0
 62
     7
370
    15
100
AcDbLine
 10
76.665331
 20
415.097376
 30
0.0
 11
76.661963
 21
415.281546
 31
0.0
  0
LINE
  5
4F1
330
4EB
100
AcDbEntity
  8
LC-001-100-D00-0
 62
     7
370
    15
100
AcDbLine
 10
76.661963
 20
415.281546
 30
0.0
 11
76.657403
 21
415.531498
 31
0.0
  0
LINE
  5
4F2
330
4EB
100
AcDbEntity
  8
LC-001-100-D00-0
 62
     7
370
    15
100
AcDbLine
 10
76.657403
 20
415.531498
 30
0.0
 11
76.651771
 21
415.839641
 31
0.0
  0
LINE
  5
4F3
330
4EB
100
AcDbEntity
  8
LC-001-100-D00-0
 62
     7
370
    15
100
AcDbLine
 10
76.651771
 20
415.839641
 30
0.0
 11
76.645274
 21
416.196609
 31
0.0
  0
LINE
  5
4F4
330
4EB
100
AcDbEntity
  8
LC-001-100-D00-0
 62
     7
370
    15
100
AcDbLine
 10
76.645274
 20
416.196609
 30
0.0
 11
76.638062
 21
416.591559
 31
0.0
  0
LINE
  5
4F5
330
4EB
100
AcDbEntity
  8
LC-001-100-D00-0
 62
     7
370
    15
100
AcDbLine
 10
76.638062
 20
416.591559
 30
0.0
 11
76.630373
 21
417.012489
 31
0.0
  0
LINE
  5
4F6
330
4EB
100
AcDbEntity
  8
LC-001-100-D00-0
 62
     7
370
    15
100
AcDbLine
 10
76.630373
 20
417.012489
 30
0.0
 11
76.622475
 21
417.44661
 31
0.0
  0
ENDBLK
  5
4ED
330
4EB
100
AcDbEntity
  8
0
100
AcDbBlockEnd
  0
BLOCK
  5
4F9
330
4F8
100
AcDbEntity
  8
0
100
AcDbBlockBegin
  2
KLON22
 70
     0
 71
     0
 10
0.0
 20
0.0
 30
0.0
  3
KLON22
  1

  4
KLON22
  0
LINE
  5
4FB
330
4F8
100
AcDbEntity
  8
LC-001-100-D00-0
 62
     7
370
    15
100
AcDbLine
 10
-507.277202
 20
414.946608
 30
0.0
 11
-507.276516
 21
414.98459
 31
0.0
  0
LINE
  5
4FC
330
4F8
100
AcDbEntity
  8
LC-001-100-D00-0
 62
     7
370
    15
100
AcDbLine
 10
-507.276516
 20
414.98459
 30
0.0
 11
-507.27446
 21
415.097376
 31
0.0
  0
LINE
  5
4FD
330
4F8
100
AcDbEntity
  8
LC-001-100-D00-0
 62
     7
370
    15
100
AcDbLine
 10
-507.27446
 20
415.097376
 30
0.0
 11
-507.271092
 21
415.281546
 31
0.0
  0
LINE
  5
4FE
330
4F8
100
AcDbEntity
  8
LC-001-100-D00-0
 62
     7
370
    15
100
AcDbLine
 10
-507.271092
 20
415.281546
 30
0.0
 11
-507.266533
 21
415.531498
 31
0.0
  0
LINE
  5
4FF
330
4F8
100
AcDbEntity
  8
LC-001-100-D00-0
 62
     7
370
    15
100
AcDbLine
 10
-507.266533
 20
415.531498
 30
0.0
 11
-507.2609
 21
415.839641
 31
0.0
  0
LINE
  5
500
330
4F8
100
AcDbEntity
  8
LC-001-100-D00-0
 62
     7
370
    15
100
AcDbLine
 10
-507.2609
 20
415.839641
 30
0.0
 11
-507.254403
 21
416.196609
 31
0.0
  0
LINE
  5
501
330
4F8
100
AcDbEntity
  8
LC-001-100-D00-0
 62
     7
370
    15
100
AcDbLine
 10
-507.254403
 20
416.196609
 30
0.0
 11
-507.247191
 21
416.591559
 31
0.0
  0
LINE
  5
502
330
4F8
100
AcDbEntity
  8
LC-001-100-D00-0
 62
     7
370
    15
100
AcDbLine
 10
-507.247191
 20
416.591559
 30
0.0
 11
-507.239502
 21
417.012489
 31
0.0
  0
LINE
  5
503
330
4F8
100
AcDbEntity
  8
LC-001-100-D00-0
 62
     7
370
    15
100
AcDbLine
 10
-507.239502
 20
417.012489
 30
0.0
 11
-507.231604
 21
417.44661
 31
0.0
  0
ENDBLK
  5
4FA
330
4F8
100
AcDbEntity
  8
0
100
AcDbBlockEnd
  0
BLOCK
  5
520
330
514
100
AcDbEntity
  8
0
100
AcDbBlockBegin
  2
*D27
 70
     1
 71
     0
 10
0.0
 20
0.0
 30
0.0
  3
*D27
  1

  0
LINE
  5
515
330
514
100
AcDbEntity
  8
LC-001-100-D00-0
 62
     2
370
    -2
100
AcDbLine
 10
-565.304565
 20
435.446609
 30
0.0
 11
-606.469848
 21
435.446609
 31
0.0
  0
LINE
  5
516
330
514
100
AcDbEntity
  8
LC-001-100-D00-0
 62
     2
370
    -2
100
AcDbLine
 10
-560.304565
 20
481.446609
 30
0.0
 11
-606.469848
 21
481.446609
 31
0.0
  0
LINE
  5
517
330
514
100
AcDbEntity
  8
LC-001-100-D00-0
 62
     2
370
    -2
100
AcDbLine
 10
-597.469848
 20
385.446609
 30
0.0
 11
-597.469848
 21
335.446609
 31
0.0
  0
LINE
  5
518
330
514
100
AcDbEntity
  8
LC-001-100-D00-0
 62
     2
370
    -2
100
AcDbLine
 10
-597.469848
 20
531.446609
 30
0.0
 11
-597.469848
 21
581.446609
 31
0.0
  0
LINE
  5
519
330
514
100
AcDbEntity
  8
LC-001-100-D00-0
 62
     2
370
    -2
100
AcDbLine
 10
-597.469848
 20
435.446609
 30
0.0
 11
-597.469848
 21
481.446609
 31
0.0
  0
SOLID
  5
51A
330
514
100
AcDbEntity
  8
LC-001-100-D00-0
 62
     2
100
AcDbTrace
 10
-589.136515
 20
385.446609
 30
0.0
 11
-605.803182
 21
385.446609
 31
0.0
 12
-597.469848
 22
435.446609
 32
0.0
 13
-597.469848
 23
435.446609
 33
0.0
  0
SOLID
  5
51B
330
514
100
AcDbEntity
  8
LC-001-100-D00-0
 62
     2
100
AcDbTrace
 10
-605.803182
 20
531.446609
 30
0.0
 11
-589.136515
 21
531.446609
 31
0.0
 12
-597.469848
 22
481.446609
 32
0.0
 13
-597.469848
 23
481.446609
 33
0.0
  0
MTEXT
  5
51C
330
514
100
AcDbEntity
  8
LC-001-100-D00-0
 62
     2
100
AcDbMText
 10
-652.469848
 20
463.813238
 30
0.0
 40
50.0
 41
0.0
 71
     5
 72
     1
  1
\A1;46
  7
LCTX15-400-0-0pDIN-Schrift
 11
6.123031769111886E-17
 21
1.0
 31
0.0
 73
     1
 44
1.0
  0
POINT
  5
51D
330
514
100
AcDbEntity
  8
Defpoints
 62
     0
100
AcDbPoint
 10
-565.304565
 20
435.446609
 30
0.0
  0
POINT
  5
51E
330
514
100
AcDbEntity
  8
Defpoints
 62
     0
100
AcDbPoint
 10
-560.304565
 20
481.446609
 30
0.0
  0
POINT
  5
51F
330
514
100
AcDbEntity
  8
Defpoints
 62
     0
100
AcDbPoint
 10
-597.469848
 20
481.446609
 30
0.0
  0
ENDBLK
  5
521
330
514
100
AcDbEntity
  8
0
100
AcDbBlockEnd
  0
BLOCK
  5
52D
330
523
100
AcDbEntity
  8
0
100
AcDbBlockBegin
  2
*D28
 70
     1
 71
     0
 10
0.0
 20
0.0
 30
0.0
  3
*D28
  1

  0
LINE
  5
524
330
523
100
AcDbEntity
  8
LC-001-100-D00-0
 62
     2
370
    -2
100
AcDbLine
 10
-565.304565
 20
476.446609
 30
0.0
 11
-565.304565
 21
588.729293
 31
0.0
  0
LINE
  5
525
330
523
100
AcDbEntity
  8
LC-001-100-D00-0
 62
     2
370
    -2
100
AcDbLine
 10
134.695435
 20
476.446609
 30
0.0
 11
134.695435
 21
588.729293
 31
0.0
  0
LINE
  5
526
330
523
100
AcDbEntity
  8
LC-001-100-D00-0
 62
     2
370
    -2
100
AcDbLine
 10
-515.304565
 20
579.729293
 30
0.0
 11
84.695435
 21
579.729293
 31
0.0
  0
SOLID
  5
527
330
523
100
AcDbEntity
  8
LC-001-100-D00-0
 62
     2
100
AcDbTrace
 10
-515.304565
 20
588.062626
 30
0.0
 11
-515.304565
 21
571.39596
 31
0.0
 12
-565.304565
 22
579.729293
 32
0.0
 13
-565.304565
 23
579.729293
 33
0.0
  0
SOLID
  5
528
330
523
100
AcDbEntity
  8
LC-001-100-D00-0
 62
     2
100
AcDbTrace
 10
84.695435
 20
571.39596
 30
0.0
 11
84.695435
 21
588.062626
 31
0.0
 12
134.695435
 22
579.729293
 32
0.0
 13
134.695435
 23
579.729293
 33
0.0
  0
MTEXT
  5
529
330
523
100
AcDbEntity
  8
LC-001-100-D00-0
 62
     2
100
AcDbMText
 10
-219.649061
 20
634.729293
 30
0.0
 40
50.0
 41
0.0
 71
     5
 72
     1
  1
\A1;700
  7
LCTX15-400-0-0pDIN-Schrift
 73
     1
 44
1.0
  0
POINT
  5
52A
330
523
100
AcDbEntity
  8
Defpoints
 62
     0
100
AcDbPoint
 10
-565.304565
 20
476.446609
 30
0.0
  0
POINT
  5
52B
330
523
100
AcDbEntity
  8
Defpoints
 62
     0
100
AcDbPoint
 10
134.695435
 20
476.446609
 30
0.0
  0
POINT
  5
52C
330
523
100
AcDbEntity
  8
Defpoints
 62
     0
100
AcDbPoint
 10
134.695435
 20
579.729293
 30
0.0
  0
ENDBLK
  5
52E
330
523
100
AcDbEntity
  8
0
100
AcDbBlockEnd
  0
BLOCK
  5
53A
330
530
100
AcDbEntity
  8
0
100
AcDbBlockBegin
  2
*D29
 70
     1
 71
     0
 10
0.0
 20
0.0
 30
0.0
  3
*D29
  1

  0
LINE
  5
531
330
530
100
AcDbEntity
  8
LC-001-100-D00-0
 62
     2
370
    -2
100
AcDbLine
 10
-515.304565
 20
432.446609
 30
0.0
 11
-515.304565
 21
511.638386
 31
0.0
  0
LINE
  5
532
330
530
100
AcDbEntity
  8
LC-001-100-D00-0
 62
     2
370
    -2
100
AcDbLine
 10
84.695435
 20
432.446609
 30
0.0
 11
84.695435
 21
511.638386
 31
0.0
  0
LINE
  5
533
330
530
100
AcDbEntity
  8
LC-001-100-D00-0
 62
     2
370
    -2
100
AcDbLine
 10
-465.304565
 20
502.638386
 30
0.0
 11
34.695435
 21
502.638386
 31
0.0
  0
SOLID
  5
534
330
530
100
AcDbEntity
  8
LC-001-100-D00-0
 62
     2
100
AcDbTrace
 10
-465.304565
 20
510.97172
 30
0.0
 11
-465.304565
 21
494.305053
 31
0.0
 12
-515.304565
 22
502.638386
 32
0.0
 13
-515.304565
 23
502.638386
 33
0.0
  0
SOLID
  5
535
330
530
100
AcDbEntity
  8
LC-001-100-D00-0
 62
     2
100
AcDbTrace
 10
34.695435
 20
494.305053
 30
0.0
 11
34.695435
 21
510.97172
 31
0.0
 12
84.695435
 22
502.638386
 32
0.0
 13
84.695435
 23
502.638386
 33
0.0
  0
MTEXT
  5
536
330
530
100
AcDbEntity
  8
LC-001-100-D00-0
 62
     2
100
AcDbMText
 10
-221.685765
 20
557.638386
 30
0.0
 40
50.0
 41
0.0
 71
     5
 72
     1
  1
\A1;600
  7
LCTX15-400-0-0pDIN-Schrift
 73
     1
 44
1.0
  0
POINT
  5
537
330
530
100
AcDbEntity
  8
Defpoints
 62
     0
100
AcDbPoint
 10
-515.304565
 20
432.446609
 30
0.0
  0
POINT
  5
538
330
530
100
AcDbEntity
  8
Defpoints
 62
     0
100
AcDbPoint
 10
84.695435
 20
432.446609
 30
0.0
  0
POINT
  5
539
330
530
100
AcDbEntity
  8
Defpoints
 62
     0
100
AcDbPoint
 10
84.695435
 20
502.638386
 30
0.0
  0
ENDBLK
  5
53B
330
530
100
AcDbEntity
  8
0
100
AcDbBlockEnd
  0
BLOCK
  5
548
330
53D
100
AcDbEntity
  8
0
100
AcDbBlockBegin
  2
*D30
 70
     1
 71
     0
 10
0.0
 20
0.0
 30
0.0
  3
*D30
  1

  0
LINE
  5
53E
330
53D
100
AcDbEntity
  8
LC-001-100-D00-0
 62
     2
370
    -2
100
AcDbLine
 10
-244.304565
 20
343.546609
 30
0.0
 11
-393.738257
 21
343.546609
 31
0.0
  0
LINE
  5
53F
330
53D
100
AcDbEntity
  8
LC-001-100-D00-0
 62
     2
370
    -2
100
AcDbLine
 10
-254.797444
 20
393.946609
 30
0.0
 11
-393.738257
 21
393.946609
 31
0.0
  0
LINE
  5
540
330
53D
100
AcDbEntity
  8
LC-001-100-D00-0
 62
     2
370
    -2
100
AcDbLine
 10
-384.738257
 20
443.946609
 30
0.0
 11
-384.738257
 21
493.946609
 31
0.0
  0
LINE
  5
541
330
53D
100
AcDbEntity
  8
LC-001-100-D00-0
 62
     2
370
    -2
100
AcDbLine
 10
-384.738257
 20
293.546609
 30
0.0
 11
-384.738257
 21
267.413889
 31
0.0
  0
SOLID
  5
542
330
53D
100
AcDbEntity
  8
LC-001-100-D00-0
 62
     2
100
AcDbTrace
 10
-376.404924
 20
293.546609
 30
0.0
 11
-393.07159
 21
293.546609
 31
0.0
 12
-384.738257
 22
343.546609
 32
0.0
 13
-384.738257
 23
343.546609
 33
0.0
  0
SOLID
  5
543
330
53D
100
AcDbEntity
  8
LC-001-100-D00-0
 62
     2
100
AcDbTrace
 10
-393.07159
 20
443.946609
 30
0.0
 11
-376.404924
 21
443.946609
 31
0.0
 12
-384.738257
 22
393.946609
 32
0.0
 13
-384.738257
 23
393.946609
 33
0.0
  0
MTEXT
  5
544
330
53D
100
AcDbEntity
  8
LC-001-100-D00-0
 62
     2
100
AcDbMText
 10
-439.738257
 20
310.489293
 30
0.0
 40
50.0
 41
0.0
 71
     5
 72
     1
  1
\A1;50
  7
LCTX15-400-0-0pDIN-Schrift
 11
6.123031769111886E-17
 21
1.0
 31
0.0
 73
     1
 44
1.0
  0
POINT
  5
545
330
53D
100
AcDbEntity
  8
Defpoints
 62
     0
100
AcDbPoint
 10
-244.304565
 20
343.546609
 30
0.0
  0
POINT
  5
546
330
53D
100
AcDbEntity
  8
Defpoints
 62
     0
100
AcDbPoint
 10
-254.797444
 20
393.946609
 30
0.0
  0
POINT
  5
547
330
53D
100
AcDbEntity
  8
Defpoints
 62
     0
100
AcDbPoint
 10
-384.738257
 20
393.946609
 30
0.0
  0
ENDBLK
  5
549
330
53D
100
AcDbEntity
  8
0
100
AcDbBlockEnd
  0
BLOCK
  5
555
330
54B
100
AcDbEntity
  8
0
100
AcDbBlockBegin
  2
*D31
 70
     1
 71
     0
 10
0.0
 20
0.0
 30
0.0
  3
*D31
  1

  0
LINE
  5
54C
330
54B
100
AcDbEntity
  8
LC-001-100-D00-0
 62
     2
370
    -2
100
AcDbLine
 10
-289.304565
 20
344.446609
 30
0.0
 11
-289.304565
 21
237.634293
 31
0.0
  0
LINE
  5
54D
330
54B
100
AcDbEntity
  8
LC-001-100-D00-0
 62
     2
370
    -2
100
AcDbLine
 10
-141.304565
 20
384.696609
 30
0.0
 11
-141.304565
 21
237.634293
 31
0.0
  0
LINE
  5
54E
330
54B
100
AcDbEntity
  8
LC-001-100-D00-0
 62
     2
370
    -2
100
AcDbLine
 10
-239.304565
 20
246.634293
 30
0.0
 11
-191.304565
 21
246.634293
 31
0.0
  0
SOLID
  5
54F
330
54B
100
AcDbEntity
  8
LC-001-100-D00-0
 62
     2
100
AcDbTrace
 10
-239.304565
 20
254.967626
 30
0.0
 11
-239.304565
 21
238.30096
 31
0.0
 12
-289.304565
 22
246.634293
 32
0.0
 13
-289.304565
 23
246.634293
 33
0.0
  0
SOLID
  5
550
330
54B
100
AcDbEntity
  8
LC-001-100-D00-0
 62
     2
100
AcDbTrace
 10
-191.304565
 20
238.30096
 30
0.0
 11
-191.304565
 21
254.967626
 31
0.0
 12
-141.304565
 22
246.634293
 32
0.0
 13
-141.304565
 23
246.634293
 33
0.0
  0
MTEXT
  5
551
330
54B
100
AcDbEntity
  8
LC-001-100-D00-0
 62
     2
100
AcDbMText
 10
-219.649061
 20
301.634293
 30
0.0
 40
50.0
 41
0.0
 71
     5
 72
     1
  1
\A1;148
  7
LCTX15-400-0-0pDIN-Schrift
 73
     1
 44
1.0
  0
POINT
  5
552
330
54B
100
AcDbEntity
  8
Defpoints
 62
     0
100
AcDbPoint
 10
-289.304565
 20
344.446609
 30
0.0
  0
POINT
  5
553
330
54B
100
AcDbEntity
  8
Defpoints
 62
     0
100
AcDbPoint
 10
-141.304565
 20
384.696609
 30
0.0
  0
POINT
  5
554
330
54B
100
AcDbEntity
  8
Defpoints
 62
     0
100
AcDbPoint
 10
-141.304565
 20
246.634293
 30
0.0
  0
ENDBLK
  5
556
330
54B
100
AcDbEntity
  8
0
100
AcDbBlockEnd
  0
BLOCK
  5
564
330
558
100
AcDbEntity
  8
0
100
AcDbBlockBegin
  2
*D32
 70
     1
 71
     0
 10
0.0
 20
0.0
 30
0.0
  3
*D32
  1

  0
LINE
  5
559
330
558
100
AcDbEntity
  8
LC-001-100-D00-0
 62
     2
370
    -2
100
AcDbLine
 10
134.695435
 20
435.446609
 30
0.0
 11
174.822261
 21
435.446609
 31
0.0
  0
LINE
  5
55A
330
558
100
AcDbEntity
  8
LC-001-100-D00-0
 62
     2
370
    -2
100
AcDbLine
 10
0.695232
 20
357.946609
 30
0.0
 11
174.822261
 21
357.946609
 31
0.0
  0
LINE
  5
55B
330
558
100
AcDbEntity
  8
LC-001-100-D00-0
 62
     2
370
    -2
100
AcDbLine
 10
165.822261
 20
485.446609
 30
0.0
 11
165.822261
 21
535.446609
 31
0.0
  0
LINE
  5
55C
330
558
100
AcDbEntity
  8
LC-001-100-D00-0
 62
     2
370
    -2
100
AcDbLine
 10
165.822261
 20
307.946609
 30
0.0
 11
165.822261
 21
257.946609
 31
0.0
  0
LINE
  5
55D
330
558
100
AcDbEntity
  8
LC-001-100-D00-0
 62
     2
370
    -2
100
AcDbLine
 10
165.822261
 20
435.446609
 30
0.0
 11
165.822261
 21
357.946609
 31
0.0
  0
SOLID
  5
55E
330
558
100
AcDbEntity
  8
LC-001-100-D00-0
 62
     2
100
AcDbTrace
 10
157.488928
 20
485.446609
 30
0.0
 11
174.155594
 21
485.446609
 31
0.0
 12
165.822261
 22
435.446609
 32
0.0
 13
165.822261
 23
435.446609
 33
0.0
  0
SOLID
  5
55F
330
558
100
AcDbEntity
  8
LC-001-100-D00-0
 62
     2
100
AcDbTrace
 10
174.155594
 20
307.946609
 30
0.0
 11
157.488928
 21
307.946609
 31
0.0
 12
165.822261
 22
357.946609
 32
0.0
 13
165.822261
 23
357.946609
 33
0.0
  0
MTEXT
  5
560
330
558
100
AcDbEntity
  8
LC-001-100-D00-0
 62
     2
100
AcDbMText
 10
110.822261
 20
396.689703
 30
0.0
 40
50.0
 41
0.0
 71
     5
 72
     1
  1
\A1;77.5
  7
LCTX15-400-0-0pDIN-Schrift
 11
6.123031769111886E-17
 21
1.0
 31
0.0
 73
     1
 44
1.0
  0
POINT
  5
561
330
558
100
AcDbEntity
  8
Defpoints
 62
     0
100
AcDbPoint
 10
134.695435
 20
435.446609
 30
0.0
  0
POINT
  5
562
330
558
100
AcDbEntity
  8
Defpoints
 62
     0
100
AcDbPoint
 10
0.695232
 20
357.946609
 30
0.0
  0
POINT
  5
563
330
558
100
AcDbEntity
  8
Defpoints
 62
     0
100
AcDbPoint
 10
165.822261
 20
357.946609
 30
0.0
  0
ENDBLK
  5
565
330
558
100
AcDbEntity
  8
0
100
AcDbBlockEnd
  0
BLOCK
  5
573
330
567
100
AcDbEntity
  8
0
100
AcDbBlockBegin
  2
*D33
 70
     1
 71
     0
 10
0.0
 20
0.0
 30
0.0
  3
*D33
  1

  0
LINE
  5
568
330
567
100
AcDbEntity
  8
LC-001-100-D00-0
 62
     2
370
    -2
100
AcDbLine
 10
134.695435
 20
435.446609
 30
0.0
 11
248.610044
 21
435.446609
 31
0.0
  0
LINE
  5
569
330
567
100
AcDbEntity
  8
LC-001-100-D00-0
 62
     2
370
    -2
100
AcDbLine
 10
-161.286685
 20
325.446609
 30
0.0
 11
248.610044
 21
325.446609
 31
0.0
  0
LINE
  5
56A
330
567
100
AcDbEntity
  8
LC-001-100-D00-0
 62
     2
370
    -2
100
AcDbLine
 10
239.610044
 20
485.446609
 30
0.0
 11
239.610044
 21
535.446609
 31
0.0
  0
LINE
  5
56B
330
567
100
AcDbEntity
  8
LC-001-100-D00-0
 62
     2
370
    -2
100
AcDbLine
 10
239.610044
 20
275.446609
 30
0.0
 11
239.610044
 21
225.446609
 31
0.0
  0
LINE
  5
56C
330
567
100
AcDbEntity
  8
LC-001-100-D00-0
 62
     2
370
    -2
100
AcDbLine
 10
239.610044
 20
435.446609
 30
0.0
 11
239.610044
 21
325.446609
 31
0.0
  0
SOLID
  5
56D
330
567
100
AcDbEntity
  8
LC-001-100-D00-0
 62
     2
100
AcDbTrace
 10
231.276711
 20
485.446609
 30
0.0
 11
247.943377
 21
485.446609
 31
0.0
 12
239.610044
 22
435.446609
 32
0.0
 13
239.610044
 23
435.446609
 33
0.0
  0
SOLID
  5
56E
330
567
100
AcDbEntity
  8
LC-001-100-D00-0
 62
     2
100
AcDbTrace
 10
247.943377
 20
275.446609
 30
0.0
 11
231.276711
 21
275.446609
 31
0.0
 12
239.610044
 22
325.446609
 32
0.0
 13
239.610044
 23
325.446609
 33
0.0
  0
MTEXT
  5
56F
330
567
100
AcDbEntity
  8
LC-001-100-D00-0
 62
     2
100
AcDbMText
 10
184.610044
 20
393.757738
 30
0.0
 40
50.0
 41
0.0
 71
     5
 72
     1
  1
\A1;110
  7
LCTX15-400-0-0pDIN-Schrift
 11
6.123031769111886E-17
 21
1.0
 31
0.0
 73
     1
 44
1.0
  0
POINT
  5
570
330
567
100
AcDbEntity
  8
Defpoints
 62
     0
100
AcDbPoint
 10
134.695435
 20
435.446609
 30
0.0
  0
POINT
  5
571
330
567
100
AcDbEntity
  8
Defpoints
 62
     0
100
AcDbPoint
 10
-161.286685
 20
325.446609
 30
0.0
  0
POINT
  5
572
330
567
100
AcDbEntity
  8
Defpoints
 62
     0
100
AcDbPoint
 10
239.610044
 20
325.446609
 30
0.0
  0
ENDBLK
  5
574
330
567
100
AcDbEntity
  8
0
100
AcDbBlockEnd
  0
BLOCK
  5
576
330
575
100
AcDbEntity
  8
0
100
AcDbBlockBegin
  2
KLON23
 70
     0
 71
     0
 10
0.0
 20
0.0
 30
0.0
  3
KLON23
  1

  4
KLON23
  0
LINE
  5
578
330
575
100
AcDbEntity
  8
LC-001-100-D00-0
 62
     7
370
    25
100
AcDbLine
 10
-187.804565
 20
347.977057
 30
0.0
 11
-186.304565
 21
349.477057
 31
0.0
  0
LINE
  5
579
330
575
100
AcDbEntity
  8
LC-001-100-D00-0
 62
     7
370
    25
100
AcDbLine
 10
-187.804565
 20
370.427698
 30
0.0
 11
-186.304565
 21
371.927698
 31
0.0
  0
LINE
  5
57A
330
575
100
AcDbEntity
  8
LC-001-100-D00-0
 62
     7
370
    25
100
AcDbLine
 10
-187.804565
 20
392.878339
 30
0.0
 11
-186.256443
 21
394.42646
 31
0.0
  0
LINE
  5
57B
330
575
100
AcDbEntity
  8
LC-001-100-D00-0
 62
     7
370
    25
100
AcDbLine
 10
-177.284417
 20
403.398488
 30
0.0
 11
-171.236296
 21
409.446609
 31
0.0
  0
ENDBLK
  5
577
330
575
100
AcDbEntity
  8
0
100
AcDbBlockEnd
  0
BLOCK
  5
57E
330
57D
100
AcDbEntity
  8
0
100
AcDbBlockBegin
  2
KLON24
 70
     0
 71
     0
 10
0.0
 20
0.0
 30
0.0
  3
KLON24
  1

  4
KLON24
  0
LINE
  5
580
330
57D
100
AcDbEntity
  8
LC-001-100-D00-0
 62
     7
370
    25
100
AcDbLine
 10
-244.304565
 20
358.828976
 30
0.0
 11
-242.804565
 21
360.328976
 31
0.0
  0
LINE
  5
581
330
57D
100
AcDbEntity
  8
LC-001-100-D00-0
 62
     7
370
    25
100
AcDbLine
 10
-244.304565
 20
381.279617
 30
0.0
 11
-242.804565
 21
382.779617
 31
0.0
  0
LINE
  5
582
330
57D
100
AcDbEntity
  8
LC-001-100-D00-0
 62
     7
370
    25
100
AcDbLine
 10
-247.376744
 20
400.658079
 30
0.0
 11
-242.804565
 21
405.230258
 31
0.0
  0
LINE
  5
583
330
57D
100
AcDbEntity
  8
LC-001-100-D00-0
 62
     7
370
    25
100
AcDbLine
 10
-267.038853
 20
403.446609
 30
0.0
 11
-261.038854
 21
409.446609
 31
0.0
  0
ENDBLK
  5
57F
330
57D
100
AcDbEntity
  8
0
100
AcDbBlockEnd
  0
BLOCK
  5
587
330
586
100
AcDbEntity
  8
0
100
AcDbBlockBegin
  2
KLON25
 70
     0
 71
     0
 10
0.0
 20
0.0
 30
0.0
  3
KLON25
  1

  4
KLON25
  0
LINE
  5
589
330
586
100
AcDbEntity
  8
LC-001-100-D00-0
 62
     7
370
    25
100
AcDbLine
 10
-144.304565
 20
391.47706
 30
0.0
 11
-141.304565
 21
394.47706
 31
0.0
  0
LINE
  5
58A
330
586
100
AcDbEntity
  8
LC-001-100-D00-0
 62
     7
370
    25
100
AcDbLine
 10
-150.304565
 20
407.927701
 30
0.0
 11
-149.785656
 21
408.446609
 31
0.0
  0
ENDBLK
  5
588
330
586
100
AcDbEntity
  8
0
100
AcDbBlockEnd
  0
BLOCK
  5
58E
330
58D
100
AcDbEntity
  8
0
100
AcDbBlockBegin
  2
KLON26
 70
     0
 71
     0
 10
0.0
 20
0.0
 30
0.0
  3
KLON26
  1

  4
KLON26
  0
LINE
  5
590
330
58D
100
AcDbEntity
  8
LC-001-100-D00-0
 62
     7
370
    25
100
AcDbLine
 10
-117.27895
 20
328.700112
 30
0.0
 11
-111.032454
 21
334.946609
 31
0.0
  0
LINE
  5
591
330
58D
100
AcDbEntity
  8
LC-001-100-D00-0
 62
     7
370
    25
100
AcDbLine
 10
-136.483093
 20
331.946609
 30
0.0
 11
-133.483093
 21
334.946609
 31
0.0
  0
LINE
  5
592
330
58D
100
AcDbEntity
  8
LC-001-100-D00-0
 62
     7
370
    25
100
AcDbLine
 10
-165.433732
 20
325.446609
 30
0.0
 11
-162.433732
 21
328.446609
 31
0.0
  0
LINE
  5
593
330
58D
100
AcDbEntity
  8
LC-001-100-D00-0
 62
     7
370
    25
100
AcDbLine
 10
-157.304565
 20
333.575777
 30
0.0
 11
-155.933733
 21
334.946609
 31
0.0
  0
LINE
  5
594
330
58D
100
AcDbEntity
  8
LC-001-100-D00-0
 62
     7
370
    25
100
AcDbLine
 10
-187.884371
 20
325.446609
 30
0.0
 11
-184.884372
 21
328.446609
 31
0.0
  0
LINE
  5
595
330
58D
100
AcDbEntity
  8
LC-001-100-D00-0
 62
     7
370
    25
100
AcDbLine
 10
-210.335011
 20
325.446609
 30
0.0
 11
-207.335011
 21
328.446609
 31
0.0
  0
LINE
  5
596
330
58D
100
AcDbEntity
  8
LC-001-100-D00-0
 62
     7
370
    25
100
AcDbLine
 10
-232.78565
 20
325.446609
 30
0.0
 11
-229.785651
 21
328.446609
 31
0.0
  0
LINE
  5
597
330
58D
100
AcDbEntity
  8
LC-001-100-D00-0
 62
     7
370
    25
100
AcDbLine
 10
-255.23629
 20
325.446609
 30
0.0
 11
-252.23629
 21
328.446609
 31
0.0
  0
LINE
  5
598
330
58D
100
AcDbEntity
  8
LC-001-100-D00-0
 62
     7
370
    25
100
AcDbLine
 10
-274.907191
 20
328.226347
 30
0.0
 11
-272.738422
 21
330.395116
 31
0.0
  0
LINE
  5
599
330
58D
100
AcDbEntity
  8
LC-001-100-D00-0
 62
     7
370
    25
100
AcDbLine
 10
-287.540272
 20
338.043907
 30
0.0
 11
-285.329626
 21
340.254553
 31
0.0
  0
LINE
  5
59A
330
58D
100
AcDbEntity
  8
LC-001-100-D00-0
 62
     7
370
    25
100
AcDbLine
 10
-289.304565
 20
358.730255
 30
0.0
 11
-286.304565
 21
361.730255
 31
0.0
  0
LINE
  5
59B
330
58D
100
AcDbEntity
  8
LC-001-100-D00-0
 62
     7
370
    25
100
AcDbLine
 10
-289.304565
 20
381.180896
 30
0.0
 11
-286.304565
 21
384.180896
 31
0.0
  0
ENDBLK
  5
58F
330
58D
100
AcDbEntity
  8
0
100
AcDbBlockEnd
  0
BLOCK
  5
59E
330
59D
100
AcDbEntity
  8
0
100
AcDbBlockBegin
  2
KLON27
 70
     0
 71
     0
 10
0.0
 20
0.0
 30
0.0
  3
KLON27
  1

  4
KLON27
  0
LINE
  5
5A0
330
59D
100
AcDbEntity
  8
LC-001-100-D00-0
 62
     7
370
    25
100
AcDbLine
 10
-109.933736
 20
380.946609
 30
0.0
 11
-106.306579
 21
384.573766
 31
0.0
  0
LINE
  5
5A1
330
59D
100
AcDbEntity
  8
LC-001-100-D00-0
 62
     7
370
    25
100
AcDbLine
 10
-132.384375
 20
380.946609
 30
0.0
 11
-127.884376
 21
385.446609
 31
0.0
  0
ENDBLK
  5
59F
330
59D
100
AcDbEntity
  8
0
100
AcDbBlockEnd
  0
BLOCK
  5
5A4
330
5A3
100
AcDbEntity
  8
0
100
AcDbBlockBegin
  2
KLON28
 70
     0
 71
     0
 10
0.0
 20
0.0
 30
0.0
  3
KLON28
  1

  4
KLON28
  0
LINE
  5
5A6
330
5A3
100
AcDbEntity
  8
LC-001-100-D00-0
 62
     7
370
    25
100
AcDbLine
 10
-185.384372
 20
327.946609
 30
0.0
 11
-183.884372
 21
329.446609
 31
0.0
  0
LINE
  5
5A7
330
5A3
100
AcDbEntity
  8
LC-001-100-D00-0
 62
     7
370
    25
100
AcDbLine
 10
-175.804565
 20
337.526417
 30
0.0
 11
-174.304565
 21
339.026417
 31
0.0
  0
LINE
  5
5A8
330
5A3
100
AcDbEntity
  8
LC-001-100-D00-0
 62
     7
370
    25
100
AcDbLine
 10
-207.835011
 20
327.946609
 30
0.0
 11
-206.335011
 21
329.446609
 31
0.0
  0
LINE
  5
5A9
330
5A3
100
AcDbEntity
  8
LC-001-100-D00-0
 62
     7
370
    25
100
AcDbLine
 10
-175.804565
 20
359.977058
 30
0.0
 11
-174.304565
 21
361.477058
 31
0.0
  0
LINE
  5
5AA
330
5A3
100
AcDbEntity
  8
LC-001-100-D00-0
 62
     7
370
    25
100
AcDbLine
 10
-230.285651
 20
327.946609
 30
0.0
 11
-228.785651
 21
329.446609
 31
0.0
  0
LINE
  5
5AB
330
5A3
100
AcDbEntity
  8
LC-001-100-D00-0
 62
     7
370
    25
100
AcDbLine
 10
-175.804565
 20
382.427699
 30
0.0
 11
-174.304565
 21
383.927699
 31
0.0
  0
LINE
  5
5AC
330
5A3
100
AcDbEntity
  8
LC-001-100-D00-0
 62
     7
370
    25
100
AcDbLine
 10
-252.57278
 20
328.110119
 30
0.0
 11
-251.23629
 21
329.446609
 31
0.0
  0
LINE
  5
5AD
330
5A3
100
AcDbEntity
  8
LC-001-100-D00-0
 62
     7
370
    25
100
AcDbLine
 10
-256.304565
 20
346.828975
 30
0.0
 11
-254.804565
 21
348.328975
 31
0.0
  0
LINE
  5
5AE
330
5A3
100
AcDbEntity
  8
LC-001-100-D00-0
 62
     7
370
    25
100
AcDbLine
 10
-256.304565
 20
369.279616
 30
0.0
 11
-254.804565
 21
370.779616
 31
0.0
  0
LINE
  5
5AF
330
5A3
100
AcDbEntity
  8
LC-001-100-D00-0
 62
     7
370
    25
100
AcDbLine
 10
-256.304565
 20
391.730257
 30
0.0
 11
-254.804565
 21
393.230258
 31
0.0
  0
LINE
  5
5B0
330
5A3
100
AcDbEntity
  8
LC-001-100-D00-0
 62
     7
370
    25
100
AcDbLine
 10
-269.038853
 20
401.446609
 30
0.0
 11
-267.038853
 21
403.446609
 31
0.0
  0
ENDBLK
  5
5A5
330
5A3
100
AcDbEntity
  8
0
100
AcDbBlockEnd
  0
BLOCK
  5
5B4
330
5B3
100
AcDbEntity
  8
0
100
AcDbBlockBegin
  2
KLON29
 70
     0
 71
     0
 10
0.0
 20
0.0
 30
0.0
  3
KLON29
  1

  4
KLON29
  0
LINE
  5
5B6
330
5B3
100
AcDbEntity
  8
LC-001-100-D00-0
 62
     7
370
    25
100
AcDbLine
 10
122.671376
 20
433.946609
 30
0.0
 11
124.171376
 21
435.446609
 31
0.0
  0
LINE
  5
5B7
330
5B3
100
AcDbEntity
  8
LC-001-100-D00-0
 62
     7
370
    25
100
AcDbLine
 10
80.528231
 20
414.254102
 30
0.0
 11
85.387943
 21
419.113814
 31
0.0
  0
LINE
  5
5B8
330
5B3
100
AcDbEntity
  8
LC-001-100-D00-0
 62
     7
370
    25
100
AcDbLine
 10
100.220737
 20
433.946609
 30
0.0
 11
101.720736
 21
435.446609
 31
0.0
  0
LINE
  5
5B9
330
5B3
100
AcDbEntity
  8
LC-001-100-D00-0
 62
     7
370
    25
100
AcDbLine
 10
57.270099
 20
413.446609
 30
0.0
 11
59.195435
 21
415.371946
 31
0.0
  0
LINE
  5
5BA
330
5B3
100
AcDbEntity
  8
LC-001-100-D00-0
 62
     7
370
    25
100
AcDbLine
 10
34.819459
 20
413.446609
 30
0.0
 11
36.319459
 21
414.946609
 31
0.0
  0
LINE
  5
5BB
330
5B3
100
AcDbEntity
  8
LC-001-100-D00-0
 62
     7
370
    25
100
AcDbLine
 10
50.695435
 20
429.322586
 30
0.0
 11
56.319457
 21
434.946609
 31
0.0
  0
LINE
  5
5BC
330
5B3
100
AcDbEntity
  8
LC-001-100-D00-0
 62
     7
370
    25
100
AcDbLine
 10
12.36882
 20
413.446609
 30
0.0
 11
13.868819
 21
414.946609
 31
0.0
  0
LINE
  5
5BD
330
5B3
100
AcDbEntity
  8
LC-001-100-D00-0
 62
     7
370
    25
100
AcDbLine
 10
-10.08182
 20
413.446609
 30
0.0
 11
-8.58182
 21
414.946609
 31
0.0
  0
LINE
  5
5BE
330
5B3
100
AcDbEntity
  8
LC-001-100-D00-0
 62
     7
370
    25
100
AcDbLine
 10
-32.532459
 20
413.446609
 30
0.0
 11
-31.032459
 21
414.946609
 31
0.0
  0
LINE
  5
5BF
330
5B3
100
AcDbEntity
  8
LC-001-100-D00-0
 62
     7
370
    25
100
AcDbLine
 10
-54.983099
 20
413.446609
 30
0.0
 11
-53.483099
 21
414.946609
 31
0.0
  0
LINE
  5
5C0
330
5B3
100
AcDbEntity
  8
LC-001-100-D00-0
 62
     7
370
    25
100
AcDbLine
 10
-77.433738
 20
413.446609
 30
0.0
 11
-75.933738
 21
414.946609
 31
0.0
  0
LINE
  5
5C1
330
5B3
100
AcDbEntity
  8
LC-001-100-D00-0
 62
     7
370
    25
100
AcDbLine
 10
-99.884378
 20
413.446609
 30
0.0
 11
-98.384378
 21
414.946609
 31
0.0
  0
LINE
  5
5C2
330
5B3
100
AcDbEntity
  8
LC-001-100-D00-0
 62
     7
370
    25
100
AcDbLine
 10
-122.587833
 20
413.193793
 30
0.0
 11
-120.835017
 21
414.946609
 31
0.0
  0
LINE
  5
5C3
330
5B3
100
AcDbEntity
  8
LC-001-100-D00-0
 62
     7
370
    25
100
AcDbLine
 10
-119.804565
 20
415.977062
 30
0.0
 11
-119.435018
 21
416.346609
 31
0.0
  0
LINE
  5
5C4
330
5B3
100
AcDbEntity
  8
LC-001-100-D00-0
 62
     7
370
    25
100
AcDbLine
 10
-118.649353
 20
417.132273
 30
0.0
 11
-111.304565
 21
424.477062
 31
0.0
  0
LINE
  5
5C5
330
5B3
100
AcDbEntity
  8
LC-001-100-D00-0
 62
     7
370
    25
100
AcDbLine
 10
-149.785656
 20
408.446609
 30
0.0
 11
-148.285657
 21
409.946609
 31
0.0
  0
ENDBLK
  5
5B5
330
5B3
100
AcDbEntity
  8
0
100
AcDbBlockEnd
  0
BLOCK
  5
5C8
330
5C7
100
AcDbEntity
  8
0
100
AcDbBlockBegin
  2
KLON30
 70
     0
 71
     0
 10
0.0
 20
0.0
 30
0.0
  3
KLON30
  1

  4
KLON30
  0
LINE
  5
5CA
330
5C7
100
AcDbEntity
  8
LC-001-100-D00-0
 62
     7
370
    25
100
AcDbLine
 10
-284.489493
 20
408.446609
 30
0.0
 11
-283.089493
 21
409.846609
 31
0.0
  0
LINE
  5
5CB
330
5C7
100
AcDbEntity
  8
LC-001-100-D00-0
 62
     7
370
    25
100
AcDbLine
 10
-303.424624
 20
411.962118
 30
0.0
 11
-302.199879
 21
413.186863
 31
0.0
  0
LINE
  5
5CC
330
5C7
100
AcDbEntity
  8
LC-001-100-D00-0
 62
     7
370
    25
100
AcDbLine
 10
-324.390773
 20
413.446609
 30
0.0
 11
-322.890773
 21
414.946609
 31
0.0
  0
LINE
  5
5CD
330
5C7
100
AcDbEntity
  8
LC-001-100-D00-0
 62
     7
370
    25
100
AcDbLine
 10
-318.882606
 20
418.954776
 30
0.0
 11
-311.304565
 21
426.532818
 31
0.0
  0
LINE
  5
5CE
330
5C7
100
AcDbEntity
  8
LC-001-100-D00-0
 62
     7
370
    25
100
AcDbLine
 10
-346.841412
 20
413.446609
 30
0.0
 11
-345.341412
 21
414.946609
 31
0.0
  0
LINE
  5
5CF
330
5C7
100
AcDbEntity
  8
LC-001-100-D00-0
 62
     7
370
    25
100
AcDbLine
 10
-369.292052
 20
413.446609
 30
0.0
 11
-367.792052
 21
414.946609
 31
0.0
  0
LINE
  5
5D0
330
5C7
100
AcDbEntity
  8
LC-001-100-D00-0
 62
     7
370
    25
100
AcDbLine
 10
-391.742691
 20
413.446609
 30
0.0
 11
-390.242691
 21
414.946609
 31
0.0
  0
LINE
  5
5D1
330
5C7
100
AcDbEntity
  8
LC-001-100-D00-0
 62
     7
370
    25
100
AcDbLine
 10
-414.193331
 20
413.446609
 30
0.0
 11
-412.693331
 21
414.946609
 31
0.0
  0
LINE
  5
5D2
330
5C7
100
AcDbEntity
  8
LC-001-100-D00-0
 62
     7
370
    25
100
AcDbLine
 10
-436.64397
 20
413.446609
 30
0.0
 11
-435.14397
 21
414.946609
 31
0.0
  0
LINE
  5
5D3
330
5C7
100
AcDbEntity
  8
LC-001-100-D00-0
 62
     7
370
    25
100
AcDbLine
 10
-459.09461
 20
413.446609
 30
0.0
 11
-457.59461
 21
414.946609
 31
0.0
  0
LINE
  5
5D4
330
5C7
100
AcDbEntity
  8
LC-001-100-D00-0
 62
     7
370
    25
100
AcDbLine
 10
-481.545249
 20
413.446609
 30
0.0
 11
-480.045249
 21
414.946609
 31
0.0
  0
LINE
  5
5D5
330
5C7
100
AcDbEntity
  8
LC-001-100-D00-0
 62
     7
370
    25
100
AcDbLine
 10
-503.995888
 20
413.446609
 30
0.0
 11
-502.495889
 21
414.946609
 31
0.0
  0
LINE
  5
5D6
330
5C7
100
AcDbEntity
  8
LC-001-100-D00-0
 62
     7
370
    25
100
AcDbLine
 10
-489.304565
 20
428.137934
 30
0.0
 11
-482.49589
 21
434.946609
 31
0.0
  0
LINE
  5
5D7
330
5C7
100
AcDbEntity
  8
LC-001-100-D00-0
 62
     7
370
    25
100
AcDbLine
 10
-516.804565
 20
423.088573
 30
0.0
 11
-515.304565
 21
424.588573
 31
0.0
  0
LINE
  5
5D8
330
5C7
100
AcDbEntity
  8
LC-001-100-D00-0
 62
     7
370
    25
100
AcDbLine
 10
-528.397169
 20
433.946609
 30
0.0
 11
-526.897169
 21
435.446609
 31
0.0
  0
LINE
  5
5D9
330
5C7
100
AcDbEntity
  8
LC-001-100-D00-0
 62
     7
370
    25
100
AcDbLine
 10
-550.847808
 20
433.946609
 30
0.0
 11
-549.347809
 21
435.446609
 31
0.0
  0
ENDBLK
  5
5C9
330
5C7
100
AcDbEntity
  8
0
100
AcDbBlockEnd
  0
BLOCK
  5
5E0
330
5DF
100
AcDbEntity
  8
0
100
AcDbBlockBegin
  2
KLON31
 70
     0
 71
     0
 10
0.0
 20
0.0
 30
0.0
  3
KLON31
  1

  4
KLON31
  0
LINE
  5
5E2
330
5DF
100
AcDbEntity
  8
LC-001-100-D00-0
 62
     7
370
    25
100
AcDbLine
 10
61.046288
 20
417.222799
 30
0.0
 11
64.445435
 21
420.621946
 31
0.0
  0
LINE
  5
5E3
330
5DF
100
AcDbEntity
  8
LC-001-100-D00-0
 62
     7
370
    25
100
AcDbLine
 10
72.270097
 20
428.446609
 30
0.0
 11
72.945435
 21
429.121947
 31
0.0
  0
ENDBLK
  5
5E1
330
5DF
100
AcDbEntity
  8
0
100
AcDbBlockEnd
  0
BLOCK
  5
5E7
330
5E6
100
AcDbEntity
  8
0
100
AcDbBlockBegin
  2
KLON32
 70
     0
 71
     0
 10
0.0
 20
0.0
 30
0.0
  3
KLON32
  1

  4
KLON32
  0
LINE
  5
5E9
330
5E6
100
AcDbEntity
  8
LC-001-100-D00-0
 62
     7
370
    25
100
AcDbLine
 10
-111.335018
 20
424.446609
 30
0.0
 11
-105.554565
 21
430.227063
 31
0.0
  0
LINE
  5
5EA
330
5E6
100
AcDbEntity
  8
LC-001-100-D00-0
 62
     7
370
    25
100
AcDbLine
 10
-103.335019
 20
432.446609
 30
0.0
 11
-100.335019
 21
435.446609
 31
0.0
  0
ENDBLK
  5
5E8
330
5E6
100
AcDbEntity
  8
0
100
AcDbBlockEnd
  0
BLOCK
  5
5EE
330
5ED
100
AcDbEntity
  8
0
100
AcDbBlockBegin
  2
KLON33
 70
     0
 71
     0
 10
0.0
 20
0.0
 30
0.0
  3
KLON33
  1

  4
KLON33
  0
LINE
  5
5F0
330
5ED
100
AcDbEntity
  8
LC-001-100-D00-0
 62
     7
370
    25
100
AcDbLine
 10
-331.841413
 20
428.446609
 30
0.0
 11
-330.554565
 21
429.733458
 31
0.0
  0
LINE
  5
5F1
330
5ED
100
AcDbEntity
  8
LC-001-100-D00-0
 62
     7
370
    25
100
AcDbLine
 10
-327.841414
 20
432.446609
 30
0.0
 11
-324.841414
 21
435.446609
 31
0.0
  0
ENDBLK
  5
5EF
330
5ED
100
AcDbEntity
  8
0
100
AcDbBlockEnd
  0
BLOCK
  5
608
330
607
100
AcDbEntity
  8
0
100
AcDbBlockBegin
  2
*X145
 70
     1
 71
     0
 10
0.0
 20
0.0
 30
0.0
  3
*X145
  1

  4
*X1
  0
LINE
  5
60B
330
607
100
AcDbEntity
  8
LC-004-005-----0
 62
     7
370
    25
100
AcDbLine
 10
-68.033188
 20
327.946609
 30
0.0
 11
-66.033188
 21
329.946609
 31
0.0
  0
LINE
  5
60C
330
607
100
AcDbEntity
  8
LC-004-005-----0
 62
     7
370
    25
100
AcDbLine
 10
-75.104256
 20
327.946609
 30
0.0
 11
-73.104256
 21
329.946609
 31
0.0
  0
LINE
  5
60D
330
607
100
AcDbEntity
  8
LC-004-005-----0
 62
     7
370
    25
100
AcDbLine
 10
-82.175324
 20
327.946609
 30
0.0
 11
-80.175324
 21
329.946609
 31
0.0
  0
LINE
  5
60E
330
607
100
AcDbEntity
  8
LC-004-005-----0
 62
     7
370
    25
100
AcDbLine
 10
-89.246392
 20
327.946609
 30
0.0
 11
-87.246392
 21
329.946609
 31
0.0
  0
LINE
  5
60F
330
607
100
AcDbEntity
  8
LC-004-005-----0
 62
     7
370
    25
100
AcDbLine
 10
-96.31746
 20
327.946609
 30
0.0
 11
-94.31746
 21
329.946609
 31
0.0
  0
LINE
  5
610
330
607
100
AcDbEntity
  8
LC-004-005-----0
 62
     7
370
    25
100
AcDbLine
 10
-104.294594
 20
327.040543
 30
0.0
 11
-100.448585
 21
330.886552
 31
0.0
  0
LINE
  5
611
330
607
100
AcDbEntity
  8
LC-004-005-----0
 62
     7
370
    25
100
AcDbLine
 10
-112.616534
 20
325.78967
 30
0.0
 11
-110.041283
 21
328.364922
 31
0.0
  0
LINE
  5
612
330
607
100
AcDbEntity
  8
LC-004-005-----0
 62
     7
370
    25
100
AcDbLine
 10
-120.458749
 20
325.018523
 30
0.0
 11
-116.926853
 21
328.550419
 31
0.0
  0
ENDBLK
  5
609
330
607
100
AcDbEntity
  8
0
100
AcDbBlockEnd
  0
BLOCK
  5
61B
330
61A
100
AcDbEntity
  8
0
100
AcDbBlockBegin
  2
*X246
 70
     1
 71
     0
 10
0.0
 20
0.0
 30
0.0
  3
*X246
  1

  4
*X2
  0
LINE
  5
61D
330
61A
100
AcDbEntity
  8
LC-004-005-----0
 62
     7
370
    25
100
AcDbLine
 10
-66.601731
 20
385.946609
 30
0.0
 11
-64.601731
 21
387.946609
 31
0.0
  0
LINE
  5
61E
330
61A
100
AcDbEntity
  8
LC-004-005-----0
 62
     7
370
    25
100
AcDbLine
 10
-73.672799
 20
385.946609
 30
0.0
 11
-71.672799
 21
387.946609
 31
0.0
  0
LINE
  5
61F
330
61A
100
AcDbEntity
  8
LC-004-005-----0
 62
     7
370
    25
100
AcDbLine
 10
-80.743867
 20
385.946609
 30
0.0
 11
-78.743867
 21
387.946609
 31
0.0
  0
LINE
  5
620
330
61A
100
AcDbEntity
  8
LC-004-005-----0
 62
     7
370
    25
100
AcDbLine
 10
-93.309431
 20
380.452113
 30
0.0
 11
-93.190079
 21
380.571465
 31
0.0
  0
LINE
  5
621
330
61A
100
AcDbEntity
  8
LC-004-005-----0
 62
     7
370
    25
100
AcDbLine
 10
-87.814934
 20
385.946609
 30
0.0
 11
-85.814934
 21
387.946609
 31
0.0
  0
LINE
  5
622
330
61A
100
AcDbEntity
  8
LC-004-005-----0
 62
     7
370
    25
100
AcDbLine
 10
-97.414956
 20
383.417655
 30
0.0
 11
-95.680315
 21
385.152297
 31
0.0
  0
LINE
  5
623
330
61A
100
AcDbEntity
  8
LC-004-005-----0
 62
     7
370
    25
100
AcDbLine
 10
-94.886002
 20
385.946609
 30
0.0
 11
-92.886002
 21
387.946609
 31
0.0
  0
LINE
  5
624
330
61A
100
AcDbEntity
  8
LC-004-005-----0
 62
     7
370
    25
100
AcDbLine
 10
-102.17906
 20
385.724619
 30
0.0
 11
-99.95707
 21
387.946609
 31
0.0
  0
LINE
  5
625
330
61A
100
AcDbEntity
  8
LC-004-005-----0
 62
     7
370
    25
100
AcDbLine
 10
-107.742978
 20
387.231769
 30
0.0
 11
-105.764547
 21
389.2102
 31
0.0
  0
LINE
  5
626
330
61A
100
AcDbEntity
  8
LC-004-005-----0
 62
     7
370
    25
100
AcDbLine
 10
-114.451511
 20
387.594304
 30
0.0
 11
-112.002633
 21
390.043181
 31
0.0
  0
LINE
  5
627
330
61A
100
AcDbEntity
  8
LC-004-005-----0
 62
     7
370
    25
100
AcDbLine
 10
-121.190079
 20
387.926804
 30
0.0
 11
-118.440634
 21
390.676248
 31
0.0
  0
ENDBLK
  5
61C
330
61A
100
AcDbEntity
  8
0
100
AcDbBlockEnd
  0
BLOCK
  5
643
330
638
100
AcDbEntity
  8
0
100
AcDbBlockBegin
  2
*D47
 70
     1
 71
     0
 10
0.0
 20
0.0
 30
0.0
  3
*D47
  1

  0
LINE
  5
639
330
638
100
AcDbEntity
  8
LC-006-003-----0
 62
     2
370
    -2
100
AcDbLine
 10
-61.690079
 20
385.946609
 30
0.0
 11
37.080293
 21
385.946609
 31
0.0
  0
LINE
  5
63A
330
638
100
AcDbEntity
  8
LC-006-003-----0
 62
     2
370
    -2
100
AcDbLine
 10
-61.690079
 20
329.946609
 30
0.0
 11
37.080293
 21
329.946609
 31
0.0
  0
LINE
  5
63B
330
638
100
AcDbEntity
  8
LC-006-003-----0
 62
     2
370
    -2
100
AcDbLine
 10
28.080293
 20
435.946609
 30
0.0
 11
28.080293
 21
485.946609
 31
0.0
  0
LINE
  5
63C
330
638
100
AcDbEntity
  8
LC-006-003-----0
 62
     2
370
    -2
100
AcDbLine
 10
28.080293
 20
279.946609
 30
0.0
 11
28.080293
 21
181.43087
 31
0.0
  0
SOLID
  5
63D
330
638
100
AcDbEntity
  8
LC-006-003-----0
 62
     2
100
AcDbTrace
 10
19.74696
 20
435.946609
 30
0.0
 11
36.413627
 21
435.946609
 31
0.0
 12
28.080293
 22
385.946609
 32
0.0
 13
28.080293
 23
385.946609
 33
0.0
  0
SOLID
  5
63E
330
638
100
AcDbEntity
  8
LC-006-003-----0
 62
     2
100
AcDbTrace
 10
36.413627
 20
279.946609
 30
0.0
 11
19.74696
 21
279.946609
 31
0.0
 12
28.080293
 22
329.946609
 32
0.0
 13
28.080293
 23
329.946609
 33
0.0
  0
MTEXT
  5
63F
330
638
100
AcDbEntity
  8
LC-006-003-----0
 62
     2
100
AcDbMText
 10
-26.919707
 20
224.825261
 30
0.0
 40
50.0
 41
0.0
 71
     5
 72
     1
  1
%%c\A1;56
  7
LCTX15-400-0-0pDIN-Schrift
 11
6.123031769111886E-17
 21
1.0
 31
0.0
 73
     1
 44
1.0
  0
POINT
  5
640
330
638
100
AcDbEntity
  8
Defpoints
 62
     0
100
AcDbPoint
 10
-61.690079
 20
385.946609
 30
0.0
  0
POINT
  5
641
330
638
100
AcDbEntity
  8
Defpoints
 62
     0
100
AcDbPoint
 10
-61.690079
 20
329.946609
 30
0.0
  0
POINT
  5
642
330
638
100
AcDbEntity
  8
Defpoints
 62
     0
100
AcDbPoint
 10
28.080293
 20
329.946609
 30
0.0
  0
ENDBLK
  5
644
330
638
100
AcDbEntity
  8
0
100
AcDbBlockEnd
  0
BLOCK
  5
650
330
646
100
AcDbEntity
  8
0
100
AcDbBlockBegin
  2
*D48
 70
     1
 71
     0
 10
0.0
 20
0.0
 30
0.0
  3
*D48
  1

  0
LINE
  5
647
330
646
100
AcDbEntity
  8
LC-006-003-----0
 62
     2
370
    -2
100
AcDbLine
 10
-289.304565
 20
344.446609
 30
0.0
 11
-289.304565
 21
141.84819
 31
0.0
  0
LINE
  5
648
330
646
100
AcDbEntity
  8
LC-006-003-----0
 62
     2
370
    -2
100
AcDbLine
 10
-61.190079
 20
357.946609
 30
0.0
 11
-61.190079
 21
141.84819
 31
0.0
  0
LINE
  5
649
330
646
100
AcDbEntity
  8
LC-006-003-----0
 62
     2
370
    -2
100
AcDbLine
 10
-239.304565
 20
150.84819
 30
0.0
 11
-111.190079
 21
150.84819
 31
0.0
  0
SOLID
  5
64A
330
646
100
AcDbEntity
  8
LC-006-003-----0
 62
     2
100
AcDbTrace
 10
-239.304565
 20
159.181523
 30
0.0
 11
-239.304565
 21
142.514856
 31
0.0
 12
-289.304565
 22
150.84819
 32
0.0
 13
-289.304565
 23
150.84819
 33
0.0
  0
SOLID
  5
64B
330
646
100
AcDbEntity
  8
LC-006-003-----0
 62
     2
100
AcDbTrace
 10
-111.190079
 20
142.514856
 30
0.0
 11
-111.190079
 21
159.181523
 31
0.0
 12
-61.190079
 22
150.84819
 32
0.0
 13
-61.190079
 23
150.84819
 33
0.0
  0
MTEXT
  5
64C
330
646
100
AcDbEntity
  8
LC-006-003-----0
 62
     2
100
AcDbMText
 10
-208.26007
 20
205.84819
 30
0.0
 40
50.0
 41
0.0
 71
     5
 72
     1
  1
\A1;228
  7
LCTX15-400-0-0pDIN-Schrift
 73
     1
 44
1.0
  0
POINT
  5
64D
330
646
100
AcDbEntity
  8
Defpoints
 62
     0
100
AcDbPoint
 10
-289.304565
 20
344.446609
 30
0.0
  0
POINT
  5
64E
330
646
100
AcDbEntity
  8
Defpoints
 62
     0
100
AcDbPoint
 10
-61.190079
 20
357.946609
 30
0.0
  0
POINT
  5
64F
330
646
100
AcDbEntity
  8
Defpoints
 62
     0
100
AcDbPoint
 10
-61.190079
 20
150.84819
 30
0.0
  0
ENDBLK
  5
651
330
646
100
AcDbEntity
  8
0
100
AcDbBlockEnd
  0
ENDSEC
  0
SECTION
  2
ENTITIES
  0
LINE
  5
31
330
1F
100
AcDbEntity
  8
LC-001-100-D00-0
 62
     7
370
    50
100
AcDbLine
 10
613.279818
 20
433.946609
 30
0.0
 11
613.279818
 21
432.546609
 31
0.0
  0
LINE
  5
32
330
1F
100
AcDbEntity
  8
LC-001-100-D00-0
 62
     7
370
    50
100
AcDbLine
 10
622.279818
 20
432.546609
 30
0.0
 11
622.27982
 21
433.946609
 31
0.0
  0
LINE
  5
33
330
1F
100
AcDbEntity
  8
LC-001-100-D00-0
 62
     7
370
    50
100
AcDbLine
 10
543.279816
 20
433.946609
 30
0.0
 11
543.279818
 21
432.546609
 31
0.0
  0
LINE
  5
34
330
1F
100
AcDbEntity
  8
LC-001-100-D00-0
 62
     7
370
    50
100
AcDbLine
 10
552.279818
 20
432.546609
 30
0.0
 11
552.279818
 21
433.946609
 31
0.0
  0
LINE
  5
35
330
1F
100
AcDbEntity
  8
LC-001-100-D00-0
 62
     7
370
    50
100
AcDbLine
 10
543.779817
 20
432.546609
 30
0.0
 11
543.779818
 21
418.946609
 31
0.0
  0
LINE
  5
36
330
1F
100
AcDbEntity
  8
LC-001-100-D00-0
 62
     7
370
    50
100
AcDbLine
 10
551.779818
 20
418.946609
 30
0.0
 11
551.779818
 21
432.546609
 31
0.0
  0
LINE
  5
37
330
1F
100
AcDbEntity
  8
LC-001-100-D00-0
 62
     7
370
    50
100
AcDbLine
 10
613.779817
 20
432.546609
 30
0.0
 11
613.779818
 21
418.946609
 31
0.0
  0
LINE
  5
38
330
1F
100
AcDbEntity
  8
LC-001-100-D00-0
 62
     7
370
    50
100
AcDbLine
 10
621.779818
 20
418.946609
 30
0.0
 11
621.779819
 21
432.546609
 31
0.0
  0
ARC
  5
39
330
1F
100
AcDbEntity
  8
LC-001-100-D00-0
 62
     7
370
    50
100
AcDbCircle
 10
638.279818
 20
308.446609
 30
0.0
 40
0.5000000000009095
100
AcDbArc
 50
90.0
 51
180.0
  0
ARC
  5
3A
330
1F
100
AcDbEntity
  8
LC-001-100-D00-0
 62
     7
370
    50
100
AcDbCircle
 10
656.279818
 20
308.446609
 30
0.0
 40
0.5000000000009095
100
AcDbArc
 50
0.0
 51
90.0
  0
LINE
  5
3B
330
1F
100
AcDbEntity
  8
LC-001-100-D00-0
 62
     7
370
    50
100
AcDbLine
 10
637.779818
 20
308.446609
 30
0.0
 11
637.779818
 21
300.946609
 31
0.0
  0
LINE
  5
3C
330
1F
100
AcDbEntity
  8
LC-001-100-D00-0
 62
     7
370
    50
100
AcDbLine
 10
656.779818
 20
300.946609
 30
0.0
 11
656.779818
 21
308.446609
 31
0.0
  0
LINE
  5
3D
330
1F
100
AcDbEntity
  8
LC-001-100-D00-0
 62
     7
370
    50
100
AcDbLine
 10
637.279817
 20
377.946608
 30
0.0
 11
637.279818
 21
323.946609
 31
0.0
  0
LINE
  5
3E
330
1F
100
AcDbEntity
  8
LC-001-100-D00-0
 62
     7
370
    50
100
AcDbLine
 10
657.279818
 20
323.946609
 30
0.0
 11
657.27982
 21
377.946608
 31
0.0
  0
LINE
  5
3F
330
1F
100
AcDbEntity
  8
LC-001-100-D00-0
 62
     7
370
    50
100
AcDbLine
 10
637.279818
 20
309.946609
 30
0.0
 11
638.279818
 21
308.946609
 31
0.0
  0
LINE
  5
40
330
1F
100
AcDbEntity
  8
LC-001-100-D00-0
 62
     7
370
    50
100
AcDbLine
 10
656.279818
 20
308.946609
 30
0.0
 11
657.279818
 21
309.946609
 31
0.0
  0
LINE
  5
41
330
1F
100
AcDbEntity
  8
LC-001-100-D00-0
 62
     7
370
    50
100
AcDbLine
 10
637.279818
 20
320.446609
 30
0.0
 11
637.279818
 21
309.946609
 31
0.0
  0
LINE
  5
42
330
1F
100
AcDbEntity
  8
LC-001-100-D00-0
 62
     7
370
    50
100
AcDbLine
 10
657.279818
 20
309.946609
 30
0.0
 11
657.279818
 21
320.446609
 31
0.0
  0
LINE
  5
43
330
1F
100
AcDbEntity
  8
LC-001-100-D00-0
 62
     7
370
    50
100
AcDbLine
 10
639.379819
 20
323.946607
 30
0.0
 11
639.379819
 21
320.446607
 31
0.0
  0
LINE
  5
44
330
1F
100
AcDbEntity
  8
LC-001-100-D00-0
 62
     7
370
    50
100
AcDbLine
 10
655.179822
 20
320.446607
 30
0.0
 11
655.179822
 21
323.946607
 31
0.0
  0
ARC
  5
45
330
1F
100
AcDbEntity
  8
LC-001-100-D00-0
 62
     7
370
    50
100
AcDbCircle
 10
622.179818
 20
409.546609
 30
0.0
 40
0.5999999999999091
100
AcDbArc
 50
270.0
 51
0.0
  0
ARC
  5
46
330
1F
100
AcDbEntity
  8
LC-001-100-D00-0
 62
     7
370
    50
100
AcDbCircle
 10
613.379818
 20
409.546609
 30
0.0
 40
0.6000000000001364
100
AcDbArc
 50
180.0
 51
270.0
  0
LINE
  5
47
330
1F
100
AcDbEntity
  8
LC-001-100-D00-0
 62
     7
370
    50
100
AcDbLine
 10
622.779818
 20
409.546609
 30
0.0
 11
622.779817
 21
412.946608
 31
0.0
  0
LINE
  5
48
330
1F
100
AcDbEntity
  8
LC-001-100-D00-0
 62
     7
370
    50
100
AcDbLine
 10
612.779817
 20
412.946608
 30
0.0
 11
612.779818
 21
409.546609
 31
0.0
  0
LINE
  5
49
330
1F
100
AcDbEntity
  8
LC-001-100-D00-0
 62
     7
370
    50
100
AcDbLine
 10
620.779817
 20
417.946609
 30
0.0
 11
620.779817
 21
418.946609
 31
0.0
  0
LINE
  5
4A
330
1F
100
AcDbEntity
  8
LC-001-100-D00-0
 62
     7
370
    50
100
AcDbLine
 10
614.779819
 20
418.946609
 30
0.0
 11
614.779819
 21
417.946609
 31
0.0
  0
LINE
  5
4B
330
1F
100
AcDbEntity
  8
LC-001-100-D00-0
 62
     7
370
    50
100
AcDbLine
 10
552.779818
 20
409.546609
 30
0.0
 11
552.779819
 21
412.946608
 31
0.0
  0
LINE
  5
4C
330
1F
100
AcDbEntity
  8
LC-001-100-D00-0
 62
     7
370
    50
100
AcDbLine
 10
542.779819
 20
412.946608
 30
0.0
 11
542.779818
 21
409.546609
 31
0.0
  0
ARC
  5
4D
330
1F
100
AcDbEntity
  8
LC-001-100-D00-0
 62
     7
370
    50
100
AcDbCircle
 10
552.179818
 20
409.546609
 30
0.0
 40
0.5999999999999091
100
AcDbArc
 50
270.0
 51
0.0
  0
ARC
  5
4E
330
1F
100
AcDbEntity
  8
LC-001-100-D00-0
 62
     7
370
    50
100
AcDbCircle
 10
543.379818
 20
409.546609
 30
0.0
 40
0.6000000000001364
100
AcDbArc
 50
180.0
 51
270.0
  0
LINE
  5
4F
330
1F
100
AcDbEntity
  8
LC-001-100-D00-0
 62
     7
370
    50
100
AcDbLine
 10
550.779816
 20
417.946609
 30
0.0
 11
550.779816
 21
418.946609
 31
0.0
  0
LINE
  5
50
330
1F
100
AcDbEntity
  8
LC-001-100-D00-0
 62
     7
370
    50
100
AcDbLine
 10
544.779819
 20
418.946609
 30
0.0
 11
544.779819
 21
417.946609
 31
0.0
  0
LINE
  5
51
330
1F
100
AcDbEntity
  8
LC-001-100-D00-0
 62
     7
370
    50
100
AcDbLine
 10
623.279818
 20
412.946609
 30
0.0
 11
623.279818
 21
414.946609
 31
0.0
  0
LINE
  5
52
330
1F
100
AcDbEntity
  8
LC-001-100-D00-0
 62
     7
370
    50
100
AcDbLine
 10
612.279818
 20
414.946608
 30
0.0
 11
612.279818
 21
412.946609
 31
0.0
  0
LINE
  5
53
330
1F
100
AcDbEntity
  8
LC-001-100-D00-0
 62
     7
370
    50
100
AcDbLine
 10
553.279818
 20
412.946609
 30
0.0
 11
553.279818
 21
414.946608
 31
0.0
  0
LINE
  5
54
330
1F
100
AcDbEntity
  8
LC-001-100-D00-0
 62
     7
370
    50
100
AcDbLine
 10
542.279818
 20
414.946609
 30
0.0
 11
542.279818
 21
412.946609
 31
0.0
  0
ARC
  5
55
330
1F
100
AcDbEntity
  8
LC-001-100-D00-0
 62
     7
370
    50
100
AcDbCircle
 10
539.779818
 20
436.946609
 30
0.0
 40
1.499999999999773
100
AcDbArc
 50
180.0
 51
270.0
  0
LINE
  5
56
330
1F
100
AcDbEntity
  8
LC-001-100-D00-0
 62
     7
370
    50
100
AcDbLine
 10
539.779818
 20
435.446609
 30
0.0
 11
655.279818
 21
435.446609
 31
0.0
  0
LINE
  5
57
330
1F
100
AcDbEntity
  8
LC-001-100-D00-0
 62
     7
370
    50
100
AcDbLine
 10
539.279818
 20
433.946609
 30
0.0
 11
655.279818
 21
433.946609
 31
0.0
  0
ARC
  5
58
330
1F
100
AcDbEntity
  8
LC-001-100-D00-0
 62
     7
370
    50
100
AcDbCircle
 10
539.279818
 20
436.446609
 30
0.0
 40
2.5
100
AcDbArc
 50
180.0
 51
270.0
  0
LINE
  5
59
330
1F
100
AcDbEntity
  8
LC-001-100-D00-0
 62
     7
370
    50
100
AcDbLine
 10
536.779818
 20
436.446609
 30
0.0
 11
536.779818
 21
480.446609
 31
0.0
  0
LINE
  5
5A
330
1F
100
AcDbEntity
  8
LC-001-100-D00-0
 62
     7
370
    50
100
AcDbLine
 10
538.279818
 20
480.446609
 30
0.0
 11
538.279818
 21
436.946609
 31
0.0
  0
LINE
  5
5B
330
1F
100
AcDbEntity
  8
LC-001-100-D00-0
 62
     7
370
    50
100
AcDbLine
 10
655.279818
 20
435.446609
 30
0.0
 11
660.279818
 21
435.446609
 31
0.0
  0
LINE
  5
5C
330
1F
100
AcDbEntity
  8
LC-001-100-D00-0
 62
     7
370
    50
100
AcDbLine
 10
660.279818
 20
435.446609
 30
0.0
 11
660.279818
 21
433.946609
 31
0.0
  0
LINE
  5
5D
330
1F
100
AcDbEntity
  8
LC-001-100-D00-0
 62
     7
370
    50
100
AcDbLine
 10
660.279818
 20
433.946609
 30
0.0
 11
655.279818
 21
433.946609
 31
0.0
  0
LINE
  5
5E
330
1F
100
AcDbEntity
  8
LC-001-100-D00-0
 62
     7
370
    50
100
AcDbLine
 10
536.779818
 20
485.446609
 30
0.0
 11
538.279818
 21
485.446609
 31
0.0
  0
LINE
  5
5F
330
1F
100
AcDbEntity
  8
LC-001-100-D00-0
 62
     7
370
    50
100
AcDbLine
 10
538.279818
 20
485.446609
 30
0.0
 11
538.279818
 21
480.446609
 31
0.0
  0
LINE
  5
60
330
1F
100
AcDbEntity
  8
LC-001-100-D00-0
 62
     7
370
    50
100
AcDbLine
 10
536.779818
 20
480.446609
 30
0.0
 11
536.779818
 21
485.446609
 31
0.0
  0
ARC
  5
61
330
1F
100
AcDbEntity
  8
LC-001-100-D00-0
 62
     7
370
    50
100
AcDbCircle
 10
611.779818
 20
432.446609
 30
0.0
 40
1.499999999999773
100
AcDbArc
 50
90.0
 51
180.0
  0
ARC
  5
62
330
1F
100
AcDbEntity
  8
LC-001-100-D00-0
 62
     7
370
    50
100
AcDbCircle
 10
553.779818
 20
432.446609
 30
0.0
 40
1.5
100
AcDbArc
 50
0.0
 51
90.0
  0
LINE
  5
63
330
1F
100
AcDbEntity
  8
LC-001-100-D00-0
 62
     7
370
    50
100
AcDbLine
 10
595.113227
 20
413.446609
 30
0.0
 11
606.279818
 21
413.446609
 31
0.0
  0
LINE
  5
64
330
1F
100
AcDbEntity
  8
LC-001-100-D00-0
 62
     7
370
    50
100
AcDbLine
 10
594.935013
 20
413.446609
 30
0.0
 11
595.113227
 21
413.446609
 31
0.0
  0
LINE
  5
65
330
1F
100
AcDbEntity
  8
LC-001-100-D00-0
 62
     7
370
    50
100
AcDbLine
 10
594.935013
 20
413.446609
 30
0.0
 11
570.624623
 21
413.446609
 31
0.0
  0
LINE
  5
66
330
1F
100
AcDbEntity
  8
LC-001-100-D00-0
 62
     7
370
    50
100
AcDbLine
 10
570.446409
 20
413.446609
 30
0.0
 11
570.624623
 21
413.446609
 31
0.0
  0
LINE
  5
67
330
1F
100
AcDbEntity
  8
LC-001-100-D00-0
 62
     7
370
    50
100
AcDbLine
 10
559.279818
 20
413.446609
 30
0.0
 11
570.446409
 21
413.446609
 31
0.0
  0
ARC
  5
68
330
1F
100
AcDbEntity
  8
LC-001-100-D00-0
 62
     7
370
    50
100
AcDbCircle
 10
559.279818
 20
417.446609
 30
0.0
 40
4.0
100
AcDbArc
 50
180.0
 51
270.0
  0
LINE
  5
69
330
1F
100
AcDbEntity
  8
LC-001-100-D00-0
 62
     7
370
    50
100
AcDbLine
 10
555.279818
 20
422.946609
 30
0.0
 11
555.279818
 21
417.446609
 31
0.0
  0
LINE
  5
6A
330
1F
100
AcDbEntity
  8
LC-001-100-D00-0
 62
     7
370
    50
100
AcDbLine
 10
555.279818
 20
422.946609
 30
0.0
 11
555.279818
 21
432.446609
 31
0.0
  0
ARC
  5
6B
330
1F
100
AcDbEntity
  8
LC-001-100-D00-0
 62
     7
370
    50
100
AcDbCircle
 10
606.279818
 20
417.446609
 30
0.0
 40
4.000000000014552
100
AcDbArc
 50
270.0
 51
0.0
  0
LINE
  5
6C
330
1F
100
AcDbEntity
  8
LC-001-100-D00-0
 62
     7
370
    50
100
AcDbLine
 10
610.279818
 20
417.446609
 30
0.0
 11
610.279818
 21
422.946609
 31
0.0
  0
LINE
  5
6D
330
1F
100
AcDbEntity
  8
LC-001-100-D00-0
 62
     7
370
    50
100
AcDbLine
 10
610.279818
 20
432.446609
 30
0.0
 11
610.279818
 21
422.946609
 31
0.0
  0
ARC
  5
6E
330
1F
100
AcDbEntity
  8
LC-001-100-D00-0
 62
     7
370
    50
100
AcDbCircle
 10
559.279818
 20
412.446609
 30
0.0
 40
4.000000000040473
100
AcDbArc
 50
180.0
 51
270.0
  0
LINE
  5
6F
330
1F
100
AcDbEntity
  8
LC-001-100-D00-0
 62
     7
370
    50
100
AcDbLine
 10
555.279818
 20
412.446609
 30
0.0
 11
555.279818
 21
417.446609
 31
0.0
  0
ARC
  5
70
330
1F
100
AcDbEntity
  8
LC-001-100-D00-0
 62
     7
370
    50
100
AcDbCircle
 10
606.279818
 20
412.446609
 30
0.0
 40
4.0
100
AcDbArc
 50
270.0
 51
0.0
  0
LINE
  5
71
330
1F
100
AcDbEntity
  8
LC-001-100-D00-0
 62
     7
370
    50
100
AcDbLine
 10
610.279818
 20
417.446609
 30
0.0
 11
610.279818
 21
412.446609
 31
0.0
  0
ARC
  5
72
330
1F
100
AcDbEntity
  8
LC-001-100-D00-0
 62
     7
370
    50
100
AcDbCircle
 10
578.185512
 20
410.946609
 30
0.0
 40
2.5
100
AcDbArc
 50
90.0
 51
108.434949
  0
LINE
  5
73
330
1F
100
AcDbEntity
  8
LC-001-100-D00-0
 62
     7
370
    50
100
AcDbLine
 10
577.394942
 20
413.318318
 30
0.0
 11
577.393859
 21
413.317956
 31
0.0
  0
LINE
  5
74
330
1F
100
AcDbEntity
  8
LC-001-100-D00-0
 62
     7
370
    50
100
AcDbLine
 10
606.279817
 20
408.446608
 30
0.0
 11
603.430786
 21
408.446608
 31
0.0
  0
LINE
  5
75
330
1F
100
AcDbEntity
  8
LC-001-100-D00-0
 62
     7
370
    50
100
AcDbLine
 10
588.165777
 20
413.317956
 30
0.0
 11
588.164693
 21
413.318318
 31
0.0
  0
ARC
  5
76
330
1F
100
AcDbEntity
  8
LC-001-100-D00-0
 62
     7
370
    50
100
AcDbCircle
 10
587.374124
 20
410.946609
 30
0.0
 40
2.499999999999846
100
AcDbArc
 50
71.565051
 51
90.0
  0
LINE
  5
77
330
1F
100
AcDbEntity
  8
LC-001-100-D00-0
 62
     7
370
    50
100
AcDbLine
 10
562.12885
 20
408.446608
 30
0.0
 11
559.279819
 21
408.446608
 31
0.0
  0
LINE
  5
78
330
1F
100
AcDbEntity
  8
LC-001-100-D00-0
 62
     7
370
    50
100
AcDbLine
 10
603.430786
 20
408.446608
 30
0.0
 11
603.428929
 21
408.446608
 31
0.0
  0
LINE
  5
79
330
1F
100
AcDbEntity
  8
LC-001-100-D00-0
 62
     7
370
    50
100
AcDbLine
 10
603.428929
 20
408.446608
 30
0.0
 11
602.164018
 21
408.651875
 31
0.0
  0
LINE
  5
7A
330
1F
100
AcDbEntity
  8
LC-001-100-D00-0
 62
     7
370
    50
100
AcDbLine
 10
602.164018
 20
408.651875
 30
0.0
 11
602.161937
 21
408.652568
 31
0.0
  0
LINE
  5
7B
330
1F
100
AcDbEntity
  8
LC-001-100-D00-0
 62
     7
370
    50
100
AcDbLine
 10
562.130707
 20
408.446608
 30
0.0
 11
563.395618
 21
408.651875
 31
0.0
  0
LINE
  5
7C
330
1F
100
AcDbEntity
  8
LC-001-100-D00-0
 62
     7
370
    50
100
AcDbLine
 10
562.130707
 20
408.446608
 30
0.0
 11
562.12885
 21
408.446608
 31
0.0
  0
LINE
  5
7D
330
1F
100
AcDbEntity
  8
LC-001-100-D00-0
 62
     7
370
    50
100
AcDbLine
 10
563.397699
 20
408.652568
 30
0.0
 11
563.395618
 21
408.651875
 31
0.0
  0
LINE
  5
7E
330
1F
100
AcDbEntity
  8
LC-001-100-D00-0
 62
     7
370
    50
100
AcDbLine
 10
602.161937
 20
408.652568
 30
0.0
 11
588.165777
 21
413.317956
 31
0.0
  0
LINE
  5
7F
330
1F
100
AcDbEntity
  8
LC-001-100-D00-0
 62
     7
370
    50
100
AcDbLine
 10
577.393859
 20
413.317956
 30
0.0
 11
563.397699
 21
408.652568
 31
0.0
  0
LINE
  5
80
330
1F
100
AcDbEntity
  8
LC-001-100-D00-0
 62
     7
370
    50
100
AcDbLine
 10
634.279818
 20
433.946609
 30
0.0
 11
634.279818
 21
431.946609
 31
0.0
  0
LINE
  5
81
330
1F
100
AcDbEntity
  8
LC-001-100-D00-0
 62
     7
370
    50
100
AcDbLine
 10
634.279818
 20
431.946609
 30
0.0
 11
660.279818
 21
431.946609
 31
0.0
  0
LINE
  5
82
330
1F
100
AcDbEntity
  8
LC-001-100-D00-0
 62
     7
370
    50
100
AcDbLine
 10
660.279818
 20
433.946609
 30
0.0
 11
660.279818
 21
431.946609
 31
0.0
  0
LINE
  5
83
330
1F
100
AcDbEntity
  8
LC-001-100-D00-0
 62
     7
370
    50
100
AcDbLine
 10
634.279818
 20
429.946609
 30
0.0
 11
634.279818
 21
431.946609
 31
0.0
  0
LINE
  5
84
330
1F
100
AcDbEntity
  8
LC-001-100-D00-0
 62
     7
370
    50
100
AcDbLine
 10
660.279818
 20
431.946609
 30
0.0
 11
660.279818
 21
429.946609
 31
0.0
  0
LINE
  5
85
330
1F
100
AcDbEntity
  8
LC-001-100-D00-0
 62
     7
370
    50
100
AcDbLine
 10
660.279818
 20
404.846609
 30
0.0
 11
657.839426
 21
404.846609
 31
0.0
  0
LINE
  5
86
330
1F
100
AcDbEntity
  8
LC-001-100-D00-0
 62
     7
370
    50
100
AcDbLine
 10
636.720211
 20
404.846609
 30
0.0
 11
634.279818
 21
404.846609
 31
0.0
  0
LINE
  5
87
330
1F
100
AcDbEntity
  8
LC-001-100-D00-0
 62
     7
370
    50
100
AcDbLine
 10
634.279818
 20
404.846609
 30
0.0
 11
634.279818
 21
408.846609
 31
0.0
  0
LINE
  5
88
330
1F
100
AcDbEntity
  8
LC-001-100-D00-0
 62
     7
370
    50
100
AcDbLine
 10
660.279818
 20
408.846609
 30
0.0
 11
660.279818
 21
404.846609
 31
0.0
  0
LINE
  5
89
330
1F
100
AcDbEntity
  8
LC-001-100-D00-0
 62
     7
370
    50
100
AcDbLine
 10
634.279818
 20
429.946609
 30
0.0
 11
634.279818
 21
408.846609
 31
0.0
  0
LINE
  5
8A
330
1F
100
AcDbEntity
  8
LC-001-100-D00-0
 62
     7
370
    50
100
AcDbLine
 10
660.279818
 20
429.946609
 30
0.0
 11
660.279818
 21
408.846609
 31
0.0
  0
LINE
  5
8B
330
1F
100
AcDbEntity
  8
LC-001-100-D00-0
 62
     7
370
    50
100
AcDbLine
 10
603.428929
 20
408.446608
 30
0.0
 11
601.709678
 21
408.446608
 31
0.0
  0
LINE
  5
8C
330
1F
100
AcDbEntity
  8
LC-001-100-D00-0
 62
     7
370
    50
100
AcDbLine
 10
563.849958
 20
408.446608
 30
0.0
 11
562.130707
 21
408.446608
 31
0.0
  0
LINE
  5
8D
330
1F
100
AcDbEntity
  8
LC-001-100-D00-0
 62
     7
370
    50
100
AcDbLine
 10
601.709678
 20
408.446608
 30
0.0
 11
563.849958
 21
408.446608
 31
0.0
  0
LINE
  5
8E
330
1F
100
AcDbEntity
  8
LC-001-100-D00-0
 62
     7
370
    50
100
AcDbLine
 10
622.279818
 20
432.546609
 30
0.0
 11
613.279818
 21
432.546609
 31
0.0
  0
LINE
  5
8F
330
1F
100
AcDbEntity
  8
LC-001-100-D00-0
 62
     7
370
    50
100
AcDbLine
 10
543.279818
 20
432.546609
 30
0.0
 11
552.279818
 21
432.546609
 31
0.0
  0
LINE
  5
90
330
1F
100
AcDbEntity
  8
LC-001-100-D00-0
 62
     7
370
    50
100
AcDbLine
 10
543.779818
 20
418.946609
 30
0.0
 11
551.779818
 21
418.946609
 31
0.0
  0
LINE
  5
91
330
1F
100
AcDbEntity
  8
LC-001-100-D00-0
 62
     7
370
    50
100
AcDbLine
 10
621.779818
 20
418.946609
 30
0.0
 11
613.779818
 21
418.946609
 31
0.0
  0
LINE
  5
92
330
1F
100
AcDbEntity
  8
LC-001-100-D00-0
 62
     7
370
    50
100
AcDbLine
 10
638.437894
 20
308.946613
 30
0.0
 11
656.147712
 21
308.946613
 31
0.0
  0
LINE
  5
93
330
1F
100
AcDbEntity
  8
LC-001-100-D00-0
 62
     7
370
    50
100
AcDbLine
 10
649.217537
 20
300.946609
 30
0.0
 11
637.779818
 21
300.946609
 31
0.0
  0
LINE
  5
94
330
1F
100
AcDbEntity
  8
LC-001-100-D00-0
 62
     7
370
    50
100
AcDbLine
 10
656.779818
 20
300.946609
 30
0.0
 11
649.217537
 21
300.946609
 31
0.0
  0
LINE
  5
95
330
1F
100
AcDbEntity
  8
LC-001-100-D00-0
 62
     7
370
    50
100
AcDbLine
 10
635.279818
 20
402.946609
 30
0.0
 11
635.279816
 21
404.846609
 31
0.0
  0
LINE
  5
96
330
1F
100
AcDbEntity
  8
LC-001-100-D00-0
 62
     7
370
    50
100
AcDbLine
 10
641.279818
 20
402.946609
 30
0.0
 11
635.279818
 21
402.946609
 31
0.0
  0
LINE
  5
97
330
1F
100
AcDbEntity
  8
LC-001-100-D00-0
 62
     7
370
    50
100
AcDbLine
 10
637.664959
 20
404.946609
 30
0.0
 11
641.279818
 21
404.946609
 31
0.0
  0
LINE
  5
98
330
1F
100
AcDbEntity
  8
LC-001-100-D00-0
 62
     7
370
    50
100
AcDbLine
 10
653.279818
 20
402.946609
 30
0.0
 11
641.279818
 21
402.946609
 31
0.0
  0
LINE
  5
99
330
1F
100
AcDbEntity
  8
LC-001-100-D00-0
 62
     7
370
    50
100
AcDbLine
 10
653.279818
 20
404.946609
 30
0.0
 11
641.279818
 21
404.946609
 31
0.0
  0
LINE
  5
9A
330
1F
100
AcDbEntity
  8
LC-001-100-D00-0
 62
     7
370
    50
100
AcDbLine
 10
659.279816
 20
404.846609
 30
0.0
 11
659.279818
 21
402.946609
 31
0.0
  0
LINE
  5
9B
330
1F
100
AcDbEntity
  8
LC-001-100-D00-0
 62
     7
370
    50
100
AcDbLine
 10
659.279818
 20
402.946609
 30
0.0
 11
653.279818
 21
402.946609
 31
0.0
  0
LINE
  5
9C
330
1F
100
AcDbEntity
  8
LC-001-100-D00-0
 62
     7
370
    50
100
AcDbLine
 10
653.279818
 20
404.946609
 30
0.0
 11
656.894677
 21
404.946609
 31
0.0
  0
LINE
  5
9D
330
1F
100
AcDbEntity
  8
LC-001-100-D00-0
 62
     7
370
    50
100
AcDbLine
 10
650.779818
 20
377.946609
 30
0.0
 11
643.779818
 21
377.946609
 31
0.0
  0
LINE
  5
9E
330
1F
100
AcDbEntity
  8
LC-001-100-D00-0
 62
     7
370
    50
100
AcDbLine
 10
655.779818
 20
377.946609
 30
0.0
 11
650.779818
 21
377.946609
 31
0.0
  0
LINE
  5
9F
330
1F
100
AcDbEntity
  8
LC-001-100-D00-0
 62
     7
370
    50
100
AcDbLine
 10
643.779818
 20
377.946609
 30
0.0
 11
638.779818
 21
377.946609
 31
0.0
  0
LINE
  5
A0
330
1F
100
AcDbEntity
  8
LC-001-100-D00-0
 62
     7
370
    50
100
AcDbLine
 10
635.279818
 20
377.946609
 30
0.0
 11
635.279818
 21
402.946609
 31
0.0
  0
LINE
  5
A1
330
1F
100
AcDbEntity
  8
LC-001-100-D00-0
 62
     7
370
    50
100
AcDbLine
 10
638.779818
 20
377.946609
 30
0.0
 11
635.279818
 21
377.946609
 31
0.0
  0
LINE
  5
A2
330
1F
100
AcDbEntity
  8
LC-001-100-D00-0
 62
     7
370
    50
100
AcDbLine
 10
659.279818
 20
402.946609
 30
0.0
 11
659.279818
 21
377.946609
 31
0.0
  0
LINE
  5
A3
330
1F
100
AcDbEntity
  8
LC-001-100-D00-0
 62
     7
370
    50
100
AcDbLine
 10
659.279818
 20
377.946609
 30
0.0
 11
655.779818
 21
377.946609
 31
0.0
  0
LINE
  5
A4
330
1F
100
AcDbEntity
  8
LC-001-100-D00-0
 62
     7
370
    50
100
AcDbLine
 10
637.279818
 20
323.946609
 30
0.0
 11
657.279818
 21
323.946609
 31
0.0
  0
LINE
  5
A5
330
1F
100
AcDbEntity
  8
LC-001-100-D00-0
 62
     7
370
    50
100
AcDbLine
 10
649.319523
 20
309.946609
 30
0.0
 11
657.279818
 21
309.946609
 31
0.0
  0
LINE
  5
A6
330
1F
100
AcDbEntity
  8
LC-001-100-D00-0
 62
     7
370
    50
100
AcDbLine
 10
637.279818
 20
309.946609
 30
0.0
 11
649.319523
 21
309.946609
 31
0.0
  0
LINE
  5
A7
330
1F
100
AcDbEntity
  8
LC-001-100-D00-0
 62
     7
370
    50
100
AcDbLine
 10
649.115552
 20
308.946609
 30
0.0
 11
638.279818
 21
308.946609
 31
0.0
  0
LINE
  5
A8
330
1F
100
AcDbEntity
  8
LC-001-100-D00-0
 62
     7
370
    50
100
AcDbLine
 10
656.279818
 20
308.946609
 30
0.0
 11
649.115552
 21
308.946609
 31
0.0
  0
LINE
  5
A9
330
1F
100
AcDbEntity
  8
LC-001-100-D00-0
 62
     7
370
    50
100
AcDbLine
 10
637.279818
 20
320.446609
 30
0.0
 11
657.279818
 21
320.446609
 31
0.0
  0
LINE
  5
AA
330
1F
100
AcDbEntity
  8
LC-001-100-D00-0
 62
     7
370
    50
100
AcDbLine
 10
617.779818
 20
408.946609
 30
0.0
 11
613.379818
 21
408.946609
 31
0.0
  0
LINE
  5
AB
330
1F
100
AcDbEntity
  8
LC-001-100-D00-0
 62
     7
370
    50
100
AcDbLine
 10
622.179818
 20
408.946609
 30
0.0
 11
617.779818
 21
408.946609
 31
0.0
  0
LINE
  5
AC
330
1F
100
AcDbEntity
  8
LC-001-100-D00-0
 62
     7
370
    50
100
AcDbLine
 10
547.779818
 20
408.946609
 30
0.0
 11
543.379818
 21
408.946609
 31
0.0
  0
LINE
  5
AD
330
1F
100
AcDbEntity
  8
LC-001-100-D00-0
 62
     7
370
    50
100
AcDbLine
 10
552.179818
 20
408.946609
 30
0.0
 11
547.779818
 21
408.946609
 31
0.0
  0
LINE
  5
AE
330
1F
100
AcDbEntity
  8
LC-001-100-D00-0
 62
     7
370
    50
100
AcDbLine
 10
547.279818
 20
417.946609
 30
0.0
 11
555.279818
 21
417.946609
 31
0.0
  0
LINE
  5
AF
330
1F
100
AcDbEntity
  8
LC-001-100-D00-0
 62
     7
370
    50
100
AcDbLine
 10
547.279818
 20
414.946609
 30
0.0
 11
555.279818
 21
414.946608
 31
0.0
  0
LINE
  5
B0
330
1F
100
AcDbEntity
  8
LC-001-100-D00-0
 62
     7
370
    50
100
AcDbLine
 10
542.279818
 20
414.946609
 30
0.0
 11
542.279818
 21
417.946609
 31
0.0
  0
LINE
  5
B1
330
1F
100
AcDbEntity
  8
LC-001-100-D00-0
 62
     7
370
    50
100
AcDbLine
 10
542.279818
 20
417.946609
 30
0.0
 11
547.279818
 21
417.946609
 31
0.0
  0
LINE
  5
B2
330
1F
100
AcDbEntity
  8
LC-001-100-D00-0
 62
     7
370
    50
100
AcDbLine
 10
547.279818
 20
414.946609
 30
0.0
 11
542.279818
 21
414.946609
 31
0.0
  0
LINE
  5
B3
330
1F
100
AcDbEntity
  8
LC-001-100-D00-0
 62
     7
370
    50
100
AcDbLine
 10
623.279818
 20
417.946609
 30
0.0
 11
623.279818
 21
414.946609
 31
0.0
  0
LINE
  5
B4
330
1F
100
AcDbEntity
  8
LC-001-100-D00-0
 62
     7
370
    50
100
AcDbLine
 10
623.279818
 20
414.946609
 30
0.0
 11
618.279818
 21
414.946609
 31
0.0
  0
LINE
  5
B5
330
1F
100
AcDbEntity
  8
LC-001-100-D00-0
 62
     7
370
    50
100
AcDbLine
 10
618.279818
 20
417.946609
 30
0.0
 11
623.279818
 21
417.946609
 31
0.0
  0
LINE
  5
B6
330
1F
100
AcDbEntity
  8
LC-001-100-D00-0
 62
     7
370
    50
100
AcDbLine
 10
610.279818
 20
414.946608
 30
0.0
 11
618.279818
 21
414.946609
 31
0.0
  0
LINE
  5
B7
330
1F
100
AcDbEntity
  8
LC-001-100-D00-0
 62
     7
370
    50
100
AcDbLine
 10
610.279818
 20
417.946609
 30
0.0
 11
618.279818
 21
417.946609
 31
0.0
  0
LINE
  5
B8
330
1F
100
AcDbEntity
  8
LC-001-100-D00-0
 62
     7
370
    50
100
AcDbLine
 10
620.726626
 20
384.696609
 30
0.0
 11
544.833009
 21
384.696609
 31
0.0
  0
LINE
  5
B9
330
1F
100
AcDbEntity
  8
LC-001-100-D00-0
 62
     7
370
    50
100
AcDbLine
 10
542.279818
 20
417.946609
 30
0.0
 11
542.279818
 21
418.946609
 31
0.0
  0
LINE
  5
BA
330
1F
100
AcDbEntity
  8
LC-001-100-D00-0
 62
     7
370
    50
100
AcDbLine
 10
623.279818
 20
418.946609
 30
0.0
 11
623.279818
 21
417.946609
 31
0.0
  0
LINE
  5
BB
330
1F
100
AcDbEntity
  8
LC-001-100-D00-0
 62
     7
370
    50
100
AcDbLine
 10
542.279818
 20
418.946609
 30
0.0
 11
542.279818
 21
433.946609
 31
0.0
  0
LINE
  5
BC
330
1F
100
AcDbEntity
  8
LC-001-100-D00-0
 62
     7
370
    50
100
AcDbLine
 10
542.279818
 20
384.696609
 30
0.0
 11
542.279818
 21
412.946609
 31
0.0
  0
LINE
  5
BD
330
1F
100
AcDbEntity
  8
LC-001-100-D00-0
 62
     7
370
    50
100
AcDbLine
 10
544.833009
 20
384.696609
 30
0.0
 11
542.279818
 21
384.696609
 31
0.0
  0
LINE
  5
BE
330
1F
100
AcDbEntity
  8
LC-001-100-D00-0
 62
     7
370
    50
100
AcDbLine
 10
623.279818
 20
433.946609
 30
0.0
 11
623.279818
 21
418.946609
 31
0.0
  0
LINE
  5
BF
330
1F
100
AcDbEntity
  8
LC-001-100-D00-0
 62
     7
370
    50
100
AcDbLine
 10
623.279818
 20
412.946609
 30
0.0
 11
623.279818
 21
384.696609
 31
0.0
  0
LINE
  5
C0
330
1F
100
AcDbEntity
  8
LC-001-100-D00-0
 62
     7
370
    50
100
AcDbLine
 10
623.279818
 20
384.696609
 30
0.0
 11
620.726626
 21
384.696609
 31
0.0
  0
LINE
  5
C1
330
1F
100
AcDbEntity
  8
LC-001-100-D00-0
 62
     7
370
    50
100
AcDbLine
 10
544.833009
 20
384.696609
 30
0.0
 11
620.726626
 21
384.696609
 31
0.0
  0
LINE
  5
C2
330
1F
100
AcDbEntity
  8
LC-001-100-D00-0
 62
     7
370
    50
100
AcDbLine
 10
609.822371
 20
331.946609
 30
0.0
 11
555.737265
 21
331.946609
 31
0.0
  0
LINE
  5
C3
330
1F
100
AcDbEntity
  8
LC-001-100-D00-0
 62
     7
370
    50
100
AcDbLine
 10
603.295415
 20
325.446609
 30
0.0
 11
562.26422
 21
325.446609
 31
0.0
  0
LINE
  5
C4
330
1F
100
AcDbEntity
  8
LC-001-100-D00-0
 62
     7
370
    50
100
AcDbLine
 10
623.279818
 20
384.696609
 30
0.0
 11
623.279818
 21
344.446609
 31
0.0
  0
LINE
  5
C5
330
1F
100
AcDbEntity
  8
LC-001-100-D00-0
 62
     7
370
    50
100
AcDbLine
 10
620.726626
 20
384.696609
 30
0.0
 11
623.279818
 21
384.696609
 31
0.0
  0
ARC
  5
C6
330
1F
100
AcDbEntity
  8
LC-001-100-D00-0
 62
     7
370
    50
100
AcDbCircle
 10
610.779818
 20
344.446609
 30
0.0
 40
12.5
100
AcDbArc
 50
270.0
 51
0.0
  0
LINE
  5
C7
330
1F
100
AcDbEntity
  8
LC-001-100-D00-0
 62
     7
370
    50
100
AcDbLine
 10
610.779818
 20
331.946609
 30
0.0
 11
609.822371
 21
331.946609
 31
0.0
  0
LINE
  5
C8
330
1F
100
AcDbEntity
  8
LC-001-100-D00-0
 62
     7
370
    50
100
AcDbLine
 10
542.279818
 20
344.446609
 30
0.0
 11
542.279818
 21
384.696609
 31
0.0
  0
LINE
  5
C9
330
1F
100
AcDbEntity
  8
LC-001-100-D00-0
 62
     7
370
    50
100
AcDbLine
 10
542.279818
 20
384.696609
 30
0.0
 11
544.833009
 21
384.696609
 31
0.0
  0
ARC
  5
CA
330
1F
100
AcDbEntity
  8
LC-001-100-D00-0
 62
     7
370
    50
100
AcDbCircle
 10
554.779818
 20
344.446609
 30
0.0
 40
12.5
100
AcDbArc
 50
180.0
 51
270.0
  0
LINE
  5
CB
330
1F
100
AcDbEntity
  8
LC-001-100-D00-0
 62
     7
370
    50
100
AcDbLine
 10
555.737265
 20
331.946609
 30
0.0
 11
554.779818
 21
331.946609
 31
0.0
  0
ARC
  5
CC
330
1F
100
AcDbEntity
  8
LC-001-100-D00-0
 62
     7
370
    50
100
AcDbCircle
 10
562.261938
 20
332.446609
 30
0.0
 40
7.000000000000109
100
AcDbArc
 50
184.096044
 51
270.0
  0
LINE
  5
CD
330
1F
100
AcDbEntity
  8
LC-001-100-D00-0
 62
     7
370
    50
100
AcDbLine
 10
562.26422
 20
325.446609
 30
0.0
 11
562.261938
 21
325.446609
 31
0.0
  0
ARC
  5
CE
330
1F
100
AcDbEntity
  8
LC-001-100-D00-0
 62
     7
370
    50
100
AcDbCircle
 10
603.297698
 20
332.446609
 30
0.0
 40
7.0
100
AcDbArc
 50
270.0
 51
355.903956
  0
LINE
  5
CF
330
1F
100
AcDbEntity
  8
LC-001-100-D00-0
 62
     7
370
    50
100
AcDbLine
 10
603.297698
 20
325.446609
 30
0.0
 11
603.295415
 21
325.446609
 31
0.0
  0
LINE
  5
D0
330
1F
100
AcDbEntity
  8
LC-001-100-D00-0
 62
     7
370
    50
100
AcDbLine
 10
617.779818
 20
412.946609
 30
0.0
 11
623.279818
 21
412.946609
 31
0.0
  0
LINE
  5
D1
330
1F
100
AcDbEntity
  8
LC-001-100-D00-0
 62
     7
370
    50
100
AcDbLine
 10
612.279818
 20
412.946609
 30
0.0
 11
617.779818
 21
412.946609
 31
0.0
  0
LINE
  5
D2
330
1F
100
AcDbEntity
  8
LC-001-100-D00-0
 62
     7
370
    50
100
AcDbLine
 10
547.779818
 20
412.946609
 30
0.0
 11
553.279818
 21
412.946609
 31
0.0
  0
LINE
  5
D3
330
1F
100
AcDbEntity
  8
LC-001-100-D00-0
 62
     7
370
    50
100
AcDbLine
 10
542.279818
 20
412.946609
 30
0.0
 11
547.779818
 21
412.946609
 31
0.0
  0
DIMENSION
  5
D6
330
1F
100
AcDbEntity
  8
LC-001-100-D00-0
 62
     7
370
    25
100
AcDbDimension
  2
*D1
 10
623.279818
 20
284.761896
 30
0.0
 11
586.652026
 21
339.761896
 31
0.0
 70
   160
  1
81
 71
     5
 42
81.0
  3
LC-DIM-L-0100-02-02
100
AcDbAlignedDimension
 13
542.279818
 23
344.446609
 33
0.0
 14
623.279818
 24
344.446609
 34
0.0
100
AcDbRotatedDimension
  0
LINE
  5
E7
330
1F
100
AcDbEntity
  8
LC-001-100-D00-0
  6
DASHDOT
 62
     7
370
    25
100
AcDbLine
 10
582.779818
 20
325.446609
 30
0.0
 11
582.779818
 21
435.446609
 31
0.0
  0
LINE
  5
E8
330
1F
100
AcDbEntity
  8
LC-001-100-D00-0
  6
DASHDOT
 62
     7
370
    25
100
AcDbLine
 10
647.279818
 20
313.946609
 30
0.0
 11
647.279818
 21
411.946609
 31
0.0
  0
LINE
  5
E9
330
1F
100
AcDbEntity
  8
LC-001-100-D00-0
 62
     7
370
    50
100
AcDbLine
 10
134.695441
 20
103.166216
 30
0.0
 11
134.695441
 21
101.666216
 31
0.0
  0
LINE
  5
EA
330
1F
100
AcDbEntity
  8
LC-001-100-D00-0
 62
     7
370
    50
100
AcDbLine
 10
129.695441
 20
103.166216
 30
0.0
 11
134.695441
 21
103.166216
 31
0.0
  0
LINE
  5
EB
330
1F
100
AcDbEntity
  8
LC-001-100-D00-0
 62
     7
370
    50
100
AcDbLine
 10
134.695441
 20
101.666216
 30
0.0
 11
129.695441
 21
101.666216
 31
0.0
  0
LINE
  5
EC
330
1F
100
AcDbEntity
  8
LC-001-100-D00-0
 62
     7
370
    50
100
AcDbLine
 10
-560.304559
 20
103.166216
 30
0.0
 11
129.695441
 21
103.166216
 31
0.0
  0
LINE
  5
ED
330
1F
100
AcDbEntity
  8
LC-001-100-D00-0
 62
     7
370
    50
100
AcDbLine
 10
-560.304559
 20
101.666216
 30
0.0
 11
129.695441
 21
101.666216
 31
0.0
  0
LINE
  5
EE
330
1F
100
AcDbEntity
  8
LC-001-100-D00-0
 62
     7
370
    50
100
AcDbLine
 10
-565.304559
 20
101.666216
 30
0.0
 11
-565.304559
 21
103.166216
 31
0.0
  0
LINE
  5
EF
330
1F
100
AcDbEntity
  8
LC-001-100-D00-0
 62
     7
370
    50
100
AcDbLine
 10
-565.304559
 20
103.166216
 30
0.0
 11
-560.304559
 21
103.166216
 31
0.0
  0
LINE
  5
F0
330
1F
100
AcDbEntity
  8
LC-001-100-D00-0
 62
     7
370
    50
100
AcDbLine
 10
-560.304559
 20
101.666216
 30
0.0
 11
-565.304559
 21
101.666216
 31
0.0
  0
LINE
  5
F1
330
1F
100
AcDbEntity
  8
LC-001-100-D00-0
 62
     7
370
    50
100
AcDbLine
 10
-565.304559
 20
100.166216
 30
0.0
 11
-565.304559
 21
101.666216
 31
0.0
  0
LINE
  5
F2
330
1F
100
AcDbEntity
  8
LC-001-100-D00-0
 62
     7
370
    50
100
AcDbLine
 10
134.695441
 20
101.666216
 30
0.0
 11
134.695441
 21
100.166216
 31
0.0
  0
ARC
  5
F3
330
1F
100
AcDbEntity
  8
LC-001-100-D00-0
 62
     7
370
    50
100
AcDbCircle
 10
82.195441
 20
80.666216
 30
0.0
 40
2.5
100
AcDbArc
 50
0.0
 51
90.0
  0
ARC
  5
F4
330
1F
100
AcDbEntity
  8
LC-001-100-D00-0
 62
     7
370
    50
100
AcDbCircle
 10
82.195441
 20
33.666216
 30
0.0
 40
2.5
100
AcDbArc
 50
270.0
 51
0.0
  0
LINE
  5
F5
330
1F
100
AcDbEntity
  8
LC-001-100-D00-0
 62
     7
370
    50
100
AcDbLine
 10
84.695441
 20
33.666216
 30
0.0
 11
84.695441
 21
80.666216
 31
0.0
  0
LINE
  5
F6
330
1F
100
AcDbEntity
  8
LC-001-100-D00-0
 62
     7
370
    50
100
AcDbLine
 10
-512.804559
 20
83.166216
 30
0.0
 11
82.195441
 21
83.166216
 31
0.0
  0
LINE
  5
F7
330
1F
100
AcDbEntity
  8
LC-001-100-D00-0
 62
     7
370
    50
100
AcDbLine
 10
82.195441
 20
31.166216
 30
0.0
 11
-512.804559
 21
31.166216
 31
0.0
  0
ARC
  5
F8
330
1F
100
AcDbEntity
  8
LC-001-100-D00-0
 62
     7
370
    50
100
AcDbCircle
 10
-512.804559
 20
33.666216
 30
0.0
 40
2.5
100
AcDbArc
 50
180.0
 51
270.0
  0
ARC
  5
F9
330
1F
100
AcDbEntity
  8
LC-001-100-D00-0
 62
     7
370
    50
100
AcDbCircle
 10
-512.804559
 20
80.666216
 30
0.0
 40
2.5
100
AcDbArc
 50
90.0
 51
180.0
  0
LINE
  5
FA
330
1F
100
AcDbEntity
  8
LC-001-100-D00-0
 62
     7
370
    50
100
AcDbLine
 10
-515.304559
 20
33.666216
 30
0.0
 11
-515.304559
 21
80.666216
 31
0.0
  0
ARC
  5
FB
330
1F
100
AcDbEntity
  8
LC-001-100-D00-0
 62
     7
370
    50
100
AcDbCircle
 10
129.695441
 20
-15.333784
 30
0.0
 40
5.0
100
AcDbArc
 50
270.0
 51
0.0
  0
LINE
  5
FC
330
1F
100
AcDbEntity
  8
LC-001-100-D00-0
 62
     7
370
    50
100
AcDbLine
 10
-560.304559
 20
-20.333784
 30
0.0
 11
129.695441
 21
-20.333784
 31
0.0
  0
ARC
  5
FD
330
1F
100
AcDbEntity
  8
LC-001-100-D00-0
 62
     7
370
    50
100
AcDbCircle
 10
-560.304559
 20
-15.333784
 30
0.0
 40
5.0
100
AcDbArc
 50
180.0
 51
270.0
  0
LINE
  5
FE
330
1F
100
AcDbEntity
  8
LC-001-100-D00-0
 62
     7
370
    50
100
AcDbLine
 10
-565.304559
 20
100.166216
 30
0.0
 11
-565.304559
 21
-15.333784
 31
0.0
  0
LINE
  5
FF
330
1F
100
AcDbEntity
  8
LC-001-100-D00-0
 62
     7
370
    50
100
AcDbLine
 10
134.695441
 20
100.166216
 30
0.0
 11
134.695441
 21
-15.333784
 31
0.0
  0
CIRCLE
  5
100
330
1F
100
AcDbEntity
  8
LC-001-100-D00-0
 62
     7
370
    50
100
AcDbCircle
 10
54.695441
 20
57.166216
 30
0.0
 40
3.0
  0
CIRCLE
  5
101
330
1F
100
AcDbEntity
  8
LC-001-100-D00-0
 62
     7
370
    50
100
AcDbCircle
 10
-115.304559
 20
57.166216
 30
0.0
 40
3.0
  0
CIRCLE
  5
102
330
1F
100
AcDbEntity
  8
LC-001-100-D00-0
 62
     7
370
    50
100
AcDbCircle
 10
-315.304559
 20
57.166216
 30
0.0
 40
2.999999999999773
  0
CIRCLE
  5
103
330
1F
100
AcDbEntity
  8
LC-001-100-D00-0
 62
     7
370
    50
100
AcDbCircle
 10
-485.304559
 20
57.166216
 30
0.0
 40
2.999999999999773
  0
INSERT
  5
109
330
1F
100
AcDbEntity
  8
LC-001-100-D00-0
 62
     7
370
    50
100
AcDbBlockReference
  2
KLON1
 10
0.0
 20
0.0
 30
0.0
  0
LINE
  5
10A
330
1F
100
AcDbEntity
  8
LC-001-100-D00-0
 62
     7
370
    50
100
AcDbLine
 10
76.669241
 20
44.843548
 30
0.0
 11
76.669241
 21
33.666217
 31
0.0
  0
ARC
  5
10B
330
1F
100
AcDbEntity
  8
LC-001-100-D00-0
 62
     7
370
    50
100
AcDbCircle
 10
839.855435
 20
-74.447954
 30
0.0
 40
772.4529946600675
100
AcDbArc
 50
171.103568
 51
171.116141
  0
INSERT
  5
113
330
1F
100
AcDbEntity
  8
LC-001-100-D00-0
 62
     7
370
    50
100
AcDbBlockReference
  2
KLON2
 10
0.0
 20
0.0
 30
0.0
  0
LINE
  5
114
330
1F
100
AcDbEntity
  8
LC-001-100-D00-0
 62
     7
370
    50
100
AcDbLine
 10
76.669241
 20
80.651577
 30
0.0
 11
76.669241
 21
69.488885
 31
0.0
  0
INSERT
  5
11A
330
1F
100
AcDbEntity
  8
LC-001-100-D00-0
 62
     7
370
    50
100
AcDbBlockReference
  2
KLON3
 10
0.0
 20
0.0
 30
0.0
  0
INSERT
  5
120
330
1F
100
AcDbEntity
  8
LC-001-100-D00-0
 62
     7
370
    50
100
AcDbBlockReference
  2
KLON4
 10
0.0
 20
0.0
 30
0.0
  0
INSERT
  5
126
330
1F
100
AcDbEntity
  8
LC-001-100-D00-0
 62
     7
370
    50
100
AcDbBlockReference
  2
KLON5
 10
0.0
 20
0.0
 30
0.0
  0
LINE
  5
127
330
1F
100
AcDbEntity
  8
LC-001-100-D00-0
 62
     7
370
    50
100
AcDbLine
 10
-507.278358
 20
80.651577
 30
0.0
 11
-507.278358
 21
69.488885
 31
0.0
  0
INSERT
  5
12F
330
1F
100
AcDbEntity
  8
LC-001-100-D00-0
 62
     7
370
    50
100
AcDbBlockReference
  2
KLON6
 10
0.0
 20
0.0
 30
0.0
  0
ARC
  5
130
330
1F
100
AcDbEntity
  8
LC-001-100-D00-0
 62
     7
370
    50
100
AcDbCircle
 10
-1270.464519
 20
-74.447948
 30
0.0
 40
772.452961486949
100
AcDbArc
 50
8.883859
 51
8.896432
  0
LINE
  5
131
330
1F
100
AcDbEntity
  8
LC-001-100-D00-0
 62
     7
370
    50
100
AcDbLine
 10
-507.278358
 20
44.843548
 30
0.0
 11
-507.278358
 21
33.666217
 31
0.0
  0
ELLIPSE
  5
132
330
1F
100
AcDbEntity
  8
LC-001-100-D00-0
 62
     7
370
    50
100
AcDbEllipse
 10
76.622473
 20
33.666216
 30
0.0
 11
0.0
 21
-2.499999755859363
 31
0.0
210
0.0
220
0.0
230
0.9999999999999999
 40
0.018242
 41
3.14159265359509
 42
4.712388980377416
  0
ELLIPSE
  5
133
330
1F
100
AcDbEntity
  8
LC-001-100-D00-0
 62
     7
370
    50
100
AcDbEllipse
 10
-60.377527
 20
33.666216
 30
0.0
 11
0.0
 21
-2.500000000476837
 31
0.0
210
0.0
220
0.0
230
1.0
 40
0.018242
 41
3.141592653590105
 42
4.712388980381004
  0
ELLIPSE
  5
134
330
1F
100
AcDbEntity
  8
LC-001-100-D00-0
 62
     7
370
    50
100
AcDbEllipse
 10
145.168078
 20
33.666216
 30
0.0
 11
68.4999999999998
 21
0.0
 31
0.0
210
0.0
220
0.0
230
1.0
 40
0.036496
 41
3.141592653597388
 42
3.169858841660663
  0
ELLIPSE
  5
135
330
1F
100
AcDbEntity
  8
LC-001-100-D00-0
 62
     7
370
    50
100
AcDbEllipse
 10
-507.23159
 20
33.666216
 30
0.0
 11
0.0
 21
-2.5
 31
0.0
210
0.0
220
0.0
230
1.0
 40
0.018242
 41
1.570796326802169
 42
3.141592653588547
  0
ELLIPSE
  5
136
330
1F
100
AcDbEntity
  8
LC-001-100-D00-0
 62
     7
370
    50
100
AcDbEllipse
 10
-370.23159
 20
33.666216
 30
0.0
 11
0.0
 21
-2.5
 31
0.0
210
0.0
220
0.0
230
1.0
 40
0.018242
 41
1.570796326798714
 42
3.141592653588547
  0
ELLIPSE
  5
137
330
1F
100
AcDbEntity
  8
LC-001-100-D00-0
 62
     7
370
    50
100
AcDbEllipse
 10
-575.777196
 20
33.666216
 30
0.0
 11
68.49999999428376
 21
0.0
 31
0.0
210
0.0
220
0.0
230
1.0
 40
0.036496
 41
6.254919119109542
 42
6.283185307179632
  0
ELLIPSE
  5
138
330
1F
100
AcDbEntity
  8
LC-001-100-D00-0
 62
     7
370
    50
100
AcDbEllipse
 10
145.168078
 20
80.666216
 30
0.0
 11
68.4999999999998
 21
0.0
 31
0.0
210
0.0
220
0.0
230
1.0
 40
0.036496
 41
3.141592653589793
 42
3.147448628039589
  0
ELLIPSE
  5
139
330
1F
100
AcDbEntity
  8
LC-001-100-D00-0
 62
     7
370
    50
100
AcDbEllipse
 10
76.622473
 20
80.666216
 30
0.0
 11
0.0
 21
-2.499999633789036
 31
0.0
210
0.0
220
0.0
230
1.0
 40
0.018242
 41
4.71238898038469
 42
6.283185357505149
  0
ELLIPSE
  5
13A
330
1F
100
AcDbEntity
  8
LC-001-100-D00-0
 62
     7
370
    50
100
AcDbEllipse
 10
-575.777196
 20
80.666216
 30
0.0
 11
68.4999999999998
 21
0.0
 31
0.0
210
0.0
220
0.0
230
1.0
 40
0.036496
 41
6.277329332730609
 42
6.283185307179586
  0
ELLIPSE
  5
13B
330
1F
100
AcDbEntity
  8
LC-001-100-D00-0
 62
     7
370
    50
100
AcDbEllipse
 10
-507.23159
 20
80.666216
 30
0.0
 11
0.0
 21
-2.499999755859363
 31
0.0
210
0.0
220
0.0
230
0.9999999999999999
 40
0.018242
 41
6.283185256850286
 42
7.853981633974483
  0
ELLIPSE
  5
13C
330
1F
100
AcDbEntity
  8
LC-001-100-D00-0
 62
     7
370
    50
100
AcDbEllipse
 10
-60.377527
 20
80.666216
 30
0.0
 11
0.0
 21
-2.499999024390984
 31
0.0
210
0.0
220
0.0
230
1.0
 40
0.018242
 41
4.712388980388231
 42
6.283185315662274
  0
ELLIPSE
  5
13D
330
1F
100
AcDbEntity
  8
LC-001-100-D00-0
 62
     7
370
    50
100
AcDbEllipse
 10
-370.23159
 20
80.666216
 30
0.0
 11
0.0
 21
-2.500000015258789
 31
0.0
210
0.0
220
0.0
230
1.0
 40
0.018242
 41
6.283185298677738
 42
7.853981633970976
  0
LINE
  5
13E
330
1F
100
AcDbEntity
  8
LC-001-100-D00-0
 62
     7
370
    50
100
AcDbLine
 10
-60.331916
 20
33.666217
 30
0.0
 11
-60.331916
 21
36.516733
 31
0.0
  0
INSERT
  5
144
330
1F
100
AcDbEntity
  8
LC-001-100-D00-0
 62
     7
370
    50
100
AcDbBlockReference
  2
KLON7
 10
0.0
 20
0.0
 30
0.0
  0
INSERT
  5
14A
330
1F
100
AcDbEntity
  8
LC-001-100-D00-0
 62
     7
370
    50
100
AcDbBlockReference
  2
KLON8
 10
0.0
 20
0.0
 30
0.0
  0
LINE
  5
14B
330
1F
100
AcDbEntity
  8
LC-001-100-D00-0
 62
     7
370
    50
100
AcDbLine
 10
-370.277201
 20
33.666217
 30
0.0
 11
-370.277201
 21
36.516733
 31
0.0
  0
INSERT
  5
152
330
1F
100
AcDbEntity
  8
LC-001-100-D00-0
 62
     7
370
    50
100
AcDbBlockReference
  2
KLON9
 10
0.0
 20
0.0
 30
0.0
  0
INSERT
  5
158
330
1F
100
AcDbEntity
  8
LC-001-100-D00-0
 62
     7
370
    50
100
AcDbBlockReference
  2
KLON10
 10
0.0
 20
0.0
 30
0.0
  0
INSERT
  5
15F
330
1F
100
AcDbEntity
  8
LC-001-100-D00-0
 62
     7
370
    50
100
AcDbBlockReference
  2
KLON11
 10
0.0
 20
0.0
 30
0.0
  0
INSERT
  5
166
330
1F
100
AcDbEntity
  8
LC-001-100-D00-0
 62
     7
370
    50
100
AcDbBlockReference
  2
KLON12
 10
0.0
 20
0.0
 30
0.0
  0
INSERT
  5
16D
330
1F
100
AcDbEntity
  8
LC-001-100-D00-0
 62
     7
370
    50
100
AcDbBlockReference
  2
KLON13
 10
0.0
 20
0.0
 30
0.0
  0
INSERT
  5
173
330
1F
100
AcDbEntity
  8
LC-001-100-D00-0
 62
     7
370
    50
100
AcDbBlockReference
  2
KLON14
 10
0.0
 20
0.0
 30
0.0
  0
LINE
  5
174
330
1F
100
AcDbEntity
  8
LC-001-100-D00-0
 62
     7
370
    50
100
AcDbLine
 10
-60.331916
 20
77.8157
 30
0.0
 11
-60.331916
 21
80.666216
 31
0.0
  0
LINE
  5
175
330
1F
100
AcDbEntity
  8
LC-001-100-D00-0
 62
     7
370
    50
100
AcDbLine
 10
-370.277201
 20
77.8157
 30
0.0
 11
-370.277201
 21
80.666216
 31
0.0
  0
LINE
  5
176
330
1F
100
AcDbEntity
  8
LC-001-100-D00-0
 62
     7
370
    50
100
AcDbLine
 10
-60.317656
 20
37.310538
 30
0.0
 11
-60.317656
 21
51.305266
 31
0.0
  0
ELLIPSE
  5
177
330
1F
100
AcDbEntity
  8
LC-001-100-D00-0
 62
     7
370
    15
100
AcDbEllipse
 10
153.149395
 20
168.787218
 30
0.0
 11
28.64933029900055
 21
1.713494947728893
 31
0.0
210
0.0
220
0.0
230
1.0
 40
0.016531
 41
6.280994665938694
 42
6.282196627516365
  0
ELLIPSE
  5
178
330
1F
100
AcDbEntity
  8
LC-001-100-D00-0
 62
     7
370
    15
100
AcDbEllipse
 10
153.149395
 20
180.155541
 30
0.0
 11
28.64933024674711
 21
-1.713494944603647
 31
0.0
210
0.0
220
0.0
230
0.9999999999999999
 40
0.016531
 41
0.0009886796633094
 42
0.0021906412408536
  0
LINE
  5
179
330
1F
100
AcDbEntity
  8
LC-001-100-D00-0
 62
     7
370
    50
100
AcDbLine
 10
-60.317656
 20
63.027167
 30
0.0
 11
-60.317656
 21
77.021895
 31
0.0
  0
ELLIPSE
  5
17A
330
1F
100
AcDbEntity
  8
LC-001-100-D00-0
 62
     7
370
    15
100
AcDbEllipse
 10
148.453319
 20
168.787218
 30
0.0
 11
28.64933020644693
 21
-1.713494942193331
 31
0.0
210
0.0
220
0.0
230
1.0
 40
0.016531
 41
3.142581333259777
 42
3.143783294837278
  0
LINE
  5
17B
330
1F
100
AcDbEntity
  8
LC-001-100-D00-0
 62
     7
370
    50
100
AcDbLine
 10
-370.291462
 20
37.310538
 30
0.0
 11
-370.291462
 21
51.305266
 31
0.0
  0
ELLIPSE
  5
17C
330
1F
100
AcDbEntity
  8
LC-001-100-D00-0
 62
     7
370
    15
100
AcDbEllipse
 10
148.453319
 20
180.155541
 30
0.0
 11
28.64933022318173
 21
1.713494943194277
 31
0.0
210
0.0
220
0.0
230
1.0
 40
0.016531
 41
3.139402012353169
 42
3.14060397393076
  0
LINE
  5
17D
330
1F
100
AcDbEntity
  8
LC-001-100-D00-0
 62
     7
370
    50
100
AcDbLine
 10
-370.291462
 20
63.027167
 30
0.0
 11
-370.291462
 21
77.021895
 31
0.0
  0
LINE
  5
17E
330
1F
100
AcDbEntity
  8
LC-001-100-D00-0
 62
     7
370
    50
100
AcDbLine
 10
-60.331916
 20
36.517106
 30
0.0
 11
-60.317745
 21
37.307676
 31
0.0
  0
LINE
  5
17F
330
1F
100
AcDbEntity
  8
LC-001-100-D00-0
 62
     7
370
    50
100
AcDbLine
 10
-60.331916
 20
77.815327
 30
0.0
 11
-60.317745
 21
77.024757
 31
0.0
  0
LINE
  5
180
330
1F
100
AcDbEntity
  8
LC-001-100-D00-0
 62
     7
370
    50
100
AcDbLine
 10
-370.277201
 20
36.517106
 30
0.0
 11
-370.291372
 21
37.307676
 31
0.0
  0
LINE
  5
181
330
1F
100
AcDbEntity
  8
LC-001-100-D00-0
 62
     7
370
    50
100
AcDbLine
 10
-370.277201
 20
77.815327
 30
0.0
 11
-370.291372
 21
77.024757
 31
0.0
  0
ARC
  5
182
330
1F
100
AcDbEntity
  8
LC-001-100-D00-0
 62
     7
370
    50
100
AcDbCircle
 10
-184.804566
 20
57.166237
 30
0.0
 40
24.8000210591365
100
AcDbArc
 50
270.0
 51
300.592807
  0
ARC
  5
183
330
1F
100
AcDbEntity
  8
LC-001-100-D00-0
 62
     7
370
    50
100
AcDbCircle
 10
-245.804551
 20
57.166237
 30
0.0
 40
24.80002105913644
100
AcDbArc
 50
239.407193
 51
270.0
  0
ARC
  5
184
330
1F
100
AcDbEntity
  8
LC-001-100-D00-0
 62
     7
370
    50
100
AcDbCircle
 10
-184.804564
 20
57.166204
 30
0.0
 40
24.80001358063753
100
AcDbArc
 50
59.407188
 51
90.0
  0
ARC
  5
185
330
1F
100
AcDbEntity
  8
LC-001-100-D00-0
 62
     7
370
    50
100
AcDbCircle
 10
-245.804553
 20
57.166204
 30
0.0
 40
24.8000135806376
100
AcDbArc
 50
90.0
 51
120.592812
  0
LINE
  5
186
330
1F
100
AcDbEntity
  8
LC-001-100-D00-0
 62
     7
370
    50
100
AcDbLine
 10
-245.804559
 20
81.966217
 30
0.0
 11
-184.804558
 21
81.966217
 31
0.0
  0
LINE
  5
187
330
1F
100
AcDbEntity
  8
LC-001-100-D00-0
 62
     7
370
    50
100
AcDbLine
 10
-184.804558
 20
32.366216
 30
0.0
 11
-245.804559
 21
32.366216
 31
0.0
  0
LINE
  5
188
330
1F
100
AcDbEntity
  8
LC-001-100-D00-0
 62
     7
370
    50
100
AcDbLine
 10
-282.137392
 20
60.60512
 30
0.0
 11
-282.129248
 21
60.237228
 31
0.0
  0
LINE
  5
189
330
1F
100
AcDbEntity
  8
LC-001-100-D00-0
 62
     7
370
    50
100
AcDbLine
 10
-283.248668
 20
61.398088
 30
0.0
 11
-282.137392
 21
60.60512
 31
0.0
  0
LINE
  5
18A
330
1F
100
AcDbEntity
  8
LC-001-100-D00-0
 62
     7
370
    50
100
AcDbLine
 10
-282.137392
 20
62.191057
 30
0.0
 11
-283.248668
 21
61.398088
 31
0.0
  0
LINE
  5
18B
330
1F
100
AcDbEntity
  8
LC-001-100-D00-0
 62
     7
370
    50
100
AcDbLine
 10
-282.137392
 20
62.564755
 30
0.0
 11
-282.137392
 21
62.191057
 31
0.0
  0
LINE
  5
18C
330
1F
100
AcDbEntity
  8
LC-001-100-D00-0
 62
     7
370
    50
100
AcDbLine
 10
-283.510891
 20
61.585288
 30
0.0
 11
-282.137392
 21
62.564755
 31
0.0
  0
LINE
  5
18D
330
1F
100
AcDbEntity
  8
LC-001-100-D00-0
 62
     7
370
    50
100
AcDbLine
 10
-284.695087
 20
62.43014
 30
0.0
 11
-283.510891
 21
61.585288
 31
0.0
  0
LINE
  5
18E
330
1F
100
AcDbEntity
  8
LC-001-100-D00-0
 62
     7
370
    50
100
AcDbLine
 10
-284.695087
 20
62.056441
 30
0.0
 11
-284.695087
 21
62.43014
 31
0.0
  0
LINE
  5
18F
330
1F
100
AcDbEntity
  8
LC-001-100-D00-0
 62
     7
370
    50
100
AcDbLine
 10
-283.772407
 20
61.398088
 30
0.0
 11
-284.695087
 21
62.056441
 31
0.0
  0
LINE
  5
190
330
1F
100
AcDbEntity
  8
LC-001-100-D00-0
 62
     7
370
    50
100
AcDbLine
 10
-284.695087
 20
60.739735
 30
0.0
 11
-283.772407
 21
61.398088
 31
0.0
  0
LINE
  5
191
330
1F
100
AcDbEntity
  8
LC-001-100-D00-0
 62
     7
370
    50
100
AcDbLine
 10
-284.695087
 20
60.366037
 30
0.0
 11
-284.695087
 21
60.739735
 31
0.0
  0
LINE
  5
192
330
1F
100
AcDbEntity
  8
LC-001-100-D00-0
 62
     7
370
    50
100
AcDbLine
 10
-283.510891
 20
61.21159
 30
0.0
 11
-284.695087
 21
60.366037
 31
0.0
  0
LINE
  5
193
330
1F
100
AcDbEntity
  8
LC-001-100-D00-0
 62
     7
370
    50
100
AcDbLine
 10
-282.129248
 20
60.237228
 30
0.0
 11
-283.510891
 21
61.21159
 31
0.0
  0
LINE
  5
194
330
1F
100
AcDbEntity
  8
LC-001-100-D00-0
 62
     7
370
    50
100
AcDbLine
 10
-282.137392
 20
55.938453
 30
0.0
 11
-282.129248
 21
55.570561
 31
0.0
  0
LINE
  5
195
330
1F
100
AcDbEntity
  8
LC-001-100-D00-0
 62
     7
370
    50
100
AcDbLine
 10
-283.248668
 20
56.731422
 30
0.0
 11
-282.137392
 21
55.938453
 31
0.0
  0
LINE
  5
196
330
1F
100
AcDbEntity
  8
LC-001-100-D00-0
 62
     7
370
    50
100
AcDbLine
 10
-282.137392
 20
57.52439
 30
0.0
 11
-283.248668
 21
56.731422
 31
0.0
  0
LINE
  5
197
330
1F
100
AcDbEntity
  8
LC-001-100-D00-0
 62
     7
370
    50
100
AcDbLine
 10
-282.137392
 20
57.898088
 30
0.0
 11
-282.137392
 21
57.52439
 31
0.0
  0
LINE
  5
198
330
1F
100
AcDbEntity
  8
LC-001-100-D00-0
 62
     7
370
    50
100
AcDbLine
 10
-283.510891
 20
56.918621
 30
0.0
 11
-282.137392
 21
57.898088
 31
0.0
  0
LINE
  5
199
330
1F
100
AcDbEntity
  8
LC-001-100-D00-0
 62
     7
370
    50
100
AcDbLine
 10
-284.695087
 20
57.763473
 30
0.0
 11
-283.510891
 21
56.918621
 31
0.0
  0
LINE
  5
19A
330
1F
100
AcDbEntity
  8
LC-001-100-D00-0
 62
     7
370
    50
100
AcDbLine
 10
-284.695087
 20
57.389775
 30
0.0
 11
-284.695087
 21
57.763473
 31
0.0
  0
LINE
  5
19B
330
1F
100
AcDbEntity
  8
LC-001-100-D00-0
 62
     7
370
    50
100
AcDbLine
 10
-283.772407
 20
56.731422
 30
0.0
 11
-284.695087
 21
57.389775
 31
0.0
  0
LINE
  5
19C
330
1F
100
AcDbEntity
  8
LC-001-100-D00-0
 62
     7
370
    50
100
AcDbLine
 10
-284.695087
 20
56.073068
 30
0.0
 11
-283.772407
 21
56.731422
 31
0.0
  0
LINE
  5
19D
330
1F
100
AcDbEntity
  8
LC-001-100-D00-0
 62
     7
370
    50
100
AcDbLine
 10
-284.695087
 20
55.69937
 30
0.0
 11
-284.695087
 21
56.073068
 31
0.0
  0
LINE
  5
19E
330
1F
100
AcDbEntity
  8
LC-001-100-D00-0
 62
     7
370
    50
100
AcDbLine
 10
-283.510891
 20
56.544923
 30
0.0
 11
-284.695087
 21
55.69937
 31
0.0
  0
LINE
  5
19F
330
1F
100
AcDbEntity
  8
LC-001-100-D00-0
 62
     7
370
    50
100
AcDbLine
 10
-282.129248
 20
55.570561
 30
0.0
 11
-283.510891
 21
56.544923
 31
0.0
  0
LINE
  5
1A0
330
1F
100
AcDbEntity
  8
LC-001-100-D00-0
 62
     7
370
    50
100
AcDbLine
 10
-282.137392
 20
51.271786
 30
0.0
 11
-282.129248
 21
50.903895
 31
0.0
  0
LINE
  5
1A1
330
1F
100
AcDbEntity
  8
LC-001-100-D00-0
 62
     7
370
    50
100
AcDbLine
 10
-283.248668
 20
52.064755
 30
0.0
 11
-282.137392
 21
51.271786
 31
0.0
  0
LINE
  5
1A2
330
1F
100
AcDbEntity
  8
LC-001-100-D00-0
 62
     7
370
    50
100
AcDbLine
 10
-282.137392
 20
52.857724
 30
0.0
 11
-283.248668
 21
52.064755
 31
0.0
  0
LINE
  5
1A3
330
1F
100
AcDbEntity
  8
LC-001-100-D00-0
 62
     7
370
    50
100
AcDbLine
 10
-282.137392
 20
53.231421
 30
0.0
 11
-282.137392
 21
52.857724
 31
0.0
  0
LINE
  5
1A4
330
1F
100
AcDbEntity
  8
LC-001-100-D00-0
 62
     7
370
    50
100
AcDbLine
 10
-283.510891
 20
52.251955
 30
0.0
 11
-282.137392
 21
53.231421
 31
0.0
  0
LINE
  5
1A5
330
1F
100
AcDbEntity
  8
LC-001-100-D00-0
 62
     7
370
    50
100
AcDbLine
 10
-284.695087
 20
53.096806
 30
0.0
 11
-283.510891
 21
52.251955
 31
0.0
  0
LINE
  5
1A6
330
1F
100
AcDbEntity
  8
LC-001-100-D00-0
 62
     7
370
    50
100
AcDbLine
 10
-284.695087
 20
52.723108
 30
0.0
 11
-284.695087
 21
53.096806
 31
0.0
  0
LINE
  5
1A7
330
1F
100
AcDbEntity
  8
LC-001-100-D00-0
 62
     7
370
    50
100
AcDbLine
 10
-283.772407
 20
52.064755
 30
0.0
 11
-284.695087
 21
52.723108
 31
0.0
  0
LINE
  5
1A8
330
1F
100
AcDbEntity
  8
LC-001-100-D00-0
 62
     7
370
    50
100
AcDbLine
 10
-284.695087
 20
51.406402
 30
0.0
 11
-283.772407
 21
52.064755
 31
0.0
  0
LINE
  5
1A9
330
1F
100
AcDbEntity
  8
LC-001-100-D00-0
 62
     7
370
    50
100
AcDbLine
 10
-284.695087
 20
51.032703
 30
0.0
 11
-284.695087
 21
51.406402
 31
0.0
  0
LINE
  5
1AA
330
1F
100
AcDbEntity
  8
LC-001-100-D00-0
 62
     7
370
    50
100
AcDbLine
 10
-283.510891
 20
51.878256
 30
0.0
 11
-284.695087
 21
51.032703
 31
0.0
  0
LINE
  5
1AB
330
1F
100
AcDbEntity
  8
LC-001-100-D00-0
 62
     7
370
    50
100
AcDbLine
 10
-282.129248
 20
50.903895
 30
0.0
 11
-283.510891
 21
51.878256
 31
0.0
  0
LINE
  5
1AC
330
1F
100
AcDbEntity
  8
LC-001-100-D00-0
 62
     7
370
    50
100
AcDbLine
 10
-282.137392
 20
48.938453
 30
0.0
 11
-282.137392
 21
48.564755
 31
0.0
  0
LINE
  5
1AD
330
1F
100
AcDbEntity
  8
LC-001-100-D00-0
 62
     7
370
    50
100
AcDbLine
 10
-283.248668
 20
49.731421
 30
0.0
 11
-282.137392
 21
48.938453
 31
0.0
  0
LINE
  5
1AE
330
1F
100
AcDbEntity
  8
LC-001-100-D00-0
 62
     7
370
    50
100
AcDbLine
 10
-282.137392
 20
50.52439
 30
0.0
 11
-283.248668
 21
49.731421
 31
0.0
  0
LINE
  5
1AF
330
1F
100
AcDbEntity
  8
LC-001-100-D00-0
 62
     7
370
    50
100
AcDbLine
 10
-282.137392
 20
50.898088
 30
0.0
 11
-282.137392
 21
50.52439
 31
0.0
  0
LINE
  5
1B0
330
1F
100
AcDbEntity
  8
LC-001-100-D00-0
 62
     7
370
    50
100
AcDbLine
 10
-283.510891
 20
49.918621
 30
0.0
 11
-282.137392
 21
50.898088
 31
0.0
  0
LINE
  5
1B1
330
1F
100
AcDbEntity
  8
LC-001-100-D00-0
 62
     7
370
    50
100
AcDbLine
 10
-284.695087
 20
50.763473
 30
0.0
 11
-283.510891
 21
49.918621
 31
0.0
  0
LINE
  5
1B2
330
1F
100
AcDbEntity
  8
LC-001-100-D00-0
 62
     7
370
    50
100
AcDbLine
 10
-284.695087
 20
50.389775
 30
0.0
 11
-284.695087
 21
50.763473
 31
0.0
  0
LINE
  5
1B3
330
1F
100
AcDbEntity
  8
LC-001-100-D00-0
 62
     7
370
    50
100
AcDbLine
 10
-283.772407
 20
49.731421
 30
0.0
 11
-284.695087
 21
50.389775
 31
0.0
  0
LINE
  5
1B4
330
1F
100
AcDbEntity
  8
LC-001-100-D00-0
 62
     7
370
    50
100
AcDbLine
 10
-284.695087
 20
49.073068
 30
0.0
 11
-283.772407
 21
49.731421
 31
0.0
  0
LINE
  5
1B5
330
1F
100
AcDbEntity
  8
LC-001-100-D00-0
 62
     7
370
    50
100
AcDbLine
 10
-284.695087
 20
48.69937
 30
0.0
 11
-284.695087
 21
49.073068
 31
0.0
  0
LINE
  5
1B6
330
1F
100
AcDbEntity
  8
LC-001-100-D00-0
 62
     7
370
    50
100
AcDbLine
 10
-283.510891
 20
49.544923
 30
0.0
 11
-284.695087
 21
48.69937
 31
0.0
  0
LINE
  5
1B7
330
1F
100
AcDbEntity
  8
LC-001-100-D00-0
 62
     7
370
    50
100
AcDbLine
 10
-282.137392
 20
48.564755
 30
0.0
 11
-283.510891
 21
49.544923
 31
0.0
  0
LINE
  5
1B8
330
1F
100
AcDbEntity
  8
LC-001-100-D00-0
 62
     7
370
    50
100
AcDbLine
 10
-282.137392
 20
53.60512
 30
0.0
 11
-282.129248
 21
53.237228
 31
0.0
  0
LINE
  5
1B9
330
1F
100
AcDbEntity
  8
LC-001-100-D00-0
 62
     7
370
    50
100
AcDbLine
 10
-283.248668
 20
54.398088
 30
0.0
 11
-282.137392
 21
53.60512
 31
0.0
  0
LINE
  5
1BA
330
1F
100
AcDbEntity
  8
LC-001-100-D00-0
 62
     7
370
    50
100
AcDbLine
 10
-282.137392
 20
55.191057
 30
0.0
 11
-283.248668
 21
54.398088
 31
0.0
  0
LINE
  5
1BB
330
1F
100
AcDbEntity
  8
LC-001-100-D00-0
 62
     7
370
    50
100
AcDbLine
 10
-282.137392
 20
55.564755
 30
0.0
 11
-282.137392
 21
55.191057
 31
0.0
  0
LINE
  5
1BC
330
1F
100
AcDbEntity
  8
LC-001-100-D00-0
 62
     7
370
    50
100
AcDbLine
 10
-283.510891
 20
54.585288
 30
0.0
 11
-282.137392
 21
55.564755
 31
0.0
  0
LINE
  5
1BD
330
1F
100
AcDbEntity
  8
LC-001-100-D00-0
 62
     7
370
    50
100
AcDbLine
 10
-284.695087
 20
55.430139
 30
0.0
 11
-283.510891
 21
54.585288
 31
0.0
  0
LINE
  5
1BE
330
1F
100
AcDbEntity
  8
LC-001-100-D00-0
 62
     7
370
    50
100
AcDbLine
 10
-284.695087
 20
55.056442
 30
0.0
 11
-284.695087
 21
55.430139
 31
0.0
  0
LINE
  5
1BF
330
1F
100
AcDbEntity
  8
LC-001-100-D00-0
 62
     7
370
    50
100
AcDbLine
 10
-283.772407
 20
54.398088
 30
0.0
 11
-284.695087
 21
55.056442
 31
0.0
  0
LINE
  5
1C0
330
1F
100
AcDbEntity
  8
LC-001-100-D00-0
 62
     7
370
    50
100
AcDbLine
 10
-284.695087
 20
53.739735
 30
0.0
 11
-283.772407
 21
54.398088
 31
0.0
  0
LINE
  5
1C1
330
1F
100
AcDbEntity
  8
LC-001-100-D00-0
 62
     7
370
    50
100
AcDbLine
 10
-284.695087
 20
53.366037
 30
0.0
 11
-284.695087
 21
53.739735
 31
0.0
  0
LINE
  5
1C2
330
1F
100
AcDbEntity
  8
LC-001-100-D00-0
 62
     7
370
    50
100
AcDbLine
 10
-283.510891
 20
54.21159
 30
0.0
 11
-284.695087
 21
53.366037
 31
0.0
  0
LINE
  5
1C3
330
1F
100
AcDbEntity
  8
LC-001-100-D00-0
 62
     7
370
    50
100
AcDbLine
 10
-282.129248
 20
53.237228
 30
0.0
 11
-283.510891
 21
54.21159
 31
0.0
  0
LINE
  5
1C4
330
1F
100
AcDbEntity
  8
LC-001-100-D00-0
 62
     7
370
    50
100
AcDbLine
 10
-282.137392
 20
58.271786
 30
0.0
 11
-282.129248
 21
57.903894
 31
0.0
  0
LINE
  5
1C5
330
1F
100
AcDbEntity
  8
LC-001-100-D00-0
 62
     7
370
    50
100
AcDbLine
 10
-283.248668
 20
59.064755
 30
0.0
 11
-282.137392
 21
58.271786
 31
0.0
  0
LINE
  5
1C6
330
1F
100
AcDbEntity
  8
LC-001-100-D00-0
 62
     7
370
    50
100
AcDbLine
 10
-282.137392
 20
59.857724
 30
0.0
 11
-283.248668
 21
59.064755
 31
0.0
  0
LINE
  5
1C7
330
1F
100
AcDbEntity
  8
LC-001-100-D00-0
 62
     7
370
    50
100
AcDbLine
 10
-282.137392
 20
60.231422
 30
0.0
 11
-282.137392
 21
59.857724
 31
0.0
  0
LINE
  5
1C8
330
1F
100
AcDbEntity
  8
LC-001-100-D00-0
 62
     7
370
    50
100
AcDbLine
 10
-283.510891
 20
59.251954
 30
0.0
 11
-282.137392
 21
60.231422
 31
0.0
  0
LINE
  5
1C9
330
1F
100
AcDbEntity
  8
LC-001-100-D00-0
 62
     7
370
    50
100
AcDbLine
 10
-284.695087
 20
60.096806
 30
0.0
 11
-283.510891
 21
59.251954
 31
0.0
  0
LINE
  5
1CA
330
1F
100
AcDbEntity
  8
LC-001-100-D00-0
 62
     7
370
    50
100
AcDbLine
 10
-284.695087
 20
59.723108
 30
0.0
 11
-284.695087
 21
60.096806
 31
0.0
  0
LINE
  5
1CB
330
1F
100
AcDbEntity
  8
LC-001-100-D00-0
 62
     7
370
    50
100
AcDbLine
 10
-283.772407
 20
59.064755
 30
0.0
 11
-284.695087
 21
59.723108
 31
0.0
  0
LINE
  5
1CC
330
1F
100
AcDbEntity
  8
LC-001-100-D00-0
 62
     7
370
    50
100
AcDbLine
 10
-284.695087
 20
58.406401
 30
0.0
 11
-283.772407
 21
59.064755
 31
0.0
  0
LINE
  5
1CD
330
1F
100
AcDbEntity
  8
LC-001-100-D00-0
 62
     7
370
    50
100
AcDbLine
 10
-284.695087
 20
58.032704
 30
0.0
 11
-284.695087
 21
58.406401
 31
0.0
  0
LINE
  5
1CE
330
1F
100
AcDbEntity
  8
LC-001-100-D00-0
 62
     7
370
    50
100
AcDbLine
 10
-283.510891
 20
58.878257
 30
0.0
 11
-284.695087
 21
58.032704
 31
0.0
  0
LINE
  5
1CF
330
1F
100
AcDbEntity
  8
LC-001-100-D00-0
 62
     7
370
    50
100
AcDbLine
 10
-282.129248
 20
57.903894
 30
0.0
 11
-283.510891
 21
58.878257
 31
0.0
  0
ARC
  5
1D0
330
1F
100
AcDbEntity
  8
LC-001-100-D00-0
 62
     7
370
    50
100
AcDbCircle
 10
-184.804559
 20
57.166216
 30
0.0
 40
24.79999999999453
100
AcDbArc
 50
300.592814
 51
59.407186
  0
ARC
  5
1D1
330
1F
100
AcDbEntity
  8
LC-001-100-D00-0
 62
     7
370
    50
100
AcDbCircle
 10
-245.804559
 20
57.166216
 30
0.0
 40
24.79999999999471
100
AcDbArc
 50
120.592814
 51
239.407186
  0
LINE
  5
1D2
330
1F
100
AcDbEntity
  8
LC-001-100-D00-0
 62
     7
370
    50
100
AcDbLine
 10
-297.054559
 20
70.416216
 30
0.0
 11
-297.054559
 21
43.916216
 31
0.0
  0
ARC
  5
1D3
330
1F
100
AcDbEntity
  8
LC-001-100-D00-0
 62
     7
370
    50
100
AcDbCircle
 10
-302.054559
 20
70.416216
 30
0.0
 40
5.0
100
AcDbArc
 50
0.0
 51
90.0
  0
ARC
  5
1D4
330
1F
100
AcDbEntity
  8
LC-001-100-D00-0
 62
     7
370
    50
100
AcDbCircle
 10
-302.054559
 20
43.916216
 30
0.0
 40
5.0
100
AcDbArc
 50
270.0
 51
0.0
  0
CIRCLE
  5
1D5
330
1F
100
AcDbEntity
  8
LC-001-100-D00-0
 62
     7
370
    50
100
AcDbCircle
 10
-315.304559
 20
57.166216
 30
0.0
 40
3.900000000000091
  0
LINE
  5
1D6
330
1F
100
AcDbEntity
  8
LC-001-100-D00-0
 62
     7
370
    50
100
AcDbLine
 10
-328.554559
 20
75.416216
 30
0.0
 11
-302.054559
 21
75.416216
 31
0.0
  0
LINE
  5
1D7
330
1F
100
AcDbEntity
  8
LC-001-100-D00-0
 62
     7
370
    50
100
AcDbLine
 10
-302.054559
 20
38.916216
 30
0.0
 11
-328.554559
 21
38.916216
 31
0.0
  0
ARC
  5
1D8
330
1F
100
AcDbEntity
  8
LC-001-100-D00-0
 62
     7
370
    50
100
AcDbCircle
 10
-328.554559
 20
43.916216
 30
0.0
 40
5.000000000000341
100
AcDbArc
 50
180.0
 51
270.0
  0
ARC
  5
1D9
330
1F
100
AcDbEntity
  8
LC-001-100-D00-0
 62
     7
370
    50
100
AcDbCircle
 10
-328.554559
 20
70.416216
 30
0.0
 40
5.0
100
AcDbArc
 50
90.0
 51
180.0
  0
LINE
  5
1DA
330
1F
100
AcDbEntity
  8
LC-001-100-D00-0
 62
     7
370
    50
100
AcDbLine
 10
-333.554559
 20
43.916216
 30
0.0
 11
-333.554559
 21
70.416216
 31
0.0
  0
ARC
  5
1DB
330
1F
100
AcDbEntity
  8
LC-001-100-D00-0
 62
     7
370
    50
100
AcDbCircle
 10
-102.054559
 20
70.416216
 30
0.0
 40
5.0
100
AcDbArc
 50
0.0
 51
90.0
  0
ARC
  5
1DC
330
1F
100
AcDbEntity
  8
LC-001-100-D00-0
 62
     7
370
    50
100
AcDbCircle
 10
-102.054559
 20
43.916216
 30
0.0
 40
5.0
100
AcDbArc
 50
270.0
 51
0.0
  0
LINE
  5
1DD
330
1F
100
AcDbEntity
  8
LC-001-100-D00-0
 62
     7
370
    50
100
AcDbLine
 10
-97.054559
 20
70.416216
 30
0.0
 11
-97.054559
 21
43.916216
 31
0.0
  0
CIRCLE
  5
1DE
330
1F
100
AcDbEntity
  8
LC-001-100-D00-0
 62
     7
370
    50
100
AcDbCircle
 10
-115.304559
 20
57.166216
 30
0.0
 40
3.900000000000091
  0
LINE
  5
1DF
330
1F
100
AcDbEntity
  8
LC-001-100-D00-0
 62
     7
370
    50
100
AcDbLine
 10
-102.054559
 20
38.916216
 30
0.0
 11
-128.554559
 21
38.916216
 31
0.0
  0
LINE
  5
1E0
330
1F
100
AcDbEntity
  8
LC-001-100-D00-0
 62
     7
370
    50
100
AcDbLine
 10
-128.554559
 20
75.416216
 30
0.0
 11
-102.054559
 21
75.416216
 31
0.0
  0
ARC
  5
1E1
330
1F
100
AcDbEntity
  8
LC-001-100-D00-0
 62
     7
370
    50
100
AcDbCircle
 10
-128.554559
 20
43.916216
 30
0.0
 40
5.0
100
AcDbArc
 50
180.0
 51
270.0
  0
ARC
  5
1E2
330
1F
100
AcDbEntity
  8
LC-001-100-D00-0
 62
     7
370
    50
100
AcDbCircle
 10
-128.554559
 20
70.416216
 30
0.0
 40
5.0
100
AcDbArc
 50
90.0
 51
180.0
  0
LINE
  5
1E3
330
1F
100
AcDbEntity
  8
LC-001-100-D00-0
 62
     7
370
    50
100
AcDbLine
 10
-133.554559
 20
43.916216
 30
0.0
 11
-133.554559
 21
70.416216
 31
0.0
  0
LINE
  5
1E4
330
1F
100
AcDbEntity
  8
LC-001-100-D00-0
 62
     7
370
    50
100
AcDbLine
 10
72.945441
 20
70.416216
 30
0.0
 11
72.945441
 21
43.916216
 31
0.0
  0
ARC
  5
1E5
330
1F
100
AcDbEntity
  8
LC-001-100-D00-0
 62
     7
370
    50
100
AcDbCircle
 10
67.945441
 20
70.416216
 30
0.0
 40
5.0
100
AcDbArc
 50
0.0
 51
90.0
  0
ARC
  5
1E6
330
1F
100
AcDbEntity
  8
LC-001-100-D00-0
 62
     7
370
    50
100
AcDbCircle
 10
67.945441
 20
43.916216
 30
0.0
 40
5.0
100
AcDbArc
 50
270.0
 51
0.0
  0
CIRCLE
  5
1E7
330
1F
100
AcDbEntity
  8
LC-001-100-D00-0
 62
     7
370
    50
100
AcDbCircle
 10
54.695441
 20
57.166216
 30
0.0
 40
3.900000000000091
  0
LINE
  5
1E8
330
1F
100
AcDbEntity
  8
LC-001-100-D00-0
 62
     7
370
    50
100
AcDbLine
 10
67.945441
 20
38.916216
 30
0.0
 11
41.445441
 21
38.916216
 31
0.0
  0
LINE
  5
1E9
330
1F
100
AcDbEntity
  8
LC-001-100-D00-0
 62
     7
370
    50
100
AcDbLine
 10
41.445441
 20
75.416216
 30
0.0
 11
67.945441
 21
75.416216
 31
0.0
  0
ARC
  5
1EA
330
1F
100
AcDbEntity
  8
LC-001-100-D00-0
 62
     7
370
    50
100
AcDbCircle
 10
41.445441
 20
43.916216
 30
0.0
 40
5.0
100
AcDbArc
 50
180.0
 51
270.0
  0
ARC
  5
1EB
330
1F
100
AcDbEntity
  8
LC-001-100-D00-0
 62
     7
370
    50
100
AcDbCircle
 10
41.445441
 20
70.416216
 30
0.0
 40
5.0
100
AcDbArc
 50
90.0
 51
180.0
  0
LINE
  5
1EC
330
1F
100
AcDbEntity
  8
LC-001-100-D00-0
 62
     7
370
    50
100
AcDbLine
 10
36.445441
 20
43.916216
 30
0.0
 11
36.445441
 21
70.416216
 31
0.0
  0
ARC
  5
1ED
330
1F
100
AcDbEntity
  8
LC-001-100-D00-0
 62
     7
370
    50
100
AcDbCircle
 10
-472.054559
 20
70.416216
 30
0.0
 40
5.0
100
AcDbArc
 50
0.0
 51
90.0
  0
LINE
  5
1EE
330
1F
100
AcDbEntity
  8
LC-001-100-D00-0
 62
     7
370
    50
100
AcDbLine
 10
-467.054559
 20
70.416216
 30
0.0
 11
-467.054559
 21
43.916216
 31
0.0
  0
ARC
  5
1EF
330
1F
100
AcDbEntity
  8
LC-001-100-D00-0
 62
     7
370
    50
100
AcDbCircle
 10
-472.054559
 20
43.916216
 30
0.0
 40
5.0
100
AcDbArc
 50
270.0
 51
0.0
  0
CIRCLE
  5
1F0
330
1F
100
AcDbEntity
  8
LC-001-100-D00-0
 62
     7
370
    50
100
AcDbCircle
 10
-485.304559
 20
57.166216
 30
0.0
 40
3.900000000000091
  0
LINE
  5
1F1
330
1F
100
AcDbEntity
  8
LC-001-100-D00-0
 62
     7
370
    50
100
AcDbLine
 10
-472.054559
 20
38.916216
 30
0.0
 11
-498.554559
 21
38.916216
 31
0.0
  0
LINE
  5
1F2
330
1F
100
AcDbEntity
  8
LC-001-100-D00-0
 62
     7
370
    50
100
AcDbLine
 10
-498.554559
 20
75.416216
 30
0.0
 11
-472.054559
 21
75.416216
 31
0.0
  0
ARC
  5
1F3
330
1F
100
AcDbEntity
  8
LC-001-100-D00-0
 62
     7
370
    50
100
AcDbCircle
 10
-498.554559
 20
43.916216
 30
0.0
 40
5.0
100
AcDbArc
 50
180.0
 51
270.0
  0
ARC
  5
1F4
330
1F
100
AcDbEntity
  8
LC-001-100-D00-0
 62
     7
370
    50
100
AcDbCircle
 10
-498.554559
 20
70.416216
 30
0.0
 40
5.0
100
AcDbArc
 50
90.0
 51
180.0
  0
LINE
  5
1F5
330
1F
100
AcDbEntity
  8
LC-001-100-D00-0
 62
     7
370
    50
100
AcDbLine
 10
-503.554559
 20
43.916216
 30
0.0
 11
-503.554559
 21
70.416216
 31
0.0
  0
LINE
  5
1F6
330
1F
100
AcDbEntity
  8
LC-001-100-D00-0
 62
     7
370
    50
100
AcDbLine
 10
-245.804559
 20
33.166216
 30
0.0
 11
-184.804559
 21
33.166216
 31
0.0
  0
ARC
  5
1F7
330
1F
100
AcDbEntity
  8
LC-001-100-D00-0
 62
     7
370
    50
100
AcDbCircle
 10
-245.804559
 20
57.166216
 30
0.0
 40
24.00000000000011
100
AcDbArc
 50
90.0
 51
270.0
  0
LINE
  5
1F8
330
1F
100
AcDbEntity
  8
LC-001-100-D00-0
 62
     7
370
    50
100
AcDbLine
 10
-184.804559
 20
81.166216
 30
0.0
 11
-245.804559
 21
81.166216
 31
0.0
  0
ARC
  5
1F9
330
1F
100
AcDbEntity
  8
LC-001-100-D00-0
 62
     7
370
    50
100
AcDbCircle
 10
-184.804559
 20
57.166216
 30
0.0
 40
24.0
100
AcDbArc
 50
270.0
 51
90.0
  0
ARC
  5
1FA
330
1F
100
AcDbEntity
  8
LC-001-100-D00-0
 62
     7
370
    50
100
AcDbCircle
 10
-203.804559
 20
57.166216
 30
0.0
 40
16.00000000000023
100
AcDbArc
 50
270.0
 51
90.0
  0
LINE
  5
1FB
330
1F
100
AcDbEntity
  8
LC-001-100-D00-0
 62
     7
370
    50
100
AcDbLine
 10
-226.804559
 20
41.166216
 30
0.0
 11
-203.804559
 21
41.166216
 31
0.0
  0
LINE
  5
1FC
330
1F
100
AcDbEntity
  8
LC-001-100-D00-0
 62
     7
370
    50
100
AcDbLine
 10
-203.804559
 20
73.166216
 30
0.0
 11
-226.804559
 21
73.166216
 31
0.0
  0
ARC
  5
1FD
330
1F
100
AcDbEntity
  8
LC-001-100-D00-0
 62
     7
370
    50
100
AcDbCircle
 10
-226.804559
 20
57.166216
 30
0.0
 40
16.00000000000023
100
AcDbArc
 50
90.0
 51
270.0
  0
DIMENSION
  5
1FE
330
1F
100
AcDbEntity
  8
LC-001-100-D00-0
 62
     7
370
    25
100
AcDbDimension
  2
*D16
 10
205.971521
 20
101.666216
 30
0.0
 11
150.971521
 21
98.134293
 31
0.0
 70
   160
  1
1.5
 71
     5
 42
1.5
 53
90.0
  3
LC-DIM-L-0100-02-02
100
AcDbAlignedDimension
 13
129.695441
 23
103.166216
 33
0.0
 14
129.695441
 24
101.666216
 34
0.0
 50
90.0
100
AcDbRotatedDimension
  0
DIMENSION
  5
20C
330
1F
100
AcDbEntity
  8
LC-001-100-D00-0
 62
     7
370
    25
100
AcDbDimension
  2
*D17
 10
303.993231
 20
83.166216
 30
0.0
 11
248.993231
 21
41.704293
 31
0.0
 70
   160
  1
18,5
 71
     5
 42
18.5
 53
90.0
  3
LC-DIM-L-0100-02-02
100
AcDbAlignedDimension
 13
129.695441
 23
101.666216
 33
0.0
 14
82.195441
 24
83.166216
 34
0.0
 50
90.0
100
AcDbRotatedDimension
  0
DIMENSION
  5
21A
330
1F
100
AcDbEntity
  8
LC-001-100-D00-0
 62
     7
370
    25
100
AcDbDimension
  2
*D18
 10
358.163124
 20
-20.333784
 30
0.0
 11
303.163124
 21
35.764293
 31
0.0
 70
   160
  1
123.5
 71
     5
 42
123.5
 53
90.0
  3
LC-DIM-L-0100-02-02
100
AcDbAlignedDimension
 13
129.695441
 23
103.166216
 33
0.0
 14
129.695441
 24
-20.333784
 34
0.0
 50
90.0
100
AcDbRotatedDimension
  0
LINE
  5
227
330
1F
100
AcDbEntity
  8
LC-001-100-D00-0
  6
DASHDOT
 62
     7
370
    25
100
AcDbLine
 10
92.195441
 20
56.416216
 30
0.0
 11
-522.804559
 21
56.416216
 31
0.0
  0
LINE
  5
228
330
1F
100
AcDbEntity
  8
LC-001-100-D00-0
  6
DASHDOT
 62
     7
370
    25
100
AcDbLine
 10
-215.304559
 20
113.166216
 30
0.0
 11
-215.304559
 21
-25.333784
 31
0.0
  0
LINE
  5
229
330
1F
100
AcDbEntity
  8
LC-001-100-D00-0
 62
     7
370
    50
100
AcDbLine
 10
-160.054565
 20
403.306623
 30
0.0
 11
-158.254565
 21
403.306623
 31
0.0
  0
LINE
  5
22A
330
1F
100
AcDbEntity
  8
LC-001-100-D00-0
 62
     7
370
    50
100
AcDbLine
 10
-272.354565
 20
403.306623
 30
0.0
 11
-270.554565
 21
403.306623
 31
0.0
  0
LINE
  5
22B
330
1F
100
AcDbEntity
  8
LC-001-100-D00-0
 62
     7
370
    50
100
AcDbLine
 10
-102.056769
 20
330.946609
 30
0.0
 11
-102.056769
 21
332.72953
 31
0.0
  0
LINE
  5
22C
330
1F
100
AcDbEntity
  8
LC-001-100-D00-0
 62
     7
370
    50
100
AcDbLine
 10
-102.056769
 20
383.163688
 30
0.0
 11
-102.056769
 21
384.946609
 31
0.0
  0
LINE
  5
22D
330
1F
100
AcDbEntity
  8
LC-001-100-D00-0
 62
     7
370
    50
100
AcDbLine
 10
-106.056769
 20
384.946609
 30
0.0
 11
-106.056769
 21
383.163688
 31
0.0
  0
LINE
  5
22E
330
1F
100
AcDbEntity
  8
LC-001-100-D00-0
 62
     7
370
    50
100
AcDbLine
 10
-106.056769
 20
332.72953
 30
0.0
 11
-106.056769
 21
330.946609
 31
0.0
  0
LINE
  5
22F
330
1F
100
AcDbEntity
  8
LC-001-100-D00-0
 62
     7
370
    50
100
AcDbLine
 10
-175.59015
 20
401.446609
 30
0.0
 11
-175.59015
 21
399.946609
 31
0.0
  0
LINE
  5
230
330
1F
100
AcDbEntity
  8
LC-001-100-D00-0
 62
     7
370
    50
100
AcDbLine
 10
-255.01898
 20
399.946609
 30
0.0
 11
-255.01898
 21
401.446609
 31
0.0
  0
LINE
  5
231
330
1F
100
AcDbEntity
  8
LC-001-100-D00-0
 62
     7
370
    50
100
AcDbLine
 10
-488.704573
 20
423.446609
 30
0.0
 11
-489.70456
 21
424.446609
 31
0.0
  0
LINE
  5
232
330
1F
100
AcDbEntity
  8
LC-001-100-D00-0
 62
     7
370
    50
100
AcDbLine
 10
-488.704573
 20
423.446609
 30
0.0
 11
-488.704565
 21
417.446609
 31
0.0
  0
LINE
  5
233
330
1F
100
AcDbEntity
  8
LC-001-100-D00-0
 62
     7
370
    50
100
AcDbLine
 10
-489.704565
 20
416.446609
 30
0.0
 11
-488.704565
 21
417.446609
 31
0.0
  0
LINE
  5
234
330
1F
100
AcDbEntity
  8
LC-001-100-D00-0
 62
     7
370
    50
100
AcDbLine
 10
-491.65542
 20
418.446608
 30
0.0
 11
-491.65542
 21
416.44661
 31
0.0
  0
LINE
  5
235
330
1F
100
AcDbEntity
  8
LC-001-100-D00-0
 62
     7
370
    50
100
AcDbLine
 10
-490.949273
 20
418.63582
 30
0.0
 11
-491.65542
 21
418.446608
 31
0.0
  0
ARC
  5
236
330
1F
100
AcDbEntity
  8
LC-001-100-D00-0
 62
     7
370
    50
100
AcDbCircle
 10
-491.104565
 20
419.215375
 30
0.0
 40
0.6000000000001032
100
AcDbArc
 50
285.0
 51
0.0
  0
LINE
  5
237
330
1F
100
AcDbEntity
  8
LC-001-100-D00-0
 62
     7
370
    50
100
AcDbLine
 10
-490.504565
 20
421.677843
 30
0.0
 11
-490.504565
 21
419.215375
 31
0.0
  0
ARC
  5
238
330
1F
100
AcDbEntity
  8
LC-001-100-D00-0
 62
     7
370
    50
100
AcDbCircle
 10
-491.104565
 20
421.677843
 30
0.0
 40
0.6000000000000227
100
AcDbArc
 50
0.0
 51
75.0
  0
LINE
  5
239
330
1F
100
AcDbEntity
  8
LC-001-100-D00-0
 62
     7
370
    50
100
AcDbLine
 10
-491.65542
 20
422.446609
 30
0.0
 11
-490.949273
 21
422.257398
 31
0.0
  0
LINE
  5
23A
330
1F
100
AcDbEntity
  8
LC-001-100-D00-0
 62
     7
370
    50
100
AcDbLine
 10
-491.65542
 20
424.446609
 30
0.0
 11
-491.65542
 21
422.446609
 31
0.0
  0
LINE
  5
23B
330
1F
100
AcDbEntity
  8
LC-001-100-D00-0
 62
     7
370
    50
100
AcDbLine
 10
-491.65542
 20
416.44661
 30
0.0
 11
-489.704565
 21
416.446609
 31
0.0
  0
LINE
  5
23C
330
1F
100
AcDbEntity
  8
LC-001-100-D00-0
 62
     7
370
    50
100
AcDbLine
 10
-491.65542
 20
424.446609
 30
0.0
 11
-489.70456
 21
424.446609
 31
0.0
  0
LINE
  5
23D
330
1F
100
AcDbEntity
  8
LC-001-100-D00-0
 62
     7
370
    50
100
AcDbLine
 10
-480.104565
 20
419.215375
 30
0.0
 11
-480.104565
 21
421.677843
 31
0.0
  0
ARC
  5
23E
330
1F
100
AcDbEntity
  8
LC-001-100-D00-0
 62
     7
370
    50
100
AcDbCircle
 10
-479.504565
 20
419.215375
 30
0.0
 40
0.6000000000000796
100
AcDbArc
 50
180.0
 51
255.0
  0
LINE
  5
23F
330
1F
100
AcDbEntity
  8
LC-001-100-D00-0
 62
     7
370
    50
100
AcDbLine
 10
-478.9537
 20
418.446608
 30
0.0
 11
-479.659856
 21
418.63582
 31
0.0
  0
LINE
  5
240
330
1F
100
AcDbEntity
  8
LC-001-100-D00-0
 62
     7
370
    50
100
AcDbLine
 10
-478.9537
 20
418.446608
 30
0.0
 11
-478.9537
 21
416.44661
 31
0.0
  0
LINE
  5
241
330
1F
100
AcDbEntity
  8
LC-001-100-D00-0
 62
     7
370
    50
100
AcDbLine
 10
-481.904565
 20
417.446609
 30
0.0
 11
-480.904565
 21
416.446609
 31
0.0
  0
LINE
  5
242
330
1F
100
AcDbEntity
  8
LC-001-100-D00-0
 62
     7
370
    50
100
AcDbLine
 10
-481.904565
 20
417.446609
 30
0.0
 11
-481.904577
 21
423.446609
 31
0.0
  0
LINE
  5
243
330
1F
100
AcDbEntity
  8
LC-001-100-D00-0
 62
     7
370
    50
100
AcDbLine
 10
-480.904561
 20
424.446609
 30
0.0
 11
-481.904577
 21
423.446609
 31
0.0
  0
LINE
  5
244
330
1F
100
AcDbEntity
  8
LC-001-100-D00-0
 62
     7
370
    50
100
AcDbLine
 10
-478.9537
 20
424.446609
 30
0.0
 11
-478.9537
 21
422.446609
 31
0.0
  0
LINE
  5
245
330
1F
100
AcDbEntity
  8
LC-001-100-D00-0
 62
     7
370
    50
100
AcDbLine
 10
-479.659856
 20
422.257398
 30
0.0
 11
-478.9537
 21
422.446609
 31
0.0
  0
ARC
  5
246
330
1F
100
AcDbEntity
  8
LC-001-100-D00-0
 62
     7
370
    50
100
AcDbCircle
 10
-479.504565
 20
421.677843
 30
0.0
 40
0.600000000000118
100
AcDbArc
 50
105.0
 51
180.0
  0
LINE
  5
247
330
1F
100
AcDbEntity
  8
LC-001-100-D00-0
 62
     7
370
    50
100
AcDbLine
 10
-480.904565
 20
416.446609
 30
0.0
 11
-478.9537
 21
416.44661
 31
0.0
  0
LINE
  5
248
330
1F
100
AcDbEntity
  8
LC-001-100-D00-0
 62
     7
370
    50
100
AcDbLine
 10
-480.904561
 20
424.446609
 30
0.0
 11
-478.9537
 21
424.446609
 31
0.0
  0
LINE
  5
249
330
1F
100
AcDbEntity
  8
LC-001-100-D00-0
 62
     7
370
    50
100
AcDbLine
 10
-488.704565
 20
417.446609
 30
0.0
 11
-488.546725
 21
417.446609
 31
0.0
  0
LINE
  5
24A
330
1F
100
AcDbEntity
  8
LC-001-100-D00-0
 62
     7
370
    50
100
AcDbLine
 10
-482.062404
 20
417.446609
 30
0.0
 11
-481.904565
 21
417.446609
 31
0.0
  0
LINE
  5
24B
330
1F
100
AcDbEntity
  8
LC-001-100-D00-0
 62
     7
370
    50
100
AcDbLine
 10
-480.904565
 20
416.446609
 30
0.0
 11
-481.440346
 21
416.446609
 31
0.0
  0
LINE
  5
24C
330
1F
100
AcDbEntity
  8
LC-001-100-D00-0
 62
     7
370
    50
100
AcDbLine
 10
-489.168783
 20
416.446609
 30
0.0
 11
-489.704565
 21
416.446609
 31
0.0
  0
LINE
  5
24D
330
1F
100
AcDbEntity
  8
LC-001-100-D00-0
 62
     7
370
    50
100
AcDbLine
 10
-478.9537
 20
424.446609
 30
0.0
 11
-481.404554
 21
424.446609
 31
0.0
  0
LINE
  5
24E
330
1F
100
AcDbEntity
  8
LC-001-100-D00-0
 62
     7
370
    50
100
AcDbLine
 10
-481.404554
 20
424.446609
 30
0.0
 11
-481.404565
 21
435.446609
 31
0.0
  0
LINE
  5
24F
330
1F
100
AcDbEntity
  8
LC-001-100-D00-0
 62
     7
370
    50
100
AcDbLine
 10
-481.404565
 20
435.446609
 30
0.0
 11
-468.054565
 21
435.446609
 31
0.0
  0
ARC
  5
250
330
1F
100
AcDbEntity
  8
LC-001-100-D00-0
 62
     7
370
    50
100
AcDbCircle
 10
-468.054565
 20
434.446609
 30
0.0
 40
0.9999999999999432
100
AcDbArc
 50
0.0
 51
90.0
  0
LINE
  5
251
330
1F
100
AcDbEntity
  8
LC-001-100-D00-0
 62
     7
370
    50
100
AcDbLine
 10
-467.054565
 20
434.446609
 30
0.0
 11
-467.054557
 21
428.446609
 31
0.0
  0
LINE
  5
252
330
1F
100
AcDbEntity
  8
LC-001-100-D00-0
 62
     7
370
    50
100
AcDbLine
 10
-470.054565
 20
428.446609
 30
0.0
 11
-467.054557
 21
428.446609
 31
0.0
  0
LINE
  5
253
330
1F
100
AcDbEntity
  8
LC-001-100-D00-0
 62
     7
370
    50
100
AcDbLine
 10
-470.054565
 20
428.446609
 30
0.0
 11
-470.054578
 21
432.446609
 31
0.0
  0
LINE
  5
254
330
1F
100
AcDbEntity
  8
LC-001-100-D00-0
 62
     7
370
    50
100
AcDbLine
 10
-474.554565
 20
432.446609
 30
0.0
 11
-470.054578
 21
432.446609
 31
0.0
  0
ARC
  5
255
330
1F
100
AcDbEntity
  8
LC-001-100-D00-0
 62
     7
370
    50
100
AcDbCircle
 10
-474.554565
 20
431.446609
 30
0.0
 40
0.9999999999997726
100
AcDbArc
 50
90.0
 51
180.0
  0
LINE
  5
256
330
1F
100
AcDbEntity
  8
LC-001-100-D00-0
 62
     7
370
    50
100
AcDbLine
 10
-475.554565
 20
417.446609
 30
0.0
 11
-475.554565
 21
431.446609
 31
0.0
  0
ARC
  5
257
330
1F
100
AcDbEntity
  8
LC-001-100-D00-0
 62
     7
370
    50
100
AcDbCircle
 10
-476.554565
 20
417.446609
 30
0.0
 40
1.0
100
AcDbArc
 50
270.0
 51
0.0
  0
LINE
  5
258
330
1F
100
AcDbEntity
  8
LC-001-100-D00-0
 62
     7
370
    50
100
AcDbLine
 10
-476.554565
 20
416.446609
 30
0.0
 11
-478.9537
 21
416.44661
 31
0.0
  0
LINE
  5
259
330
1F
100
AcDbEntity
  8
LC-001-100-D00-0
 62
     7
370
    50
100
AcDbLine
 10
-478.9537
 20
418.446608
 30
0.0
 11
-478.9537
 21
416.44661
 31
0.0
  0
LINE
  5
25A
330
1F
100
AcDbEntity
  8
LC-001-100-D00-0
 62
     7
370
    50
100
AcDbLine
 10
-479.604565
 20
418.446609
 30
0.0
 11
-478.9537
 21
418.446608
 31
0.0
  0
ARC
  5
25B
330
1F
100
AcDbEntity
  8
LC-001-100-D00-0
 62
     7
370
    50
100
AcDbCircle
 10
-479.604565
 20
418.946609
 30
0.0
 40
0.5000000000001137
100
AcDbArc
 50
180.0
 51
270.0
  0
LINE
  5
25C
330
1F
100
AcDbEntity
  8
LC-001-100-D00-0
 62
     7
370
    50
100
AcDbLine
 10
-480.104565
 20
421.946609
 30
0.0
 11
-480.104565
 21
418.946609
 31
0.0
  0
ARC
  5
25D
330
1F
100
AcDbEntity
  8
LC-001-100-D00-0
 62
     7
370
    50
100
AcDbCircle
 10
-479.604565
 20
421.946609
 30
0.0
 40
0.5
100
AcDbArc
 50
90.0
 51
180.0
  0
LINE
  5
25E
330
1F
100
AcDbEntity
  8
LC-001-100-D00-0
 62
     7
370
    50
100
AcDbLine
 10
-478.9537
 20
422.446609
 30
0.0
 11
-479.604565
 21
422.446609
 31
0.0
  0
LINE
  5
25F
330
1F
100
AcDbEntity
  8
LC-001-100-D00-0
 62
     7
370
    50
100
AcDbLine
 10
-478.9537
 20
424.446609
 30
0.0
 11
-478.9537
 21
422.446609
 31
0.0
  0
ARC
  5
260
330
1F
100
AcDbEntity
  8
LC-001-100-D00-0
 62
     7
370
    50
100
AcDbCircle
 10
-496.054565
 20
431.446609
 30
0.0
 40
1.0
100
AcDbArc
 50
0.0
 51
90.0
  0
ARC
  5
261
330
1F
100
AcDbEntity
  8
LC-001-100-D00-0
 62
     7
370
    50
100
AcDbCircle
 10
-494.054565
 20
417.446609
 30
0.0
 40
1.0
100
AcDbArc
 50
180.0
 51
270.0
  0
LINE
  5
262
330
1F
100
AcDbEntity
  8
LC-001-100-D00-0
 62
     7
370
    50
100
AcDbLine
 10
-495.054565
 20
431.446609
 30
0.0
 11
-495.054565
 21
417.446609
 31
0.0
  0
LINE
  5
263
330
1F
100
AcDbEntity
  8
LC-001-100-D00-0
 62
     7
370
    50
100
AcDbLine
 10
-490.504565
 20
418.946609
 30
0.0
 11
-490.504565
 21
421.946609
 31
0.0
  0
LINE
  5
264
330
1F
100
AcDbEntity
  8
LC-001-100-D00-0
 62
     7
370
    50
100
AcDbLine
 10
-489.204565
 20
435.446609
 30
0.0
 11
-489.204567
 21
424.446609
 31
0.0
  0
LINE
  5
265
330
1F
100
AcDbEntity
  8
LC-001-100-D00-0
 62
     7
370
    50
100
AcDbLine
 10
-489.204565
 20
435.446609
 30
0.0
 11
-481.404565
 21
435.446609
 31
0.0
  0
LINE
  5
266
330
1F
100
AcDbEntity
  8
LC-001-100-D00-0
 62
     7
370
    50
100
AcDbLine
 10
-491.65542
 20
418.446608
 30
0.0
 11
-491.65542
 21
416.44661
 31
0.0
  0
LINE
  5
267
330
1F
100
AcDbEntity
  8
LC-001-100-D00-0
 62
     7
370
    50
100
AcDbLine
 10
-491.65542
 20
424.446609
 30
0.0
 11
-491.65542
 21
422.446609
 31
0.0
  0
ARC
  5
268
330
1F
100
AcDbEntity
  8
LC-001-100-D00-0
 62
     7
370
    50
100
AcDbCircle
 10
-491.004565
 20
418.946609
 30
0.0
 40
0.5000000000002274
100
AcDbArc
 50
270.0
 51
0.0
  0
LINE
  5
269
330
1F
100
AcDbEntity
  8
LC-001-100-D00-0
 62
     7
370
    50
100
AcDbLine
 10
-491.65542
 20
418.446608
 30
0.0
 11
-491.004565
 21
418.446609
 31
0.0
  0
LINE
  5
26A
330
1F
100
AcDbEntity
  8
LC-001-100-D00-0
 62
     7
370
    50
100
AcDbLine
 10
-500.554573
 20
432.446609
 30
0.0
 11
-500.554565
 21
428.446609
 31
0.0
  0
LINE
  5
26B
330
1F
100
AcDbEntity
  8
LC-001-100-D00-0
 62
     7
370
    50
100
AcDbLine
 10
-503.554564
 20
428.446609
 30
0.0
 11
-503.554565
 21
434.446609
 31
0.0
  0
ARC
  5
26C
330
1F
100
AcDbEntity
  8
LC-001-100-D00-0
 62
     7
370
    50
100
AcDbCircle
 10
-502.554565
 20
434.446609
 30
0.0
 40
1.0
100
AcDbArc
 50
90.0
 51
180.0
  0
LINE
  5
26D
330
1F
100
AcDbEntity
  8
LC-001-100-D00-0
 62
     7
370
    50
100
AcDbLine
 10
-491.004565
 20
422.446609
 30
0.0
 11
-491.65542
 21
422.446609
 31
0.0
  0
ARC
  5
26E
330
1F
100
AcDbEntity
  8
LC-001-100-D00-0
 62
     7
370
    50
100
AcDbCircle
 10
-491.004565
 20
421.946609
 30
0.0
 40
0.5000000000000568
100
AcDbArc
 50
0.0
 51
90.0
  0
LINE
  5
26F
330
1F
100
AcDbEntity
  8
LC-001-100-D00-0
 62
     7
370
    50
100
AcDbLine
 10
-489.204567
 20
424.446609
 30
0.0
 11
-491.65542
 21
424.446609
 31
0.0
  0
LINE
  5
270
330
1F
100
AcDbEntity
  8
LC-001-100-D00-0
 62
     7
370
    50
100
AcDbLine
 10
-491.65542
 20
416.44661
 30
0.0
 11
-494.054565
 21
416.446609
 31
0.0
  0
LINE
  5
271
330
1F
100
AcDbEntity
  8
LC-001-100-D00-0
 62
     7
370
    50
100
AcDbLine
 10
-503.554564
 20
428.446609
 30
0.0
 11
-500.554565
 21
428.446609
 31
0.0
  0
LINE
  5
272
330
1F
100
AcDbEntity
  8
LC-001-100-D00-0
 62
     7
370
    50
100
AcDbLine
 10
-500.554573
 20
432.446609
 30
0.0
 11
-496.054565
 21
432.446609
 31
0.0
  0
LINE
  5
273
330
1F
100
AcDbEntity
  8
LC-001-100-D00-0
 62
     7
370
    50
100
AcDbLine
 10
-502.554565
 20
435.446609
 30
0.0
 11
-489.204565
 21
435.446609
 31
0.0
  0
LINE
  5
274
330
1F
100
AcDbEntity
  8
LC-001-100-D00-0
 62
     7
370
    50
100
AcDbLine
 10
-472.054565
 20
428.446609
 30
0.0
 11
-470.054565
 21
428.446609
 31
0.0
  0
LINE
  5
275
330
1F
100
AcDbEntity
  8
LC-001-100-D00-0
 62
     7
370
    50
100
AcDbLine
 10
-500.554565
 20
428.446609
 30
0.0
 11
-498.554565
 21
428.446609
 31
0.0
  0
LINE
  5
276
330
1F
100
AcDbEntity
  8
LC-001-100-D00-0
 62
     7
370
    50
100
AcDbLine
 10
-498.554565
 20
428.446609
 30
0.0
 11
-495.054554
 21
428.446609
 31
0.0
  0
LINE
  5
277
330
1F
100
AcDbEntity
  8
LC-001-100-D00-0
 62
     7
370
    50
100
AcDbLine
 10
-475.554567
 20
428.446609
 30
0.0
 11
-472.054565
 21
428.446609
 31
0.0
  0
LINE
  5
278
330
1F
100
AcDbEntity
  8
LC-001-100-D00-0
 62
     7
370
    50
100
AcDbLine
 10
51.295448
 20
423.446609
 30
0.0
 11
50.295431
 21
424.446609
 31
0.0
  0
LINE
  5
279
330
1F
100
AcDbEntity
  8
LC-001-100-D00-0
 62
     7
370
    50
100
AcDbLine
 10
51.295448
 20
423.446609
 30
0.0
 11
51.295435
 21
417.446609
 31
0.0
  0
LINE
  5
27A
330
1F
100
AcDbEntity
  8
LC-001-100-D00-0
 62
     7
370
    50
100
AcDbLine
 10
50.295435
 20
416.446609
 30
0.0
 11
51.295435
 21
417.446609
 31
0.0
  0
LINE
  5
27B
330
1F
100
AcDbEntity
  8
LC-001-100-D00-0
 62
     7
370
    50
100
AcDbLine
 10
48.344571
 20
418.446608
 30
0.0
 11
48.344571
 21
416.44661
 31
0.0
  0
LINE
  5
27C
330
1F
100
AcDbEntity
  8
LC-001-100-D00-0
 62
     7
370
    50
100
AcDbLine
 10
49.050727
 20
418.63582
 30
0.0
 11
48.344571
 21
418.446608
 31
0.0
  0
ARC
  5
27D
330
1F
100
AcDbEntity
  8
LC-001-100-D00-0
 62
     7
370
    50
100
AcDbCircle
 10
48.895435
 20
419.215375
 30
0.0
 40
0.600000000000118
100
AcDbArc
 50
285.0
 51
0.0
  0
LINE
  5
27E
330
1F
100
AcDbEntity
  8
LC-001-100-D00-0
 62
     7
370
    50
100
AcDbLine
 10
49.495435
 20
421.677843
 30
0.0
 11
49.495435
 21
419.215375
 31
0.0
  0
ARC
  5
27F
330
1F
100
AcDbEntity
  8
LC-001-100-D00-0
 62
     7
370
    50
100
AcDbCircle
 10
48.895435
 20
421.677843
 30
0.0
 40
0.6000000000000227
100
AcDbArc
 50
0.0
 51
75.0
  0
LINE
  5
280
330
1F
100
AcDbEntity
  8
LC-001-100-D00-0
 62
     7
370
    50
100
AcDbLine
 10
48.344571
 20
422.446609
 30
0.0
 11
49.050727
 21
422.257398
 31
0.0
  0
LINE
  5
281
330
1F
100
AcDbEntity
  8
LC-001-100-D00-0
 62
     7
370
    50
100
AcDbLine
 10
48.344571
 20
424.446609
 30
0.0
 11
48.344571
 21
422.446609
 31
0.0
  0
LINE
  5
282
330
1F
100
AcDbEntity
  8
LC-001-100-D00-0
 62
     7
370
    50
100
AcDbLine
 10
48.344571
 20
416.44661
 30
0.0
 11
50.295435
 21
416.446609
 31
0.0
  0
LINE
  5
283
330
1F
100
AcDbEntity
  8
LC-001-100-D00-0
 62
     7
370
    50
100
AcDbLine
 10
48.344571
 20
424.446609
 30
0.0
 11
50.295431
 21
424.446609
 31
0.0
  0
LINE
  5
284
330
1F
100
AcDbEntity
  8
LC-001-100-D00-0
 62
     7
370
    50
100
AcDbLine
 10
59.895435
 20
419.215375
 30
0.0
 11
59.895435
 21
421.677843
 31
0.0
  0
ARC
  5
285
330
1F
100
AcDbEntity
  8
LC-001-100-D00-0
 62
     7
370
    50
100
AcDbCircle
 10
60.495435
 20
419.215375
 30
0.0
 40
0.6000000000001364
100
AcDbArc
 50
180.0
 51
255.0
  0
LINE
  5
286
330
1F
100
AcDbEntity
  8
LC-001-100-D00-0
 62
     7
370
    50
100
AcDbLine
 10
61.046291
 20
418.446608
 30
0.0
 11
60.340144
 21
418.63582
 31
0.0
  0
LINE
  5
287
330
1F
100
AcDbEntity
  8
LC-001-100-D00-0
 62
     7
370
    50
100
AcDbLine
 10
61.046291
 20
418.446608
 30
0.0
 11
61.046291
 21
416.44661
 31
0.0
  0
LINE
  5
288
330
1F
100
AcDbEntity
  8
LC-001-100-D00-0
 62
     7
370
    50
100
AcDbLine
 10
58.095435
 20
417.446609
 30
0.0
 11
59.095435
 21
416.446609
 31
0.0
  0
LINE
  5
289
330
1F
100
AcDbEntity
  8
LC-001-100-D00-0
 62
     7
370
    50
100
AcDbLine
 10
58.095435
 20
417.446609
 30
0.0
 11
58.095444
 21
423.446609
 31
0.0
  0
LINE
  5
28A
330
1F
100
AcDbEntity
  8
LC-001-100-D00-0
 62
     7
370
    50
100
AcDbLine
 10
59.095431
 20
424.446609
 30
0.0
 11
58.095444
 21
423.446609
 31
0.0
  0
LINE
  5
28B
330
1F
100
AcDbEntity
  8
LC-001-100-D00-0
 62
     7
370
    50
100
AcDbLine
 10
61.046291
 20
424.446609
 30
0.0
 11
61.046291
 21
422.446609
 31
0.0
  0
LINE
  5
28C
330
1F
100
AcDbEntity
  8
LC-001-100-D00-0
 62
     7
370
    50
100
AcDbLine
 10
60.340144
 20
422.257398
 30
0.0
 11
61.046291
 21
422.446609
 31
0.0
  0
ARC
  5
28D
330
1F
100
AcDbEntity
  8
LC-001-100-D00-0
 62
     7
370
    50
100
AcDbCircle
 10
60.495435
 20
421.677843
 30
0.0
 40
0.6000000000001474
100
AcDbArc
 50
105.0
 51
180.0
  0
LINE
  5
28E
330
1F
100
AcDbEntity
  8
LC-001-100-D00-0
 62
     7
370
    50
100
AcDbLine
 10
59.095435
 20
416.446609
 30
0.0
 11
61.046291
 21
416.44661
 31
0.0
  0
LINE
  5
28F
330
1F
100
AcDbEntity
  8
LC-001-100-D00-0
 62
     7
370
    50
100
AcDbLine
 10
59.095431
 20
424.446609
 30
0.0
 11
61.046291
 21
424.446609
 31
0.0
  0
LINE
  5
290
330
1F
100
AcDbEntity
  8
LC-001-100-D00-0
 62
     7
370
    50
100
AcDbLine
 10
51.295435
 20
417.446609
 30
0.0
 11
51.453275
 21
417.446609
 31
0.0
  0
LINE
  5
291
330
1F
100
AcDbEntity
  8
LC-001-100-D00-0
 62
     7
370
    50
100
AcDbLine
 10
57.937596
 20
417.446609
 30
0.0
 11
58.095435
 21
417.446609
 31
0.0
  0
LINE
  5
292
330
1F
100
AcDbEntity
  8
LC-001-100-D00-0
 62
     7
370
    50
100
AcDbLine
 10
59.095435
 20
416.446609
 30
0.0
 11
58.559654
 21
416.446609
 31
0.0
  0
LINE
  5
293
330
1F
100
AcDbEntity
  8
LC-001-100-D00-0
 62
     7
370
    50
100
AcDbLine
 10
50.831217
 20
416.446609
 30
0.0
 11
50.295435
 21
416.446609
 31
0.0
  0
LINE
  5
294
330
1F
100
AcDbEntity
  8
LC-001-100-D00-0
 62
     7
370
    50
100
AcDbLine
 10
61.046291
 20
424.446609
 30
0.0
 11
58.595438
 21
424.446609
 31
0.0
  0
LINE
  5
295
330
1F
100
AcDbEntity
  8
LC-001-100-D00-0
 62
     7
370
    50
100
AcDbLine
 10
58.595438
 20
424.446609
 30
0.0
 11
58.595435
 21
435.446609
 31
0.0
  0
LINE
  5
296
330
1F
100
AcDbEntity
  8
LC-001-100-D00-0
 62
     7
370
    50
100
AcDbLine
 10
58.595435
 20
435.446609
 30
0.0
 11
71.945435
 21
435.446609
 31
0.0
  0
ARC
  5
297
330
1F
100
AcDbEntity
  8
LC-001-100-D00-0
 62
     7
370
    50
100
AcDbCircle
 10
71.945435
 20
434.446609
 30
0.0
 40
1.0
100
AcDbArc
 50
0.0
 51
90.0
  0
LINE
  5
298
330
1F
100
AcDbEntity
  8
LC-001-100-D00-0
 62
     7
370
    50
100
AcDbLine
 10
72.945435
 20
434.446609
 30
0.0
 11
72.945435
 21
428.446609
 31
0.0
  0
LINE
  5
299
330
1F
100
AcDbEntity
  8
LC-001-100-D00-0
 62
     7
370
    50
100
AcDbLine
 10
69.945435
 20
428.446609
 30
0.0
 11
72.945435
 21
428.446609
 31
0.0
  0
LINE
  5
29A
330
1F
100
AcDbEntity
  8
LC-001-100-D00-0
 62
     7
370
    50
100
AcDbLine
 10
69.945435
 20
428.446609
 30
0.0
 11
69.945443
 21
432.446609
 31
0.0
  0
LINE
  5
29B
330
1F
100
AcDbEntity
  8
LC-001-100-D00-0
 62
     7
370
    50
100
AcDbLine
 10
65.445435
 20
432.446609
 30
0.0
 11
69.945443
 21
432.446609
 31
0.0
  0
ARC
  5
29C
330
1F
100
AcDbEntity
  8
LC-001-100-D00-0
 62
     7
370
    50
100
AcDbCircle
 10
65.445435
 20
431.446609
 30
0.0
 40
1.0
100
AcDbArc
 50
90.0
 51
180.0
  0
LINE
  5
29D
330
1F
100
AcDbEntity
  8
LC-001-100-D00-0
 62
     7
370
    50
100
AcDbLine
 10
64.445435
 20
417.446609
 30
0.0
 11
64.445435
 21
431.446609
 31
0.0
  0
ARC
  5
29E
330
1F
100
AcDbEntity
  8
LC-001-100-D00-0
 62
     7
370
    50
100
AcDbCircle
 10
63.445435
 20
417.446609
 30
0.0
 40
1.0
100
AcDbArc
 50
270.0
 51
0.0
  0
LINE
  5
29F
330
1F
100
AcDbEntity
  8
LC-001-100-D00-0
 62
     7
370
    50
100
AcDbLine
 10
63.445435
 20
416.446609
 30
0.0
 11
61.046291
 21
416.44661
 31
0.0
  0
LINE
  5
2A0
330
1F
100
AcDbEntity
  8
LC-001-100-D00-0
 62
     7
370
    50
100
AcDbLine
 10
61.046291
 20
418.446608
 30
0.0
 11
61.046291
 21
416.44661
 31
0.0
  0
LINE
  5
2A1
330
1F
100
AcDbEntity
  8
LC-001-100-D00-0
 62
     7
370
    50
100
AcDbLine
 10
60.395435
 20
418.446609
 30
0.0
 11
61.046291
 21
418.446608
 31
0.0
  0
ARC
  5
2A2
330
1F
100
AcDbEntity
  8
LC-001-100-D00-0
 62
     7
370
    50
100
AcDbCircle
 10
60.395435
 20
418.946609
 30
0.0
 40
0.5
100
AcDbArc
 50
180.0
 51
270.0
  0
LINE
  5
2A3
330
1F
100
AcDbEntity
  8
LC-001-100-D00-0
 62
     7
370
    50
100
AcDbLine
 10
59.895435
 20
421.946609
 30
0.0
 11
59.895435
 21
418.946609
 31
0.0
  0
ARC
  5
2A4
330
1F
100
AcDbEntity
  8
LC-001-100-D00-0
 62
     7
370
    50
100
AcDbCircle
 10
60.395435
 20
421.946609
 30
0.0
 40
0.5
100
AcDbArc
 50
90.0
 51
180.0
  0
LINE
  5
2A5
330
1F
100
AcDbEntity
  8
LC-001-100-D00-0
 62
     7
370
    50
100
AcDbLine
 10
61.046291
 20
422.446609
 30
0.0
 11
60.395435
 21
422.446609
 31
0.0
  0
LINE
  5
2A6
330
1F
100
AcDbEntity
  8
LC-001-100-D00-0
 62
     7
370
    50
100
AcDbLine
 10
61.046291
 20
424.446609
 30
0.0
 11
61.046291
 21
422.446609
 31
0.0
  0
ARC
  5
2A7
330
1F
100
AcDbEntity
  8
LC-001-100-D00-0
 62
     7
370
    50
100
AcDbCircle
 10
43.945435
 20
431.446609
 30
0.0
 40
1.000000000000114
100
AcDbArc
 50
0.0
 51
90.0
  0
ARC
  5
2A8
330
1F
100
AcDbEntity
  8
LC-001-100-D00-0
 62
     7
370
    50
100
AcDbCircle
 10
45.945435
 20
417.446609
 30
0.0
 40
1.000000000000114
100
AcDbArc
 50
180.0
 51
270.0
  0
LINE
  5
2A9
330
1F
100
AcDbEntity
  8
LC-001-100-D00-0
 62
     7
370
    50
100
AcDbLine
 10
44.945435
 20
431.446609
 30
0.0
 11
44.945435
 21
417.446609
 31
0.0
  0
LINE
  5
2AA
330
1F
100
AcDbEntity
  8
LC-001-100-D00-0
 62
     7
370
    50
100
AcDbLine
 10
49.495435
 20
418.946609
 30
0.0
 11
49.495435
 21
421.946609
 31
0.0
  0
LINE
  5
2AB
330
1F
100
AcDbEntity
  8
LC-001-100-D00-0
 62
     7
370
    50
100
AcDbLine
 10
50.795435
 20
435.446609
 30
0.0
 11
50.795425
 21
424.446609
 31
0.0
  0
LINE
  5
2AC
330
1F
100
AcDbEntity
  8
LC-001-100-D00-0
 62
     7
370
    50
100
AcDbLine
 10
50.795435
 20
435.446609
 30
0.0
 11
58.595435
 21
435.446609
 31
0.0
  0
LINE
  5
2AD
330
1F
100
AcDbEntity
  8
LC-001-100-D00-0
 62
     7
370
    50
100
AcDbLine
 10
48.344571
 20
418.446608
 30
0.0
 11
48.344571
 21
416.44661
 31
0.0
  0
LINE
  5
2AE
330
1F
100
AcDbEntity
  8
LC-001-100-D00-0
 62
     7
370
    50
100
AcDbLine
 10
48.344571
 20
424.446609
 30
0.0
 11
48.344571
 21
422.446609
 31
0.0
  0
ARC
  5
2AF
330
1F
100
AcDbEntity
  8
LC-001-100-D00-0
 62
     7
370
    50
100
AcDbCircle
 10
48.995435
 20
418.946609
 30
0.0
 40
0.5000000000002274
100
AcDbArc
 50
270.0
 51
0.0
  0
LINE
  5
2B0
330
1F
100
AcDbEntity
  8
LC-001-100-D00-0
 62
     7
370
    50
100
AcDbLine
 10
48.344571
 20
418.446608
 30
0.0
 11
48.995435
 21
418.446609
 31
0.0
  0
LINE
  5
2B1
330
1F
100
AcDbEntity
  8
LC-001-100-D00-0
 62
     7
370
    50
100
AcDbLine
 10
39.445449
 20
432.446609
 30
0.0
 11
39.445435
 21
428.446609
 31
0.0
  0
LINE
  5
2B2
330
1F
100
AcDbEntity
  8
LC-001-100-D00-0
 62
     7
370
    50
100
AcDbLine
 10
36.445428
 20
428.446609
 30
0.0
 11
36.445435
 21
434.446609
 31
0.0
  0
ARC
  5
2B3
330
1F
100
AcDbEntity
  8
LC-001-100-D00-0
 62
     7
370
    50
100
AcDbCircle
 10
37.445435
 20
434.446609
 30
0.0
 40
1.0
100
AcDbArc
 50
90.0
 51
180.0
  0
LINE
  5
2B4
330
1F
100
AcDbEntity
  8
LC-001-100-D00-0
 62
     7
370
    50
100
AcDbLine
 10
48.995435
 20
422.446609
 30
0.0
 11
48.344571
 21
422.446609
 31
0.0
  0
ARC
  5
2B5
330
1F
100
AcDbEntity
  8
LC-001-100-D00-0
 62
     7
370
    50
100
AcDbCircle
 10
48.995435
 20
421.946609
 30
0.0
 40
0.5000000000001137
100
AcDbArc
 50
0.0
 51
90.0
  0
LINE
  5
2B6
330
1F
100
AcDbEntity
  8
LC-001-100-D00-0
 62
     7
370
    50
100
AcDbLine
 10
50.795425
 20
424.446609
 30
0.0
 11
48.344571
 21
424.446609
 31
0.0
  0
LINE
  5
2B7
330
1F
100
AcDbEntity
  8
LC-001-100-D00-0
 62
     7
370
    50
100
AcDbLine
 10
48.344571
 20
416.44661
 30
0.0
 11
45.945435
 21
416.446609
 31
0.0
  0
LINE
  5
2B8
330
1F
100
AcDbEntity
  8
LC-001-100-D00-0
 62
     7
370
    50
100
AcDbLine
 10
36.445428
 20
428.446609
 30
0.0
 11
39.445435
 21
428.446609
 31
0.0
  0
LINE
  5
2B9
330
1F
100
AcDbEntity
  8
LC-001-100-D00-0
 62
     7
370
    50
100
AcDbLine
 10
39.445449
 20
432.446609
 30
0.0
 11
43.945435
 21
432.446609
 31
0.0
  0
LINE
  5
2BA
330
1F
100
AcDbEntity
  8
LC-001-100-D00-0
 62
     7
370
    50
100
AcDbLine
 10
37.445435
 20
435.446609
 30
0.0
 11
50.795435
 21
435.446609
 31
0.0
  0
LINE
  5
2BB
330
1F
100
AcDbEntity
  8
LC-001-100-D00-0
 62
     7
370
    50
100
AcDbLine
 10
67.945435
 20
428.446609
 30
0.0
 11
69.945435
 21
428.446609
 31
0.0
  0
LINE
  5
2BC
330
1F
100
AcDbEntity
  8
LC-001-100-D00-0
 62
     7
370
    50
100
AcDbLine
 10
39.445435
 20
428.446609
 30
0.0
 11
41.445435
 21
428.446609
 31
0.0
  0
LINE
  5
2BD
330
1F
100
AcDbEntity
  8
LC-001-100-D00-0
 62
     7
370
    50
100
AcDbLine
 10
41.445435
 20
428.446609
 30
0.0
 11
44.945437
 21
428.446609
 31
0.0
  0
LINE
  5
2BE
330
1F
100
AcDbEntity
  8
LC-001-100-D00-0
 62
     7
370
    50
100
AcDbLine
 10
64.445425
 20
428.446609
 30
0.0
 11
67.945435
 21
428.446609
 31
0.0
  0
LINE
  5
2BF
330
1F
100
AcDbEntity
  8
LC-001-100-D00-0
 62
     7
370
    50
100
AcDbLine
 10
-318.704564
 20
423.446609
 30
0.0
 11
-319.704566
 21
424.446609
 31
0.0
  0
LINE
  5
2C0
330
1F
100
AcDbEntity
  8
LC-001-100-D00-0
 62
     7
370
    50
100
AcDbLine
 10
-318.704564
 20
423.446609
 30
0.0
 11
-318.704565
 21
417.446609
 31
0.0
  0
LINE
  5
2C1
330
1F
100
AcDbEntity
  8
LC-001-100-D00-0
 62
     7
370
    50
100
AcDbLine
 10
-319.704565
 20
416.446609
 30
0.0
 11
-318.704565
 21
417.446609
 31
0.0
  0
LINE
  5
2C2
330
1F
100
AcDbEntity
  8
LC-001-100-D00-0
 62
     7
370
    50
100
AcDbLine
 10
-321.655419
 20
418.446608
 30
0.0
 11
-321.655419
 21
416.44661
 31
0.0
  0
LINE
  5
2C3
330
1F
100
AcDbEntity
  8
LC-001-100-D00-0
 62
     7
370
    50
100
AcDbLine
 10
-320.949273
 20
418.63582
 30
0.0
 11
-321.655419
 21
418.446608
 31
0.0
  0
ARC
  5
2C4
330
1F
100
AcDbEntity
  8
LC-001-100-D00-0
 62
     7
370
    50
100
AcDbCircle
 10
-321.104565
 20
419.215375
 30
0.0
 40
0.600000000000118
100
AcDbArc
 50
285.0
 51
0.0
  0
LINE
  5
2C5
330
1F
100
AcDbEntity
  8
LC-001-100-D00-0
 62
     7
370
    50
100
AcDbLine
 10
-320.504565
 20
421.677843
 30
0.0
 11
-320.504565
 21
419.215375
 31
0.0
  0
ARC
  5
2C6
330
1F
100
AcDbEntity
  8
LC-001-100-D00-0
 62
     7
370
    50
100
AcDbCircle
 10
-321.104565
 20
421.677843
 30
0.0
 40
0.6000000000000227
100
AcDbArc
 50
0.0
 51
75.0
  0
LINE
  5
2C7
330
1F
100
AcDbEntity
  8
LC-001-100-D00-0
 62
     7
370
    50
100
AcDbLine
 10
-321.655419
 20
422.446609
 30
0.0
 11
-320.949273
 21
422.257398
 31
0.0
  0
LINE
  5
2C8
330
1F
100
AcDbEntity
  8
LC-001-100-D00-0
 62
     7
370
    50
100
AcDbLine
 10
-321.655419
 20
424.446609
 30
0.0
 11
-321.655419
 21
422.446609
 31
0.0
  0
LINE
  5
2C9
330
1F
100
AcDbEntity
  8
LC-001-100-D00-0
 62
     7
370
    50
100
AcDbLine
 10
-321.655419
 20
416.44661
 30
0.0
 11
-319.704565
 21
416.446609
 31
0.0
  0
LINE
  5
2CA
330
1F
100
AcDbEntity
  8
LC-001-100-D00-0
 62
     7
370
    50
100
AcDbLine
 10
-321.655419
 20
424.446609
 30
0.0
 11
-319.704566
 21
424.446609
 31
0.0
  0
LINE
  5
2CB
330
1F
100
AcDbEntity
  8
LC-001-100-D00-0
 62
     7
370
    50
100
AcDbLine
 10
-310.104565
 20
419.215375
 30
0.0
 11
-310.104565
 21
421.677843
 31
0.0
  0
ARC
  5
2CC
330
1F
100
AcDbEntity
  8
LC-001-100-D00-0
 62
     7
370
    50
100
AcDbCircle
 10
-309.504565
 20
419.215375
 30
0.0
 40
0.6000000000000227
100
AcDbArc
 50
180.0
 51
255.0
  0
LINE
  5
2CD
330
1F
100
AcDbEntity
  8
LC-001-100-D00-0
 62
     7
370
    50
100
AcDbLine
 10
-308.953714
 20
418.446608
 30
0.0
 11
-309.659856
 21
418.63582
 31
0.0
  0
LINE
  5
2CE
330
1F
100
AcDbEntity
  8
LC-001-100-D00-0
 62
     7
370
    50
100
AcDbLine
 10
-308.953714
 20
418.446608
 30
0.0
 11
-308.953714
 21
416.44661
 31
0.0
  0
LINE
  5
2CF
330
1F
100
AcDbEntity
  8
LC-001-100-D00-0
 62
     7
370
    50
100
AcDbLine
 10
-311.904565
 20
417.446609
 30
0.0
 11
-310.904565
 21
416.446609
 31
0.0
  0
LINE
  5
2D0
330
1F
100
AcDbEntity
  8
LC-001-100-D00-0
 62
     7
370
    50
100
AcDbLine
 10
-311.904565
 20
417.446609
 30
0.0
 11
-311.904568
 21
423.446609
 31
0.0
  0
LINE
  5
2D1
330
1F
100
AcDbEntity
  8
LC-001-100-D00-0
 62
     7
370
    50
100
AcDbLine
 10
-310.904566
 20
424.446609
 30
0.0
 11
-311.904568
 21
423.446609
 31
0.0
  0
LINE
  5
2D2
330
1F
100
AcDbEntity
  8
LC-001-100-D00-0
 62
     7
370
    50
100
AcDbLine
 10
-308.953714
 20
424.446609
 30
0.0
 11
-308.953714
 21
422.446609
 31
0.0
  0
LINE
  5
2D3
330
1F
100
AcDbEntity
  8
LC-001-100-D00-0
 62
     7
370
    50
100
AcDbLine
 10
-309.659856
 20
422.257398
 30
0.0
 11
-308.953714
 21
422.446609
 31
0.0
  0
ARC
  5
2D4
330
1F
100
AcDbEntity
  8
LC-001-100-D00-0
 62
     7
370
    50
100
AcDbCircle
 10
-309.504565
 20
421.677843
 30
0.0
 40
0.5999999999998689
100
AcDbArc
 50
105.0
 51
180.0
  0
LINE
  5
2D5
330
1F
100
AcDbEntity
  8
LC-001-100-D00-0
 62
     7
370
    50
100
AcDbLine
 10
-310.904565
 20
416.446609
 30
0.0
 11
-308.953714
 21
416.44661
 31
0.0
  0
LINE
  5
2D6
330
1F
100
AcDbEntity
  8
LC-001-100-D00-0
 62
     7
370
    50
100
AcDbLine
 10
-310.904566
 20
424.446609
 30
0.0
 11
-308.953714
 21
424.446609
 31
0.0
  0
LINE
  5
2D7
330
1F
100
AcDbEntity
  8
LC-001-100-D00-0
 62
     7
370
    50
100
AcDbLine
 10
-318.704565
 20
417.446609
 30
0.0
 11
-318.546725
 21
417.446609
 31
0.0
  0
LINE
  5
2D8
330
1F
100
AcDbEntity
  8
LC-001-100-D00-0
 62
     7
370
    50
100
AcDbLine
 10
-312.062404
 20
417.446609
 30
0.0
 11
-311.904565
 21
417.446609
 31
0.0
  0
LINE
  5
2D9
330
1F
100
AcDbEntity
  8
LC-001-100-D00-0
 62
     7
370
    50
100
AcDbLine
 10
-310.904565
 20
416.446609
 30
0.0
 11
-311.440346
 21
416.446609
 31
0.0
  0
LINE
  5
2DA
330
1F
100
AcDbEntity
  8
LC-001-100-D00-0
 62
     7
370
    50
100
AcDbLine
 10
-319.168783
 20
416.446609
 30
0.0
 11
-319.704565
 21
416.446609
 31
0.0
  0
LINE
  5
2DB
330
1F
100
AcDbEntity
  8
LC-001-100-D00-0
 62
     7
370
    50
100
AcDbLine
 10
-308.953714
 20
424.446609
 30
0.0
 11
-311.404567
 21
424.446609
 31
0.0
  0
LINE
  5
2DC
330
1F
100
AcDbEntity
  8
LC-001-100-D00-0
 62
     7
370
    50
100
AcDbLine
 10
-311.404567
 20
424.446609
 30
0.0
 11
-311.404565
 21
435.446609
 31
0.0
  0
LINE
  5
2DD
330
1F
100
AcDbEntity
  8
LC-001-100-D00-0
 62
     7
370
    50
100
AcDbLine
 10
-311.404565
 20
435.446609
 30
0.0
 11
-298.054565
 21
435.446609
 31
0.0
  0
ARC
  5
2DE
330
1F
100
AcDbEntity
  8
LC-001-100-D00-0
 62
     7
370
    50
100
AcDbCircle
 10
-298.054565
 20
434.446609
 30
0.0
 40
0.9999999999998863
100
AcDbArc
 50
0.0
 51
90.0
  0
LINE
  5
2DF
330
1F
100
AcDbEntity
  8
LC-001-100-D00-0
 62
     7
370
    50
100
AcDbLine
 10
-297.054565
 20
434.446609
 30
0.0
 11
-297.054563
 21
428.446609
 31
0.0
  0
LINE
  5
2E0
330
1F
100
AcDbEntity
  8
LC-001-100-D00-0
 62
     7
370
    50
100
AcDbLine
 10
-300.054565
 20
428.446609
 30
0.0
 11
-297.054563
 21
428.446609
 31
0.0
  0
LINE
  5
2E1
330
1F
100
AcDbEntity
  8
LC-001-100-D00-0
 62
     7
370
    50
100
AcDbLine
 10
-300.054565
 20
428.446609
 30
0.0
 11
-300.054561
 21
432.446609
 31
0.0
  0
LINE
  5
2E2
330
1F
100
AcDbEntity
  8
LC-001-100-D00-0
 62
     7
370
    50
100
AcDbLine
 10
-304.554565
 20
432.446609
 30
0.0
 11
-300.054561
 21
432.446609
 31
0.0
  0
ARC
  5
2E3
330
1F
100
AcDbEntity
  8
LC-001-100-D00-0
 62
     7
370
    50
100
AcDbCircle
 10
-304.554565
 20
431.446609
 30
0.0
 40
1.0
100
AcDbArc
 50
90.0
 51
180.0
  0
LINE
  5
2E4
330
1F
100
AcDbEntity
  8
LC-001-100-D00-0
 62
     7
370
    50
100
AcDbLine
 10
-305.554565
 20
417.446609
 30
0.0
 11
-305.554565
 21
431.446609
 31
0.0
  0
ARC
  5
2E5
330
1F
100
AcDbEntity
  8
LC-001-100-D00-0
 62
     7
370
    50
100
AcDbCircle
 10
-306.554565
 20
417.446609
 30
0.0
 40
1.0
100
AcDbArc
 50
270.0
 51
0.0
  0
LINE
  5
2E6
330
1F
100
AcDbEntity
  8
LC-001-100-D00-0
 62
     7
370
    50
100
AcDbLine
 10
-306.554565
 20
416.446609
 30
0.0
 11
-308.953714
 21
416.44661
 31
0.0
  0
LINE
  5
2E7
330
1F
100
AcDbEntity
  8
LC-001-100-D00-0
 62
     7
370
    50
100
AcDbLine
 10
-308.953714
 20
418.446608
 30
0.0
 11
-308.953714
 21
416.44661
 31
0.0
  0
LINE
  5
2E8
330
1F
100
AcDbEntity
  8
LC-001-100-D00-0
 62
     7
370
    50
100
AcDbLine
 10
-309.604565
 20
418.446609
 30
0.0
 11
-308.953714
 21
418.446608
 31
0.0
  0
ARC
  5
2E9
330
1F
100
AcDbEntity
  8
LC-001-100-D00-0
 62
     7
370
    50
100
AcDbCircle
 10
-309.604565
 20
418.946609
 30
0.0
 40
0.5
100
AcDbArc
 50
180.0
 51
270.0
  0
LINE
  5
2EA
330
1F
100
AcDbEntity
  8
LC-001-100-D00-0
 62
     7
370
    50
100
AcDbLine
 10
-310.104565
 20
421.946609
 30
0.0
 11
-310.104565
 21
418.946609
 31
0.0
  0
ARC
  5
2EB
330
1F
100
AcDbEntity
  8
LC-001-100-D00-0
 62
     7
370
    50
100
AcDbCircle
 10
-309.604565
 20
421.946609
 30
0.0
 40
0.5
100
AcDbArc
 50
90.0
 51
180.0
  0
LINE
  5
2EC
330
1F
100
AcDbEntity
  8
LC-001-100-D00-0
 62
     7
370
    50
100
AcDbLine
 10
-308.953714
 20
422.446609
 30
0.0
 11
-309.604565
 21
422.446609
 31
0.0
  0
LINE
  5
2ED
330
1F
100
AcDbEntity
  8
LC-001-100-D00-0
 62
     7
370
    50
100
AcDbLine
 10
-308.953714
 20
424.446609
 30
0.0
 11
-308.953714
 21
422.446609
 31
0.0
  0
ARC
  5
2EE
330
1F
100
AcDbEntity
  8
LC-001-100-D00-0
 62
     7
370
    50
100
AcDbCircle
 10
-326.054565
 20
431.446609
 30
0.0
 40
1.000000000000114
100
AcDbArc
 50
0.0
 51
90.0
  0
ARC
  5
2EF
330
1F
100
AcDbEntity
  8
LC-001-100-D00-0
 62
     7
370
    50
100
AcDbCircle
 10
-324.054565
 20
417.446609
 30
0.0
 40
1.0
100
AcDbArc
 50
180.0
 51
270.0
  0
LINE
  5
2F0
330
1F
100
AcDbEntity
  8
LC-001-100-D00-0
 62
     7
370
    50
100
AcDbLine
 10
-325.054565
 20
431.446609
 30
0.0
 11
-325.054565
 21
417.446609
 31
0.0
  0
LINE
  5
2F1
330
1F
100
AcDbEntity
  8
LC-001-100-D00-0
 62
     7
370
    50
100
AcDbLine
 10
-319.204565
 20
435.446609
 30
0.0
 11
-319.204565
 21
424.446609
 31
0.0
  0
LINE
  5
2F2
330
1F
100
AcDbEntity
  8
LC-001-100-D00-0
 62
     7
370
    50
100
AcDbLine
 10
-319.204565
 20
435.446609
 30
0.0
 11
-311.404565
 21
435.446609
 31
0.0
  0
LINE
  5
2F3
330
1F
100
AcDbEntity
  8
LC-001-100-D00-0
 62
     7
370
    50
100
AcDbLine
 10
-320.504565
 20
418.946609
 30
0.0
 11
-320.504565
 21
421.946609
 31
0.0
  0
ARC
  5
2F4
330
1F
100
AcDbEntity
  8
LC-001-100-D00-0
 62
     7
370
    50
100
AcDbCircle
 10
-321.004565
 20
418.946609
 30
0.0
 40
0.5000000000002274
100
AcDbArc
 50
270.0
 51
0.0
  0
LINE
  5
2F5
330
1F
100
AcDbEntity
  8
LC-001-100-D00-0
 62
     7
370
    50
100
AcDbLine
 10
-321.655419
 20
418.446608
 30
0.0
 11
-321.004565
 21
418.446609
 31
0.0
  0
LINE
  5
2F6
330
1F
100
AcDbEntity
  8
LC-001-100-D00-0
 62
     7
370
    50
100
AcDbLine
 10
-321.655419
 20
418.446608
 30
0.0
 11
-321.655419
 21
416.44661
 31
0.0
  0
LINE
  5
2F7
330
1F
100
AcDbEntity
  8
LC-001-100-D00-0
 62
     7
370
    50
100
AcDbLine
 10
-330.554564
 20
432.446609
 30
0.0
 11
-330.554565
 21
428.446609
 31
0.0
  0
LINE
  5
2F8
330
1F
100
AcDbEntity
  8
LC-001-100-D00-0
 62
     7
370
    50
100
AcDbLine
 10
-333.554562
 20
428.446609
 30
0.0
 11
-333.554565
 21
434.446609
 31
0.0
  0
ARC
  5
2F9
330
1F
100
AcDbEntity
  8
LC-001-100-D00-0
 62
     7
370
    50
100
AcDbCircle
 10
-332.554565
 20
434.446609
 30
0.0
 40
1.0
100
AcDbArc
 50
90.0
 51
180.0
  0
LINE
  5
2FA
330
1F
100
AcDbEntity
  8
LC-001-100-D00-0
 62
     7
370
    50
100
AcDbLine
 10
-321.655419
 20
424.446609
 30
0.0
 11
-321.655419
 21
422.446609
 31
0.0
  0
LINE
  5
2FB
330
1F
100
AcDbEntity
  8
LC-001-100-D00-0
 62
     7
370
    50
100
AcDbLine
 10
-321.004565
 20
422.446609
 30
0.0
 11
-321.655419
 21
422.446609
 31
0.0
  0
ARC
  5
2FC
330
1F
100
AcDbEntity
  8
LC-001-100-D00-0
 62
     7
370
    50
100
AcDbCircle
 10
-321.004565
 20
421.946609
 30
0.0
 40
0.5
100
AcDbArc
 50
0.0
 51
90.0
  0
LINE
  5
2FD
330
1F
100
AcDbEntity
  8
LC-001-100-D00-0
 62
     7
370
    50
100
AcDbLine
 10
-321.655419
 20
416.44661
 30
0.0
 11
-324.054565
 21
416.446609
 31
0.0
  0
LINE
  5
2FE
330
1F
100
AcDbEntity
  8
LC-001-100-D00-0
 62
     7
370
    50
100
AcDbLine
 10
-319.204565
 20
424.446609
 30
0.0
 11
-321.655419
 21
424.446609
 31
0.0
  0
LINE
  5
2FF
330
1F
100
AcDbEntity
  8
LC-001-100-D00-0
 62
     7
370
    50
100
AcDbLine
 10
-330.554564
 20
432.446609
 30
0.0
 11
-326.054565
 21
432.446609
 31
0.0
  0
LINE
  5
300
330
1F
100
AcDbEntity
  8
LC-001-100-D00-0
 62
     7
370
    50
100
AcDbLine
 10
-332.554565
 20
435.446609
 30
0.0
 11
-319.204565
 21
435.446609
 31
0.0
  0
LINE
  5
301
330
1F
100
AcDbEntity
  8
LC-001-100-D00-0
 62
     7
370
    50
100
AcDbLine
 10
-333.554562
 20
428.446609
 30
0.0
 11
-330.554565
 21
428.446609
 31
0.0
  0
LINE
  5
302
330
1F
100
AcDbEntity
  8
LC-001-100-D00-0
 62
     7
370
    50
100
AcDbLine
 10
-302.054565
 20
428.446609
 30
0.0
 11
-300.054565
 21
428.446609
 31
0.0
  0
LINE
  5
303
330
1F
100
AcDbEntity
  8
LC-001-100-D00-0
 62
     7
370
    50
100
AcDbLine
 10
-330.554565
 20
428.446609
 30
0.0
 11
-328.554565
 21
428.446609
 31
0.0
  0
LINE
  5
304
330
1F
100
AcDbEntity
  8
LC-001-100-D00-0
 62
     7
370
    50
100
AcDbLine
 10
-328.554565
 20
428.446609
 30
0.0
 11
-325.054567
 21
428.446609
 31
0.0
  0
LINE
  5
305
330
1F
100
AcDbEntity
  8
LC-001-100-D00-0
 62
     7
370
    50
100
AcDbLine
 10
-305.554565
 20
428.446609
 30
0.0
 11
-302.054565
 21
428.446609
 31
0.0
  0
LINE
  5
306
330
1F
100
AcDbEntity
  8
LC-001-100-D00-0
 62
     7
370
    50
100
AcDbLine
 10
-118.704561
 20
423.446609
 30
0.0
 11
-119.704563
 21
424.446609
 31
0.0
  0
LINE
  5
307
330
1F
100
AcDbEntity
  8
LC-001-100-D00-0
 62
     7
370
    50
100
AcDbLine
 10
-118.704561
 20
423.446609
 30
0.0
 11
-118.704565
 21
417.446609
 31
0.0
  0
LINE
  5
308
330
1F
100
AcDbEntity
  8
LC-001-100-D00-0
 62
     7
370
    50
100
AcDbLine
 10
-119.704565
 20
416.446609
 30
0.0
 11
-118.704565
 21
417.446609
 31
0.0
  0
LINE
  5
309
330
1F
100
AcDbEntity
  8
LC-001-100-D00-0
 62
     7
370
    50
100
AcDbLine
 10
-121.655416
 20
418.446608
 30
0.0
 11
-121.655416
 21
416.44661
 31
0.0
  0
LINE
  5
30A
330
1F
100
AcDbEntity
  8
LC-001-100-D00-0
 62
     7
370
    50
100
AcDbLine
 10
-120.949273
 20
418.63582
 30
0.0
 11
-121.655416
 21
418.446608
 31
0.0
  0
ARC
  5
30B
330
1F
100
AcDbEntity
  8
LC-001-100-D00-0
 62
     7
370
    50
100
AcDbCircle
 10
-121.104565
 20
419.215375
 30
0.0
 40
0.600000000000118
100
AcDbArc
 50
285.0
 51
0.0
  0
LINE
  5
30C
330
1F
100
AcDbEntity
  8
LC-001-100-D00-0
 62
     7
370
    50
100
AcDbLine
 10
-120.504565
 20
421.677843
 30
0.0
 11
-120.504565
 21
419.215375
 31
0.0
  0
ARC
  5
30D
330
1F
100
AcDbEntity
  8
LC-001-100-D00-0
 62
     7
370
    50
100
AcDbCircle
 10
-121.104565
 20
421.677843
 30
0.0
 40
0.6000000000000227
100
AcDbArc
 50
0.0
 51
75.0
  0
LINE
  5
30E
330
1F
100
AcDbEntity
  8
LC-001-100-D00-0
 62
     7
370
    50
100
AcDbLine
 10
-121.655416
 20
422.446609
 30
0.0
 11
-120.949273
 21
422.257398
 31
0.0
  0
LINE
  5
30F
330
1F
100
AcDbEntity
  8
LC-001-100-D00-0
 62
     7
370
    50
100
AcDbLine
 10
-121.655416
 20
424.446609
 30
0.0
 11
-121.655416
 21
422.446609
 31
0.0
  0
LINE
  5
310
330
1F
100
AcDbEntity
  8
LC-001-100-D00-0
 62
     7
370
    50
100
AcDbLine
 10
-121.655416
 20
416.44661
 30
0.0
 11
-119.704565
 21
416.446609
 31
0.0
  0
LINE
  5
311
330
1F
100
AcDbEntity
  8
LC-001-100-D00-0
 62
     7
370
    50
100
AcDbLine
 10
-121.655416
 20
424.446609
 30
0.0
 11
-119.704563
 21
424.446609
 31
0.0
  0
LINE
  5
312
330
1F
100
AcDbEntity
  8
LC-001-100-D00-0
 62
     7
370
    50
100
AcDbLine
 10
-110.104565
 20
419.215375
 30
0.0
 11
-110.104565
 21
421.677843
 31
0.0
  0
ARC
  5
313
330
1F
100
AcDbEntity
  8
LC-001-100-D00-0
 62
     7
370
    50
100
AcDbCircle
 10
-109.504565
 20
419.215375
 30
0.0
 40
0.6000000000001364
100
AcDbArc
 50
180.0
 51
255.0
  0
LINE
  5
314
330
1F
100
AcDbEntity
  8
LC-001-100-D00-0
 62
     7
370
    50
100
AcDbLine
 10
-108.953711
 20
418.446608
 30
0.0
 11
-109.659856
 21
418.63582
 31
0.0
  0
LINE
  5
315
330
1F
100
AcDbEntity
  8
LC-001-100-D00-0
 62
     7
370
    50
100
AcDbLine
 10
-108.953711
 20
418.446608
 30
0.0
 11
-108.953711
 21
416.44661
 31
0.0
  0
LINE
  5
316
330
1F
100
AcDbEntity
  8
LC-001-100-D00-0
 62
     7
370
    50
100
AcDbLine
 10
-111.904565
 20
417.446609
 30
0.0
 11
-110.904565
 21
416.446609
 31
0.0
  0
LINE
  5
317
330
1F
100
AcDbEntity
  8
LC-001-100-D00-0
 62
     7
370
    50
100
AcDbLine
 10
-111.904565
 20
417.446609
 30
0.0
 11
-111.904565
 21
423.446609
 31
0.0
  0
LINE
  5
318
330
1F
100
AcDbEntity
  8
LC-001-100-D00-0
 62
     7
370
    50
100
AcDbLine
 10
-110.904563
 20
424.446609
 30
0.0
 11
-111.904565
 21
423.446609
 31
0.0
  0
LINE
  5
319
330
1F
100
AcDbEntity
  8
LC-001-100-D00-0
 62
     7
370
    50
100
AcDbLine
 10
-108.953711
 20
424.446609
 30
0.0
 11
-108.953711
 21
422.446609
 31
0.0
  0
LINE
  5
31A
330
1F
100
AcDbEntity
  8
LC-001-100-D00-0
 62
     7
370
    50
100
AcDbLine
 10
-109.659856
 20
422.257398
 30
0.0
 11
-108.953711
 21
422.446609
 31
0.0
  0
ARC
  5
31B
330
1F
100
AcDbEntity
  8
LC-001-100-D00-0
 62
     7
370
    50
100
AcDbCircle
 10
-109.504565
 20
421.677843
 30
0.0
 40
0.600000000000118
100
AcDbArc
 50
105.0
 51
180.0
  0
LINE
  5
31C
330
1F
100
AcDbEntity
  8
LC-001-100-D00-0
 62
     7
370
    50
100
AcDbLine
 10
-110.904565
 20
416.446609
 30
0.0
 11
-108.953711
 21
416.44661
 31
0.0
  0
LINE
  5
31D
330
1F
100
AcDbEntity
  8
LC-001-100-D00-0
 62
     7
370
    50
100
AcDbLine
 10
-110.904563
 20
424.446609
 30
0.0
 11
-108.953711
 21
424.446609
 31
0.0
  0
LINE
  5
31E
330
1F
100
AcDbEntity
  8
LC-001-100-D00-0
 62
     7
370
    50
100
AcDbLine
 10
-118.704565
 20
417.446609
 30
0.0
 11
-118.546725
 21
417.446609
 31
0.0
  0
LINE
  5
31F
330
1F
100
AcDbEntity
  8
LC-001-100-D00-0
 62
     7
370
    50
100
AcDbLine
 10
-112.062404
 20
417.446609
 30
0.0
 11
-111.904565
 21
417.446609
 31
0.0
  0
LINE
  5
320
330
1F
100
AcDbEntity
  8
LC-001-100-D00-0
 62
     7
370
    50
100
AcDbLine
 10
-110.904565
 20
416.446609
 30
0.0
 11
-111.440346
 21
416.446609
 31
0.0
  0
LINE
  5
321
330
1F
100
AcDbEntity
  8
LC-001-100-D00-0
 62
     7
370
    50
100
AcDbLine
 10
-119.168783
 20
416.446609
 30
0.0
 11
-119.704565
 21
416.446609
 31
0.0
  0
LINE
  5
322
330
1F
100
AcDbEntity
  8
LC-001-100-D00-0
 62
     7
370
    50
100
AcDbLine
 10
-108.953711
 20
424.446609
 30
0.0
 11
-111.404564
 21
424.446609
 31
0.0
  0
LINE
  5
323
330
1F
100
AcDbEntity
  8
LC-001-100-D00-0
 62
     7
370
    50
100
AcDbLine
 10
-111.404564
 20
424.446609
 30
0.0
 11
-111.404565
 21
435.446609
 31
0.0
  0
LINE
  5
324
330
1F
100
AcDbEntity
  8
LC-001-100-D00-0
 62
     7
370
    50
100
AcDbLine
 10
-111.404565
 20
435.446609
 30
0.0
 11
-98.054565
 21
435.446609
 31
0.0
  0
ARC
  5
325
330
1F
100
AcDbEntity
  8
LC-001-100-D00-0
 62
     7
370
    50
100
AcDbCircle
 10
-98.054565
 20
434.446609
 30
0.0
 40
1.000000000000114
100
AcDbArc
 50
0.0
 51
90.0
  0
LINE
  5
326
330
1F
100
AcDbEntity
  8
LC-001-100-D00-0
 62
     7
370
    50
100
AcDbLine
 10
-97.054565
 20
434.446609
 30
0.0
 11
-97.054567
 21
428.446609
 31
0.0
  0
LINE
  5
327
330
1F
100
AcDbEntity
  8
LC-001-100-D00-0
 62
     7
370
    50
100
AcDbLine
 10
-100.054565
 20
428.446609
 30
0.0
 11
-97.054567
 21
428.446609
 31
0.0
  0
LINE
  5
328
330
1F
100
AcDbEntity
  8
LC-001-100-D00-0
 62
     7
370
    50
100
AcDbLine
 10
-100.054565
 20
428.446609
 30
0.0
 11
-100.054566
 21
432.446609
 31
0.0
  0
LINE
  5
329
330
1F
100
AcDbEntity
  8
LC-001-100-D00-0
 62
     7
370
    50
100
AcDbLine
 10
-104.554565
 20
432.446609
 30
0.0
 11
-100.054566
 21
432.446609
 31
0.0
  0
ARC
  5
32A
330
1F
100
AcDbEntity
  8
LC-001-100-D00-0
 62
     7
370
    50
100
AcDbCircle
 10
-104.554565
 20
431.446609
 30
0.0
 40
1.0
100
AcDbArc
 50
90.0
 51
180.0
  0
LINE
  5
32B
330
1F
100
AcDbEntity
  8
LC-001-100-D00-0
 62
     7
370
    50
100
AcDbLine
 10
-105.554565
 20
417.446609
 30
0.0
 11
-105.554565
 21
431.446609
 31
0.0
  0
ARC
  5
32C
330
1F
100
AcDbEntity
  8
LC-001-100-D00-0
 62
     7
370
    50
100
AcDbCircle
 10
-106.554565
 20
417.446609
 30
0.0
 40
1.0
100
AcDbArc
 50
270.0
 51
0.0
  0
LINE
  5
32D
330
1F
100
AcDbEntity
  8
LC-001-100-D00-0
 62
     7
370
    50
100
AcDbLine
 10
-106.554565
 20
416.446609
 30
0.0
 11
-108.953711
 21
416.44661
 31
0.0
  0
LINE
  5
32E
330
1F
100
AcDbEntity
  8
LC-001-100-D00-0
 62
     7
370
    50
100
AcDbLine
 10
-108.953711
 20
418.446608
 30
0.0
 11
-108.953711
 21
416.44661
 31
0.0
  0
LINE
  5
32F
330
1F
100
AcDbEntity
  8
LC-001-100-D00-0
 62
     7
370
    50
100
AcDbLine
 10
-109.604565
 20
418.446609
 30
0.0
 11
-108.953711
 21
418.446608
 31
0.0
  0
ARC
  5
330
330
1F
100
AcDbEntity
  8
LC-001-100-D00-0
 62
     7
370
    50
100
AcDbCircle
 10
-109.604565
 20
418.946609
 30
0.0
 40
0.5
100
AcDbArc
 50
180.0
 51
270.0
  0
LINE
  5
331
330
1F
100
AcDbEntity
  8
LC-001-100-D00-0
 62
     7
370
    50
100
AcDbLine
 10
-110.104565
 20
421.946609
 30
0.0
 11
-110.104565
 21
418.946609
 31
0.0
  0
ARC
  5
332
330
1F
100
AcDbEntity
  8
LC-001-100-D00-0
 62
     7
370
    50
100
AcDbCircle
 10
-109.604565
 20
421.946609
 30
0.0
 40
0.5
100
AcDbArc
 50
90.0
 51
180.0
  0
LINE
  5
333
330
1F
100
AcDbEntity
  8
LC-001-100-D00-0
 62
     7
370
    50
100
AcDbLine
 10
-108.953711
 20
422.446609
 30
0.0
 11
-109.604565
 21
422.446609
 31
0.0
  0
LINE
  5
334
330
1F
100
AcDbEntity
  8
LC-001-100-D00-0
 62
     7
370
    50
100
AcDbLine
 10
-108.953711
 20
424.446609
 30
0.0
 11
-108.953711
 21
422.446609
 31
0.0
  0
ARC
  5
335
330
1F
100
AcDbEntity
  8
LC-001-100-D00-0
 62
     7
370
    50
100
AcDbCircle
 10
-126.054565
 20
431.446609
 30
0.0
 40
1.000000000000114
100
AcDbArc
 50
0.0
 51
90.0
  0
ARC
  5
336
330
1F
100
AcDbEntity
  8
LC-001-100-D00-0
 62
     7
370
    50
100
AcDbCircle
 10
-124.054565
 20
417.446609
 30
0.0
 40
1.000000000000114
100
AcDbArc
 50
180.0
 51
270.0
  0
LINE
  5
337
330
1F
100
AcDbEntity
  8
LC-001-100-D00-0
 62
     7
370
    50
100
AcDbLine
 10
-125.054565
 20
431.446609
 30
0.0
 11
-125.054565
 21
417.446609
 31
0.0
  0
LINE
  5
338
330
1F
100
AcDbEntity
  8
LC-001-100-D00-0
 62
     7
370
    50
100
AcDbLine
 10
-119.204565
 20
435.446609
 30
0.0
 11
-119.204562
 21
424.446609
 31
0.0
  0
LINE
  5
339
330
1F
100
AcDbEntity
  8
LC-001-100-D00-0
 62
     7
370
    50
100
AcDbLine
 10
-119.204565
 20
435.446609
 30
0.0
 11
-111.404565
 21
435.446609
 31
0.0
  0
LINE
  5
33A
330
1F
100
AcDbEntity
  8
LC-001-100-D00-0
 62
     7
370
    50
100
AcDbLine
 10
-120.504565
 20
418.946609
 30
0.0
 11
-120.504565
 21
421.946609
 31
0.0
  0
ARC
  5
33B
330
1F
100
AcDbEntity
  8
LC-001-100-D00-0
 62
     7
370
    50
100
AcDbCircle
 10
-121.004565
 20
418.946609
 30
0.0
 40
0.5
100
AcDbArc
 50
270.0
 51
0.0
  0
LINE
  5
33C
330
1F
100
AcDbEntity
  8
LC-001-100-D00-0
 62
     7
370
    50
100
AcDbLine
 10
-121.655416
 20
418.446608
 30
0.0
 11
-121.004565
 21
418.446609
 31
0.0
  0
LINE
  5
33D
330
1F
100
AcDbEntity
  8
LC-001-100-D00-0
 62
     7
370
    50
100
AcDbLine
 10
-121.655416
 20
418.446608
 30
0.0
 11
-121.655416
 21
416.44661
 31
0.0
  0
LINE
  5
33E
330
1F
100
AcDbEntity
  8
LC-001-100-D00-0
 62
     7
370
    50
100
AcDbLine
 10
-130.554568
 20
432.446609
 30
0.0
 11
-130.554565
 21
428.446609
 31
0.0
  0
LINE
  5
33F
330
1F
100
AcDbEntity
  8
LC-001-100-D00-0
 62
     7
370
    50
100
AcDbLine
 10
-133.554567
 20
428.446609
 30
0.0
 11
-133.554565
 21
434.446609
 31
0.0
  0
ARC
  5
340
330
1F
100
AcDbEntity
  8
LC-001-100-D00-0
 62
     7
370
    50
100
AcDbCircle
 10
-132.554565
 20
434.446609
 30
0.0
 40
1.0
100
AcDbArc
 50
90.0
 51
180.0
  0
LINE
  5
341
330
1F
100
AcDbEntity
  8
LC-001-100-D00-0
 62
     7
370
    50
100
AcDbLine
 10
-121.655416
 20
424.446609
 30
0.0
 11
-121.655416
 21
422.446609
 31
0.0
  0
LINE
  5
342
330
1F
100
AcDbEntity
  8
LC-001-100-D00-0
 62
     7
370
    50
100
AcDbLine
 10
-121.004565
 20
422.446609
 30
0.0
 11
-121.655416
 21
422.446609
 31
0.0
  0
ARC
  5
343
330
1F
100
AcDbEntity
  8
LC-001-100-D00-0
 62
     7
370
    50
100
AcDbCircle
 10
-121.004565
 20
421.946609
 30
0.0
 40
0.5
100
AcDbArc
 50
0.0
 51
90.0
  0
LINE
  5
344
330
1F
100
AcDbEntity
  8
LC-001-100-D00-0
 62
     7
370
    50
100
AcDbLine
 10
-121.655416
 20
416.44661
 30
0.0
 11
-124.054565
 21
416.446609
 31
0.0
  0
LINE
  5
345
330
1F
100
AcDbEntity
  8
LC-001-100-D00-0
 62
     7
370
    50
100
AcDbLine
 10
-119.204562
 20
424.446609
 30
0.0
 11
-121.655416
 21
424.446609
 31
0.0
  0
LINE
  5
346
330
1F
100
AcDbEntity
  8
LC-001-100-D00-0
 62
     7
370
    50
100
AcDbLine
 10
-130.554568
 20
432.446609
 30
0.0
 11
-126.054565
 21
432.446609
 31
0.0
  0
LINE
  5
347
330
1F
100
AcDbEntity
  8
LC-001-100-D00-0
 62
     7
370
    50
100
AcDbLine
 10
-132.554565
 20
435.446609
 30
0.0
 11
-119.204565
 21
435.446609
 31
0.0
  0
LINE
  5
348
330
1F
100
AcDbEntity
  8
LC-001-100-D00-0
 62
     7
370
    50
100
AcDbLine
 10
-133.554567
 20
428.446609
 30
0.0
 11
-130.554565
 21
428.446609
 31
0.0
  0
LINE
  5
349
330
1F
100
AcDbEntity
  8
LC-001-100-D00-0
 62
     7
370
    50
100
AcDbLine
 10
-102.054565
 20
428.446609
 30
0.0
 11
-100.054565
 21
428.446609
 31
0.0
  0
LINE
  5
34A
330
1F
100
AcDbEntity
  8
LC-001-100-D00-0
 62
     7
370
    50
100
AcDbLine
 10
-130.554565
 20
428.446609
 30
0.0
 11
-128.554565
 21
428.446609
 31
0.0
  0
LINE
  5
34B
330
1F
100
AcDbEntity
  8
LC-001-100-D00-0
 62
     7
370
    50
100
AcDbLine
 10
-128.554565
 20
428.446609
 30
0.0
 11
-125.054564
 21
428.446609
 31
0.0
  0
LINE
  5
34C
330
1F
100
AcDbEntity
  8
LC-001-100-D00-0
 62
     7
370
    50
100
AcDbLine
 10
-105.554562
 20
428.446609
 30
0.0
 11
-102.054565
 21
428.446609
 31
0.0
  0
LINE
  5
34D
330
1F
100
AcDbEntity
  8
LC-001-100-D00-0
 62
     7
370
    50
100
AcDbLine
 10
-156.804565
 20
405.603692
 30
0.0
 11
-156.514648
 21
405.51261
 31
0.0
  0
LINE
  5
34E
330
1F
100
AcDbEntity
  8
LC-001-100-D00-0
 62
     7
370
    50
100
AcDbLine
 10
-157.992179
 20
403.46118
 30
0.0
 11
-156.804565
 21
405.603692
 31
0.0
  0
ARC
  5
34F
330
1F
100
AcDbEntity
  8
LC-001-100-D00-0
 62
     7
370
    50
100
AcDbCircle
 10
-158.254565
 20
403.606623
 30
0.0
 40
0.3000000000001819
100
AcDbArc
 50
180.0
 51
331.0
  0
LINE
  5
350
330
1F
100
AcDbEntity
  8
LC-001-100-D00-0
 62
     7
370
    50
100
AcDbLine
 10
-158.554565
 20
406.146863
 30
0.0
 11
-158.554565
 21
403.606623
 31
0.0
  0
ARC
  5
351
330
1F
100
AcDbEntity
  8
LC-001-100-D00-0
 62
     7
370
    50
100
AcDbCircle
 10
-156.554565
 20
406.146863
 30
0.0
 40
2.000000000000172
100
AcDbArc
 50
113.962489
 51
180.0
  0
LINE
  5
352
330
1F
100
AcDbEntity
  8
LC-001-100-D00-0
 62
     7
370
    50
100
AcDbLine
 10
-156.498489
 20
408.360421
 30
0.0
 11
-157.366842
 21
407.974486
 31
0.0
  0
ARC
  5
353
330
1F
100
AcDbEntity
  8
LC-001-100-D00-0
 62
     7
370
    50
100
AcDbCircle
 10
-156.09235
 20
407.446609
 30
0.0
 40
1.0
100
AcDbArc
 50
90.0
 51
113.962489
  0
LINE
  5
354
330
1F
100
AcDbEntity
  8
LC-001-100-D00-0
 62
     7
370
    50
100
AcDbLine
 10
-150.304567
 20
408.446608
 30
0.0
 11
-150.304567
 21
404.446609
 31
0.0
  0
LINE
  5
355
330
1F
100
AcDbEntity
  8
LC-001-100-D00-0
 62
     7
370
    50
100
AcDbLine
 10
-156.304565
 20
405.226402
 30
0.0
 11
-156.304565
 21
404.446609
 31
0.0
  0
ARC
  5
356
330
1F
100
AcDbEntity
  8
LC-001-100-D00-0
 62
     7
370
    50
100
AcDbCircle
 10
-156.604565
 20
405.226402
 30
0.0
 40
0.3000000000001819
100
AcDbArc
 50
0.0
 51
72.558995
  0
LINE
  5
357
330
1F
100
AcDbEntity
  8
LC-001-100-D00-0
 62
     7
370
    50
100
AcDbLine
 10
-150.304567
 20
408.446608
 30
0.0
 11
-156.09235
 21
408.446609
 31
0.0
  0
LINE
  5
358
330
1F
100
AcDbEntity
  8
LC-001-100-D00-0
 62
     7
370
    50
100
AcDbLine
 10
-150.304567
 20
404.446609
 30
0.0
 11
-156.304565
 21
404.446609
 31
0.0
  0
LINE
  5
359
330
1F
100
AcDbEntity
  8
LC-001-100-D00-0
 62
     7
370
    50
100
AcDbLine
 10
-156.304565
 20
404.446609
 30
0.0
 11
-157.445947
 21
404.446609
 31
0.0
  0
LINE
  5
35A
330
1F
100
AcDbEntity
  8
LC-001-100-D00-0
 62
     7
370
    50
100
AcDbLine
 10
-156.855052
 20
405.51261
 30
0.0
 11
-156.514648
 21
405.51261
 31
0.0
  0
LINE
  5
35B
330
1F
100
AcDbEntity
  8
LC-001-100-D00-0
 62
     7
370
    50
100
AcDbLine
 10
-274.304565
 20
404.446609
 30
0.0
 11
-274.304565
 21
405.226402
 31
0.0
  0
LINE
  5
35C
330
1F
100
AcDbEntity
  8
LC-001-100-D00-0
 62
     7
370
    50
100
AcDbLine
 10
-273.163183
 20
404.446609
 30
0.0
 11
-274.304565
 21
404.446609
 31
0.0
  0
LINE
  5
35D
330
1F
100
AcDbEntity
  8
LC-001-100-D00-0
 62
     7
370
    50
100
AcDbLine
 10
-273.804564
 20
405.603692
 30
0.0
 11
-272.616951
 21
403.46118
 31
0.0
  0
LINE
  5
35E
330
1F
100
AcDbEntity
  8
LC-001-100-D00-0
 62
     7
370
    50
100
AcDbLine
 10
-274.094482
 20
405.51261
 30
0.0
 11
-273.754077
 21
405.51261
 31
0.0
  0
LINE
  5
35F
330
1F
100
AcDbEntity
  8
LC-001-100-D00-0
 62
     7
370
    50
100
AcDbLine
 10
-274.094482
 20
405.51261
 30
0.0
 11
-273.804564
 21
405.603692
 31
0.0
  0
ARC
  5
360
330
1F
100
AcDbEntity
  8
LC-001-100-D00-0
 62
     7
370
    50
100
AcDbCircle
 10
-272.354565
 20
403.606623
 30
0.0
 40
0.3000000000000423
100
AcDbArc
 50
209.0
 51
0.0
  0
ARC
  5
361
330
1F
100
AcDbEntity
  8
LC-001-100-D00-0
 62
     7
370
    50
100
AcDbCircle
 10
-274.054565
 20
406.146863
 30
0.0
 40
2.0
100
AcDbArc
 50
0.0
 51
66.037511
  0
LINE
  5
362
330
1F
100
AcDbEntity
  8
LC-001-100-D00-0
 62
     7
370
    50
100
AcDbLine
 10
-272.054565
 20
403.606623
 30
0.0
 11
-272.054565
 21
406.146863
 31
0.0
  0
ARC
  5
363
330
1F
100
AcDbEntity
  8
LC-001-100-D00-0
 62
     7
370
    50
100
AcDbCircle
 10
-274.004565
 20
405.226402
 30
0.0
 40
0.3000000000001272
100
AcDbArc
 50
107.441005
 51
180.0
  0
LINE
  5
364
330
1F
100
AcDbEntity
  8
LC-001-100-D00-0
 62
     7
370
    50
100
AcDbLine
 10
-273.242288
 20
407.974486
 30
0.0
 11
-274.110641
 21
408.360421
 31
0.0
  0
ARC
  5
365
330
1F
100
AcDbEntity
  8
LC-001-100-D00-0
 62
     7
370
    50
100
AcDbCircle
 10
-274.516779
 20
407.446609
 30
0.0
 40
0.9999999999999591
100
AcDbArc
 50
66.037511
 51
90.0
  0
LINE
  5
366
330
1F
100
AcDbEntity
  8
LC-001-100-D00-0
 62
     7
370
    50
100
AcDbLine
 10
-280.304562
 20
404.446609
 30
0.0
 11
-280.304562
 21
408.446608
 31
0.0
  0
LINE
  5
367
330
1F
100
AcDbEntity
  8
LC-001-100-D00-0
 62
     7
370
    50
100
AcDbLine
 10
-274.516779
 20
408.446609
 30
0.0
 11
-280.304562
 21
408.446608
 31
0.0
  0
LINE
  5
368
330
1F
100
AcDbEntity
  8
LC-001-100-D00-0
 62
     7
370
    50
100
AcDbLine
 10
-274.304565
 20
404.446609
 30
0.0
 11
-280.304562
 21
404.446609
 31
0.0
  0
LINE
  5
369
330
1F
100
AcDbEntity
  8
LC-001-100-D00-0
 62
     7
370
    50
100
AcDbLine
 10
-141.304564
 20
408.446608
 30
0.0
 11
-141.304564
 21
384.69661
 31
0.0
  0
LINE
  5
36A
330
1F
100
AcDbEntity
  8
LC-001-100-D00-0
 62
     7
370
    50
100
AcDbLine
 10
-144.304562
 20
405.44661
 30
0.0
 11
-144.304565
 21
384.696609
 31
0.0
  0
LINE
  5
36B
330
1F
100
AcDbEntity
  8
LC-001-100-D00-0
 62
     7
370
    50
100
AcDbLine
 10
-147.304561
 20
405.44661
 30
0.0
 11
-147.304561
 21
401.446607
 31
0.0
  0
LINE
  5
36C
330
1F
100
AcDbEntity
  8
LC-001-100-D00-0
 62
     7
370
    50
100
AcDbLine
 10
-153.304565
 20
401.446609
 30
0.0
 11
-147.304561
 21
401.446607
 31
0.0
  0
LINE
  5
36D
330
1F
100
AcDbEntity
  8
LC-001-100-D00-0
 62
     7
370
    50
100
AcDbLine
 10
-153.304566
 20
404.446609
 30
0.0
 11
-153.304565
 21
401.446609
 31
0.0
  0
LINE
  5
36E
330
1F
100
AcDbEntity
  8
LC-001-100-D00-0
 62
     7
370
    50
100
AcDbLine
 10
-150.304567
 20
404.446609
 30
0.0
 11
-153.304566
 21
404.446609
 31
0.0
  0
LINE
  5
36F
330
1F
100
AcDbEntity
  8
LC-001-100-D00-0
 62
     7
370
    50
100
AcDbLine
 10
-150.304567
 20
404.446609
 30
0.0
 11
-150.304567
 21
408.446608
 31
0.0
  0
LINE
  5
370
330
1F
100
AcDbEntity
  8
LC-001-100-D00-0
 62
     7
370
    50
100
AcDbLine
 10
-147.304561
 20
405.44661
 30
0.0
 11
-144.304562
 21
405.44661
 31
0.0
  0
LINE
  5
371
330
1F
100
AcDbEntity
  8
LC-001-100-D00-0
 62
     7
370
    50
100
AcDbLine
 10
-144.304565
 20
384.696609
 30
0.0
 11
-141.304564
 21
384.69661
 31
0.0
  0
LINE
  5
372
330
1F
100
AcDbEntity
  8
LC-001-100-D00-0
 62
     7
370
    50
100
AcDbLine
 10
-141.304564
 20
408.446608
 30
0.0
 11
-150.304567
 21
408.446608
 31
0.0
  0
LINE
  5
373
330
1F
100
AcDbEntity
  8
LC-001-100-D00-0
 62
     7
370
    50
100
AcDbLine
 10
-165.004157
 20
384.696609
 30
0.0
 11
-144.304565
 21
384.696609
 31
0.0
  0
LINE
  5
374
330
1F
100
AcDbEntity
  8
LC-001-100-D00-0
 62
     7
370
    50
100
AcDbLine
 10
-160.054565
 20
401.446609
 30
0.0
 11
-153.304565
 21
401.446609
 31
0.0
  0
LINE
  5
375
330
1F
100
AcDbEntity
  8
LC-001-100-D00-0
 62
     7
370
    50
100
AcDbLine
 10
-277.304565
 20
401.446609
 30
0.0
 11
-277.304564
 21
404.446609
 31
0.0
  0
LINE
  5
376
330
1F
100
AcDbEntity
  8
LC-001-100-D00-0
 62
     7
370
    50
100
AcDbLine
 10
-277.304565
 20
401.446609
 30
0.0
 11
-270.554565
 21
401.446609
 31
0.0
  0
LINE
  5
377
330
1F
100
AcDbEntity
  8
LC-001-100-D00-0
 62
     7
370
    50
100
AcDbLine
 10
-280.304562
 20
408.446608
 30
0.0
 11
-280.304562
 21
404.446609
 31
0.0
  0
LINE
  5
378
330
1F
100
AcDbEntity
  8
LC-001-100-D00-0
 62
     7
370
    50
100
AcDbLine
 10
-283.304568
 20
401.446607
 30
0.0
 11
-283.304568
 21
405.44661
 31
0.0
  0
LINE
  5
379
330
1F
100
AcDbEntity
  8
LC-001-100-D00-0
 62
     7
370
    50
100
AcDbLine
 10
-286.304565
 20
384.696609
 30
0.0
 11
-286.304567
 21
405.44661
 31
0.0
  0
LINE
  5
37A
330
1F
100
AcDbEntity
  8
LC-001-100-D00-0
 62
     7
370
    50
100
AcDbLine
 10
-286.304565
 20
384.696609
 30
0.0
 11
-265.604972
 21
384.696609
 31
0.0
  0
LINE
  5
37B
330
1F
100
AcDbEntity
  8
LC-001-100-D00-0
 62
     7
370
    50
100
AcDbLine
 10
-289.304566
 20
384.69661
 30
0.0
 11
-289.304566
 21
408.446608
 31
0.0
  0
LINE
  5
37C
330
1F
100
AcDbEntity
  8
LC-001-100-D00-0
 62
     7
370
    50
100
AcDbLine
 10
-277.304564
 20
404.446609
 30
0.0
 11
-280.304562
 21
404.446609
 31
0.0
  0
LINE
  5
37D
330
1F
100
AcDbEntity
  8
LC-001-100-D00-0
 62
     7
370
    50
100
AcDbLine
 10
-283.304568
 20
401.446607
 30
0.0
 11
-277.304565
 21
401.446609
 31
0.0
  0
LINE
  5
37E
330
1F
100
AcDbEntity
  8
LC-001-100-D00-0
 62
     7
370
    50
100
AcDbLine
 10
-286.304567
 20
405.44661
 30
0.0
 11
-283.304568
 21
405.44661
 31
0.0
  0
LINE
  5
37F
330
1F
100
AcDbEntity
  8
LC-001-100-D00-0
 62
     7
370
    50
100
AcDbLine
 10
-289.304566
 20
384.69661
 30
0.0
 11
-286.304565
 21
384.696609
 31
0.0
  0
LINE
  5
380
330
1F
100
AcDbEntity
  8
LC-001-100-D00-0
 62
     7
370
    50
100
AcDbLine
 10
-280.304562
 20
408.446608
 30
0.0
 11
-289.304566
 21
408.446608
 31
0.0
  0
LINE
  5
381
330
1F
100
AcDbEntity
  8
LC-001-100-D00-0
 62
     7
370
    50
100
AcDbLine
 10
-173.315439
 20
384.696609
 30
0.0
 11
-165.004157
 21
384.696609
 31
0.0
  0
LINE
  5
382
330
1F
100
AcDbEntity
  8
LC-001-100-D00-0
 62
     7
370
    50
100
AcDbLine
 10
-265.604972
 20
384.696609
 30
0.0
 11
-257.29369
 21
384.696609
 31
0.0
  0
LINE
  5
383
330
1F
100
AcDbEntity
  8
LC-001-100-D00-0
 62
     7
370
    50
100
AcDbLine
 10
-257.29369
 20
384.696609
 30
0.0
 11
-256.304566
 21
384.69661
 31
0.0
  0
LINE
  5
384
330
1F
100
AcDbEntity
  8
LC-001-100-D00-0
 62
     7
370
    50
100
AcDbLine
 10
-174.304564
 20
384.69661
 30
0.0
 11
-173.315439
 21
384.696609
 31
0.0
  0
LINE
  5
385
330
1F
100
AcDbEntity
  8
LC-001-100-D00-0
 62
     7
370
    50
100
AcDbLine
 10
-141.304564
 20
383.946609
 30
0.0
 11
-130.304564
 21
383.946609
 31
0.0
  0
LINE
  5
386
330
1F
100
AcDbEntity
  8
LC-001-100-D00-0
 62
     7
370
    50
100
AcDbLine
 10
-130.304564
 20
331.946608
 30
0.0
 11
-141.304564
 21
331.946608
 31
0.0
  0
LINE
  5
387
330
1F
100
AcDbEntity
  8
LC-001-100-D00-0
 62
     7
370
    50
100
AcDbLine
 10
-141.304564
 20
384.69661
 30
0.0
 11
-141.304564
 21
383.946609
 31
0.0
  0
INSERT
  5
398
330
1F
100
AcDbEntity
  8
LC-001-100-D00-0
 62
     7
370
    50
100
AcDbBlockReference
  2
KLON15
 10
0.0
 20
0.0
 30
0.0
  0
INSERT
  5
3AC
330
1F
100
AcDbEntity
  8
LC-001-100-D00-0
 62
     7
370
    50
100
AcDbBlockReference
  2
KLON16
 10
0.0
 20
0.0
 30
0.0
  0
LINE
  5
3AD
330
1F
100
AcDbEntity
  8
LC-001-100-D00-0
 62
     7
370
    50
100
AcDbLine
 10
-144.304562
 20
380.94661
 30
0.0
 11
-102.407379
 21
380.946609
 31
0.0
  0
LINE
  5
3AE
330
1F
100
AcDbEntity
  8
LC-001-100-D00-0
 62
     7
370
    50
100
AcDbLine
 10
-102.407379
 20
334.946609
 30
0.0
 11
-102.407379
 21
380.946609
 31
0.0
  0
LINE
  5
3AF
330
1F
100
AcDbEntity
  8
LC-001-100-D00-0
 62
     7
370
    50
100
AcDbLine
 10
-102.407379
 20
334.946609
 30
0.0
 11
-141.304564
 21
334.946606
 31
0.0
  0
INSERT
  5
3B5
330
1F
100
AcDbEntity
  8
LC-001-100-D00-0
 62
     7
370
    50
100
AcDbBlockReference
  2
KLON17
 10
0.0
 20
0.0
 30
0.0
  0
LINE
  5
3B6
330
1F
100
AcDbEntity
  8
LC-001-100-D00-0
 62
     7
370
    50
100
AcDbLine
 10
-144.304565
 20
384.696609
 30
0.0
 11
-165.004157
 21
384.696609
 31
0.0
  0
LINE
  5
3B7
330
1F
100
AcDbEntity
  8
LC-001-100-D00-0
 62
     7
370
    50
100
AcDbLine
 10
-144.304565
 20
384.696609
 30
0.0
 11
-144.304562
 21
380.94661
 31
0.0
  0
LINE
  5
3B8
330
1F
100
AcDbEntity
  8
LC-001-100-D00-0
 62
     7
370
    50
100
AcDbLine
 10
-154.304565
 20
331.946609
 30
0.0
 11
-141.304564
 21
331.946608
 31
0.0
  0
ARC
  5
3B9
330
1F
100
AcDbEntity
  8
LC-001-100-D00-0
 62
     7
370
    50
100
AcDbCircle
 10
-161.286685
 20
332.446609
 30
0.0
 40
7.0
100
AcDbArc
 50
270.0
 51
355.903956
  0
LINE
  5
3BA
330
1F
100
AcDbEntity
  8
LC-001-100-D00-0
 62
     7
370
    50
100
AcDbLine
 10
-161.286685
 20
325.446609
 30
0.0
 11
-269.322445
 21
325.446609
 31
0.0
  0
ARC
  5
3BB
330
1F
100
AcDbEntity
  8
LC-001-100-D00-0
 62
     7
370
    50
100
AcDbCircle
 10
-269.322445
 20
332.446609
 30
0.0
 40
6.999999999999959
100
AcDbArc
 50
184.096044
 51
270.0
  0
LINE
  5
3BC
330
1F
100
AcDbEntity
  8
LC-001-100-D00-0
 62
     7
370
    50
100
AcDbLine
 10
-276.804565
 20
331.946609
 30
0.0
 11
-276.304565
 21
331.946609
 31
0.0
  0
ARC
  5
3BD
330
1F
100
AcDbEntity
  8
LC-001-100-D00-0
 62
     7
370
    50
100
AcDbCircle
 10
-276.804565
 20
344.446609
 30
0.0
 40
12.5
100
AcDbArc
 50
180.0
 51
270.0
  0
LINE
  5
3BE
330
1F
100
AcDbEntity
  8
LC-001-100-D00-0
 62
     7
370
    50
100
AcDbLine
 10
-289.304565
 20
344.446609
 30
0.0
 11
-289.304566
 21
384.69661
 31
0.0
  0
LINE
  5
3BF
330
1F
100
AcDbEntity
  8
LC-001-100-D00-0
 62
     7
370
    50
100
AcDbLine
 10
-289.304566
 20
384.69661
 30
0.0
 11
-286.304565
 21
384.696609
 31
0.0
  0
LINE
  5
3C0
330
1F
100
AcDbEntity
  8
LC-001-100-D00-0
 62
     7
370
    50
100
AcDbLine
 10
-286.304565
 20
344.446609
 30
0.0
 11
-286.304565
 21
384.696609
 31
0.0
  0
ARC
  5
3C1
330
1F
100
AcDbEntity
  8
LC-001-100-D00-0
 62
     7
370
    50
100
AcDbCircle
 10
-276.804565
 20
344.446609
 30
0.0
 40
9.5
100
AcDbArc
 50
180.0
 51
270.0
  0
LINE
  5
3C2
330
1F
100
AcDbEntity
  8
LC-001-100-D00-0
 62
     7
370
    50
100
AcDbLine
 10
-276.804565
 20
334.946609
 30
0.0
 11
-274.304565
 21
334.946609
 31
0.0
  0
ARC
  5
3C3
330
1F
100
AcDbEntity
  8
LC-001-100-D00-0
 62
     7
370
    50
100
AcDbCircle
 10
-274.304565
 20
333.946609
 30
0.0
 40
1.000000000000114
100
AcDbArc
 50
0.0
 51
90.0
  0
LINE
  5
3C4
330
1F
100
AcDbEntity
  8
LC-001-100-D00-0
 62
     7
370
    50
100
AcDbLine
 10
-273.304565
 20
333.946609
 30
0.0
 11
-273.304565
 21
332.446609
 31
0.0
  0
ARC
  5
3C5
330
1F
100
AcDbEntity
  8
LC-001-100-D00-0
 62
     7
370
    50
100
AcDbCircle
 10
-269.304565
 20
332.446609
 30
0.0
 40
4.000000000000114
100
AcDbArc
 50
180.0
 51
270.0
  0
LINE
  5
3C6
330
1F
100
AcDbEntity
  8
LC-001-100-D00-0
 62
     7
370
    50
100
AcDbLine
 10
-161.304565
 20
328.446609
 30
0.0
 11
-269.304565
 21
328.446609
 31
0.0
  0
ARC
  5
3C7
330
1F
100
AcDbEntity
  8
LC-001-100-D00-0
 62
     7
370
    50
100
AcDbCircle
 10
-161.304565
 20
332.446609
 30
0.0
 40
4.0
100
AcDbArc
 50
270.0
 51
0.0
  0
LINE
  5
3C8
330
1F
100
AcDbEntity
  8
LC-001-100-D00-0
 62
     7
370
    50
100
AcDbLine
 10
-157.304565
 20
332.446609
 30
0.0
 11
-157.304565
 21
333.946609
 31
0.0
  0
ARC
  5
3C9
330
1F
100
AcDbEntity
  8
LC-001-100-D00-0
 62
     7
370
    50
100
AcDbCircle
 10
-156.304565
 20
333.946609
 30
0.0
 40
1.0
100
AcDbArc
 50
90.0
 51
180.0
  0
LINE
  5
3CA
330
1F
100
AcDbEntity
  8
LC-001-100-D00-0
 62
     7
370
    50
100
AcDbLine
 10
-156.304565
 20
334.946609
 30
0.0
 11
-141.304564
 21
334.946606
 31
0.0
  0
LINE
  5
3CB
330
1F
100
AcDbEntity
  8
LC-001-100-D00-0
 62
     7
370
    50
100
AcDbLine
 10
-96.807379
 20
333.446093
 30
0.0
 11
-102.407379
 21
334.946609
 31
0.0
  0
LINE
  5
3CC
330
1F
100
AcDbEntity
  8
LC-001-100-D00-0
 62
     7
370
    50
100
AcDbLine
 10
-96.807379
 20
333.012354
 30
0.0
 11
-96.807379
 21
333.446093
 31
0.0
  0
ARC
  5
3CD
330
1F
100
AcDbEntity
  8
LC-001-100-D00-0
 62
     7
370
    50
100
AcDbCircle
 10
-97.307337
 20
333.012354
 30
0.0
 40
0.4999578796799692
100
AcDbArc
 50
301.198872
 51
0.0
  0
ARC
  5
3CE
330
1F
100
AcDbEntity
  8
LC-001-100-D00-0
 62
     7
370
    50
100
AcDbCircle
 10
-112.406061
 20
357.944419
 30
0.0
 40
29.64750216706075
100
AcDbArc
 50
292.382556
 51
301.198872
  0
ARC
  5
3CF
330
1F
100
AcDbEntity
  8
LC-001-100-D00-0
 62
     7
370
    50
100
AcDbCircle
 10
-101.307
 20
330.992792
 30
0.0
 40
0.4999578796800961
100
AcDbArc
 50
180.0
 51
292.382556
  0
LINE
  5
3D0
330
1F
100
AcDbEntity
  8
LC-001-100-D00-0
 62
     7
370
    50
100
AcDbLine
 10
-101.806958
 20
332.296651
 30
0.0
 11
-101.806958
 21
330.992792
 31
0.0
  0
ARC
  5
3D1
330
1F
100
AcDbEntity
  8
LC-001-100-D00-0
 62
     7
370
    50
100
AcDbCircle
 10
-102.306916
 20
332.296651
 30
0.0
 40
0.4999578796800961
100
AcDbArc
 50
0.0
 51
90.0
  0
LINE
  5
3D2
330
1F
100
AcDbEntity
  8
LC-001-100-D00-0
 62
     7
370
    50
100
AcDbLine
 10
-105.806621
 20
332.796609
 30
0.0
 11
-102.306916
 21
332.796609
 31
0.0
  0
ARC
  5
3D3
330
1F
100
AcDbEntity
  8
LC-001-100-D00-0
 62
     7
370
    50
100
AcDbCircle
 10
-105.806621
 20
332.296651
 30
0.0
 40
0.4999578796800961
100
AcDbArc
 50
90.0
 51
180.0
  0
LINE
  5
3D4
330
1F
100
AcDbEntity
  8
LC-001-100-D00-0
 62
     7
370
    50
100
AcDbLine
 10
-106.306579
 20
329.33979
 30
0.0
 11
-106.306579
 21
332.296651
 31
0.0
  0
ARC
  5
3D5
330
1F
100
AcDbEntity
  8
LC-001-100-D00-0
 62
     7
370
    50
100
AcDbCircle
 10
-106.806537
 20
329.33979
 30
0.0
 40
0.4999578796801155
100
AcDbArc
 50
281.075925
 51
0.0
  0
ARC
  5
3D6
330
1F
100
AcDbEntity
  8
LC-001-100-D00-0
 62
     7
370
    50
100
AcDbCircle
 10
-112.406061
 20
357.944419
 30
0.0
 40
29.64750432250023
100
AcDbArc
 50
241.270296
 51
281.075925
  0
LINE
  5
3D7
330
1F
100
AcDbEntity
  8
LC-001-100-D00-0
 62
     7
370
    50
100
AcDbLine
 10
-127.804767
 20
331.946608
 30
0.0
 11
-126.656969
 21
331.946609
 31
0.0
  0
LINE
  5
3D8
330
1F
100
AcDbEntity
  8
LC-001-100-D00-0
 62
     7
370
    50
100
AcDbLine
 10
-127.804767
 20
330.446612
 30
0.0
 11
-127.804767
 21
331.946608
 31
0.0
  0
LINE
  5
3D9
330
1F
100
AcDbEntity
  8
LC-001-100-D00-0
 62
     7
370
    50
100
AcDbLine
 10
-130.304564
 20
330.446612
 30
0.0
 11
-127.804767
 21
330.446612
 31
0.0
  0
LINE
  5
3DA
330
1F
100
AcDbEntity
  8
LC-001-100-D00-0
 62
     7
370
    50
100
AcDbLine
 10
-130.304564
 20
331.946608
 30
0.0
 11
-130.304564
 21
330.446612
 31
0.0
  0
ARC
  5
3DB
330
1F
100
AcDbEntity
  8
LC-001-100-D00-0
 62
     7
370
    50
100
AcDbCircle
 10
-112.406061
 20
357.948799
 30
0.0
 40
29.647502167061
100
AcDbArc
 50
58.801128
 51
67.617444
  0
ARC
  5
3DC
330
1F
100
AcDbEntity
  8
LC-001-100-D00-0
 62
     7
370
    50
100
AcDbCircle
 10
-97.307337
 20
382.880864
 30
0.0
 40
0.4999578796799824
100
AcDbArc
 50
0.0
 51
58.801128
  0
ARC
  5
3DD
330
1F
100
AcDbEntity
  8
LC-001-100-D00-0
 62
     7
370
    50
100
AcDbCircle
 10
-102.306916
 20
383.596567
 30
0.0
 40
0.4999578796798687
100
AcDbArc
 50
270.0
 51
0.0
  0
LINE
  5
3DE
330
1F
100
AcDbEntity
  8
LC-001-100-D00-0
 62
     7
370
    50
100
AcDbLine
 10
-101.806958
 20
384.900426
 30
0.0
 11
-101.806958
 21
383.596567
 31
0.0
  0
ARC
  5
3DF
330
1F
100
AcDbEntity
  8
LC-001-100-D00-0
 62
     7
370
    50
100
AcDbCircle
 10
-101.307
 20
384.900426
 30
0.0
 40
0.4999578796801971
100
AcDbArc
 50
67.617444
 51
180.0
  0
LINE
  5
3E0
330
1F
100
AcDbEntity
  8
LC-001-100-D00-0
 62
     7
370
    50
100
AcDbLine
 10
-96.807379
 20
382.447124
 30
0.0
 11
-96.807379
 21
382.880864
 31
0.0
  0
LINE
  5
3E1
330
1F
100
AcDbEntity
  8
LC-001-100-D00-0
 62
     7
370
    50
100
AcDbLine
 10
-102.407379
 20
380.946609
 30
0.0
 11
-96.807379
 21
382.447124
 31
0.0
  0
LINE
  5
3E2
330
1F
100
AcDbEntity
  8
LC-001-100-D00-0
 62
     7
370
    50
100
AcDbLine
 10
-144.304565
 20
384.696609
 30
0.0
 11
-141.304564
 21
384.69661
 31
0.0
  0
LINE
  5
3E3
330
1F
100
AcDbEntity
  8
LC-001-100-D00-0
 62
     7
370
    50
100
AcDbLine
 10
-130.304564
 20
385.446608
 30
0.0
 11
-130.304564
 21
383.946609
 31
0.0
  0
LINE
  5
3E4
330
1F
100
AcDbEntity
  8
LC-001-100-D00-0
 62
     7
370
    50
100
AcDbLine
 10
-127.804768
 20
385.446609
 30
0.0
 11
-130.304564
 21
385.446608
 31
0.0
  0
ARC
  5
3E5
330
1F
100
AcDbEntity
  8
LC-001-100-D00-0
 62
     7
370
    50
100
AcDbCircle
 10
-112.442476
 20
357.946609
 30
0.0
 40
31.49999999999998
100
AcDbArc
 50
105.394857
 51
119.188982
  0
LINE
  5
3E6
330
1F
100
AcDbEntity
  8
LC-001-100-D00-0
 62
     7
370
    50
100
AcDbLine
 10
-120.804768
 20
388.316365
 30
0.0
 11
-120.804768
 21
386.381812
 31
0.0
  0
ARC
  5
3E7
330
1F
100
AcDbEntity
  8
LC-001-100-D00-0
 62
     7
370
    50
100
AcDbCircle
 10
-112.406061
 20
357.948799
 30
0.0
 40
29.6475043225003
100
AcDbArc
 50
78.924075
 51
106.456389
  0
ARC
  5
3E8
330
1F
100
AcDbEntity
  8
LC-001-100-D00-0
 62
     7
370
    50
100
AcDbCircle
 10
-106.806537
 20
386.553428
 30
0.0
 40
0.4999578796799824
100
AcDbArc
 50
0.0
 51
78.924075
  0
LINE
  5
3E9
330
1F
100
AcDbEntity
  8
LC-001-100-D00-0
 62
     7
370
    50
100
AcDbLine
 10
-106.306579
 20
383.596567
 30
0.0
 11
-106.306579
 21
386.553428
 31
0.0
  0
ARC
  5
3EA
330
1F
100
AcDbEntity
  8
LC-001-100-D00-0
 62
     7
370
    50
100
AcDbCircle
 10
-105.806621
 20
383.596567
 30
0.0
 40
0.4999578796800961
100
AcDbArc
 50
180.0
 51
270.0
  0
LINE
  5
3EB
330
1F
100
AcDbEntity
  8
LC-001-100-D00-0
 62
     7
370
    50
100
AcDbLine
 10
-102.306916
 20
383.096609
 30
0.0
 11
-105.806621
 21
383.096609
 31
0.0
  0
LINE
  5
3EC
330
1F
100
AcDbEntity
  8
LC-001-100-D00-0
 62
     7
370
    50
100
AcDbLine
 10
-96.807379
 20
382.447124
 30
0.0
 11
-96.807379
 21
333.446093
 31
0.0
  0
LINE
  5
3ED
330
1F
100
AcDbEntity
  8
LC-001-100-D00-0
 62
     7
370
    50
100
AcDbLine
 10
-170.870945
 20
334.946609
 30
0.0
 11
-156.304565
 21
334.946609
 31
0.0
  0
LINE
  5
3EE
330
1F
100
AcDbEntity
  8
LC-001-100-D00-0
 62
     7
370
    50
100
AcDbLine
 10
-274.304565
 20
334.946609
 30
0.0
 11
-259.738185
 21
334.946609
 31
0.0
  0
LINE
  5
3EF
330
1F
100
AcDbEntity
  8
LC-001-100-D00-0
 62
     7
370
    50
100
AcDbLine
 10
-265.604972
 20
384.696609
 30
0.0
 11
-286.304565
 21
384.696609
 31
0.0
  0
LINE
  5
3F0
330
1F
100
AcDbEntity
  8
LC-001-100-D00-0
 62
     7
370
    50
100
AcDbLine
 10
-173.315439
 20
334.946609
 30
0.0
 11
-170.870945
 21
334.946609
 31
0.0
  0
LINE
  5
3F1
330
1F
100
AcDbEntity
  8
LC-001-100-D00-0
 62
     7
370
    50
100
AcDbLine
 10
-259.738185
 20
334.946609
 30
0.0
 11
-257.29369
 21
334.946609
 31
0.0
  0
LINE
  5
3F2
330
1F
100
AcDbEntity
  8
LC-001-100-D00-0
 62
     7
370
    50
100
AcDbLine
 10
-257.29369
 20
334.946609
 30
0.0
 11
-256.304566
 21
334.946606
 31
0.0
  0
LINE
  5
3F3
330
1F
100
AcDbEntity
  8
LC-001-100-D00-0
 62
     7
370
    50
100
AcDbLine
 10
-174.304564
 20
334.946606
 30
0.0
 11
-173.315439
 21
334.946609
 31
0.0
  0
LINE
  5
3F4
330
1F
100
AcDbEntity
  8
LC-001-100-D00-0
 62
     7
370
    50
100
AcDbLine
 10
-165.004157
 20
384.696609
 30
0.0
 11
-173.315439
 21
384.696609
 31
0.0
  0
LINE
  5
3F5
330
1F
100
AcDbEntity
  8
LC-001-100-D00-0
 62
     7
370
    50
100
AcDbLine
 10
-257.29369
 20
384.696609
 30
0.0
 11
-265.604972
 21
384.696609
 31
0.0
  0
LINE
  5
3F6
330
1F
100
AcDbEntity
  8
LC-001-100-D00-0
 62
     7
370
    50
100
AcDbLine
 10
-173.315439
 20
384.696609
 30
0.0
 11
-174.304564
 21
384.69661
 31
0.0
  0
LINE
  5
3F7
330
1F
100
AcDbEntity
  8
LC-001-100-D00-0
 62
     7
370
    50
100
AcDbLine
 10
-256.304566
 20
384.69661
 30
0.0
 11
-257.29369
 21
384.696609
 31
0.0
  0
CIRCLE
  5
3F8
330
1F
100
AcDbEntity
  8
LC-001-100-D00-0
 62
     7
370
    50
100
AcDbCircle
 10
-161.054565
 20
406.196609
 30
0.0
 40
1.75
  0
CIRCLE
  5
3F9
330
1F
100
AcDbEntity
  8
LC-001-100-D00-0
 62
     7
370
    50
100
AcDbCircle
 10
-269.554565
 20
406.196609
 30
0.0
 40
1.75
  0
LINE
  5
3FA
330
1F
100
AcDbEntity
  8
LC-001-100-D00-0
 62
     7
370
    50
100
AcDbLine
 10
-160.804566
 20
407.946609
 30
0.0
 11
-160.804566
 21
409.446608
 31
0.0
  0
LINE
  5
3FB
330
1F
100
AcDbEntity
  8
LC-001-100-D00-0
 62
     7
370
    50
100
AcDbLine
 10
-162.804566
 20
407.946609
 30
0.0
 11
-160.804566
 21
407.946609
 31
0.0
  0
LINE
  5
3FC
330
1F
100
AcDbEntity
  8
LC-001-100-D00-0
 62
     7
370
    50
100
AcDbLine
 10
-162.804566
 20
407.946609
 30
0.0
 11
-162.804566
 21
404.446609
 31
0.0
  0
LINE
  5
3FD
330
1F
100
AcDbEntity
  8
LC-001-100-D00-0
 62
     7
370
    50
100
AcDbLine
 10
-162.804566
 20
404.446609
 30
0.0
 11
-160.804566
 21
404.446609
 31
0.0
  0
LINE
  5
3FE
330
1F
100
AcDbEntity
  8
LC-001-100-D00-0
 62
     7
370
    50
100
AcDbLine
 10
-160.804566
 20
404.446609
 30
0.0
 11
-160.804566
 21
403.446607
 31
0.0
  0
LINE
  5
3FF
330
1F
100
AcDbEntity
  8
LC-001-100-D00-0
 62
     7
370
    50
100
AcDbLine
 10
-176.304565
 20
403.446609
 30
0.0
 11
-160.804566
 21
403.446607
 31
0.0
  0
ARC
  5
400
330
1F
100
AcDbEntity
  8
LC-001-100-D00-0
 62
     7
370
    50
100
AcDbCircle
 10
-176.304565
 20
393.446609
 30
0.0
 40
10.0
100
AcDbArc
 50
90.0
 51
180.0
  0
LINE
  5
401
330
1F
100
AcDbEntity
  8
LC-001-100-D00-0
 62
     7
370
    50
100
AcDbLine
 10
-186.304565
 20
393.446609
 30
0.0
 11
-186.304566
 21
343.54661
 31
0.0
  0
LINE
  5
402
330
1F
100
AcDbEntity
  8
LC-001-100-D00-0
 62
     7
370
    50
100
AcDbLine
 10
-187.804565
 20
343.546609
 30
0.0
 11
-186.304566
 21
343.54661
 31
0.0
  0
LINE
  5
403
330
1F
100
AcDbEntity
  8
LC-001-100-D00-0
 62
     7
370
    50
100
AcDbLine
 10
-187.804565
 20
407.446609
 30
0.0
 11
-187.804565
 21
343.546609
 31
0.0
  0
ARC
  5
404
330
1F
100
AcDbEntity
  8
LC-001-100-D00-0
 62
     7
370
    50
100
AcDbCircle
 10
-185.804565
 20
407.446609
 30
0.0
 40
2.0
100
AcDbArc
 50
90.0
 51
180.0
  0
LINE
  5
405
330
1F
100
AcDbEntity
  8
LC-001-100-D00-0
 62
     7
370
    50
100
AcDbLine
 10
-185.804565
 20
409.446609
 30
0.0
 11
-160.804566
 21
409.446608
 31
0.0
  0
LINE
  5
406
330
1F
100
AcDbEntity
  8
LC-001-100-D00-0
 62
     7
370
    50
100
AcDbLine
 10
-203.804565
 20
409.446609
 30
0.0
 11
-185.804565
 21
409.446609
 31
0.0
  0
LINE
  5
407
330
1F
100
AcDbEntity
  8
LC-001-100-D00-0
 62
     7
370
    50
100
AcDbLine
 10
-203.804565
 20
343.546609
 30
0.0
 11
-187.804565
 21
343.546609
 31
0.0
  0
LINE
  5
408
330
1F
100
AcDbEntity
  8
LC-001-100-D00-0
 62
     7
370
    50
100
AcDbLine
 10
-244.304564
 20
343.54661
 30
0.0
 11
-244.304565
 21
393.446609
 31
0.0
  0
ARC
  5
409
330
1F
100
AcDbEntity
  8
LC-001-100-D00-0
 62
     7
370
    50
100
AcDbCircle
 10
-244.804565
 20
407.446609
 30
0.0
 40
2.000000000000114
100
AcDbArc
 50
0.0
 51
90.0
  0
LINE
  5
40A
330
1F
100
AcDbEntity
  8
LC-001-100-D00-0
 62
     7
370
    50
100
AcDbLine
 10
-244.804565
 20
409.446609
 30
0.0
 11
-226.804565
 21
409.446609
 31
0.0
  0
LINE
  5
40B
330
1F
100
AcDbEntity
  8
LC-001-100-D00-0
 62
     7
370
    50
100
AcDbLine
 10
-242.804565
 20
343.546609
 30
0.0
 11
-242.804565
 21
407.446609
 31
0.0
  0
LINE
  5
40C
330
1F
100
AcDbEntity
  8
LC-001-100-D00-0
 62
     7
370
    50
100
AcDbLine
 10
-242.804565
 20
343.546609
 30
0.0
 11
-226.804565
 21
343.546609
 31
0.0
  0
ARC
  5
40D
330
1F
100
AcDbEntity
  8
LC-001-100-D00-0
 62
     7
370
    50
100
AcDbCircle
 10
-254.304565
 20
393.446609
 30
0.0
 40
10.0
100
AcDbArc
 50
0.0
 51
90.0
  0
LINE
  5
40E
330
1F
100
AcDbEntity
  8
LC-001-100-D00-0
 62
     7
370
    50
100
AcDbLine
 10
-269.804563
 20
403.446607
 30
0.0
 11
-269.804563
 21
404.446609
 31
0.0
  0
LINE
  5
40F
330
1F
100
AcDbEntity
  8
LC-001-100-D00-0
 62
     7
370
    50
100
AcDbLine
 10
-267.804563
 20
404.446609
 30
0.0
 11
-267.804563
 21
407.946609
 31
0.0
  0
LINE
  5
410
330
1F
100
AcDbEntity
  8
LC-001-100-D00-0
 62
     7
370
    50
100
AcDbLine
 10
-269.804563
 20
409.446608
 30
0.0
 11
-269.804563
 21
407.946609
 31
0.0
  0
LINE
  5
411
330
1F
100
AcDbEntity
  8
LC-001-100-D00-0
 62
     7
370
    50
100
AcDbLine
 10
-244.304564
 20
343.54661
 30
0.0
 11
-242.804565
 21
343.546609
 31
0.0
  0
LINE
  5
412
330
1F
100
AcDbEntity
  8
LC-001-100-D00-0
 62
     7
370
    50
100
AcDbLine
 10
-269.804563
 20
404.446609
 30
0.0
 11
-267.804563
 21
404.446609
 31
0.0
  0
LINE
  5
413
330
1F
100
AcDbEntity
  8
LC-001-100-D00-0
 62
     7
370
    50
100
AcDbLine
 10
-269.804563
 20
407.946609
 30
0.0
 11
-267.804563
 21
407.946609
 31
0.0
  0
LINE
  5
414
330
1F
100
AcDbEntity
  8
LC-001-100-D00-0
 62
     7
370
    50
100
AcDbLine
 10
-269.804563
 20
409.446608
 30
0.0
 11
-244.804565
 21
409.446609
 31
0.0
  0
LINE
  5
415
330
1F
100
AcDbEntity
  8
LC-001-100-D00-0
 62
     7
370
    50
100
AcDbLine
 10
-269.804563
 20
403.446607
 30
0.0
 11
-254.304565
 21
403.446609
 31
0.0
  0
LINE
  5
416
330
1F
100
AcDbEntity
  8
LC-001-100-D00-0
 62
     7
370
    50
100
AcDbLine
 10
-226.804565
 20
343.546609
 30
0.0
 11
-203.804565
 21
343.546609
 31
0.0
  0
LINE
  5
417
330
1F
100
AcDbEntity
  8
LC-001-100-D00-0
 62
     7
370
    50
100
AcDbLine
 10
-226.804565
 20
409.446609
 30
0.0
 11
-203.804565
 21
409.446609
 31
0.0
  0
LINE
  5
418
330
1F
100
AcDbEntity
  8
LC-001-100-D00-0
 62
     7
370
    50
100
AcDbLine
 10
-256.304566
 20
393.946611
 30
0.0
 11
-266.24025
 21
401.25226
 31
0.0
  0
ARC
  5
419
330
1F
100
AcDbEntity
  8
LC-001-100-D00-0
 62
     7
370
    50
100
AcDbCircle
 10
-266.83264
 20
400.446609
 30
0.0
 40
0.9999999999999467
100
AcDbArc
 50
53.673174
 51
90.0
  0
LINE
  5
41A
330
1F
100
AcDbEntity
  8
LC-001-100-D00-0
 62
     7
370
    50
100
AcDbLine
 10
-270.554565
 20
401.446609
 30
0.0
 11
-266.83264
 21
401.446609
 31
0.0
  0
LINE
  5
41B
330
1F
100
AcDbEntity
  8
LC-001-100-D00-0
 62
     7
370
    50
100
AcDbLine
 10
-270.554565
 20
401.446609
 30
0.0
 11
-270.554565
 21
403.446609
 31
0.0
  0
LINE
  5
41C
330
1F
100
AcDbEntity
  8
LC-001-100-D00-0
 62
     7
370
    50
100
AcDbLine
 10
-270.554565
 20
403.446609
 30
0.0
 11
-266.83264
 21
403.446609
 31
0.0
  0
ARC
  5
41D
330
1F
100
AcDbEntity
  8
LC-001-100-D00-0
 62
     7
370
    50
100
AcDbCircle
 10
-266.83264
 20
400.446609
 30
0.0
 40
2.999999999999908
100
AcDbArc
 50
53.673174
 51
90.0
  0
LINE
  5
41E
330
1F
100
AcDbEntity
  8
LC-001-100-D00-0
 62
     7
370
    50
100
AcDbLine
 10
-265.055469
 20
402.863562
 30
0.0
 11
-255.212174
 21
395.625845
 31
0.0
  0
ARC
  5
41F
330
1F
100
AcDbEntity
  8
LC-001-100-D00-0
 62
     7
370
    50
100
AcDbCircle
 10
-255.804565
 20
394.820194
 30
0.0
 40
1.000000000000114
100
AcDbArc
 50
0.0
 51
53.673174
  0
LINE
  5
420
330
1F
100
AcDbEntity
  8
LC-001-100-D00-0
 62
     7
370
    50
100
AcDbLine
 10
-254.804565
 20
332.946609
 30
0.0
 11
-254.804565
 21
394.820194
 31
0.0
  0
ARC
  5
421
330
1F
100
AcDbEntity
  8
LC-001-100-D00-0
 62
     7
370
    50
100
AcDbCircle
 10
-251.304565
 20
332.946609
 30
0.0
 40
3.500000000000114
100
AcDbArc
 50
180.0
 51
270.0
  0
LINE
  5
422
330
1F
100
AcDbEntity
  8
LC-001-100-D00-0
 62
     7
370
    50
100
AcDbLine
 10
-179.304565
 20
329.446609
 30
0.0
 11
-251.304565
 21
329.446609
 31
0.0
  0
ARC
  5
423
330
1F
100
AcDbEntity
  8
LC-001-100-D00-0
 62
     7
370
    50
100
AcDbCircle
 10
-179.304565
 20
332.946609
 30
0.0
 40
3.500000000000227
100
AcDbArc
 50
270.0
 51
0.0
  0
LINE
  5
424
330
1F
100
AcDbEntity
  8
LC-001-100-D00-0
 62
     7
370
    50
100
AcDbLine
 10
-175.804565
 20
394.820194
 30
0.0
 11
-175.804565
 21
332.946609
 31
0.0
  0
ARC
  5
425
330
1F
100
AcDbEntity
  8
LC-001-100-D00-0
 62
     7
370
    50
100
AcDbCircle
 10
-174.804565
 20
394.820194
 30
0.0
 40
0.9999999999999467
100
AcDbArc
 50
126.326826
 51
180.0
  0
LINE
  5
426
330
1F
100
AcDbEntity
  8
LC-001-100-D00-0
 62
     7
370
    50
100
AcDbLine
 10
-165.55366
 20
402.863562
 30
0.0
 11
-175.396955
 21
395.625845
 31
0.0
  0
ARC
  5
427
330
1F
100
AcDbEntity
  8
LC-001-100-D00-0
 62
     7
370
    50
100
AcDbCircle
 10
-163.776489
 20
400.446609
 30
0.0
 40
3.0
100
AcDbArc
 50
90.0
 51
126.326826
  0
LINE
  5
428
330
1F
100
AcDbEntity
  8
LC-001-100-D00-0
 62
     7
370
    50
100
AcDbLine
 10
-163.776489
 20
403.446609
 30
0.0
 11
-160.054565
 21
403.446609
 31
0.0
  0
LINE
  5
429
330
1F
100
AcDbEntity
  8
LC-001-100-D00-0
 62
     7
370
    50
100
AcDbLine
 10
-160.054565
 20
403.446609
 30
0.0
 11
-160.054565
 21
401.446609
 31
0.0
  0
LINE
  5
42A
330
1F
100
AcDbEntity
  8
LC-001-100-D00-0
 62
     7
370
    50
100
AcDbLine
 10
-163.776489
 20
401.446609
 30
0.0
 11
-160.054565
 21
401.446609
 31
0.0
  0
ARC
  5
42B
330
1F
100
AcDbEntity
  8
LC-001-100-D00-0
 62
     7
370
    50
100
AcDbCircle
 10
-163.776489
 20
400.446609
 30
0.0
 40
1.0
100
AcDbArc
 50
90.0
 51
126.326826
  0
LINE
  5
42C
330
1F
100
AcDbEntity
  8
LC-001-100-D00-0
 62
     7
370
    50
100
AcDbLine
 10
-174.304564
 20
393.946611
 30
0.0
 11
-164.368879
 21
401.25226
 31
0.0
  0
LINE
  5
42D
330
1F
100
AcDbEntity
  8
LC-001-100-D00-0
 62
     7
370
    50
100
AcDbLine
 10
-174.304564
 20
393.946611
 30
0.0
 11
-174.304565
 21
332.946609
 31
0.0
  0
ARC
  5
42E
330
1F
100
AcDbEntity
  8
LC-001-100-D00-0
 62
     7
370
    50
100
AcDbCircle
 10
-179.304565
 20
332.946609
 30
0.0
 40
5.0
100
AcDbArc
 50
270.0
 51
0.0
  0
LINE
  5
42F
330
1F
100
AcDbEntity
  8
LC-001-100-D00-0
 62
     7
370
    50
100
AcDbLine
 10
-179.304565
 20
327.946609
 30
0.0
 11
-251.304565
 21
327.946609
 31
0.0
  0
ARC
  5
430
330
1F
100
AcDbEntity
  8
LC-001-100-D00-0
 62
     7
370
    50
100
AcDbCircle
 10
-251.304565
 20
332.946609
 30
0.0
 40
5.0
100
AcDbArc
 50
180.0
 51
270.0
  0
LINE
  5
431
330
1F
100
AcDbEntity
  8
LC-001-100-D00-0
 62
     7
370
    50
100
AcDbLine
 10
-256.304565
 20
332.946609
 30
0.0
 11
-256.304566
 21
393.946611
 31
0.0
  0
LINE
  5
432
330
1F
100
AcDbEntity
  8
LC-001-100-D00-0
 62
     7
370
    50
100
AcDbLine
 10
-175.811686
 20
393.946609
 30
0.0
 11
-180.225169
 21
393.946609
 31
0.0
  0
LINE
  5
433
330
1F
100
AcDbEntity
  8
LC-001-100-D00-0
 62
     7
370
    50
100
AcDbLine
 10
-175.811686
 20
394.814827
 30
0.0
 11
-175.811686
 21
393.946609
 31
0.0
  0
ARC
  5
434
330
1F
100
AcDbEntity
  8
LC-001-100-D00-0
 62
     7
370
    50
100
AcDbCircle
 10
-174.811312
 20
394.814768
 30
0.0
 40
1.000373573445201
100
AcDbArc
 50
126.325165
 51
180.0
  0
LINE
  5
435
330
1F
100
AcDbEntity
  8
LC-001-100-D00-0
 62
     7
370
    50
100
AcDbLine
 10
-175.4039
 20
395.620737
 30
0.0
 11
-175.396955
 21
395.625845
 31
0.0
  0
LINE
  5
436
330
1F
100
AcDbEntity
  8
LC-001-100-D00-0
 62
     7
370
    50
100
AcDbLine
 10
-254.797444
 20
394.814827
 30
0.0
 11
-254.797444
 21
393.946609
 31
0.0
  0
LINE
  5
437
330
1F
100
AcDbEntity
  8
LC-001-100-D00-0
 62
     7
370
    50
100
AcDbLine
 10
-250.38396
 20
393.946609
 30
0.0
 11
-254.797444
 21
393.946609
 31
0.0
  0
ARC
  5
438
330
1F
100
AcDbEntity
  8
LC-001-100-D00-0
 62
     7
370
    50
100
AcDbCircle
 10
-255.797791
 20
394.814782
 30
0.0
 40
1.000347039120925
100
AcDbArc
 50
0.0
 51
53.675603
  0
LINE
  5
439
330
1F
100
AcDbEntity
  8
LC-001-100-D00-0
 62
     7
370
    50
100
AcDbLine
 10
-182.376198
 20
401.392378
 30
0.0
 11
-182.376198
 21
393.946611
 31
0.0
  0
LINE
  5
43A
330
1F
100
AcDbEntity
  8
LC-001-100-D00-0
 62
     7
370
    50
100
AcDbLine
 10
-182.3762
 20
401.446609
 30
0.0
 11
-175.59015
 21
401.446609
 31
0.0
  0
LINE
  5
43B
330
1F
100
AcDbEntity
  8
LC-001-100-D00-0
 62
     7
370
    50
100
AcDbLine
 10
-171.125861
 20
401.446609
 30
0.0
 11
-167.480716
 21
401.446609
 31
0.0
  0
LINE
  5
43C
330
1F
100
AcDbEntity
  8
LC-001-100-D00-0
 62
     7
370
    50
100
AcDbLine
 10
-248.232931
 20
401.392378
 30
0.0
 11
-248.232931
 21
393.946611
 31
0.0
  0
LINE
  5
43D
330
1F
100
AcDbEntity
  8
LC-001-100-D00-0
 62
     7
370
    50
100
AcDbLine
 10
-263.128413
 20
401.446609
 30
0.0
 11
-259.483268
 21
401.446609
 31
0.0
  0
LINE
  5
43E
330
1F
100
AcDbEntity
  8
LC-001-100-D00-0
 62
     7
370
    50
100
AcDbLine
 10
-255.01898
 20
401.446609
 30
0.0
 11
-248.232929
 21
401.446609
 31
0.0
  0
LINE
  5
43F
330
1F
100
AcDbEntity
  8
LC-001-100-D00-0
 62
     7
370
    50
100
AcDbLine
 10
-180.225169
 20
393.946609
 30
0.0
 11
-186.292057
 21
393.946609
 31
0.0
  0
LINE
  5
440
330
1F
100
AcDbEntity
  8
LC-001-100-D00-0
 62
     7
370
    50
100
AcDbLine
 10
-244.317072
 20
393.946609
 30
0.0
 11
-250.38396
 21
393.946609
 31
0.0
  0
CIRCLE
  5
441
330
1F
100
AcDbEntity
  8
LC-001-100-D00-0
 62
     7
370
    50
100
AcDbCircle
 10
-104.056769
 20
384.946609
 30
0.0
 40
2.0
  0
CIRCLE
  5
442
330
1F
100
AcDbEntity
  8
LC-001-100-D00-0
 62
     7
370
    50
100
AcDbCircle
 10
-104.056769
 20
330.946609
 30
0.0
 40
2.0
  0
LINE
  5
443
330
1F
100
AcDbEntity
  8
LC-001-100-D00-0
 62
     7
370
    50
100
AcDbLine
 10
-122.350456
 20
414.810312
 30
0.0
 11
-140.184127
 21
410.031794
 31
0.0
  0
ARC
  5
444
330
1F
100
AcDbEntity
  8
LC-001-100-D00-0
 62
     7
370
    50
100
AcDbCircle
 10
-121.315179
 20
410.946609
 30
0.0
 40
4.0
100
AcDbArc
 50
90.0
 51
105.0
  0
LINE
  5
445
330
1F
100
AcDbEntity
  8
LC-001-100-D00-0
 62
     7
370
    50
100
AcDbLine
 10
-121.315179
 20
414.946609
 30
0.0
 11
-119.804565
 21
414.946608
 31
0.0
  0
LINE
  5
446
330
1F
100
AcDbEntity
  8
LC-001-100-D00-0
 62
     7
370
    50
100
AcDbLine
 10
-119.804565
 20
414.946608
 30
0.0
 11
-119.804565
 21
416.34661
 31
0.0
  0
LINE
  5
447
330
1F
100
AcDbEntity
  8
LC-001-100-D00-0
 62
     7
370
    50
100
AcDbLine
 10
-119.304565
 20
416.346609
 30
0.0
 11
-119.804565
 21
416.34661
 31
0.0
  0
ARC
  5
448
330
1F
100
AcDbEntity
  8
LC-001-100-D00-0
 62
     7
370
    50
100
AcDbCircle
 10
-120.304565
 20
417.846609
 30
0.0
 40
1.802775637731868
100
AcDbArc
 50
303.690068
 51
56.309932
  0
LINE
  5
449
330
1F
100
AcDbEntity
  8
LC-001-100-D00-0
 62
     7
370
    50
100
AcDbLine
 10
-119.304564
 20
433.946609
 30
0.0
 11
-119.304565
 21
419.346609
 31
0.0
  0
LINE
  5
44A
330
1F
100
AcDbEntity
  8
LC-001-100-D00-0
 62
     7
370
    50
100
AcDbLine
 10
-118.304562
 20
434.946609
 30
0.0
 11
-119.304564
 21
433.946609
 31
0.0
  0
LINE
  5
44B
330
1F
100
AcDbEntity
  8
LC-001-100-D00-0
 62
     7
370
    50
100
AcDbLine
 10
-112.304565
 20
434.946609
 30
0.0
 11
-118.304562
 21
434.946609
 31
0.0
  0
LINE
  5
44C
330
1F
100
AcDbEntity
  8
LC-001-100-D00-0
 62
     7
370
    50
100
AcDbLine
 10
-111.304563
 20
433.946609
 30
0.0
 11
-112.304565
 21
434.946609
 31
0.0
  0
LINE
  5
44D
330
1F
100
AcDbEntity
  8
LC-001-100-D00-0
 62
     7
370
    50
100
AcDbLine
 10
-111.304565
 20
419.346609
 30
0.0
 11
-111.304563
 21
433.946609
 31
0.0
  0
ARC
  5
44E
330
1F
100
AcDbEntity
  8
LC-001-100-D00-0
 62
     7
370
    50
100
AcDbCircle
 10
-110.304565
 20
417.846609
 30
0.0
 40
1.802775637732121
100
AcDbArc
 50
123.690068
 51
236.309932
  0
LINE
  5
44F
330
1F
100
AcDbEntity
  8
LC-001-100-D00-0
 62
     7
370
    50
100
AcDbLine
 10
-110.804562
 20
416.34661
 30
0.0
 11
-111.304565
 21
416.346609
 31
0.0
  0
LINE
  5
450
330
1F
100
AcDbEntity
  8
LC-001-100-D00-0
 62
     7
370
    50
100
AcDbLine
 10
-110.804562
 20
416.34661
 30
0.0
 11
-110.804562
 21
414.946608
 31
0.0
  0
LINE
  5
451
330
1F
100
AcDbEntity
  8
LC-001-100-D00-0
 62
     7
370
    50
100
AcDbLine
 10
-110.804562
 20
414.946608
 30
0.0
 11
50.195444
 21
414.946608
 31
0.0
  0
LINE
  5
452
330
1F
100
AcDbEntity
  8
LC-001-100-D00-0
 62
     7
370
    50
100
AcDbLine
 10
50.195444
 20
414.946608
 30
0.0
 11
50.195444
 21
416.34661
 31
0.0
  0
LINE
  5
453
330
1F
100
AcDbEntity
  8
LC-001-100-D00-0
 62
     7
370
    50
100
AcDbLine
 10
50.695435
 20
416.346609
 30
0.0
 11
50.195444
 21
416.34661
 31
0.0
  0
ARC
  5
454
330
1F
100
AcDbEntity
  8
LC-001-100-D00-0
 62
     7
370
    50
100
AcDbCircle
 10
49.695435
 20
417.846609
 30
0.0
 40
1.802775637731805
100
AcDbArc
 50
303.690068
 51
56.309932
  0
LINE
  5
455
330
1F
100
AcDbEntity
  8
LC-001-100-D00-0
 62
     7
370
    50
100
AcDbLine
 10
50.695438
 20
433.946609
 30
0.0
 11
50.695435
 21
419.346609
 31
0.0
  0
LINE
  5
456
330
1F
100
AcDbEntity
  8
LC-001-100-D00-0
 62
     7
370
    50
100
AcDbLine
 10
51.695425
 20
434.946609
 30
0.0
 11
50.695438
 21
433.946609
 31
0.0
  0
LINE
  5
457
330
1F
100
AcDbEntity
  8
LC-001-100-D00-0
 62
     7
370
    50
100
AcDbLine
 10
57.695437
 20
434.946609
 30
0.0
 11
51.695425
 21
434.946609
 31
0.0
  0
LINE
  5
458
330
1F
100
AcDbEntity
  8
LC-001-100-D00-0
 62
     7
370
    50
100
AcDbLine
 10
58.695424
 20
433.946609
 30
0.0
 11
57.695437
 21
434.946609
 31
0.0
  0
LINE
  5
459
330
1F
100
AcDbEntity
  8
LC-001-100-D00-0
 62
     7
370
    50
100
AcDbLine
 10
58.695435
 20
419.346609
 30
0.0
 11
58.695424
 21
433.946609
 31
0.0
  0
ARC
  5
45A
330
1F
100
AcDbEntity
  8
LC-001-100-D00-0
 62
     7
370
    50
100
AcDbCircle
 10
59.695435
 20
417.846609
 30
0.0
 40
1.802775637731868
100
AcDbArc
 50
123.690068
 51
236.309932
  0
LINE
  5
45B
330
1F
100
AcDbEntity
  8
LC-001-100-D00-0
 62
     7
370
    50
100
AcDbLine
 10
59.195448
 20
416.34661
 30
0.0
 11
58.695435
 21
416.346609
 31
0.0
  0
LINE
  5
45C
330
1F
100
AcDbEntity
  8
LC-001-100-D00-0
 62
     7
370
    50
100
AcDbLine
 10
59.195448
 20
416.34661
 30
0.0
 11
59.195448
 21
414.946608
 31
0.0
  0
LINE
  5
45D
330
1F
100
AcDbEntity
  8
LC-001-100-D00-0
 62
     7
370
    50
100
AcDbLine
 10
59.195448
 20
414.946608
 30
0.0
 11
76.695435
 21
414.946609
 31
0.0
  0
ARC
  5
45E
330
1F
100
AcDbEntity
  8
LC-001-100-D00-0
 62
     7
370
    50
100
AcDbCircle
 10
76.695435
 20
422.946609
 30
0.0
 40
8.000000000000227
100
AcDbArc
 50
270.0
 51
0.0
  0
LINE
  5
45F
330
1F
100
AcDbEntity
  8
LC-001-100-D00-0
 62
     7
370
    50
100
AcDbLine
 10
84.695435
 20
422.946609
 30
0.0
 11
84.695435
 21
432.446609
 31
0.0
  0
ARC
  5
460
330
1F
100
AcDbEntity
  8
LC-001-100-D00-0
 62
     7
370
    50
100
AcDbCircle
 10
87.695435
 20
432.446609
 30
0.0
 40
3.0
100
AcDbArc
 50
90.0
 51
180.0
  0
LINE
  5
461
330
1F
100
AcDbEntity
  8
LC-001-100-D00-0
 62
     7
370
    50
100
AcDbLine
 10
134.695435
 20
435.446609
 30
0.0
 11
87.695435
 21
435.446609
 31
0.0
  0
LINE
  5
462
330
1F
100
AcDbEntity
  8
LC-001-100-D00-0
 62
     7
370
    50
100
AcDbLine
 10
134.695429
 20
433.946609
 30
0.0
 11
134.695435
 21
435.446609
 31
0.0
  0
LINE
  5
463
330
1F
100
AcDbEntity
  8
LC-001-100-D00-0
 62
     7
370
    50
100
AcDbLine
 10
134.695429
 20
433.946609
 30
0.0
 11
87.695435
 21
433.946609
 31
0.0
  0
ARC
  5
464
330
1F
100
AcDbEntity
  8
LC-001-100-D00-0
 62
     7
370
    50
100
AcDbCircle
 10
87.695435
 20
432.446609
 30
0.0
 40
1.5
100
AcDbArc
 50
90.0
 51
180.0
  0
LINE
  5
465
330
1F
100
AcDbEntity
  8
LC-001-100-D00-0
 62
     7
370
    50
100
AcDbLine
 10
86.195435
 20
422.946609
 30
0.0
 11
86.195435
 21
432.446609
 31
0.0
  0
ARC
  5
466
330
1F
100
AcDbEntity
  8
LC-001-100-D00-0
 62
     7
370
    50
100
AcDbCircle
 10
76.695435
 20
422.946609
 30
0.0
 40
9.5
100
AcDbArc
 50
270.0
 51
0.0
  0
LINE
  5
467
330
1F
100
AcDbEntity
  8
LC-001-100-D00-0
 62
     7
370
    50
100
AcDbLine
 10
-121.315179
 20
413.446609
 30
0.0
 11
76.695435
 21
413.446609
 31
0.0
  0
ARC
  5
468
330
1F
100
AcDbEntity
  8
LC-001-100-D00-0
 62
     7
370
    50
100
AcDbCircle
 10
-121.315179
 20
410.946609
 30
0.0
 40
2.5
100
AcDbArc
 50
90.0
 51
105.0
  0
LINE
  5
469
330
1F
100
AcDbEntity
  8
LC-001-100-D00-0
 62
     7
370
    50
100
AcDbLine
 10
-121.962227
 20
413.361424
 30
0.0
 11
-139.795898
 21
408.582906
 31
0.0
  0
ARC
  5
46A
330
1F
100
AcDbEntity
  8
LC-001-100-D00-0
 62
     7
370
    50
100
AcDbCircle
 10
-140.831175
 20
412.446609
 30
0.0
 40
4.0
100
AcDbArc
 50
270.0
 51
285.0
  0
LINE
  5
46B
330
1F
100
AcDbEntity
  8
LC-001-100-D00-0
 62
     7
370
    50
100
AcDbLine
 10
-140.831175
 20
408.446609
 30
0.0
 11
-157.504565
 21
408.446609
 31
0.0
  0
ARC
  5
46C
330
1F
100
AcDbEntity
  8
LC-001-100-D00-0
 62
     7
370
    50
100
AcDbCircle
 10
-157.504565
 20
407.446609
 30
0.0
 40
1.0
100
AcDbArc
 50
90.0
 51
180.0
  0
LINE
  5
46D
330
1F
100
AcDbEntity
  8
LC-001-100-D00-0
 62
     7
370
    50
100
AcDbLine
 10
-158.504565
 20
407.446609
 30
0.0
 11
-158.504564
 21
403.446607
 31
0.0
  0
LINE
  5
46E
330
1F
100
AcDbEntity
  8
LC-001-100-D00-0
 62
     7
370
    50
100
AcDbLine
 10
-158.504564
 20
403.446607
 30
0.0
 11
-160.004565
 21
403.446609
 31
0.0
  0
LINE
  5
46F
330
1F
100
AcDbEntity
  8
LC-001-100-D00-0
 62
     7
370
    50
100
AcDbLine
 10
-160.004565
 20
407.446609
 30
0.0
 11
-160.004565
 21
403.446609
 31
0.0
  0
ARC
  5
470
330
1F
100
AcDbEntity
  8
LC-001-100-D00-0
 62
     7
370
    50
100
AcDbCircle
 10
-157.504565
 20
407.446609
 30
0.0
 40
2.5
100
AcDbArc
 50
90.0
 51
180.0
  0
LINE
  5
471
330
1F
100
AcDbEntity
  8
LC-001-100-D00-0
 62
     7
370
    50
100
AcDbLine
 10
-140.831175
 20
409.946609
 30
0.0
 11
-157.504565
 21
409.946609
 31
0.0
  0
ARC
  5
472
330
1F
100
AcDbEntity
  8
LC-001-100-D00-0
 62
     7
370
    50
100
AcDbCircle
 10
-140.831175
 20
412.446609
 30
0.0
 40
2.500000000000227
100
AcDbArc
 50
270.0
 51
285.0
  0
LINE
  5
473
330
1F
100
AcDbEntity
  8
LC-001-100-D00-0
 62
     7
370
    50
100
AcDbLine
 10
-160.004565
 20
403.446609
 30
0.0
 11
-160.054565
 21
403.446609
 31
0.0
  0
LINE
  5
474
330
1F
100
AcDbEntity
  8
LC-001-100-D00-0
 62
     7
370
    50
100
AcDbLine
 10
-170.910681
 20
409.946609
 30
0.0
 11
-157.504565
 21
409.946609
 31
0.0
  0
LINE
  5
475
330
1F
100
AcDbEntity
  8
LC-001-100-D00-0
 62
     7
370
    50
100
AcDbLine
 10
-270.554565
 20
403.446609
 30
0.0
 11
-270.604565
 21
403.446609
 31
0.0
  0
LINE
  5
476
330
1F
100
AcDbEntity
  8
LC-001-100-D00-0
 62
     7
370
    50
100
AcDbLine
 10
-270.604565
 20
403.446609
 30
0.0
 11
-270.604565
 21
407.446609
 31
0.0
  0
LINE
  5
477
330
1F
100
AcDbEntity
  8
LC-001-100-D00-0
 62
     7
370
    50
100
AcDbLine
 10
-272.104565
 20
403.446607
 30
0.0
 11
-272.104565
 21
407.446609
 31
0.0
  0
ARC
  5
478
330
1F
100
AcDbEntity
  8
LC-001-100-D00-0
 62
     7
370
    50
100
AcDbCircle
 10
-273.104565
 20
407.446609
 30
0.0
 40
2.5
100
AcDbArc
 50
0.0
 51
90.0
  0
LINE
  5
479
330
1F
100
AcDbEntity
  8
LC-001-100-D00-0
 62
     7
370
    50
100
AcDbLine
 10
-259.698448
 20
409.946609
 30
0.0
 11
-273.104565
 21
409.946609
 31
0.0
  0
ARC
  5
47A
330
1F
100
AcDbEntity
  8
LC-001-100-D00-0
 62
     7
370
    50
100
AcDbCircle
 10
-273.104565
 20
407.446609
 30
0.0
 40
0.9999999999998863
100
AcDbArc
 50
0.0
 51
90.0
  0
LINE
  5
47B
330
1F
100
AcDbEntity
  8
LC-001-100-D00-0
 62
     7
370
    50
100
AcDbLine
 10
-489.304554
 20
433.946609
 30
0.0
 11
-489.304565
 21
419.346609
 31
0.0
  0
LINE
  5
47C
330
1F
100
AcDbEntity
  8
LC-001-100-D00-0
 62
     7
370
    50
100
AcDbLine
 10
-488.304567
 20
434.946609
 30
0.0
 11
-489.304554
 21
433.946609
 31
0.0
  0
LINE
  5
47D
330
1F
100
AcDbEntity
  8
LC-001-100-D00-0
 62
     7
370
    50
100
AcDbLine
 10
-482.304554
 20
434.946609
 30
0.0
 11
-488.304567
 21
434.946609
 31
0.0
  0
LINE
  5
47E
330
1F
100
AcDbEntity
  8
LC-001-100-D00-0
 62
     7
370
    50
100
AcDbLine
 10
-481.304567
 20
433.946609
 30
0.0
 11
-482.304554
 21
434.946609
 31
0.0
  0
LINE
  5
47F
330
1F
100
AcDbEntity
  8
LC-001-100-D00-0
 62
     7
370
    50
100
AcDbLine
 10
-481.304565
 20
419.346609
 30
0.0
 11
-481.304567
 21
433.946609
 31
0.0
  0
ARC
  5
480
330
1F
100
AcDbEntity
  8
LC-001-100-D00-0
 62
     7
370
    50
100
AcDbCircle
 10
-480.304565
 20
417.846609
 30
0.0
 40
1.802775637732089
100
AcDbArc
 50
123.690068
 51
236.309932
  0
LINE
  5
481
330
1F
100
AcDbEntity
  8
LC-001-100-D00-0
 62
     7
370
    50
100
AcDbLine
 10
-480.804574
 20
416.34661
 30
0.0
 11
-481.304565
 21
416.346609
 31
0.0
  0
LINE
  5
482
330
1F
100
AcDbEntity
  8
LC-001-100-D00-0
 62
     7
370
    50
100
AcDbLine
 10
-480.804574
 20
416.34661
 30
0.0
 11
-480.804574
 21
414.946608
 31
0.0
  0
LINE
  5
483
330
1F
100
AcDbEntity
  8
LC-001-100-D00-0
 62
     7
370
    50
100
AcDbLine
 10
-480.804574
 20
414.946608
 30
0.0
 11
-319.804568
 21
414.946608
 31
0.0
  0
LINE
  5
484
330
1F
100
AcDbEntity
  8
LC-001-100-D00-0
 62
     7
370
    50
100
AcDbLine
 10
-319.804568
 20
414.946608
 30
0.0
 11
-319.804568
 21
416.34661
 31
0.0
  0
LINE
  5
485
330
1F
100
AcDbEntity
  8
LC-001-100-D00-0
 62
     7
370
    50
100
AcDbLine
 10
-319.304565
 20
416.346609
 30
0.0
 11
-319.804568
 21
416.34661
 31
0.0
  0
ARC
  5
486
330
1F
100
AcDbEntity
  8
LC-001-100-D00-0
 62
     7
370
    50
100
AcDbCircle
 10
-320.304565
 20
417.846609
 30
0.0
 40
1.802775637732058
100
AcDbArc
 50
303.690068
 51
56.309932
  0
LINE
  5
487
330
1F
100
AcDbEntity
  8
LC-001-100-D00-0
 62
     7
370
    50
100
AcDbLine
 10
-319.304567
 20
433.946609
 30
0.0
 11
-319.304565
 21
419.346609
 31
0.0
  0
LINE
  5
488
330
1F
100
AcDbEntity
  8
LC-001-100-D00-0
 62
     7
370
    50
100
AcDbLine
 10
-318.304565
 20
434.946609
 30
0.0
 11
-319.304567
 21
433.946609
 31
0.0
  0
LINE
  5
489
330
1F
100
AcDbEntity
  8
LC-001-100-D00-0
 62
     7
370
    50
100
AcDbLine
 10
-312.304568
 20
434.946609
 30
0.0
 11
-318.304565
 21
434.946609
 31
0.0
  0
LINE
  5
48A
330
1F
100
AcDbEntity
  8
LC-001-100-D00-0
 62
     7
370
    50
100
AcDbLine
 10
-311.304566
 20
433.946609
 30
0.0
 11
-312.304568
 21
434.946609
 31
0.0
  0
LINE
  5
48B
330
1F
100
AcDbEntity
  8
LC-001-100-D00-0
 62
     7
370
    50
100
AcDbLine
 10
-311.304565
 20
419.346609
 30
0.0
 11
-311.304566
 21
433.946609
 31
0.0
  0
ARC
  5
48C
330
1F
100
AcDbEntity
  8
LC-001-100-D00-0
 62
     7
370
    50
100
AcDbCircle
 10
-310.304565
 20
417.846609
 30
0.0
 40
1.802775637732121
100
AcDbArc
 50
123.690068
 51
236.309932
  0
LINE
  5
48D
330
1F
100
AcDbEntity
  8
LC-001-100-D00-0
 62
     7
370
    50
100
AcDbLine
 10
-310.804564
 20
416.34661
 30
0.0
 11
-311.304565
 21
416.346609
 31
0.0
  0
LINE
  5
48E
330
1F
100
AcDbEntity
  8
LC-001-100-D00-0
 62
     7
370
    50
100
AcDbLine
 10
-310.804564
 20
416.34661
 30
0.0
 11
-310.804564
 21
414.946608
 31
0.0
  0
LINE
  5
48F
330
1F
100
AcDbEntity
  8
LC-001-100-D00-0
 62
     7
370
    50
100
AcDbLine
 10
-310.804564
 20
414.946608
 30
0.0
 11
-309.29395
 21
414.946609
 31
0.0
  0
ARC
  5
490
330
1F
100
AcDbEntity
  8
LC-001-100-D00-0
 62
     7
370
    50
100
AcDbCircle
 10
-309.29395
 20
410.946609
 30
0.0
 40
3.999999999999873
100
AcDbArc
 50
75.0
 51
90.0
  0
LINE
  5
491
330
1F
100
AcDbEntity
  8
LC-001-100-D00-0
 62
     7
370
    50
100
AcDbLine
 10
-290.425002
 20
410.031794
 30
0.0
 11
-308.258674
 21
414.810312
 31
0.0
  0
ARC
  5
492
330
1F
100
AcDbEntity
  8
LC-001-100-D00-0
 62
     7
370
    50
100
AcDbCircle
 10
-289.777955
 20
412.446609
 30
0.0
 40
2.500000000000091
100
AcDbArc
 50
255.0
 51
270.0
  0
LINE
  5
493
330
1F
100
AcDbEntity
  8
LC-001-100-D00-0
 62
     7
370
    50
100
AcDbLine
 10
-284.381773
 20
409.84661
 30
0.0
 11
-284.381773
 21
409.946609
 31
0.0
  0
LINE
  5
494
330
1F
100
AcDbEntity
  8
LC-001-100-D00-0
 62
     7
370
    50
100
AcDbLine
 10
-283.857938
 20
409.84661
 30
0.0
 11
-284.381773
 21
409.84661
 31
0.0
  0
LINE
  5
495
330
1F
100
AcDbEntity
  8
LC-001-100-D00-0
 62
     7
370
    50
100
AcDbLine
 10
-283.857938
 20
409.946609
 30
0.0
 11
-283.857938
 21
409.84661
 31
0.0
  0
LINE
  5
496
330
1F
100
AcDbEntity
  8
LC-001-100-D00-0
 62
     7
370
    50
100
AcDbLine
 10
-283.163693
 20
409.84661
 30
0.0
 11
-283.163693
 21
409.946609
 31
0.0
  0
LINE
  5
497
330
1F
100
AcDbEntity
  8
LC-001-100-D00-0
 62
     7
370
    50
100
AcDbLine
 10
-282.639343
 20
409.84661
 30
0.0
 11
-283.163693
 21
409.84661
 31
0.0
  0
LINE
  5
498
330
1F
100
AcDbEntity
  8
LC-001-100-D00-0
 62
     7
370
    50
100
AcDbLine
 10
-282.639343
 20
409.946609
 30
0.0
 11
-282.639343
 21
409.84661
 31
0.0
  0
ARC
  5
499
330
1F
100
AcDbEntity
  8
LC-001-100-D00-0
 62
     7
370
    50
100
AcDbCircle
 10
-289.777955
 20
412.446609
 30
0.0
 40
4.000000000000122
100
AcDbArc
 50
255.0
 51
270.0
  0
LINE
  5
49A
330
1F
100
AcDbEntity
  8
LC-001-100-D00-0
 62
     7
370
    50
100
AcDbLine
 10
-290.813231
 20
408.582906
 30
0.0
 11
-308.646902
 21
413.361424
 31
0.0
  0
ARC
  5
49B
330
1F
100
AcDbEntity
  8
LC-001-100-D00-0
 62
     7
370
    50
100
AcDbCircle
 10
-309.29395
 20
410.946609
 30
0.0
 40
2.500000000000062
100
AcDbArc
 50
75.0
 51
90.0
  0
LINE
  5
49C
330
1F
100
AcDbEntity
  8
LC-001-100-D00-0
 62
     7
370
    50
100
AcDbLine
 10
-507.304565
 20
413.446609
 30
0.0
 11
-309.29395
 21
413.446609
 31
0.0
  0
ARC
  5
49D
330
1F
100
AcDbEntity
  8
LC-001-100-D00-0
 62
     7
370
    50
100
AcDbCircle
 10
-507.304565
 20
422.946609
 30
0.0
 40
9.5
100
AcDbArc
 50
180.0
 51
270.0
  0
LINE
  5
49E
330
1F
100
AcDbEntity
  8
LC-001-100-D00-0
 62
     7
370
    50
100
AcDbLine
 10
-516.804565
 20
432.446609
 30
0.0
 11
-516.804565
 21
422.946609
 31
0.0
  0
ARC
  5
49F
330
1F
100
AcDbEntity
  8
LC-001-100-D00-0
 62
     7
370
    50
100
AcDbCircle
 10
-518.304565
 20
432.446609
 30
0.0
 40
1.5
100
AcDbArc
 50
0.0
 51
90.0
  0
LINE
  5
4A0
330
1F
100
AcDbEntity
  8
LC-001-100-D00-0
 62
     7
370
    50
100
AcDbLine
 10
-565.304565
 20
435.446609
 30
0.0
 11
-565.304559
 21
433.946609
 31
0.0
  0
ARC
  5
4A1
330
1F
100
AcDbEntity
  8
LC-001-100-D00-0
 62
     7
370
    50
100
AcDbCircle
 10
-518.304565
 20
432.446609
 30
0.0
 40
3.0
100
AcDbArc
 50
0.0
 51
90.0
  0
LINE
  5
4A2
330
1F
100
AcDbEntity
  8
LC-001-100-D00-0
 62
     7
370
    50
100
AcDbLine
 10
-515.304565
 20
432.446609
 30
0.0
 11
-515.304565
 21
422.946609
 31
0.0
  0
ARC
  5
4A3
330
1F
100
AcDbEntity
  8
LC-001-100-D00-0
 62
     7
370
    50
100
AcDbCircle
 10
-507.304565
 20
422.946609
 30
0.0
 40
8.0
100
AcDbArc
 50
180.0
 51
270.0
  0
LINE
  5
4A4
330
1F
100
AcDbEntity
  8
LC-001-100-D00-0
 62
     7
370
    50
100
AcDbLine
 10
-507.304565
 20
414.946609
 30
0.0
 11
-489.804577
 21
414.946608
 31
0.0
  0
LINE
  5
4A5
330
1F
100
AcDbEntity
  8
LC-001-100-D00-0
 62
     7
370
    50
100
AcDbLine
 10
-489.804577
 20
414.946608
 30
0.0
 11
-489.804577
 21
416.34661
 31
0.0
  0
LINE
  5
4A6
330
1F
100
AcDbEntity
  8
LC-001-100-D00-0
 62
     7
370
    50
100
AcDbLine
 10
-489.304565
 20
416.346609
 30
0.0
 11
-489.804577
 21
416.34661
 31
0.0
  0
ARC
  5
4A7
330
1F
100
AcDbEntity
  8
LC-001-100-D00-0
 62
     7
370
    50
100
AcDbCircle
 10
-490.304565
 20
417.846609
 30
0.0
 40
1.8027756377319
100
AcDbArc
 50
303.690068
 51
56.309932
  0
LINE
  5
4A8
330
1F
100
AcDbEntity
  8
LC-001-100-D00-0
 62
     7
370
    50
100
AcDbLine
 10
-270.604565
 20
403.446609
 30
0.0
 11
-272.104565
 21
403.446607
 31
0.0
  0
LINE
  5
4A9
330
1F
100
AcDbEntity
  8
LC-001-100-D00-0
 62
     7
370
    50
100
AcDbLine
 10
-273.104565
 20
408.446609
 30
0.0
 11
-289.777955
 21
408.446609
 31
0.0
  0
LINE
  5
4AA
330
1F
100
AcDbEntity
  8
LC-001-100-D00-0
 62
     7
370
    50
100
AcDbLine
 10
-283.163693
 20
409.946609
 30
0.0
 11
-283.857938
 21
409.946609
 31
0.0
  0
LINE
  5
4AB
330
1F
100
AcDbEntity
  8
LC-001-100-D00-0
 62
     7
370
    50
100
AcDbLine
 10
-284.381773
 20
409.946609
 30
0.0
 11
-289.777955
 21
409.946609
 31
0.0
  0
LINE
  5
4AC
330
1F
100
AcDbEntity
  8
LC-001-100-D00-0
 62
     7
370
    50
100
AcDbLine
 10
-273.104565
 20
409.946609
 30
0.0
 11
-282.639343
 21
409.946609
 31
0.0
  0
LINE
  5
4AD
330
1F
100
AcDbEntity
  8
LC-001-100-D00-0
 62
     7
370
    50
100
AcDbLine
 10
-518.304565
 20
435.446609
 30
0.0
 11
-565.304565
 21
435.446609
 31
0.0
  0
LINE
  5
4AE
330
1F
100
AcDbEntity
  8
LC-001-100-D00-0
 62
     7
370
    50
100
AcDbLine
 10
-518.304565
 20
433.946609
 30
0.0
 11
-565.304559
 21
433.946609
 31
0.0
  0
LINE
  5
4AF
330
1F
100
AcDbEntity
  8
LC-001-100-D00-0
 62
     7
370
    50
100
AcDbLine
 10
-283.163693
 20
409.946609
 30
0.0
 11
-282.639343
 21
409.946609
 31
0.0
  0
LINE
  5
4B0
330
1F
100
AcDbEntity
  8
LC-001-100-D00-0
 62
     7
370
    50
100
AcDbLine
 10
-284.381773
 20
409.946609
 30
0.0
 11
-283.857938
 21
409.946609
 31
0.0
  0
ELLIPSE
  5
4B1
330
1F
100
AcDbEntity
  8
LC-001-100-D00-0
 62
     7
370
    50
100
AcDbEllipse
 10
-60.282747
 20
410.946609
 30
0.0
 11
0.0
 21
-2.500000183105462
 31
0.0
210
0.0
220
0.0
230
1.0
 40
0.027578
 41
0.0000000000064928
 42
0.321750554400599
  0
ELLIPSE
  5
4B2
330
1F
100
AcDbEntity
  8
LC-001-100-D00-0
 62
     7
370
    50
100
AcDbEllipse
 10
-370.326382
 20
410.946609
 30
0.0
 11
0.0
 21
-2.5
 31
0.0
210
0.0
220
0.0
230
0.9999999999999999
 40
0.027578
 41
5.961434752784095
 42
6.283185307179586
  0
LINE
  5
4B3
330
1F
100
AcDbEntity
  8
LC-001-100-D00-0
 62
     7
370
    50
100
AcDbLine
 10
-60.304563
 20
413.317956
 30
0.0
 11
-60.304563
 21
408.652568
 31
0.0
  0
LINE
  5
4B4
330
1F
100
AcDbEntity
  8
LC-001-100-D00-0
 62
     7
370
    50
100
AcDbLine
 10
-370.304566
 20
413.317956
 30
0.0
 11
-370.304566
 21
408.652568
 31
0.0
  0
INSERT
  5
4BE
330
1F
100
AcDbEntity
  8
LC-001-100-D00-0
 62
     7
370
    50
100
AcDbBlockReference
  2
KLON18
 10
0.0
 20
0.0
 30
0.0
  0
INSERT
  5
4C8
330
1F
100
AcDbEntity
  8
LC-001-100-D00-0
 62
     7
370
    50
100
AcDbBlockReference
  2
KLON19
 10
0.0
 20
0.0
 30
0.0
  0
LINE
  5
4C9
330
1F
100
AcDbEntity
  8
LC-001-100-D00-0
 62
     7
370
    50
100
AcDbLine
 10
-60.304578
 20
408.446608
 30
0.0
 11
-60.304593
 21
408.651875
 31
0.0
  0
LINE
  5
4CA
330
1F
100
AcDbEntity
  8
LC-001-100-D00-0
 62
     7
370
    50
100
AcDbLine
 10
-60.304563
 20
408.446608
 30
0.0
 11
67.60313
 21
413.114773
 31
0.0
  0
LINE
  5
4CB
330
1F
100
AcDbEntity
  8
LC-001-100-D00-0
 62
     7
370
    50
100
AcDbLine
 10
-60.304578
 20
408.446608
 30
0.0
 11
-60.304578
 21
408.446608
 31
0.0
  0
LINE
  5
4CC
330
1F
100
AcDbEntity
  8
LC-001-100-D00-0
 62
     7
370
    50
100
AcDbLine
 10
-370.304551
 20
408.446608
 30
0.0
 11
-370.304536
 21
408.651875
 31
0.0
  0
LINE
  5
4CD
330
1F
100
AcDbEntity
  8
LC-001-100-D00-0
 62
     7
370
    50
100
AcDbLine
 10
-370.304566
 20
408.446608
 30
0.0
 11
-498.212259
 21
413.114773
 31
0.0
  0
LINE
  5
4CE
330
1F
100
AcDbEntity
  8
LC-001-100-D00-0
 62
     7
370
    50
100
AcDbLine
 10
-370.304551
 20
408.446608
 30
0.0
 11
-370.304551
 21
408.446608
 31
0.0
  0
LINE
  5
4CF
330
1F
100
AcDbEntity
  8
LC-001-100-D00-0
 62
     7
370
    50
100
AcDbLine
 10
-173.518408
 20
401.446609
 30
0.0
 11
-171.125861
 21
401.446609
 31
0.0
  0
LINE
  5
4D0
330
1F
100
AcDbEntity
  8
LC-001-100-D00-0
 62
     7
370
    50
100
AcDbLine
 10
-170.154649
 20
399.946609
 30
0.0
 11
-170.059063
 21
399.954669
 31
0.0
  0
LINE
  5
4D1
330
1F
100
AcDbEntity
  8
LC-001-100-D00-0
 62
     7
370
    50
100
AcDbLine
 10
-170.154649
 20
399.946609
 30
0.0
 11
-173.518408
 21
399.946609
 31
0.0
  0
LINE
  5
4D2
330
1F
100
AcDbEntity
  8
LC-001-100-D00-0
 62
     7
370
    50
100
AcDbLine
 10
-260.550067
 20
399.954669
 30
0.0
 11
-260.45448
 21
399.946609
 31
0.0
  0
LINE
  5
4D3
330
1F
100
AcDbEntity
  8
LC-001-100-D00-0
 62
     7
370
    50
100
AcDbLine
 10
-259.483268
 20
401.446609
 30
0.0
 11
-257.090721
 21
401.446609
 31
0.0
  0
LINE
  5
4D4
330
1F
100
AcDbEntity
  8
LC-001-100-D00-0
 62
     7
370
    50
100
AcDbLine
 10
-257.090721
 20
399.946609
 30
0.0
 11
-260.45448
 21
399.946609
 31
0.0
  0
LINE
  5
4D5
330
1F
100
AcDbEntity
  8
LC-001-100-D00-0
 62
     7
370
    50
100
AcDbLine
 10
-173.518408
 20
401.446609
 30
0.0
 11
-174.295336
 21
401.446609
 31
0.0
  0
LINE
  5
4D6
330
1F
100
AcDbEntity
  8
LC-001-100-D00-0
 62
     7
370
    50
100
AcDbLine
 10
-173.518408
 20
399.946609
 30
0.0
 11
-174.295336
 21
399.946609
 31
0.0
  0
LINE
  5
4D7
330
1F
100
AcDbEntity
  8
LC-001-100-D00-0
 62
     7
370
    50
100
AcDbLine
 10
-257.090721
 20
401.446609
 30
0.0
 11
-256.313793
 21
401.446609
 31
0.0
  0
LINE
  5
4D8
330
1F
100
AcDbEntity
  8
LC-001-100-D00-0
 62
     7
370
    50
100
AcDbLine
 10
-257.090721
 20
399.946609
 30
0.0
 11
-256.313793
 21
399.946609
 31
0.0
  0
LINE
  5
4D9
330
1F
100
AcDbEntity
  8
LC-001-100-D00-0
 62
     7
370
    50
100
AcDbLine
 10
-140.831175
 20
408.446609
 30
0.0
 11
-138.730574
 21
408.446608
 31
0.0
  0
LINE
  5
4DA
330
1F
100
AcDbEntity
  8
LC-001-100-D00-0
 62
     7
370
    50
100
AcDbLine
 10
-289.777955
 20
408.446609
 30
0.0
 11
-291.878555
 21
408.446608
 31
0.0
  0
LINE
  5
4DB
330
1F
100
AcDbEntity
  8
LC-001-100-D00-0
 62
     7
370
    50
100
AcDbLine
 10
-175.574218
 20
401.446609
 30
0.0
 11
-174.295336
 21
401.446609
 31
0.0
  0
LINE
  5
4DC
330
1F
100
AcDbEntity
  8
LC-001-100-D00-0
 62
     7
370
    50
100
AcDbLine
 10
-174.295336
 20
399.946609
 30
0.0
 11
-175.59015
 21
399.946609
 31
0.0
  0
LINE
  5
4DD
330
1F
100
AcDbEntity
  8
LC-001-100-D00-0
 62
     7
370
    50
100
AcDbLine
 10
-256.313793
 20
401.446609
 30
0.0
 11
-255.034911
 21
401.446609
 31
0.0
  0
LINE
  5
4DE
330
1F
100
AcDbEntity
  8
LC-001-100-D00-0
 62
     7
370
    50
100
AcDbLine
 10
-255.01898
 20
399.946609
 30
0.0
 11
-256.313793
 21
399.946609
 31
0.0
  0
LINE
  5
4DF
330
1F
100
AcDbEntity
  8
LC-001-100-D00-0
 62
     7
370
    50
100
AcDbLine
 10
-138.730574
 20
408.446608
 30
0.0
 11
-60.304578
 21
408.446608
 31
0.0
  0
LINE
  5
4E0
330
1F
100
AcDbEntity
  8
LC-001-100-D00-0
 62
     7
370
    50
100
AcDbLine
 10
-291.878555
 20
408.446608
 30
0.0
 11
-370.304551
 21
408.446608
 31
0.0
  0
ARC
  5
4E1
330
1F
100
AcDbEntity
  8
LC-001-100-D00-0
 62
     7
370
    50
100
AcDbCircle
 10
-170.788937
 20
401.38076
 30
0.0
 40
1.602014939990599
100
AcDbArc
 50
297.103406
 51
2.355668
  0
INSERT
  5
4EA
330
1F
100
AcDbEntity
  8
LC-001-100-D00-0
 62
     7
370
    50
100
AcDbBlockReference
  2
KLON20
 10
0.0
 20
0.0
 30
0.0
  0
INSERT
  5
4F7
330
1F
100
AcDbEntity
  8
LC-001-100-D00-0
 62
     7
370
    50
100
AcDbBlockReference
  2
KLON21
 10
0.0
 20
0.0
 30
0.0
  0
INSERT
  5
504
330
1F
100
AcDbEntity
  8
LC-001-100-D00-0
 62
     7
370
    50
100
AcDbBlockReference
  2
KLON22
 10
0.0
 20
0.0
 30
0.0
  0
LINE
  5
505
330
1F
100
AcDbEntity
  8
LC-001-100-D00-0
 62
     7
370
    50
100
AcDbLine
 10
82.195435
 20
435.446609
 30
0.0
 11
87.695435
 21
435.446609
 31
0.0
  0
LINE
  5
506
330
1F
100
AcDbEntity
  8
LC-001-100-D00-0
 62
     7
370
    50
100
AcDbLine
 10
-512.804565
 20
435.446609
 30
0.0
 11
-518.304565
 21
435.446609
 31
0.0
  0
LINE
  5
507
330
1F
100
AcDbEntity
  8
LC-001-100-D00-0
 62
     7
370
    50
100
AcDbLine
 10
82.195435
 20
435.446609
 30
0.0
 11
71.945435
 21
435.446609
 31
0.0
  0
LINE
  5
508
330
1F
100
AcDbEntity
  8
LC-001-100-D00-0
 62
     7
370
    50
100
AcDbLine
 10
37.445435
 20
435.446609
 30
0.0
 11
-98.054565
 21
435.446609
 31
0.0
  0
LINE
  5
509
330
1F
100
AcDbEntity
  8
LC-001-100-D00-0
 62
     7
370
    50
100
AcDbLine
 10
-132.554565
 20
435.446609
 30
0.0
 11
-298.054565
 21
435.446609
 31
0.0
  0
LINE
  5
50A
330
1F
100
AcDbEntity
  8
LC-001-100-D00-0
 62
     7
370
    50
100
AcDbLine
 10
-332.554565
 20
435.446609
 30
0.0
 11
-468.054565
 21
435.446609
 31
0.0
  0
LINE
  5
50B
330
1F
100
AcDbEntity
  8
LC-001-100-D00-0
 62
     7
370
    50
100
AcDbLine
 10
-502.554565
 20
435.446609
 30
0.0
 11
-512.804565
 21
435.446609
 31
0.0
  0
LINE
  5
50C
330
1F
100
AcDbEntity
  8
LC-001-100-D00-0
 62
     7
370
    50
100
AcDbLine
 10
-565.304565
 20
435.446609
 30
0.0
 11
-565.304565
 21
436.946609
 31
0.0
  0
LINE
  5
50D
330
1F
100
AcDbEntity
  8
LC-001-100-D00-0
 62
     7
370
    50
100
AcDbLine
 10
134.695435
 20
436.946609
 30
0.0
 11
134.695435
 21
435.446609
 31
0.0
  0
ARC
  5
50E
330
1F
100
AcDbEntity
  8
LC-001-100-D00-0
 62
     7
370
    50
100
AcDbCircle
 10
-560.304565
 20
476.446609
 30
0.0
 40
5.0
100
AcDbArc
 50
90.0
 51
180.0
  0
LINE
  5
50F
330
1F
100
AcDbEntity
  8
LC-001-100-D00-0
 62
     7
370
    50
100
AcDbLine
 10
-560.304565
 20
481.446609
 30
0.0
 11
129.695435
 21
481.446609
 31
0.0
  0
ARC
  5
510
330
1F
100
AcDbEntity
  8
LC-001-100-D00-0
 62
     7
370
    50
100
AcDbCircle
 10
129.695435
 20
476.446609
 30
0.0
 40
5.0
100
AcDbArc
 50
0.0
 51
90.0
  0
LINE
  5
511
330
1F
100
AcDbEntity
  8
LC-001-100-D00-0
 62
     7
370
    50
100
AcDbLine
 10
-565.304565
 20
476.446609
 30
0.0
 11
-565.304565
 21
436.946609
 31
0.0
  0
LINE
  5
512
330
1F
100
AcDbEntity
  8
LC-001-100-D00-0
 62
     7
370
    50
100
AcDbLine
 10
134.695435
 20
476.446609
 30
0.0
 11
134.695435
 21
436.946609
 31
0.0
  0
DIMENSION
  5
513
330
1F
100
AcDbEntity
  8
LC-001-100-D00-0
 62
     7
370
    25
100
AcDbDimension
  2
*D27
 10
-597.469848
 20
481.446609
 30
0.0
 11
-652.469848
 21
463.813238
 31
0.0
 70
   160
  1
46
 71
     5
 42
46.0
 53
90.0
  3
LC-DIM-L-0100-02-02
100
AcDbAlignedDimension
 13
-565.304565
 23
435.446609
 33
0.0
 14
-560.304565
 24
481.446609
 34
0.0
 50
90.0
100
AcDbRotatedDimension
  0
DIMENSION
  5
522
330
1F
100
AcDbEntity
  8
LC-001-100-D00-0
 62
     7
370
    25
100
AcDbDimension
  2
*D28
 10
134.695435
 20
579.729293
 30
0.0
 11
-219.649061
 21
634.729293
 31
0.0
 70
   160
  1
700
 71
     5
 42
700.0
  3
LC-DIM-L-0100-02-02
100
AcDbAlignedDimension
 13
-565.304565
 23
476.446609
 33
0.0
 14
134.695435
 24
476.446609
 34
0.0
100
AcDbRotatedDimension
  0
DIMENSION
  5
52F
330
1F
100
AcDbEntity
  8
LC-001-100-D00-0
 62
     7
370
    25
100
AcDbDimension
  2
*D29
 10
84.695435
 20
502.638386
 30
0.0
 11
-221.685765
 21
557.638386
 31
0.0
 70
   160
  1
600
 71
     5
 42
600.0
  3
LC-DIM-L-0100-02-02
100
AcDbAlignedDimension
 13
-515.304565
 23
432.446609
 33
0.0
 14
84.695435
 24
432.446609
 34
0.0
100
AcDbRotatedDimension
  0
DIMENSION
  5
53C
330
1F
100
AcDbEntity
  8
LC-001-100-D00-0
 62
     7
370
    25
100
AcDbDimension
  2
*D30
 10
-384.738257
 20
393.946609
 30
0.0
 11
-439.738257
 21
310.489293
 31
0.0
 70
   160
  1
50
 71
     5
 42
50.4
 53
90.0
  3
LC-DIM-L-0100-02-02
100
AcDbAlignedDimension
 13
-244.304565
 23
343.546609
 33
0.0
 14
-254.797444
 24
393.946609
 34
0.0
 50
90.0
100
AcDbRotatedDimension
  0
DIMENSION
  5
54A
330
1F
100
AcDbEntity
  8
LC-001-100-D00-0
 62
     7
370
    25
100
AcDbDimension
  2
*D31
 10
-141.304565
 20
246.634293
 30
0.0
 11
-219.649061
 21
301.634293
 31
0.0
 70
   160
  1
148
 71
     5
 42
148.0
  3
LC-DIM-L-0100-02-02
100
AcDbAlignedDimension
 13
-289.304565
 23
344.446609
 33
0.0
 14
-141.304565
 24
384.696609
 34
0.0
100
AcDbRotatedDimension
  0
DIMENSION
  5
557
330
1F
100
AcDbEntity
  8
LC-001-100-D00-0
 62
     7
370
    25
100
AcDbDimension
  2
*D32
 10
165.822261
 20
357.946609
 30
0.0
 11
110.822261
 21
396.689703
 31
0.0
 70
   160
  1
77.5
 71
     5
 42
77.5
 53
90.0
  3
LC-DIM-L-0100-02-02
100
AcDbAlignedDimension
 13
134.695435
 23
435.446609
 33
0.0
 14
0.695232
 24
357.946609
 34
0.0
 50
90.0
100
AcDbRotatedDimension
  0
DIMENSION
  5
566
330
1F
100
AcDbEntity
  8
LC-001-100-D00-0
 62
     7
370
    25
100
AcDbDimension
  2
*D33
 10
239.610044
 20
325.446609
 30
0.0
 11
184.610044
 21
393.757738
 31
0.0
 70
   160
  1
110
 71
     5
 42
110.0
 53
90.0
  3
LC-DIM-L-0100-02-02
100
AcDbAlignedDimension
 13
134.695435
 23
435.446609
 33
0.0
 14
-161.286685
 24
325.446609
 34
0.0
 50
90.0
100
AcDbRotatedDimension
  0
INSERT
  5
57C
330
1F
100
AcDbEntity
  8
LC-001-100-D00-0
 62
     7
370
    25
100
AcDbBlockReference
  2
KLON23
 10
0.0
 20
0.0
 30
0.0
  0
INSERT
  5
584
330
1F
100
AcDbEntity
  8
LC-001-100-D00-0
 62
     7
370
    25
100
AcDbBlockReference
  2
KLON24
 10
0.0
 20
0.0
 30
0.0
  0
LINE
  5
585
330
1F
100
AcDbEntity
  8
LC-001-100-D00-0
 62
     7
370
    25
100
AcDbLine
 10
-153.785656
 20
404.446609
 30
0.0
 11
-150.304565
 21
407.927701
 31
0.0
  0
INSERT
  5
58B
330
1F
100
AcDbEntity
  8
LC-001-100-D00-0
 62
     7
370
    25
100
AcDbBlockReference
  2
KLON25
 10
0.0
 20
0.0
 30
0.0
  0
LINE
  5
58C
330
1F
100
AcDbEntity
  8
LC-001-100-D00-0
 62
     7
370
    25
100
AcDbLine
 10
-289.304565
 20
403.631537
 30
0.0
 11
-284.489493
 21
408.446609
 31
0.0
  0
INSERT
  5
59C
330
1F
100
AcDbEntity
  8
LC-001-100-D00-0
 62
     7
370
    25
100
AcDbBlockReference
  2
KLON26
 10
0.0
 20
0.0
 30
0.0
  0
INSERT
  5
5A2
330
1F
100
AcDbEntity
  8
LC-001-100-D00-0
 62
     7
370
    25
100
AcDbBlockReference
  2
KLON27
 10
0.0
 20
0.0
 30
0.0
  0
INSERT
  5
5B1
330
1F
100
AcDbEntity
  8
LC-001-100-D00-0
 62
     7
370
    25
100
AcDbBlockReference
  2
KLON28
 10
0.0
 20
0.0
 30
0.0
  0
LINE
  5
5B2
330
1F
100
AcDbEntity
  8
LC-001-100-D00-0
 62
     7
370
    25
100
AcDbLine
 10
-106.053199
 20
384.827165
 30
0.0
 11
-103.937325
 21
386.943039
 31
0.0
  0
INSERT
  5
5C6
330
1F
100
AcDbEntity
  8
LC-001-100-D00-0
 62
     7
370
    25
100
AcDbBlockReference
  2
KLON29
 10
0.0
 20
0.0
 30
0.0
  0
INSERT
  5
5DA
330
1F
100
AcDbEntity
  8
LC-001-100-D00-0
 62
     7
370
    25
100
AcDbBlockReference
  2
KLON30
 10
0.0
 20
0.0
 30
0.0
  0
LINE
  5
5DB
330
1F
100
AcDbEntity
  8
LC-001-100-D00-0
 62
     7
370
    25
100
AcDbLine
 10
-495.054565
 20
422.387933
 30
0.0
 11
-489.204565
 21
428.237934
 31
0.0
  0
LINE
  5
5DC
330
1F
100
AcDbEntity
  8
LC-001-100-D00-0
 62
     7
370
    25
100
AcDbLine
 10
-478.545249
 20
416.446609
 30
0.0
 11
-475.554565
 21
419.437294
 31
0.0
  0
LINE
  5
5DD
330
1F
100
AcDbEntity
  8
LC-001-100-D00-0
 62
     7
370
    50
100
AcDbLine
 10
60.270098
 20
416.446609
 30
0.0
 11
61.046288
 21
417.222799
 31
0.0
  0
LINE
  5
5DE
330
1F
100
AcDbEntity
  8
LC-001-100-D00-0
 62
     7
370
    25
100
AcDbLine
 10
44.945435
 20
423.572586
 30
0.0
 11
50.795435
 21
429.422586
 31
0.0
  0
INSERT
  5
5E4
330
1F
100
AcDbEntity
  8
LC-001-100-D00-0
 62
     7
370
    25
100
AcDbBlockReference
  2
KLON31
 10
0.0
 20
0.0
 30
0.0
  0
LINE
  5
5E5
330
1F
100
AcDbEntity
  8
LC-001-100-D00-0
 62
     7
370
    25
100
AcDbLine
 10
-125.814822
 20
432.417445
 30
0.0
 11
-122.785658
 21
435.446609
 31
0.0
  0
INSERT
  5
5EB
330
1F
100
AcDbEntity
  8
LC-001-100-D00-0
 62
     7
370
    25
100
AcDbBlockReference
  2
KLON32
 10
0.0
 20
0.0
 30
0.0
  0
LINE
  5
5EC
330
1F
100
AcDbEntity
  8
LC-001-100-D00-0
 62
     7
370
    50
100
AcDbLine
 10
-321.390773
 20
416.446609
 30
0.0
 11
-318.704565
 21
419.132817
 31
0.0
  0
INSERT
  5
5F2
330
1F
100
AcDbEntity
  8
LC-001-100-D00-0
 62
     7
370
    25
100
AcDbBlockReference
  2
KLON33
 10
0.0
 20
0.0
 30
0.0
  0
LINE
  5
5F3
330
1F
100
AcDbEntity
  8
LC-001-100-D00-0
 62
     7
370
    25
100
AcDbLine
 10
-311.404565
 20
426.432818
 30
0.0
 11
-302.390774
 21
435.446609
 31
0.0
  0
LINE
  5
5F4
330
1F
100
AcDbEntity
  8
LC-001-100-D00-0
  6
DASHDOT
 62
     7
370
    25
100
AcDbLine
 10
0.695232
 20
357.946609
 30
0.0
 11
-102.329783
 21
357.946609
 31
0.0
  0
LINE
  5
5F5
330
1F
100
AcDbEntity
  8
LC-001-100-D00-0
  6
DASHDOT
 62
     7
370
    25
100
AcDbLine
 10
54.695435
 20
407.446609
 30
0.0
 11
54.695435
 21
441.446609
 31
0.0
  0
LINE
  5
5F6
330
1F
100
AcDbEntity
  8
LC-001-100-D00-0
  6
DASHDOT
 62
     7
370
    25
100
AcDbLine
 10
-115.304565
 20
407.446609
 30
0.0
 11
-115.304565
 21
441.446609
 31
0.0
  0
LINE
  5
5F7
330
1F
100
AcDbEntity
  8
LC-001-100-D00-0
  6
DASHDOT
 62
     7
370
    25
100
AcDbLine
 10
-215.304565
 20
403.946609
 30
0.0
 11
-215.304565
 21
322.946609
 31
0.0
  0
LINE
  5
5F8
330
1F
100
AcDbEntity
  8
LC-001-100-D00-0
  6
DASHDOT
 62
     7
370
    25
100
AcDbLine
 10
-315.304565
 20
407.446609
 30
0.0
 11
-315.304565
 21
441.446609
 31
0.0
  0
LINE
  5
5F9
330
1F
100
AcDbEntity
  8
LC-001-100-D00-0
  6
DASHDOT
 62
     7
370
    25
100
AcDbLine
 10
-485.304565
 20
407.446609
 30
0.0
 11
-485.304565
 21
441.446609
 31
0.0
  0
LINE
  5
5FB
102
{ACAD_REACTORS
330
652
102
}
330
1F
100
AcDbEntity
  8
LC-002-002-----0
 62
     7
370
    50
100
AcDbLine
 10
-109.458531
 20
326.100206
 30
0.0
 11
-121.190079
 21
324.946609
 31
0.0
  0
LINE
  5
5FC
102
{ACAD_REACTORS
330
652
102
}
330
1F
100
AcDbEntity
  8
LC-002-002-----0
 62
     7
370
    50
100
AcDbLine
 10
-101.45455
 20
327.946609
 30
0.0
 11
-61.690079
 21
327.946609
 31
0.0
  0
LINE
  5
5FD
102
{ACAD_REACTORS
330
652
102
}
330
1F
100
AcDbEntity
  8
LC-002-002-----0
 62
     7
370
    50
100
AcDbLine
 10
-121.190079
 20
390.946609
 30
0.0
 11
-121.190079
 21
387.71628
 31
0.0
  0
ARC
  5
5FF
102
{ACAD_REACTORS
330
652
102
}
330
1F
100
AcDbEntity
  8
LC-003-207-RND-0
 62
     7
370
    50
100
AcDbCircle
 10
-120.190079
 20
328.176937
 30
0.0
 40
0.9999999999999977
100
AcDbArc
 50
75.858695
 51
180.0
  0
LINE
  5
600
102
{ACAD_REACTORS
330
652
102
}
330
1F
100
AcDbEntity
  8
LC-002-002-----0
 62
     7
370
    50
100
AcDbLine
 10
-61.190079
 20
328.446609
 30
0.0
 11
-61.190079
 21
329.446609
 31
0.0
  0
LINE
  5
601
102
{ACAD_REACTORS
330
652
102
}
330
1F
100
AcDbEntity
  8
LC-002-002-----0
 62
     7
370
    50
100
AcDbLine
 10
-61.190079
 20
329.446609
 30
0.0
 11
-61.190079
 21
386.446609
 31
0.0
  0
LINE
  5
602
102
{ACAD_REACTORS
330
652
102
}
330
1F
100
AcDbEntity
  8
LC-002-002-----0
 62
     7
370
    50
100
AcDbLine
 10
-96.190079
 20
385.946609
 30
0.0
 11
-96.190079
 21
385.446609
 31
0.0
  0
LINE
  5
603
102
{ACAD_REACTORS
330
652
102
}
330
1F
100
AcDbEntity
  8
LC-002-002-----0
 62
     7
370
    50
100
AcDbLine
 10
-109.458531
 20
389.793012
 30
0.0
 11
-121.190079
 21
390.946609
 31
0.0
  0
LINE
  5
604
102
{ACAD_REACTORS
330
652
102
}
330
1F
100
AcDbEntity
  8
LC-002-002-----0
 62
     7
370
    50
100
AcDbLine
 10
-93.190079
 20
357.946609
 30
0.0
 11
-93.190079
 21
383.714558
 31
0.0
  0
ARC
  5
605
102
{ACAD_REACTORS
330
652
102
}
330
1F
100
AcDbEntity
  8
LC-002-002-----0
 62
     7
370
    50
100
AcDbCircle
 10
-112.590079
 20
357.946609
 30
0.0
 40
32.00000000000082
100
AcDbArc
 50
275.616003
 51
290.364135
  0
LINE
  5
606
102
{ACAD_REACTORS
330
652
102
}
330
1F
100
AcDbEntity
  8
LC-002-002-----0
 62
     7
370
    50
100
AcDbLine
 10
-61.190079
 20
387.446609
 30
0.0
 11
-61.190079
 21
386.446609
 31
0.0
  0
INSERT
  5
613
102
{ACAD_REACTORS
330
652
102
}
330
1F
100
AcDbEntity
  8
LC-004-005-----0
 62
     7
370
    25
100
AcDbBlockReference
  2
*X145
 10
0.0
 20
0.0
 30
0.0
  0
ARC
  5
614
102
{ACAD_REACTORS
330
652
102
}
330
1F
100
AcDbEntity
  8
LC-003-207-RND-0
 62
     7
370
    50
100
AcDbCircle
 10
-120.190079
 20
387.71628
 30
0.0
 40
1.0
100
AcDbArc
 50
180.0
 51
284.141305
  0
LINE
  5
615
102
{ACAD_REACTORS
330
652
102
}
330
1F
100
AcDbEntity
  8
LC-002-002-----0
 62
     7
370
    50
100
AcDbLine
 10
-61.690079
 20
385.946609
 30
0.0
 11
-96.190079
 21
385.946609
 31
0.0
  0
LINE
  5
616
102
{ACAD_REACTORS
330
652
102
}
330
1F
100
AcDbEntity
  8
LC-002-002-----0
 62
     7
370
    50
100
AcDbLine
 10
-101.45455
 20
387.946609
 30
0.0
 11
-61.690079
 21
387.946609
 31
0.0
  0
LINE
  5
617
102
{ACAD_REACTORS
330
652
102
}
330
1F
100
AcDbEntity
  8
LC-002-002-----0
 62
     7
370
    50
100
AcDbLine
 10
-61.190079
 20
329.446609
 30
0.0
 11
-61.690079
 21
329.946609
 31
0.0
  0
LINE
  5
618
102
{ACAD_REACTORS
330
652
102
}
330
1F
100
AcDbEntity
  8
LC-002-002-----0
 62
     7
370
    50
100
AcDbLine
 10
-61.690079
 20
327.946609
 30
0.0
 11
-61.190079
 21
328.446609
 31
0.0
  0
LINE
  5
619
102
{ACAD_REACTORS
330
652
102
}
330
1F
100
AcDbEntity
  8
LC-002-002-----0
 62
     7
370
    50
100
AcDbLine
 10
-93.190079
 20
332.17866
 30
0.0
 11
-93.190079
 21
357.946609
 31
0.0
  0
INSERT
  5
628
102
{ACAD_REACTORS
330
652
102
}
330
1F
100
AcDbEntity
  8
LC-004-005-----0
 62
     7
370
    25
100
AcDbBlockReference
  2
*X246
 10
0.0
 20
0.0
 30
0.0
  0
LINE
  5
629
102
{ACAD_REACTORS
330
652
102
}
330
1F
100
AcDbEntity
  8
LC-002-002-----0
 62
     7
370
    50
100
AcDbLine
 10
-61.690079
 20
329.946609
 30
0.0
 11
-61.690079
 21
385.946609
 31
0.0
  0
ARC
  5
62A
102
{ACAD_REACTORS
330
652
102
}
330
1F
100
AcDbEntity
  8
LC-002-002-----0
 62
     7
370
    50
100
AcDbCircle
 10
-112.590079
 20
357.946609
 30
0.0
 40
32.0000000000007
100
AcDbArc
 50
69.635865
 51
84.383997
  0
LINE
  5
62B
102
{ACAD_REACTORS
330
652
102
}
330
1F
100
AcDbEntity
  8
LC-002-002-----0
 62
     7
370
    50
100
AcDbLine
 10
-61.190079
 20
386.446609
 30
0.0
 11
-61.690079
 21
385.946609
 31
0.0
  0
LINE
  5
62C
102
{ACAD_REACTORS
330
652
102
}
330
1F
100
AcDbEntity
  8
LC-002-002-----0
 62
     7
370
    50
100
AcDbLine
 10
-61.690079
 20
329.946609
 30
0.0
 11
-93.190079
 21
329.946609
 31
0.0
  0
LINE
  5
62D
102
{ACAD_REACTORS
330
652
102
}
330
1F
100
AcDbEntity
  8
LC-002-002-----0
 62
     7
370
    50
100
AcDbLine
 10
-61.690079
 20
387.946609
 30
0.0
 11
-61.190079
 21
387.446609
 31
0.0
  0
LINE
  5
62E
102
{ACAD_REACTORS
330
652
102
}
330
1F
100
AcDbEntity
  8
LC-002-002-----0
 62
     7
370
    50
100
AcDbLine
 10
-96.190079
 20
385.446609
 30
0.0
 11
-93.190079
 21
383.714558
 31
0.0
  0
LINE
  5
62F
102
{ACAD_REACTORS
330
652
102
}
330
1F
100
AcDbEntity
  8
LC-002-002-----0
 62
     7
370
    50
100
AcDbLine
 10
-93.190079
 20
329.946609
 30
0.0
 11
-96.190079
 21
329.946609
 31
0.0
  0
LINE
  5
630
102
{ACAD_REACTORS
330
652
102
}
330
1F
100
AcDbEntity
  8
LC-002-002-----0
 62
     7
370
    50
100
AcDbLine
 10
-96.190079
 20
330.446609
 30
0.0
 11
-93.190079
 21
332.17866
 31
0.0
  0
LINE
  5
631
102
{ACAD_REACTORS
330
652
102
}
330
1F
100
AcDbEntity
  8
LC-002-002-----0
 62
     7
370
    50
100
AcDbLine
 10
-96.190079
 20
329.946609
 30
0.0
 11
-96.190079
 21
330.446609
 31
0.0
  0
ARC
  5
633
102
{ACAD_REACTORS
330
652
102
}
330
1F
100
AcDbEntity
  8
LC-005-207-----0
 62
     7
370
    50
100
AcDbCircle
 10
-112.689635
 20
357.946609
 30
0.0
 40
29.70000000000019
100
AcDbArc
 50
48.962662
 51
104.141305
  0
ARC
  5
634
102
{ACAD_REACTORS
330
652
102
}
330
1F
100
AcDbEntity
  8
LC-005-207-----0
 62
     7
370
    50
100
AcDbCircle
 10
-112.689635
 20
357.946609
 30
0.0
 40
29.70000000000007
100
AcDbArc
 50
255.858695
 51
311.037338
  0
LINE
  5
635
102
{ACAD_REACTORS
330
652
102
}
330
1F
100
AcDbEntity
  8
LC-002-002-----0
 62
     7
370
    50
100
AcDbLine
 10
-121.190079
 20
328.176937
 30
0.0
 11
-121.190079
 21
324.946609
 31
0.0
  0
DIMENSION
  5
637
330
1F
100
AcDbEntity
  8
LC-006-003-----0
 62
     7
370
    25
100
AcDbDimension
  2
*D47
 10
28.080293
 20
329.946609
 30
0.0
 11
-26.919707
 21
224.825261
 31
0.0
 70
   160
  1
%%c<>
 71
     5
 42
56.0
 53
90.0
  3
LC-DIM-L-0100-02-02
100
AcDbAlignedDimension
 13
-61.690079
 23
385.946609
 33
0.0
 14
-61.690079
 24
329.946609
 34
0.0
 50
90.0
100
AcDbRotatedDimension
  0
DIMENSION
  5
645
330
1F
100
AcDbEntity
  8
LC-006-003-----0
 62
     7
370
    25
100
AcDbDimension
  2
*D48
 10
-61.190079
 20
150.84819
 30
0.0
 11
-208.26007
 21
205.84819
 31
0.0
 70
   160
  1
228
 71
     5
 42
228.114486
  3
LC-DIM-L-0100-02-02
100
AcDbAlignedDimension
 13
-289.304565
 23
344.446609
 33
0.0
 14
-61.190079
 24
357.946609
 34
0.0
100
AcDbRotatedDimension
  0
ENDSEC
  0
SECTION
  2
OBJECTS
  0
DICTIONARY
  5
C
330
0
100
AcDbDictionary
281
     1
  3
ACAD_GROUP
350
D
  3
ACAD_LAYOUT
350
1A
  3
ACAD_MLINESTYLE
350
17
  3
ACAD_PLOTSETTINGS
350
19
  3
ACAD_PLOTSTYLENAME
350
E
  0
DICTIONARY
  5
D
102
{ACAD_REACTORS
330
C
102
}
330
C
100
AcDbDictionary
281
     1
  3
LCGROUP1165
350
652
  0
DICTIONARY
  5
1A
102
{ACAD_REACTORS
330
C
102
}
330
C
100
AcDbDictionary
281
     1
  3
Layout1
350
1E
  3
Layout2
350
26
  3
Model
350
22
  0
DICTIONARY
  5
17
102
{ACAD_REACTORS
330
C
102
}
330
C
100
AcDbDictionary
281
     1
  3
Standard
350
18
  0
DICTIONARY
  5
19
102
{ACAD_REACTORS
330
C
102
}
330
C
100
AcDbDictionary
281
     1
  0
ACDBDICTIONARYWDFLT
  5
E
102
{ACAD_REACTORS
330
C
102
}
330
C
100
AcDbDictionary
281
     1
  3
Normal
350
F
100
AcDbDictionaryWithDefault
340
F
  0
GROUP
  5
652
102
{ACAD_REACTORS
330
D
102
}
330
D
100
AcDbGroup
300
Spitzende bs
 70
     1
 71
     1
340
5FB
340
5FC
340
5FD
340
5FF
340
600
340
601
340
602
340
603
340
604
340
605
340
606
340
613
340
614
340
615
340
616
340
617
340
618
340
619
340
628
340
629
340
62A
340
62B
340
62C
340
62D
340
62E
340
62F
340
630
340
631
340
633
340
634
340
635
  0
LAYOUT
  5
1E
102
{ACAD_REACTORS
330
1A
102
}
330
1A
100
AcDbPlotSettings
  1

  2

  4

  6

 40
0.0
 41
0.0
 42
0.0
 43
0.0
 44
0.0
 45
0.0
 46
0.0
 47
0.0
 48
0.0
 49
0.0
140
0.0
141
0.0
142
1.0
143
1.0
 70
   688
 72
     0
 73
     0
 74
     5
  7

 75
    16
147
1.0
148
0.0
149
0.0
100
AcDbLayout
  1
Layout1
 70
     1
 71
     1
 10
-838.869441
 20
-601.300707
 11
1261.130559
 21
883.699293
 12
0.0
 22
0.0
 32
0.0
 14
-838.869441
 24
-601.300707
 34
0.0
 15
1261.130559
 25
883.699293
 35
0.0
146
0.0
 13
0.0
 23
0.0
 33
0.0
 16
1.0
 26
0.0
 36
0.0
 17
0.0
 27
1.0
 37
0.0
 76
     0
330
1B
  0
LAYOUT
  5
26
102
{ACAD_REACTORS
330
1A
102
}
330
1A
100
AcDbPlotSettings
  1

  2

  4

  6

 40
0.0
 41
0.0
 42
0.0
 43
0.0
 44
0.0
 45
0.0
 46
0.0
 47
0.0
 48
0.0
 49
0.0
140
0.0
141
0.0
142
1.0
143
1.0
 70
   688
 72
     0
 73
     0
 74
     5
  7

 75
    16
147
1.0
148
0.0
149
0.0
100
AcDbLayout
  1
Layout2
 70
     1
 71
     2
 10
0.0
 20
0.0
 11
0.0
 21
0.0
 12
0.0
 22
0.0
 32
0.0
 14
0.0
 24
0.0
 34
0.0
 15
0.0
 25
0.0
 35
0.0
146
0.0
 13
0.0
 23
0.0
 33
0.0
 16
1.0
 26
0.0
 36
0.0
 17
0.0
 27
1.0
 37
0.0
 76
     0
330
23
  0
LAYOUT
  5
22
102
{ACAD_REACTORS
330
1A
102
}
330
1A
100
AcDbPlotSettings
  1

  2

  4

  6

 40
0.0
 41
0.0
 42
0.0
 43
0.0
 44
0.0
 45
0.0
 46
0.0
 47
0.0
 48
0.0
 49
0.0
140
0.0
141
0.0
142
1.0
143
1.0
 70
  1776
 72
     0
 73
     0
 74
     0
  7

 75
     0
147
1.0
148
0.0
149
0.0
100
AcDbLayout
  1
Model
 70
     1
 71
     0
 10
-838.869441
 20
-601.300707
 11
1261.130559
 21
883.699293
 12
0.0
 22
0.0
 32
0.0
 14
-838.869441
 24
-601.300707
 34
0.0
 15
1261.130559
 25
883.699293
 35
0.0
146
0.0
 13
0.0
 23
0.0
 33
0.0
 16
1.0
 26
0.0
 36
0.0
 17
0.0
 27
1.0
 37
0.0
 76
     0
330
1F
  0
MLINESTYLE
  5
18
102
{ACAD_REACTORS
330
17
102
}
330
17
100
AcDbMlineStyle
  2
Standard
 70
     0
  3

 62
   256
 51
90.0
 52
90.0
 71
     2
 49
0.5
 62
   256
  6
BYLAYER
 49
-0.5
 62
   256
  6
BYLAYER
  0
ACDBPLACEHOLDER
  5
F
102
{ACAD_REACTORS
330
E
102
}
330
E
  0
ENDSEC
  0
EOF
