  0
SECTION
  2
HEADER
  9
$ACADVER
  1
AC1015
  9
$ACADMAINTVER
 70
     6
  9
$DWGCODEPAGE
  3
ANSI_1252
  9
$INSBASE
 10
0.0
 20
0.0
 30
0.0
  9
$EXTMIN
 10
-852.867371
 20
-615.747487
 30
0.0
  9
$EXTMAX
 10
1247.132629
 20
869.252513
 30
0.0
  9
$LIMMIN
 10
-852.867371
 20
-615.747487
  9
$LIMMAX
 10
1247.132629
 20
869.252513
  9
$ORTHOMODE
 70
     0
  9
$REGENMODE
 70
     1
  9
$FILLMODE
 70
     1
  9
$QTEXTMODE
 70
     0
  9
$MIRRTEXT
 70
     1
  9
$LTSCALE
 40
5.0
  9
$ATTMODE
 70
     1
  9
$TEXTSIZE
 40
2.5
  9
$TRACEWID
 40
1.0
  9
$TEXTSTYLE
  7
Standard
  9
$CLAYER
  8
0
  9
$CELTYPE
  6
ByLayer
  9
$CECOLOR
 62
     7
  9
$CELTSCALE
 40
1.0
  9
$DISPSILH
 70
     0
  9
$DIMSCALE
 40
5.0
  9
$DIMASZ
 40
3.5
  9
$DIMEXO
 40
0.625
  9
$DIMDLI
 40
3.75
  9
$DIMRND
 40
0.0
  9
$DIMDLE
 40
0.0
  9
$DIMEXE
 40
1.25
  9
$DIMTP
 40
0.0
  9
$DIMTM
 40
0.0
  9
$DIMTXT
 40
3.5
  9
$DIMCEN
 40
2.5
  9
$DIMTSZ
 40
0.0
  9
$DIMTOL
 70
     0
  9
$DIMLIM
 70
     0
  9
$DIMTIH
 70
     0
  9
$DIMTOH
 70
     0
  9
$DIMSE1
 70
     0
  9
$DIMSE2
 70
     0
  9
$DIMTAD
 70
     1
  9
$DIMZIN
 70
     8
  9
$DIMBLK
  1

  9
$DIMASO
 70
     1
  9
$DIMSHO
 70
     1
  9
$DIMPOST
  1

  9
$DIMAPOST
  1

  9
$DIMALT
 70
     0
  9
$DIMALTD
 70
     3
  9
$DIMALTF
 40
0.03937
  9
$DIMLFAC
 40
1.0
  9
$DIMTOFL
 70
     1
  9
$DIMTVP
 40
0.0
  9
$DIMTIX
 70
     0
  9
$DIMSOXD
 70
     0
  9
$DIMSAH
 70
     0
  9
$DIMBLK1
  1

  9
$DIMBLK2
  1

  9
$DIMSTYLE
  2
ISO-25
  9
$DIMCLRD
 70
     0
  9
$DIMCLRE
 70
     0
  9
$DIMCLRT
 70
     0
  9
$DIMTFAC
 40
1.0
  9
$DIMGAP
 40
0.625
  9
$DIMJUST
 70
     0
  9
$DIMSD1
 70
     0
  9
$DIMSD2
 70
     0
  9
$DIMTOLJ
 70
     0
  9
$DIMTZIN
 70
     8
  9
$DIMALTZ
 70
     0
  9
$DIMALTTZ
 70
     0
  9
$DIMUPT
 70
     0
  9
$DIMDEC
 70
     2
  9
$DIMTDEC
 70
     2
  9
$DIMALTU
 70
     2
  9
$DIMALTTD
 70
     3
  9
$DIMTXSTY
  7
Standard
  9
$DIMAUNIT
 70
     0
  9
$DIMADEC
 70
     0
  9
$DIMALTRND
 40
0.0
  9
$DIMAZIN
 70
     0
  9
$DIMDSEP
 70
    44
  9
$DIMATFIT
 70
     3
  9
$DIMFRAC
 70
     0
  9
$DIMLDRBLK
  1

  9
$DIMLUNIT
 70
     2
  9
$DIMLWD
 70
    -2
  9
$DIMLWE
 70
    -2
  9
$DIMTMOVE
 70
     0
  9
$LUNITS
 70
     2
  9
$LUPREC
 70
     4
  9
$SKETCHINC
 40
1.0
  9
$FILLETRAD
 40
10.0
  9
$AUNITS
 70
     0
  9
$AUPREC
 70
     0
  9
$MENU
  1
.
  9
$ELEVATION
 40
0.0
  9
$PELEVATION
 40
0.0
  9
$THICKNESS
 40
0.0
  9
$LIMCHECK
 70
     0
  9
$CHAMFERA
 40
10.0
  9
$CHAMFERB
 40
10.0
  9
$CHAMFERC
 40
20.0
  9
$CHAMFERD
 40
0.0
  9
$SKPOLY
 70
     0
  9
$TDCREATE
 40
2456014.395329248
  9
$TDUCREATE
 40
2456014.311995914
  9
$TDUPDATE
 40
2456014.395329259
  9
$TDUUPDATE
 40
2456014.311995926
  9
$TDINDWG
 40
0.0000000116
  9
$TDUSRTIMER
 40
0.0000000116
  9
$USRTIMER
 70
     1
  9
$ANGBASE
 50
0.0
  9
$ANGDIR
 70
     0
  9
$PDMODE
 70
     0
  9
$PDSIZE
 40
0.0
  9
$PLINEWID
 40
0.0
  9
$SPLFRAME
 70
     0
  9
$SPLINETYPE
 70
     6
  9
$SPLINESEGS
 70
     8
  9
$HANDSEED
  5
6BC
  9
$SURFTAB1
 70
     6
  9
$SURFTAB2
 70
     6
  9
$SURFTYPE
 70
     6
  9
$SURFU
 70
     6
  9
$SURFV
 70
     6
  9
$UCSBASE
  2

  9
$UCSNAME
  2

  9
$UCSORG
 10
0.0
 20
0.0
 30
0.0
  9
$UCSXDIR
 10
1.0
 20
0.0
 30
0.0
  9
$UCSYDIR
 10
0.0
 20
1.0
 30
0.0
  9
$UCSORTHOREF
  2

  9
$UCSORTHOVIEW
 70
     0
  9
$UCSORGTOP
 10
0.0
 20
0.0
 30
0.0
  9
$UCSORGBOTTOM
 10
0.0
 20
0.0
 30
0.0
  9
$UCSORGLEFT
 10
0.0
 20
0.0
 30
0.0
  9
$UCSORGRIGHT
 10
0.0
 20
0.0
 30
0.0
  9
$UCSORGFRONT
 10
0.0
 20
0.0
 30
0.0
  9
$UCSORGBACK
 10
0.0
 20
0.0
 30
0.0
  9
$PUCSBASE
  2

  9
$PUCSNAME
  2

  9
$PUCSORG
 10
0.0
 20
0.0
 30
0.0
  9
$PUCSXDIR
 10
1.0
 20
0.0
 30
0.0
  9
$PUCSYDIR
 10
0.0
 20
1.0
 30
0.0
  9
$PUCSORTHOREF
  2

  9
$PUCSORTHOVIEW
 70
     0
  9
$PUCSORGTOP
 10
0.0
 20
0.0
 30
0.0
  9
$PUCSORGBOTTOM
 10
0.0
 20
0.0
 30
0.0
  9
$PUCSORGLEFT
 10
0.0
 20
0.0
 30
0.0
  9
$PUCSORGRIGHT
 10
0.0
 20
0.0
 30
0.0
  9
$PUCSORGFRONT
 10
0.0
 20
0.0
 30
0.0
  9
$PUCSORGBACK
 10
0.0
 20
0.0
 30
0.0
  9
$USERI1
 70
     0
  9
$USERI2
 70
     0
  9
$USERI3
 70
     0
  9
$USERI4
 70
     0
  9
$USERI5
 70
     0
  9
$USERR1
 40
0.0
  9
$USERR2
 40
0.0
  9
$USERR3
 40
0.0
  9
$USERR4
 40
0.0
  9
$USERR5
 40
0.0
  9
$WORLDVIEW
 70
     1
  9
$SHADEDGE
 70
     3
  9
$SHADEDIF
 70
    70
  9
$TILEMODE
 70
     1
  9
$MAXACTVP
 70
    64
  9
$PINSBASE
 10
0.0
 20
0.0
 30
0.0
  9
$PLIMCHECK
 70
     0
  9
$PEXTMIN
 10
-852.867371
 20
-615.747487
 30
0.0
  9
$PEXTMAX
 10
1247.132629
 20
869.252513
 30
0.0
  9
$PLIMMIN
 10
-852.867371
 20
-615.747487
  9
$PLIMMAX
 10
1247.132629
 20
869.252513
  9
$UNITMODE
 70
     0
  9
$VISRETAIN
 70
     1
  9
$PLINEGEN
 70
     0
  9
$PSLTSCALE
 70
     1
  9
$TREEDEPTH
 70
  3020
  9
$CMLSTYLE
  2
Standard
  9
$CMLJUST
 70
     0
  9
$CMLSCALE
 40
20.0
  9
$PROXYGRAPHICS
 70
     1
  9
$MEASUREMENT
 70
     1
  9
$CELWEIGHT
370
    -1
  9
$ENDCAPS
280
     0
  9
$JOINSTYLE
280
     0
  9
$LWDISPLAY
290
     0
  9
$INSUNITS
 70
     4
  9
$HYPERLINKBASE
  1

  9
$STYLESHEET
  1

  9
$XEDIT
290
     1
  9
$CEPSNTYPE
380
     0
  9
$PSTYLEMODE
290
     1
  9
$FINGERPRINTGUID
  2
{FAEB1C30-E019-11D5-929B-00C0DF256EC4}
  9
$VERSIONGUID
  2
{FAEB1C32-E019-11D5-929B-00C0DF256EC4}
  9
$EXTNAMES
290
     1
  9
$PSVPSCALE
 40
0.0
  9
$OLESTARTUP
290
     0
  0
ENDSEC
  0
SECTION
  2
CLASSES
  0
CLASS
  1
ACDBDICTIONARYWDFLT
  2
AcDbDictionaryWithDefault
  3
ObjectDBX Classes
 90
        0
280
     0
281
     0
  0
CLASS
  1
ACDBPLACEHOLDER
  2
AcDbPlaceHolder
  3
ObjectDBX Classes
 90
        0
280
     0
281
     0
  0
CLASS
  1
LAYOUT
  2
AcDbLayout
  3
ObjectDBX Classes
 90
        0
280
     0
281
     0
  0
ENDSEC
  0
SECTION
  2
TABLES
  0
TABLE
  2
VPORT
  5
8
330
0
100
AcDbSymbolTable
 70
     2
  0
VPORT
  5
29
330
8
100
AcDbSymbolTableRecord
100
AcDbViewportTableRecord
  2
*ACTIVE
 70
     0
 10
0.0
 20
0.0
 11
1.0
 21
1.0
 12
197.132629
 22
126.752513
 13
0.0
 23
0.0
 14
1.0
 24
1.0
 15
0.0
 25
0.0
 16
0.0
 26
0.0
 36
1.0
 17
0.0
 27
0.0
 37
0.0
 40
1485.0
 41
1.414141
 42
50.0
 43
0.0
 44
0.0
 50
0.0
 51
0.0
 71
    16
 72
   100
 73
     1
 74
     0
 75
     0
 76
     0
 77
     0
 78
     0
281
     0
 65
     0
110
0.0
120
0.0
130
0.0
111
1.0
121
0.0
131
0.0
112
0.0
122
1.0
132
0.0
 79
     0
146
0.0
  0
ENDTAB
  0
TABLE
  2
LTYPE
  5
5
330
0
100
AcDbSymbolTable
 70
     3
  0
LTYPE
  5
14
330
5
100
AcDbSymbolTableRecord
100
AcDbLinetypeTableRecord
  2
ByBlock
 70
     0
  3

 72
    65
 73
     0
 40
0.0
  0
LTYPE
  5
15
330
5
100
AcDbSymbolTableRecord
100
AcDbLinetypeTableRecord
  2
ByLayer
 70
     0
  3

 72
    65
 73
     0
 40
0.0
  0
LTYPE
  5
16
330
5
100
AcDbSymbolTableRecord
100
AcDbLinetypeTableRecord
  2
Continuous
 70
     0
  3
Solid line
 72
    65
 73
     0
 40
0.0
  0
LTYPE
  5
2A
330
5
100
AcDbSymbolTableRecord
100
AcDbLinetypeTableRecord
  2
DASHED
 70
     0
  3
__ __ __ __ __
 72
    65
 73
     2
 40
6.25
 49
5.0
 74
     4
 75
     0
340
0
 46
1.0
 50
0.0
 44
0.0
 45
0.0
 49
-1.25
 74
     4
 75
     0
340
0
 46
1.0
 50
0.0
 44
0.0
 45
0.0
  0
LTYPE
  5
16F
330
5
100
AcDbSymbolTableRecord
100
AcDbLinetypeTableRecord
  2
DASHDOT
 70
     0
  3
__ . __ . __ . __ . __
 72
    65
 73
     4
 40
7.5
 49
5.0
 74
     4
 75
     0
340
0
 46
1.0
 50
0.0
 44
0.0
 45
0.0
 49
-1.25
 74
     4
 75
     0
340
0
 46
1.0
 50
0.0
 44
0.0
 45
0.0
 49
0.0
 74
     4
 75
     0
340
0
 46
1.0
 50
0.0
 44
0.0
 45
0.0
 49
-1.25
 74
     4
 75
     0
340
0
 46
1.0
 50
0.0
 44
0.0
 45
0.0
  0
ENDTAB
  0
TABLE
  2
LAYER
  5
2
330
0
100
AcDbSymbolTable
 70
     7
  0
LAYER
  5
10
330
2
100
AcDbSymbolTableRecord
100
AcDbLayerTableRecord
  2
0
 70
     0
 62
     7
  6
Continuous
370
    -3
390
F
  0
LAYER
  5
2B
330
2
100
AcDbSymbolTableRecord
100
AcDbLayerTableRecord
  2
LC-INFO-1-5-mm-A3-0
 70
     1
 62
     7
  6
ByBlock
370
    -3
390
F
  0
LAYER
  5
2C
330
2
100
AcDbSymbolTableRecord
100
AcDbLayerTableRecord
  2
LC-CUT-HIDDEN
 70
     0
 62
     7
  6
DASHED
370
    -3
390
F
  0
LAYER
  5
2D
330
2
100
AcDbSymbolTableRecord
100
AcDbLayerTableRecord
  2
LC-VIEWPORT
 70
     0
 62
     7
  6
ByBlock
370
    -3
390
F
  0
LAYER
  5
2E
330
2
100
AcDbSymbolTableRecord
100
AcDbLayerTableRecord
  2
LC-3D-HIDDEN
 70
     0
 62
     9
  6
DASHED
370
    -3
390
F
  0
LAYER
  5
30
330
2
100
AcDbSymbolTableRecord
100
AcDbLayerTableRecord
  2
LC-001-100-D00-0
 70
     0
 62
     1
  6
ByBlock
370
    -3
390
F
  0
LAYER
  5
162
330
2
100
AcDbSymbolTableRecord
100
AcDbLayerTableRecord
  2
Defpoints
 70
     0
 62
     7
  6
Continuous
290
     0
370
    -3
390
F
  0
ENDTAB
  0
TABLE
  2
STYLE
  5
3
330
0
100
AcDbSymbolTable
 70
     3
  0
STYLE
  5
11
330
3
100
AcDbSymbolTableRecord
100
AcDbTextStyleTableRecord
  2
Standard
 70
     0
 40
0.0
 41
1.0
 50
0.0
 71
     0
 42
2.5
  3
txt
  4

  0
STYLE
  5
2F
330
3
100
AcDbSymbolTableRecord
100
AcDbTextStyleTableRecord
  2
LCTX15-400-0-0-Arial
 70
     0
 40
0.0
 41
0.8
 50
0.0
 71
     0
 42
3.5
  3

  4

1001
ACAD
1000
Arial
1071
 16777218
  0
STYLE
  5
15F
330
3
100
AcDbSymbolTableRecord
100
AcDbTextStyleTableRecord
  2
LCTX15-400-0-0pDIN-Schrift
 70
     0
 40
2.5
 41
0.8
 50
15.0
 71
     0
 42
3.5
  3
STANDARD
  4

  0
ENDTAB
  0
TABLE
  2
VIEW
  5
6
330
0
100
AcDbSymbolTable
 70
     0
  0
ENDTAB
  0
TABLE
  2
UCS
  5
7
330
0
100
AcDbSymbolTable
 70
     0
  0
ENDTAB
  0
TABLE
  2
APPID
  5
9
330
0
100
AcDbSymbolTable
 70
     1
  0
APPID
  5
12
330
9
100
AcDbSymbolTableRecord
100
AcDbRegAppTableRecord
  2
ACAD
 70
     0
  0
ENDTAB
  0
TABLE
  2
DIMSTYLE
  5
A
330
0
100
AcDbSymbolTable
 70
     2
100
AcDbDimStyleTable
  0
DIMSTYLE
105
27
330
A
100
AcDbSymbolTableRecord
100
AcDbDimStyleTableRecord
  2
ISO-25
 70
     0
 41
2.5
 42
0.625
 43
3.75
 44
1.25
 73
     0
 74
     0
 77
     1
 78
     8
140
2.5
141
2.5
143
0.03937
147
0.625
171
     3
172
     1
271
     2
272
     2
274
     3
278
    44
283
     0
284
     8
340
11
  0
DIMSTYLE
105
160
102
{ACAD_REACTORS
330
161
330
588
330
596
330
5A3
330
5B0
330
5BE
330
5CC
330
5DB
330
5E9
330
5F6
102
}
330
A
100
AcDbSymbolTableRecord
100
AcDbDimStyleTableRecord
  2
LC-DIM-L-0100-02-02
 70
     0
 40
5.0
 41
10.0
 42
0.0
 43
7.5
 44
1.8
 73
     0
 74
     0
 77
     1
 78
     8
 79
     2
140
10.0
141
0.0
146
0.71
147
1.5
176
     2
177
     2
178
     2
179
     2
271
     2
278
    44
289
     1
340
15F
  0
ENDTAB
  0
TABLE
  2
BLOCK_RECORD
  5
1
330
0
100
AcDbSymbolTable
 70
    51
  0
BLOCK_RECORD
  5
1F
330
1
100
AcDbSymbolTableRecord
100
AcDbBlockTableRecord
  2
*Model_Space
340
22
  0
BLOCK_RECORD
  5
1B
330
1
100
AcDbSymbolTableRecord
100
AcDbBlockTableRecord
  2
*Paper_Space
340
1E
  0
BLOCK_RECORD
  5
23
330
1
100
AcDbSymbolTableRecord
100
AcDbBlockTableRecord
  2
*Paper_Space0
340
26
  0
BLOCK_RECORD
  5
48
330
1
100
AcDbSymbolTableRecord
100
AcDbBlockTableRecord
  2
KLON1
340
0
102
{BLKREFS
331
4E
102
}
  0
BLOCK_RECORD
  5
4F
330
1
100
AcDbSymbolTableRecord
100
AcDbBlockTableRecord
  2
KLON2
340
0
102
{BLKREFS
331
56
102
}
  0
BLOCK_RECORD
  5
58
330
1
100
AcDbSymbolTableRecord
100
AcDbBlockTableRecord
  2
KLON3
340
0
102
{BLKREFS
331
5D
102
}
  0
BLOCK_RECORD
  5
5E
330
1
100
AcDbSymbolTableRecord
100
AcDbBlockTableRecord
  2
KLON4
340
0
102
{BLKREFS
331
63
102
}
  0
BLOCK_RECORD
  5
64
330
1
100
AcDbSymbolTableRecord
100
AcDbBlockTableRecord
  2
KLON5
340
0
102
{BLKREFS
331
69
102
}
  0
BLOCK_RECORD
  5
6B
330
1
100
AcDbSymbolTableRecord
100
AcDbBlockTableRecord
  2
KLON6
340
0
102
{BLKREFS
331
72
102
}
  0
BLOCK_RECORD
  5
73
330
1
100
AcDbSymbolTableRecord
100
AcDbBlockTableRecord
  2
KLON7
340
0
102
{BLKREFS
331
79
102
}
  0
BLOCK_RECORD
  5
7B
330
1
100
AcDbSymbolTableRecord
100
AcDbBlockTableRecord
  2
KLON8
340
0
102
{BLKREFS
331
80
102
}
  0
BLOCK_RECORD
  5
8E
330
1
100
AcDbSymbolTableRecord
100
AcDbBlockTableRecord
  2
KLON9
340
0
102
{BLKREFS
331
93
102
}
  0
BLOCK_RECORD
  5
94
330
1
100
AcDbSymbolTableRecord
100
AcDbBlockTableRecord
  2
KLON10
340
0
102
{BLKREFS
331
99
102
}
  0
BLOCK_RECORD
  5
9B
330
1
100
AcDbSymbolTableRecord
100
AcDbBlockTableRecord
  2
KLON11
340
0
102
{BLKREFS
331
A1
102
}
  0
BLOCK_RECORD
  5
A2
330
1
100
AcDbSymbolTableRecord
100
AcDbBlockTableRecord
  2
KLON12
340
0
102
{BLKREFS
331
A7
102
}
  0
BLOCK_RECORD
  5
A8
330
1
100
AcDbSymbolTableRecord
100
AcDbBlockTableRecord
  2
KLON13
340
0
102
{BLKREFS
331
AE
102
}
  0
BLOCK_RECORD
  5
AF
330
1
100
AcDbSymbolTableRecord
100
AcDbBlockTableRecord
  2
KLON14
340
0
102
{BLKREFS
331
B5
102
}
  0
BLOCK_RECORD
  5
B6
330
1
100
AcDbSymbolTableRecord
100
AcDbBlockTableRecord
  2
KLON15
340
0
102
{BLKREFS
331
BC
102
}
  0
BLOCK_RECORD
  5
BD
330
1
100
AcDbSymbolTableRecord
100
AcDbBlockTableRecord
  2
KLON16
340
0
102
{BLKREFS
331
C2
102
}
  0
BLOCK_RECORD
  5
163
330
1
100
AcDbSymbolTableRecord
100
AcDbBlockTableRecord
  2
*D17
340
0
  0
BLOCK_RECORD
  5
383
330
1
100
AcDbSymbolTableRecord
100
AcDbBlockTableRecord
  2
KLON17
340
0
102
{BLKREFS
331
393
102
}
  0
BLOCK_RECORD
  5
394
330
1
100
AcDbSymbolTableRecord
100
AcDbBlockTableRecord
  2
KLON18
340
0
102
{BLKREFS
331
3A7
102
}
  0
BLOCK_RECORD
  5
3AB
330
1
100
AcDbSymbolTableRecord
100
AcDbBlockTableRecord
  2
KLON19
340
0
102
{BLKREFS
331
3B0
102
}
  0
BLOCK_RECORD
  5
4DD
330
1
100
AcDbSymbolTableRecord
100
AcDbBlockTableRecord
  2
KLON20
340
0
102
{BLKREFS
331
4E6
102
}
  0
BLOCK_RECORD
  5
4E7
330
1
100
AcDbSymbolTableRecord
100
AcDbBlockTableRecord
  2
KLON21
340
0
102
{BLKREFS
331
4F0
102
}
  0
BLOCK_RECORD
  5
508
330
1
100
AcDbSymbolTableRecord
100
AcDbBlockTableRecord
  2
KLON22
340
0
102
{BLKREFS
331
510
102
}
  0
BLOCK_RECORD
  5
511
330
1
100
AcDbSymbolTableRecord
100
AcDbBlockTableRecord
  2
KLON23
340
0
102
{BLKREFS
331
51D
102
}
  0
BLOCK_RECORD
  5
51E
330
1
100
AcDbSymbolTableRecord
100
AcDbBlockTableRecord
  2
KLON24
340
0
102
{BLKREFS
331
52A
102
}
  0
BLOCK_RECORD
  5
589
330
1
100
AcDbSymbolTableRecord
100
AcDbBlockTableRecord
  2
*D26
340
0
  0
BLOCK_RECORD
  5
597
330
1
100
AcDbSymbolTableRecord
100
AcDbBlockTableRecord
  2
*D27
340
0
  0
BLOCK_RECORD
  5
5A4
330
1
100
AcDbSymbolTableRecord
100
AcDbBlockTableRecord
  2
*D28
340
0
  0
BLOCK_RECORD
  5
5B1
330
1
100
AcDbSymbolTableRecord
100
AcDbBlockTableRecord
  2
*D29
340
0
  0
BLOCK_RECORD
  5
5BF
330
1
100
AcDbSymbolTableRecord
100
AcDbBlockTableRecord
  2
*D30
340
0
  0
BLOCK_RECORD
  5
5CD
330
1
100
AcDbSymbolTableRecord
100
AcDbBlockTableRecord
  2
*D31
340
0
  0
BLOCK_RECORD
  5
5DC
330
1
100
AcDbSymbolTableRecord
100
AcDbBlockTableRecord
  2
*D32
340
0
  0
BLOCK_RECORD
  5
5EA
330
1
100
AcDbSymbolTableRecord
100
AcDbBlockTableRecord
  2
*D33
340
0
  0
BLOCK_RECORD
  5
5F7
330
1
100
AcDbSymbolTableRecord
100
AcDbBlockTableRecord
  2
*D34
340
0
  0
BLOCK_RECORD
  5
603
330
1
100
AcDbSymbolTableRecord
100
AcDbBlockTableRecord
  2
KLON25
340
0
102
{BLKREFS
331
61C
102
}
  0
BLOCK_RECORD
  5
61D
330
1
100
AcDbSymbolTableRecord
100
AcDbBlockTableRecord
  2
KLON26
340
0
102
{BLKREFS
331
636
102
}
  0
BLOCK_RECORD
  5
638
330
1
100
AcDbSymbolTableRecord
100
AcDbBlockTableRecord
  2
KLON27
340
0
102
{BLKREFS
331
63E
102
}
  0
BLOCK_RECORD
  5
63F
330
1
100
AcDbSymbolTableRecord
100
AcDbBlockTableRecord
  2
KLON28
340
0
102
{BLKREFS
331
646
102
}
  0
BLOCK_RECORD
  5
647
330
1
100
AcDbSymbolTableRecord
100
AcDbBlockTableRecord
  2
KLON29
340
0
102
{BLKREFS
331
655
102
}
  0
BLOCK_RECORD
  5
656
330
1
100
AcDbSymbolTableRecord
100
AcDbBlockTableRecord
  2
KLON30
340
0
102
{BLKREFS
331
65D
102
}
  0
BLOCK_RECORD
  5
65E
330
1
100
AcDbSymbolTableRecord
100
AcDbBlockTableRecord
  2
KLON31
340
0
102
{BLKREFS
331
663
102
}
  0
BLOCK_RECORD
  5
666
330
1
100
AcDbSymbolTableRecord
100
AcDbBlockTableRecord
  2
KLON32
340
0
102
{BLKREFS
331
66B
102
}
  0
BLOCK_RECORD
  5
66C
330
1
100
AcDbSymbolTableRecord
100
AcDbBlockTableRecord
  2
KLON33
340
0
102
{BLKREFS
331
679
102
}
  0
BLOCK_RECORD
  5
67A
330
1
100
AcDbSymbolTableRecord
100
AcDbBlockTableRecord
  2
KLON34
340
0
102
{BLKREFS
331
67F
102
}
  0
BLOCK_RECORD
  5
681
330
1
100
AcDbSymbolTableRecord
100
AcDbBlockTableRecord
  2
KLON35
340
0
102
{BLKREFS
331
687
102
}
  0
BLOCK_RECORD
  5
68A
330
1
100
AcDbSymbolTableRecord
100
AcDbBlockTableRecord
  2
KLON36
340
0
102
{BLKREFS
331
68F
102
}
  0
BLOCK_RECORD
  5
692
330
1
100
AcDbSymbolTableRecord
100
AcDbBlockTableRecord
  2
KLON37
340
0
102
{BLKREFS
331
697
102
}
  0
BLOCK_RECORD
  5
69A
330
1
100
AcDbSymbolTableRecord
100
AcDbBlockTableRecord
  2
KLON38
340
0
102
{BLKREFS
331
6A0
102
}
  0
BLOCK_RECORD
  5
6A3
330
1
100
AcDbSymbolTableRecord
100
AcDbBlockTableRecord
  2
KLON39
340
0
102
{BLKREFS
331
6A8
102
}
  0
BLOCK_RECORD
  5
6AB
330
1
100
AcDbSymbolTableRecord
100
AcDbBlockTableRecord
  2
KLON40
340
0
102
{BLKREFS
331
6B0
102
}
  0
ENDTAB
  0
ENDSEC
  0
SECTION
  2
BLOCKS
  0
BLOCK
  5
20
330
1F
100
AcDbEntity
  8
0
100
AcDbBlockBegin
  2
*Model_Space
 70
     0
 71
     0
 10
0.0
 20
0.0
 30
0.0
  3
*Model_Space
  1

  0
ENDBLK
  5
21
330
1F
100
AcDbEntity
  8
0
100
AcDbBlockEnd
  0
BLOCK
  5
1C
330
1B
100
AcDbEntity
 67
     1
  8
0
100
AcDbBlockBegin
  2
*Paper_Space
 70
     0
 71
     0
 10
0.0
 20
0.0
 30
0.0
  3
*Paper_Space
  1

  0
ENDBLK
  5
1D
330
1B
100
AcDbEntity
 67
     1
  8
0
100
AcDbBlockEnd
  0
BLOCK
  5
24
330
23
100
AcDbEntity
  8
0
100
AcDbBlockBegin
  2
*Paper_Space0
 70
     0
 71
     0
 10
0.0
 20
0.0
 30
0.0
  3
*Paper_Space0
  1

  0
ENDBLK
  5
25
330
23
100
AcDbEntity
  8
0
100
AcDbBlockEnd
  0
BLOCK
  5
49
330
48
100
AcDbEntity
  8
0
100
AcDbBlockBegin
  2
KLON1
 70
     0
 71
     0
 10
0.0
 20
0.0
 30
0.0
  3
KLON1
  1

  4
KLON1
  0
LINE
  5
4B
330
48
100
AcDbEntity
  8
LC-001-100-D00-0
 62
     7
370
    15
100
AcDbLine
 10
478.829906
 20
-48.574297
 30
0.0
 11
478.827671
 21
-48.588582
 31
0.0
  0
LINE
  5
4C
330
48
100
AcDbEntity
  8
LC-001-100-D00-0
 62
     7
370
    15
100
AcDbLine
 10
478.827671
 20
-48.588582
 30
0.0
 11
478.816376
 21
-48.66089
 31
0.0
  0
LINE
  5
4D
330
48
100
AcDbEntity
  8
LC-001-100-D00-0
 62
     7
370
    15
100
AcDbLine
 10
478.816376
 20
-48.66089
 30
0.0
 11
478.80374
 21
-48.741771
 31
0.0
  0
ENDBLK
  5
4A
330
48
100
AcDbEntity
  8
0
100
AcDbBlockEnd
  0
BLOCK
  5
50
330
4F
100
AcDbEntity
  8
0
100
AcDbBlockBegin
  2
KLON2
 70
     0
 71
     0
 10
0.0
 20
0.0
 30
0.0
  3
KLON2
  1

  4
KLON2
  0
LINE
  5
52
330
4F
100
AcDbEntity
  8
LC-001-100-D00-0
 62
     7
370
    15
100
AcDbLine
 10
478.80374
 20
-24.096433
 30
0.0
 11
478.816376
 21
-24.177314
 31
0.0
  0
LINE
  5
53
330
4F
100
AcDbEntity
  8
LC-001-100-D00-0
 62
     7
370
    15
100
AcDbLine
 10
478.816376
 20
-24.177314
 30
0.0
 11
478.825167
 21
-24.233523
 31
0.0
  0
LINE
  5
54
330
4F
100
AcDbEntity
  8
LC-001-100-D00-0
 62
     7
370
    15
100
AcDbLine
 10
478.825167
 20
-24.233523
 30
0.0
 11
478.827671
 21
-24.249621
 31
0.0
  0
LINE
  5
55
330
4F
100
AcDbEntity
  8
LC-001-100-D00-0
 62
     7
370
    15
100
AcDbLine
 10
478.827671
 20
-24.249621
 30
0.0
 11
478.829906
 21
-24.263907
 31
0.0
  0
ENDBLK
  5
51
330
4F
100
AcDbEntity
  8
0
100
AcDbBlockEnd
  0
BLOCK
  5
59
330
58
100
AcDbEntity
  8
0
100
AcDbBlockBegin
  2
KLON3
 70
     0
 71
     0
 10
0.0
 20
0.0
 30
0.0
  3
KLON3
  1

  4
KLON3
  0
LINE
  5
5B
330
58
100
AcDbEntity
  8
LC-001-100-D00-0
 62
     7
370
    15
100
AcDbLine
 10
478.80374
 20
-12.933741
 30
0.0
 11
478.81429
 21
-12.927831
 31
0.0
  0
LINE
  5
5C
330
58
100
AcDbEntity
  8
LC-001-100-D00-0
 62
     7
370
    15
100
AcDbLine
 10
478.81429
 20
-12.927831
 30
0.0
 11
478.829906
 21
-12.919103
 31
0.0
  0
ENDBLK
  5
5A
330
58
100
AcDbEntity
  8
0
100
AcDbBlockEnd
  0
BLOCK
  5
5F
330
5E
100
AcDbEntity
  8
0
100
AcDbBlockBegin
  2
KLON4
 70
     0
 71
     0
 10
0.0
 20
0.0
 30
0.0
  3
KLON4
  1

  4
KLON4
  0
LINE
  5
61
330
5E
100
AcDbEntity
  8
LC-001-100-D00-0
 62
     7
370
    15
100
AcDbLine
 10
478.80374
 20
-59.919101
 30
0.0
 11
478.811131
 21
-59.957274
 31
0.0
  0
LINE
  5
62
330
5E
100
AcDbEntity
  8
LC-001-100-D00-0
 62
     7
370
    15
100
AcDbLine
 10
478.811131
 20
-59.957274
 30
0.0
 11
478.829906
 21
-59.989759
 31
0.0
  0
ENDBLK
  5
60
330
5E
100
AcDbEntity
  8
0
100
AcDbBlockEnd
  0
BLOCK
  5
65
330
64
100
AcDbEntity
  8
0
100
AcDbBlockBegin
  2
KLON5
 70
     0
 71
     0
 10
0.0
 20
0.0
 30
0.0
  3
KLON5
  1

  4
KLON5
  0
LINE
  5
67
330
64
100
AcDbEntity
  8
LC-001-100-D00-0
 62
     7
370
    15
100
AcDbLine
 10
-305.143907
 20
-12.933741
 30
0.0
 11
-305.154457
 21
-12.927831
 31
0.0
  0
LINE
  5
68
330
64
100
AcDbEntity
  8
LC-001-100-D00-0
 62
     7
370
    15
100
AcDbLine
 10
-305.154457
 20
-12.927831
 30
0.0
 11
-305.170073
 21
-12.919103
 31
0.0
  0
ENDBLK
  5
66
330
64
100
AcDbEntity
  8
0
100
AcDbBlockEnd
  0
BLOCK
  5
6C
330
6B
100
AcDbEntity
  8
0
100
AcDbBlockBegin
  2
KLON6
 70
     0
 71
     0
 10
0.0
 20
0.0
 30
0.0
  3
KLON6
  1

  4
KLON6
  0
LINE
  5
6E
330
6B
100
AcDbEntity
  8
LC-001-100-D00-0
 62
     7
370
    15
100
AcDbLine
 10
-305.143907
 20
-24.096433
 30
0.0
 11
-305.156543
 21
-24.177314
 31
0.0
  0
LINE
  5
6F
330
6B
100
AcDbEntity
  8
LC-001-100-D00-0
 62
     7
370
    15
100
AcDbLine
 10
-305.156543
 20
-24.177314
 30
0.0
 11
-305.165335
 21
-24.233523
 31
0.0
  0
LINE
  5
70
330
6B
100
AcDbEntity
  8
LC-001-100-D00-0
 62
     7
370
    15
100
AcDbLine
 10
-305.165335
 20
-24.233523
 30
0.0
 11
-305.167838
 21
-24.249621
 31
0.0
  0
LINE
  5
71
330
6B
100
AcDbEntity
  8
LC-001-100-D00-0
 62
     7
370
    15
100
AcDbLine
 10
-305.167838
 20
-24.249621
 30
0.0
 11
-305.170073
 21
-24.263907
 31
0.0
  0
ENDBLK
  5
6D
330
6B
100
AcDbEntity
  8
0
100
AcDbBlockEnd
  0
BLOCK
  5
74
330
73
100
AcDbEntity
  8
0
100
AcDbBlockBegin
  2
KLON7
 70
     0
 71
     0
 10
0.0
 20
0.0
 30
0.0
  3
KLON7
  1

  4
KLON7
  0
LINE
  5
76
330
73
100
AcDbEntity
  8
LC-001-100-D00-0
 62
     7
370
    15
100
AcDbLine
 10
-305.170073
 20
-48.574297
 30
0.0
 11
-305.167838
 21
-48.588582
 31
0.0
  0
LINE
  5
77
330
73
100
AcDbEntity
  8
LC-001-100-D00-0
 62
     7
370
    15
100
AcDbLine
 10
-305.167838
 20
-48.588582
 30
0.0
 11
-305.156543
 21
-48.66089
 31
0.0
  0
LINE
  5
78
330
73
100
AcDbEntity
  8
LC-001-100-D00-0
 62
     7
370
    15
100
AcDbLine
 10
-305.156543
 20
-48.66089
 30
0.0
 11
-305.143907
 21
-48.741771
 31
0.0
  0
ENDBLK
  5
75
330
73
100
AcDbEntity
  8
0
100
AcDbBlockEnd
  0
BLOCK
  5
7C
330
7B
100
AcDbEntity
  8
0
100
AcDbBlockBegin
  2
KLON8
 70
     0
 71
     0
 10
0.0
 20
0.0
 30
0.0
  3
KLON8
  1

  4
KLON8
  0
LINE
  5
7E
330
7B
100
AcDbEntity
  8
LC-001-100-D00-0
 62
     7
370
    15
100
AcDbLine
 10
-305.143907
 20
-59.919101
 30
0.0
 11
-305.151298
 21
-59.957274
 31
0.0
  0
LINE
  5
7F
330
7B
100
AcDbEntity
  8
LC-001-100-D00-0
 62
     7
370
    15
100
AcDbLine
 10
-305.151298
 20
-59.957274
 30
0.0
 11
-305.170073
 21
-59.989759
 31
0.0
  0
ENDBLK
  5
7D
330
7B
100
AcDbEntity
  8
0
100
AcDbBlockEnd
  0
BLOCK
  5
8F
330
8E
100
AcDbEntity
  8
0
100
AcDbBlockBegin
  2
KLON9
 70
     0
 71
     0
 10
0.0
 20
0.0
 30
0.0
  3
KLON9
  1

  4
KLON9
  0
LINE
  5
91
330
8E
100
AcDbEntity
  8
LC-001-100-D00-0
 62
     7
370
    15
100
AcDbLine
 10
478.775219
 20
-48.752511
 30
0.0
 11
478.791372
 21
-48.746426
 31
0.0
  0
LINE
  5
92
330
8E
100
AcDbEntity
  8
LC-001-100-D00-0
 62
     7
370
    15
100
AcDbLine
 10
478.791372
 20
-48.746426
 30
0.0
 11
478.80374
 21
-48.741771
 31
0.0
  0
ENDBLK
  5
90
330
8E
100
AcDbEntity
  8
0
100
AcDbBlockEnd
  0
BLOCK
  5
95
330
94
100
AcDbEntity
  8
0
100
AcDbBlockBegin
  2
KLON10
 70
     0
 71
     0
 10
0.0
 20
0.0
 30
0.0
  3
KLON10
  1

  4
KLON10
  0
LINE
  5
97
330
94
100
AcDbEntity
  8
LC-001-100-D00-0
 62
     7
370
    15
100
AcDbLine
 10
-305.115386
 20
-48.752511
 30
0.0
 11
-305.131539
 21
-48.746426
 31
0.0
  0
LINE
  5
98
330
94
100
AcDbEntity
  8
LC-001-100-D00-0
 62
     7
370
    15
100
AcDbLine
 10
-305.131539
 20
-48.746426
 30
0.0
 11
-305.143907
 21
-48.741771
 31
0.0
  0
ENDBLK
  5
96
330
94
100
AcDbEntity
  8
0
100
AcDbBlockEnd
  0
BLOCK
  5
9C
330
9B
100
AcDbEntity
  8
0
100
AcDbBlockBegin
  2
KLON11
 70
     0
 71
     0
 10
0.0
 20
0.0
 30
0.0
  3
KLON11
  1

  4
KLON11
  0
LINE
  5
9E
330
9B
100
AcDbEntity
  8
LC-001-100-D00-0
 62
     7
370
    15
100
AcDbLine
 10
341.816858
 20
-42.278319
 30
0.0
 11
341.828243
 21
-41.864845
 31
0.0
  0
LINE
  5
9F
330
9B
100
AcDbEntity
  8
LC-001-100-D00-0
 62
     7
370
    15
100
AcDbLine
 10
341.828243
 20
-41.864845
 30
0.0
 11
341.839925
 21
-41.441587
 31
0.0
  0
LINE
  5
A0
330
9B
100
AcDbEntity
  8
LC-001-100-D00-0
 62
     7
370
    15
100
AcDbLine
 10
341.839925
 20
-41.441587
 30
0.0
 11
341.851727
 21
-41.013408
 31
0.0
  0
ENDBLK
  5
9D
330
9B
100
AcDbEntity
  8
0
100
AcDbBlockEnd
  0
BLOCK
  5
A3
330
A2
100
AcDbEntity
  8
0
100
AcDbBlockBegin
  2
KLON12
 70
     0
 71
     0
 10
0.0
 20
0.0
 30
0.0
  3
KLON12
  1

  4
KLON12
  0
LINE
  5
A5
330
A2
100
AcDbEntity
  8
LC-001-100-D00-0
 62
     7
370
    15
100
AcDbLine
 10
478.775219
 20
-24.085693
 30
0.0
 11
478.791372
 21
-24.091777
 31
0.0
  0
LINE
  5
A6
330
A2
100
AcDbEntity
  8
LC-001-100-D00-0
 62
     7
370
    15
100
AcDbLine
 10
478.791372
 20
-24.091777
 30
0.0
 11
478.80374
 21
-24.096433
 31
0.0
  0
ENDBLK
  5
A4
330
A2
100
AcDbEntity
  8
0
100
AcDbBlockEnd
  0
BLOCK
  5
A9
330
A8
100
AcDbEntity
  8
0
100
AcDbBlockBegin
  2
KLON13
 70
     0
 71
     0
 10
0.0
 20
0.0
 30
0.0
  3
KLON13
  1

  4
KLON13
  0
LINE
  5
AB
330
A8
100
AcDbEntity
  8
LC-001-100-D00-0
 62
     7
370
    15
100
AcDbLine
 10
341.851727
 20
-31.824796
 30
0.0
 11
341.839925
 21
-31.396617
 31
0.0
  0
LINE
  5
AC
330
A8
100
AcDbEntity
  8
LC-001-100-D00-0
 62
     7
370
    15
100
AcDbLine
 10
341.839925
 20
-31.396617
 30
0.0
 11
341.828243
 21
-30.973359
 31
0.0
  0
LINE
  5
AD
330
A8
100
AcDbEntity
  8
LC-001-100-D00-0
 62
     7
370
    15
100
AcDbLine
 10
341.828243
 20
-30.973359
 30
0.0
 11
341.816858
 21
-30.559885
 31
0.0
  0
ENDBLK
  5
AA
330
A8
100
AcDbEntity
  8
0
100
AcDbBlockEnd
  0
BLOCK
  5
B0
330
AF
100
AcDbEntity
  8
0
100
AcDbBlockBegin
  2
KLON14
 70
     0
 71
     0
 10
0.0
 20
0.0
 30
0.0
  3
KLON14
  1

  4
KLON14
  0
LINE
  5
B2
330
AF
100
AcDbEntity
  8
LC-001-100-D00-0
 62
     7
370
    15
100
AcDbLine
 10
-168.157026
 20
-42.278319
 30
0.0
 11
-168.16841
 21
-41.864845
 31
0.0
  0
LINE
  5
B3
330
AF
100
AcDbEntity
  8
LC-001-100-D00-0
 62
     7
370
    15
100
AcDbLine
 10
-168.16841
 20
-41.864845
 30
0.0
 11
-168.180093
 21
-41.441587
 31
0.0
  0
LINE
  5
B4
330
AF
100
AcDbEntity
  8
LC-001-100-D00-0
 62
     7
370
    15
100
AcDbLine
 10
-168.180093
 20
-41.441587
 30
0.0
 11
-168.191894
 21
-41.013408
 31
0.0
  0
ENDBLK
  5
B1
330
AF
100
AcDbEntity
  8
0
100
AcDbBlockEnd
  0
BLOCK
  5
B7
330
B6
100
AcDbEntity
  8
0
100
AcDbBlockBegin
  2
KLON15
 70
     0
 71
     0
 10
0.0
 20
0.0
 30
0.0
  3
KLON15
  1

  4
KLON15
  0
LINE
  5
B9
330
B6
100
AcDbEntity
  8
LC-001-100-D00-0
 62
     7
370
    15
100
AcDbLine
 10
-168.191894
 20
-31.824796
 30
0.0
 11
-168.180093
 21
-31.396617
 31
0.0
  0
LINE
  5
BA
330
B6
100
AcDbEntity
  8
LC-001-100-D00-0
 62
     7
370
    15
100
AcDbLine
 10
-168.180093
 20
-31.396617
 30
0.0
 11
-168.16841
 21
-30.973359
 31
0.0
  0
LINE
  5
BB
330
B6
100
AcDbEntity
  8
LC-001-100-D00-0
 62
     7
370
    15
100
AcDbLine
 10
-168.16841
 20
-30.973359
 30
0.0
 11
-168.157026
 21
-30.559885
 31
0.0
  0
ENDBLK
  5
B8
330
B6
100
AcDbEntity
  8
0
100
AcDbBlockEnd
  0
BLOCK
  5
BE
330
BD
100
AcDbEntity
  8
0
100
AcDbBlockBegin
  2
KLON16
 70
     0
 71
     0
 10
0.0
 20
0.0
 30
0.0
  3
KLON16
  1

  4
KLON16
  0
LINE
  5
C0
330
BD
100
AcDbEntity
  8
LC-001-100-D00-0
 62
     7
370
    15
100
AcDbLine
 10
-305.115386
 20
-24.085693
 30
0.0
 11
-305.131539
 21
-24.091777
 31
0.0
  0
LINE
  5
C1
330
BD
100
AcDbEntity
  8
LC-001-100-D00-0
 62
     7
370
    15
100
AcDbLine
 10
-305.131539
 20
-24.091777
 30
0.0
 11
-305.143907
 21
-24.096433
 31
0.0
  0
ENDBLK
  5
BF
330
BD
100
AcDbEntity
  8
0
100
AcDbBlockEnd
  0
BLOCK
  5
16D
330
163
100
AcDbEntity
  8
0
100
AcDbBlockBegin
  2
*D17
 70
     1
 71
     0
 10
0.0
 20
0.0
 30
0.0
  3
*D17
  1

  0
LINE
  5
164
330
163
100
AcDbEntity
  8
LC-001-100-D00-0
 62
     2
370
    -2
100
AcDbLine
 10
531.829916
 20
41.080898
 30
0.0
 11
634.33273
 21
41.080898
 31
0.0
  0
LINE
  5
165
330
163
100
AcDbEntity
  8
LC-001-100-D00-0
 62
     2
370
    -2
100
AcDbLine
 10
531.829916
 20
-113.919102
 30
0.0
 11
634.33273
 21
-113.919102
 31
0.0
  0
LINE
  5
166
330
163
100
AcDbEntity
  8
LC-001-100-D00-0
 62
     2
370
    -2
100
AcDbLine
 10
625.33273
 20
-8.919102
 30
0.0
 11
625.33273
 21
-63.919102
 31
0.0
  0
SOLID
  5
167
330
163
100
AcDbEntity
  8
LC-001-100-D00-0
 62
     2
100
AcDbTrace
 10
633.666064
 20
-8.919102
 30
0.0
 11
616.999397
 21
-8.919102
 31
0.0
 12
625.33273
 22
41.080898
 32
0.0
 13
625.33273
 23
41.080898
 33
0.0
  0
SOLID
  5
168
330
163
100
AcDbEntity
  8
LC-001-100-D00-0
 62
     2
100
AcDbTrace
 10
616.999397
 20
-63.919102
 30
0.0
 11
633.666064
 21
-63.919102
 31
0.0
 12
625.33273
 22
-113.919102
 32
0.0
 13
625.33273
 23
-113.919102
 33
0.0
  0
MTEXT
  5
169
330
163
100
AcDbEntity
  8
LC-001-100-D00-0
 62
     2
100
AcDbMText
 10
570.33273
 20
-45.507487
 30
0.0
 40
50.0
 41
0.0
 71
     5
 72
     1
  1
\A1;155
  7
LCTX15-400-0-0pDIN-Schrift
 11
6.123031769111886E-17
 21
1.0
 31
0.0
 73
     1
 44
1.0
  0
POINT
  5
16A
330
163
100
AcDbEntity
  8
Defpoints
 62
     0
100
AcDbPoint
 10
531.829916
 20
41.080898
 30
0.0
  0
POINT
  5
16B
330
163
100
AcDbEntity
  8
Defpoints
 62
     0
100
AcDbPoint
 10
531.829916
 20
-113.919102
 30
0.0
  0
POINT
  5
16C
330
163
100
AcDbEntity
  8
Defpoints
 62
     0
100
AcDbPoint
 10
625.33273
 20
-113.919102
 30
0.0
  0
ENDBLK
  5
16E
330
163
100
AcDbEntity
  8
0
100
AcDbBlockEnd
  0
BLOCK
  5
384
330
383
100
AcDbEntity
  8
0
100
AcDbBlockBegin
  2
KLON17
 70
     0
 71
     0
 10
0.0
 20
0.0
 30
0.0
  3
KLON17
  1

  4
KLON17
  0
LINE
  5
386
330
383
100
AcDbEntity
  8
LC-001-100-D00-0
 62
     7
370
    15
100
AcDbLine
 10
160.829905
 20
270.106061
 30
0.0
 11
160.827178
 21
270.106098
 31
0.0
  0
LINE
  5
387
330
383
100
AcDbEntity
  8
LC-001-100-D00-0
 62
     7
370
    15
100
AcDbLine
 10
160.827178
 20
270.106098
 30
0.0
 11
160.822596
 21
270.106291
 31
0.0
  0
LINE
  5
388
330
383
100
AcDbEntity
  8
LC-001-100-D00-0
 62
     7
370
    15
100
AcDbLine
 10
160.822596
 20
270.106291
 30
0.0
 11
160.813723
 21
270.107126
 31
0.0
  0
LINE
  5
389
330
383
100
AcDbEntity
  8
LC-001-100-D00-0
 62
     7
370
    15
100
AcDbLine
 10
160.813723
 20
270.107126
 30
0.0
 11
160.811443
 21
270.107431
 31
0.0
  0
LINE
  5
38A
330
383
100
AcDbEntity
  8
LC-001-100-D00-0
 62
     7
370
    15
100
AcDbLine
 10
160.811443
 20
270.107431
 30
0.0
 11
160.810869
 21
270.107513
 31
0.0
  0
LINE
  5
38B
330
383
100
AcDbEntity
  8
LC-001-100-D00-0
 62
     7
370
    15
100
AcDbLine
 10
160.810869
 20
270.107513
 30
0.0
 11
160.810728
 21
270.107536
 31
0.0
  0
LINE
  5
38C
330
383
100
AcDbEntity
  8
LC-001-100-D00-0
 62
     7
370
    15
100
AcDbLine
 10
160.810728
 20
270.107536
 30
0.0
 11
160.691548
 21
270.156806
 31
0.0
  0
LINE
  5
38D
330
383
100
AcDbEntity
  8
LC-001-100-D00-0
 62
     7
370
    15
100
AcDbLine
 10
160.691548
 20
270.156806
 30
0.0
 11
159.850944
 21
270.969702
 31
0.0
  0
LINE
  5
38E
330
383
100
AcDbEntity
  8
LC-001-100-D00-0
 62
     7
370
    15
100
AcDbLine
 10
159.850944
 20
270.969702
 30
0.0
 11
158.762265
 21
272.295026
 31
0.0
  0
LINE
  5
38F
330
383
100
AcDbEntity
  8
LC-001-100-D00-0
 62
     7
370
    15
100
AcDbLine
 10
158.762265
 20
272.295026
 30
0.0
 11
157.336403
 21
274.198188
 31
0.0
  0
LINE
  5
390
330
383
100
AcDbEntity
  8
LC-001-100-D00-0
 62
     7
370
    15
100
AcDbLine
 10
157.336403
 20
274.198188
 30
0.0
 11
155.284058
 21
277.163846
 31
0.0
  0
LINE
  5
391
330
383
100
AcDbEntity
  8
LC-001-100-D00-0
 62
     7
370
    15
100
AcDbLine
 10
155.284058
 20
277.163846
 30
0.0
 11
152.913388
 21
280.805176
 31
0.0
  0
LINE
  5
392
330
383
100
AcDbEntity
  8
LC-001-100-D00-0
 62
     7
370
    15
100
AcDbLine
 10
152.913388
 20
280.805176
 30
0.0
 11
152.805198
 21
280.971555
 31
0.0
  0
ENDBLK
  5
385
330
383
100
AcDbEntity
  8
0
100
AcDbBlockEnd
  0
BLOCK
  5
395
330
394
100
AcDbEntity
  8
0
100
AcDbBlockBegin
  2
KLON18
 70
     0
 71
     0
 10
0.0
 20
0.0
 30
0.0
  3
KLON18
  1

  4
KLON18
  0
LINE
  5
397
330
394
100
AcDbEntity
  8
LC-001-100-D00-0
 62
     7
370
    15
100
AcDbLine
 10
152.805198
 20
280.971555
 30
0.0
 11
152.063589
 21
283.350108
 31
0.0
  0
LINE
  5
398
330
394
100
AcDbEntity
  8
LC-001-100-D00-0
 62
     7
370
    15
100
AcDbLine
 10
152.063589
 20
283.350108
 30
0.0
 11
151.428852
 21
285.930535
 31
0.0
  0
LINE
  5
399
330
394
100
AcDbEntity
  8
LC-001-100-D00-0
 62
     7
370
    15
100
AcDbLine
 10
151.428852
 20
285.930535
 30
0.0
 11
150.909644
 21
289.062714
 31
0.0
  0
LINE
  5
39A
330
394
100
AcDbEntity
  8
LC-001-100-D00-0
 62
     7
370
    15
100
AcDbLine
 10
150.909644
 20
289.062714
 30
0.0
 11
150.672804
 21
292.399591
 31
0.0
  0
LINE
  5
39B
330
394
100
AcDbEntity
  8
LC-001-100-D00-0
 62
     7
370
    15
100
AcDbLine
 10
150.672804
 20
292.399591
 30
0.0
 11
150.763724
 21
295.66936
 31
0.0
  0
LINE
  5
39C
330
394
100
AcDbEntity
  8
LC-001-100-D00-0
 62
     7
370
    15
100
AcDbLine
 10
150.763724
 20
295.66936
 30
0.0
 11
151.17554
 21
298.960736
 31
0.0
  0
LINE
  5
39D
330
394
100
AcDbEntity
  8
LC-001-100-D00-0
 62
     7
370
    15
100
AcDbLine
 10
151.17554
 20
298.960736
 30
0.0
 11
151.819434
 21
301.953523
 31
0.0
  0
LINE
  5
39E
330
394
100
AcDbEntity
  8
LC-001-100-D00-0
 62
     7
370
    15
100
AcDbLine
 10
151.819434
 20
301.953523
 30
0.0
 11
152.658064
 21
304.803452
 31
0.0
  0
LINE
  5
39F
330
394
100
AcDbEntity
  8
LC-001-100-D00-0
 62
     7
370
    15
100
AcDbLine
 10
152.658064
 20
304.803452
 30
0.0
 11
153.725725
 21
307.714475
 31
0.0
  0
LINE
  5
3A0
330
394
100
AcDbEntity
  8
LC-001-100-D00-0
 62
     7
370
    15
100
AcDbLine
 10
153.725725
 20
307.714475
 30
0.0
 11
154.8496
 21
310.324581
 31
0.0
  0
LINE
  5
3A1
330
394
100
AcDbEntity
  8
LC-001-100-D00-0
 62
     7
370
    15
100
AcDbLine
 10
154.8496
 20
310.324581
 30
0.0
 11
155.998018
 21
312.701291
 31
0.0
  0
LINE
  5
3A2
330
394
100
AcDbEntity
  8
LC-001-100-D00-0
 62
     7
370
    15
100
AcDbLine
 10
155.998018
 20
312.701291
 30
0.0
 11
156.969834
 21
314.555405
 31
0.0
  0
LINE
  5
3A3
330
394
100
AcDbEntity
  8
LC-001-100-D00-0
 62
     7
370
    15
100
AcDbLine
 10
156.969834
 20
314.555405
 30
0.0
 11
157.512072
 21
315.541675
 31
0.0
  0
LINE
  5
3A4
330
394
100
AcDbEntity
  8
LC-001-100-D00-0
 62
     7
370
    15
100
AcDbLine
 10
157.512072
 20
315.541675
 30
0.0
 11
157.798771
 21
316.051202
 31
0.0
  0
LINE
  5
3A5
330
394
100
AcDbEntity
  8
LC-001-100-D00-0
 62
     7
370
    15
100
AcDbLine
 10
157.798771
 20
316.051202
 30
0.0
 11
157.829631
 21
316.10558
 31
0.0
  0
LINE
  5
3A6
330
394
100
AcDbEntity
  8
LC-001-100-D00-0
 62
     7
370
    15
100
AcDbLine
 10
157.829631
 20
316.10558
 30
0.0
 11
157.829907
 21
316.106064
 31
0.0
  0
ENDBLK
  5
396
330
394
100
AcDbEntity
  8
0
100
AcDbBlockEnd
  0
BLOCK
  5
3AC
330
3AB
100
AcDbEntity
  8
0
100
AcDbBlockBegin
  2
KLON19
 70
     0
 71
     0
 10
0.0
 20
0.0
 30
0.0
  3
KLON19
  1

  4
KLON19
  0
LINE
  5
3AE
330
3AB
100
AcDbEntity
  8
LC-001-100-D00-0
 62
     7
370
    15
100
AcDbLine
 10
152.147356
 20
279.606065
 30
0.0
 11
152.154136
 21
279.62034
 31
0.0
  0
LINE
  5
3AF
330
3AB
100
AcDbEntity
  8
LC-001-100-D00-0
 62
     7
370
    15
100
AcDbLine
 10
152.154136
 20
279.62034
 30
0.0
 11
152.805198
 21
280.971555
 31
0.0
  0
ENDBLK
  5
3AD
330
3AB
100
AcDbEntity
  8
0
100
AcDbBlockEnd
  0
BLOCK
  5
4DE
330
4DD
100
AcDbEntity
  8
0
100
AcDbBlockBegin
  2
KLON20
 70
     0
 71
     0
 10
0.0
 20
0.0
 30
0.0
  3
KLON20
  1

  4
KLON20
  0
LINE
  5
4E0
330
4DD
100
AcDbEntity
  8
LC-001-100-D00-0
 62
     7
370
    15
100
AcDbLine
 10
469.737593
 20
348.274227
 30
0.0
 11
472.293887
 21
348.367523
 31
0.0
  0
LINE
  5
4E1
330
4DD
100
AcDbEntity
  8
LC-001-100-D00-0
 62
     7
370
    15
100
AcDbLine
 10
472.293887
 20
348.367523
 30
0.0
 11
474.439684
 21
348.445837
 31
0.0
  0
LINE
  5
4E2
330
4DD
100
AcDbEntity
  8
LC-001-100-D00-0
 62
     7
370
    15
100
AcDbLine
 10
474.439684
 20
348.445837
 30
0.0
 11
476.169828
 21
348.50898
 31
0.0
  0
LINE
  5
4E3
330
4DD
100
AcDbEntity
  8
LC-001-100-D00-0
 62
     7
370
    15
100
AcDbLine
 10
476.169828
 20
348.50898
 30
0.0
 11
477.480177
 21
348.556802
 31
0.0
  0
LINE
  5
4E4
330
4DD
100
AcDbEntity
  8
LC-001-100-D00-0
 62
     7
370
    15
100
AcDbLine
 10
477.480177
 20
348.556802
 30
0.0
 11
478.367571
 21
348.589189
 31
0.0
  0
LINE
  5
4E5
330
4DD
100
AcDbEntity
  8
LC-001-100-D00-0
 62
     7
370
    15
100
AcDbLine
 10
478.367571
 20
348.589189
 30
0.0
 11
478.829894
 21
348.606063
 31
0.0
  0
ENDBLK
  5
4DF
330
4DD
100
AcDbEntity
  8
0
100
AcDbBlockEnd
  0
BLOCK
  5
4E8
330
4E7
100
AcDbEntity
  8
0
100
AcDbBlockBegin
  2
KLON21
 70
     0
 71
     0
 10
0.0
 20
0.0
 30
0.0
  3
KLON21
  1

  4
KLON21
  0
LINE
  5
4EA
330
4E7
100
AcDbEntity
  8
LC-001-100-D00-0
 62
     7
370
    15
100
AcDbLine
 10
-296.077784
 20
348.274227
 30
0.0
 11
-298.634078
 21
348.367523
 31
0.0
  0
LINE
  5
4EB
330
4E7
100
AcDbEntity
  8
LC-001-100-D00-0
 62
     7
370
    15
100
AcDbLine
 10
-298.634078
 20
348.367523
 30
0.0
 11
-300.779875
 21
348.445837
 31
0.0
  0
LINE
  5
4EC
330
4E7
100
AcDbEntity
  8
LC-001-100-D00-0
 62
     7
370
    15
100
AcDbLine
 10
-300.779875
 20
348.445837
 30
0.0
 11
-302.510019
 21
348.50898
 31
0.0
  0
LINE
  5
4ED
330
4E7
100
AcDbEntity
  8
LC-001-100-D00-0
 62
     7
370
    15
100
AcDbLine
 10
-302.510019
 20
348.50898
 30
0.0
 11
-303.820368
 21
348.556802
 31
0.0
  0
LINE
  5
4EE
330
4E7
100
AcDbEntity
  8
LC-001-100-D00-0
 62
     7
370
    15
100
AcDbLine
 10
-303.820368
 20
348.556802
 30
0.0
 11
-304.707762
 21
348.589189
 31
0.0
  0
LINE
  5
4EF
330
4E7
100
AcDbEntity
  8
LC-001-100-D00-0
 62
     7
370
    15
100
AcDbLine
 10
-304.707762
 20
348.589189
 30
0.0
 11
-305.170085
 21
348.606063
 31
0.0
  0
ENDBLK
  5
4E9
330
4E7
100
AcDbEntity
  8
0
100
AcDbBlockEnd
  0
BLOCK
  5
509
330
508
100
AcDbEntity
  8
0
100
AcDbBlockBegin
  2
KLON22
 70
     0
 71
     0
 10
0.0
 20
0.0
 30
0.0
  3
KLON22
  1

  4
KLON22
  0
LINE
  5
50B
330
508
100
AcDbEntity
  8
LC-001-100-D00-0
 62
     7
370
    15
100
AcDbLine
 10
40.710289
 20
336.606061
 30
0.0
 11
40.723819
 21
336.447356
 31
0.0
  0
LINE
  5
50C
330
508
100
AcDbEntity
  8
LC-001-100-D00-0
 62
     7
370
    15
100
AcDbLine
 10
40.723819
 20
336.447356
 30
0.0
 11
40.885743
 21
335.862937
 31
0.0
  0
LINE
  5
50D
330
508
100
AcDbEntity
  8
LC-001-100-D00-0
 62
     7
370
    15
100
AcDbLine
 10
40.885743
 20
335.862937
 30
0.0
 11
41.135609
 21
335.416632
 31
0.0
  0
LINE
  5
50E
330
508
100
AcDbEntity
  8
LC-001-100-D00-0
 62
     7
370
    15
100
AcDbLine
 10
41.135609
 20
335.416632
 30
0.0
 11
41.446909
 21
335.157881
 31
0.0
  0
LINE
  5
50F
330
508
100
AcDbEntity
  8
LC-001-100-D00-0
 62
     7
370
    15
100
AcDbLine
 10
41.446909
 20
335.157881
 30
0.0
 11
41.584402
 21
335.114123
 31
0.0
  0
ENDBLK
  5
50A
330
508
100
AcDbEntity
  8
0
100
AcDbBlockEnd
  0
BLOCK
  5
512
330
511
100
AcDbEntity
  8
0
100
AcDbBlockBegin
  2
KLON23
 70
     0
 71
     0
 10
0.0
 20
0.0
 30
0.0
  3
KLON23
  1

  4
KLON23
  0
LINE
  5
514
330
511
100
AcDbEntity
  8
LC-001-100-D00-0
 62
     7
370
    15
100
AcDbLine
 10
478.802536
 20
350.106062
 30
0.0
 11
478.80185
 21
350.144044
 31
0.0
  0
LINE
  5
515
330
511
100
AcDbEntity
  8
LC-001-100-D00-0
 62
     7
370
    15
100
AcDbLine
 10
478.80185
 20
350.144044
 30
0.0
 11
478.799794
 21
350.256831
 31
0.0
  0
LINE
  5
516
330
511
100
AcDbEntity
  8
LC-001-100-D00-0
 62
     7
370
    15
100
AcDbLine
 10
478.799794
 20
350.256831
 30
0.0
 11
478.796426
 21
350.441
 31
0.0
  0
LINE
  5
517
330
511
100
AcDbEntity
  8
LC-001-100-D00-0
 62
     7
370
    15
100
AcDbLine
 10
478.796426
 20
350.441
 30
0.0
 11
478.791866
 21
350.690952
 31
0.0
  0
LINE
  5
518
330
511
100
AcDbEntity
  8
LC-001-100-D00-0
 62
     7
370
    15
100
AcDbLine
 10
478.791866
 20
350.690952
 30
0.0
 11
478.786264
 21
350.999095
 31
0.0
  0
LINE
  5
519
330
511
100
AcDbEntity
  8
LC-001-100-D00-0
 62
     7
370
    15
100
AcDbLine
 10
478.786264
 20
350.999095
 30
0.0
 11
478.779737
 21
351.356063
 31
0.0
  0
LINE
  5
51A
330
511
100
AcDbEntity
  8
LC-001-100-D00-0
 62
     7
370
    15
100
AcDbLine
 10
478.779737
 20
351.356063
 30
0.0
 11
478.772525
 21
351.751013
 31
0.0
  0
LINE
  5
51B
330
511
100
AcDbEntity
  8
LC-001-100-D00-0
 62
     7
370
    15
100
AcDbLine
 10
478.772525
 20
351.751013
 30
0.0
 11
478.764865
 21
352.171943
 31
0.0
  0
LINE
  5
51C
330
511
100
AcDbEntity
  8
LC-001-100-D00-0
 62
     7
370
    15
100
AcDbLine
 10
478.764865
 20
352.171943
 30
0.0
 11
478.756938
 21
352.606064
 31
0.0
  0
ENDBLK
  5
513
330
511
100
AcDbEntity
  8
0
100
AcDbBlockEnd
  0
BLOCK
  5
51F
330
51E
100
AcDbEntity
  8
0
100
AcDbBlockBegin
  2
KLON24
 70
     0
 71
     0
 10
0.0
 20
0.0
 30
0.0
  3
KLON24
  1

  4
KLON24
  0
LINE
  5
521
330
51E
100
AcDbEntity
  8
LC-001-100-D00-0
 62
     7
370
    15
100
AcDbLine
 10
-305.142727
 20
350.106062
 30
0.0
 11
-305.142041
 21
350.144044
 31
0.0
  0
LINE
  5
522
330
51E
100
AcDbEntity
  8
LC-001-100-D00-0
 62
     7
370
    15
100
AcDbLine
 10
-305.142041
 20
350.144044
 30
0.0
 11
-305.139985
 21
350.256831
 31
0.0
  0
LINE
  5
523
330
51E
100
AcDbEntity
  8
LC-001-100-D00-0
 62
     7
370
    15
100
AcDbLine
 10
-305.139985
 20
350.256831
 30
0.0
 11
-305.136617
 21
350.441
 31
0.0
  0
LINE
  5
524
330
51E
100
AcDbEntity
  8
LC-001-100-D00-0
 62
     7
370
    15
100
AcDbLine
 10
-305.136617
 20
350.441
 30
0.0
 11
-305.132058
 21
350.690952
 31
0.0
  0
LINE
  5
525
330
51E
100
AcDbEntity
  8
LC-001-100-D00-0
 62
     7
370
    15
100
AcDbLine
 10
-305.132058
 20
350.690952
 30
0.0
 11
-305.126455
 21
350.999095
 31
0.0
  0
LINE
  5
526
330
51E
100
AcDbEntity
  8
LC-001-100-D00-0
 62
     7
370
    15
100
AcDbLine
 10
-305.126455
 20
350.999095
 30
0.0
 11
-305.119928
 21
351.356063
 31
0.0
  0
LINE
  5
527
330
51E
100
AcDbEntity
  8
LC-001-100-D00-0
 62
     7
370
    15
100
AcDbLine
 10
-305.119928
 20
351.356063
 30
0.0
 11
-305.112716
 21
351.751013
 31
0.0
  0
LINE
  5
528
330
51E
100
AcDbEntity
  8
LC-001-100-D00-0
 62
     7
370
    15
100
AcDbLine
 10
-305.112716
 20
351.751013
 30
0.0
 11
-305.105057
 21
352.171943
 31
0.0
  0
LINE
  5
529
330
51E
100
AcDbEntity
  8
LC-001-100-D00-0
 62
     7
370
    15
100
AcDbLine
 10
-305.105057
 20
352.171943
 30
0.0
 11
-305.097129
 21
352.606064
 31
0.0
  0
ENDBLK
  5
520
330
51E
100
AcDbEntity
  8
0
100
AcDbBlockEnd
  0
BLOCK
  5
594
330
589
100
AcDbEntity
  8
0
100
AcDbBlockBegin
  2
*D26
 70
     1
 71
     0
 10
0.0
 20
0.0
 30
0.0
  3
*D26
  1

  0
LINE
  5
58A
330
589
100
AcDbEntity
  8
LC-001-100-D00-0
 62
     2
370
    -2
100
AcDbLine
 10
57.829904
 20
278.706063
 30
0.0
 11
-95.614426
 21
278.706063
 31
0.0
  0
LINE
  5
58B
330
589
100
AcDbEntity
  8
LC-001-100-D00-0
 62
     2
370
    -2
100
AcDbLine
 10
47.337025
 20
329.106063
 30
0.0
 11
-95.614426
 21
329.106063
 31
0.0
  0
LINE
  5
58C
330
589
100
AcDbEntity
  8
LC-001-100-D00-0
 62
     2
370
    -2
100
AcDbLine
 10
-86.614426
 20
379.106063
 30
0.0
 11
-86.614426
 21
429.106063
 31
0.0
  0
LINE
  5
58D
330
589
100
AcDbEntity
  8
LC-001-100-D00-0
 62
     2
370
    -2
100
AcDbLine
 10
-86.614426
 20
228.706063
 30
0.0
 11
-86.614426
 21
187.627109
 31
0.0
  0
SOLID
  5
58E
330
589
100
AcDbEntity
  8
LC-001-100-D00-0
 62
     2
100
AcDbTrace
 10
-78.281093
 20
228.706063
 30
0.0
 11
-94.947759
 21
228.706063
 31
0.0
 12
-86.614426
 22
278.706063
 32
0.0
 13
-86.614426
 23
278.706063
 33
0.0
  0
SOLID
  5
58F
330
589
100
AcDbEntity
  8
LC-001-100-D00-0
 62
     2
100
AcDbTrace
 10
-94.947759
 20
379.106063
 30
0.0
 11
-78.281093
 21
379.106063
 31
0.0
 12
-86.614426
 22
329.106063
 32
0.0
 13
-86.614426
 23
329.106063
 33
0.0
  0
MTEXT
  5
590
330
589
100
AcDbEntity
  8
LC-001-100-D00-0
 62
     2
100
AcDbMText
 10
-141.614426
 20
230.702513
 30
0.0
 40
50.0
 41
0.0
 71
     5
 72
     1
  1
\A1;50
  7
LCTX15-400-0-0pDIN-Schrift
 11
6.123031769111886E-17
 21
1.0
 31
0.0
 73
     1
 44
1.0
  0
POINT
  5
591
330
589
100
AcDbEntity
  8
Defpoints
 62
     0
100
AcDbPoint
 10
57.829904
 20
278.706063
 30
0.0
  0
POINT
  5
592
330
589
100
AcDbEntity
  8
Defpoints
 62
     0
100
AcDbPoint
 10
47.337025
 20
329.106063
 30
0.0
  0
POINT
  5
593
330
589
100
AcDbEntity
  8
Defpoints
 62
     0
100
AcDbPoint
 10
-86.614426
 20
329.106063
 30
0.0
  0
ENDBLK
  5
595
330
589
100
AcDbEntity
  8
0
100
AcDbBlockEnd
  0
BLOCK
  5
5A1
330
597
100
AcDbEntity
  8
0
100
AcDbBlockBegin
  2
*D27
 70
     1
 71
     0
 10
0.0
 20
0.0
 30
0.0
  3
*D27
  1

  0
LINE
  5
598
330
597
100
AcDbEntity
  8
LC-001-100-D00-0
 62
     2
370
    -2
100
AcDbLine
 10
12.829904
 20
279.606063
 30
0.0
 11
12.829904
 21
177.152513
 31
0.0
  0
LINE
  5
599
330
597
100
AcDbEntity
  8
LC-001-100-D00-0
 62
     2
370
    -2
100
AcDbLine
 10
160.829904
 20
319.856063
 30
0.0
 11
160.829904
 21
177.152513
 31
0.0
  0
LINE
  5
59A
330
597
100
AcDbEntity
  8
LC-001-100-D00-0
 62
     2
370
    -2
100
AcDbLine
 10
62.829904
 20
186.152513
 30
0.0
 11
110.829904
 21
186.152513
 31
0.0
  0
SOLID
  5
59B
330
597
100
AcDbEntity
  8
LC-001-100-D00-0
 62
     2
100
AcDbTrace
 10
62.829904
 20
194.485847
 30
0.0
 11
62.829904
 21
177.81918
 31
0.0
 12
12.829904
 22
186.152513
 32
0.0
 13
12.829904
 23
186.152513
 33
0.0
  0
SOLID
  5
59C
330
597
100
AcDbEntity
  8
LC-001-100-D00-0
 62
     2
100
AcDbTrace
 10
110.829904
 20
177.81918
 30
0.0
 11
110.829904
 21
194.485847
 31
0.0
 12
160.829904
 22
186.152513
 32
0.0
 13
160.829904
 23
186.152513
 33
0.0
  0
MTEXT
  5
59D
330
597
100
AcDbEntity
  8
LC-001-100-D00-0
 62
     2
100
AcDbMText
 10
81.054288
 20
241.152513
 30
0.0
 40
50.0
 41
0.0
 71
     5
 72
     1
  1
\A1;148
  7
LCTX15-400-0-0pDIN-Schrift
 73
     1
 44
1.0
  0
POINT
  5
59E
330
597
100
AcDbEntity
  8
Defpoints
 62
     0
100
AcDbPoint
 10
12.829904
 20
279.606063
 30
0.0
  0
POINT
  5
59F
330
597
100
AcDbEntity
  8
Defpoints
 62
     0
100
AcDbPoint
 10
160.829904
 20
319.856063
 30
0.0
  0
POINT
  5
5A0
330
597
100
AcDbEntity
  8
Defpoints
 62
     0
100
AcDbPoint
 10
160.829904
 20
186.152513
 30
0.0
  0
ENDBLK
  5
5A2
330
597
100
AcDbEntity
  8
0
100
AcDbBlockEnd
  0
BLOCK
  5
5AE
330
5A4
100
AcDbEntity
  8
0
100
AcDbBlockBegin
  2
*D28
 70
     1
 71
     0
 10
0.0
 20
0.0
 30
0.0
  3
*D28
  1

  0
LINE
  5
5A5
330
5A4
100
AcDbEntity
  8
LC-001-100-D00-0
 62
     2
370
    -2
100
AcDbLine
 10
12.829904
 20
279.606063
 30
0.0
 11
12.829904
 21
86.567513
 31
0.0
  0
LINE
  5
5A6
330
5A4
100
AcDbEntity
  8
LC-001-100-D00-0
 62
     2
370
    -2
100
AcDbLine
 10
296.329701
 20
269.043885
 30
0.0
 11
296.329701
 21
86.567513
 31
0.0
  0
LINE
  5
5A7
330
5A4
100
AcDbEntity
  8
LC-001-100-D00-0
 62
     2
370
    -2
100
AcDbLine
 10
62.829904
 20
95.567513
 30
0.0
 11
246.329701
 21
95.567513
 31
0.0
  0
SOLID
  5
5A8
330
5A4
100
AcDbEntity
  8
LC-001-100-D00-0
 62
     2
100
AcDbTrace
 10
62.829904
 20
103.900847
 30
0.0
 11
62.829904
 21
87.23418
 31
0.0
 12
12.829904
 22
95.567513
 32
0.0
 13
12.829904
 23
95.567513
 33
0.0
  0
SOLID
  5
5A9
330
5A4
100
AcDbEntity
  8
LC-001-100-D00-0
 62
     2
100
AcDbTrace
 10
246.329701
 20
87.23418
 30
0.0
 11
246.329701
 21
103.900847
 31
0.0
 12
296.329701
 22
95.567513
 32
0.0
 13
296.329701
 23
95.567513
 33
0.0
  0
MTEXT
  5
5AA
330
5A4
100
AcDbEntity
  8
LC-001-100-D00-0
 62
     2
100
AcDbMText
 10
150.701293
 20
150.567513
 30
0.0
 40
50.0
 41
0.0
 71
     5
 72
     1
  1
\A1;284
  7
LCTX15-400-0-0pDIN-Schrift
 73
     1
 44
1.0
  0
POINT
  5
5AB
330
5A4
100
AcDbEntity
  8
Defpoints
 62
     0
100
AcDbPoint
 10
12.829904
 20
279.606063
 30
0.0
  0
POINT
  5
5AC
330
5A4
100
AcDbEntity
  8
Defpoints
 62
     0
100
AcDbPoint
 10
296.329701
 20
269.043885
 30
0.0
  0
POINT
  5
5AD
330
5A4
100
AcDbEntity
  8
Defpoints
 62
     0
100
AcDbPoint
 10
296.329701
 20
95.567513
 30
0.0
  0
ENDBLK
  5
5AF
330
5A4
100
AcDbEntity
  8
0
100
AcDbBlockEnd
  0
BLOCK
  5
5BC
330
5B1
100
AcDbEntity
  8
0
100
AcDbBlockBegin
  2
*D29
 70
     1
 71
     0
 10
0.0
 20
0.0
 30
0.0
  3
*D29
  1

  0
LINE
  5
5B2
330
5B1
100
AcDbEntity
  8
LC-001-100-D00-0
 62
     2
370
    -2
100
AcDbLine
 10
292.829701
 20
318.106063
 30
0.0
 11
399.59653
 21
318.106063
 31
0.0
  0
LINE
  5
5B3
330
5B1
100
AcDbEntity
  8
LC-001-100-D00-0
 62
     2
370
    -2
100
AcDbLine
 10
292.829701
 20
268.106063
 30
0.0
 11
399.59653
 21
268.106063
 31
0.0
  0
LINE
  5
5B4
330
5B1
100
AcDbEntity
  8
LC-001-100-D00-0
 62
     2
370
    -2
100
AcDbLine
 10
390.59653
 20
368.106063
 30
0.0
 11
390.59653
 21
418.106063
 31
0.0
  0
LINE
  5
5B5
330
5B1
100
AcDbEntity
  8
LC-001-100-D00-0
 62
     2
370
    -2
100
AcDbLine
 10
390.59653
 20
218.106063
 30
0.0
 11
390.59653
 21
171.596161
 31
0.0
  0
SOLID
  5
5B6
330
5B1
100
AcDbEntity
  8
LC-001-100-D00-0
 62
     2
100
AcDbTrace
 10
382.263197
 20
368.106063
 30
0.0
 11
398.929864
 21
368.106063
 31
0.0
 12
390.59653
 22
318.106063
 32
0.0
 13
390.59653
 23
318.106063
 33
0.0
  0
SOLID
  5
5B7
330
5B1
100
AcDbEntity
  8
LC-001-100-D00-0
 62
     2
100
AcDbTrace
 10
398.929864
 20
218.106063
 30
0.0
 11
382.263197
 21
218.106063
 31
0.0
 12
390.59653
 22
268.106063
 32
0.0
 13
390.59653
 23
268.106063
 33
0.0
  0
MTEXT
  5
5B8
330
5B1
100
AcDbEntity
  8
LC-001-100-D00-0
 62
     2
100
AcDbMText
 10
335.59653
 20
255.947513
 30
0.0
 40
50.0
 41
0.0
 71
     5
 72
     1
  1
\A1;DN50
  7
LCTX15-400-0-0pDIN-Schrift
 11
6.123031769111886E-17
 21
1.0
 31
0.0
 73
     1
 44
1.0
  0
POINT
  5
5B9
330
5B1
100
AcDbEntity
  8
Defpoints
 62
     0
100
AcDbPoint
 10
292.829701
 20
318.106063
 30
0.0
  0
POINT
  5
5BA
330
5B1
100
AcDbEntity
  8
Defpoints
 62
     0
100
AcDbPoint
 10
292.829701
 20
268.106063
 30
0.0
  0
POINT
  5
5BB
330
5B1
100
AcDbEntity
  8
Defpoints
 62
     0
100
AcDbPoint
 10
390.59653
 20
268.106063
 30
0.0
  0
ENDBLK
  5
5BD
330
5B1
100
AcDbEntity
  8
0
100
AcDbBlockEnd
  0
BLOCK
  5
5CA
330
5BF
100
AcDbEntity
  8
0
100
AcDbBlockBegin
  2
*D30
 70
     1
 71
     0
 10
0.0
 20
0.0
 30
0.0
  3
*D30
  1

  0
LINE
  5
5C0
330
5BF
100
AcDbEntity
  8
LC-001-100-D00-0
 62
     2
370
    -2
100
AcDbLine
 10
536.829904
 20
370.606063
 30
0.0
 11
582.742357
 21
370.606063
 31
0.0
  0
LINE
  5
5C1
330
5BF
100
AcDbEntity
  8
LC-001-100-D00-0
 62
     2
370
    -2
100
AcDbLine
 10
302.829701
 20
293.106063
 30
0.0
 11
582.742357
 21
293.106063
 31
0.0
  0
LINE
  5
5C2
330
5BF
100
AcDbEntity
  8
LC-001-100-D00-0
 62
     2
370
    -2
100
AcDbLine
 10
573.742357
 20
420.606063
 30
0.0
 11
573.742357
 21
470.606063
 31
0.0
  0
LINE
  5
5C3
330
5BF
100
AcDbEntity
  8
LC-001-100-D00-0
 62
     2
370
    -2
100
AcDbLine
 10
573.742357
 20
243.106063
 30
0.0
 11
573.742357
 21
116.715688
 31
0.0
  0
SOLID
  5
5C4
330
5BF
100
AcDbEntity
  8
LC-001-100-D00-0
 62
     2
100
AcDbTrace
 10
565.409023
 20
420.606063
 30
0.0
 11
582.07569
 21
420.606063
 31
0.0
 12
573.742357
 22
370.606063
 32
0.0
 13
573.742357
 23
370.606063
 33
0.0
  0
SOLID
  5
5C5
330
5BF
100
AcDbEntity
  8
LC-001-100-D00-0
 62
     2
100
AcDbTrace
 10
582.07569
 20
243.106063
 30
0.0
 11
565.409023
 21
243.106063
 31
0.0
 12
573.742357
 22
293.106063
 32
0.0
 13
573.742357
 23
293.106063
 33
0.0
  0
MTEXT
  5
5C6
330
5BF
100
AcDbEntity
  8
LC-001-100-D00-0
 62
     2
100
AcDbMText
 10
518.742357
 20
186.152513
 30
0.0
 40
50.0
 41
0.0
 71
     5
 72
     1
  1
\A1;77,5
  7
LCTX15-400-0-0pDIN-Schrift
 11
6.123031769111886E-17
 21
1.0
 31
0.0
 73
     1
 44
1.0
  0
POINT
  5
5C7
330
5BF
100
AcDbEntity
  8
Defpoints
 62
     0
100
AcDbPoint
 10
536.829904
 20
370.606063
 30
0.0
  0
POINT
  5
5C8
330
5BF
100
AcDbEntity
  8
Defpoints
 62
     0
100
AcDbPoint
 10
302.829701
 20
293.106063
 30
0.0
  0
POINT
  5
5C9
330
5BF
100
AcDbEntity
  8
Defpoints
 62
     0
100
AcDbPoint
 10
573.742357
 20
293.106063
 30
0.0
  0
ENDBLK
  5
5CB
330
5BF
100
AcDbEntity
  8
0
100
AcDbBlockEnd
  0
BLOCK
  5
5D9
330
5CD
100
AcDbEntity
  8
0
100
AcDbBlockBegin
  2
*D31
 70
     1
 71
     0
 10
0.0
 20
0.0
 30
0.0
  3
*D31
  1

  0
LINE
  5
5CE
330
5CD
100
AcDbEntity
  8
LC-001-100-D00-0
 62
     2
370
    -2
100
AcDbLine
 10
-363.170096
 20
370.606063
 30
0.0
 11
-389.564257
 21
370.606063
 31
0.0
  0
LINE
  5
5CF
330
5CD
100
AcDbEntity
  8
LC-001-100-D00-0
 62
     2
370
    -2
100
AcDbLine
 10
32.812024
 20
260.606063
 30
0.0
 11
-389.564257
 21
260.606063
 31
0.0
  0
LINE
  5
5D0
330
5CD
100
AcDbEntity
  8
LC-001-100-D00-0
 62
     2
370
    -2
100
AcDbLine
 10
-380.564257
 20
420.606063
 30
0.0
 11
-380.564257
 21
470.606063
 31
0.0
  0
LINE
  5
5D1
330
5CD
100
AcDbEntity
  8
LC-001-100-D00-0
 62
     2
370
    -2
100
AcDbLine
 10
-380.564257
 20
210.606063
 30
0.0
 11
-380.564257
 21
160.606063
 31
0.0
  0
LINE
  5
5D2
330
5CD
100
AcDbEntity
  8
LC-001-100-D00-0
 62
     2
370
    -2
100
AcDbLine
 10
-380.564257
 20
370.606063
 30
0.0
 11
-380.564257
 21
260.606063
 31
0.0
  0
SOLID
  5
5D3
330
5CD
100
AcDbEntity
  8
LC-001-100-D00-0
 62
     2
100
AcDbTrace
 10
-388.897591
 20
420.606063
 30
0.0
 11
-372.230924
 21
420.606063
 31
0.0
 12
-380.564257
 22
370.606063
 32
0.0
 13
-380.564257
 23
370.606063
 33
0.0
  0
SOLID
  5
5D4
330
5CD
100
AcDbEntity
  8
LC-001-100-D00-0
 62
     2
100
AcDbTrace
 10
-372.230924
 20
210.606063
 30
0.0
 11
-388.897591
 21
210.606063
 31
0.0
 12
-380.564257
 22
260.606063
 32
0.0
 13
-380.564257
 23
260.606063
 33
0.0
  0
MTEXT
  5
5D5
330
5CD
100
AcDbEntity
  8
LC-001-100-D00-0
 62
     2
100
AcDbMText
 10
-435.564257
 20
275.252513
 30
0.0
 40
50.0
 41
0.0
 71
     5
 72
     1
  1
\A1;110
  7
LCTX15-400-0-0pDIN-Schrift
 11
6.123031769111886E-17
 21
1.0
 31
0.0
 73
     1
 44
1.0
  0
POINT
  5
5D6
330
5CD
100
AcDbEntity
  8
Defpoints
 62
     0
100
AcDbPoint
 10
-363.170096
 20
370.606063
 30
0.0
  0
POINT
  5
5D7
330
5CD
100
AcDbEntity
  8
Defpoints
 62
     0
100
AcDbPoint
 10
32.812024
 20
260.606063
 30
0.0
  0
POINT
  5
5D8
330
5CD
100
AcDbEntity
  8
Defpoints
 62
     0
100
AcDbPoint
 10
-380.564257
 20
260.606063
 30
0.0
  0
ENDBLK
  5
5DA
330
5CD
100
AcDbEntity
  8
0
100
AcDbBlockEnd
  0
BLOCK
  5
5E7
330
5DC
100
AcDbEntity
  8
0
100
AcDbBlockBegin
  2
*D32
 70
     1
 71
     0
 10
0.0
 20
0.0
 30
0.0
  3
*D32
  1

  0
LINE
  5
5DD
330
5DC
100
AcDbEntity
  8
LC-001-100-D00-0
 62
     2
370
    -2
100
AcDbLine
 10
536.829904
 20
370.606063
 30
0.0
 11
750.411071
 21
370.606063
 31
0.0
  0
LINE
  5
5DE
330
5DC
100
AcDbEntity
  8
LC-001-100-D00-0
 62
     2
370
    -2
100
AcDbLine
 10
446.329904
 20
236.106063
 30
0.0
 11
750.411071
 21
236.106063
 31
0.0
  0
LINE
  5
5DF
330
5DC
100
AcDbEntity
  8
LC-001-100-D00-0
 62
     2
370
    -2
100
AcDbLine
 10
741.411071
 20
320.606063
 30
0.0
 11
741.411071
 21
286.106063
 31
0.0
  0
LINE
  5
5E0
330
5DC
100
AcDbEntity
  8
LC-001-100-D00-0
 62
     2
370
    -2
100
AcDbLine
 10
741.411071
 20
236.106063
 30
0.0
 11
741.411071
 21
53.727831
 31
0.0
  0
SOLID
  5
5E1
330
5DC
100
AcDbEntity
  8
LC-001-100-D00-0
 62
     2
100
AcDbTrace
 10
749.744404
 20
320.606063
 30
0.0
 11
733.077738
 21
320.606063
 31
0.0
 12
741.411071
 22
370.606063
 32
0.0
 13
741.411071
 23
370.606063
 33
0.0
  0
SOLID
  5
5E2
330
5DC
100
AcDbEntity
  8
LC-001-100-D00-0
 62
     2
100
AcDbTrace
 10
733.077738
 20
286.106063
 30
0.0
 11
749.744404
 21
286.106063
 31
0.0
 12
741.411071
 22
236.106063
 32
0.0
 13
741.411071
 23
236.106063
 33
0.0
  0
MTEXT
  5
5E3
330
5DC
100
AcDbEntity
  8
LC-001-100-D00-0
 62
     2
100
AcDbMText
 10
686.411071
 20
220.307513
 30
0.0
 40
50.0
 41
0.0
 71
     5
 72
     1
  1
\A1;110-129,5
  7
LCTX15-400-0-0pDIN-Schrift
 11
6.123031769111886E-17
 21
1.0
 31
0.0
 73
     1
 44
1.0
  0
POINT
  5
5E4
330
5DC
100
AcDbEntity
  8
Defpoints
 62
     0
100
AcDbPoint
 10
536.829904
 20
370.606063
 30
0.0
  0
POINT
  5
5E5
330
5DC
100
AcDbEntity
  8
Defpoints
 62
     0
100
AcDbPoint
 10
446.329904
 20
236.106063
 30
0.0
  0
POINT
  5
5E6
330
5DC
100
AcDbEntity
  8
Defpoints
 62
     0
100
AcDbPoint
 10
741.411071
 20
236.106063
 30
0.0
  0
ENDBLK
  5
5E8
330
5DC
100
AcDbEntity
  8
0
100
AcDbBlockEnd
  0
BLOCK
  5
5F4
330
5EA
100
AcDbEntity
  8
0
100
AcDbBlockBegin
  2
*D33
 70
     1
 71
     0
 10
0.0
 20
0.0
 30
0.0
  3
*D33
  1

  0
LINE
  5
5EB
330
5EA
100
AcDbEntity
  8
LC-001-100-D00-0
 62
     2
370
    -2
100
AcDbLine
 10
536.829904
 20
370.606063
 30
0.0
 11
536.829904
 21
487.697513
 31
0.0
  0
LINE
  5
5EC
330
5EA
100
AcDbEntity
  8
LC-001-100-D00-0
 62
     2
370
    -2
100
AcDbLine
 10
-363.170096
 20
370.606063
 30
0.0
 11
-363.170096
 21
487.697513
 31
0.0
  0
LINE
  5
5ED
330
5EA
100
AcDbEntity
  8
LC-001-100-D00-0
 62
     2
370
    -2
100
AcDbLine
 10
486.829904
 20
478.697513
 30
0.0
 11
-313.170096
 21
478.697513
 31
0.0
  0
SOLID
  5
5EE
330
5EA
100
AcDbEntity
  8
LC-001-100-D00-0
 62
     2
100
AcDbTrace
 10
486.829904
 20
470.36418
 30
0.0
 11
486.829904
 21
487.030847
 31
0.0
 12
536.829904
 22
478.697513
 32
0.0
 13
536.829904
 23
478.697513
 33
0.0
  0
SOLID
  5
5EF
330
5EA
100
AcDbEntity
  8
LC-001-100-D00-0
 62
     2
100
AcDbTrace
 10
-313.170096
 20
487.030847
 30
0.0
 11
-313.170096
 21
470.36418
 31
0.0
 12
-363.170096
 22
478.697513
 32
0.0
 13
-363.170096
 23
478.697513
 33
0.0
  0
MTEXT
  5
5F0
330
5EA
100
AcDbEntity
  8
LC-001-100-D00-0
 62
     2
100
AcDbMText
 10
78.47477
 20
533.697513
 30
0.0
 40
50.0
 41
0.0
 71
     5
 72
     1
  1
\A1;900
  7
LCTX15-400-0-0pDIN-Schrift
 73
     1
 44
1.0
  0
POINT
  5
5F1
330
5EA
100
AcDbEntity
  8
Defpoints
 62
     0
100
AcDbPoint
 10
536.829904
 20
370.606063
 30
0.0
  0
POINT
  5
5F2
330
5EA
100
AcDbEntity
  8
Defpoints
 62
     0
100
AcDbPoint
 10
-363.170096
 20
370.606063
 30
0.0
  0
POINT
  5
5F3
330
5EA
100
AcDbEntity
  8
Defpoints
 62
     0
100
AcDbPoint
 10
-363.170096
 20
478.697513
 30
0.0
  0
ENDBLK
  5
5F5
330
5EA
100
AcDbEntity
  8
0
100
AcDbBlockEnd
  0
BLOCK
  5
601
330
5F7
100
AcDbEntity
  8
0
100
AcDbBlockBegin
  2
*D34
 70
     1
 71
     0
 10
0.0
 20
0.0
 30
0.0
  3
*D34
  1

  0
LINE
  5
5F8
330
5F7
100
AcDbEntity
  8
LC-001-100-D00-0
 62
     2
370
    -2
100
AcDbLine
 10
-313.170096
 20
367.606063
 30
0.0
 11
-313.170096
 21
408.488019
 31
0.0
  0
LINE
  5
5F9
330
5F7
100
AcDbEntity
  8
LC-001-100-D00-0
 62
     2
370
    -2
100
AcDbLine
 10
486.829904
 20
367.606063
 30
0.0
 11
486.829904
 21
408.488019
 31
0.0
  0
LINE
  5
5FA
330
5F7
100
AcDbEntity
  8
LC-001-100-D00-0
 62
     2
370
    -2
100
AcDbLine
 10
-263.170096
 20
399.488019
 30
0.0
 11
436.829904
 21
399.488019
 31
0.0
  0
SOLID
  5
5FB
330
5F7
100
AcDbEntity
  8
LC-001-100-D00-0
 62
     2
100
AcDbTrace
 10
-263.170096
 20
407.821352
 30
0.0
 11
-263.170096
 21
391.154686
 31
0.0
 12
-313.170096
 22
399.488019
 32
0.0
 13
-313.170096
 23
399.488019
 33
0.0
  0
SOLID
  5
5FC
330
5F7
100
AcDbEntity
  8
LC-001-100-D00-0
 62
     2
100
AcDbTrace
 10
436.829904
 20
391.154686
 30
0.0
 11
436.829904
 21
407.821352
 31
0.0
 12
486.829904
 22
399.488019
 32
0.0
 13
486.829904
 23
399.488019
 33
0.0
  0
MTEXT
  5
5FD
330
5F7
100
AcDbEntity
  8
LC-001-100-D00-0
 62
     2
100
AcDbMText
 10
81.847838
 20
454.488019
 30
0.0
 40
50.0
 41
0.0
 71
     5
 72
     1
  1
\A1;800
  7
LCTX15-400-0-0pDIN-Schrift
 73
     1
 44
1.0
  0
POINT
  5
5FE
330
5F7
100
AcDbEntity
  8
Defpoints
 62
     0
100
AcDbPoint
 10
-313.170096
 20
367.606063
 30
0.0
  0
POINT
  5
5FF
330
5F7
100
AcDbEntity
  8
Defpoints
 62
     0
100
AcDbPoint
 10
486.829904
 20
367.606063
 30
0.0
  0
POINT
  5
600
330
5F7
100
AcDbEntity
  8
Defpoints
 62
     0
100
AcDbPoint
 10
486.829904
 20
399.488019
 30
0.0
  0
ENDBLK
  5
602
330
5F7
100
AcDbEntity
  8
0
100
AcDbBlockEnd
  0
BLOCK
  5
604
330
603
100
AcDbEntity
  8
0
100
AcDbBlockBegin
  2
KLON25
 70
     0
 71
     0
 10
0.0
 20
0.0
 30
0.0
  3
KLON25
  1

  4
KLON25
  0
LINE
  5
606
330
603
100
AcDbEntity
  8
LC-001-100-D00-0
 62
     7
370
    25
100
AcDbLine
 10
532.663262
 20
369.106063
 30
0.0
 11
534.163262
 21
370.606063
 31
0.0
  0
LINE
  5
607
330
603
100
AcDbEntity
  8
LC-001-100-D00-0
 62
     7
370
    25
100
AcDbLine
 10
510.212623
 20
369.106063
 30
0.0
 11
511.712623
 21
370.606063
 31
0.0
  0
LINE
  5
608
330
603
100
AcDbEntity
  8
LC-001-100-D00-0
 62
     7
370
    25
100
AcDbLine
 10
467.261985
 20
348.606063
 30
0.0
 11
468.761985
 21
350.106063
 31
0.0
  0
LINE
  5
609
330
603
100
AcDbEntity
  8
LC-001-100-D00-0
 62
     7
370
    25
100
AcDbLine
 10
486.898126
 20
368.242206
 30
0.0
 11
489.193761
 21
370.537841
 31
0.0
  0
LINE
  5
60A
330
603
100
AcDbEntity
  8
LC-001-100-D00-0
 62
     7
370
    25
100
AcDbLine
 10
444.811345
 20
348.606063
 30
0.0
 11
446.311345
 21
350.106063
 31
0.0
  0
LINE
  5
60B
330
603
100
AcDbEntity
  8
LC-001-100-D00-0
 62
     7
370
    25
100
AcDbLine
 10
452.829904
 20
356.624623
 30
0.0
 11
460.829904
 21
364.624623
 31
0.0
  0
LINE
  5
60C
330
603
100
AcDbEntity
  8
LC-001-100-D00-0
 62
     7
370
    25
100
AcDbLine
 10
422.360706
 20
348.606063
 30
0.0
 11
423.860706
 21
350.106063
 31
0.0
  0
LINE
  5
60D
330
603
100
AcDbEntity
  8
LC-001-100-D00-0
 62
     7
370
    25
100
AcDbLine
 10
399.910066
 20
348.606063
 30
0.0
 11
401.410066
 21
350.106063
 31
0.0
  0
LINE
  5
60E
330
603
100
AcDbEntity
  8
LC-001-100-D00-0
 62
     7
370
    25
100
AcDbLine
 10
377.459427
 20
348.606063
 30
0.0
 11
378.959427
 21
350.106063
 31
0.0
  0
LINE
  5
60F
330
603
100
AcDbEntity
  8
LC-001-100-D00-0
 62
     7
370
    25
100
AcDbLine
 10
355.008788
 20
348.606063
 30
0.0
 11
356.508787
 21
350.106063
 31
0.0
  0
LINE
  5
610
330
603
100
AcDbEntity
  8
LC-001-100-D00-0
 62
     7
370
    25
100
AcDbLine
 10
332.558148
 20
348.606063
 30
0.0
 11
334.058148
 21
350.106063
 31
0.0
  0
LINE
  5
611
330
603
100
AcDbEntity
  8
LC-001-100-D00-0
 62
     7
370
    25
100
AcDbLine
 10
310.107509
 20
348.606063
 30
0.0
 11
311.607508
 21
350.106063
 31
0.0
  0
LINE
  5
612
330
603
100
AcDbEntity
  8
LC-001-100-D00-0
 62
     7
370
    25
100
AcDbLine
 10
317.829904
 20
356.328459
 30
0.0
 11
325.829904
 21
364.32846
 31
0.0
  0
LINE
  5
613
330
603
100
AcDbEntity
  8
LC-001-100-D00-0
 62
     7
370
    25
100
AcDbLine
 10
287.656869
 20
348.606063
 30
0.0
 11
289.156869
 21
350.106063
 31
0.0
  0
LINE
  5
614
330
603
100
AcDbEntity
  8
LC-001-100-D00-0
 62
     7
370
    25
100
AcDbLine
 10
265.20623
 20
348.606063
 30
0.0
 11
266.706229
 21
350.106063
 31
0.0
  0
LINE
  5
615
330
603
100
AcDbEntity
  8
LC-001-100-D00-0
 62
     7
370
    25
100
AcDbLine
 10
242.75559
 20
348.606063
 30
0.0
 11
244.25559
 21
350.106063
 31
0.0
  0
LINE
  5
616
330
603
100
AcDbEntity
  8
LC-001-100-D00-0
 62
     7
370
    25
100
AcDbLine
 10
220.304951
 20
348.606063
 30
0.0
 11
221.804951
 21
350.106063
 31
0.0
  0
LINE
  5
617
330
603
100
AcDbEntity
  8
LC-001-100-D00-0
 62
     7
370
    25
100
AcDbLine
 10
197.854311
 20
348.606063
 30
0.0
 11
199.354311
 21
350.106063
 31
0.0
  0
LINE
  5
618
330
603
100
AcDbEntity
  8
LC-001-100-D00-0
 62
     7
370
    25
100
AcDbLine
 10
173.541888
 20
346.74428
 30
0.0
 11
175.663209
 21
348.8656
 31
0.0
  0
LINE
  5
619
330
603
100
AcDbEntity
  8
LC-001-100-D00-0
 62
     7
370
    25
100
AcDbLine
 10
182.829904
 20
356.032296
 30
0.0
 11
190.829904
 21
364.032297
 31
0.0
  0
LINE
  5
61A
330
603
100
AcDbEntity
  8
LC-001-100-D00-0
 62
     7
370
    25
100
AcDbLine
 10
142.953033
 20
338.606063
 30
0.0
 11
143.629904
 21
339.282935
 31
0.0
  0
LINE
  5
61B
330
603
100
AcDbEntity
  8
LC-001-100-D00-0
 62
     7
370
    25
100
AcDbLine
 10
147.953033
 20
343.606063
 30
0.0
 11
149.453032
 21
345.106063
 31
0.0
  0
ENDBLK
  5
605
330
603
100
AcDbEntity
  8
0
100
AcDbBlockEnd
  0
BLOCK
  5
61E
330
61D
100
AcDbEntity
  8
0
100
AcDbBlockBegin
  2
KLON26
 70
     0
 71
     0
 10
0.0
 20
0.0
 30
0.0
  3
KLON26
  1

  4
KLON26
  0
LINE
  5
620
330
61D
100
AcDbEntity
  8
LC-001-100-D00-0
 62
     7
370
    25
100
AcDbLine
 10
30.699836
 20
338.606063
 30
0.0
 11
31.529904
 21
339.436132
 31
0.0
  0
LINE
  5
621
330
61D
100
AcDbEntity
  8
LC-001-100-D00-0
 62
     7
370
    25
100
AcDbLine
 10
13.249196
 20
343.606063
 30
0.0
 11
14.749196
 21
345.106063
 31
0.0
  0
LINE
  5
622
330
61D
100
AcDbEntity
  8
LC-001-100-D00-0
 62
     7
370
    25
100
AcDbLine
 10
-4.756997
 20
348.05051
 30
0.0
 11
-3.532252
 21
349.275255
 31
0.0
  0
LINE
  5
623
330
61D
100
AcDbEntity
  8
LC-001-100-D00-0
 62
     7
370
    25
100
AcDbLine
 10
-26.652084
 20
348.606063
 30
0.0
 11
-25.152084
 21
350.106063
 31
0.0
  0
LINE
  5
624
330
61D
100
AcDbEntity
  8
LC-001-100-D00-0
 62
     7
370
    25
100
AcDbLine
 10
-17.170096
 20
358.088052
 30
0.0
 11
-9.170096
 21
366.088052
 31
0.0
  0
LINE
  5
625
330
61D
100
AcDbEntity
  8
LC-001-100-D00-0
 62
     7
370
    25
100
AcDbLine
 10
-49.102723
 20
348.606063
 30
0.0
 11
-47.602723
 21
350.106063
 31
0.0
  0
LINE
  5
626
330
61D
100
AcDbEntity
  8
LC-001-100-D00-0
 62
     7
370
    25
100
AcDbLine
 10
-71.553363
 20
348.606063
 30
0.0
 11
-70.053363
 21
350.106063
 31
0.0
  0
LINE
  5
627
330
61D
100
AcDbEntity
  8
LC-001-100-D00-0
 62
     7
370
    25
100
AcDbLine
 10
-94.004002
 20
348.606063
 30
0.0
 11
-92.504002
 21
350.106063
 31
0.0
  0
LINE
  5
628
330
61D
100
AcDbEntity
  8
LC-001-100-D00-0
 62
     7
370
    25
100
AcDbLine
 10
-116.454642
 20
348.606063
 30
0.0
 11
-114.954642
 21
350.106063
 31
0.0
  0
LINE
  5
629
330
61D
100
AcDbEntity
  8
LC-001-100-D00-0
 62
     7
370
    25
100
AcDbLine
 10
-138.905281
 20
348.606063
 30
0.0
 11
-137.405281
 21
350.106063
 31
0.0
  0
LINE
  5
62A
330
61D
100
AcDbEntity
  8
LC-001-100-D00-0
 62
     7
370
    25
100
AcDbLine
 10
-161.355921
 20
348.606063
 30
0.0
 11
-159.855921
 21
350.106063
 31
0.0
  0
LINE
  5
62B
330
61D
100
AcDbEntity
  8
LC-001-100-D00-0
 62
     7
370
    25
100
AcDbLine
 10
-152.170096
 20
357.791889
 30
0.0
 11
-144.170096
 21
365.791889
 31
0.0
  0
LINE
  5
62C
330
61D
100
AcDbEntity
  8
LC-001-100-D00-0
 62
     7
370
    25
100
AcDbLine
 10
-183.80656
 20
348.606063
 30
0.0
 11
-182.30656
 21
350.106063
 31
0.0
  0
LINE
  5
62D
330
61D
100
AcDbEntity
  8
LC-001-100-D00-0
 62
     7
370
    25
100
AcDbLine
 10
-206.2572
 20
348.606063
 30
0.0
 11
-204.7572
 21
350.106063
 31
0.0
  0
LINE
  5
62E
330
61D
100
AcDbEntity
  8
LC-001-100-D00-0
 62
     7
370
    25
100
AcDbLine
 10
-228.707839
 20
348.606063
 30
0.0
 11
-227.207839
 21
350.106063
 31
0.0
  0
LINE
  5
62F
330
61D
100
AcDbEntity
  8
LC-001-100-D00-0
 62
     7
370
    25
100
AcDbLine
 10
-251.158478
 20
348.606063
 30
0.0
 11
-249.658479
 21
350.106063
 31
0.0
  0
LINE
  5
630
330
61D
100
AcDbEntity
  8
LC-001-100-D00-0
 62
     7
370
    25
100
AcDbLine
 10
-273.609118
 20
348.606063
 30
0.0
 11
-272.109118
 21
350.106063
 31
0.0
  0
LINE
  5
631
330
61D
100
AcDbEntity
  8
LC-001-100-D00-0
 62
     7
370
    25
100
AcDbLine
 10
-296.059757
 20
348.606063
 30
0.0
 11
-294.559758
 21
350.106063
 31
0.0
  0
LINE
  5
632
330
61D
100
AcDbEntity
  8
LC-001-100-D00-0
 62
     7
370
    25
100
AcDbLine
 10
-287.170096
 20
357.495725
 30
0.0
 11
-279.170096
 21
365.495726
 31
0.0
  0
LINE
  5
633
330
61D
100
AcDbEntity
  8
LC-001-100-D00-0
 62
     7
370
    25
100
AcDbLine
 10
-313.527483
 20
353.588977
 30
0.0
 11
-312.411245
 21
354.705216
 31
0.0
  0
LINE
  5
634
330
61D
100
AcDbEntity
  8
LC-001-100-D00-0
 62
     7
370
    25
100
AcDbLine
 10
-320.461038
 20
369.106063
 30
0.0
 11
-318.961038
 21
370.606063
 31
0.0
  0
LINE
  5
635
330
61D
100
AcDbEntity
  8
LC-001-100-D00-0
 62
     7
370
    25
100
AcDbLine
 10
-342.911677
 20
369.106063
 30
0.0
 11
-341.411677
 21
370.606063
 31
0.0
  0
ENDBLK
  5
61F
330
61D
100
AcDbEntity
  8
0
100
AcDbBlockEnd
  0
BLOCK
  5
639
330
638
100
AcDbEntity
  8
0
100
AcDbBlockBegin
  2
KLON27
 70
     0
 71
     0
 10
0.0
 20
0.0
 30
0.0
  3
KLON27
  1

  4
KLON27
  0
LINE
  5
63B
330
638
100
AcDbEntity
  8
LC-001-100-D00-0
 62
     7
370
    25
100
AcDbLine
 10
114.329904
 20
287.532291
 30
0.0
 11
115.829904
 21
289.032291
 31
0.0
  0
LINE
  5
63C
330
638
100
AcDbEntity
  8
LC-001-100-D00-0
 62
     7
370
    25
100
AcDbLine
 10
114.329904
 20
309.982932
 30
0.0
 11
115.829904
 21
311.482933
 31
0.0
  0
LINE
  5
63D
330
638
100
AcDbEntity
  8
LC-001-100-D00-0
 62
     7
370
    25
100
AcDbLine
 10
114.329904
 20
332.433574
 30
0.0
 11
126.502393
 21
344.606063
 31
0.0
  0
ENDBLK
  5
63A
330
638
100
AcDbEntity
  8
0
100
AcDbBlockEnd
  0
BLOCK
  5
640
330
63F
100
AcDbEntity
  8
0
100
AcDbBlockBegin
  2
KLON28
 70
     0
 71
     0
 10
0.0
 20
0.0
 30
0.0
  3
KLON28
  1

  4
KLON28
  0
LINE
  5
642
330
63F
100
AcDbEntity
  8
LC-001-100-D00-0
 62
     7
370
    25
100
AcDbLine
 10
57.829904
 20
298.384211
 30
0.0
 11
59.329904
 21
299.884211
 31
0.0
  0
LINE
  5
643
330
63F
100
AcDbEntity
  8
LC-001-100-D00-0
 62
     7
370
    25
100
AcDbLine
 10
57.829904
 20
320.834852
 30
0.0
 11
59.329904
 21
322.334852
 31
0.0
  0
LINE
  5
644
330
63F
100
AcDbEntity
  8
LC-001-100-D00-0
 62
     7
370
    25
100
AcDbLine
 10
52.16295
 20
337.618538
 30
0.0
 11
58.651555
 21
344.107143
 31
0.0
  0
LINE
  5
645
330
63F
100
AcDbEntity
  8
LC-001-100-D00-0
 62
     7
370
    25
100
AcDbLine
 10
34.329904
 20
342.236132
 30
0.0
 11
36.699835
 21
344.606063
 31
0.0
  0
ENDBLK
  5
641
330
63F
100
AcDbEntity
  8
0
100
AcDbBlockEnd
  0
BLOCK
  5
648
330
647
100
AcDbEntity
  8
0
100
AcDbBlockBegin
  2
KLON29
 70
     0
 71
     0
 10
0.0
 20
0.0
 30
0.0
  3
KLON29
  1

  4
KLON29
  0
LINE
  5
64A
330
647
100
AcDbEntity
  8
LC-001-100-D00-0
 62
     7
370
    25
100
AcDbLine
 10
112.354317
 20
263.106063
 30
0.0
 11
113.854317
 21
264.606063
 31
0.0
  0
LINE
  5
64B
330
647
100
AcDbEntity
  8
LC-001-100-D00-0
 62
     7
370
    25
100
AcDbLine
 10
126.329904
 20
277.081651
 30
0.0
 11
127.829904
 21
278.581651
 31
0.0
  0
LINE
  5
64C
330
647
100
AcDbEntity
  8
LC-001-100-D00-0
 62
     7
370
    25
100
AcDbLine
 10
89.903678
 20
263.106063
 30
0.0
 11
91.403678
 21
264.606063
 31
0.0
  0
LINE
  5
64D
330
647
100
AcDbEntity
  8
LC-001-100-D00-0
 62
     7
370
    25
100
AcDbLine
 10
126.329904
 20
299.532292
 30
0.0
 11
127.829904
 21
301.032292
 31
0.0
  0
LINE
  5
64E
330
647
100
AcDbEntity
  8
LC-001-100-D00-0
 62
     7
370
    25
100
AcDbLine
 10
67.453038
 20
263.106063
 30
0.0
 11
68.953038
 21
264.606063
 31
0.0
  0
LINE
  5
64F
330
647
100
AcDbEntity
  8
LC-001-100-D00-0
 62
     7
370
    25
100
AcDbLine
 10
126.329904
 20
321.982933
 30
0.0
 11
127.829904
 21
323.482933
 31
0.0
  0
LINE
  5
650
330
647
100
AcDbEntity
  8
LC-001-100-D00-0
 62
     7
370
    25
100
AcDbLine
 10
140.953033
 20
336.606063
 30
0.0
 11
142.079904
 21
337.732934
 31
0.0
  0
LINE
  5
651
330
647
100
AcDbEntity
  8
LC-001-100-D00-0
 62
     7
370
    25
100
AcDbLine
 10
46.904911
 20
265.008575
 30
0.0
 11
47.976109
 21
266.079773
 31
0.0
  0
LINE
  5
652
330
647
100
AcDbEntity
  8
LC-001-100-D00-0
 62
     7
370
    25
100
AcDbLine
 10
45.829904
 20
286.38421
 30
0.0
 11
47.329904
 21
287.88421
 31
0.0
  0
LINE
  5
653
330
647
100
AcDbEntity
  8
LC-001-100-D00-0
 62
     7
370
    25
100
AcDbLine
 10
45.829904
 20
308.834851
 30
0.0
 11
47.329904
 21
310.334851
 31
0.0
  0
LINE
  5
654
330
647
100
AcDbEntity
  8
LC-001-100-D00-0
 62
     7
370
    25
100
AcDbLine
 10
44.573962
 20
330.02955
 30
0.0
 11
46.004535
 21
331.460123
 31
0.0
  0
ENDBLK
  5
649
330
647
100
AcDbEntity
  8
0
100
AcDbBlockEnd
  0
BLOCK
  5
657
330
656
100
AcDbEntity
  8
0
100
AcDbBlockBegin
  2
KLON30
 70
     0
 71
     0
 10
0.0
 20
0.0
 30
0.0
  3
KLON30
  1

  4
KLON30
  0
LINE
  5
659
330
656
100
AcDbEntity
  8
LC-001-100-D00-0
 62
     7
370
    25
100
AcDbLine
 10
210.005592
 20
315.856063
 30
0.0
 11
212.255592
 21
318.106063
 31
0.0
  0
LINE
  5
65A
330
656
100
AcDbEntity
  8
LC-001-100-D00-0
 62
     7
370
    25
100
AcDbLine
 10
232.456232
 20
315.856063
 30
0.0
 11
234.706232
 21
318.106063
 31
0.0
  0
LINE
  5
65B
330
656
100
AcDbEntity
  8
LC-001-100-D00-0
 62
     7
370
    25
100
AcDbLine
 10
254.906872
 20
315.856063
 30
0.0
 11
257.156872
 21
318.106063
 31
0.0
  0
LINE
  5
65C
330
656
100
AcDbEntity
  8
LC-001-100-D00-0
 62
     7
370
    25
100
AcDbLine
 10
277.357492
 20
315.856063
 30
0.0
 11
279.607492
 21
318.106063
 31
0.0
  0
ENDBLK
  5
658
330
656
100
AcDbEntity
  8
0
100
AcDbBlockEnd
  0
BLOCK
  5
65F
330
65E
100
AcDbEntity
  8
0
100
AcDbBlockBegin
  2
KLON31
 70
     0
 71
     0
 10
0.0
 20
0.0
 30
0.0
  3
KLON31
  1

  4
KLON31
  0
LINE
  5
661
330
65E
100
AcDbEntity
  8
LC-001-100-D00-0
 62
     7
370
    25
100
AcDbLine
 10
202.986881
 20
263.936068
 30
0.0
 11
209.406876
 21
270.356063
 31
0.0
  0
LINE
  5
662
330
65E
100
AcDbEntity
  8
LC-001-100-D00-0
 62
     7
370
    25
100
AcDbLine
 10
229.607496
 20
268.106063
 30
0.0
 11
231.857496
 21
270.356063
 31
0.0
  0
ENDBLK
  5
660
330
65E
100
AcDbEntity
  8
0
100
AcDbBlockEnd
  0
BLOCK
  5
667
330
666
100
AcDbEntity
  8
0
100
AcDbBlockBegin
  2
KLON32
 70
     0
 71
     0
 10
0.0
 20
0.0
 30
0.0
  3
KLON32
  1

  4
KLON32
  0
LINE
  5
669
330
666
100
AcDbEntity
  8
LC-001-100-D00-0
 62
     7
370
    25
100
AcDbLine
 10
12.829904
 20
320.736131
 30
0.0
 11
15.829904
 21
323.736131
 31
0.0
  0
LINE
  5
66A
330
666
100
AcDbEntity
  8
LC-001-100-D00-0
 62
     7
370
    25
100
AcDbLine
 10
12.829904
 20
343.186772
 30
0.0
 11
13.249196
 21
343.606063
 31
0.0
  0
ENDBLK
  5
668
330
666
100
AcDbEntity
  8
0
100
AcDbBlockEnd
  0
BLOCK
  5
66D
330
66C
100
AcDbEntity
  8
0
100
AcDbBlockBegin
  2
KLON33
 70
     0
 71
     0
 10
0.0
 20
0.0
 30
0.0
  3
KLON33
  1

  4
KLON33
  0
LINE
  5
66F
330
66C
100
AcDbEntity
  8
LC-001-100-D00-0
 62
     7
370
    25
100
AcDbLine
 10
181.284441
 20
264.684268
 30
0.0
 11
186.706235
 21
270.106063
 31
0.0
  0
LINE
  5
670
330
66C
100
AcDbEntity
  8
LC-001-100-D00-0
 62
     7
370
    25
100
AcDbLine
 10
161.255596
 20
267.106063
 30
0.0
 11
164.255596
 21
270.106063
 31
0.0
  0
LINE
  5
671
330
66C
100
AcDbEntity
  8
LC-001-100-D00-0
 62
     7
370
    25
100
AcDbLine
 10
132.304957
 20
260.606063
 30
0.0
 11
135.304957
 21
263.606063
 31
0.0
  0
LINE
  5
672
330
66C
100
AcDbEntity
  8
LC-001-100-D00-0
 62
     7
370
    25
100
AcDbLine
 10
109.854318
 20
260.606063
 30
0.0
 11
112.854317
 21
263.606063
 31
0.0
  0
LINE
  5
673
330
66C
100
AcDbEntity
  8
LC-001-100-D00-0
 62
     7
370
    25
100
AcDbLine
 10
87.403678
 20
260.606063
 30
0.0
 11
90.403678
 21
263.606063
 31
0.0
  0
LINE
  5
674
330
66C
100
AcDbEntity
  8
LC-001-100-D00-0
 62
     7
370
    25
100
AcDbLine
 10
64.953039
 20
260.606063
 30
0.0
 11
67.953038
 21
263.606063
 31
0.0
  0
LINE
  5
675
330
66C
100
AcDbEntity
  8
LC-001-100-D00-0
 62
     7
370
    25
100
AcDbLine
 10
42.502399
 20
260.606063
 30
0.0
 11
45.502399
 21
263.606063
 31
0.0
  0
LINE
  5
676
330
66C
100
AcDbEntity
  8
LC-001-100-D00-0
 62
     7
370
    25
100
AcDbLine
 10
25.906369
 20
266.460673
 30
0.0
 11
28.798887
 21
269.353191
 31
0.0
  0
LINE
  5
677
330
66C
100
AcDbEntity
  8
LC-001-100-D00-0
 62
     7
370
    25
100
AcDbLine
 10
13.27935
 20
276.284294
 30
0.0
 11
15.85894
 21
278.863884
 31
0.0
  0
LINE
  5
678
330
66C
100
AcDbEntity
  8
LC-001-100-D00-0
 62
     7
370
    25
100
AcDbLine
 10
12.829904
 20
298.285489
 30
0.0
 11
15.829904
 21
301.28549
 31
0.0
  0
ENDBLK
  5
66E
330
66C
100
AcDbEntity
  8
0
100
AcDbBlockEnd
  0
BLOCK
  5
67B
330
67A
100
AcDbEntity
  8
0
100
AcDbBlockBegin
  2
KLON34
 70
     0
 71
     0
 10
0.0
 20
0.0
 30
0.0
  3
KLON34
  1

  4
KLON34
  0
LINE
  5
67D
330
67A
100
AcDbEntity
  8
LC-001-100-D00-0
 62
     7
370
    25
100
AcDbLine
 10
187.804953
 20
316.106063
 30
0.0
 11
194.126598
 21
322.427708
 31
0.0
  0
LINE
  5
67E
330
67A
100
AcDbEntity
  8
LC-001-100-D00-0
 62
     7
370
    25
100
AcDbLine
 10
165.354314
 20
316.106063
 30
0.0
 11
168.354313
 21
319.106063
 31
0.0
  0
ENDBLK
  5
67C
330
67A
100
AcDbEntity
  8
0
100
AcDbBlockEnd
  0
BLOCK
  5
682
330
681
100
AcDbEntity
  8
0
100
AcDbBlockBegin
  2
KLON35
 70
     0
 71
     0
 10
0.0
 20
0.0
 30
0.0
  3
KLON35
  1

  4
KLON35
  0
LINE
  5
684
330
681
100
AcDbEntity
  8
LC-001-100-D00-0
 62
     7
370
    25
100
AcDbLine
 10
178.403671
 20
351.606063
 30
0.0
 11
181.629904
 21
354.832296
 31
0.0
  0
LINE
  5
685
330
681
100
AcDbEntity
  8
LC-001-100-D00-0
 62
     7
370
    25
100
AcDbLine
 10
168.579904
 20
364.232936
 30
0.0
 11
171.579904
 21
367.232937
 31
0.0
  0
LINE
  5
686
330
681
100
AcDbEntity
  8
LC-001-100-D00-0
 62
     7
370
    25
100
AcDbLine
 10
171.953031
 20
367.606063
 30
0.0
 11
174.953031
 21
370.606063
 31
0.0
  0
ENDBLK
  5
683
330
681
100
AcDbEntity
  8
0
100
AcDbBlockEnd
  0
BLOCK
  5
68B
330
68A
100
AcDbEntity
  8
0
100
AcDbBlockBegin
  2
KLON36
 70
     0
 71
     0
 10
0.0
 20
0.0
 30
0.0
  3
KLON36
  1

  4
KLON36
  0
LINE
  5
68D
330
68A
100
AcDbEntity
  8
LC-001-100-D00-0
 62
     7
370
    25
100
AcDbLine
 10
-22.891109
 20
352.367038
 30
0.0
 11
-18.370096
 21
356.888052
 31
0.0
  0
LINE
  5
68E
330
68A
100
AcDbEntity
  8
LC-001-100-D00-0
 62
     7
370
    25
100
AcDbLine
 10
-31.420096
 20
366.288692
 30
0.0
 11
-27.102725
 21
370.606063
 31
0.0
  0
ENDBLK
  5
68C
330
68A
100
AcDbEntity
  8
0
100
AcDbBlockEnd
  0
BLOCK
  5
693
330
692
100
AcDbEntity
  8
0
100
AcDbBlockBegin
  2
KLON37
 70
     0
 71
     0
 10
0.0
 20
0.0
 30
0.0
  3
KLON37
  1

  4
KLON37
  0
LINE
  5
695
330
692
100
AcDbEntity
  8
LC-001-100-D00-0
 62
     7
370
    25
100
AcDbLine
 10
447.84044
 20
351.635158
 30
0.0
 11
451.629904
 21
355.424622
 31
0.0
  0
LINE
  5
696
330
692
100
AcDbEntity
  8
LC-001-100-D00-0
 62
     7
370
    25
100
AcDbLine
 10
438.579904
 20
364.825263
 30
0.0
 11
444.360704
 21
370.606063
 31
0.0
  0
ENDBLK
  5
694
330
692
100
AcDbEntity
  8
0
100
AcDbBlockEnd
  0
BLOCK
  5
69B
330
69A
100
AcDbEntity
  8
0
100
AcDbBlockBegin
  2
KLON38
 70
     0
 71
     0
 10
0.0
 20
0.0
 30
0.0
  3
KLON38
  1

  4
KLON38
  0
LINE
  5
69D
330
69A
100
AcDbEntity
  8
LC-001-100-D00-0
 62
     7
370
    25
100
AcDbLine
 10
313.107508
 20
351.606063
 30
0.0
 11
316.629904
 21
355.128459
 31
0.0
  0
LINE
  5
69E
330
69A
100
AcDbEntity
  8
LC-001-100-D00-0
 62
     7
370
    25
100
AcDbLine
 10
303.579904
 20
364.5291
 30
0.0
 11
306.579904
 21
367.5291
 31
0.0
  0
LINE
  5
69F
330
69A
100
AcDbEntity
  8
LC-001-100-D00-0
 62
     7
370
    25
100
AcDbLine
 10
306.656868
 20
367.606063
 30
0.0
 11
309.656867
 21
370.606063
 31
0.0
  0
ENDBLK
  5
69C
330
69A
100
AcDbEntity
  8
0
100
AcDbBlockEnd
  0
BLOCK
  5
6A4
330
6A3
100
AcDbEntity
  8
0
100
AcDbBlockBegin
  2
KLON39
 70
     0
 71
     0
 10
0.0
 20
0.0
 30
0.0
  3
KLON39
  1

  4
KLON39
  0
LINE
  5
6A6
330
6A3
100
AcDbEntity
  8
LC-001-100-D00-0
 62
     7
370
    25
100
AcDbLine
 10
-292.693577
 20
351.972244
 30
0.0
 11
-288.370096
 21
356.295725
 31
0.0
  0
LINE
  5
6A7
330
6A3
100
AcDbEntity
  8
LC-001-100-D00-0
 62
     7
370
    25
100
AcDbLine
 10
-301.420096
 20
365.696366
 30
0.0
 11
-296.510399
 21
370.606063
 31
0.0
  0
ENDBLK
  5
6A5
330
6A3
100
AcDbEntity
  8
0
100
AcDbBlockEnd
  0
BLOCK
  5
6AC
330
6AB
100
AcDbEntity
  8
0
100
AcDbBlockBegin
  2
KLON40
 70
     0
 71
     0
 10
0.0
 20
0.0
 30
0.0
  3
KLON40
  1

  4
KLON40
  0
LINE
  5
6AE
330
6AB
100
AcDbEntity
  8
LC-001-100-D00-0
 62
     7
370
    25
100
AcDbLine
 10
-157.8107
 20
352.151284
 30
0.0
 11
-153.370096
 21
356.591889
 31
0.0
  0
LINE
  5
6AF
330
6AB
100
AcDbEntity
  8
LC-001-100-D00-0
 62
     7
370
    25
100
AcDbLine
 10
-166.420096
 20
365.992529
 30
0.0
 11
-161.806562
 21
370.606063
 31
0.0
  0
ENDBLK
  5
6AD
330
6AB
100
AcDbEntity
  8
0
100
AcDbBlockEnd
  0
ENDSEC
  0
SECTION
  2
ENTITIES
  0
ARC
  5
31
330
1F
100
AcDbEntity
  8
LC-001-100-D00-0
 62
     7
370
    50
100
AcDbCircle
 10
484.329916
 20
-12.919102
 30
0.0
 40
2.5
100
AcDbArc
 50
0.0
 51
90.0
  0
ARC
  5
32
330
1F
100
AcDbEntity
  8
LC-001-100-D00-0
 62
     7
370
    50
100
AcDbCircle
 10
484.329916
 20
-59.919102
 30
0.0
 40
2.5
100
AcDbArc
 50
270.0
 51
0.0
  0
LINE
  5
33
330
1F
100
AcDbEntity
  8
LC-001-100-D00-0
 62
     7
370
    50
100
AcDbLine
 10
486.829916
 20
-59.919102
 30
0.0
 11
486.829916
 21
-12.919102
 31
0.0
  0
LINE
  5
34
330
1F
100
AcDbEntity
  8
LC-001-100-D00-0
 62
     7
370
    50
100
AcDbLine
 10
484.329916
 20
-62.419102
 30
0.0
 11
-310.670084
 21
-62.419102
 31
0.0
  0
LINE
  5
35
330
1F
100
AcDbEntity
  8
LC-001-100-D00-0
 62
     7
370
    50
100
AcDbLine
 10
-310.670084
 20
-10.419102
 30
0.0
 11
484.329916
 21
-10.419102
 31
0.0
  0
ARC
  5
36
330
1F
100
AcDbEntity
  8
LC-001-100-D00-0
 62
     7
370
    50
100
AcDbCircle
 10
-310.670084
 20
-12.919102
 30
0.0
 40
2.5
100
AcDbArc
 50
90.0
 51
180.0
  0
ARC
  5
37
330
1F
100
AcDbEntity
  8
LC-001-100-D00-0
 62
     7
370
    50
100
AcDbCircle
 10
-310.670084
 20
-59.919102
 30
0.0
 40
2.5
100
AcDbArc
 50
180.0
 51
270.0
  0
LINE
  5
38
330
1F
100
AcDbEntity
  8
LC-001-100-D00-0
 62
     7
370
    50
100
AcDbLine
 10
-313.170084
 20
-59.919102
 30
0.0
 11
-313.170084
 21
-12.919102
 31
0.0
  0
ARC
  5
39
330
1F
100
AcDbEntity
  8
LC-001-100-D00-0
 62
     7
370
    50
100
AcDbCircle
 10
-358.170084
 20
36.080898
 30
0.0
 40
5.0
100
AcDbArc
 50
90.0
 51
180.0
  0
LINE
  5
3A
330
1F
100
AcDbEntity
  8
LC-001-100-D00-0
 62
     7
370
    50
100
AcDbLine
 10
531.829916
 20
41.080898
 30
0.0
 11
-358.170084
 21
41.080898
 31
0.0
  0
ARC
  5
3B
330
1F
100
AcDbEntity
  8
LC-001-100-D00-0
 62
     7
370
    50
100
AcDbCircle
 10
531.829916
 20
36.080898
 30
0.0
 40
5.0
100
AcDbArc
 50
0.0
 51
90.0
  0
LINE
  5
3C
330
1F
100
AcDbEntity
  8
LC-001-100-D00-0
 62
     7
370
    50
100
AcDbLine
 10
536.829916
 20
36.080898
 30
0.0
 11
536.829916
 21
-108.919102
 31
0.0
  0
ARC
  5
3D
330
1F
100
AcDbEntity
  8
LC-001-100-D00-0
 62
     7
370
    50
100
AcDbCircle
 10
531.829916
 20
-108.919102
 30
0.0
 40
5.0
100
AcDbArc
 50
270.0
 51
0.0
  0
LINE
  5
3E
330
1F
100
AcDbEntity
  8
LC-001-100-D00-0
 62
     7
370
    50
100
AcDbLine
 10
-358.170084
 20
-113.919102
 30
0.0
 11
531.829916
 21
-113.919102
 31
0.0
  0
ARC
  5
3F
330
1F
100
AcDbEntity
  8
LC-001-100-D00-0
 62
     7
370
    50
100
AcDbCircle
 10
-358.170084
 20
-108.919102
 30
0.0
 40
5.0
100
AcDbArc
 50
180.0
 51
270.0
  0
LINE
  5
40
330
1F
100
AcDbEntity
  8
LC-001-100-D00-0
 62
     7
370
    50
100
AcDbLine
 10
-363.170084
 20
36.080898
 30
0.0
 11
-363.170084
 21
-108.919102
 31
0.0
  0
CIRCLE
  5
41
330
1F
100
AcDbEntity
  8
LC-001-100-D00-0
 62
     7
370
    50
100
AcDbCircle
 10
456.829916
 20
-36.419102
 30
0.0
 40
3.000000000000114
  0
CIRCLE
  5
42
330
1F
100
AcDbEntity
  8
LC-001-100-D00-0
 62
     7
370
    50
100
AcDbCircle
 10
321.829916
 20
-36.419102
 30
0.0
 40
3.000000000000114
  0
CIRCLE
  5
43
330
1F
100
AcDbEntity
  8
LC-001-100-D00-0
 62
     7
370
    50
100
AcDbCircle
 10
186.829916
 20
-36.419102
 30
0.0
 40
3.000000000000114
  0
CIRCLE
  5
44
330
1F
100
AcDbEntity
  8
LC-001-100-D00-0
 62
     7
370
    50
100
AcDbCircle
 10
-13.170084
 20
-36.419102
 30
0.0
 40
3.000000000000114
  0
CIRCLE
  5
45
330
1F
100
AcDbEntity
  8
LC-001-100-D00-0
 62
     7
370
    50
100
AcDbCircle
 10
-148.170084
 20
-36.419102
 30
0.0
 40
3.000000000000114
  0
CIRCLE
  5
46
330
1F
100
AcDbEntity
  8
LC-001-100-D00-0
 62
     7
370
    50
100
AcDbCircle
 10
-283.170084
 20
-36.419102
 30
0.0
 40
2.999999999999886
  0
LINE
  5
47
330
1F
100
AcDbEntity
  8
LC-001-100-D00-0
 62
     7
370
    50
100
AcDbLine
 10
478.80374
 20
-48.741771
 30
0.0
 11
478.80374
 21
-59.919101
 31
0.0
  0
INSERT
  5
4E
330
1F
100
AcDbEntity
  8
LC-001-100-D00-0
 62
     7
370
    50
100
AcDbBlockReference
  2
KLON1
 10
0.0
 20
0.0
 30
0.0
  0
INSERT
  5
56
330
1F
100
AcDbEntity
  8
LC-001-100-D00-0
 62
     7
370
    50
100
AcDbBlockReference
  2
KLON2
 10
0.0
 20
0.0
 30
0.0
  0
LINE
  5
57
330
1F
100
AcDbEntity
  8
LC-001-100-D00-0
 62
     7
370
    50
100
AcDbLine
 10
478.80374
 20
-12.933741
 30
0.0
 11
478.80374
 21
-24.096433
 31
0.0
  0
INSERT
  5
5D
330
1F
100
AcDbEntity
  8
LC-001-100-D00-0
 62
     7
370
    50
100
AcDbBlockReference
  2
KLON3
 10
0.0
 20
0.0
 30
0.0
  0
INSERT
  5
63
330
1F
100
AcDbEntity
  8
LC-001-100-D00-0
 62
     7
370
    50
100
AcDbBlockReference
  2
KLON4
 10
0.0
 20
0.0
 30
0.0
  0
INSERT
  5
69
330
1F
100
AcDbEntity
  8
LC-001-100-D00-0
 62
     7
370
    50
100
AcDbBlockReference
  2
KLON5
 10
0.0
 20
0.0
 30
0.0
  0
LINE
  5
6A
330
1F
100
AcDbEntity
  8
LC-001-100-D00-0
 62
     7
370
    50
100
AcDbLine
 10
-305.143907
 20
-12.933741
 30
0.0
 11
-305.143907
 21
-24.096433
 31
0.0
  0
INSERT
  5
72
330
1F
100
AcDbEntity
  8
LC-001-100-D00-0
 62
     7
370
    50
100
AcDbBlockReference
  2
KLON6
 10
0.0
 20
0.0
 30
0.0
  0
INSERT
  5
79
330
1F
100
AcDbEntity
  8
LC-001-100-D00-0
 62
     7
370
    50
100
AcDbBlockReference
  2
KLON7
 10
0.0
 20
0.0
 30
0.0
  0
LINE
  5
7A
330
1F
100
AcDbEntity
  8
LC-001-100-D00-0
 62
     7
370
    50
100
AcDbLine
 10
-305.143907
 20
-48.741771
 30
0.0
 11
-305.143907
 21
-59.919101
 31
0.0
  0
INSERT
  5
80
330
1F
100
AcDbEntity
  8
LC-001-100-D00-0
 62
     7
370
    50
100
AcDbBlockReference
  2
KLON8
 10
0.0
 20
0.0
 30
0.0
  0
ELLIPSE
  5
81
330
1F
100
AcDbEntity
  8
LC-001-100-D00-0
 62
     7
370
    50
100
AcDbEllipse
 10
478.756948
 20
-59.919102
 30
0.0
 11
0.0
 21
-2.500000030517578
 31
0.0
210
0.0
220
0.0
230
1.0
 40
0.018242
 41
3.141592653586054
 42
4.712388980377286
  0
ELLIPSE
  5
82
330
1F
100
AcDbEntity
  8
LC-001-100-D00-0
 62
     7
370
    50
100
AcDbEllipse
 10
547.302553
 20
-59.919102
 30
0.0
 11
68.5000000024494
 21
0.0
 31
0.0
210
0.0
220
0.0
230
0.9999999999999999
 40
0.036496
 41
3.1415926535977
 42
3.169858841660965
  0
ELLIPSE
  5
83
330
1F
100
AcDbEntity
  8
LC-001-100-D00-0
 62
     7
370
    50
100
AcDbEllipse
 10
341.756948
 20
-59.919102
 30
0.0
 11
0.0
 21
-2.499999801635734
 31
0.0
210
0.0
220
0.0
230
1.0
 40
0.018242
 41
3.141592653584808
 42
4.712388980381054
  0
ELLIPSE
  5
84
330
1F
100
AcDbEntity
  8
LC-001-100-D00-0
 62
     7
370
    50
100
AcDbEllipse
 10
-305.097115
 20
-59.919102
 30
0.0
 11
0.0
 21
-2.49999988555908
 31
0.0
210
0.0
220
0.0
230
1.0
 40
0.018242
 41
1.570796326802306
 42
3.141592653601011
  0
ELLIPSE
  5
85
330
1F
100
AcDbEntity
  8
LC-001-100-D00-0
 62
     7
370
    50
100
AcDbEllipse
 10
-168.097115
 20
-59.919102
 30
0.0
 11
0.0
 21
-2.500000011444092
 31
0.0
210
0.0
220
0.0
230
1.0
 40
0.018242
 41
1.570796326798531
 42
3.141592653591039
  0
ELLIPSE
  5
86
330
1F
100
AcDbEntity
  8
LC-001-100-D00-0
 62
     7
370
    50
100
AcDbEllipse
 10
-373.642721
 20
-59.919102
 30
0.0
 11
68.5000000024494
 21
0.0
 31
0.0
210
0.0
220
0.0
230
0.9999999999999999
 40
0.036496
 41
6.254919119109233
 42
6.283185307179319
  0
ELLIPSE
  5
87
330
1F
100
AcDbEntity
  8
LC-001-100-D00-0
 62
     7
370
    50
100
AcDbEllipse
 10
547.302553
 20
-12.919102
 30
0.0
 11
68.50000000489915
 21
0.0
 31
0.0
210
0.0
220
0.0
230
1.0
 40
0.036496
 41
3.14159265358952
 42
3.147448628039216
  0
ELLIPSE
  5
88
330
1F
100
AcDbEntity
  8
LC-001-100-D00-0
 62
     7
370
    50
100
AcDbEllipse
 10
478.756948
 20
-12.919102
 30
0.0
 11
0.0
 21
-2.499999511718702
 31
0.0
210
0.0
220
0.0
230
1.0
 40
0.018242
 41
4.712388980384827
 42
6.283185334010083
  0
ELLIPSE
  5
89
330
1F
100
AcDbEntity
  8
LC-001-100-D00-0
 62
     7
370
    50
100
AcDbEllipse
 10
-373.642721
 20
-12.919102
 30
0.0
 11
68.50000000653161
 21
0.0
 31
0.0
210
0.0
220
0.0
230
1.0
 40
0.036496
 41
6.277329332730802
 42
6.283185307179676
  0
ELLIPSE
  5
8A
330
1F
100
AcDbEntity
  8
LC-001-100-D00-0
 62
     7
370
    50
100
AcDbEllipse
 10
-305.097115
 20
-12.919102
 30
0.0
 11
0.0
 21
-2.499999710082991
 31
0.0
210
0.0
220
0.0
230
1.0
 40
0.018242
 41
6.283185280336628
 42
7.853981633974664
  0
ELLIPSE
  5
8B
330
1F
100
AcDbEntity
  8
LC-001-100-D00-0
 62
     7
370
    50
100
AcDbEllipse
 10
341.756948
 20
-12.919102
 30
0.0
 11
0.0
 21
-2.499999679565409
 31
0.0
210
0.0
220
0.0
230
1.0
 40
0.018242
 41
4.712388980388373
 42
6.283185320146122
  0
ELLIPSE
  5
8C
330
1F
100
AcDbEntity
  8
LC-001-100-D00-0
 62
     7
370
    50
100
AcDbEllipse
 10
-168.097115
 20
-12.919102
 30
0.0
 11
0.0
 21
-2.499999633789036
 31
0.0
210
0.0
220
0.0
230
1.0
 40
0.018242
 41
6.283185294204326
 42
7.853981633970797
  0
LINE
  5
8D
330
1F
100
AcDbEntity
  8
LC-001-100-D00-0
 62
     7
370
    50
100
AcDbLine
 10
341.802553
 20
-59.919101
 30
0.0
 11
341.802553
 21
-57.068585
 31
0.0
  0
INSERT
  5
93
330
1F
100
AcDbEntity
  8
LC-001-100-D00-0
 62
     7
370
    50
100
AcDbBlockReference
  2
KLON9
 10
0.0
 20
0.0
 30
0.0
  0
INSERT
  5
99
330
1F
100
AcDbEntity
  8
LC-001-100-D00-0
 62
     7
370
    50
100
AcDbBlockReference
  2
KLON10
 10
0.0
 20
0.0
 30
0.0
  0
LINE
  5
9A
330
1F
100
AcDbEntity
  8
LC-001-100-D00-0
 62
     7
370
    50
100
AcDbLine
 10
-168.14272
 20
-59.919101
 30
0.0
 11
-168.14272
 21
-57.068585
 31
0.0
  0
INSERT
  5
A1
330
1F
100
AcDbEntity
  8
LC-001-100-D00-0
 62
     7
370
    50
100
AcDbBlockReference
  2
KLON11
 10
0.0
 20
0.0
 30
0.0
  0
INSERT
  5
A7
330
1F
100
AcDbEntity
  8
LC-001-100-D00-0
 62
     7
370
    50
100
AcDbBlockReference
  2
KLON12
 10
0.0
 20
0.0
 30
0.0
  0
INSERT
  5
AE
330
1F
100
AcDbEntity
  8
LC-001-100-D00-0
 62
     7
370
    50
100
AcDbBlockReference
  2
KLON13
 10
0.0
 20
0.0
 30
0.0
  0
INSERT
  5
B5
330
1F
100
AcDbEntity
  8
LC-001-100-D00-0
 62
     7
370
    50
100
AcDbBlockReference
  2
KLON14
 10
0.0
 20
0.0
 30
0.0
  0
INSERT
  5
BC
330
1F
100
AcDbEntity
  8
LC-001-100-D00-0
 62
     7
370
    50
100
AcDbBlockReference
  2
KLON15
 10
0.0
 20
0.0
 30
0.0
  0
INSERT
  5
C2
330
1F
100
AcDbEntity
  8
LC-001-100-D00-0
 62
     7
370
    50
100
AcDbBlockReference
  2
KLON16
 10
0.0
 20
0.0
 30
0.0
  0
LINE
  5
C3
330
1F
100
AcDbEntity
  8
LC-001-100-D00-0
 62
     7
370
    50
100
AcDbLine
 10
341.802553
 20
-15.769618
 30
0.0
 11
341.802553
 21
-12.919103
 31
0.0
  0
LINE
  5
C4
330
1F
100
AcDbEntity
  8
LC-001-100-D00-0
 62
     7
370
    50
100
AcDbLine
 10
-168.14272
 20
-15.769618
 30
0.0
 11
-168.14272
 21
-12.919103
 31
0.0
  0
LINE
  5
C5
330
1F
100
AcDbEntity
  8
LC-001-100-D00-0
 62
     7
370
    50
100
AcDbLine
 10
341.816828
 20
-56.27478
 30
0.0
 11
341.816828
 21
-42.280053
 31
0.0
  0
ELLIPSE
  5
C6
330
1F
100
AcDbEntity
  8
LC-001-100-D00-0
 62
     7
370
    50
100
AcDbEllipse
 10
198.570105
 20
-64.83991
 30
0.0
 11
143.2466511784104
 21
8.567474719709313
 31
0.0
210
0.0
220
0.0
230
1.0
 40
0.016531
 41
6.280994665934728
 42
6.282196627512255
  0
ELLIPSE
  5
C7
330
1F
100
AcDbEntity
  8
LC-001-100-D00-0
 62
     7
370
    50
100
AcDbEllipse
 10
198.570105
 20
-7.998294
 30
0.0
 11
143.2466514113283
 21
-8.567474733639928
 31
0.0
210
0.0
220
0.0
230
1.0
 40
0.016531
 41
0.000988679663512
 42
0.0021906412411142
  0
LINE
  5
C8
330
1F
100
AcDbEntity
  8
LC-001-100-D00-0
 62
     7
370
    50
100
AcDbLine
 10
341.816828
 20
-30.558151
 30
0.0
 11
341.816828
 21
-16.563424
 31
0.0
  0
ELLIPSE
  5
C9
330
1F
100
AcDbEntity
  8
LC-001-100-D00-0
 62
     7
370
    50
100
AcDbEllipse
 10
-24.910272
 20
-64.83991
 30
0.0
 11
143.2466511449782
 21
-8.567474717709764
 31
0.0
210
0.0
220
0.0
230
1.0
 40
0.016531
 41
3.142581333252606
 42
3.143783294830202
  0
LINE
  5
CA
330
1F
100
AcDbEntity
  8
LC-001-100-D00-0
 62
     7
370
    50
100
AcDbLine
 10
-168.156996
 20
-56.27478
 30
0.0
 11
-168.156996
 21
-42.280053
 31
0.0
  0
ELLIPSE
  5
CB
330
1F
100
AcDbEntity
  8
LC-001-100-D00-0
 62
     7
370
    50
100
AcDbEllipse
 10
-24.910272
 20
-7.998294
 30
0.0
 11
143.2466516555143
 21
8.567474748244537
 31
0.0
210
0.0
220
0.0
230
0.9999999999999999
 40
0.016531
 41
3.139402012345463
 42
3.140603973922766
  0
LINE
  5
CC
330
1F
100
AcDbEntity
  8
LC-001-100-D00-0
 62
     7
370
    50
100
AcDbLine
 10
-168.156996
 20
-30.558151
 30
0.0
 11
-168.156996
 21
-16.563424
 31
0.0
  0
LINE
  5
CD
330
1F
100
AcDbEntity
  8
LC-001-100-D00-0
 62
     7
370
    50
100
AcDbLine
 10
341.802553
 20
-15.769991
 30
0.0
 11
341.816709
 21
-16.560561
 31
0.0
  0
LINE
  5
CE
330
1F
100
AcDbEntity
  8
LC-001-100-D00-0
 62
     7
370
    50
100
AcDbLine
 10
341.802553
 20
-57.068213
 30
0.0
 11
341.816709
 21
-56.277643
 31
0.0
  0
LINE
  5
CF
330
1F
100
AcDbEntity
  8
LC-001-100-D00-0
 62
     7
370
    50
100
AcDbLine
 10
-168.14272
 20
-57.068213
 30
0.0
 11
-168.156876
 21
-56.277643
 31
0.0
  0
LINE
  5
D0
330
1F
100
AcDbEntity
  8
LC-001-100-D00-0
 62
     7
370
    50
100
AcDbLine
 10
-168.14272
 20
-15.769991
 30
0.0
 11
-168.156876
 21
-16.560561
 31
0.0
  0
ARC
  5
D1
330
1F
100
AcDbEntity
  8
LC-001-100-D00-0
 62
     7
370
    50
100
AcDbCircle
 10
117.329909
 20
-36.419081
 30
0.0
 40
24.80002105913775
100
AcDbArc
 50
270.0
 51
300.592807
  0
ARC
  5
D2
330
1F
100
AcDbEntity
  8
LC-001-100-D00-0
 62
     7
370
    50
100
AcDbCircle
 10
56.329924
 20
-36.419081
 30
0.0
 40
24.80002105913788
100
AcDbArc
 50
239.407193
 51
270.0
  0
ARC
  5
D3
330
1F
100
AcDbEntity
  8
LC-001-100-D00-0
 62
     7
370
    50
100
AcDbCircle
 10
117.329911
 20
-36.419115
 30
0.0
 40
24.80001358063626
100
AcDbArc
 50
59.407188
 51
90.0
  0
ARC
  5
D4
330
1F
100
AcDbEntity
  8
LC-001-100-D00-0
 62
     7
370
    50
100
AcDbCircle
 10
56.329922
 20
-36.419115
 30
0.0
 40
24.80001358063646
100
AcDbArc
 50
90.0
 51
120.592812
  0
LINE
  5
D5
330
1F
100
AcDbEntity
  8
LC-001-100-D00-0
 62
     7
370
    50
100
AcDbLine
 10
56.329916
 20
-11.619101
 30
0.0
 11
117.329917
 21
-11.619101
 31
0.0
  0
LINE
  5
D6
330
1F
100
AcDbEntity
  8
LC-001-100-D00-0
 62
     7
370
    50
100
AcDbLine
 10
117.329917
 20
-61.219103
 30
0.0
 11
56.329916
 21
-61.219103
 31
0.0
  0
LINE
  5
D7
330
1F
100
AcDbEntity
  8
LC-001-100-D00-0
 62
     7
370
    50
100
AcDbLine
 10
19.997083
 20
-32.980199
 30
0.0
 11
20.005227
 21
-33.348091
 31
0.0
  0
LINE
  5
D8
330
1F
100
AcDbEntity
  8
LC-001-100-D00-0
 62
     7
370
    50
100
AcDbLine
 10
18.885807
 20
-32.18723
 30
0.0
 11
19.997083
 21
-32.980199
 31
0.0
  0
LINE
  5
D9
330
1F
100
AcDbEntity
  8
LC-001-100-D00-0
 62
     7
370
    50
100
AcDbLine
 10
19.997083
 20
-31.394261
 30
0.0
 11
18.885807
 21
-32.18723
 31
0.0
  0
LINE
  5
DA
330
1F
100
AcDbEntity
  8
LC-001-100-D00-0
 62
     7
370
    50
100
AcDbLine
 10
19.997083
 20
-31.020563
 30
0.0
 11
19.997083
 21
-31.394261
 31
0.0
  0
LINE
  5
DB
330
1F
100
AcDbEntity
  8
LC-001-100-D00-0
 62
     7
370
    50
100
AcDbLine
 10
18.623584
 20
-32.000031
 30
0.0
 11
19.997083
 21
-31.020563
 31
0.0
  0
LINE
  5
DC
330
1F
100
AcDbEntity
  8
LC-001-100-D00-0
 62
     7
370
    50
100
AcDbLine
 10
17.439388
 20
-31.155179
 30
0.0
 11
18.623584
 21
-32.000031
 31
0.0
  0
LINE
  5
DD
330
1F
100
AcDbEntity
  8
LC-001-100-D00-0
 62
     7
370
    50
100
AcDbLine
 10
17.439388
 20
-31.528877
 30
0.0
 11
17.439388
 21
-31.155179
 31
0.0
  0
LINE
  5
DE
330
1F
100
AcDbEntity
  8
LC-001-100-D00-0
 62
     7
370
    50
100
AcDbLine
 10
18.362068
 20
-32.18723
 30
0.0
 11
17.439388
 21
-31.528877
 31
0.0
  0
LINE
  5
DF
330
1F
100
AcDbEntity
  8
LC-001-100-D00-0
 62
     7
370
    50
100
AcDbLine
 10
17.439388
 20
-32.845583
 30
0.0
 11
18.362068
 21
-32.18723
 31
0.0
  0
LINE
  5
E0
330
1F
100
AcDbEntity
  8
LC-001-100-D00-0
 62
     7
370
    50
100
AcDbLine
 10
17.439388
 20
-33.219281
 30
0.0
 11
17.439388
 21
-32.845583
 31
0.0
  0
LINE
  5
E1
330
1F
100
AcDbEntity
  8
LC-001-100-D00-0
 62
     7
370
    50
100
AcDbLine
 10
18.623584
 20
-32.373729
 30
0.0
 11
17.439388
 21
-33.219281
 31
0.0
  0
LINE
  5
E2
330
1F
100
AcDbEntity
  8
LC-001-100-D00-0
 62
     7
370
    50
100
AcDbLine
 10
20.005227
 20
-33.348091
 30
0.0
 11
18.623584
 21
-32.373729
 31
0.0
  0
LINE
  5
E3
330
1F
100
AcDbEntity
  8
LC-001-100-D00-0
 62
     7
370
    50
100
AcDbLine
 10
19.997083
 20
-37.646866
 30
0.0
 11
20.005227
 21
-38.014757
 31
0.0
  0
LINE
  5
E4
330
1F
100
AcDbEntity
  8
LC-001-100-D00-0
 62
     7
370
    50
100
AcDbLine
 10
18.885807
 20
-36.853897
 30
0.0
 11
19.997083
 21
-37.646866
 31
0.0
  0
LINE
  5
E5
330
1F
100
AcDbEntity
  8
LC-001-100-D00-0
 62
     7
370
    50
100
AcDbLine
 10
19.997083
 20
-36.060928
 30
0.0
 11
18.885807
 21
-36.853897
 31
0.0
  0
LINE
  5
E6
330
1F
100
AcDbEntity
  8
LC-001-100-D00-0
 62
     7
370
    50
100
AcDbLine
 10
19.997083
 20
-35.68723
 30
0.0
 11
19.997083
 21
-36.060928
 31
0.0
  0
LINE
  5
E7
330
1F
100
AcDbEntity
  8
LC-001-100-D00-0
 62
     7
370
    50
100
AcDbLine
 10
18.623584
 20
-36.666697
 30
0.0
 11
19.997083
 21
-35.68723
 31
0.0
  0
LINE
  5
E8
330
1F
100
AcDbEntity
  8
LC-001-100-D00-0
 62
     7
370
    50
100
AcDbLine
 10
17.439388
 20
-35.821845
 30
0.0
 11
18.623584
 21
-36.666697
 31
0.0
  0
LINE
  5
E9
330
1F
100
AcDbEntity
  8
LC-001-100-D00-0
 62
     7
370
    50
100
AcDbLine
 10
17.439388
 20
-36.195543
 30
0.0
 11
17.439388
 21
-35.821845
 31
0.0
  0
LINE
  5
EA
330
1F
100
AcDbEntity
  8
LC-001-100-D00-0
 62
     7
370
    50
100
AcDbLine
 10
18.362068
 20
-36.853897
 30
0.0
 11
17.439388
 21
-36.195543
 31
0.0
  0
LINE
  5
EB
330
1F
100
AcDbEntity
  8
LC-001-100-D00-0
 62
     7
370
    50
100
AcDbLine
 10
17.439388
 20
-37.51225
 30
0.0
 11
18.362068
 21
-36.853897
 31
0.0
  0
LINE
  5
EC
330
1F
100
AcDbEntity
  8
LC-001-100-D00-0
 62
     7
370
    50
100
AcDbLine
 10
17.439388
 20
-37.885948
 30
0.0
 11
17.439388
 21
-37.51225
 31
0.0
  0
LINE
  5
ED
330
1F
100
AcDbEntity
  8
LC-001-100-D00-0
 62
     7
370
    50
100
AcDbLine
 10
18.623584
 20
-37.040395
 30
0.0
 11
17.439388
 21
-37.885948
 31
0.0
  0
LINE
  5
EE
330
1F
100
AcDbEntity
  8
LC-001-100-D00-0
 62
     7
370
    50
100
AcDbLine
 10
20.005227
 20
-38.014757
 30
0.0
 11
18.623584
 21
-37.040395
 31
0.0
  0
LINE
  5
EF
330
1F
100
AcDbEntity
  8
LC-001-100-D00-0
 62
     7
370
    50
100
AcDbLine
 10
19.997083
 20
-42.313532
 30
0.0
 11
20.005227
 21
-42.681424
 31
0.0
  0
LINE
  5
F0
330
1F
100
AcDbEntity
  8
LC-001-100-D00-0
 62
     7
370
    50
100
AcDbLine
 10
18.885807
 20
-41.520563
 30
0.0
 11
19.997083
 21
-42.313532
 31
0.0
  0
LINE
  5
F1
330
1F
100
AcDbEntity
  8
LC-001-100-D00-0
 62
     7
370
    50
100
AcDbLine
 10
19.997083
 20
-40.727595
 30
0.0
 11
18.885807
 21
-41.520563
 31
0.0
  0
LINE
  5
F2
330
1F
100
AcDbEntity
  8
LC-001-100-D00-0
 62
     7
370
    50
100
AcDbLine
 10
19.997083
 20
-40.353897
 30
0.0
 11
19.997083
 21
-40.727595
 31
0.0
  0
LINE
  5
F3
330
1F
100
AcDbEntity
  8
LC-001-100-D00-0
 62
     7
370
    50
100
AcDbLine
 10
18.623584
 20
-41.333364
 30
0.0
 11
19.997083
 21
-40.353897
 31
0.0
  0
LINE
  5
F4
330
1F
100
AcDbEntity
  8
LC-001-100-D00-0
 62
     7
370
    50
100
AcDbLine
 10
17.439388
 20
-40.488512
 30
0.0
 11
18.623584
 21
-41.333364
 31
0.0
  0
LINE
  5
F5
330
1F
100
AcDbEntity
  8
LC-001-100-D00-0
 62
     7
370
    50
100
AcDbLine
 10
17.439388
 20
-40.86221
 30
0.0
 11
17.439388
 21
-40.488512
 31
0.0
  0
LINE
  5
F6
330
1F
100
AcDbEntity
  8
LC-001-100-D00-0
 62
     7
370
    50
100
AcDbLine
 10
18.362068
 20
-41.520563
 30
0.0
 11
17.439388
 21
-40.86221
 31
0.0
  0
LINE
  5
F7
330
1F
100
AcDbEntity
  8
LC-001-100-D00-0
 62
     7
370
    50
100
AcDbLine
 10
17.439388
 20
-42.178917
 30
0.0
 11
18.362068
 21
-41.520563
 31
0.0
  0
LINE
  5
F8
330
1F
100
AcDbEntity
  8
LC-001-100-D00-0
 62
     7
370
    50
100
AcDbLine
 10
17.439388
 20
-42.552615
 30
0.0
 11
17.439388
 21
-42.178917
 31
0.0
  0
LINE
  5
F9
330
1F
100
AcDbEntity
  8
LC-001-100-D00-0
 62
     7
370
    50
100
AcDbLine
 10
18.623584
 20
-41.707062
 30
0.0
 11
17.439388
 21
-42.552615
 31
0.0
  0
LINE
  5
FA
330
1F
100
AcDbEntity
  8
LC-001-100-D00-0
 62
     7
370
    50
100
AcDbLine
 10
20.005227
 20
-42.681424
 30
0.0
 11
18.623584
 21
-41.707062
 31
0.0
  0
LINE
  5
FB
330
1F
100
AcDbEntity
  8
LC-001-100-D00-0
 62
     7
370
    50
100
AcDbLine
 10
19.997083
 20
-44.646866
 30
0.0
 11
19.997083
 21
-45.020563
 31
0.0
  0
LINE
  5
FC
330
1F
100
AcDbEntity
  8
LC-001-100-D00-0
 62
     7
370
    50
100
AcDbLine
 10
18.885807
 20
-43.853897
 30
0.0
 11
19.997083
 21
-44.646866
 31
0.0
  0
LINE
  5
FD
330
1F
100
AcDbEntity
  8
LC-001-100-D00-0
 62
     7
370
    50
100
AcDbLine
 10
19.997083
 20
-43.060928
 30
0.0
 11
18.885807
 21
-43.853897
 31
0.0
  0
LINE
  5
FE
330
1F
100
AcDbEntity
  8
LC-001-100-D00-0
 62
     7
370
    50
100
AcDbLine
 10
19.997083
 20
-42.68723
 30
0.0
 11
19.997083
 21
-43.060928
 31
0.0
  0
LINE
  5
FF
330
1F
100
AcDbEntity
  8
LC-001-100-D00-0
 62
     7
370
    50
100
AcDbLine
 10
18.623584
 20
-43.666697
 30
0.0
 11
19.997083
 21
-42.68723
 31
0.0
  0
LINE
  5
100
330
1F
100
AcDbEntity
  8
LC-001-100-D00-0
 62
     7
370
    50
100
AcDbLine
 10
17.439388
 20
-42.821845
 30
0.0
 11
18.623584
 21
-43.666697
 31
0.0
  0
LINE
  5
101
330
1F
100
AcDbEntity
  8
LC-001-100-D00-0
 62
     7
370
    50
100
AcDbLine
 10
17.439388
 20
-43.195543
 30
0.0
 11
17.439388
 21
-42.821845
 31
0.0
  0
LINE
  5
102
330
1F
100
AcDbEntity
  8
LC-001-100-D00-0
 62
     7
370
    50
100
AcDbLine
 10
18.362068
 20
-43.853897
 30
0.0
 11
17.439388
 21
-43.195543
 31
0.0
  0
LINE
  5
103
330
1F
100
AcDbEntity
  8
LC-001-100-D00-0
 62
     7
370
    50
100
AcDbLine
 10
17.439388
 20
-44.51225
 30
0.0
 11
18.362068
 21
-43.853897
 31
0.0
  0
LINE
  5
104
330
1F
100
AcDbEntity
  8
LC-001-100-D00-0
 62
     7
370
    50
100
AcDbLine
 10
17.439388
 20
-44.885948
 30
0.0
 11
17.439388
 21
-44.51225
 31
0.0
  0
LINE
  5
105
330
1F
100
AcDbEntity
  8
LC-001-100-D00-0
 62
     7
370
    50
100
AcDbLine
 10
18.623584
 20
-44.040395
 30
0.0
 11
17.439388
 21
-44.885948
 31
0.0
  0
LINE
  5
106
330
1F
100
AcDbEntity
  8
LC-001-100-D00-0
 62
     7
370
    50
100
AcDbLine
 10
19.997083
 20
-45.020563
 30
0.0
 11
18.623584
 21
-44.040395
 31
0.0
  0
LINE
  5
107
330
1F
100
AcDbEntity
  8
LC-001-100-D00-0
 62
     7
370
    50
100
AcDbLine
 10
19.997083
 20
-39.980199
 30
0.0
 11
20.005227
 21
-40.348091
 31
0.0
  0
LINE
  5
108
330
1F
100
AcDbEntity
  8
LC-001-100-D00-0
 62
     7
370
    50
100
AcDbLine
 10
18.885807
 20
-39.18723
 30
0.0
 11
19.997083
 21
-39.980199
 31
0.0
  0
LINE
  5
109
330
1F
100
AcDbEntity
  8
LC-001-100-D00-0
 62
     7
370
    50
100
AcDbLine
 10
19.997083
 20
-38.394261
 30
0.0
 11
18.885807
 21
-39.18723
 31
0.0
  0
LINE
  5
10A
330
1F
100
AcDbEntity
  8
LC-001-100-D00-0
 62
     7
370
    50
100
AcDbLine
 10
19.997083
 20
-38.020563
 30
0.0
 11
19.997083
 21
-38.394261
 31
0.0
  0
LINE
  5
10B
330
1F
100
AcDbEntity
  8
LC-001-100-D00-0
 62
     7
370
    50
100
AcDbLine
 10
18.623584
 20
-39.00003
 30
0.0
 11
19.997083
 21
-38.020563
 31
0.0
  0
LINE
  5
10C
330
1F
100
AcDbEntity
  8
LC-001-100-D00-0
 62
     7
370
    50
100
AcDbLine
 10
17.439388
 20
-38.155179
 30
0.0
 11
18.623584
 21
-39.00003
 31
0.0
  0
LINE
  5
10D
330
1F
100
AcDbEntity
  8
LC-001-100-D00-0
 62
     7
370
    50
100
AcDbLine
 10
17.439388
 20
-38.528877
 30
0.0
 11
17.439388
 21
-38.155179
 31
0.0
  0
LINE
  5
10E
330
1F
100
AcDbEntity
  8
LC-001-100-D00-0
 62
     7
370
    50
100
AcDbLine
 10
18.362068
 20
-39.18723
 30
0.0
 11
17.439388
 21
-38.528877
 31
0.0
  0
LINE
  5
10F
330
1F
100
AcDbEntity
  8
LC-001-100-D00-0
 62
     7
370
    50
100
AcDbLine
 10
17.439388
 20
-39.845583
 30
0.0
 11
18.362068
 21
-39.18723
 31
0.0
  0
LINE
  5
110
330
1F
100
AcDbEntity
  8
LC-001-100-D00-0
 62
     7
370
    50
100
AcDbLine
 10
17.439388
 20
-40.219281
 30
0.0
 11
17.439388
 21
-39.845583
 31
0.0
  0
LINE
  5
111
330
1F
100
AcDbEntity
  8
LC-001-100-D00-0
 62
     7
370
    50
100
AcDbLine
 10
18.623584
 20
-39.373729
 30
0.0
 11
17.439388
 21
-40.219281
 31
0.0
  0
LINE
  5
112
330
1F
100
AcDbEntity
  8
LC-001-100-D00-0
 62
     7
370
    50
100
AcDbLine
 10
20.005227
 20
-40.348091
 30
0.0
 11
18.623584
 21
-39.373729
 31
0.0
  0
LINE
  5
113
330
1F
100
AcDbEntity
  8
LC-001-100-D00-0
 62
     7
370
    50
100
AcDbLine
 10
19.997083
 20
-35.313532
 30
0.0
 11
20.005227
 21
-35.681424
 31
0.0
  0
LINE
  5
114
330
1F
100
AcDbEntity
  8
LC-001-100-D00-0
 62
     7
370
    50
100
AcDbLine
 10
18.885807
 20
-34.520563
 30
0.0
 11
19.997083
 21
-35.313532
 31
0.0
  0
LINE
  5
115
330
1F
100
AcDbEntity
  8
LC-001-100-D00-0
 62
     7
370
    50
100
AcDbLine
 10
19.997083
 20
-33.727595
 30
0.0
 11
18.885807
 21
-34.520563
 31
0.0
  0
LINE
  5
116
330
1F
100
AcDbEntity
  8
LC-001-100-D00-0
 62
     7
370
    50
100
AcDbLine
 10
19.997083
 20
-33.353897
 30
0.0
 11
19.997083
 21
-33.727595
 31
0.0
  0
LINE
  5
117
330
1F
100
AcDbEntity
  8
LC-001-100-D00-0
 62
     7
370
    50
100
AcDbLine
 10
18.623584
 20
-34.333364
 30
0.0
 11
19.997083
 21
-33.353897
 31
0.0
  0
LINE
  5
118
330
1F
100
AcDbEntity
  8
LC-001-100-D00-0
 62
     7
370
    50
100
AcDbLine
 10
17.439388
 20
-33.488512
 30
0.0
 11
18.623584
 21
-34.333364
 31
0.0
  0
LINE
  5
119
330
1F
100
AcDbEntity
  8
LC-001-100-D00-0
 62
     7
370
    50
100
AcDbLine
 10
17.439388
 20
-33.86221
 30
0.0
 11
17.439388
 21
-33.488512
 31
0.0
  0
LINE
  5
11A
330
1F
100
AcDbEntity
  8
LC-001-100-D00-0
 62
     7
370
    50
100
AcDbLine
 10
18.362068
 20
-34.520563
 30
0.0
 11
17.439388
 21
-33.86221
 31
0.0
  0
LINE
  5
11B
330
1F
100
AcDbEntity
  8
LC-001-100-D00-0
 62
     7
370
    50
100
AcDbLine
 10
17.439388
 20
-35.178917
 30
0.0
 11
18.362068
 21
-34.520563
 31
0.0
  0
LINE
  5
11C
330
1F
100
AcDbEntity
  8
LC-001-100-D00-0
 62
     7
370
    50
100
AcDbLine
 10
17.439388
 20
-35.552615
 30
0.0
 11
17.439388
 21
-35.178917
 31
0.0
  0
LINE
  5
11D
330
1F
100
AcDbEntity
  8
LC-001-100-D00-0
 62
     7
370
    50
100
AcDbLine
 10
18.623584
 20
-34.707062
 30
0.0
 11
17.439388
 21
-35.552615
 31
0.0
  0
LINE
  5
11E
330
1F
100
AcDbEntity
  8
LC-001-100-D00-0
 62
     7
370
    50
100
AcDbLine
 10
20.005227
 20
-35.681424
 30
0.0
 11
18.623584
 21
-34.707062
 31
0.0
  0
ARC
  5
11F
330
1F
100
AcDbEntity
  8
LC-001-100-D00-0
 62
     7
370
    50
100
AcDbCircle
 10
117.329916
 20
-36.419102
 30
0.0
 40
24.79999999999453
100
AcDbArc
 50
300.592814
 51
59.407186
  0
ARC
  5
120
330
1F
100
AcDbEntity
  8
LC-001-100-D00-0
 62
     7
370
    50
100
AcDbCircle
 10
56.329916
 20
-36.419102
 30
0.0
 40
24.79999999999453
100
AcDbArc
 50
120.592814
 51
239.407186
  0
ARC
  5
121
330
1F
100
AcDbEntity
  8
LC-001-100-D00-0
 62
     7
370
    50
100
AcDbCircle
 10
0.079916
 20
-23.169102
 30
0.0
 40
5.0
100
AcDbArc
 50
0.0
 51
90.0
  0
ARC
  5
122
330
1F
100
AcDbEntity
  8
LC-001-100-D00-0
 62
     7
370
    50
100
AcDbCircle
 10
0.079916
 20
-49.669102
 30
0.0
 40
5.0
100
AcDbArc
 50
270.0
 51
0.0
  0
LINE
  5
123
330
1F
100
AcDbEntity
  8
LC-001-100-D00-0
 62
     7
370
    50
100
AcDbLine
 10
5.079916
 20
-23.169102
 30
0.0
 11
5.079916
 21
-49.669102
 31
0.0
  0
CIRCLE
  5
124
330
1F
100
AcDbEntity
  8
LC-001-100-D00-0
 62
     7
370
    50
100
AcDbCircle
 10
-13.170084
 20
-36.419102
 30
0.0
 40
3.899999999999864
  0
LINE
  5
125
330
1F
100
AcDbEntity
  8
LC-001-100-D00-0
 62
     7
370
    50
100
AcDbLine
 10
0.079916
 20
-54.669102
 30
0.0
 11
-26.420084
 21
-54.669102
 31
0.0
  0
LINE
  5
126
330
1F
100
AcDbEntity
  8
LC-001-100-D00-0
 62
     7
370
    50
100
AcDbLine
 10
-26.420084
 20
-18.169102
 30
0.0
 11
0.079916
 21
-18.169102
 31
0.0
  0
ARC
  5
127
330
1F
100
AcDbEntity
  8
LC-001-100-D00-0
 62
     7
370
    50
100
AcDbCircle
 10
-26.420084
 20
-49.669102
 30
0.0
 40
5.0
100
AcDbArc
 50
180.0
 51
270.0
  0
ARC
  5
128
330
1F
100
AcDbEntity
  8
LC-001-100-D00-0
 62
     7
370
    50
100
AcDbCircle
 10
-26.420084
 20
-23.169102
 30
0.0
 40
5.0
100
AcDbArc
 50
90.0
 51
180.0
  0
LINE
  5
129
330
1F
100
AcDbEntity
  8
LC-001-100-D00-0
 62
     7
370
    50
100
AcDbLine
 10
-31.420084
 20
-49.669102
 30
0.0
 11
-31.420084
 21
-23.169102
 31
0.0
  0
LINE
  5
12A
330
1F
100
AcDbEntity
  8
LC-001-100-D00-0
 62
     7
370
    50
100
AcDbLine
 10
475.079916
 20
-23.169102
 30
0.0
 11
475.079916
 21
-49.669102
 31
0.0
  0
ARC
  5
12B
330
1F
100
AcDbEntity
  8
LC-001-100-D00-0
 62
     7
370
    50
100
AcDbCircle
 10
470.079916
 20
-23.169102
 30
0.0
 40
5.0
100
AcDbArc
 50
0.0
 51
90.0
  0
ARC
  5
12C
330
1F
100
AcDbEntity
  8
LC-001-100-D00-0
 62
     7
370
    50
100
AcDbCircle
 10
470.079916
 20
-49.669102
 30
0.0
 40
5.0
100
AcDbArc
 50
270.0
 51
0.0
  0
CIRCLE
  5
12D
330
1F
100
AcDbEntity
  8
LC-001-100-D00-0
 62
     7
370
    50
100
AcDbCircle
 10
456.829916
 20
-36.419102
 30
0.0
 40
3.899999999999864
  0
LINE
  5
12E
330
1F
100
AcDbEntity
  8
LC-001-100-D00-0
 62
     7
370
    50
100
AcDbLine
 10
470.079916
 20
-54.669102
 30
0.0
 11
443.579916
 21
-54.669102
 31
0.0
  0
LINE
  5
12F
330
1F
100
AcDbEntity
  8
LC-001-100-D00-0
 62
     7
370
    50
100
AcDbLine
 10
443.579916
 20
-18.169102
 30
0.0
 11
470.079916
 21
-18.169102
 31
0.0
  0
ARC
  5
130
330
1F
100
AcDbEntity
  8
LC-001-100-D00-0
 62
     7
370
    50
100
AcDbCircle
 10
443.579916
 20
-23.169102
 30
0.0
 40
5.0
100
AcDbArc
 50
90.0
 51
180.0
  0
ARC
  5
131
330
1F
100
AcDbEntity
  8
LC-001-100-D00-0
 62
     7
370
    50
100
AcDbCircle
 10
443.579916
 20
-49.669102
 30
0.0
 40
5.0
100
AcDbArc
 50
180.0
 51
270.0
  0
LINE
  5
132
330
1F
100
AcDbEntity
  8
LC-001-100-D00-0
 62
     7
370
    50
100
AcDbLine
 10
438.579916
 20
-49.669102
 30
0.0
 11
438.579916
 21
-23.169102
 31
0.0
  0
ARC
  5
133
330
1F
100
AcDbEntity
  8
LC-001-100-D00-0
 62
     7
370
    50
100
AcDbCircle
 10
-269.920084
 20
-23.169102
 30
0.0
 40
5.0
100
AcDbArc
 50
0.0
 51
90.0
  0
ARC
  5
134
330
1F
100
AcDbEntity
  8
LC-001-100-D00-0
 62
     7
370
    50
100
AcDbCircle
 10
-269.920084
 20
-49.669102
 30
0.0
 40
5.0
100
AcDbArc
 50
270.0
 51
0.0
  0
LINE
  5
135
330
1F
100
AcDbEntity
  8
LC-001-100-D00-0
 62
     7
370
    50
100
AcDbLine
 10
-264.920084
 20
-23.169102
 30
0.0
 11
-264.920084
 21
-49.669102
 31
0.0
  0
CIRCLE
  5
136
330
1F
100
AcDbEntity
  8
LC-001-100-D00-0
 62
     7
370
    50
100
AcDbCircle
 10
-283.170084
 20
-36.419102
 30
0.0
 40
3.899999999999864
  0
LINE
  5
137
330
1F
100
AcDbEntity
  8
LC-001-100-D00-0
 62
     7
370
    50
100
AcDbLine
 10
-296.420084
 20
-18.169102
 30
0.0
 11
-269.920084
 21
-18.169102
 31
0.0
  0
LINE
  5
138
330
1F
100
AcDbEntity
  8
LC-001-100-D00-0
 62
     7
370
    50
100
AcDbLine
 10
-269.920084
 20
-54.669102
 30
0.0
 11
-296.420084
 21
-54.669102
 31
0.0
  0
ARC
  5
139
330
1F
100
AcDbEntity
  8
LC-001-100-D00-0
 62
     7
370
    50
100
AcDbCircle
 10
-296.420084
 20
-23.169102
 30
0.0
 40
5.0
100
AcDbArc
 50
90.0
 51
180.0
  0
ARC
  5
13A
330
1F
100
AcDbEntity
  8
LC-001-100-D00-0
 62
     7
370
    50
100
AcDbCircle
 10
-296.420084
 20
-49.669102
 30
0.0
 40
5.0
100
AcDbArc
 50
180.0
 51
270.0
  0
LINE
  5
13B
330
1F
100
AcDbEntity
  8
LC-001-100-D00-0
 62
     7
370
    50
100
AcDbLine
 10
-301.420084
 20
-49.669102
 30
0.0
 11
-301.420084
 21
-23.169102
 31
0.0
  0
ARC
  5
13C
330
1F
100
AcDbEntity
  8
LC-001-100-D00-0
 62
     7
370
    50
100
AcDbCircle
 10
-134.920084
 20
-49.669102
 30
0.0
 40
5.0
100
AcDbArc
 50
270.0
 51
0.0
  0
LINE
  5
13D
330
1F
100
AcDbEntity
  8
LC-001-100-D00-0
 62
     7
370
    50
100
AcDbLine
 10
-129.920084
 20
-23.169102
 30
0.0
 11
-129.920084
 21
-49.669102
 31
0.0
  0
ARC
  5
13E
330
1F
100
AcDbEntity
  8
LC-001-100-D00-0
 62
     7
370
    50
100
AcDbCircle
 10
-134.920084
 20
-23.169102
 30
0.0
 40
5.0
100
AcDbArc
 50
0.0
 51
90.0
  0
CIRCLE
  5
13F
330
1F
100
AcDbEntity
  8
LC-001-100-D00-0
 62
     7
370
    50
100
AcDbCircle
 10
-148.170084
 20
-36.419102
 30
0.0
 40
3.899999999999864
  0
LINE
  5
140
330
1F
100
AcDbEntity
  8
LC-001-100-D00-0
 62
     7
370
    50
100
AcDbLine
 10
-134.920084
 20
-54.669102
 30
0.0
 11
-161.420084
 21
-54.669102
 31
0.0
  0
LINE
  5
141
330
1F
100
AcDbEntity
  8
LC-001-100-D00-0
 62
     7
370
    50
100
AcDbLine
 10
-161.420084
 20
-18.169102
 30
0.0
 11
-134.920084
 21
-18.169102
 31
0.0
  0
ARC
  5
142
330
1F
100
AcDbEntity
  8
LC-001-100-D00-0
 62
     7
370
    50
100
AcDbCircle
 10
-161.420084
 20
-49.669102
 30
0.0
 40
5.0
100
AcDbArc
 50
180.0
 51
270.0
  0
ARC
  5
143
330
1F
100
AcDbEntity
  8
LC-001-100-D00-0
 62
     7
370
    50
100
AcDbCircle
 10
-161.420084
 20
-23.169102
 30
0.0
 40
5.0
100
AcDbArc
 50
90.0
 51
180.0
  0
LINE
  5
144
330
1F
100
AcDbEntity
  8
LC-001-100-D00-0
 62
     7
370
    50
100
AcDbLine
 10
-166.420084
 20
-49.669102
 30
0.0
 11
-166.420084
 21
-23.169102
 31
0.0
  0
ARC
  5
145
330
1F
100
AcDbEntity
  8
LC-001-100-D00-0
 62
     7
370
    50
100
AcDbCircle
 10
335.079916
 20
-49.669102
 30
0.0
 40
5.0
100
AcDbArc
 50
270.0
 51
0.0
  0
LINE
  5
146
330
1F
100
AcDbEntity
  8
LC-001-100-D00-0
 62
     7
370
    50
100
AcDbLine
 10
340.079916
 20
-23.169102
 30
0.0
 11
340.079916
 21
-49.669102
 31
0.0
  0
ARC
  5
147
330
1F
100
AcDbEntity
  8
LC-001-100-D00-0
 62
     7
370
    50
100
AcDbCircle
 10
335.079916
 20
-23.169102
 30
0.0
 40
5.0
100
AcDbArc
 50
0.0
 51
90.0
  0
CIRCLE
  5
148
330
1F
100
AcDbEntity
  8
LC-001-100-D00-0
 62
     7
370
    50
100
AcDbCircle
 10
321.829916
 20
-36.419102
 30
0.0
 40
3.900000000000205
  0
LINE
  5
149
330
1F
100
AcDbEntity
  8
LC-001-100-D00-0
 62
     7
370
    50
100
AcDbLine
 10
308.579916
 20
-18.169102
 30
0.0
 11
335.079916
 21
-18.169102
 31
0.0
  0
LINE
  5
14A
330
1F
100
AcDbEntity
  8
LC-001-100-D00-0
 62
     7
370
    50
100
AcDbLine
 10
335.079916
 20
-54.669102
 30
0.0
 11
308.579916
 21
-54.669102
 31
0.0
  0
ARC
  5
14B
330
1F
100
AcDbEntity
  8
LC-001-100-D00-0
 62
     7
370
    50
100
AcDbCircle
 10
308.579916
 20
-23.169102
 30
0.0
 40
5.0
100
AcDbArc
 50
90.0
 51
180.0
  0
ARC
  5
14C
330
1F
100
AcDbEntity
  8
LC-001-100-D00-0
 62
     7
370
    50
100
AcDbCircle
 10
308.579916
 20
-49.669102
 30
0.0
 40
5.0
100
AcDbArc
 50
180.0
 51
270.0
  0
LINE
  5
14D
330
1F
100
AcDbEntity
  8
LC-001-100-D00-0
 62
     7
370
    50
100
AcDbLine
 10
303.579916
 20
-49.669102
 30
0.0
 11
303.579916
 21
-23.169102
 31
0.0
  0
LINE
  5
14E
330
1F
100
AcDbEntity
  8
LC-001-100-D00-0
 62
     7
370
    50
100
AcDbLine
 10
205.079916
 20
-23.169102
 30
0.0
 11
205.079916
 21
-49.669102
 31
0.0
  0
ARC
  5
14F
330
1F
100
AcDbEntity
  8
LC-001-100-D00-0
 62
     7
370
    50
100
AcDbCircle
 10
200.079916
 20
-49.669102
 30
0.0
 40
5.0
100
AcDbArc
 50
270.0
 51
0.0
  0
ARC
  5
150
330
1F
100
AcDbEntity
  8
LC-001-100-D00-0
 62
     7
370
    50
100
AcDbCircle
 10
200.079916
 20
-23.169102
 30
0.0
 40
5.0
100
AcDbArc
 50
0.0
 51
90.0
  0
CIRCLE
  5
151
330
1F
100
AcDbEntity
  8
LC-001-100-D00-0
 62
     7
370
    50
100
AcDbCircle
 10
186.829916
 20
-36.419102
 30
0.0
 40
3.899999999999864
  0
LINE
  5
152
330
1F
100
AcDbEntity
  8
LC-001-100-D00-0
 62
     7
370
    50
100
AcDbLine
 10
173.579916
 20
-18.169102
 30
0.0
 11
200.079916
 21
-18.169102
 31
0.0
  0
LINE
  5
153
330
1F
100
AcDbEntity
  8
LC-001-100-D00-0
 62
     7
370
    50
100
AcDbLine
 10
200.079916
 20
-54.669102
 30
0.0
 11
173.579916
 21
-54.669102
 31
0.0
  0
ARC
  5
154
330
1F
100
AcDbEntity
  8
LC-001-100-D00-0
 62
     7
370
    50
100
AcDbCircle
 10
173.579916
 20
-49.669102
 30
0.0
 40
5.0
100
AcDbArc
 50
180.0
 51
270.0
  0
ARC
  5
155
330
1F
100
AcDbEntity
  8
LC-001-100-D00-0
 62
     7
370
    50
100
AcDbCircle
 10
173.579916
 20
-23.169102
 30
0.0
 40
5.0
100
AcDbArc
 50
90.0
 51
180.0
  0
LINE
  5
156
330
1F
100
AcDbEntity
  8
LC-001-100-D00-0
 62
     7
370
    50
100
AcDbLine
 10
168.579916
 20
-49.669102
 30
0.0
 11
168.579916
 21
-23.169102
 31
0.0
  0
LINE
  5
157
330
1F
100
AcDbEntity
  8
LC-001-100-D00-0
 62
     7
370
    50
100
AcDbLine
 10
56.329916
 20
-60.419102
 30
0.0
 11
117.329916
 21
-60.419102
 31
0.0
  0
ARC
  5
158
330
1F
100
AcDbEntity
  8
LC-001-100-D00-0
 62
     7
370
    50
100
AcDbCircle
 10
56.329916
 20
-36.419102
 30
0.0
 40
24.0
100
AcDbArc
 50
90.0
 51
270.0
  0
LINE
  5
159
330
1F
100
AcDbEntity
  8
LC-001-100-D00-0
 62
     7
370
    50
100
AcDbLine
 10
117.329916
 20
-12.419102
 30
0.0
 11
56.329916
 21
-12.419102
 31
0.0
  0
ARC
  5
15A
330
1F
100
AcDbEntity
  8
LC-001-100-D00-0
 62
     7
370
    50
100
AcDbCircle
 10
117.329916
 20
-36.419102
 30
0.0
 40
24.00000000000011
100
AcDbArc
 50
270.0
 51
90.0
  0
ARC
  5
15B
330
1F
100
AcDbEntity
  8
LC-001-100-D00-0
 62
     7
370
    50
100
AcDbCircle
 10
98.329916
 20
-36.419102
 30
0.0
 40
16.0
100
AcDbArc
 50
270.0
 51
90.0
  0
LINE
  5
15C
330
1F
100
AcDbEntity
  8
LC-001-100-D00-0
 62
     7
370
    50
100
AcDbLine
 10
75.329916
 20
-52.419102
 30
0.0
 11
98.329916
 21
-52.419102
 31
0.0
  0
LINE
  5
15D
330
1F
100
AcDbEntity
  8
LC-001-100-D00-0
 62
     7
370
    50
100
AcDbLine
 10
98.329916
 20
-20.419102
 30
0.0
 11
75.329916
 21
-20.419102
 31
0.0
  0
ARC
  5
15E
330
1F
100
AcDbEntity
  8
LC-001-100-D00-0
 62
     7
370
    50
100
AcDbCircle
 10
75.329916
 20
-36.419102
 30
0.0
 40
15.99999999999989
100
AcDbArc
 50
90.0
 51
270.0
  0
DIMENSION
  5
161
330
1F
100
AcDbEntity
  8
LC-001-100-D00-0
 62
     7
370
    25
100
AcDbDimension
  2
*D17
 10
625.33273
 20
-113.919102
 30
0.0
 11
570.33273
 21
-45.507487
 31
0.0
 70
   160
  1
155
 71
     5
 42
155.0
 53
90.0
  3
LC-DIM-L-0100-02-02
100
AcDbAlignedDimension
 13
531.829916
 23
41.080898
 33
0.0
 14
531.829916
 24
-113.919102
 34
0.0
 50
90.0
100
AcDbRotatedDimension
  0
LINE
  5
170
330
1F
100
AcDbEntity
  8
LC-001-100-D00-0
  6
DASHDOT
 62
     7
370
    25
100
AcDbLine
 10
-368.170084
 20
-36.419102
 30
0.0
 11
541.829916
 21
-36.419102
 31
0.0
  0
LINE
  5
171
330
1F
100
AcDbEntity
  8
LC-001-100-D00-0
  6
DASHDOT
 62
     7
370
    25
100
AcDbLine
 10
86.829916
 20
46.080898
 30
0.0
 11
86.829916
 21
-118.919102
 31
0.0
  0
LINE
  5
172
330
1F
100
AcDbEntity
  8
LC-001-100-D00-0
 62
     7
370
    50
100
AcDbLine
 10
142.079904
 20
338.466077
 30
0.0
 11
143.879904
 21
338.466077
 31
0.0
  0
LINE
  5
173
330
1F
100
AcDbEntity
  8
LC-001-100-D00-0
 62
     7
370
    50
100
AcDbLine
 10
29.779904
 20
338.466077
 30
0.0
 11
31.579904
 21
338.466077
 31
0.0
  0
LINE
  5
174
330
1F
100
AcDbEntity
  8
LC-001-100-D00-0
 62
     7
370
    50
100
AcDbLine
 10
200.0777
 20
266.106063
 30
0.0
 11
200.0777
 21
267.888984
 31
0.0
  0
LINE
  5
175
330
1F
100
AcDbEntity
  8
LC-001-100-D00-0
 62
     7
370
    50
100
AcDbLine
 10
200.0777
 20
318.323142
 30
0.0
 11
200.0777
 21
320.106063
 31
0.0
  0
LINE
  5
176
330
1F
100
AcDbEntity
  8
LC-001-100-D00-0
 62
     7
370
    50
100
AcDbLine
 10
196.0777
 20
320.106063
 30
0.0
 11
196.0777
 21
318.323142
 31
0.0
  0
LINE
  5
177
330
1F
100
AcDbEntity
  8
LC-001-100-D00-0
 62
     7
370
    50
100
AcDbLine
 10
196.0777
 20
267.888984
 30
0.0
 11
196.0777
 21
266.106063
 31
0.0
  0
LINE
  5
178
330
1F
100
AcDbEntity
  8
LC-001-100-D00-0
 62
     7
370
    50
100
AcDbLine
 10
126.544319
 20
336.606063
 30
0.0
 11
126.544319
 21
335.106063
 31
0.0
  0
LINE
  5
179
330
1F
100
AcDbEntity
  8
LC-001-100-D00-0
 62
     7
370
    50
100
AcDbLine
 10
47.115489
 20
335.106063
 30
0.0
 11
47.115489
 21
336.606063
 31
0.0
  0
ARC
  5
17A
330
1F
100
AcDbEntity
  8
LC-001-100-D00-0
 62
     7
370
    50
100
AcDbCircle
 10
427.829904
 20
243.606063
 30
0.0
 40
0.5000000000002274
100
AcDbArc
 50
90.0
 51
180.0
  0
ARC
  5
17B
330
1F
100
AcDbEntity
  8
LC-001-100-D00-0
 62
     7
370
    50
100
AcDbCircle
 10
445.829904
 20
243.606063
 30
0.0
 40
0.5000000000002274
100
AcDbArc
 50
0.0
 51
90.0
  0
LINE
  5
17C
330
1F
100
AcDbEntity
  8
LC-001-100-D00-0
 62
     7
370
    50
100
AcDbLine
 10
427.329904
 20
243.606063
 30
0.0
 11
427.329904
 21
236.106063
 31
0.0
  0
LINE
  5
17D
330
1F
100
AcDbEntity
  8
LC-001-100-D00-0
 62
     7
370
    50
100
AcDbLine
 10
446.329904
 20
236.106063
 30
0.0
 11
446.329904
 21
243.606063
 31
0.0
  0
ARC
  5
17E
330
1F
100
AcDbEntity
  8
LC-001-100-D00-0
 62
     7
370
    50
100
AcDbCircle
 10
-272.170096
 20
243.606063
 30
0.0
 40
0.5000000000002274
100
AcDbArc
 50
90.0
 51
180.0
  0
ARC
  5
17F
330
1F
100
AcDbEntity
  8
LC-001-100-D00-0
 62
     7
370
    50
100
AcDbCircle
 10
-254.170096
 20
243.606063
 30
0.0
 40
0.5000000000002842
100
AcDbArc
 50
0.0
 51
90.0
  0
LINE
  5
180
330
1F
100
AcDbEntity
  8
LC-001-100-D00-0
 62
     7
370
    50
100
AcDbLine
 10
-272.670096
 20
243.606063
 30
0.0
 11
-272.670096
 21
236.106063
 31
0.0
  0
LINE
  5
181
330
1F
100
AcDbEntity
  8
LC-001-100-D00-0
 62
     7
370
    50
100
AcDbLine
 10
-253.670096
 20
236.106063
 30
0.0
 11
-253.670096
 21
243.606063
 31
0.0
  0
LINE
  5
182
330
1F
100
AcDbEntity
  8
LC-001-100-D00-0
 62
     7
370
    50
100
AcDbLine
 10
449.603407
 20
342.106063
 30
0.0
 11
449.603412
 21
347.539403
 31
0.0
  0
LINE
  5
183
330
1F
100
AcDbEntity
  8
LC-001-100-D00-0
 62
     7
370
    50
100
AcDbLine
 10
424.056414
 20
346.60703
 30
0.0
 11
424.056402
 21
342.106063
 31
0.0
  0
LINE
  5
184
330
1F
100
AcDbEntity
  8
LC-001-100-D00-0
 62
     7
370
    50
100
AcDbLine
 10
-250.396593
 20
313.106063
 30
0.0
 11
-250.396606
 21
338.106064
 31
0.0
  0
LINE
  5
185
330
1F
100
AcDbEntity
  8
LC-001-100-D00-0
 62
     7
370
    50
100
AcDbLine
 10
-275.943603
 20
338.106064
 30
0.0
 11
-275.943598
 21
313.106063
 31
0.0
  0
LINE
  5
186
330
1F
100
AcDbEntity
  8
LC-001-100-D00-0
 62
     7
370
    50
100
AcDbLine
 10
-250.396593
 20
342.106063
 30
0.0
 11
-250.396606
 21
346.60703
 31
0.0
  0
LINE
  5
187
330
1F
100
AcDbEntity
  8
LC-001-100-D00-0
 62
     7
370
    50
100
AcDbLine
 10
-275.943603
 20
347.539403
 30
0.0
 11
-275.943598
 21
342.106063
 31
0.0
  0
LINE
  5
188
330
1F
100
AcDbEntity
  8
LC-001-100-D00-0
 62
     7
370
    50
100
AcDbLine
 10
449.603407
 20
313.106063
 30
0.0
 11
449.603412
 21
338.106064
 31
0.0
  0
LINE
  5
189
330
1F
100
AcDbEntity
  8
LC-001-100-D00-0
 62
     7
370
    50
100
AcDbLine
 10
424.056414
 20
338.106064
 30
0.0
 11
424.056402
 21
313.106063
 31
0.0
  0
LINE
  5
18A
330
1F
100
AcDbEntity
  8
LC-001-100-D00-0
 62
     7
370
    50
100
AcDbLine
 10
426.829908
 20
342.106063
 30
0.0
 11
426.829908
 21
342.006063
 31
0.0
  0
LINE
  5
18B
330
1F
100
AcDbEntity
  8
LC-001-100-D00-0
 62
     7
370
    50
100
AcDbLine
 10
426.829908
 20
313.106062
 30
0.0
 11
426.829904
 21
259.106063
 31
0.0
  0
LINE
  5
18C
330
1F
100
AcDbEntity
  8
LC-001-100-D00-0
 62
     7
370
    50
100
AcDbLine
 10
446.829904
 20
259.106063
 30
0.0
 11
446.829919
 21
313.106062
 31
0.0
  0
LINE
  5
18D
330
1F
100
AcDbEntity
  8
LC-001-100-D00-0
 62
     7
370
    50
100
AcDbLine
 10
446.829919
 20
342.006063
 30
0.0
 11
446.829919
 21
342.106063
 31
0.0
  0
LINE
  5
18E
330
1F
100
AcDbEntity
  8
LC-001-100-D00-0
 62
     7
370
    50
100
AcDbLine
 10
426.829904
 20
255.606063
 30
0.0
 11
426.829904
 21
245.106063
 31
0.0
  0
LINE
  5
18F
330
1F
100
AcDbEntity
  8
LC-001-100-D00-0
 62
     7
370
    50
100
AcDbLine
 10
446.829904
 20
245.106063
 30
0.0
 11
446.829904
 21
255.606063
 31
0.0
  0
LINE
  5
190
330
1F
100
AcDbEntity
  8
LC-001-100-D00-0
 62
     7
370
    50
100
AcDbLine
 10
426.829904
 20
245.106063
 30
0.0
 11
427.829904
 21
244.106063
 31
0.0
  0
LINE
  5
191
330
1F
100
AcDbEntity
  8
LC-001-100-D00-0
 62
     7
370
    50
100
AcDbLine
 10
445.829904
 20
244.106063
 30
0.0
 11
446.829904
 21
245.106063
 31
0.0
  0
LINE
  5
192
330
1F
100
AcDbEntity
  8
LC-001-100-D00-0
 62
     7
370
    50
100
AcDbLine
 10
428.929899
 20
259.106061
 30
0.0
 11
428.929899
 21
255.606061
 31
0.0
  0
LINE
  5
193
330
1F
100
AcDbEntity
  8
LC-001-100-D00-0
 62
     7
370
    50
100
AcDbLine
 10
444.729898
 20
255.606061
 30
0.0
 11
444.729898
 21
259.106061
 31
0.0
  0
LINE
  5
194
330
1F
100
AcDbEntity
  8
LC-001-100-D00-0
 62
     7
370
    50
100
AcDbLine
 10
-273.17011
 20
342.106063
 30
0.0
 11
-273.17011
 21
342.006063
 31
0.0
  0
LINE
  5
195
330
1F
100
AcDbEntity
  8
LC-001-100-D00-0
 62
     7
370
    50
100
AcDbLine
 10
-273.17011
 20
313.106062
 30
0.0
 11
-273.170096
 21
259.106063
 31
0.0
  0
LINE
  5
196
330
1F
100
AcDbEntity
  8
LC-001-100-D00-0
 62
     7
370
    50
100
AcDbLine
 10
-253.170096
 20
259.106063
 30
0.0
 11
-253.170099
 21
313.106062
 31
0.0
  0
LINE
  5
197
330
1F
100
AcDbEntity
  8
LC-001-100-D00-0
 62
     7
370
    50
100
AcDbLine
 10
-253.170099
 20
342.006063
 30
0.0
 11
-253.170099
 21
342.106063
 31
0.0
  0
LINE
  5
198
330
1F
100
AcDbEntity
  8
LC-001-100-D00-0
 62
     7
370
    50
100
AcDbLine
 10
-273.170096
 20
255.606063
 30
0.0
 11
-273.170096
 21
245.106063
 31
0.0
  0
LINE
  5
199
330
1F
100
AcDbEntity
  8
LC-001-100-D00-0
 62
     7
370
    50
100
AcDbLine
 10
-253.170096
 20
245.106063
 30
0.0
 11
-253.170096
 21
255.606063
 31
0.0
  0
LINE
  5
19A
330
1F
100
AcDbEntity
  8
LC-001-100-D00-0
 62
     7
370
    50
100
AcDbLine
 10
-273.170096
 20
245.106063
 30
0.0
 11
-272.170096
 21
244.106063
 31
0.0
  0
LINE
  5
19B
330
1F
100
AcDbEntity
  8
LC-001-100-D00-0
 62
     7
370
    50
100
AcDbLine
 10
-254.170096
 20
244.106063
 30
0.0
 11
-253.170096
 21
245.106063
 31
0.0
  0
LINE
  5
19C
330
1F
100
AcDbEntity
  8
LC-001-100-D00-0
 62
     7
370
    50
100
AcDbLine
 10
-271.070089
 20
259.106061
 30
0.0
 11
-271.070089
 21
255.606061
 31
0.0
  0
LINE
  5
19D
330
1F
100
AcDbEntity
  8
LC-001-100-D00-0
 62
     7
370
    50
100
AcDbLine
 10
-255.27009
 20
255.606061
 30
0.0
 11
-255.27009
 21
259.106061
 31
0.0
  0
LINE
  5
19E
330
1F
100
AcDbEntity
  8
LC-001-100-D00-0
 62
     7
370
    50
100
AcDbLine
 10
-142.970096
 20
354.374829
 30
0.0
 11
-142.970096
 21
356.837297
 31
0.0
  0
ARC
  5
19F
330
1F
100
AcDbEntity
  8
LC-001-100-D00-0
 62
     7
370
    50
100
AcDbCircle
 10
-142.370096
 20
354.374829
 30
0.0
 40
0.6000000000001364
100
AcDbArc
 50
180.0
 51
255.0
  0
LINE
  5
1A0
330
1F
100
AcDbEntity
  8
LC-001-100-D00-0
 62
     7
370
    50
100
AcDbLine
 10
-141.81925
 20
353.606062
 30
0.0
 11
-142.525387
 21
353.795274
 31
0.0
  0
LINE
  5
1A1
330
1F
100
AcDbEntity
  8
LC-001-100-D00-0
 62
     7
370
    50
100
AcDbLine
 10
-141.81925
 20
353.606062
 30
0.0
 11
-141.81925
 21
351.606064
 31
0.0
  0
LINE
  5
1A2
330
1F
100
AcDbEntity
  8
LC-001-100-D00-0
 62
     7
370
    50
100
AcDbLine
 10
-144.770096
 20
352.606063
 30
0.0
 11
-143.770096
 21
351.606063
 31
0.0
  0
LINE
  5
1A3
330
1F
100
AcDbEntity
  8
LC-001-100-D00-0
 62
     7
370
    50
100
AcDbLine
 10
-144.770096
 20
352.606063
 30
0.0
 11
-144.770097
 21
358.606063
 31
0.0
  0
LINE
  5
1A4
330
1F
100
AcDbEntity
  8
LC-001-100-D00-0
 62
     7
370
    50
100
AcDbLine
 10
-143.770095
 20
359.606063
 30
0.0
 11
-144.770097
 21
358.606063
 31
0.0
  0
LINE
  5
1A5
330
1F
100
AcDbEntity
  8
LC-001-100-D00-0
 62
     7
370
    50
100
AcDbLine
 10
-141.81925
 20
359.606063
 30
0.0
 11
-141.81925
 21
357.606063
 31
0.0
  0
LINE
  5
1A6
330
1F
100
AcDbEntity
  8
LC-001-100-D00-0
 62
     7
370
    50
100
AcDbLine
 10
-142.525387
 20
357.416852
 30
0.0
 11
-141.81925
 21
357.606063
 31
0.0
  0
ARC
  5
1A7
330
1F
100
AcDbEntity
  8
LC-001-100-D00-0
 62
     7
370
    50
100
AcDbCircle
 10
-142.370096
 20
356.837297
 30
0.0
 40
0.600000000000118
100
AcDbArc
 50
105.0
 51
180.0
  0
LINE
  5
1A8
330
1F
100
AcDbEntity
  8
LC-001-100-D00-0
 62
     7
370
    50
100
AcDbLine
 10
-143.770096
 20
351.606063
 30
0.0
 11
-141.81925
 21
351.606064
 31
0.0
  0
LINE
  5
1A9
330
1F
100
AcDbEntity
  8
LC-001-100-D00-0
 62
     7
370
    50
100
AcDbLine
 10
-143.770095
 20
359.606063
 30
0.0
 11
-141.81925
 21
359.606063
 31
0.0
  0
LINE
  5
1AA
330
1F
100
AcDbEntity
  8
LC-001-100-D00-0
 62
     7
370
    50
100
AcDbLine
 10
-153.370096
 20
356.837297
 30
0.0
 11
-153.370096
 21
354.374829
 31
0.0
  0
LINE
  5
1AB
330
1F
100
AcDbEntity
  8
LC-001-100-D00-0
 62
     7
370
    50
100
AcDbLine
 10
-151.570093
 20
358.606063
 30
0.0
 11
-152.570095
 21
359.606063
 31
0.0
  0
LINE
  5
1AC
330
1F
100
AcDbEntity
  8
LC-001-100-D00-0
 62
     7
370
    50
100
AcDbLine
 10
-151.570093
 20
358.606063
 30
0.0
 11
-151.570096
 21
352.606063
 31
0.0
  0
LINE
  5
1AD
330
1F
100
AcDbEntity
  8
LC-001-100-D00-0
 62
     7
370
    50
100
AcDbLine
 10
-152.570096
 20
351.606063
 30
0.0
 11
-151.570096
 21
352.606063
 31
0.0
  0
LINE
  5
1AE
330
1F
100
AcDbEntity
  8
LC-001-100-D00-0
 62
     7
370
    50
100
AcDbLine
 10
-154.520955
 20
353.606062
 30
0.0
 11
-154.520955
 21
351.606064
 31
0.0
  0
LINE
  5
1AF
330
1F
100
AcDbEntity
  8
LC-001-100-D00-0
 62
     7
370
    50
100
AcDbLine
 10
-153.814804
 20
353.795274
 30
0.0
 11
-154.520955
 21
353.606062
 31
0.0
  0
ARC
  5
1B0
330
1F
100
AcDbEntity
  8
LC-001-100-D00-0
 62
     7
370
    50
100
AcDbCircle
 10
-153.970096
 20
354.374829
 30
0.0
 40
0.600000000000118
100
AcDbArc
 50
285.0
 51
0.0
  0
ARC
  5
1B1
330
1F
100
AcDbEntity
  8
LC-001-100-D00-0
 62
     7
370
    50
100
AcDbCircle
 10
-153.970096
 20
356.837297
 30
0.0
 40
0.6000000000000227
100
AcDbArc
 50
0.0
 51
75.0
  0
LINE
  5
1B2
330
1F
100
AcDbEntity
  8
LC-001-100-D00-0
 62
     7
370
    50
100
AcDbLine
 10
-154.520955
 20
357.606063
 30
0.0
 11
-153.814804
 21
357.416852
 31
0.0
  0
LINE
  5
1B3
330
1F
100
AcDbEntity
  8
LC-001-100-D00-0
 62
     7
370
    50
100
AcDbLine
 10
-154.520955
 20
359.606063
 30
0.0
 11
-154.520955
 21
357.606063
 31
0.0
  0
LINE
  5
1B4
330
1F
100
AcDbEntity
  8
LC-001-100-D00-0
 62
     7
370
    50
100
AcDbLine
 10
-154.520955
 20
351.606064
 30
0.0
 11
-152.570096
 21
351.606063
 31
0.0
  0
LINE
  5
1B5
330
1F
100
AcDbEntity
  8
LC-001-100-D00-0
 62
     7
370
    50
100
AcDbLine
 10
-154.520955
 20
359.606063
 30
0.0
 11
-152.570095
 21
359.606063
 31
0.0
  0
LINE
  5
1B6
330
1F
100
AcDbEntity
  8
LC-001-100-D00-0
 62
     7
370
    50
100
AcDbLine
 10
-151.570096
 20
352.606063
 30
0.0
 11
-151.412256
 21
352.606063
 31
0.0
  0
LINE
  5
1B7
330
1F
100
AcDbEntity
  8
LC-001-100-D00-0
 62
     7
370
    50
100
AcDbLine
 10
-144.927935
 20
352.606063
 30
0.0
 11
-144.770096
 21
352.606063
 31
0.0
  0
LINE
  5
1B8
330
1F
100
AcDbEntity
  8
LC-001-100-D00-0
 62
     7
370
    50
100
AcDbLine
 10
-143.770096
 20
351.606063
 30
0.0
 11
-144.305877
 21
351.606063
 31
0.0
  0
LINE
  5
1B9
330
1F
100
AcDbEntity
  8
LC-001-100-D00-0
 62
     7
370
    50
100
AcDbLine
 10
-152.034314
 20
351.606063
 30
0.0
 11
-152.570096
 21
351.606063
 31
0.0
  0
LINE
  5
1BA
330
1F
100
AcDbEntity
  8
LC-001-100-D00-0
 62
     7
370
    50
100
AcDbLine
 10
-141.81925
 20
359.606063
 30
0.0
 11
-144.270089
 21
359.606063
 31
0.0
  0
LINE
  5
1BB
330
1F
100
AcDbEntity
  8
LC-001-100-D00-0
 62
     7
370
    50
100
AcDbLine
 10
-144.270089
 20
359.606063
 30
0.0
 11
-144.270096
 21
370.606063
 31
0.0
  0
LINE
  5
1BC
330
1F
100
AcDbEntity
  8
LC-001-100-D00-0
 62
     7
370
    50
100
AcDbLine
 10
-144.270096
 20
370.606063
 30
0.0
 11
-130.920096
 21
370.606063
 31
0.0
  0
ARC
  5
1BD
330
1F
100
AcDbEntity
  8
LC-001-100-D00-0
 62
     7
370
    50
100
AcDbCircle
 10
-130.920096
 20
369.606063
 30
0.0
 40
0.9999999999999432
100
AcDbArc
 50
0.0
 51
90.0
  0
LINE
  5
1BE
330
1F
100
AcDbEntity
  8
LC-001-100-D00-0
 62
     7
370
    50
100
AcDbLine
 10
-129.920096
 20
369.606063
 30
0.0
 11
-129.920092
 21
363.606063
 31
0.0
  0
LINE
  5
1BF
330
1F
100
AcDbEntity
  8
LC-001-100-D00-0
 62
     7
370
    50
100
AcDbLine
 10
-132.920096
 20
363.606063
 30
0.0
 11
-129.920092
 21
363.606063
 31
0.0
  0
LINE
  5
1C0
330
1F
100
AcDbEntity
  8
LC-001-100-D00-0
 62
     7
370
    50
100
AcDbLine
 10
-132.920096
 20
363.606063
 30
0.0
 11
-132.920098
 21
367.606063
 31
0.0
  0
LINE
  5
1C1
330
1F
100
AcDbEntity
  8
LC-001-100-D00-0
 62
     7
370
    50
100
AcDbLine
 10
-137.420096
 20
367.606063
 30
0.0
 11
-132.920098
 21
367.606063
 31
0.0
  0
ARC
  5
1C2
330
1F
100
AcDbEntity
  8
LC-001-100-D00-0
 62
     7
370
    50
100
AcDbCircle
 10
-137.420096
 20
366.606063
 30
0.0
 40
0.9999999999997726
100
AcDbArc
 50
90.0
 51
180.0
  0
LINE
  5
1C3
330
1F
100
AcDbEntity
  8
LC-001-100-D00-0
 62
     7
370
    50
100
AcDbLine
 10
-138.420096
 20
352.606063
 30
0.0
 11
-138.420096
 21
366.606063
 31
0.0
  0
ARC
  5
1C4
330
1F
100
AcDbEntity
  8
LC-001-100-D00-0
 62
     7
370
    50
100
AcDbCircle
 10
-139.420096
 20
352.606063
 30
0.0
 40
1.0
100
AcDbArc
 50
270.0
 51
0.0
  0
LINE
  5
1C5
330
1F
100
AcDbEntity
  8
LC-001-100-D00-0
 62
     7
370
    50
100
AcDbLine
 10
-139.420096
 20
351.606063
 30
0.0
 11
-141.81925
 21
351.606064
 31
0.0
  0
LINE
  5
1C6
330
1F
100
AcDbEntity
  8
LC-001-100-D00-0
 62
     7
370
    50
100
AcDbLine
 10
-141.81925
 20
353.606062
 30
0.0
 11
-141.81925
 21
351.606064
 31
0.0
  0
LINE
  5
1C7
330
1F
100
AcDbEntity
  8
LC-001-100-D00-0
 62
     7
370
    50
100
AcDbLine
 10
-142.470096
 20
353.606063
 30
0.0
 11
-141.81925
 21
353.606062
 31
0.0
  0
ARC
  5
1C8
330
1F
100
AcDbEntity
  8
LC-001-100-D00-0
 62
     7
370
    50
100
AcDbCircle
 10
-142.470096
 20
354.106063
 30
0.0
 40
0.5000000000000568
100
AcDbArc
 50
180.0
 51
270.0
  0
LINE
  5
1C9
330
1F
100
AcDbEntity
  8
LC-001-100-D00-0
 62
     7
370
    50
100
AcDbLine
 10
-142.970096
 20
357.106063
 30
0.0
 11
-142.970096
 21
354.106063
 31
0.0
  0
ARC
  5
1CA
330
1F
100
AcDbEntity
  8
LC-001-100-D00-0
 62
     7
370
    50
100
AcDbCircle
 10
-142.470096
 20
357.106063
 30
0.0
 40
0.5
100
AcDbArc
 50
90.0
 51
180.0
  0
LINE
  5
1CB
330
1F
100
AcDbEntity
  8
LC-001-100-D00-0
 62
     7
370
    50
100
AcDbLine
 10
-141.81925
 20
357.606063
 30
0.0
 11
-142.470096
 21
357.606063
 31
0.0
  0
LINE
  5
1CC
330
1F
100
AcDbEntity
  8
LC-001-100-D00-0
 62
     7
370
    50
100
AcDbLine
 10
-141.81925
 20
359.606063
 30
0.0
 11
-141.81925
 21
357.606063
 31
0.0
  0
ARC
  5
1CD
330
1F
100
AcDbEntity
  8
LC-001-100-D00-0
 62
     7
370
    50
100
AcDbCircle
 10
-158.920096
 20
366.606063
 30
0.0
 40
1.0
100
AcDbArc
 50
0.0
 51
90.0
  0
ARC
  5
1CE
330
1F
100
AcDbEntity
  8
LC-001-100-D00-0
 62
     7
370
    50
100
AcDbCircle
 10
-156.920096
 20
352.606063
 30
0.0
 40
1.000000000000057
100
AcDbArc
 50
180.0
 51
270.0
  0
LINE
  5
1CF
330
1F
100
AcDbEntity
  8
LC-001-100-D00-0
 62
     7
370
    50
100
AcDbLine
 10
-157.920096
 20
366.606063
 30
0.0
 11
-157.920096
 21
352.606063
 31
0.0
  0
LINE
  5
1D0
330
1F
100
AcDbEntity
  8
LC-001-100-D00-0
 62
     7
370
    50
100
AcDbLine
 10
-153.370096
 20
354.106063
 30
0.0
 11
-153.370096
 21
357.106063
 31
0.0
  0
LINE
  5
1D1
330
1F
100
AcDbEntity
  8
LC-001-100-D00-0
 62
     7
370
    50
100
AcDbLine
 10
-152.070096
 20
370.606063
 30
0.0
 11
-152.070101
 21
359.606063
 31
0.0
  0
LINE
  5
1D2
330
1F
100
AcDbEntity
  8
LC-001-100-D00-0
 62
     7
370
    50
100
AcDbLine
 10
-152.070096
 20
370.606063
 30
0.0
 11
-144.270096
 21
370.606063
 31
0.0
  0
LINE
  5
1D3
330
1F
100
AcDbEntity
  8
LC-001-100-D00-0
 62
     7
370
    50
100
AcDbLine
 10
-154.520955
 20
353.606062
 30
0.0
 11
-154.520955
 21
351.606064
 31
0.0
  0
LINE
  5
1D4
330
1F
100
AcDbEntity
  8
LC-001-100-D00-0
 62
     7
370
    50
100
AcDbLine
 10
-154.520955
 20
359.606063
 30
0.0
 11
-154.520955
 21
357.606063
 31
0.0
  0
ARC
  5
1D5
330
1F
100
AcDbEntity
  8
LC-001-100-D00-0
 62
     7
370
    50
100
AcDbCircle
 10
-153.870096
 20
354.106063
 30
0.0
 40
0.5
100
AcDbArc
 50
270.0
 51
0.0
  0
LINE
  5
1D6
330
1F
100
AcDbEntity
  8
LC-001-100-D00-0
 62
     7
370
    50
100
AcDbLine
 10
-154.520955
 20
353.606062
 30
0.0
 11
-153.870096
 21
353.606063
 31
0.0
  0
LINE
  5
1D7
330
1F
100
AcDbEntity
  8
LC-001-100-D00-0
 62
     7
370
    50
100
AcDbLine
 10
-163.420107
 20
367.606063
 30
0.0
 11
-163.420096
 21
363.606063
 31
0.0
  0
LINE
  5
1D8
330
1F
100
AcDbEntity
  8
LC-001-100-D00-0
 62
     7
370
    50
100
AcDbLine
 10
-166.420098
 20
363.606063
 30
0.0
 11
-166.420096
 21
369.606063
 31
0.0
  0
ARC
  5
1D9
330
1F
100
AcDbEntity
  8
LC-001-100-D00-0
 62
     7
370
    50
100
AcDbCircle
 10
-165.420096
 20
369.606063
 30
0.0
 40
1.0
100
AcDbArc
 50
90.0
 51
180.0
  0
LINE
  5
1DA
330
1F
100
AcDbEntity
  8
LC-001-100-D00-0
 62
     7
370
    50
100
AcDbLine
 10
-153.870096
 20
357.606063
 30
0.0
 11
-154.520955
 21
357.606063
 31
0.0
  0
ARC
  5
1DB
330
1F
100
AcDbEntity
  8
LC-001-100-D00-0
 62
     7
370
    50
100
AcDbCircle
 10
-153.870096
 20
357.106063
 30
0.0
 40
0.5
100
AcDbArc
 50
0.0
 51
90.0
  0
LINE
  5
1DC
330
1F
100
AcDbEntity
  8
LC-001-100-D00-0
 62
     7
370
    50
100
AcDbLine
 10
-152.070101
 20
359.606063
 30
0.0
 11
-154.520955
 21
359.606063
 31
0.0
  0
LINE
  5
1DD
330
1F
100
AcDbEntity
  8
LC-001-100-D00-0
 62
     7
370
    50
100
AcDbLine
 10
-154.520955
 20
351.606064
 30
0.0
 11
-156.920096
 21
351.606063
 31
0.0
  0
LINE
  5
1DE
330
1F
100
AcDbEntity
  8
LC-001-100-D00-0
 62
     7
370
    50
100
AcDbLine
 10
-163.420107
 20
367.606063
 30
0.0
 11
-158.920096
 21
367.606063
 31
0.0
  0
LINE
  5
1DF
330
1F
100
AcDbEntity
  8
LC-001-100-D00-0
 62
     7
370
    50
100
AcDbLine
 10
-165.420096
 20
370.606063
 30
0.0
 11
-152.070096
 21
370.606063
 31
0.0
  0
LINE
  5
1E0
330
1F
100
AcDbEntity
  8
LC-001-100-D00-0
 62
     7
370
    50
100
AcDbLine
 10
-166.420098
 20
363.606063
 30
0.0
 11
-163.420096
 21
363.606063
 31
0.0
  0
LINE
  5
1E1
330
1F
100
AcDbEntity
  8
LC-001-100-D00-0
 62
     7
370
    50
100
AcDbLine
 10
-134.920096
 20
363.606063
 30
0.0
 11
-132.920096
 21
363.606063
 31
0.0
  0
LINE
  5
1E2
330
1F
100
AcDbEntity
  8
LC-001-100-D00-0
 62
     7
370
    50
100
AcDbLine
 10
-163.420096
 20
363.606063
 30
0.0
 11
-161.420096
 21
363.606063
 31
0.0
  0
LINE
  5
1E3
330
1F
100
AcDbEntity
  8
LC-001-100-D00-0
 62
     7
370
    50
100
AcDbLine
 10
-161.420096
 20
363.606063
 30
0.0
 11
-157.920089
 21
363.606063
 31
0.0
  0
LINE
  5
1E4
330
1F
100
AcDbEntity
  8
LC-001-100-D00-0
 62
     7
370
    50
100
AcDbLine
 10
-138.420101
 20
363.606063
 30
0.0
 11
-134.920096
 21
363.606063
 31
0.0
  0
LINE
  5
1E5
330
1F
100
AcDbEntity
  8
LC-001-100-D00-0
 62
     7
370
    50
100
AcDbLine
 10
327.029904
 20
354.374829
 30
0.0
 11
327.029904
 21
356.837297
 31
0.0
  0
ARC
  5
1E6
330
1F
100
AcDbEntity
  8
LC-001-100-D00-0
 62
     7
370
    50
100
AcDbCircle
 10
327.629904
 20
354.374829
 30
0.0
 40
0.6000000000001364
100
AcDbArc
 50
180.0
 51
255.0
  0
LINE
  5
1E7
330
1F
100
AcDbEntity
  8
LC-001-100-D00-0
 62
     7
370
    50
100
AcDbLine
 10
328.180764
 20
353.606062
 30
0.0
 11
327.474613
 21
353.795274
 31
0.0
  0
LINE
  5
1E8
330
1F
100
AcDbEntity
  8
LC-001-100-D00-0
 62
     7
370
    50
100
AcDbLine
 10
328.180764
 20
353.606062
 30
0.0
 11
328.180764
 21
351.606064
 31
0.0
  0
LINE
  5
1E9
330
1F
100
AcDbEntity
  8
LC-001-100-D00-0
 62
     7
370
    50
100
AcDbLine
 10
325.229904
 20
352.606063
 30
0.0
 11
326.229904
 21
351.606063
 31
0.0
  0
LINE
  5
1EA
330
1F
100
AcDbEntity
  8
LC-001-100-D00-0
 62
     7
370
    50
100
AcDbLine
 10
325.229904
 20
352.606063
 30
0.0
 11
325.229902
 21
358.606063
 31
0.0
  0
LINE
  5
1EB
330
1F
100
AcDbEntity
  8
LC-001-100-D00-0
 62
     7
370
    50
100
AcDbLine
 10
326.229904
 20
359.606063
 30
0.0
 11
325.229902
 21
358.606063
 31
0.0
  0
LINE
  5
1EC
330
1F
100
AcDbEntity
  8
LC-001-100-D00-0
 62
     7
370
    50
100
AcDbLine
 10
328.180764
 20
359.606063
 30
0.0
 11
328.180764
 21
357.606063
 31
0.0
  0
LINE
  5
1ED
330
1F
100
AcDbEntity
  8
LC-001-100-D00-0
 62
     7
370
    50
100
AcDbLine
 10
327.474613
 20
357.416852
 30
0.0
 11
328.180764
 21
357.606063
 31
0.0
  0
ARC
  5
1EE
330
1F
100
AcDbEntity
  8
LC-001-100-D00-0
 62
     7
370
    50
100
AcDbCircle
 10
327.629904
 20
356.837297
 30
0.0
 40
0.600000000000118
100
AcDbArc
 50
105.0
 51
180.0
  0
LINE
  5
1EF
330
1F
100
AcDbEntity
  8
LC-001-100-D00-0
 62
     7
370
    50
100
AcDbLine
 10
326.229904
 20
351.606063
 30
0.0
 11
328.180764
 21
351.606064
 31
0.0
  0
LINE
  5
1F0
330
1F
100
AcDbEntity
  8
LC-001-100-D00-0
 62
     7
370
    50
100
AcDbLine
 10
326.229904
 20
359.606063
 30
0.0
 11
328.180764
 21
359.606063
 31
0.0
  0
LINE
  5
1F1
330
1F
100
AcDbEntity
  8
LC-001-100-D00-0
 62
     7
370
    50
100
AcDbLine
 10
316.629904
 20
356.837297
 30
0.0
 11
316.629904
 21
354.374829
 31
0.0
  0
LINE
  5
1F2
330
1F
100
AcDbEntity
  8
LC-001-100-D00-0
 62
     7
370
    50
100
AcDbLine
 10
318.429906
 20
358.606063
 30
0.0
 11
317.429904
 21
359.606063
 31
0.0
  0
LINE
  5
1F3
330
1F
100
AcDbEntity
  8
LC-001-100-D00-0
 62
     7
370
    50
100
AcDbLine
 10
317.429904
 20
351.606063
 30
0.0
 11
318.429904
 21
352.606063
 31
0.0
  0
LINE
  5
1F4
330
1F
100
AcDbEntity
  8
LC-001-100-D00-0
 62
     7
370
    50
100
AcDbLine
 10
318.429904
 20
352.606063
 30
0.0
 11
318.587744
 21
352.606063
 31
0.0
  0
LINE
  5
1F5
330
1F
100
AcDbEntity
  8
LC-001-100-D00-0
 62
     7
370
    50
100
AcDbLine
 10
325.072065
 20
352.606063
 30
0.0
 11
325.229904
 21
352.606063
 31
0.0
  0
LINE
  5
1F6
330
1F
100
AcDbEntity
  8
LC-001-100-D00-0
 62
     7
370
    50
100
AcDbLine
 10
326.229904
 20
351.606063
 30
0.0
 11
325.694123
 21
351.606063
 31
0.0
  0
LINE
  5
1F7
330
1F
100
AcDbEntity
  8
LC-001-100-D00-0
 62
     7
370
    50
100
AcDbLine
 10
317.965686
 20
351.606063
 30
0.0
 11
317.429904
 21
351.606063
 31
0.0
  0
LINE
  5
1F8
330
1F
100
AcDbEntity
  8
LC-001-100-D00-0
 62
     7
370
    50
100
AcDbLine
 10
318.429906
 20
358.606063
 30
0.0
 11
318.429904
 21
352.606063
 31
0.0
  0
LINE
  5
1F9
330
1F
100
AcDbEntity
  8
LC-001-100-D00-0
 62
     7
370
    50
100
AcDbLine
 10
315.479059
 20
353.606062
 30
0.0
 11
315.479059
 21
351.606064
 31
0.0
  0
LINE
  5
1FA
330
1F
100
AcDbEntity
  8
LC-001-100-D00-0
 62
     7
370
    50
100
AcDbLine
 10
316.185196
 20
353.795274
 30
0.0
 11
315.479059
 21
353.606062
 31
0.0
  0
ARC
  5
1FB
330
1F
100
AcDbEntity
  8
LC-001-100-D00-0
 62
     7
370
    50
100
AcDbCircle
 10
316.029904
 20
354.374829
 30
0.0
 40
0.6000000000001474
100
AcDbArc
 50
285.0
 51
0.0
  0
ARC
  5
1FC
330
1F
100
AcDbEntity
  8
LC-001-100-D00-0
 62
     7
370
    50
100
AcDbCircle
 10
316.029904
 20
356.837297
 30
0.0
 40
0.6000000000001364
100
AcDbArc
 50
0.0
 51
75.0
  0
LINE
  5
1FD
330
1F
100
AcDbEntity
  8
LC-001-100-D00-0
 62
     7
370
    50
100
AcDbLine
 10
315.479059
 20
357.606063
 30
0.0
 11
316.185196
 21
357.416852
 31
0.0
  0
LINE
  5
1FE
330
1F
100
AcDbEntity
  8
LC-001-100-D00-0
 62
     7
370
    50
100
AcDbLine
 10
315.479059
 20
359.606063
 30
0.0
 11
315.479059
 21
357.606063
 31
0.0
  0
LINE
  5
1FF
330
1F
100
AcDbEntity
  8
LC-001-100-D00-0
 62
     7
370
    50
100
AcDbLine
 10
315.479059
 20
351.606064
 30
0.0
 11
317.429904
 21
351.606063
 31
0.0
  0
LINE
  5
200
330
1F
100
AcDbEntity
  8
LC-001-100-D00-0
 62
     7
370
    50
100
AcDbLine
 10
315.479059
 20
359.606063
 30
0.0
 11
317.429904
 21
359.606063
 31
0.0
  0
LINE
  5
201
330
1F
100
AcDbEntity
  8
LC-001-100-D00-0
 62
     7
370
    50
100
AcDbLine
 10
328.180764
 20
359.606063
 30
0.0
 11
325.72991
 21
359.606063
 31
0.0
  0
LINE
  5
202
330
1F
100
AcDbEntity
  8
LC-001-100-D00-0
 62
     7
370
    50
100
AcDbLine
 10
325.72991
 20
359.606063
 30
0.0
 11
325.729904
 21
370.606063
 31
0.0
  0
LINE
  5
203
330
1F
100
AcDbEntity
  8
LC-001-100-D00-0
 62
     7
370
    50
100
AcDbLine
 10
325.729904
 20
370.606063
 30
0.0
 11
339.079904
 21
370.606063
 31
0.0
  0
ARC
  5
204
330
1F
100
AcDbEntity
  8
LC-001-100-D00-0
 62
     7
370
    50
100
AcDbCircle
 10
339.079904
 20
369.606063
 30
0.0
 40
1.0
100
AcDbArc
 50
0.0
 51
90.0
  0
LINE
  5
205
330
1F
100
AcDbEntity
  8
LC-001-100-D00-0
 62
     7
370
    50
100
AcDbLine
 10
340.079904
 20
369.606063
 30
0.0
 11
340.079907
 21
363.606063
 31
0.0
  0
LINE
  5
206
330
1F
100
AcDbEntity
  8
LC-001-100-D00-0
 62
     7
370
    50
100
AcDbLine
 10
337.079904
 20
363.606063
 30
0.0
 11
340.079907
 21
363.606063
 31
0.0
  0
LINE
  5
207
330
1F
100
AcDbEntity
  8
LC-001-100-D00-0
 62
     7
370
    50
100
AcDbLine
 10
337.079904
 20
363.606063
 30
0.0
 11
337.079916
 21
367.606063
 31
0.0
  0
LINE
  5
208
330
1F
100
AcDbEntity
  8
LC-001-100-D00-0
 62
     7
370
    50
100
AcDbLine
 10
332.579904
 20
367.606063
 30
0.0
 11
337.079916
 21
367.606063
 31
0.0
  0
ARC
  5
209
330
1F
100
AcDbEntity
  8
LC-001-100-D00-0
 62
     7
370
    50
100
AcDbCircle
 10
332.579904
 20
366.606063
 30
0.0
 40
0.9999999999997726
100
AcDbArc
 50
90.0
 51
180.0
  0
LINE
  5
20A
330
1F
100
AcDbEntity
  8
LC-001-100-D00-0
 62
     7
370
    50
100
AcDbLine
 10
331.579904
 20
352.606063
 30
0.0
 11
331.579904
 21
366.606063
 31
0.0
  0
ARC
  5
20B
330
1F
100
AcDbEntity
  8
LC-001-100-D00-0
 62
     7
370
    50
100
AcDbCircle
 10
330.579904
 20
352.606063
 30
0.0
 40
1.0
100
AcDbArc
 50
270.0
 51
0.0
  0
LINE
  5
20C
330
1F
100
AcDbEntity
  8
LC-001-100-D00-0
 62
     7
370
    50
100
AcDbLine
 10
330.579904
 20
351.606063
 30
0.0
 11
328.180764
 21
351.606064
 31
0.0
  0
LINE
  5
20D
330
1F
100
AcDbEntity
  8
LC-001-100-D00-0
 62
     7
370
    50
100
AcDbLine
 10
328.180764
 20
353.606062
 30
0.0
 11
328.180764
 21
351.606064
 31
0.0
  0
LINE
  5
20E
330
1F
100
AcDbEntity
  8
LC-001-100-D00-0
 62
     7
370
    50
100
AcDbLine
 10
327.529904
 20
353.606063
 30
0.0
 11
328.180764
 21
353.606062
 31
0.0
  0
ARC
  5
20F
330
1F
100
AcDbEntity
  8
LC-001-100-D00-0
 62
     7
370
    50
100
AcDbCircle
 10
327.529904
 20
354.106063
 30
0.0
 40
0.4999999999998863
100
AcDbArc
 50
180.0
 51
270.0
  0
LINE
  5
210
330
1F
100
AcDbEntity
  8
LC-001-100-D00-0
 62
     7
370
    50
100
AcDbLine
 10
327.029904
 20
357.106063
 30
0.0
 11
327.029904
 21
354.106063
 31
0.0
  0
ARC
  5
211
330
1F
100
AcDbEntity
  8
LC-001-100-D00-0
 62
     7
370
    50
100
AcDbCircle
 10
327.529904
 20
357.106063
 30
0.0
 40
0.5
100
AcDbArc
 50
90.0
 51
180.0
  0
LINE
  5
212
330
1F
100
AcDbEntity
  8
LC-001-100-D00-0
 62
     7
370
    50
100
AcDbLine
 10
328.180764
 20
357.606063
 30
0.0
 11
327.529904
 21
357.606063
 31
0.0
  0
LINE
  5
213
330
1F
100
AcDbEntity
  8
LC-001-100-D00-0
 62
     7
370
    50
100
AcDbLine
 10
328.180764
 20
359.606063
 30
0.0
 11
328.180764
 21
357.606063
 31
0.0
  0
ARC
  5
214
330
1F
100
AcDbEntity
  8
LC-001-100-D00-0
 62
     7
370
    50
100
AcDbCircle
 10
311.079904
 20
366.606063
 30
0.0
 40
1.0
100
AcDbArc
 50
0.0
 51
90.0
  0
ARC
  5
215
330
1F
100
AcDbEntity
  8
LC-001-100-D00-0
 62
     7
370
    50
100
AcDbCircle
 10
313.079904
 20
352.606063
 30
0.0
 40
1.0
100
AcDbArc
 50
180.0
 51
270.0
  0
LINE
  5
216
330
1F
100
AcDbEntity
  8
LC-001-100-D00-0
 62
     7
370
    50
100
AcDbLine
 10
312.079904
 20
366.606063
 30
0.0
 11
312.079904
 21
352.606063
 31
0.0
  0
LINE
  5
217
330
1F
100
AcDbEntity
  8
LC-001-100-D00-0
 62
     7
370
    50
100
AcDbLine
 10
316.629904
 20
354.106063
 30
0.0
 11
316.629904
 21
357.106063
 31
0.0
  0
LINE
  5
218
330
1F
100
AcDbEntity
  8
LC-001-100-D00-0
 62
     7
370
    50
100
AcDbLine
 10
317.929904
 20
370.606063
 30
0.0
 11
317.929897
 21
359.606063
 31
0.0
  0
LINE
  5
219
330
1F
100
AcDbEntity
  8
LC-001-100-D00-0
 62
     7
370
    50
100
AcDbLine
 10
317.929904
 20
370.606063
 30
0.0
 11
325.729904
 21
370.606063
 31
0.0
  0
LINE
  5
21A
330
1F
100
AcDbEntity
  8
LC-001-100-D00-0
 62
     7
370
    50
100
AcDbLine
 10
315.479059
 20
353.606062
 30
0.0
 11
315.479059
 21
351.606064
 31
0.0
  0
LINE
  5
21B
330
1F
100
AcDbEntity
  8
LC-001-100-D00-0
 62
     7
370
    50
100
AcDbLine
 10
315.479059
 20
359.606063
 30
0.0
 11
315.479059
 21
357.606063
 31
0.0
  0
ARC
  5
21C
330
1F
100
AcDbEntity
  8
LC-001-100-D00-0
 62
     7
370
    50
100
AcDbCircle
 10
316.129904
 20
354.106063
 30
0.0
 40
0.5000000000002274
100
AcDbArc
 50
270.0
 51
0.0
  0
LINE
  5
21D
330
1F
100
AcDbEntity
  8
LC-001-100-D00-0
 62
     7
370
    50
100
AcDbLine
 10
315.479059
 20
353.606062
 30
0.0
 11
316.129904
 21
353.606063
 31
0.0
  0
LINE
  5
21E
330
1F
100
AcDbEntity
  8
LC-001-100-D00-0
 62
     7
370
    50
100
AcDbLine
 10
306.579906
 20
367.606063
 30
0.0
 11
306.579904
 21
363.606063
 31
0.0
  0
LINE
  5
21F
330
1F
100
AcDbEntity
  8
LC-001-100-D00-0
 62
     7
370
    50
100
AcDbLine
 10
303.5799
 20
363.606063
 30
0.0
 11
303.579904
 21
369.606063
 31
0.0
  0
ARC
  5
220
330
1F
100
AcDbEntity
  8
LC-001-100-D00-0
 62
     7
370
    50
100
AcDbCircle
 10
304.579904
 20
369.606063
 30
0.0
 40
1.0
100
AcDbArc
 50
90.0
 51
180.0
  0
LINE
  5
221
330
1F
100
AcDbEntity
  8
LC-001-100-D00-0
 62
     7
370
    50
100
AcDbLine
 10
316.129904
 20
357.606063
 30
0.0
 11
315.479059
 21
357.606063
 31
0.0
  0
ARC
  5
222
330
1F
100
AcDbEntity
  8
LC-001-100-D00-0
 62
     7
370
    50
100
AcDbCircle
 10
316.129904
 20
357.106063
 30
0.0
 40
0.5000000000001137
100
AcDbArc
 50
0.0
 51
90.0
  0
LINE
  5
223
330
1F
100
AcDbEntity
  8
LC-001-100-D00-0
 62
     7
370
    50
100
AcDbLine
 10
317.929897
 20
359.606063
 30
0.0
 11
315.479059
 21
359.606063
 31
0.0
  0
LINE
  5
224
330
1F
100
AcDbEntity
  8
LC-001-100-D00-0
 62
     7
370
    50
100
AcDbLine
 10
315.479059
 20
351.606064
 30
0.0
 11
313.079904
 21
351.606063
 31
0.0
  0
LINE
  5
225
330
1F
100
AcDbEntity
  8
LC-001-100-D00-0
 62
     7
370
    50
100
AcDbLine
 10
306.579906
 20
367.606063
 30
0.0
 11
311.079904
 21
367.606063
 31
0.0
  0
LINE
  5
226
330
1F
100
AcDbEntity
  8
LC-001-100-D00-0
 62
     7
370
    50
100
AcDbLine
 10
304.579904
 20
370.606063
 30
0.0
 11
317.929904
 21
370.606063
 31
0.0
  0
LINE
  5
227
330
1F
100
AcDbEntity
  8
LC-001-100-D00-0
 62
     7
370
    50
100
AcDbLine
 10
303.5799
 20
363.606063
 30
0.0
 11
306.579904
 21
363.606063
 31
0.0
  0
LINE
  5
228
330
1F
100
AcDbEntity
  8
LC-001-100-D00-0
 62
     7
370
    50
100
AcDbLine
 10
335.079904
 20
363.606063
 30
0.0
 11
337.079904
 21
363.606063
 31
0.0
  0
LINE
  5
229
330
1F
100
AcDbEntity
  8
LC-001-100-D00-0
 62
     7
370
    50
100
AcDbLine
 10
306.579904
 20
363.606063
 30
0.0
 11
308.579904
 21
363.606063
 31
0.0
  0
LINE
  5
22A
330
1F
100
AcDbEntity
  8
LC-001-100-D00-0
 62
     7
370
    50
100
AcDbLine
 10
308.579904
 20
363.606063
 30
0.0
 11
312.07991
 21
363.606063
 31
0.0
  0
LINE
  5
22B
330
1F
100
AcDbEntity
  8
LC-001-100-D00-0
 62
     7
370
    50
100
AcDbLine
 10
331.579897
 20
363.606063
 30
0.0
 11
335.079904
 21
363.606063
 31
0.0
  0
LINE
  5
22C
330
1F
100
AcDbEntity
  8
LC-001-100-D00-0
 62
     7
370
    50
100
AcDbLine
 10
-277.970096
 20
354.374829
 30
0.0
 11
-277.970096
 21
356.837297
 31
0.0
  0
ARC
  5
22D
330
1F
100
AcDbEntity
  8
LC-001-100-D00-0
 62
     7
370
    50
100
AcDbCircle
 10
-277.370096
 20
354.374829
 30
0.0
 40
0.6000000000000796
100
AcDbArc
 50
180.0
 51
255.0
  0
LINE
  5
22E
330
1F
100
AcDbEntity
  8
LC-001-100-D00-0
 62
     7
370
    50
100
AcDbLine
 10
-276.819255
 20
353.606062
 30
0.0
 11
-277.525387
 21
353.795274
 31
0.0
  0
LINE
  5
22F
330
1F
100
AcDbEntity
  8
LC-001-100-D00-0
 62
     7
370
    50
100
AcDbLine
 10
-276.819255
 20
353.606062
 30
0.0
 11
-276.819255
 21
351.606064
 31
0.0
  0
LINE
  5
230
330
1F
100
AcDbEntity
  8
LC-001-100-D00-0
 62
     7
370
    50
100
AcDbLine
 10
-279.770096
 20
352.606063
 30
0.0
 11
-278.770096
 21
351.606063
 31
0.0
  0
LINE
  5
231
330
1F
100
AcDbEntity
  8
LC-001-100-D00-0
 62
     7
370
    50
100
AcDbLine
 10
-279.770096
 20
352.606063
 30
0.0
 11
-279.770102
 21
358.606063
 31
0.0
  0
LINE
  5
232
330
1F
100
AcDbEntity
  8
LC-001-100-D00-0
 62
     7
370
    50
100
AcDbLine
 10
-278.770086
 20
359.606063
 30
0.0
 11
-279.770102
 21
358.606063
 31
0.0
  0
LINE
  5
233
330
1F
100
AcDbEntity
  8
LC-001-100-D00-0
 62
     7
370
    50
100
AcDbLine
 10
-276.819255
 20
359.606063
 30
0.0
 11
-276.819255
 21
357.606063
 31
0.0
  0
LINE
  5
234
330
1F
100
AcDbEntity
  8
LC-001-100-D00-0
 62
     7
370
    50
100
AcDbLine
 10
-277.525387
 20
357.416852
 30
0.0
 11
-276.819255
 21
357.606063
 31
0.0
  0
ARC
  5
235
330
1F
100
AcDbEntity
  8
LC-001-100-D00-0
 62
     7
370
    50
100
AcDbCircle
 10
-277.370096
 20
356.837297
 30
0.0
 40
0.6000000000001032
100
AcDbArc
 50
105.0
 51
180.0
  0
LINE
  5
236
330
1F
100
AcDbEntity
  8
LC-001-100-D00-0
 62
     7
370
    50
100
AcDbLine
 10
-278.770096
 20
351.606063
 30
0.0
 11
-276.819255
 21
351.606064
 31
0.0
  0
LINE
  5
237
330
1F
100
AcDbEntity
  8
LC-001-100-D00-0
 62
     7
370
    50
100
AcDbLine
 10
-278.770086
 20
359.606063
 30
0.0
 11
-276.819255
 21
359.606063
 31
0.0
  0
LINE
  5
238
330
1F
100
AcDbEntity
  8
LC-001-100-D00-0
 62
     7
370
    50
100
AcDbLine
 10
-288.370096
 20
356.837297
 30
0.0
 11
-288.370096
 21
354.374829
 31
0.0
  0
LINE
  5
239
330
1F
100
AcDbEntity
  8
LC-001-100-D00-0
 62
     7
370
    50
100
AcDbLine
 10
-286.570098
 20
358.606063
 30
0.0
 11
-287.570085
 21
359.606063
 31
0.0
  0
LINE
  5
23A
330
1F
100
AcDbEntity
  8
LC-001-100-D00-0
 62
     7
370
    50
100
AcDbLine
 10
-286.570098
 20
358.606063
 30
0.0
 11
-286.570096
 21
352.606063
 31
0.0
  0
LINE
  5
23B
330
1F
100
AcDbEntity
  8
LC-001-100-D00-0
 62
     7
370
    50
100
AcDbLine
 10
-287.570096
 20
351.606063
 30
0.0
 11
-286.570096
 21
352.606063
 31
0.0
  0
LINE
  5
23C
330
1F
100
AcDbEntity
  8
LC-001-100-D00-0
 62
     7
370
    50
100
AcDbLine
 10
-289.520945
 20
353.606062
 30
0.0
 11
-289.520945
 21
351.606064
 31
0.0
  0
LINE
  5
23D
330
1F
100
AcDbEntity
  8
LC-001-100-D00-0
 62
     7
370
    50
100
AcDbLine
 10
-288.814804
 20
353.795274
 30
0.0
 11
-289.520945
 21
353.606062
 31
0.0
  0
ARC
  5
23E
330
1F
100
AcDbEntity
  8
LC-001-100-D00-0
 62
     7
370
    50
100
AcDbCircle
 10
-288.970096
 20
354.374829
 30
0.0
 40
0.6000000000001032
100
AcDbArc
 50
285.0
 51
0.0
  0
ARC
  5
23F
330
1F
100
AcDbEntity
  8
LC-001-100-D00-0
 62
     7
370
    50
100
AcDbCircle
 10
-288.970096
 20
356.837297
 30
0.0
 40
0.6000000000000227
100
AcDbArc
 50
0.0
 51
75.0
  0
LINE
  5
240
330
1F
100
AcDbEntity
  8
LC-001-100-D00-0
 62
     7
370
    50
100
AcDbLine
 10
-289.520945
 20
357.606063
 30
0.0
 11
-288.814804
 21
357.416852
 31
0.0
  0
LINE
  5
241
330
1F
100
AcDbEntity
  8
LC-001-100-D00-0
 62
     7
370
    50
100
AcDbLine
 10
-289.520945
 20
359.606063
 30
0.0
 11
-289.520945
 21
357.606063
 31
0.0
  0
LINE
  5
242
330
1F
100
AcDbEntity
  8
LC-001-100-D00-0
 62
     7
370
    50
100
AcDbLine
 10
-289.520945
 20
351.606064
 30
0.0
 11
-287.570096
 21
351.606063
 31
0.0
  0
LINE
  5
243
330
1F
100
AcDbEntity
  8
LC-001-100-D00-0
 62
     7
370
    50
100
AcDbLine
 10
-289.520945
 20
359.606063
 30
0.0
 11
-287.570085
 21
359.606063
 31
0.0
  0
LINE
  5
244
330
1F
100
AcDbEntity
  8
LC-001-100-D00-0
 62
     7
370
    50
100
AcDbLine
 10
-286.570096
 20
352.606063
 30
0.0
 11
-286.412256
 21
352.606063
 31
0.0
  0
LINE
  5
245
330
1F
100
AcDbEntity
  8
LC-001-100-D00-0
 62
     7
370
    50
100
AcDbLine
 10
-279.927935
 20
352.606063
 30
0.0
 11
-279.770096
 21
352.606063
 31
0.0
  0
LINE
  5
246
330
1F
100
AcDbEntity
  8
LC-001-100-D00-0
 62
     7
370
    50
100
AcDbLine
 10
-278.770096
 20
351.606063
 30
0.0
 11
-279.305877
 21
351.606063
 31
0.0
  0
LINE
  5
247
330
1F
100
AcDbEntity
  8
LC-001-100-D00-0
 62
     7
370
    50
100
AcDbLine
 10
-287.034314
 20
351.606063
 30
0.0
 11
-287.570096
 21
351.606063
 31
0.0
  0
LINE
  5
248
330
1F
100
AcDbEntity
  8
LC-001-100-D00-0
 62
     7
370
    50
100
AcDbLine
 10
-276.819255
 20
359.606063
 30
0.0
 11
-279.270109
 21
359.606063
 31
0.0
  0
LINE
  5
249
330
1F
100
AcDbEntity
  8
LC-001-100-D00-0
 62
     7
370
    50
100
AcDbLine
 10
-279.270109
 20
359.606063
 30
0.0
 11
-279.270096
 21
370.606063
 31
0.0
  0
LINE
  5
24A
330
1F
100
AcDbEntity
  8
LC-001-100-D00-0
 62
     7
370
    50
100
AcDbLine
 10
-279.270096
 20
370.606063
 30
0.0
 11
-265.920096
 21
370.606063
 31
0.0
  0
ARC
  5
24B
330
1F
100
AcDbEntity
  8
LC-001-100-D00-0
 62
     7
370
    50
100
AcDbCircle
 10
-265.920096
 20
369.606063
 30
0.0
 40
1.0
100
AcDbArc
 50
0.0
 51
90.0
  0
LINE
  5
24C
330
1F
100
AcDbEntity
  8
LC-001-100-D00-0
 62
     7
370
    50
100
AcDbLine
 10
-264.920096
 20
369.606063
 30
0.0
 11
-264.920082
 21
363.606063
 31
0.0
  0
LINE
  5
24D
330
1F
100
AcDbEntity
  8
LC-001-100-D00-0
 62
     7
370
    50
100
AcDbLine
 10
-267.920096
 20
363.606063
 30
0.0
 11
-264.920082
 21
363.606063
 31
0.0
  0
LINE
  5
24E
330
1F
100
AcDbEntity
  8
LC-001-100-D00-0
 62
     7
370
    50
100
AcDbLine
 10
-267.920096
 20
363.606063
 30
0.0
 11
-267.920103
 21
367.606063
 31
0.0
  0
LINE
  5
24F
330
1F
100
AcDbEntity
  8
LC-001-100-D00-0
 62
     7
370
    50
100
AcDbLine
 10
-272.420096
 20
367.606063
 30
0.0
 11
-267.920103
 21
367.606063
 31
0.0
  0
ARC
  5
250
330
1F
100
AcDbEntity
  8
LC-001-100-D00-0
 62
     7
370
    50
100
AcDbCircle
 10
-272.420096
 20
366.606063
 30
0.0
 40
0.9999999999997726
100
AcDbArc
 50
90.0
 51
180.0
  0
LINE
  5
251
330
1F
100
AcDbEntity
  8
LC-001-100-D00-0
 62
     7
370
    50
100
AcDbLine
 10
-273.420096
 20
352.606063
 30
0.0
 11
-273.420096
 21
366.606063
 31
0.0
  0
ARC
  5
252
330
1F
100
AcDbEntity
  8
LC-001-100-D00-0
 62
     7
370
    50
100
AcDbCircle
 10
-274.420096
 20
352.606063
 30
0.0
 40
1.0
100
AcDbArc
 50
270.0
 51
0.0
  0
LINE
  5
253
330
1F
100
AcDbEntity
  8
LC-001-100-D00-0
 62
     7
370
    50
100
AcDbLine
 10
-274.420096
 20
351.606063
 30
0.0
 11
-276.819255
 21
351.606064
 31
0.0
  0
LINE
  5
254
330
1F
100
AcDbEntity
  8
LC-001-100-D00-0
 62
     7
370
    50
100
AcDbLine
 10
-276.819255
 20
353.606062
 30
0.0
 11
-276.819255
 21
351.606064
 31
0.0
  0
LINE
  5
255
330
1F
100
AcDbEntity
  8
LC-001-100-D00-0
 62
     7
370
    50
100
AcDbLine
 10
-277.470096
 20
353.606063
 30
0.0
 11
-276.819255
 21
353.606062
 31
0.0
  0
ARC
  5
256
330
1F
100
AcDbEntity
  8
LC-001-100-D00-0
 62
     7
370
    50
100
AcDbCircle
 10
-277.470096
 20
354.106063
 30
0.0
 40
0.5
100
AcDbArc
 50
180.0
 51
270.0
  0
LINE
  5
257
330
1F
100
AcDbEntity
  8
LC-001-100-D00-0
 62
     7
370
    50
100
AcDbLine
 10
-277.970096
 20
357.106063
 30
0.0
 11
-277.970096
 21
354.106063
 31
0.0
  0
ARC
  5
258
330
1F
100
AcDbEntity
  8
LC-001-100-D00-0
 62
     7
370
    50
100
AcDbCircle
 10
-277.470096
 20
357.106063
 30
0.0
 40
0.5
100
AcDbArc
 50
90.0
 51
180.0
  0
LINE
  5
259
330
1F
100
AcDbEntity
  8
LC-001-100-D00-0
 62
     7
370
    50
100
AcDbLine
 10
-276.819255
 20
357.606063
 30
0.0
 11
-277.470096
 21
357.606063
 31
0.0
  0
LINE
  5
25A
330
1F
100
AcDbEntity
  8
LC-001-100-D00-0
 62
     7
370
    50
100
AcDbLine
 10
-276.819255
 20
359.606063
 30
0.0
 11
-276.819255
 21
357.606063
 31
0.0
  0
ARC
  5
25B
330
1F
100
AcDbEntity
  8
LC-001-100-D00-0
 62
     7
370
    50
100
AcDbCircle
 10
-293.920096
 20
366.606063
 30
0.0
 40
0.9999999999999432
100
AcDbArc
 50
0.0
 51
90.0
  0
ARC
  5
25C
330
1F
100
AcDbEntity
  8
LC-001-100-D00-0
 62
     7
370
    50
100
AcDbCircle
 10
-291.920096
 20
352.606063
 30
0.0
 40
1.000000000000057
100
AcDbArc
 50
180.0
 51
270.0
  0
LINE
  5
25D
330
1F
100
AcDbEntity
  8
LC-001-100-D00-0
 62
     7
370
    50
100
AcDbLine
 10
-292.920096
 20
366.606063
 30
0.0
 11
-292.920096
 21
352.606063
 31
0.0
  0
LINE
  5
25E
330
1F
100
AcDbEntity
  8
LC-001-100-D00-0
 62
     7
370
    50
100
AcDbLine
 10
-288.370096
 20
354.106063
 30
0.0
 11
-288.370096
 21
357.106063
 31
0.0
  0
LINE
  5
25F
330
1F
100
AcDbEntity
  8
LC-001-100-D00-0
 62
     7
370
    50
100
AcDbLine
 10
-287.070096
 20
370.606063
 30
0.0
 11
-287.070092
 21
359.606063
 31
0.0
  0
LINE
  5
260
330
1F
100
AcDbEntity
  8
LC-001-100-D00-0
 62
     7
370
    50
100
AcDbLine
 10
-287.070096
 20
370.606063
 30
0.0
 11
-279.270096
 21
370.606063
 31
0.0
  0
LINE
  5
261
330
1F
100
AcDbEntity
  8
LC-001-100-D00-0
 62
     7
370
    50
100
AcDbLine
 10
-289.520945
 20
353.606062
 30
0.0
 11
-289.520945
 21
351.606064
 31
0.0
  0
LINE
  5
262
330
1F
100
AcDbEntity
  8
LC-001-100-D00-0
 62
     7
370
    50
100
AcDbLine
 10
-289.520945
 20
359.606063
 30
0.0
 11
-289.520945
 21
357.606063
 31
0.0
  0
ARC
  5
263
330
1F
100
AcDbEntity
  8
LC-001-100-D00-0
 62
     7
370
    50
100
AcDbCircle
 10
-288.870096
 20
354.106063
 30
0.0
 40
0.5
100
AcDbArc
 50
270.0
 51
0.0
  0
LINE
  5
264
330
1F
100
AcDbEntity
  8
LC-001-100-D00-0
 62
     7
370
    50
100
AcDbLine
 10
-289.520945
 20
353.606062
 30
0.0
 11
-288.870096
 21
353.606063
 31
0.0
  0
LINE
  5
265
330
1F
100
AcDbEntity
  8
LC-001-100-D00-0
 62
     7
370
    50
100
AcDbLine
 10
-298.420098
 20
367.606063
 30
0.0
 11
-298.420096
 21
363.606063
 31
0.0
  0
LINE
  5
266
330
1F
100
AcDbEntity
  8
LC-001-100-D00-0
 62
     7
370
    50
100
AcDbLine
 10
-301.420089
 20
363.606063
 30
0.0
 11
-301.420096
 21
369.606063
 31
0.0
  0
ARC
  5
267
330
1F
100
AcDbEntity
  8
LC-001-100-D00-0
 62
     7
370
    50
100
AcDbCircle
 10
-300.420096
 20
369.606063
 30
0.0
 40
1.0
100
AcDbArc
 50
90.0
 51
180.0
  0
LINE
  5
268
330
1F
100
AcDbEntity
  8
LC-001-100-D00-0
 62
     7
370
    50
100
AcDbLine
 10
-288.870096
 20
357.606063
 30
0.0
 11
-289.520945
 21
357.606063
 31
0.0
  0
ARC
  5
269
330
1F
100
AcDbEntity
  8
LC-001-100-D00-0
 62
     7
370
    50
100
AcDbCircle
 10
-288.870096
 20
357.106063
 30
0.0
 40
0.5
100
AcDbArc
 50
0.0
 51
90.0
  0
LINE
  5
26A
330
1F
100
AcDbEntity
  8
LC-001-100-D00-0
 62
     7
370
    50
100
AcDbLine
 10
-301.420089
 20
363.606063
 30
0.0
 11
-298.420096
 21
363.606063
 31
0.0
  0
LINE
  5
26B
330
1F
100
AcDbEntity
  8
LC-001-100-D00-0
 62
     7
370
    50
100
AcDbLine
 10
-287.070092
 20
359.606063
 30
0.0
 11
-289.520945
 21
359.606063
 31
0.0
  0
LINE
  5
26C
330
1F
100
AcDbEntity
  8
LC-001-100-D00-0
 62
     7
370
    50
100
AcDbLine
 10
-289.520945
 20
351.606064
 30
0.0
 11
-291.920096
 21
351.606063
 31
0.0
  0
LINE
  5
26D
330
1F
100
AcDbEntity
  8
LC-001-100-D00-0
 62
     7
370
    50
100
AcDbLine
 10
-298.420098
 20
367.606063
 30
0.0
 11
-293.920096
 21
367.606063
 31
0.0
  0
LINE
  5
26E
330
1F
100
AcDbEntity
  8
LC-001-100-D00-0
 62
     7
370
    50
100
AcDbLine
 10
-300.420096
 20
370.606063
 30
0.0
 11
-287.070096
 21
370.606063
 31
0.0
  0
LINE
  5
26F
330
1F
100
AcDbEntity
  8
LC-001-100-D00-0
 62
     7
370
    50
100
AcDbLine
 10
-269.920096
 20
363.606063
 30
0.0
 11
-267.920096
 21
363.606063
 31
0.0
  0
LINE
  5
270
330
1F
100
AcDbEntity
  8
LC-001-100-D00-0
 62
     7
370
    50
100
AcDbLine
 10
-298.420096
 20
363.606063
 30
0.0
 11
-296.420096
 21
363.606063
 31
0.0
  0
LINE
  5
271
330
1F
100
AcDbEntity
  8
LC-001-100-D00-0
 62
     7
370
    50
100
AcDbLine
 10
-296.420096
 20
363.606063
 30
0.0
 11
-292.920109
 21
363.606063
 31
0.0
  0
LINE
  5
272
330
1F
100
AcDbEntity
  8
LC-001-100-D00-0
 62
     7
370
    50
100
AcDbLine
 10
-273.420092
 20
363.606063
 30
0.0
 11
-269.920096
 21
363.606063
 31
0.0
  0
LINE
  5
273
330
1F
100
AcDbEntity
  8
LC-001-100-D00-0
 62
     7
370
    50
100
AcDbLine
 10
-7.970096
 20
354.374829
 30
0.0
 11
-7.970096
 21
356.837297
 31
0.0
  0
ARC
  5
274
330
1F
100
AcDbEntity
  8
LC-001-100-D00-0
 62
     7
370
    50
100
AcDbCircle
 10
-7.370096
 20
354.374829
 30
0.0
 40
0.6000000000001364
100
AcDbArc
 50
180.0
 51
255.0
  0
LINE
  5
275
330
1F
100
AcDbEntity
  8
LC-001-100-D00-0
 62
     7
370
    50
100
AcDbLine
 10
-6.819245
 20
353.606062
 30
0.0
 11
-7.525387
 21
353.795274
 31
0.0
  0
LINE
  5
276
330
1F
100
AcDbEntity
  8
LC-001-100-D00-0
 62
     7
370
    50
100
AcDbLine
 10
-6.819245
 20
353.606062
 30
0.0
 11
-6.819245
 21
351.606064
 31
0.0
  0
LINE
  5
277
330
1F
100
AcDbEntity
  8
LC-001-100-D00-0
 62
     7
370
    50
100
AcDbLine
 10
-9.770096
 20
352.606063
 30
0.0
 11
-8.770096
 21
351.606063
 31
0.0
  0
LINE
  5
278
330
1F
100
AcDbEntity
  8
LC-001-100-D00-0
 62
     7
370
    50
100
AcDbLine
 10
-9.770096
 20
352.606063
 30
0.0
 11
-9.770099
 21
358.606063
 31
0.0
  0
LINE
  5
279
330
1F
100
AcDbEntity
  8
LC-001-100-D00-0
 62
     7
370
    50
100
AcDbLine
 10
-8.770097
 20
359.606063
 30
0.0
 11
-9.770099
 21
358.606063
 31
0.0
  0
LINE
  5
27A
330
1F
100
AcDbEntity
  8
LC-001-100-D00-0
 62
     7
370
    50
100
AcDbLine
 10
-6.819245
 20
359.606063
 30
0.0
 11
-6.819245
 21
357.606063
 31
0.0
  0
LINE
  5
27B
330
1F
100
AcDbEntity
  8
LC-001-100-D00-0
 62
     7
370
    50
100
AcDbLine
 10
-7.525387
 20
357.416852
 30
0.0
 11
-6.819245
 21
357.606063
 31
0.0
  0
ARC
  5
27C
330
1F
100
AcDbEntity
  8
LC-001-100-D00-0
 62
     7
370
    50
100
AcDbCircle
 10
-7.370096
 20
356.837297
 30
0.0
 40
0.6000000000000886
100
AcDbArc
 50
105.0
 51
180.0
  0
LINE
  5
27D
330
1F
100
AcDbEntity
  8
LC-001-100-D00-0
 62
     7
370
    50
100
AcDbLine
 10
-8.770096
 20
351.606063
 30
0.0
 11
-6.819245
 21
351.606064
 31
0.0
  0
LINE
  5
27E
330
1F
100
AcDbEntity
  8
LC-001-100-D00-0
 62
     7
370
    50
100
AcDbLine
 10
-8.770097
 20
359.606063
 30
0.0
 11
-6.819245
 21
359.606063
 31
0.0
  0
LINE
  5
27F
330
1F
100
AcDbEntity
  8
LC-001-100-D00-0
 62
     7
370
    50
100
AcDbLine
 10
-18.370096
 20
356.837297
 30
0.0
 11
-18.370096
 21
354.374829
 31
0.0
  0
LINE
  5
280
330
1F
100
AcDbEntity
  8
LC-001-100-D00-0
 62
     7
370
    50
100
AcDbLine
 10
-16.570095
 20
358.606063
 30
0.0
 11
-17.570097
 21
359.606063
 31
0.0
  0
LINE
  5
281
330
1F
100
AcDbEntity
  8
LC-001-100-D00-0
 62
     7
370
    50
100
AcDbLine
 10
-16.570095
 20
358.606063
 30
0.0
 11
-16.570096
 21
352.606063
 31
0.0
  0
LINE
  5
282
330
1F
100
AcDbEntity
  8
LC-001-100-D00-0
 62
     7
370
    50
100
AcDbLine
 10
-17.570096
 20
351.606063
 30
0.0
 11
-16.570096
 21
352.606063
 31
0.0
  0
LINE
  5
283
330
1F
100
AcDbEntity
  8
LC-001-100-D00-0
 62
     7
370
    50
100
AcDbLine
 10
-19.52095
 20
353.606062
 30
0.0
 11
-19.52095
 21
351.606064
 31
0.0
  0
LINE
  5
284
330
1F
100
AcDbEntity
  8
LC-001-100-D00-0
 62
     7
370
    50
100
AcDbLine
 10
-18.814804
 20
353.795274
 30
0.0
 11
-19.52095
 21
353.606062
 31
0.0
  0
ARC
  5
285
330
1F
100
AcDbEntity
  8
LC-001-100-D00-0
 62
     7
370
    50
100
AcDbCircle
 10
-18.970096
 20
354.374829
 30
0.0
 40
0.6000000000001474
100
AcDbArc
 50
285.0
 51
0.0
  0
ARC
  5
286
330
1F
100
AcDbEntity
  8
LC-001-100-D00-0
 62
     7
370
    50
100
AcDbCircle
 10
-18.970096
 20
356.837297
 30
0.0
 40
0.6000000000000227
100
AcDbArc
 50
0.0
 51
75.0
  0
LINE
  5
287
330
1F
100
AcDbEntity
  8
LC-001-100-D00-0
 62
     7
370
    50
100
AcDbLine
 10
-19.52095
 20
357.606063
 30
0.0
 11
-18.814804
 21
357.416852
 31
0.0
  0
LINE
  5
288
330
1F
100
AcDbEntity
  8
LC-001-100-D00-0
 62
     7
370
    50
100
AcDbLine
 10
-19.52095
 20
359.606063
 30
0.0
 11
-19.52095
 21
357.606063
 31
0.0
  0
LINE
  5
289
330
1F
100
AcDbEntity
  8
LC-001-100-D00-0
 62
     7
370
    50
100
AcDbLine
 10
-19.52095
 20
351.606064
 30
0.0
 11
-17.570096
 21
351.606063
 31
0.0
  0
LINE
  5
28A
330
1F
100
AcDbEntity
  8
LC-001-100-D00-0
 62
     7
370
    50
100
AcDbLine
 10
-19.52095
 20
359.606063
 30
0.0
 11
-17.570097
 21
359.606063
 31
0.0
  0
LINE
  5
28B
330
1F
100
AcDbEntity
  8
LC-001-100-D00-0
 62
     7
370
    50
100
AcDbLine
 10
-16.570096
 20
352.606063
 30
0.0
 11
-16.412256
 21
352.606063
 31
0.0
  0
LINE
  5
28C
330
1F
100
AcDbEntity
  8
LC-001-100-D00-0
 62
     7
370
    50
100
AcDbLine
 10
-9.927935
 20
352.606063
 30
0.0
 11
-9.770096
 21
352.606063
 31
0.0
  0
LINE
  5
28D
330
1F
100
AcDbEntity
  8
LC-001-100-D00-0
 62
     7
370
    50
100
AcDbLine
 10
-8.770096
 20
351.606063
 30
0.0
 11
-9.305877
 21
351.606063
 31
0.0
  0
LINE
  5
28E
330
1F
100
AcDbEntity
  8
LC-001-100-D00-0
 62
     7
370
    50
100
AcDbLine
 10
-17.034314
 20
351.606063
 30
0.0
 11
-17.570096
 21
351.606063
 31
0.0
  0
LINE
  5
28F
330
1F
100
AcDbEntity
  8
LC-001-100-D00-0
 62
     7
370
    50
100
AcDbLine
 10
-6.819245
 20
359.606063
 30
0.0
 11
-9.270098
 21
359.606063
 31
0.0
  0
LINE
  5
290
330
1F
100
AcDbEntity
  8
LC-001-100-D00-0
 62
     7
370
    50
100
AcDbLine
 10
-9.270098
 20
359.606063
 30
0.0
 11
-9.270096
 21
370.606063
 31
0.0
  0
LINE
  5
291
330
1F
100
AcDbEntity
  8
LC-001-100-D00-0
 62
     7
370
    50
100
AcDbLine
 10
-9.270096
 20
370.606063
 30
0.0
 11
4.079904
 21
370.606063
 31
0.0
  0
ARC
  5
292
330
1F
100
AcDbEntity
  8
LC-001-100-D00-0
 62
     7
370
    50
100
AcDbCircle
 10
4.079904
 20
369.606063
 30
0.0
 40
1.0
100
AcDbArc
 50
0.0
 51
90.0
  0
LINE
  5
293
330
1F
100
AcDbEntity
  8
LC-001-100-D00-0
 62
     7
370
    50
100
AcDbLine
 10
5.079904
 20
369.606063
 30
0.0
 11
5.079906
 21
363.606063
 31
0.0
  0
LINE
  5
294
330
1F
100
AcDbEntity
  8
LC-001-100-D00-0
 62
     7
370
    50
100
AcDbLine
 10
2.079904
 20
363.606063
 30
0.0
 11
5.079906
 21
363.606063
 31
0.0
  0
LINE
  5
295
330
1F
100
AcDbEntity
  8
LC-001-100-D00-0
 62
     7
370
    50
100
AcDbLine
 10
2.079904
 20
363.606063
 30
0.0
 11
2.079908
 21
367.606063
 31
0.0
  0
LINE
  5
296
330
1F
100
AcDbEntity
  8
LC-001-100-D00-0
 62
     7
370
    50
100
AcDbLine
 10
-2.420096
 20
367.606063
 30
0.0
 11
2.079908
 21
367.606063
 31
0.0
  0
ARC
  5
297
330
1F
100
AcDbEntity
  8
LC-001-100-D00-0
 62
     7
370
    50
100
AcDbCircle
 10
-2.420096
 20
366.606063
 30
0.0
 40
0.9999999999997726
100
AcDbArc
 50
90.0
 51
180.0
  0
LINE
  5
298
330
1F
100
AcDbEntity
  8
LC-001-100-D00-0
 62
     7
370
    50
100
AcDbLine
 10
-3.420096
 20
352.606063
 30
0.0
 11
-3.420096
 21
366.606063
 31
0.0
  0
ARC
  5
299
330
1F
100
AcDbEntity
  8
LC-001-100-D00-0
 62
     7
370
    50
100
AcDbCircle
 10
-4.420096
 20
352.606063
 30
0.0
 40
1.0
100
AcDbArc
 50
270.0
 51
0.0
  0
LINE
  5
29A
330
1F
100
AcDbEntity
  8
LC-001-100-D00-0
 62
     7
370
    50
100
AcDbLine
 10
-4.420096
 20
351.606063
 30
0.0
 11
-6.819245
 21
351.606064
 31
0.0
  0
LINE
  5
29B
330
1F
100
AcDbEntity
  8
LC-001-100-D00-0
 62
     7
370
    50
100
AcDbLine
 10
-6.819245
 20
353.606062
 30
0.0
 11
-6.819245
 21
351.606064
 31
0.0
  0
LINE
  5
29C
330
1F
100
AcDbEntity
  8
LC-001-100-D00-0
 62
     7
370
    50
100
AcDbLine
 10
-7.470096
 20
353.606063
 30
0.0
 11
-6.819245
 21
353.606062
 31
0.0
  0
ARC
  5
29D
330
1F
100
AcDbEntity
  8
LC-001-100-D00-0
 62
     7
370
    50
100
AcDbCircle
 10
-7.470096
 20
354.106063
 30
0.0
 40
0.5
100
AcDbArc
 50
180.0
 51
270.0
  0
LINE
  5
29E
330
1F
100
AcDbEntity
  8
LC-001-100-D00-0
 62
     7
370
    50
100
AcDbLine
 10
-7.970096
 20
357.106063
 30
0.0
 11
-7.970096
 21
354.106063
 31
0.0
  0
ARC
  5
29F
330
1F
100
AcDbEntity
  8
LC-001-100-D00-0
 62
     7
370
    50
100
AcDbCircle
 10
-7.470096
 20
357.106063
 30
0.0
 40
0.5
100
AcDbArc
 50
90.0
 51
180.0
  0
LINE
  5
2A0
330
1F
100
AcDbEntity
  8
LC-001-100-D00-0
 62
     7
370
    50
100
AcDbLine
 10
-6.819245
 20
357.606063
 30
0.0
 11
-7.470096
 21
357.606063
 31
0.0
  0
LINE
  5
2A1
330
1F
100
AcDbEntity
  8
LC-001-100-D00-0
 62
     7
370
    50
100
AcDbLine
 10
-6.819245
 20
359.606063
 30
0.0
 11
-6.819245
 21
357.606063
 31
0.0
  0
ARC
  5
2A2
330
1F
100
AcDbEntity
  8
LC-001-100-D00-0
 62
     7
370
    50
100
AcDbCircle
 10
-23.920096
 20
366.606063
 30
0.0
 40
1.000000000000114
100
AcDbArc
 50
0.0
 51
90.0
  0
ARC
  5
2A3
330
1F
100
AcDbEntity
  8
LC-001-100-D00-0
 62
     7
370
    50
100
AcDbCircle
 10
-21.920096
 20
352.606063
 30
0.0
 40
1.0
100
AcDbArc
 50
180.0
 51
270.0
  0
LINE
  5
2A4
330
1F
100
AcDbEntity
  8
LC-001-100-D00-0
 62
     7
370
    50
100
AcDbLine
 10
-22.920096
 20
366.606063
 30
0.0
 11
-22.920096
 21
352.606063
 31
0.0
  0
LINE
  5
2A5
330
1F
100
AcDbEntity
  8
LC-001-100-D00-0
 62
     7
370
    50
100
AcDbLine
 10
-18.370096
 20
354.106063
 30
0.0
 11
-18.370096
 21
357.106063
 31
0.0
  0
LINE
  5
2A6
330
1F
100
AcDbEntity
  8
LC-001-100-D00-0
 62
     7
370
    50
100
AcDbLine
 10
-17.070096
 20
370.606063
 30
0.0
 11
-17.070096
 21
359.606063
 31
0.0
  0
LINE
  5
2A7
330
1F
100
AcDbEntity
  8
LC-001-100-D00-0
 62
     7
370
    50
100
AcDbLine
 10
-17.070096
 20
370.606063
 30
0.0
 11
-9.270096
 21
370.606063
 31
0.0
  0
LINE
  5
2A8
330
1F
100
AcDbEntity
  8
LC-001-100-D00-0
 62
     7
370
    50
100
AcDbLine
 10
-19.52095
 20
353.606062
 30
0.0
 11
-19.52095
 21
351.606064
 31
0.0
  0
LINE
  5
2A9
330
1F
100
AcDbEntity
  8
LC-001-100-D00-0
 62
     7
370
    50
100
AcDbLine
 10
-19.52095
 20
359.606063
 30
0.0
 11
-19.52095
 21
357.606063
 31
0.0
  0
ARC
  5
2AA
330
1F
100
AcDbEntity
  8
LC-001-100-D00-0
 62
     7
370
    50
100
AcDbCircle
 10
-18.870096
 20
354.106063
 30
0.0
 40
0.5
100
AcDbArc
 50
270.0
 51
0.0
  0
LINE
  5
2AB
330
1F
100
AcDbEntity
  8
LC-001-100-D00-0
 62
     7
370
    50
100
AcDbLine
 10
-19.52095
 20
353.606062
 30
0.0
 11
-18.870096
 21
353.606063
 31
0.0
  0
LINE
  5
2AC
330
1F
100
AcDbEntity
  8
LC-001-100-D00-0
 62
     7
370
    50
100
AcDbLine
 10
-28.420094
 20
367.606063
 30
0.0
 11
-28.420096
 21
363.606063
 31
0.0
  0
LINE
  5
2AD
330
1F
100
AcDbEntity
  8
LC-001-100-D00-0
 62
     7
370
    50
100
AcDbLine
 10
-31.420093
 20
363.606063
 30
0.0
 11
-31.420096
 21
369.606063
 31
0.0
  0
ARC
  5
2AE
330
1F
100
AcDbEntity
  8
LC-001-100-D00-0
 62
     7
370
    50
100
AcDbCircle
 10
-30.420096
 20
369.606063
 30
0.0
 40
1.0
100
AcDbArc
 50
90.0
 51
180.0
  0
LINE
  5
2AF
330
1F
100
AcDbEntity
  8
LC-001-100-D00-0
 62
     7
370
    50
100
AcDbLine
 10
-18.870096
 20
357.606063
 30
0.0
 11
-19.52095
 21
357.606063
 31
0.0
  0
ARC
  5
2B0
330
1F
100
AcDbEntity
  8
LC-001-100-D00-0
 62
     7
370
    50
100
AcDbCircle
 10
-18.870096
 20
357.106063
 30
0.0
 40
0.5000000000001137
100
AcDbArc
 50
0.0
 51
90.0
  0
LINE
  5
2B1
330
1F
100
AcDbEntity
  8
LC-001-100-D00-0
 62
     7
370
    50
100
AcDbLine
 10
-17.070096
 20
359.606063
 30
0.0
 11
-19.52095
 21
359.606063
 31
0.0
  0
LINE
  5
2B2
330
1F
100
AcDbEntity
  8
LC-001-100-D00-0
 62
     7
370
    50
100
AcDbLine
 10
-19.52095
 20
351.606064
 30
0.0
 11
-21.920096
 21
351.606063
 31
0.0
  0
LINE
  5
2B3
330
1F
100
AcDbEntity
  8
LC-001-100-D00-0
 62
     7
370
    50
100
AcDbLine
 10
-28.420094
 20
367.606063
 30
0.0
 11
-23.920096
 21
367.606063
 31
0.0
  0
LINE
  5
2B4
330
1F
100
AcDbEntity
  8
LC-001-100-D00-0
 62
     7
370
    50
100
AcDbLine
 10
-30.420096
 20
370.606063
 30
0.0
 11
-17.070096
 21
370.606063
 31
0.0
  0
LINE
  5
2B5
330
1F
100
AcDbEntity
  8
LC-001-100-D00-0
 62
     7
370
    50
100
AcDbLine
 10
-31.420093
 20
363.606063
 30
0.0
 11
-28.420096
 21
363.606063
 31
0.0
  0
LINE
  5
2B6
330
1F
100
AcDbEntity
  8
LC-001-100-D00-0
 62
     7
370
    50
100
AcDbLine
 10
0.079904
 20
363.606063
 30
0.0
 11
2.079904
 21
363.606063
 31
0.0
  0
LINE
  5
2B7
330
1F
100
AcDbEntity
  8
LC-001-100-D00-0
 62
     7
370
    50
100
AcDbLine
 10
-28.420096
 20
363.606063
 30
0.0
 11
-26.420096
 21
363.606063
 31
0.0
  0
LINE
  5
2B8
330
1F
100
AcDbEntity
  8
LC-001-100-D00-0
 62
     7
370
    50
100
AcDbLine
 10
-26.420096
 20
363.606063
 30
0.0
 11
-22.920098
 21
363.606063
 31
0.0
  0
LINE
  5
2B9
330
1F
100
AcDbEntity
  8
LC-001-100-D00-0
 62
     7
370
    50
100
AcDbLine
 10
-3.420096
 20
363.606063
 30
0.0
 11
0.079904
 21
363.606063
 31
0.0
  0
LINE
  5
2BA
330
1F
100
AcDbEntity
  8
LC-001-100-D00-0
 62
     7
370
    50
100
AcDbLine
 10
462.029904
 20
354.374829
 30
0.0
 11
462.029904
 21
356.837297
 31
0.0
  0
ARC
  5
2BB
330
1F
100
AcDbEntity
  8
LC-001-100-D00-0
 62
     7
370
    50
100
AcDbCircle
 10
462.629904
 20
354.374829
 30
0.0
 40
0.6000000000003638
100
AcDbArc
 50
180.0
 51
255.0
  0
LINE
  5
2BC
330
1F
100
AcDbEntity
  8
LC-001-100-D00-0
 62
     7
370
    50
100
AcDbLine
 10
463.180754
 20
353.606062
 30
0.0
 11
462.474613
 21
353.795274
 31
0.0
  0
LINE
  5
2BD
330
1F
100
AcDbEntity
  8
LC-001-100-D00-0
 62
     7
370
    50
100
AcDbLine
 10
463.180754
 20
353.606062
 30
0.0
 11
463.180754
 21
351.606064
 31
0.0
  0
LINE
  5
2BE
330
1F
100
AcDbEntity
  8
LC-001-100-D00-0
 62
     7
370
    50
100
AcDbLine
 10
460.229904
 20
352.606063
 30
0.0
 11
461.229904
 21
351.606063
 31
0.0
  0
LINE
  5
2BF
330
1F
100
AcDbEntity
  8
LC-001-100-D00-0
 62
     7
370
    50
100
AcDbLine
 10
460.229904
 20
352.606063
 30
0.0
 11
460.229907
 21
358.606063
 31
0.0
  0
LINE
  5
2C0
330
1F
100
AcDbEntity
  8
LC-001-100-D00-0
 62
     7
370
    50
100
AcDbLine
 10
461.229894
 20
359.606063
 30
0.0
 11
460.229907
 21
358.606063
 31
0.0
  0
LINE
  5
2C1
330
1F
100
AcDbEntity
  8
LC-001-100-D00-0
 62
     7
370
    50
100
AcDbLine
 10
463.180754
 20
359.606063
 30
0.0
 11
463.180754
 21
357.606063
 31
0.0
  0
LINE
  5
2C2
330
1F
100
AcDbEntity
  8
LC-001-100-D00-0
 62
     7
370
    50
100
AcDbLine
 10
462.474613
 20
357.416852
 30
0.0
 11
463.180754
 21
357.606063
 31
0.0
  0
ARC
  5
2C3
330
1F
100
AcDbEntity
  8
LC-001-100-D00-0
 62
     7
370
    50
100
AcDbCircle
 10
462.629904
 20
356.837297
 30
0.0
 40
0.6000000000001474
100
AcDbArc
 50
105.0
 51
180.0
  0
LINE
  5
2C4
330
1F
100
AcDbEntity
  8
LC-001-100-D00-0
 62
     7
370
    50
100
AcDbLine
 10
461.229904
 20
351.606063
 30
0.0
 11
463.180754
 21
351.606064
 31
0.0
  0
LINE
  5
2C5
330
1F
100
AcDbEntity
  8
LC-001-100-D00-0
 62
     7
370
    50
100
AcDbLine
 10
461.229894
 20
359.606063
 30
0.0
 11
463.180754
 21
359.606063
 31
0.0
  0
LINE
  5
2C6
330
1F
100
AcDbEntity
  8
LC-001-100-D00-0
 62
     7
370
    50
100
AcDbLine
 10
451.629904
 20
356.837297
 30
0.0
 11
451.629904
 21
354.374829
 31
0.0
  0
LINE
  5
2C7
330
1F
100
AcDbEntity
  8
LC-001-100-D00-0
 62
     7
370
    50
100
AcDbLine
 10
453.429911
 20
358.606063
 30
0.0
 11
452.429894
 21
359.606063
 31
0.0
  0
LINE
  5
2C8
330
1F
100
AcDbEntity
  8
LC-001-100-D00-0
 62
     7
370
    50
100
AcDbLine
 10
453.429911
 20
358.606063
 30
0.0
 11
453.429904
 21
352.606063
 31
0.0
  0
LINE
  5
2C9
330
1F
100
AcDbEntity
  8
LC-001-100-D00-0
 62
     7
370
    50
100
AcDbLine
 10
452.429904
 20
351.606063
 30
0.0
 11
453.429904
 21
352.606063
 31
0.0
  0
LINE
  5
2CA
330
1F
100
AcDbEntity
  8
LC-001-100-D00-0
 62
     7
370
    50
100
AcDbLine
 10
450.479064
 20
353.606062
 30
0.0
 11
450.479064
 21
351.606064
 31
0.0
  0
LINE
  5
2CB
330
1F
100
AcDbEntity
  8
LC-001-100-D00-0
 62
     7
370
    50
100
AcDbLine
 10
451.185196
 20
353.795274
 30
0.0
 11
450.479064
 21
353.606062
 31
0.0
  0
ARC
  5
2CC
330
1F
100
AcDbEntity
  8
LC-001-100-D00-0
 62
     7
370
    50
100
AcDbCircle
 10
451.029904
 20
354.374829
 30
0.0
 40
0.6000000000001474
100
AcDbArc
 50
285.0
 51
0.0
  0
ARC
  5
2CD
330
1F
100
AcDbEntity
  8
LC-001-100-D00-0
 62
     7
370
    50
100
AcDbCircle
 10
451.029904
 20
356.837297
 30
0.0
 40
0.6000000000001364
100
AcDbArc
 50
0.0
 51
75.0
  0
LINE
  5
2CE
330
1F
100
AcDbEntity
  8
LC-001-100-D00-0
 62
     7
370
    50
100
AcDbLine
 10
450.479064
 20
357.606063
 30
0.0
 11
451.185196
 21
357.416852
 31
0.0
  0
LINE
  5
2CF
330
1F
100
AcDbEntity
  8
LC-001-100-D00-0
 62
     7
370
    50
100
AcDbLine
 10
450.479064
 20
359.606063
 30
0.0
 11
450.479064
 21
357.606063
 31
0.0
  0
LINE
  5
2D0
330
1F
100
AcDbEntity
  8
LC-001-100-D00-0
 62
     7
370
    50
100
AcDbLine
 10
450.479064
 20
351.606064
 30
0.0
 11
452.429904
 21
351.606063
 31
0.0
  0
LINE
  5
2D1
330
1F
100
AcDbEntity
  8
LC-001-100-D00-0
 62
     7
370
    50
100
AcDbLine
 10
450.479064
 20
359.606063
 30
0.0
 11
452.429894
 21
359.606063
 31
0.0
  0
LINE
  5
2D2
330
1F
100
AcDbEntity
  8
LC-001-100-D00-0
 62
     7
370
    50
100
AcDbLine
 10
453.429904
 20
352.606063
 30
0.0
 11
453.587744
 21
352.606063
 31
0.0
  0
LINE
  5
2D3
330
1F
100
AcDbEntity
  8
LC-001-100-D00-0
 62
     7
370
    50
100
AcDbLine
 10
460.072065
 20
352.606063
 30
0.0
 11
460.229904
 21
352.606063
 31
0.0
  0
LINE
  5
2D4
330
1F
100
AcDbEntity
  8
LC-001-100-D00-0
 62
     7
370
    50
100
AcDbLine
 10
461.229904
 20
351.606063
 30
0.0
 11
460.694123
 21
351.606063
 31
0.0
  0
LINE
  5
2D5
330
1F
100
AcDbEntity
  8
LC-001-100-D00-0
 62
     7
370
    50
100
AcDbLine
 10
452.965686
 20
351.606063
 30
0.0
 11
452.429904
 21
351.606063
 31
0.0
  0
LINE
  5
2D6
330
1F
100
AcDbEntity
  8
LC-001-100-D00-0
 62
     7
370
    50
100
AcDbLine
 10
463.180754
 20
359.606063
 30
0.0
 11
460.729901
 21
359.606063
 31
0.0
  0
LINE
  5
2D7
330
1F
100
AcDbEntity
  8
LC-001-100-D00-0
 62
     7
370
    50
100
AcDbLine
 10
460.729901
 20
359.606063
 30
0.0
 11
460.729904
 21
370.606063
 31
0.0
  0
LINE
  5
2D8
330
1F
100
AcDbEntity
  8
LC-001-100-D00-0
 62
     7
370
    50
100
AcDbLine
 10
460.729904
 20
370.606063
 30
0.0
 11
474.079904
 21
370.606063
 31
0.0
  0
ARC
  5
2D9
330
1F
100
AcDbEntity
  8
LC-001-100-D00-0
 62
     7
370
    50
100
AcDbCircle
 10
474.079904
 20
369.606063
 30
0.0
 40
1.0
100
AcDbArc
 50
0.0
 51
90.0
  0
LINE
  5
2DA
330
1F
100
AcDbEntity
  8
LC-001-100-D00-0
 62
     7
370
    50
100
AcDbLine
 10
475.079904
 20
369.606063
 30
0.0
 11
475.079898
 21
363.606063
 31
0.0
  0
LINE
  5
2DB
330
1F
100
AcDbEntity
  8
LC-001-100-D00-0
 62
     7
370
    50
100
AcDbLine
 10
472.079904
 20
363.606063
 30
0.0
 11
475.079898
 21
363.606063
 31
0.0
  0
LINE
  5
2DC
330
1F
100
AcDbEntity
  8
LC-001-100-D00-0
 62
     7
370
    50
100
AcDbLine
 10
472.079904
 20
363.606063
 30
0.0
 11
472.079907
 21
367.606063
 31
0.0
  0
LINE
  5
2DD
330
1F
100
AcDbEntity
  8
LC-001-100-D00-0
 62
     7
370
    50
100
AcDbLine
 10
467.579904
 20
367.606063
 30
0.0
 11
472.079907
 21
367.606063
 31
0.0
  0
ARC
  5
2DE
330
1F
100
AcDbEntity
  8
LC-001-100-D00-0
 62
     7
370
    50
100
AcDbCircle
 10
467.579904
 20
366.606063
 30
0.0
 40
1.0
100
AcDbArc
 50
90.0
 51
180.0
  0
LINE
  5
2DF
330
1F
100
AcDbEntity
  8
LC-001-100-D00-0
 62
     7
370
    50
100
AcDbLine
 10
466.579904
 20
352.606063
 30
0.0
 11
466.579904
 21
366.606063
 31
0.0
  0
ARC
  5
2E0
330
1F
100
AcDbEntity
  8
LC-001-100-D00-0
 62
     7
370
    50
100
AcDbCircle
 10
465.579904
 20
352.606063
 30
0.0
 40
1.0
100
AcDbArc
 50
270.0
 51
0.0
  0
LINE
  5
2E1
330
1F
100
AcDbEntity
  8
LC-001-100-D00-0
 62
     7
370
    50
100
AcDbLine
 10
465.579904
 20
351.606063
 30
0.0
 11
463.180754
 21
351.606064
 31
0.0
  0
LINE
  5
2E2
330
1F
100
AcDbEntity
  8
LC-001-100-D00-0
 62
     7
370
    50
100
AcDbLine
 10
463.180754
 20
353.606062
 30
0.0
 11
463.180754
 21
351.606064
 31
0.0
  0
LINE
  5
2E3
330
1F
100
AcDbEntity
  8
LC-001-100-D00-0
 62
     7
370
    50
100
AcDbLine
 10
462.529904
 20
353.606063
 30
0.0
 11
463.180754
 21
353.606062
 31
0.0
  0
ARC
  5
2E4
330
1F
100
AcDbEntity
  8
LC-001-100-D00-0
 62
     7
370
    50
100
AcDbCircle
 10
462.529904
 20
354.106063
 30
0.0
 40
0.5
100
AcDbArc
 50
180.0
 51
270.0
  0
LINE
  5
2E5
330
1F
100
AcDbEntity
  8
LC-001-100-D00-0
 62
     7
370
    50
100
AcDbLine
 10
462.029904
 20
357.106063
 30
0.0
 11
462.029904
 21
354.106063
 31
0.0
  0
ARC
  5
2E6
330
1F
100
AcDbEntity
  8
LC-001-100-D00-0
 62
     7
370
    50
100
AcDbCircle
 10
462.529904
 20
357.106063
 30
0.0
 40
0.5
100
AcDbArc
 50
90.0
 51
180.0
  0
LINE
  5
2E7
330
1F
100
AcDbEntity
  8
LC-001-100-D00-0
 62
     7
370
    50
100
AcDbLine
 10
463.180754
 20
357.606063
 30
0.0
 11
462.529904
 21
357.606063
 31
0.0
  0
LINE
  5
2E8
330
1F
100
AcDbEntity
  8
LC-001-100-D00-0
 62
     7
370
    50
100
AcDbLine
 10
463.180754
 20
359.606063
 30
0.0
 11
463.180754
 21
357.606063
 31
0.0
  0
ARC
  5
2E9
330
1F
100
AcDbEntity
  8
LC-001-100-D00-0
 62
     7
370
    50
100
AcDbCircle
 10
446.079904
 20
366.606063
 30
0.0
 40
1.0
100
AcDbArc
 50
0.0
 51
90.0
  0
ARC
  5
2EA
330
1F
100
AcDbEntity
  8
LC-001-100-D00-0
 62
     7
370
    50
100
AcDbCircle
 10
448.079904
 20
352.606063
 30
0.0
 40
1.0
100
AcDbArc
 50
180.0
 51
270.0
  0
LINE
  5
2EB
330
1F
100
AcDbEntity
  8
LC-001-100-D00-0
 62
     7
370
    50
100
AcDbLine
 10
447.079904
 20
366.606063
 30
0.0
 11
447.079904
 21
352.606063
 31
0.0
  0
LINE
  5
2EC
330
1F
100
AcDbEntity
  8
LC-001-100-D00-0
 62
     7
370
    50
100
AcDbLine
 10
451.629904
 20
354.106063
 30
0.0
 11
451.629904
 21
357.106063
 31
0.0
  0
LINE
  5
2ED
330
1F
100
AcDbEntity
  8
LC-001-100-D00-0
 62
     7
370
    50
100
AcDbLine
 10
452.929904
 20
370.606063
 30
0.0
 11
452.929918
 21
359.606063
 31
0.0
  0
LINE
  5
2EE
330
1F
100
AcDbEntity
  8
LC-001-100-D00-0
 62
     7
370
    50
100
AcDbLine
 10
452.929904
 20
370.606063
 30
0.0
 11
460.729904
 21
370.606063
 31
0.0
  0
LINE
  5
2EF
330
1F
100
AcDbEntity
  8
LC-001-100-D00-0
 62
     7
370
    50
100
AcDbLine
 10
450.479064
 20
353.606062
 30
0.0
 11
450.479064
 21
351.606064
 31
0.0
  0
LINE
  5
2F0
330
1F
100
AcDbEntity
  8
LC-001-100-D00-0
 62
     7
370
    50
100
AcDbLine
 10
450.479064
 20
359.606063
 30
0.0
 11
450.479064
 21
357.606063
 31
0.0
  0
ARC
  5
2F1
330
1F
100
AcDbEntity
  8
LC-001-100-D00-0
 62
     7
370
    50
100
AcDbCircle
 10
451.129904
 20
354.106063
 30
0.0
 40
0.5
100
AcDbArc
 50
270.0
 51
0.0
  0
LINE
  5
2F2
330
1F
100
AcDbEntity
  8
LC-001-100-D00-0
 62
     7
370
    50
100
AcDbLine
 10
450.479064
 20
353.606062
 30
0.0
 11
451.129904
 21
353.606063
 31
0.0
  0
LINE
  5
2F3
330
1F
100
AcDbEntity
  8
LC-001-100-D00-0
 62
     7
370
    50
100
AcDbLine
 10
441.579912
 20
367.606063
 30
0.0
 11
441.579904
 21
363.606063
 31
0.0
  0
LINE
  5
2F4
330
1F
100
AcDbEntity
  8
LC-001-100-D00-0
 62
     7
370
    50
100
AcDbLine
 10
438.579891
 20
363.606063
 30
0.0
 11
438.579904
 21
369.606063
 31
0.0
  0
ARC
  5
2F5
330
1F
100
AcDbEntity
  8
LC-001-100-D00-0
 62
     7
370
    50
100
AcDbCircle
 10
439.579904
 20
369.606063
 30
0.0
 40
1.0
100
AcDbArc
 50
90.0
 51
180.0
  0
LINE
  5
2F6
330
1F
100
AcDbEntity
  8
LC-001-100-D00-0
 62
     7
370
    50
100
AcDbLine
 10
451.129904
 20
357.606063
 30
0.0
 11
450.479064
 21
357.606063
 31
0.0
  0
ARC
  5
2F7
330
1F
100
AcDbEntity
  8
LC-001-100-D00-0
 62
     7
370
    50
100
AcDbCircle
 10
451.129904
 20
357.106063
 30
0.0
 40
0.5
100
AcDbArc
 50
0.0
 51
90.0
  0
LINE
  5
2F8
330
1F
100
AcDbEntity
  8
LC-001-100-D00-0
 62
     7
370
    50
100
AcDbLine
 10
438.579891
 20
363.606063
 30
0.0
 11
441.579904
 21
363.606063
 31
0.0
  0
LINE
  5
2F9
330
1F
100
AcDbEntity
  8
LC-001-100-D00-0
 62
     7
370
    50
100
AcDbLine
 10
452.929918
 20
359.606063
 30
0.0
 11
450.479064
 21
359.606063
 31
0.0
  0
LINE
  5
2FA
330
1F
100
AcDbEntity
  8
LC-001-100-D00-0
 62
     7
370
    50
100
AcDbLine
 10
450.479064
 20
351.606064
 30
0.0
 11
448.079904
 21
351.606063
 31
0.0
  0
LINE
  5
2FB
330
1F
100
AcDbEntity
  8
LC-001-100-D00-0
 62
     7
370
    50
100
AcDbLine
 10
441.579912
 20
367.606063
 30
0.0
 11
446.079904
 21
367.606063
 31
0.0
  0
LINE
  5
2FC
330
1F
100
AcDbEntity
  8
LC-001-100-D00-0
 62
     7
370
    50
100
AcDbLine
 10
439.579904
 20
370.606063
 30
0.0
 11
452.929904
 21
370.606063
 31
0.0
  0
LINE
  5
2FD
330
1F
100
AcDbEntity
  8
LC-001-100-D00-0
 62
     7
370
    50
100
AcDbLine
 10
470.079904
 20
363.606063
 30
0.0
 11
472.079904
 21
363.606063
 31
0.0
  0
LINE
  5
2FE
330
1F
100
AcDbEntity
  8
LC-001-100-D00-0
 62
     7
370
    50
100
AcDbLine
 10
441.579904
 20
363.606063
 30
0.0
 11
443.579904
 21
363.606063
 31
0.0
  0
LINE
  5
2FF
330
1F
100
AcDbEntity
  8
LC-001-100-D00-0
 62
     7
370
    50
100
AcDbLine
 10
443.579904
 20
363.606063
 30
0.0
 11
447.079901
 21
363.606063
 31
0.0
  0
LINE
  5
300
330
1F
100
AcDbEntity
  8
LC-001-100-D00-0
 62
     7
370
    50
100
AcDbLine
 10
466.579918
 20
363.606063
 30
0.0
 11
470.079904
 21
363.606063
 31
0.0
  0
LINE
  5
301
330
1F
100
AcDbEntity
  8
LC-001-100-D00-0
 62
     7
370
    50
100
AcDbLine
 10
192.029904
 20
354.374829
 30
0.0
 11
192.029904
 21
356.837297
 31
0.0
  0
ARC
  5
302
330
1F
100
AcDbEntity
  8
LC-001-100-D00-0
 62
     7
370
    50
100
AcDbCircle
 10
192.629904
 20
354.374829
 30
0.0
 40
0.6000000000001364
100
AcDbArc
 50
180.0
 51
255.0
  0
LINE
  5
303
330
1F
100
AcDbEntity
  8
LC-001-100-D00-0
 62
     7
370
    50
100
AcDbLine
 10
193.180758
 20
353.606062
 30
0.0
 11
192.474613
 21
353.795274
 31
0.0
  0
LINE
  5
304
330
1F
100
AcDbEntity
  8
LC-001-100-D00-0
 62
     7
370
    50
100
AcDbLine
 10
193.180758
 20
353.606062
 30
0.0
 11
193.180758
 21
351.606064
 31
0.0
  0
LINE
  5
305
330
1F
100
AcDbEntity
  8
LC-001-100-D00-0
 62
     7
370
    50
100
AcDbLine
 10
190.229904
 20
352.606063
 30
0.0
 11
191.229904
 21
351.606063
 31
0.0
  0
LINE
  5
306
330
1F
100
AcDbEntity
  8
LC-001-100-D00-0
 62
     7
370
    50
100
AcDbLine
 10
190.229904
 20
352.606063
 30
0.0
 11
190.229904
 21
358.606063
 31
0.0
  0
LINE
  5
307
330
1F
100
AcDbEntity
  8
LC-001-100-D00-0
 62
     7
370
    50
100
AcDbLine
 10
191.229906
 20
359.606063
 30
0.0
 11
190.229904
 21
358.606063
 31
0.0
  0
LINE
  5
308
330
1F
100
AcDbEntity
  8
LC-001-100-D00-0
 62
     7
370
    50
100
AcDbLine
 10
193.180758
 20
359.606063
 30
0.0
 11
193.180758
 21
357.606063
 31
0.0
  0
LINE
  5
309
330
1F
100
AcDbEntity
  8
LC-001-100-D00-0
 62
     7
370
    50
100
AcDbLine
 10
192.474613
 20
357.416852
 30
0.0
 11
193.180758
 21
357.606063
 31
0.0
  0
ARC
  5
30A
330
1F
100
AcDbEntity
  8
LC-001-100-D00-0
 62
     7
370
    50
100
AcDbCircle
 10
192.629904
 20
356.837297
 30
0.0
 40
0.5999999999998689
100
AcDbArc
 50
105.0
 51
180.0
  0
LINE
  5
30B
330
1F
100
AcDbEntity
  8
LC-001-100-D00-0
 62
     7
370
    50
100
AcDbLine
 10
191.229904
 20
351.606063
 30
0.0
 11
193.180758
 21
351.606064
 31
0.0
  0
LINE
  5
30C
330
1F
100
AcDbEntity
  8
LC-001-100-D00-0
 62
     7
370
    50
100
AcDbLine
 10
191.229906
 20
359.606063
 30
0.0
 11
193.180758
 21
359.606063
 31
0.0
  0
LINE
  5
30D
330
1F
100
AcDbEntity
  8
LC-001-100-D00-0
 62
     7
370
    50
100
AcDbLine
 10
181.629904
 20
356.837297
 30
0.0
 11
181.629904
 21
354.374829
 31
0.0
  0
LINE
  5
30E
330
1F
100
AcDbEntity
  8
LC-001-100-D00-0
 62
     7
370
    50
100
AcDbLine
 10
183.429908
 20
358.606063
 30
0.0
 11
182.429906
 21
359.606063
 31
0.0
  0
LINE
  5
30F
330
1F
100
AcDbEntity
  8
LC-001-100-D00-0
 62
     7
370
    50
100
AcDbLine
 10
182.429904
 20
351.606063
 30
0.0
 11
183.429904
 21
352.606063
 31
0.0
  0
LINE
  5
310
330
1F
100
AcDbEntity
  8
LC-001-100-D00-0
 62
     7
370
    50
100
AcDbLine
 10
183.429904
 20
352.606063
 30
0.0
 11
183.587744
 21
352.606063
 31
0.0
  0
LINE
  5
311
330
1F
100
AcDbEntity
  8
LC-001-100-D00-0
 62
     7
370
    50
100
AcDbLine
 10
190.072065
 20
352.606063
 30
0.0
 11
190.229904
 21
352.606063
 31
0.0
  0
LINE
  5
312
330
1F
100
AcDbEntity
  8
LC-001-100-D00-0
 62
     7
370
    50
100
AcDbLine
 10
191.229904
 20
351.606063
 30
0.0
 11
190.694123
 21
351.606063
 31
0.0
  0
LINE
  5
313
330
1F
100
AcDbEntity
  8
LC-001-100-D00-0
 62
     7
370
    50
100
AcDbLine
 10
182.965686
 20
351.606063
 30
0.0
 11
182.429904
 21
351.606063
 31
0.0
  0
LINE
  5
314
330
1F
100
AcDbEntity
  8
LC-001-100-D00-0
 62
     7
370
    50
100
AcDbLine
 10
183.429908
 20
358.606063
 30
0.0
 11
183.429904
 21
352.606063
 31
0.0
  0
LINE
  5
315
330
1F
100
AcDbEntity
  8
LC-001-100-D00-0
 62
     7
370
    50
100
AcDbLine
 10
180.479053
 20
353.606062
 30
0.0
 11
180.479053
 21
351.606064
 31
0.0
  0
LINE
  5
316
330
1F
100
AcDbEntity
  8
LC-001-100-D00-0
 62
     7
370
    50
100
AcDbLine
 10
181.185196
 20
353.795274
 30
0.0
 11
180.479053
 21
353.606062
 31
0.0
  0
ARC
  5
317
330
1F
100
AcDbEntity
  8
LC-001-100-D00-0
 62
     7
370
    50
100
AcDbCircle
 10
181.029904
 20
354.374829
 30
0.0
 40
0.6000000000001474
100
AcDbArc
 50
285.0
 51
0.0
  0
ARC
  5
318
330
1F
100
AcDbEntity
  8
LC-001-100-D00-0
 62
     7
370
    50
100
AcDbCircle
 10
181.029904
 20
356.837297
 30
0.0
 40
0.6000000000001364
100
AcDbArc
 50
0.0
 51
75.0
  0
LINE
  5
319
330
1F
100
AcDbEntity
  8
LC-001-100-D00-0
 62
     7
370
    50
100
AcDbLine
 10
180.479053
 20
357.606063
 30
0.0
 11
181.185196
 21
357.416852
 31
0.0
  0
LINE
  5
31A
330
1F
100
AcDbEntity
  8
LC-001-100-D00-0
 62
     7
370
    50
100
AcDbLine
 10
180.479053
 20
359.606063
 30
0.0
 11
180.479053
 21
357.606063
 31
0.0
  0
LINE
  5
31B
330
1F
100
AcDbEntity
  8
LC-001-100-D00-0
 62
     7
370
    50
100
AcDbLine
 10
180.479053
 20
351.606064
 30
0.0
 11
182.429904
 21
351.606063
 31
0.0
  0
LINE
  5
31C
330
1F
100
AcDbEntity
  8
LC-001-100-D00-0
 62
     7
370
    50
100
AcDbLine
 10
180.479053
 20
359.606063
 30
0.0
 11
182.429906
 21
359.606063
 31
0.0
  0
LINE
  5
31D
330
1F
100
AcDbEntity
  8
LC-001-100-D00-0
 62
     7
370
    50
100
AcDbLine
 10
193.180758
 20
359.606063
 30
0.0
 11
190.729905
 21
359.606063
 31
0.0
  0
LINE
  5
31E
330
1F
100
AcDbEntity
  8
LC-001-100-D00-0
 62
     7
370
    50
100
AcDbLine
 10
190.729905
 20
359.606063
 30
0.0
 11
190.729904
 21
370.606063
 31
0.0
  0
LINE
  5
31F
330
1F
100
AcDbEntity
  8
LC-001-100-D00-0
 62
     7
370
    50
100
AcDbLine
 10
190.729904
 20
370.606063
 30
0.0
 11
204.079904
 21
370.606063
 31
0.0
  0
ARC
  5
320
330
1F
100
AcDbEntity
  8
LC-001-100-D00-0
 62
     7
370
    50
100
AcDbCircle
 10
204.079904
 20
369.606063
 30
0.0
 40
1.0
100
AcDbArc
 50
0.0
 51
90.0
  0
LINE
  5
321
330
1F
100
AcDbEntity
  8
LC-001-100-D00-0
 62
     7
370
    50
100
AcDbLine
 10
205.079904
 20
369.606063
 30
0.0
 11
205.079902
 21
363.606063
 31
0.0
  0
LINE
  5
322
330
1F
100
AcDbEntity
  8
LC-001-100-D00-0
 62
     7
370
    50
100
AcDbLine
 10
202.079904
 20
363.606063
 30
0.0
 11
205.079902
 21
363.606063
 31
0.0
  0
LINE
  5
323
330
1F
100
AcDbEntity
  8
LC-001-100-D00-0
 62
     7
370
    50
100
AcDbLine
 10
202.079904
 20
363.606063
 30
0.0
 11
202.079903
 21
367.606063
 31
0.0
  0
LINE
  5
324
330
1F
100
AcDbEntity
  8
LC-001-100-D00-0
 62
     7
370
    50
100
AcDbLine
 10
197.579904
 20
367.606063
 30
0.0
 11
202.079903
 21
367.606063
 31
0.0
  0
ARC
  5
325
330
1F
100
AcDbEntity
  8
LC-001-100-D00-0
 62
     7
370
    50
100
AcDbCircle
 10
197.579904
 20
366.606063
 30
0.0
 40
0.9999999999997726
100
AcDbArc
 50
90.0
 51
180.0
  0
LINE
  5
326
330
1F
100
AcDbEntity
  8
LC-001-100-D00-0
 62
     7
370
    50
100
AcDbLine
 10
196.579904
 20
352.606063
 30
0.0
 11
196.579904
 21
366.606063
 31
0.0
  0
ARC
  5
327
330
1F
100
AcDbEntity
  8
LC-001-100-D00-0
 62
     7
370
    50
100
AcDbCircle
 10
195.579904
 20
352.606063
 30
0.0
 40
1.0
100
AcDbArc
 50
270.0
 51
0.0
  0
LINE
  5
328
330
1F
100
AcDbEntity
  8
LC-001-100-D00-0
 62
     7
370
    50
100
AcDbLine
 10
195.579904
 20
351.606063
 30
0.0
 11
193.180758
 21
351.606064
 31
0.0
  0
LINE
  5
329
330
1F
100
AcDbEntity
  8
LC-001-100-D00-0
 62
     7
370
    50
100
AcDbLine
 10
193.180758
 20
353.606062
 30
0.0
 11
193.180758
 21
351.606064
 31
0.0
  0
LINE
  5
32A
330
1F
100
AcDbEntity
  8
LC-001-100-D00-0
 62
     7
370
    50
100
AcDbLine
 10
192.529904
 20
353.606063
 30
0.0
 11
193.180758
 21
353.606062
 31
0.0
  0
ARC
  5
32B
330
1F
100
AcDbEntity
  8
LC-001-100-D00-0
 62
     7
370
    50
100
AcDbCircle
 10
192.529904
 20
354.106063
 30
0.0
 40
0.5
100
AcDbArc
 50
180.0
 51
270.0
  0
LINE
  5
32C
330
1F
100
AcDbEntity
  8
LC-001-100-D00-0
 62
     7
370
    50
100
AcDbLine
 10
192.029904
 20
357.106063
 30
0.0
 11
192.029904
 21
354.106063
 31
0.0
  0
ARC
  5
32D
330
1F
100
AcDbEntity
  8
LC-001-100-D00-0
 62
     7
370
    50
100
AcDbCircle
 10
192.529904
 20
357.106063
 30
0.0
 40
0.5
100
AcDbArc
 50
90.0
 51
180.0
  0
LINE
  5
32E
330
1F
100
AcDbEntity
  8
LC-001-100-D00-0
 62
     7
370
    50
100
AcDbLine
 10
193.180758
 20
357.606063
 30
0.0
 11
192.529904
 21
357.606063
 31
0.0
  0
LINE
  5
32F
330
1F
100
AcDbEntity
  8
LC-001-100-D00-0
 62
     7
370
    50
100
AcDbLine
 10
193.180758
 20
359.606063
 30
0.0
 11
193.180758
 21
357.606063
 31
0.0
  0
ARC
  5
330
330
1F
100
AcDbEntity
  8
LC-001-100-D00-0
 62
     7
370
    50
100
AcDbCircle
 10
176.079904
 20
366.606063
 30
0.0
 40
1.0
100
AcDbArc
 50
0.0
 51
90.0
  0
ARC
  5
331
330
1F
100
AcDbEntity
  8
LC-001-100-D00-0
 62
     7
370
    50
100
AcDbCircle
 10
178.079904
 20
352.606063
 30
0.0
 40
1.0
100
AcDbArc
 50
180.0
 51
270.0
  0
LINE
  5
332
330
1F
100
AcDbEntity
  8
LC-001-100-D00-0
 62
     7
370
    50
100
AcDbLine
 10
177.079904
 20
366.606063
 30
0.0
 11
177.079904
 21
352.606063
 31
0.0
  0
LINE
  5
333
330
1F
100
AcDbEntity
  8
LC-001-100-D00-0
 62
     7
370
    50
100
AcDbLine
 10
181.629904
 20
354.106063
 30
0.0
 11
181.629904
 21
357.106063
 31
0.0
  0
LINE
  5
334
330
1F
100
AcDbEntity
  8
LC-001-100-D00-0
 62
     7
370
    50
100
AcDbLine
 10
182.929904
 20
370.606063
 30
0.0
 11
182.929907
 21
359.606063
 31
0.0
  0
LINE
  5
335
330
1F
100
AcDbEntity
  8
LC-001-100-D00-0
 62
     7
370
    50
100
AcDbLine
 10
182.929904
 20
370.606063
 30
0.0
 11
190.729904
 21
370.606063
 31
0.0
  0
LINE
  5
336
330
1F
100
AcDbEntity
  8
LC-001-100-D00-0
 62
     7
370
    50
100
AcDbLine
 10
180.479053
 20
353.606062
 30
0.0
 11
180.479053
 21
351.606064
 31
0.0
  0
LINE
  5
337
330
1F
100
AcDbEntity
  8
LC-001-100-D00-0
 62
     7
370
    50
100
AcDbLine
 10
180.479053
 20
359.606063
 30
0.0
 11
180.479053
 21
357.606063
 31
0.0
  0
ARC
  5
338
330
1F
100
AcDbEntity
  8
LC-001-100-D00-0
 62
     7
370
    50
100
AcDbCircle
 10
181.129904
 20
354.106063
 30
0.0
 40
0.5
100
AcDbArc
 50
270.0
 51
0.0
  0
LINE
  5
339
330
1F
100
AcDbEntity
  8
LC-001-100-D00-0
 62
     7
370
    50
100
AcDbLine
 10
180.479053
 20
353.606062
 30
0.0
 11
181.129904
 21
353.606063
 31
0.0
  0
LINE
  5
33A
330
1F
100
AcDbEntity
  8
LC-001-100-D00-0
 62
     7
370
    50
100
AcDbLine
 10
171.579901
 20
367.606063
 30
0.0
 11
171.579904
 21
363.606063
 31
0.0
  0
LINE
  5
33B
330
1F
100
AcDbEntity
  8
LC-001-100-D00-0
 62
     7
370
    50
100
AcDbLine
 10
168.579902
 20
363.606063
 30
0.0
 11
168.579904
 21
369.606063
 31
0.0
  0
ARC
  5
33C
330
1F
100
AcDbEntity
  8
LC-001-100-D00-0
 62
     7
370
    50
100
AcDbCircle
 10
169.579904
 20
369.606063
 30
0.0
 40
1.0
100
AcDbArc
 50
90.0
 51
180.0
  0
LINE
  5
33D
330
1F
100
AcDbEntity
  8
LC-001-100-D00-0
 62
     7
370
    50
100
AcDbLine
 10
181.129904
 20
357.606063
 30
0.0
 11
180.479053
 21
357.606063
 31
0.0
  0
ARC
  5
33E
330
1F
100
AcDbEntity
  8
LC-001-100-D00-0
 62
     7
370
    50
100
AcDbCircle
 10
181.129904
 20
357.106063
 30
0.0
 40
0.5
100
AcDbArc
 50
0.0
 51
90.0
  0
LINE
  5
33F
330
1F
100
AcDbEntity
  8
LC-001-100-D00-0
 62
     7
370
    50
100
AcDbLine
 10
182.929907
 20
359.606063
 30
0.0
 11
180.479053
 21
359.606063
 31
0.0
  0
LINE
  5
340
330
1F
100
AcDbEntity
  8
LC-001-100-D00-0
 62
     7
370
    50
100
AcDbLine
 10
180.479053
 20
351.606064
 30
0.0
 11
178.079904
 21
351.606063
 31
0.0
  0
LINE
  5
341
330
1F
100
AcDbEntity
  8
LC-001-100-D00-0
 62
     7
370
    50
100
AcDbLine
 10
171.579901
 20
367.606063
 30
0.0
 11
176.079904
 21
367.606063
 31
0.0
  0
LINE
  5
342
330
1F
100
AcDbEntity
  8
LC-001-100-D00-0
 62
     7
370
    50
100
AcDbLine
 10
169.579904
 20
370.606063
 30
0.0
 11
182.929904
 21
370.606063
 31
0.0
  0
LINE
  5
343
330
1F
100
AcDbEntity
  8
LC-001-100-D00-0
 62
     7
370
    50
100
AcDbLine
 10
168.579902
 20
363.606063
 30
0.0
 11
171.579904
 21
363.606063
 31
0.0
  0
LINE
  5
344
330
1F
100
AcDbEntity
  8
LC-001-100-D00-0
 62
     7
370
    50
100
AcDbLine
 10
200.079904
 20
363.606063
 30
0.0
 11
202.079904
 21
363.606063
 31
0.0
  0
LINE
  5
345
330
1F
100
AcDbEntity
  8
LC-001-100-D00-0
 62
     7
370
    50
100
AcDbLine
 10
171.579904
 20
363.606063
 30
0.0
 11
173.579904
 21
363.606063
 31
0.0
  0
LINE
  5
346
330
1F
100
AcDbEntity
  8
LC-001-100-D00-0
 62
     7
370
    50
100
AcDbLine
 10
173.579904
 20
363.606063
 30
0.0
 11
177.079905
 21
363.606063
 31
0.0
  0
LINE
  5
347
330
1F
100
AcDbEntity
  8
LC-001-100-D00-0
 62
     7
370
    50
100
AcDbLine
 10
196.579907
 20
363.606063
 30
0.0
 11
200.079904
 21
363.606063
 31
0.0
  0
LINE
  5
348
330
1F
100
AcDbEntity
  8
LC-001-100-D00-0
 62
     7
370
    50
100
AcDbLine
 10
145.329904
 20
340.763146
 30
0.0
 11
145.619821
 21
340.672064
 31
0.0
  0
LINE
  5
349
330
1F
100
AcDbEntity
  8
LC-001-100-D00-0
 62
     7
370
    50
100
AcDbLine
 10
144.14229
 20
338.620634
 30
0.0
 11
145.329904
 21
340.763146
 31
0.0
  0
ARC
  5
34A
330
1F
100
AcDbEntity
  8
LC-001-100-D00-0
 62
     7
370
    50
100
AcDbCircle
 10
143.879904
 20
338.766077
 30
0.0
 40
0.3000000000000682
100
AcDbArc
 50
180.0
 51
331.0
  0
LINE
  5
34B
330
1F
100
AcDbEntity
  8
LC-001-100-D00-0
 62
     7
370
    50
100
AcDbLine
 10
143.579904
 20
341.306317
 30
0.0
 11
143.579904
 21
338.766077
 31
0.0
  0
ARC
  5
34C
330
1F
100
AcDbEntity
  8
LC-001-100-D00-0
 62
     7
370
    50
100
AcDbCircle
 10
145.579904
 20
341.306317
 30
0.0
 40
2.000000000000172
100
AcDbArc
 50
113.962489
 51
180.0
  0
LINE
  5
34D
330
1F
100
AcDbEntity
  8
LC-001-100-D00-0
 62
     7
370
    50
100
AcDbLine
 10
145.63598
 20
343.519875
 30
0.0
 11
144.767627
 21
343.13394
 31
0.0
  0
ARC
  5
34E
330
1F
100
AcDbEntity
  8
LC-001-100-D00-0
 62
     7
370
    50
100
AcDbCircle
 10
146.042119
 20
342.606063
 30
0.0
 40
1.0
100
AcDbArc
 50
90.0
 51
113.962489
  0
LINE
  5
34F
330
1F
100
AcDbEntity
  8
LC-001-100-D00-0
 62
     7
370
    50
100
AcDbLine
 10
151.829902
 20
343.606062
 30
0.0
 11
151.829902
 21
339.606064
 31
0.0
  0
LINE
  5
350
330
1F
100
AcDbEntity
  8
LC-001-100-D00-0
 62
     7
370
    50
100
AcDbLine
 10
145.829904
 20
340.385856
 30
0.0
 11
145.829904
 21
339.606063
 31
0.0
  0
ARC
  5
351
330
1F
100
AcDbEntity
  8
LC-001-100-D00-0
 62
     7
370
    50
100
AcDbCircle
 10
145.529904
 20
340.385856
 30
0.0
 40
0.3000000000000682
100
AcDbArc
 50
0.0
 51
72.558995
  0
LINE
  5
352
330
1F
100
AcDbEntity
  8
LC-001-100-D00-0
 62
     7
370
    50
100
AcDbLine
 10
151.829902
 20
343.606062
 30
0.0
 11
146.042119
 21
343.606063
 31
0.0
  0
LINE
  5
353
330
1F
100
AcDbEntity
  8
LC-001-100-D00-0
 62
     7
370
    50
100
AcDbLine
 10
151.829902
 20
339.606064
 30
0.0
 11
145.829904
 21
339.606063
 31
0.0
  0
LINE
  5
354
330
1F
100
AcDbEntity
  8
LC-001-100-D00-0
 62
     7
370
    50
100
AcDbLine
 10
145.829904
 20
339.606063
 30
0.0
 11
144.688522
 21
339.606063
 31
0.0
  0
LINE
  5
355
330
1F
100
AcDbEntity
  8
LC-001-100-D00-0
 62
     7
370
    50
100
AcDbLine
 10
145.279417
 20
340.672064
 30
0.0
 11
145.619821
 21
340.672064
 31
0.0
  0
LINE
  5
356
330
1F
100
AcDbEntity
  8
LC-001-100-D00-0
 62
     7
370
    50
100
AcDbLine
 10
27.829904
 20
339.606063
 30
0.0
 11
27.829904
 21
340.385856
 31
0.0
  0
LINE
  5
357
330
1F
100
AcDbEntity
  8
LC-001-100-D00-0
 62
     7
370
    50
100
AcDbLine
 10
28.971286
 20
339.606063
 30
0.0
 11
27.829904
 21
339.606063
 31
0.0
  0
LINE
  5
358
330
1F
100
AcDbEntity
  8
LC-001-100-D00-0
 62
     7
370
    50
100
AcDbLine
 10
28.329905
 20
340.763146
 30
0.0
 11
29.517518
 21
338.620634
 31
0.0
  0
LINE
  5
359
330
1F
100
AcDbEntity
  8
LC-001-100-D00-0
 62
     7
370
    50
100
AcDbLine
 10
28.039987
 20
340.672064
 30
0.0
 11
28.380392
 21
340.672064
 31
0.0
  0
LINE
  5
35A
330
1F
100
AcDbEntity
  8
LC-001-100-D00-0
 62
     7
370
    50
100
AcDbLine
 10
28.039987
 20
340.672064
 30
0.0
 11
28.329905
 21
340.763146
 31
0.0
  0
ARC
  5
35B
330
1F
100
AcDbEntity
  8
LC-001-100-D00-0
 62
     7
370
    50
100
AcDbCircle
 10
29.779904
 20
338.766077
 30
0.0
 40
0.2999999999999429
100
AcDbArc
 50
209.0
 51
0.0
  0
ARC
  5
35C
330
1F
100
AcDbEntity
  8
LC-001-100-D00-0
 62
     7
370
    50
100
AcDbCircle
 10
28.129904
 20
340.385856
 30
0.0
 40
0.3000000000000931
100
AcDbArc
 50
107.441005
 51
180.0
  0
ARC
  5
35D
330
1F
100
AcDbEntity
  8
LC-001-100-D00-0
 62
     7
370
    50
100
AcDbCircle
 10
28.079904
 20
341.306317
 30
0.0
 40
2.0
100
AcDbArc
 50
0.0
 51
66.037511
  0
LINE
  5
35E
330
1F
100
AcDbEntity
  8
LC-001-100-D00-0
 62
     7
370
    50
100
AcDbLine
 10
30.079904
 20
338.766077
 30
0.0
 11
30.079904
 21
341.306317
 31
0.0
  0
LINE
  5
35F
330
1F
100
AcDbEntity
  8
LC-001-100-D00-0
 62
     7
370
    50
100
AcDbLine
 10
28.892181
 20
343.13394
 30
0.0
 11
28.023828
 21
343.519875
 31
0.0
  0
ARC
  5
360
330
1F
100
AcDbEntity
  8
LC-001-100-D00-0
 62
     7
370
    50
100
AcDbCircle
 10
27.61769
 20
342.606063
 30
0.0
 40
1.000000000000167
100
AcDbArc
 50
66.037511
 51
90.0
  0
LINE
  5
361
330
1F
100
AcDbEntity
  8
LC-001-100-D00-0
 62
     7
370
    50
100
AcDbLine
 10
21.829907
 20
339.606064
 30
0.0
 11
21.829907
 21
343.606062
 31
0.0
  0
LINE
  5
362
330
1F
100
AcDbEntity
  8
LC-001-100-D00-0
 62
     7
370
    50
100
AcDbLine
 10
27.61769
 20
343.606063
 30
0.0
 11
21.829907
 21
343.606062
 31
0.0
  0
LINE
  5
363
330
1F
100
AcDbEntity
  8
LC-001-100-D00-0
 62
     7
370
    50
100
AcDbLine
 10
27.829904
 20
339.606063
 30
0.0
 11
21.829907
 21
339.606064
 31
0.0
  0
LINE
  5
364
330
1F
100
AcDbEntity
  8
LC-001-100-D00-0
 62
     7
370
    50
100
AcDbLine
 10
160.829905
 20
343.606062
 30
0.0
 11
160.829905
 21
319.856064
 31
0.0
  0
LINE
  5
365
330
1F
100
AcDbEntity
  8
LC-001-100-D00-0
 62
     7
370
    50
100
AcDbLine
 10
157.829907
 20
340.606064
 30
0.0
 11
157.829904
 21
319.856063
 31
0.0
  0
LINE
  5
366
330
1F
100
AcDbEntity
  8
LC-001-100-D00-0
 62
     7
370
    50
100
AcDbLine
 10
154.829908
 20
340.606064
 30
0.0
 11
154.829908
 21
336.606061
 31
0.0
  0
LINE
  5
367
330
1F
100
AcDbEntity
  8
LC-001-100-D00-0
 62
     7
370
    50
100
AcDbLine
 10
148.829904
 20
336.606063
 30
0.0
 11
154.829908
 21
336.606061
 31
0.0
  0
LINE
  5
368
330
1F
100
AcDbEntity
  8
LC-001-100-D00-0
 62
     7
370
    50
100
AcDbLine
 10
148.829903
 20
339.606064
 30
0.0
 11
148.829904
 21
336.606063
 31
0.0
  0
LINE
  5
369
330
1F
100
AcDbEntity
  8
LC-001-100-D00-0
 62
     7
370
    50
100
AcDbLine
 10
151.829902
 20
339.606064
 30
0.0
 11
148.829903
 21
339.606064
 31
0.0
  0
LINE
  5
36A
330
1F
100
AcDbEntity
  8
LC-001-100-D00-0
 62
     7
370
    50
100
AcDbLine
 10
151.829902
 20
339.606064
 30
0.0
 11
151.829902
 21
343.606062
 31
0.0
  0
LINE
  5
36B
330
1F
100
AcDbEntity
  8
LC-001-100-D00-0
 62
     7
370
    50
100
AcDbLine
 10
154.829908
 20
340.606064
 30
0.0
 11
157.829907
 21
340.606064
 31
0.0
  0
LINE
  5
36C
330
1F
100
AcDbEntity
  8
LC-001-100-D00-0
 62
     7
370
    50
100
AcDbLine
 10
160.829905
 20
343.606062
 30
0.0
 11
151.829902
 21
343.606062
 31
0.0
  0
LINE
  5
36D
330
1F
100
AcDbEntity
  8
LC-001-100-D00-0
 62
     7
370
    50
100
AcDbLine
 10
157.829904
 20
319.856063
 30
0.0
 11
160.829905
 21
319.856064
 31
0.0
  0
LINE
  5
36E
330
1F
100
AcDbEntity
  8
LC-001-100-D00-0
 62
     7
370
    50
100
AcDbLine
 10
137.130312
 20
319.856063
 30
0.0
 11
157.829904
 21
319.856063
 31
0.0
  0
LINE
  5
36F
330
1F
100
AcDbEntity
  8
LC-001-100-D00-0
 62
     7
370
    50
100
AcDbLine
 10
142.079904
 20
336.606063
 30
0.0
 11
148.829904
 21
336.606063
 31
0.0
  0
LINE
  5
370
330
1F
100
AcDbEntity
  8
LC-001-100-D00-0
 62
     7
370
    50
100
AcDbLine
 10
24.829904
 20
336.606063
 30
0.0
 11
24.829905
 21
339.606064
 31
0.0
  0
LINE
  5
371
330
1F
100
AcDbEntity
  8
LC-001-100-D00-0
 62
     7
370
    50
100
AcDbLine
 10
24.829904
 20
336.606063
 30
0.0
 11
31.579904
 21
336.606063
 31
0.0
  0
LINE
  5
372
330
1F
100
AcDbEntity
  8
LC-001-100-D00-0
 62
     7
370
    50
100
AcDbLine
 10
21.829907
 20
343.606062
 30
0.0
 11
21.829907
 21
339.606064
 31
0.0
  0
LINE
  5
373
330
1F
100
AcDbEntity
  8
LC-001-100-D00-0
 62
     7
370
    50
100
AcDbLine
 10
18.829901
 20
336.606061
 30
0.0
 11
18.829901
 21
340.606064
 31
0.0
  0
LINE
  5
374
330
1F
100
AcDbEntity
  8
LC-001-100-D00-0
 62
     7
370
    50
100
AcDbLine
 10
15.829904
 20
319.856063
 30
0.0
 11
15.829902
 21
340.606064
 31
0.0
  0
LINE
  5
375
330
1F
100
AcDbEntity
  8
LC-001-100-D00-0
 62
     7
370
    50
100
AcDbLine
 10
15.829904
 20
319.856063
 30
0.0
 11
36.529497
 21
319.856063
 31
0.0
  0
LINE
  5
376
330
1F
100
AcDbEntity
  8
LC-001-100-D00-0
 62
     7
370
    50
100
AcDbLine
 10
12.829903
 20
319.856064
 30
0.0
 11
12.829903
 21
343.606062
 31
0.0
  0
LINE
  5
377
330
1F
100
AcDbEntity
  8
LC-001-100-D00-0
 62
     7
370
    50
100
AcDbLine
 10
24.829905
 20
339.606064
 30
0.0
 11
21.829907
 21
339.606064
 31
0.0
  0
LINE
  5
378
330
1F
100
AcDbEntity
  8
LC-001-100-D00-0
 62
     7
370
    50
100
AcDbLine
 10
18.829901
 20
336.606061
 30
0.0
 11
24.829904
 21
336.606063
 31
0.0
  0
LINE
  5
379
330
1F
100
AcDbEntity
  8
LC-001-100-D00-0
 62
     7
370
    50
100
AcDbLine
 10
15.829902
 20
340.606064
 30
0.0
 11
18.829901
 21
340.606064
 31
0.0
  0
LINE
  5
37A
330
1F
100
AcDbEntity
  8
LC-001-100-D00-0
 62
     7
370
    50
100
AcDbLine
 10
21.829907
 20
343.606062
 30
0.0
 11
12.829903
 21
343.606062
 31
0.0
  0
LINE
  5
37B
330
1F
100
AcDbEntity
  8
LC-001-100-D00-0
 62
     7
370
    50
100
AcDbLine
 10
12.829903
 20
319.856064
 30
0.0
 11
15.829904
 21
319.856063
 31
0.0
  0
LINE
  5
37C
330
1F
100
AcDbEntity
  8
LC-001-100-D00-0
 62
     7
370
    50
100
AcDbLine
 10
128.81903
 20
319.856063
 30
0.0
 11
137.130312
 21
319.856063
 31
0.0
  0
LINE
  5
37D
330
1F
100
AcDbEntity
  8
LC-001-100-D00-0
 62
     7
370
    50
100
AcDbLine
 10
36.529497
 20
319.856063
 30
0.0
 11
44.840779
 21
319.856063
 31
0.0
  0
LINE
  5
37E
330
1F
100
AcDbEntity
  8
LC-001-100-D00-0
 62
     7
370
    50
100
AcDbLine
 10
44.840779
 20
319.856063
 30
0.0
 11
45.829903
 21
319.856064
 31
0.0
  0
LINE
  5
37F
330
1F
100
AcDbEntity
  8
LC-001-100-D00-0
 62
     7
370
    50
100
AcDbLine
 10
127.829906
 20
319.856064
 30
0.0
 11
128.81903
 21
319.856063
 31
0.0
  0
LINE
  5
380
330
1F
100
AcDbEntity
  8
LC-001-100-D00-0
 62
     7
370
    50
100
AcDbLine
 10
160.829905
 20
319.106063
 30
0.0
 11
171.829905
 21
319.106063
 31
0.0
  0
LINE
  5
381
330
1F
100
AcDbEntity
  8
LC-001-100-D00-0
 62
     7
370
    50
100
AcDbLine
 10
171.829905
 20
267.106062
 30
0.0
 11
160.829905
 21
267.106062
 31
0.0
  0
LINE
  5
382
330
1F
100
AcDbEntity
  8
LC-001-100-D00-0
 62
     7
370
    50
100
AcDbLine
 10
160.829905
 20
319.856064
 30
0.0
 11
160.829905
 21
319.106063
 31
0.0
  0
INSERT
  5
393
330
1F
100
AcDbEntity
  8
LC-001-100-D00-0
 62
     7
370
    50
100
AcDbBlockReference
  2
KLON17
 10
0.0
 20
0.0
 30
0.0
  0
INSERT
  5
3A7
330
1F
100
AcDbEntity
  8
LC-001-100-D00-0
 62
     7
370
    50
100
AcDbBlockReference
  2
KLON18
 10
0.0
 20
0.0
 30
0.0
  0
LINE
  5
3A8
330
1F
100
AcDbEntity
  8
LC-001-100-D00-0
 62
     7
370
    50
100
AcDbLine
 10
157.829907
 20
316.106064
 30
0.0
 11
199.72709
 21
316.106063
 31
0.0
  0
LINE
  5
3A9
330
1F
100
AcDbEntity
  8
LC-001-100-D00-0
 62
     7
370
    50
100
AcDbLine
 10
199.72709
 20
270.106063
 30
0.0
 11
199.72709
 21
316.106063
 31
0.0
  0
LINE
  5
3AA
330
1F
100
AcDbEntity
  8
LC-001-100-D00-0
 62
     7
370
    50
100
AcDbLine
 10
199.72709
 20
270.106063
 30
0.0
 11
160.829905
 21
270.106061
 31
0.0
  0
INSERT
  5
3B0
330
1F
100
AcDbEntity
  8
LC-001-100-D00-0
 62
     7
370
    50
100
AcDbBlockReference
  2
KLON19
 10
0.0
 20
0.0
 30
0.0
  0
LINE
  5
3B1
330
1F
100
AcDbEntity
  8
LC-001-100-D00-0
 62
     7
370
    50
100
AcDbLine
 10
157.829904
 20
319.856063
 30
0.0
 11
137.130312
 21
319.856063
 31
0.0
  0
LINE
  5
3B2
330
1F
100
AcDbEntity
  8
LC-001-100-D00-0
 62
     7
370
    50
100
AcDbLine
 10
157.829904
 20
319.856063
 30
0.0
 11
157.829907
 21
316.106064
 31
0.0
  0
LINE
  5
3B3
330
1F
100
AcDbEntity
  8
LC-001-100-D00-0
 62
     7
370
    50
100
AcDbLine
 10
147.829904
 20
267.106063
 30
0.0
 11
160.829905
 21
267.106062
 31
0.0
  0
ARC
  5
3B4
330
1F
100
AcDbEntity
  8
LC-001-100-D00-0
 62
     7
370
    50
100
AcDbCircle
 10
140.847784
 20
267.606063
 30
0.0
 40
7.0
100
AcDbArc
 50
270.0
 51
355.903956
  0
LINE
  5
3B5
330
1F
100
AcDbEntity
  8
LC-001-100-D00-0
 62
     7
370
    50
100
AcDbLine
 10
140.847784
 20
260.606063
 30
0.0
 11
32.812024
 21
260.606063
 31
0.0
  0
ARC
  5
3B6
330
1F
100
AcDbEntity
  8
LC-001-100-D00-0
 62
     7
370
    50
100
AcDbCircle
 10
32.812024
 20
267.606063
 30
0.0
 40
7.000000000000073
100
AcDbArc
 50
184.096044
 51
270.0
  0
LINE
  5
3B7
330
1F
100
AcDbEntity
  8
LC-001-100-D00-0
 62
     7
370
    50
100
AcDbLine
 10
25.329904
 20
267.106063
 30
0.0
 11
25.829904
 21
267.106063
 31
0.0
  0
ARC
  5
3B8
330
1F
100
AcDbEntity
  8
LC-001-100-D00-0
 62
     7
370
    50
100
AcDbCircle
 10
25.329904
 20
279.606063
 30
0.0
 40
12.5
100
AcDbArc
 50
180.0
 51
270.0
  0
LINE
  5
3B9
330
1F
100
AcDbEntity
  8
LC-001-100-D00-0
 62
     7
370
    50
100
AcDbLine
 10
12.829904
 20
279.606063
 30
0.0
 11
12.829903
 21
319.856064
 31
0.0
  0
LINE
  5
3BA
330
1F
100
AcDbEntity
  8
LC-001-100-D00-0
 62
     7
370
    50
100
AcDbLine
 10
12.829903
 20
319.856064
 30
0.0
 11
15.829904
 21
319.856063
 31
0.0
  0
LINE
  5
3BB
330
1F
100
AcDbEntity
  8
LC-001-100-D00-0
 62
     7
370
    50
100
AcDbLine
 10
15.829904
 20
279.606063
 30
0.0
 11
15.829904
 21
319.856063
 31
0.0
  0
ARC
  5
3BC
330
1F
100
AcDbEntity
  8
LC-001-100-D00-0
 62
     7
370
    50
100
AcDbCircle
 10
25.329904
 20
279.606063
 30
0.0
 40
9.500000000000227
100
AcDbArc
 50
180.0
 51
270.0
  0
LINE
  5
3BD
330
1F
100
AcDbEntity
  8
LC-001-100-D00-0
 62
     7
370
    50
100
AcDbLine
 10
25.329904
 20
270.106063
 30
0.0
 11
27.829904
 21
270.106063
 31
0.0
  0
ARC
  5
3BE
330
1F
100
AcDbEntity
  8
LC-001-100-D00-0
 62
     7
370
    50
100
AcDbCircle
 10
27.829904
 20
269.106063
 30
0.0
 40
1.0
100
AcDbArc
 50
0.0
 51
90.0
  0
LINE
  5
3BF
330
1F
100
AcDbEntity
  8
LC-001-100-D00-0
 62
     7
370
    50
100
AcDbLine
 10
28.829904
 20
269.106063
 30
0.0
 11
28.829904
 21
267.606063
 31
0.0
  0
ARC
  5
3C0
330
1F
100
AcDbEntity
  8
LC-001-100-D00-0
 62
     7
370
    50
100
AcDbCircle
 10
32.829904
 20
267.606063
 30
0.0
 40
4.0
100
AcDbArc
 50
180.0
 51
270.0
  0
LINE
  5
3C1
330
1F
100
AcDbEntity
  8
LC-001-100-D00-0
 62
     7
370
    50
100
AcDbLine
 10
140.829904
 20
263.606063
 30
0.0
 11
32.829904
 21
263.606063
 31
0.0
  0
ARC
  5
3C2
330
1F
100
AcDbEntity
  8
LC-001-100-D00-0
 62
     7
370
    50
100
AcDbCircle
 10
140.829904
 20
267.606063
 30
0.0
 40
4.0
100
AcDbArc
 50
270.0
 51
0.0
  0
LINE
  5
3C3
330
1F
100
AcDbEntity
  8
LC-001-100-D00-0
 62
     7
370
    50
100
AcDbLine
 10
144.829904
 20
267.606063
 30
0.0
 11
144.829904
 21
269.106063
 31
0.0
  0
ARC
  5
3C4
330
1F
100
AcDbEntity
  8
LC-001-100-D00-0
 62
     7
370
    50
100
AcDbCircle
 10
145.829904
 20
269.106063
 30
0.0
 40
0.9999999999997726
100
AcDbArc
 50
90.0
 51
180.0
  0
LINE
  5
3C5
330
1F
100
AcDbEntity
  8
LC-001-100-D00-0
 62
     7
370
    50
100
AcDbLine
 10
145.829904
 20
270.106063
 30
0.0
 11
160.829905
 21
270.106061
 31
0.0
  0
LINE
  5
3C6
330
1F
100
AcDbEntity
  8
LC-001-100-D00-0
 62
     7
370
    50
100
AcDbLine
 10
205.32709
 20
268.605548
 30
0.0
 11
199.72709
 21
270.106063
 31
0.0
  0
LINE
  5
3C7
330
1F
100
AcDbEntity
  8
LC-001-100-D00-0
 62
     7
370
    50
100
AcDbLine
 10
205.32709
 20
268.171808
 30
0.0
 11
205.32709
 21
268.605548
 31
0.0
  0
ARC
  5
3C8
330
1F
100
AcDbEntity
  8
LC-001-100-D00-0
 62
     7
370
    50
100
AcDbCircle
 10
204.827132
 20
268.171808
 30
0.0
 40
0.4999578796797747
100
AcDbArc
 50
301.198872
 51
0.0
  0
ARC
  5
3C9
330
1F
100
AcDbEntity
  8
LC-001-100-D00-0
 62
     7
370
    50
100
AcDbCircle
 10
189.728408
 20
293.103873
 30
0.0
 40
29.64750216706054
100
AcDbArc
 50
292.382556
 51
301.198872
  0
ARC
  5
3CA
330
1F
100
AcDbEntity
  8
LC-001-100-D00-0
 62
     7
370
    50
100
AcDbCircle
 10
200.827469
 20
266.152246
 30
0.0
 40
0.4999578796802098
100
AcDbArc
 50
180.0
 51
292.382556
  0
LINE
  5
3CB
330
1F
100
AcDbEntity
  8
LC-001-100-D00-0
 62
     7
370
    50
100
AcDbLine
 10
200.327511
 20
267.456105
 30
0.0
 11
200.327511
 21
266.152246
 31
0.0
  0
ARC
  5
3CC
330
1F
100
AcDbEntity
  8
LC-001-100-D00-0
 62
     7
370
    50
100
AcDbCircle
 10
199.827553
 20
267.456105
 30
0.0
 40
0.4999578796799824
100
AcDbArc
 50
0.0
 51
90.0
  0
LINE
  5
3CD
330
1F
100
AcDbEntity
  8
LC-001-100-D00-0
 62
     7
370
    50
100
AcDbLine
 10
196.327848
 20
267.956063
 30
0.0
 11
199.827553
 21
267.956063
 31
0.0
  0
ARC
  5
3CE
330
1F
100
AcDbEntity
  8
LC-001-100-D00-0
 62
     7
370
    50
100
AcDbCircle
 10
196.327848
 20
267.456105
 30
0.0
 40
0.4999578796800961
100
AcDbArc
 50
90.0
 51
180.0
  0
LINE
  5
3CF
330
1F
100
AcDbEntity
  8
LC-001-100-D00-0
 62
     7
370
    50
100
AcDbLine
 10
195.82789
 20
264.499244
 30
0.0
 11
195.82789
 21
267.456105
 31
0.0
  0
ARC
  5
3D0
330
1F
100
AcDbEntity
  8
LC-001-100-D00-0
 62
     7
370
    50
100
AcDbCircle
 10
195.327932
 20
264.499244
 30
0.0
 40
0.4999578796801373
100
AcDbArc
 50
281.075925
 51
0.0
  0
ARC
  5
3D1
330
1F
100
AcDbEntity
  8
LC-001-100-D00-0
 62
     7
370
    50
100
AcDbCircle
 10
189.728408
 20
293.103873
 30
0.0
 40
29.64750432250018
100
AcDbArc
 50
241.270296
 51
281.075925
  0
LINE
  5
3D2
330
1F
100
AcDbEntity
  8
LC-001-100-D00-0
 62
     7
370
    50
100
AcDbLine
 10
174.329702
 20
267.106062
 30
0.0
 11
175.4775
 21
267.106063
 31
0.0
  0
LINE
  5
3D3
330
1F
100
AcDbEntity
  8
LC-001-100-D00-0
 62
     7
370
    50
100
AcDbLine
 10
174.329702
 20
265.606066
 30
0.0
 11
174.329702
 21
267.106062
 31
0.0
  0
LINE
  5
3D4
330
1F
100
AcDbEntity
  8
LC-001-100-D00-0
 62
     7
370
    50
100
AcDbLine
 10
171.829905
 20
265.606066
 30
0.0
 11
174.329702
 21
265.606066
 31
0.0
  0
LINE
  5
3D5
330
1F
100
AcDbEntity
  8
LC-001-100-D00-0
 62
     7
370
    50
100
AcDbLine
 10
171.829905
 20
267.106062
 30
0.0
 11
171.829905
 21
265.606066
 31
0.0
  0
ARC
  5
3D6
330
1F
100
AcDbEntity
  8
LC-001-100-D00-0
 62
     7
370
    50
100
AcDbCircle
 10
189.728408
 20
293.108253
 30
0.0
 40
29.64750216706069
100
AcDbArc
 50
58.801128
 51
67.617444
  0
ARC
  5
3D7
330
1F
100
AcDbEntity
  8
LC-001-100-D00-0
 62
     7
370
    50
100
AcDbCircle
 10
204.827132
 20
318.040318
 30
0.0
 40
0.4999578796800961
100
AcDbArc
 50
0.0
 51
58.801128
  0
ARC
  5
3D8
330
1F
100
AcDbEntity
  8
LC-001-100-D00-0
 62
     7
370
    50
100
AcDbCircle
 10
199.827553
 20
318.756021
 30
0.0
 40
0.4999578796796413
100
AcDbArc
 50
270.0
 51
0.0
  0
LINE
  5
3D9
330
1F
100
AcDbEntity
  8
LC-001-100-D00-0
 62
     7
370
    50
100
AcDbLine
 10
200.327511
 20
320.05988
 30
0.0
 11
200.327511
 21
318.756021
 31
0.0
  0
ARC
  5
3DA
330
1F
100
AcDbEntity
  8
LC-001-100-D00-0
 62
     7
370
    50
100
AcDbCircle
 10
200.827469
 20
320.05988
 30
0.0
 40
0.4999578796801538
100
AcDbArc
 50
67.617444
 51
180.0
  0
LINE
  5
3DB
330
1F
100
AcDbEntity
  8
LC-001-100-D00-0
 62
     7
370
    50
100
AcDbLine
 10
205.32709
 20
317.606578
 30
0.0
 11
205.32709
 21
318.040318
 31
0.0
  0
LINE
  5
3DC
330
1F
100
AcDbEntity
  8
LC-001-100-D00-0
 62
     7
370
    50
100
AcDbLine
 10
199.72709
 20
316.106063
 30
0.0
 11
205.32709
 21
317.606578
 31
0.0
  0
LINE
  5
3DD
330
1F
100
AcDbEntity
  8
LC-001-100-D00-0
 62
     7
370
    50
100
AcDbLine
 10
157.829904
 20
319.856063
 30
0.0
 11
160.829905
 21
319.856064
 31
0.0
  0
LINE
  5
3DE
330
1F
100
AcDbEntity
  8
LC-001-100-D00-0
 62
     7
370
    50
100
AcDbLine
 10
171.829905
 20
320.606062
 30
0.0
 11
171.829905
 21
319.106063
 31
0.0
  0
LINE
  5
3DF
330
1F
100
AcDbEntity
  8
LC-001-100-D00-0
 62
     7
370
    50
100
AcDbLine
 10
174.329701
 20
320.606063
 30
0.0
 11
171.829905
 21
320.606062
 31
0.0
  0
ARC
  5
3E0
330
1F
100
AcDbEntity
  8
LC-001-100-D00-0
 62
     7
370
    50
100
AcDbCircle
 10
189.691993
 20
293.106063
 30
0.0
 40
31.5000000000002
100
AcDbArc
 50
105.394857
 51
119.188982
  0
LINE
  5
3E1
330
1F
100
AcDbEntity
  8
LC-001-100-D00-0
 62
     7
370
    50
100
AcDbLine
 10
181.329701
 20
323.475819
 30
0.0
 11
181.329701
 21
321.541266
 31
0.0
  0
ARC
  5
3E2
330
1F
100
AcDbEntity
  8
LC-001-100-D00-0
 62
     7
370
    50
100
AcDbCircle
 10
189.728408
 20
293.108253
 30
0.0
 40
29.64750432250028
100
AcDbArc
 50
78.924075
 51
106.456389
  0
ARC
  5
3E3
330
1F
100
AcDbEntity
  8
LC-001-100-D00-0
 62
     7
370
    50
100
AcDbCircle
 10
195.327932
 20
321.712882
 30
0.0
 40
0.4999578796799824
100
AcDbArc
 50
0.0
 51
78.924075
  0
LINE
  5
3E4
330
1F
100
AcDbEntity
  8
LC-001-100-D00-0
 62
     7
370
    50
100
AcDbLine
 10
195.82789
 20
318.756021
 30
0.0
 11
195.82789
 21
321.712882
 31
0.0
  0
ARC
  5
3E5
330
1F
100
AcDbEntity
  8
LC-001-100-D00-0
 62
     7
370
    50
100
AcDbCircle
 10
196.327848
 20
318.756021
 30
0.0
 40
0.4999578796798687
100
AcDbArc
 50
180.0
 51
270.0
  0
LINE
  5
3E6
330
1F
100
AcDbEntity
  8
LC-001-100-D00-0
 62
     7
370
    50
100
AcDbLine
 10
199.827553
 20
318.256063
 30
0.0
 11
196.327848
 21
318.256063
 31
0.0
  0
LINE
  5
3E7
330
1F
100
AcDbEntity
  8
LC-001-100-D00-0
 62
     7
370
    50
100
AcDbLine
 10
205.32709
 20
317.606578
 30
0.0
 11
205.32709
 21
268.605548
 31
0.0
  0
LINE
  5
3E8
330
1F
100
AcDbEntity
  8
LC-001-100-D00-0
 62
     7
370
    50
100
AcDbLine
 10
131.263524
 20
270.106063
 30
0.0
 11
145.829904
 21
270.106063
 31
0.0
  0
LINE
  5
3E9
330
1F
100
AcDbEntity
  8
LC-001-100-D00-0
 62
     7
370
    50
100
AcDbLine
 10
27.829904
 20
270.106063
 30
0.0
 11
42.396284
 21
270.106063
 31
0.0
  0
LINE
  5
3EA
330
1F
100
AcDbEntity
  8
LC-001-100-D00-0
 62
     7
370
    50
100
AcDbLine
 10
36.529497
 20
319.856063
 30
0.0
 11
15.829904
 21
319.856063
 31
0.0
  0
LINE
  5
3EB
330
1F
100
AcDbEntity
  8
LC-001-100-D00-0
 62
     7
370
    50
100
AcDbLine
 10
128.81903
 20
270.106063
 30
0.0
 11
131.263524
 21
270.106063
 31
0.0
  0
LINE
  5
3EC
330
1F
100
AcDbEntity
  8
LC-001-100-D00-0
 62
     7
370
    50
100
AcDbLine
 10
42.396284
 20
270.106063
 30
0.0
 11
44.840779
 21
270.106063
 31
0.0
  0
LINE
  5
3ED
330
1F
100
AcDbEntity
  8
LC-001-100-D00-0
 62
     7
370
    50
100
AcDbLine
 10
44.840779
 20
270.106063
 30
0.0
 11
45.829903
 21
270.106061
 31
0.0
  0
LINE
  5
3EE
330
1F
100
AcDbEntity
  8
LC-001-100-D00-0
 62
     7
370
    50
100
AcDbLine
 10
127.829906
 20
270.106061
 30
0.0
 11
128.81903
 21
270.106063
 31
0.0
  0
LINE
  5
3EF
330
1F
100
AcDbEntity
  8
LC-001-100-D00-0
 62
     7
370
    50
100
AcDbLine
 10
137.130312
 20
319.856063
 30
0.0
 11
128.81903
 21
319.856063
 31
0.0
  0
LINE
  5
3F0
330
1F
100
AcDbEntity
  8
LC-001-100-D00-0
 62
     7
370
    50
100
AcDbLine
 10
44.840779
 20
319.856063
 30
0.0
 11
36.529497
 21
319.856063
 31
0.0
  0
LINE
  5
3F1
330
1F
100
AcDbEntity
  8
LC-001-100-D00-0
 62
     7
370
    50
100
AcDbLine
 10
128.81903
 20
319.856063
 30
0.0
 11
127.829906
 21
319.856064
 31
0.0
  0
LINE
  5
3F2
330
1F
100
AcDbEntity
  8
LC-001-100-D00-0
 62
     7
370
    50
100
AcDbLine
 10
45.829903
 20
319.856064
 30
0.0
 11
44.840779
 21
319.856063
 31
0.0
  0
CIRCLE
  5
3F3
330
1F
100
AcDbEntity
  8
LC-001-100-D00-0
 62
     7
370
    50
100
AcDbCircle
 10
141.079904
 20
341.356063
 30
0.0
 40
1.75
  0
CIRCLE
  5
3F4
330
1F
100
AcDbEntity
  8
LC-001-100-D00-0
 62
     7
370
    50
100
AcDbCircle
 10
32.579904
 20
341.356063
 30
0.0
 40
1.75
  0
LINE
  5
3F5
330
1F
100
AcDbEntity
  8
LC-001-100-D00-0
 62
     7
370
    50
100
AcDbLine
 10
141.329903
 20
343.106063
 30
0.0
 11
141.329903
 21
344.606062
 31
0.0
  0
LINE
  5
3F6
330
1F
100
AcDbEntity
  8
LC-001-100-D00-0
 62
     7
370
    50
100
AcDbLine
 10
139.329903
 20
343.106063
 30
0.0
 11
141.329903
 21
343.106063
 31
0.0
  0
LINE
  5
3F7
330
1F
100
AcDbEntity
  8
LC-001-100-D00-0
 62
     7
370
    50
100
AcDbLine
 10
139.329903
 20
343.106063
 30
0.0
 11
139.329903
 21
339.606064
 31
0.0
  0
LINE
  5
3F8
330
1F
100
AcDbEntity
  8
LC-001-100-D00-0
 62
     7
370
    50
100
AcDbLine
 10
139.329903
 20
339.606064
 30
0.0
 11
141.329903
 21
339.606064
 31
0.0
  0
LINE
  5
3F9
330
1F
100
AcDbEntity
  8
LC-001-100-D00-0
 62
     7
370
    50
100
AcDbLine
 10
141.329903
 20
339.606064
 30
0.0
 11
141.329903
 21
338.606061
 31
0.0
  0
LINE
  5
3FA
330
1F
100
AcDbEntity
  8
LC-001-100-D00-0
 62
     7
370
    50
100
AcDbLine
 10
125.829904
 20
338.606063
 30
0.0
 11
141.329903
 21
338.606061
 31
0.0
  0
ARC
  5
3FB
330
1F
100
AcDbEntity
  8
LC-001-100-D00-0
 62
     7
370
    50
100
AcDbCircle
 10
125.829904
 20
328.606063
 30
0.0
 40
10.0
100
AcDbArc
 50
90.0
 51
180.0
  0
LINE
  5
3FC
330
1F
100
AcDbEntity
  8
LC-001-100-D00-0
 62
     7
370
    50
100
AcDbLine
 10
115.829904
 20
328.606063
 30
0.0
 11
115.829904
 21
278.706065
 31
0.0
  0
LINE
  5
3FD
330
1F
100
AcDbEntity
  8
LC-001-100-D00-0
 62
     7
370
    50
100
AcDbLine
 10
114.329904
 20
278.706063
 30
0.0
 11
115.829904
 21
278.706065
 31
0.0
  0
LINE
  5
3FE
330
1F
100
AcDbEntity
  8
LC-001-100-D00-0
 62
     7
370
    50
100
AcDbLine
 10
114.329904
 20
342.606063
 30
0.0
 11
114.329904
 21
278.706063
 31
0.0
  0
ARC
  5
3FF
330
1F
100
AcDbEntity
  8
LC-001-100-D00-0
 62
     7
370
    50
100
AcDbCircle
 10
116.329904
 20
342.606063
 30
0.0
 40
2.0
100
AcDbArc
 50
90.0
 51
180.0
  0
LINE
  5
400
330
1F
100
AcDbEntity
  8
LC-001-100-D00-0
 62
     7
370
    50
100
AcDbLine
 10
116.329904
 20
344.606063
 30
0.0
 11
141.329903
 21
344.606062
 31
0.0
  0
LINE
  5
401
330
1F
100
AcDbEntity
  8
LC-001-100-D00-0
 62
     7
370
    50
100
AcDbLine
 10
98.329904
 20
344.606063
 30
0.0
 11
116.329904
 21
344.606063
 31
0.0
  0
LINE
  5
402
330
1F
100
AcDbEntity
  8
LC-001-100-D00-0
 62
     7
370
    50
100
AcDbLine
 10
98.329904
 20
278.706063
 30
0.0
 11
114.329904
 21
278.706063
 31
0.0
  0
LINE
  5
403
330
1F
100
AcDbEntity
  8
LC-001-100-D00-0
 62
     7
370
    50
100
AcDbLine
 10
57.829905
 20
278.706065
 30
0.0
 11
57.829904
 21
328.606063
 31
0.0
  0
ARC
  5
404
330
1F
100
AcDbEntity
  8
LC-001-100-D00-0
 62
     7
370
    50
100
AcDbCircle
 10
57.329904
 20
342.606063
 30
0.0
 40
2.000000000000114
100
AcDbArc
 50
0.0
 51
90.0
  0
LINE
  5
405
330
1F
100
AcDbEntity
  8
LC-001-100-D00-0
 62
     7
370
    50
100
AcDbLine
 10
57.329904
 20
344.606063
 30
0.0
 11
75.329904
 21
344.606063
 31
0.0
  0
LINE
  5
406
330
1F
100
AcDbEntity
  8
LC-001-100-D00-0
 62
     7
370
    50
100
AcDbLine
 10
59.329904
 20
278.706063
 30
0.0
 11
59.329904
 21
342.606063
 31
0.0
  0
LINE
  5
407
330
1F
100
AcDbEntity
  8
LC-001-100-D00-0
 62
     7
370
    50
100
AcDbLine
 10
59.329904
 20
278.706063
 30
0.0
 11
75.329904
 21
278.706063
 31
0.0
  0
ARC
  5
408
330
1F
100
AcDbEntity
  8
LC-001-100-D00-0
 62
     7
370
    50
100
AcDbCircle
 10
47.829904
 20
328.606063
 30
0.0
 40
10.00000000000023
100
AcDbArc
 50
0.0
 51
90.0
  0
LINE
  5
409
330
1F
100
AcDbEntity
  8
LC-001-100-D00-0
 62
     7
370
    50
100
AcDbLine
 10
32.329906
 20
338.606061
 30
0.0
 11
32.329906
 21
339.606064
 31
0.0
  0
LINE
  5
40A
330
1F
100
AcDbEntity
  8
LC-001-100-D00-0
 62
     7
370
    50
100
AcDbLine
 10
34.329906
 20
339.606064
 30
0.0
 11
34.329906
 21
343.106063
 31
0.0
  0
LINE
  5
40B
330
1F
100
AcDbEntity
  8
LC-001-100-D00-0
 62
     7
370
    50
100
AcDbLine
 10
32.329906
 20
344.606062
 30
0.0
 11
32.329906
 21
343.106063
 31
0.0
  0
LINE
  5
40C
330
1F
100
AcDbEntity
  8
LC-001-100-D00-0
 62
     7
370
    50
100
AcDbLine
 10
57.829905
 20
278.706065
 30
0.0
 11
59.329904
 21
278.706063
 31
0.0
  0
LINE
  5
40D
330
1F
100
AcDbEntity
  8
LC-001-100-D00-0
 62
     7
370
    50
100
AcDbLine
 10
32.329906
 20
339.606064
 30
0.0
 11
34.329906
 21
339.606064
 31
0.0
  0
LINE
  5
40E
330
1F
100
AcDbEntity
  8
LC-001-100-D00-0
 62
     7
370
    50
100
AcDbLine
 10
32.329906
 20
343.106063
 30
0.0
 11
34.329906
 21
343.106063
 31
0.0
  0
LINE
  5
40F
330
1F
100
AcDbEntity
  8
LC-001-100-D00-0
 62
     7
370
    50
100
AcDbLine
 10
32.329906
 20
338.606061
 30
0.0
 11
47.829904
 21
338.606063
 31
0.0
  0
LINE
  5
410
330
1F
100
AcDbEntity
  8
LC-001-100-D00-0
 62
     7
370
    50
100
AcDbLine
 10
32.329906
 20
344.606062
 30
0.0
 11
57.329904
 21
344.606063
 31
0.0
  0
LINE
  5
411
330
1F
100
AcDbEntity
  8
LC-001-100-D00-0
 62
     7
370
    50
100
AcDbLine
 10
75.329904
 20
344.606063
 30
0.0
 11
98.329904
 21
344.606063
 31
0.0
  0
LINE
  5
412
330
1F
100
AcDbEntity
  8
LC-001-100-D00-0
 62
     7
370
    50
100
AcDbLine
 10
75.329904
 20
278.706063
 30
0.0
 11
98.329904
 21
278.706063
 31
0.0
  0
LINE
  5
413
330
1F
100
AcDbEntity
  8
LC-001-100-D00-0
 62
     7
370
    50
100
AcDbLine
 10
45.829903
 20
329.106065
 30
0.0
 11
35.894219
 21
336.411714
 31
0.0
  0
ARC
  5
414
330
1F
100
AcDbEntity
  8
LC-001-100-D00-0
 62
     7
370
    50
100
AcDbCircle
 10
35.301829
 20
335.606063
 30
0.0
 40
0.9999999999997635
100
AcDbArc
 50
53.673174
 51
90.0
  0
LINE
  5
415
330
1F
100
AcDbEntity
  8
LC-001-100-D00-0
 62
     7
370
    50
100
AcDbLine
 10
31.579904
 20
336.606063
 30
0.0
 11
35.301829
 21
336.606063
 31
0.0
  0
LINE
  5
416
330
1F
100
AcDbEntity
  8
LC-001-100-D00-0
 62
     7
370
    50
100
AcDbLine
 10
31.579904
 20
336.606063
 30
0.0
 11
31.579904
 21
338.606063
 31
0.0
  0
LINE
  5
417
330
1F
100
AcDbEntity
  8
LC-001-100-D00-0
 62
     7
370
    50
100
AcDbLine
 10
31.579904
 20
338.606063
 30
0.0
 11
35.301829
 21
338.606063
 31
0.0
  0
ARC
  5
418
330
1F
100
AcDbEntity
  8
LC-001-100-D00-0
 62
     7
370
    50
100
AcDbCircle
 10
35.301829
 20
335.606063
 30
0.0
 40
2.999999999999975
100
AcDbArc
 50
53.673174
 51
90.0
  0
LINE
  5
419
330
1F
100
AcDbEntity
  8
LC-001-100-D00-0
 62
     7
370
    50
100
AcDbLine
 10
37.079
 20
338.023016
 30
0.0
 11
46.922295
 21
330.785299
 31
0.0
  0
ARC
  5
41A
330
1F
100
AcDbEntity
  8
LC-001-100-D00-0
 62
     7
370
    50
100
AcDbCircle
 10
46.329904
 20
329.979648
 30
0.0
 40
1.000000000000114
100
AcDbArc
 50
0.0
 51
53.673174
  0
LINE
  5
41B
330
1F
100
AcDbEntity
  8
LC-001-100-D00-0
 62
     7
370
    50
100
AcDbLine
 10
47.329904
 20
268.106063
 30
0.0
 11
47.329904
 21
329.979648
 31
0.0
  0
ARC
  5
41C
330
1F
100
AcDbEntity
  8
LC-001-100-D00-0
 62
     7
370
    50
100
AcDbCircle
 10
50.829904
 20
268.106063
 30
0.0
 40
3.500000000000114
100
AcDbArc
 50
180.0
 51
270.0
  0
LINE
  5
41D
330
1F
100
AcDbEntity
  8
LC-001-100-D00-0
 62
     7
370
    50
100
AcDbLine
 10
122.829904
 20
264.606063
 30
0.0
 11
50.829904
 21
264.606063
 31
0.0
  0
ARC
  5
41E
330
1F
100
AcDbEntity
  8
LC-001-100-D00-0
 62
     7
370
    50
100
AcDbCircle
 10
122.829904
 20
268.106063
 30
0.0
 40
3.500000000000227
100
AcDbArc
 50
270.0
 51
0.0
  0
LINE
  5
41F
330
1F
100
AcDbEntity
  8
LC-001-100-D00-0
 62
     7
370
    50
100
AcDbLine
 10
126.329904
 20
329.979648
 30
0.0
 11
126.329904
 21
268.106063
 31
0.0
  0
ARC
  5
420
330
1F
100
AcDbEntity
  8
LC-001-100-D00-0
 62
     7
370
    50
100
AcDbCircle
 10
127.329904
 20
329.979648
 30
0.0
 40
0.9999999999998793
100
AcDbArc
 50
126.326826
 51
180.0
  0
LINE
  5
421
330
1F
100
AcDbEntity
  8
LC-001-100-D00-0
 62
     7
370
    50
100
AcDbLine
 10
136.580809
 20
338.023016
 30
0.0
 11
126.737514
 21
330.785299
 31
0.0
  0
ARC
  5
422
330
1F
100
AcDbEntity
  8
LC-001-100-D00-0
 62
     7
370
    50
100
AcDbCircle
 10
138.35798
 20
335.606063
 30
0.0
 40
3.0
100
AcDbArc
 50
90.0
 51
126.326826
  0
LINE
  5
423
330
1F
100
AcDbEntity
  8
LC-001-100-D00-0
 62
     7
370
    50
100
AcDbLine
 10
138.35798
 20
338.606063
 30
0.0
 11
142.079904
 21
338.606063
 31
0.0
  0
LINE
  5
424
330
1F
100
AcDbEntity
  8
LC-001-100-D00-0
 62
     7
370
    50
100
AcDbLine
 10
142.079904
 20
338.606063
 30
0.0
 11
142.079904
 21
336.606063
 31
0.0
  0
LINE
  5
425
330
1F
100
AcDbEntity
  8
LC-001-100-D00-0
 62
     7
370
    50
100
AcDbLine
 10
138.35798
 20
336.606063
 30
0.0
 11
142.079904
 21
336.606063
 31
0.0
  0
ARC
  5
426
330
1F
100
AcDbEntity
  8
LC-001-100-D00-0
 62
     7
370
    50
100
AcDbCircle
 10
138.35798
 20
335.606063
 30
0.0
 40
1.0
100
AcDbArc
 50
90.0
 51
126.326826
  0
LINE
  5
427
330
1F
100
AcDbEntity
  8
LC-001-100-D00-0
 62
     7
370
    50
100
AcDbLine
 10
127.829906
 20
329.106065
 30
0.0
 11
137.76559
 21
336.411714
 31
0.0
  0
LINE
  5
428
330
1F
100
AcDbEntity
  8
LC-001-100-D00-0
 62
     7
370
    50
100
AcDbLine
 10
127.829906
 20
329.106065
 30
0.0
 11
127.829904
 21
268.106063
 31
0.0
  0
ARC
  5
429
330
1F
100
AcDbEntity
  8
LC-001-100-D00-0
 62
     7
370
    50
100
AcDbCircle
 10
122.829904
 20
268.106063
 30
0.0
 40
5.0
100
AcDbArc
 50
270.0
 51
0.0
  0
LINE
  5
42A
330
1F
100
AcDbEntity
  8
LC-001-100-D00-0
 62
     7
370
    50
100
AcDbLine
 10
122.829904
 20
263.106063
 30
0.0
 11
50.829904
 21
263.106063
 31
0.0
  0
ARC
  5
42B
330
1F
100
AcDbEntity
  8
LC-001-100-D00-0
 62
     7
370
    50
100
AcDbCircle
 10
50.829904
 20
268.106063
 30
0.0
 40
5.0
100
AcDbArc
 50
180.0
 51
270.0
  0
LINE
  5
42C
330
1F
100
AcDbEntity
  8
LC-001-100-D00-0
 62
     7
370
    50
100
AcDbLine
 10
45.829904
 20
268.106063
 30
0.0
 11
45.829903
 21
329.106065
 31
0.0
  0
LINE
  5
42D
330
1F
100
AcDbEntity
  8
LC-001-100-D00-0
 62
     7
370
    50
100
AcDbLine
 10
126.322783
 20
329.106063
 30
0.0
 11
121.9093
 21
329.106063
 31
0.0
  0
LINE
  5
42E
330
1F
100
AcDbEntity
  8
LC-001-100-D00-0
 62
     7
370
    50
100
AcDbLine
 10
126.322783
 20
329.974281
 30
0.0
 11
126.322783
 21
329.106063
 31
0.0
  0
ARC
  5
42F
330
1F
100
AcDbEntity
  8
LC-001-100-D00-0
 62
     7
370
    50
100
AcDbCircle
 10
127.323157
 20
329.974222
 30
0.0
 40
1.000373573445702
100
AcDbArc
 50
126.325165
 51
180.0
  0
LINE
  5
430
330
1F
100
AcDbEntity
  8
LC-001-100-D00-0
 62
     7
370
    50
100
AcDbLine
 10
126.730569
 20
330.780191
 30
0.0
 11
126.737514
 21
330.785299
 31
0.0
  0
LINE
  5
431
330
1F
100
AcDbEntity
  8
LC-001-100-D00-0
 62
     7
370
    50
100
AcDbLine
 10
47.337025
 20
329.974281
 30
0.0
 11
47.337025
 21
329.106063
 31
0.0
  0
LINE
  5
432
330
1F
100
AcDbEntity
  8
LC-001-100-D00-0
 62
     7
370
    50
100
AcDbLine
 10
51.750509
 20
329.106063
 30
0.0
 11
47.337025
 21
329.106063
 31
0.0
  0
ARC
  5
433
330
1F
100
AcDbEntity
  8
LC-001-100-D00-0
 62
     7
370
    50
100
AcDbCircle
 10
46.336678
 20
329.974236
 30
0.0
 40
1.000347039122289
100
AcDbArc
 50
0.0
 51
53.675603
  0
LINE
  5
434
330
1F
100
AcDbEntity
  8
LC-001-100-D00-0
 62
     7
370
    50
100
AcDbLine
 10
119.758271
 20
336.551832
 30
0.0
 11
119.758271
 21
329.106065
 31
0.0
  0
LINE
  5
435
330
1F
100
AcDbEntity
  8
LC-001-100-D00-0
 62
     7
370
    50
100
AcDbLine
 10
119.758269
 20
336.606063
 30
0.0
 11
126.544319
 21
336.606063
 31
0.0
  0
LINE
  5
436
330
1F
100
AcDbEntity
  8
LC-001-100-D00-0
 62
     7
370
    50
100
AcDbLine
 10
131.008608
 20
336.606063
 30
0.0
 11
134.653753
 21
336.606063
 31
0.0
  0
LINE
  5
437
330
1F
100
AcDbEntity
  8
LC-001-100-D00-0
 62
     7
370
    50
100
AcDbLine
 10
53.901538
 20
336.551832
 30
0.0
 11
53.901538
 21
329.106065
 31
0.0
  0
LINE
  5
438
330
1F
100
AcDbEntity
  8
LC-001-100-D00-0
 62
     7
370
    50
100
AcDbLine
 10
39.006056
 20
336.606063
 30
0.0
 11
42.651201
 21
336.606063
 31
0.0
  0
LINE
  5
439
330
1F
100
AcDbEntity
  8
LC-001-100-D00-0
 62
     7
370
    50
100
AcDbLine
 10
47.115489
 20
336.606063
 30
0.0
 11
53.90154
 21
336.606063
 31
0.0
  0
LINE
  5
43A
330
1F
100
AcDbEntity
  8
LC-001-100-D00-0
 62
     7
370
    50
100
AcDbLine
 10
121.9093
 20
329.106063
 30
0.0
 11
115.842412
 21
329.106063
 31
0.0
  0
LINE
  5
43B
330
1F
100
AcDbEntity
  8
LC-001-100-D00-0
 62
     7
370
    50
100
AcDbLine
 10
57.817397
 20
329.106063
 30
0.0
 11
51.750509
 21
329.106063
 31
0.0
  0
ARC
  5
43C
330
1F
100
AcDbEntity
  8
LC-001-100-D00-0
 62
     7
370
    50
100
AcDbCircle
 10
189.829701
 20
293.106063
 30
0.0
 40
32.00000000000007
100
AcDbArc
 50
51.375167
 51
90.0
  0
LINE
  5
43D
330
1F
100
AcDbEntity
  8
LC-001-100-D00-0
 62
     7
370
    50
100
AcDbLine
 10
209.804686
 20
318.106063
 30
0.0
 11
292.829696
 21
318.106065
 31
0.0
  0
LINE
  5
43E
330
1F
100
AcDbEntity
  8
LC-001-100-D00-0
 62
     7
370
    50
100
AcDbLine
 10
292.829696
 20
318.106065
 30
0.0
 11
296.329696
 21
317.168241
 31
0.0
  0
LINE
  5
43F
330
1F
100
AcDbEntity
  8
LC-001-100-D00-0
 62
     7
370
    50
100
AcDbLine
 10
296.329696
 20
317.168241
 30
0.0
 11
296.329701
 21
315.856063
 31
0.0
  0
LINE
  5
440
330
1F
100
AcDbEntity
  8
LC-001-100-D00-0
 62
     7
370
    50
100
AcDbLine
 10
296.329701
 20
315.856063
 30
0.0
 11
208.609677
 21
315.856063
 31
0.0
  0
ARC
  5
441
330
1F
100
AcDbEntity
  8
LC-001-100-D00-0
 62
     7
370
    50
100
AcDbCircle
 10
189.829701
 20
293.106063
 30
0.0
 40
29.49999999999997
100
AcDbArc
 50
50.46055
 51
104.235124
  0
ARC
  5
442
330
1F
100
AcDbEntity
  8
LC-001-100-D00-0
 62
     7
370
    50
100
AcDbCircle
 10
182.329701
 20
322.669554
 30
0.0
 40
1.000000000000114
100
AcDbArc
 50
180.0
 51
284.235124
  0
LINE
  5
443
330
1F
100
AcDbEntity
  8
LC-001-100-D00-0
 62
     7
370
    50
100
AcDbLine
 10
181.329701
 20
322.669554
 30
0.0
 11
181.329701
 21
325.106064
 31
0.0
  0
LINE
  5
444
330
1F
100
AcDbEntity
  8
LC-001-100-D00-0
 62
     7
370
    50
100
AcDbLine
 10
181.329701
 20
325.106064
 30
0.0
 11
189.829701
 21
325.106063
 31
0.0
  0
LINE
  5
445
330
1F
100
AcDbEntity
  8
LC-001-100-D00-0
 62
     7
370
    50
100
AcDbLine
 10
181.329701
 20
261.106065
 30
0.0
 11
181.329701
 21
263.542572
 31
0.0
  0
ARC
  5
446
330
1F
100
AcDbEntity
  8
LC-001-100-D00-0
 62
     7
370
    50
100
AcDbCircle
 10
182.329701
 20
263.542572
 30
0.0
 40
0.9999999999998629
100
AcDbArc
 50
75.764876
 51
180.0
  0
ARC
  5
447
330
1F
100
AcDbEntity
  8
LC-001-100-D00-0
 62
     7
370
    50
100
AcDbCircle
 10
189.829701
 20
293.106063
 30
0.0
 40
29.50000000000022
100
AcDbArc
 50
255.764876
 51
309.53945
  0
LINE
  5
448
330
1F
100
AcDbEntity
  8
LC-001-100-D00-0
 62
     7
370
    50
100
AcDbLine
 10
208.609677
 20
270.356063
 30
0.0
 11
296.329701
 21
270.356063
 31
0.0
  0
LINE
  5
449
330
1F
100
AcDbEntity
  8
LC-001-100-D00-0
 62
     7
370
    50
100
AcDbLine
 10
296.329701
 20
270.356063
 30
0.0
 11
296.329696
 21
269.043883
 31
0.0
  0
LINE
  5
44A
330
1F
100
AcDbEntity
  8
LC-001-100-D00-0
 62
     7
370
    50
100
AcDbLine
 10
296.329696
 20
269.043883
 30
0.0
 11
292.829696
 21
268.106064
 31
0.0
  0
LINE
  5
44B
330
1F
100
AcDbEntity
  8
LC-001-100-D00-0
 62
     7
370
    50
100
AcDbLine
 10
292.829696
 20
268.106064
 30
0.0
 11
209.804686
 21
268.106063
 31
0.0
  0
ARC
  5
44C
330
1F
100
AcDbEntity
  8
LC-001-100-D00-0
 62
     7
370
    50
100
AcDbCircle
 10
189.829701
 20
293.106063
 30
0.0
 40
32.0
100
AcDbArc
 50
270.0
 51
308.624833
  0
LINE
  5
44D
330
1F
100
AcDbEntity
  8
LC-001-100-D00-0
 62
     7
370
    50
100
AcDbLine
 10
189.829701
 20
261.106063
 30
0.0
 11
181.329701
 21
261.106065
 31
0.0
  0
LINE
  5
44E
330
1F
100
AcDbEntity
  8
LC-001-100-D00-0
 62
     7
370
    50
100
AcDbLine
 10
296.329701
 20
315.856063
 30
0.0
 11
296.329701
 21
270.356063
 31
0.0
  0
LINE
  5
44F
330
1F
100
AcDbEntity
  8
LC-001-100-D00-0
 62
     7
370
    50
100
AcDbLine
 10
208.609677
 20
315.856063
 30
0.0
 11
208.609677
 21
270.356063
 31
0.0
  0
LINE
  5
450
330
1F
100
AcDbEntity
  8
LC-001-100-D00-0
 62
     7
370
    50
100
AcDbLine
 10
181.329701
 20
264.67086
 30
0.0
 11
181.329701
 21
263.542572
 31
0.0
  0
CIRCLE
  5
451
330
1F
100
AcDbEntity
  8
LC-001-100-D00-0
 62
     7
370
    50
100
AcDbCircle
 10
198.0777
 20
320.106063
 30
0.0
 40
2.0
  0
CIRCLE
  5
452
330
1F
100
AcDbEntity
  8
LC-001-100-D00-0
 62
     7
370
    50
100
AcDbCircle
 10
198.0777
 20
266.106063
 30
0.0
 40
2.0
  0
LINE
  5
453
330
1F
100
AcDbEntity
  8
LC-001-100-D00-0
 62
     7
370
    50
100
AcDbLine
 10
180.172242
 20
348.520878
 30
0.0
 11
162.338571
 21
343.74236
 31
0.0
  0
ARC
  5
454
330
1F
100
AcDbEntity
  8
LC-001-100-D00-0
 62
     7
370
    50
100
AcDbCircle
 10
161.303294
 20
347.606063
 30
0.0
 40
4.0
100
AcDbArc
 50
270.0
 51
285.0
  0
LINE
  5
455
330
1F
100
AcDbEntity
  8
LC-001-100-D00-0
 62
     7
370
    50
100
AcDbLine
 10
161.303294
 20
343.606063
 30
0.0
 11
144.629904
 21
343.606063
 31
0.0
  0
ARC
  5
456
330
1F
100
AcDbEntity
  8
LC-001-100-D00-0
 62
     7
370
    50
100
AcDbCircle
 10
144.629904
 20
342.606063
 30
0.0
 40
1.0
100
AcDbArc
 50
90.0
 51
180.0
  0
LINE
  5
457
330
1F
100
AcDbEntity
  8
LC-001-100-D00-0
 62
     7
370
    50
100
AcDbLine
 10
143.629904
 20
342.606063
 30
0.0
 11
143.629905
 21
338.606061
 31
0.0
  0
LINE
  5
458
330
1F
100
AcDbEntity
  8
LC-001-100-D00-0
 62
     7
370
    50
100
AcDbLine
 10
143.629905
 20
338.606061
 30
0.0
 11
142.129904
 21
338.606063
 31
0.0
  0
LINE
  5
459
330
1F
100
AcDbEntity
  8
LC-001-100-D00-0
 62
     7
370
    50
100
AcDbLine
 10
142.129904
 20
342.606063
 30
0.0
 11
142.129904
 21
338.606063
 31
0.0
  0
ARC
  5
45A
330
1F
100
AcDbEntity
  8
LC-001-100-D00-0
 62
     7
370
    50
100
AcDbCircle
 10
144.629904
 20
342.606063
 30
0.0
 40
2.5
100
AcDbArc
 50
90.0
 51
180.0
  0
LINE
  5
45B
330
1F
100
AcDbEntity
  8
LC-001-100-D00-0
 62
     7
370
    50
100
AcDbLine
 10
161.303294
 20
345.106063
 30
0.0
 11
144.629904
 21
345.106063
 31
0.0
  0
ARC
  5
45C
330
1F
100
AcDbEntity
  8
LC-001-100-D00-0
 62
     7
370
    50
100
AcDbCircle
 10
161.303294
 20
347.606063
 30
0.0
 40
2.500000000000227
100
AcDbArc
 50
270.0
 51
285.0
  0
LINE
  5
45D
330
1F
100
AcDbEntity
  8
LC-001-100-D00-0
 62
     7
370
    50
100
AcDbLine
 10
179.784013
 20
349.969766
 30
0.0
 11
161.950342
 21
345.191248
 31
0.0
  0
ARC
  5
45E
330
1F
100
AcDbEntity
  8
LC-001-100-D00-0
 62
     7
370
    50
100
AcDbCircle
 10
180.81929
 20
346.106063
 30
0.0
 40
4.0
100
AcDbArc
 50
90.0
 51
105.0
  0
LINE
  5
45F
330
1F
100
AcDbEntity
  8
LC-001-100-D00-0
 62
     7
370
    50
100
AcDbLine
 10
180.81929
 20
350.106063
 30
0.0
 11
182.329904
 21
350.106062
 31
0.0
  0
LINE
  5
460
330
1F
100
AcDbEntity
  8
LC-001-100-D00-0
 62
     7
370
    50
100
AcDbLine
 10
182.329904
 20
350.106062
 30
0.0
 11
182.329904
 21
351.506064
 31
0.0
  0
LINE
  5
461
330
1F
100
AcDbEntity
  8
LC-001-100-D00-0
 62
     7
370
    50
100
AcDbLine
 10
182.829904
 20
351.506063
 30
0.0
 11
182.329904
 21
351.506064
 31
0.0
  0
ARC
  5
462
330
1F
100
AcDbEntity
  8
LC-001-100-D00-0
 62
     7
370
    50
100
AcDbCircle
 10
181.829904
 20
353.006063
 30
0.0
 40
1.802775637732121
100
AcDbArc
 50
303.690068
 51
56.309932
  0
LINE
  5
463
330
1F
100
AcDbEntity
  8
LC-001-100-D00-0
 62
     7
370
    50
100
AcDbLine
 10
182.829905
 20
369.106063
 30
0.0
 11
182.829904
 21
354.506063
 31
0.0
  0
LINE
  5
464
330
1F
100
AcDbEntity
  8
LC-001-100-D00-0
 62
     7
370
    50
100
AcDbLine
 10
183.829907
 20
370.106063
 30
0.0
 11
182.829905
 21
369.106063
 31
0.0
  0
LINE
  5
465
330
1F
100
AcDbEntity
  8
LC-001-100-D00-0
 62
     7
370
    50
100
AcDbLine
 10
189.829905
 20
370.106063
 30
0.0
 11
183.829907
 21
370.106063
 31
0.0
  0
LINE
  5
466
330
1F
100
AcDbEntity
  8
LC-001-100-D00-0
 62
     7
370
    50
100
AcDbLine
 10
190.829907
 20
369.106063
 30
0.0
 11
189.829905
 21
370.106063
 31
0.0
  0
LINE
  5
467
330
1F
100
AcDbEntity
  8
LC-001-100-D00-0
 62
     7
370
    50
100
AcDbLine
 10
190.829904
 20
354.506063
 30
0.0
 11
190.829907
 21
369.106063
 31
0.0
  0
ARC
  5
468
330
1F
100
AcDbEntity
  8
LC-001-100-D00-0
 62
     7
370
    50
100
AcDbCircle
 10
191.829904
 20
353.006063
 30
0.0
 40
1.802775637732184
100
AcDbArc
 50
123.690068
 51
236.309932
  0
LINE
  5
469
330
1F
100
AcDbEntity
  8
LC-001-100-D00-0
 62
     7
370
    50
100
AcDbLine
 10
191.329908
 20
351.506064
 30
0.0
 11
190.829904
 21
351.506063
 31
0.0
  0
LINE
  5
46A
330
1F
100
AcDbEntity
  8
LC-001-100-D00-0
 62
     7
370
    50
100
AcDbLine
 10
191.329908
 20
351.506064
 30
0.0
 11
191.329908
 21
350.106062
 31
0.0
  0
LINE
  5
46B
330
1F
100
AcDbEntity
  8
LC-001-100-D00-0
 62
     7
370
    50
100
AcDbLine
 10
191.329908
 20
350.106062
 30
0.0
 11
317.329902
 21
350.106062
 31
0.0
  0
LINE
  5
46C
330
1F
100
AcDbEntity
  8
LC-001-100-D00-0
 62
     7
370
    50
100
AcDbLine
 10
317.329902
 20
350.106062
 30
0.0
 11
317.329902
 21
351.506064
 31
0.0
  0
LINE
  5
46D
330
1F
100
AcDbEntity
  8
LC-001-100-D00-0
 62
     7
370
    50
100
AcDbLine
 10
317.829904
 20
351.506063
 30
0.0
 11
317.329902
 21
351.506064
 31
0.0
  0
ARC
  5
46E
330
1F
100
AcDbEntity
  8
LC-001-100-D00-0
 62
     7
370
    50
100
AcDbCircle
 10
316.829904
 20
353.006063
 30
0.0
 40
1.802775637731868
100
AcDbArc
 50
303.690068
 51
56.309932
  0
LINE
  5
46F
330
1F
100
AcDbEntity
  8
LC-001-100-D00-0
 62
     7
370
    50
100
AcDbLine
 10
317.829911
 20
369.106063
 30
0.0
 11
317.829904
 21
354.506063
 31
0.0
  0
LINE
  5
470
330
1F
100
AcDbEntity
  8
LC-001-100-D00-0
 62
     7
370
    50
100
AcDbLine
 10
318.829898
 20
370.106063
 30
0.0
 11
317.829911
 21
369.106063
 31
0.0
  0
LINE
  5
471
330
1F
100
AcDbEntity
  8
LC-001-100-D00-0
 62
     7
370
    50
100
AcDbLine
 10
324.82991
 20
370.106063
 30
0.0
 11
318.829898
 21
370.106063
 31
0.0
  0
LINE
  5
472
330
1F
100
AcDbEntity
  8
LC-001-100-D00-0
 62
     7
370
    50
100
AcDbLine
 10
325.829897
 20
369.106063
 30
0.0
 11
324.82991
 21
370.106063
 31
0.0
  0
LINE
  5
473
330
1F
100
AcDbEntity
  8
LC-001-100-D00-0
 62
     7
370
    50
100
AcDbLine
 10
325.829904
 20
354.506063
 30
0.0
 11
325.829897
 21
369.106063
 31
0.0
  0
ARC
  5
474
330
1F
100
AcDbEntity
  8
LC-001-100-D00-0
 62
     7
370
    50
100
AcDbCircle
 10
326.829904
 20
353.006063
 30
0.0
 40
1.802775637732184
100
AcDbArc
 50
123.690068
 51
236.309932
  0
LINE
  5
475
330
1F
100
AcDbEntity
  8
LC-001-100-D00-0
 62
     7
370
    50
100
AcDbLine
 10
326.329905
 20
351.506064
 30
0.0
 11
325.829904
 21
351.506063
 31
0.0
  0
LINE
  5
476
330
1F
100
AcDbEntity
  8
LC-001-100-D00-0
 62
     7
370
    50
100
AcDbLine
 10
326.329905
 20
351.506064
 30
0.0
 11
326.329905
 21
350.106062
 31
0.0
  0
LINE
  5
477
330
1F
100
AcDbEntity
  8
LC-001-100-D00-0
 62
     7
370
    50
100
AcDbLine
 10
326.329905
 20
350.106062
 30
0.0
 11
452.329907
 21
350.106062
 31
0.0
  0
LINE
  5
478
330
1F
100
AcDbEntity
  8
LC-001-100-D00-0
 62
     7
370
    50
100
AcDbLine
 10
452.329907
 20
350.106062
 30
0.0
 11
452.329907
 21
351.506064
 31
0.0
  0
LINE
  5
479
330
1F
100
AcDbEntity
  8
LC-001-100-D00-0
 62
     7
370
    50
100
AcDbLine
 10
452.829904
 20
351.506063
 30
0.0
 11
452.329907
 21
351.506064
 31
0.0
  0
ARC
  5
47A
330
1F
100
AcDbEntity
  8
LC-001-100-D00-0
 62
     7
370
    50
100
AcDbCircle
 10
451.829904
 20
353.006063
 30
0.0
 40
1.802775637731995
100
AcDbArc
 50
303.690068
 51
56.309932
  0
LINE
  5
47B
330
1F
100
AcDbEntity
  8
LC-001-100-D00-0
 62
     7
370
    50
100
AcDbLine
 10
452.829901
 20
369.106063
 30
0.0
 11
452.829904
 21
354.506063
 31
0.0
  0
LINE
  5
47C
330
1F
100
AcDbEntity
  8
LC-001-100-D00-0
 62
     7
370
    50
100
AcDbLine
 10
453.829918
 20
370.106063
 30
0.0
 11
452.829901
 21
369.106063
 31
0.0
  0
LINE
  5
47D
330
1F
100
AcDbEntity
  8
LC-001-100-D00-0
 62
     7
370
    50
100
AcDbLine
 10
459.8299
 20
370.106063
 30
0.0
 11
453.829918
 21
370.106063
 31
0.0
  0
LINE
  5
47E
330
1F
100
AcDbEntity
  8
LC-001-100-D00-0
 62
     7
370
    50
100
AcDbLine
 10
460.829917
 20
369.106063
 30
0.0
 11
459.8299
 21
370.106063
 31
0.0
  0
LINE
  5
47F
330
1F
100
AcDbEntity
  8
LC-001-100-D00-0
 62
     7
370
    50
100
AcDbLine
 10
460.829904
 20
354.506063
 30
0.0
 11
460.829917
 21
369.106063
 31
0.0
  0
ARC
  5
480
330
1F
100
AcDbEntity
  8
LC-001-100-D00-0
 62
     7
370
    50
100
AcDbCircle
 10
461.829904
 20
353.006063
 30
0.0
 40
1.802775637732058
100
AcDbArc
 50
123.690068
 51
236.309932
  0
LINE
  5
481
330
1F
100
AcDbEntity
  8
LC-001-100-D00-0
 62
     7
370
    50
100
AcDbLine
 10
461.329911
 20
351.506064
 30
0.0
 11
460.829904
 21
351.506063
 31
0.0
  0
LINE
  5
482
330
1F
100
AcDbEntity
  8
LC-001-100-D00-0
 62
     7
370
    50
100
AcDbLine
 10
461.329911
 20
351.506064
 30
0.0
 11
461.329911
 21
350.106062
 31
0.0
  0
LINE
  5
483
330
1F
100
AcDbEntity
  8
LC-001-100-D00-0
 62
     7
370
    50
100
AcDbLine
 10
461.329911
 20
350.106062
 30
0.0
 11
478.829904
 21
350.106063
 31
0.0
  0
ARC
  5
484
330
1F
100
AcDbEntity
  8
LC-001-100-D00-0
 62
     7
370
    50
100
AcDbCircle
 10
478.829904
 20
358.106063
 30
0.0
 40
8.000000000000227
100
AcDbArc
 50
270.0
 51
0.0
  0
LINE
  5
485
330
1F
100
AcDbEntity
  8
LC-001-100-D00-0
 62
     7
370
    50
100
AcDbLine
 10
486.829904
 20
358.106063
 30
0.0
 11
486.829904
 21
367.606063
 31
0.0
  0
ARC
  5
486
330
1F
100
AcDbEntity
  8
LC-001-100-D00-0
 62
     7
370
    50
100
AcDbCircle
 10
489.829904
 20
367.606063
 30
0.0
 40
3.0
100
AcDbArc
 50
90.0
 51
180.0
  0
LINE
  5
487
330
1F
100
AcDbEntity
  8
LC-001-100-D00-0
 62
     7
370
    50
100
AcDbLine
 10
536.829892
 20
370.606063
 30
0.0
 11
489.829904
 21
370.606063
 31
0.0
  0
LINE
  5
488
330
1F
100
AcDbEntity
  8
LC-001-100-D00-0
 62
     7
370
    50
100
AcDbLine
 10
536.829892
 20
369.106063
 30
0.0
 11
536.829892
 21
370.606063
 31
0.0
  0
LINE
  5
489
330
1F
100
AcDbEntity
  8
LC-001-100-D00-0
 62
     7
370
    50
100
AcDbLine
 10
536.829892
 20
369.106063
 30
0.0
 11
489.829904
 21
369.106063
 31
0.0
  0
ARC
  5
48A
330
1F
100
AcDbEntity
  8
LC-001-100-D00-0
 62
     7
370
    50
100
AcDbCircle
 10
489.829904
 20
367.606063
 30
0.0
 40
1.5
100
AcDbArc
 50
90.0
 51
180.0
  0
LINE
  5
48B
330
1F
100
AcDbEntity
  8
LC-001-100-D00-0
 62
     7
370
    50
100
AcDbLine
 10
488.329904
 20
358.106063
 30
0.0
 11
488.329904
 21
367.606063
 31
0.0
  0
ARC
  5
48C
330
1F
100
AcDbEntity
  8
LC-001-100-D00-0
 62
     7
370
    50
100
AcDbCircle
 10
478.829904
 20
358.106063
 30
0.0
 40
9.500000000000227
100
AcDbArc
 50
270.0
 51
0.0
  0
LINE
  5
48D
330
1F
100
AcDbEntity
  8
LC-001-100-D00-0
 62
     7
370
    50
100
AcDbLine
 10
180.81929
 20
348.606063
 30
0.0
 11
478.829904
 21
348.606063
 31
0.0
  0
ARC
  5
48E
330
1F
100
AcDbEntity
  8
LC-001-100-D00-0
 62
     7
370
    50
100
AcDbCircle
 10
180.81929
 20
346.106063
 30
0.0
 40
2.5
100
AcDbArc
 50
90.0
 51
105.0
  0
LINE
  5
48F
330
1F
100
AcDbEntity
  8
LC-001-100-D00-0
 62
     7
370
    50
100
AcDbLine
 10
131.223788
 20
345.106063
 30
0.0
 11
144.629904
 21
345.106063
 31
0.0
  0
LINE
  5
490
330
1F
100
AcDbEntity
  8
LC-001-100-D00-0
 62
     7
370
    50
100
AcDbLine
 10
142.129904
 20
338.606063
 30
0.0
 11
142.079904
 21
338.606063
 31
0.0
  0
LINE
  5
491
330
1F
100
AcDbEntity
  8
LC-001-100-D00-0
 62
     7
370
    50
100
AcDbLine
 10
30.029904
 20
338.606061
 30
0.0
 11
30.029904
 21
342.606063
 31
0.0
  0
LINE
  5
492
330
1F
100
AcDbEntity
  8
LC-001-100-D00-0
 62
     7
370
    50
100
AcDbLine
 10
31.579904
 20
338.606063
 30
0.0
 11
31.529904
 21
338.606063
 31
0.0
  0
LINE
  5
493
330
1F
100
AcDbEntity
  8
LC-001-100-D00-0
 62
     7
370
    50
100
AcDbLine
 10
31.529904
 20
338.606063
 30
0.0
 11
31.529904
 21
342.606063
 31
0.0
  0
LINE
  5
494
330
1F
100
AcDbEntity
  8
LC-001-100-D00-0
 62
     7
370
    50
100
AcDbLine
 10
-278.670099
 20
351.506064
 30
0.0
 11
-279.170096
 21
351.506063
 31
0.0
  0
LINE
  5
495
330
1F
100
AcDbEntity
  8
LC-001-100-D00-0
 62
     7
370
    50
100
AcDbLine
 10
-278.670099
 20
351.506064
 30
0.0
 11
-278.670099
 21
350.106062
 31
0.0
  0
LINE
  5
496
330
1F
100
AcDbEntity
  8
LC-001-100-D00-0
 62
     7
370
    50
100
AcDbLine
 10
-278.670099
 20
350.106062
 30
0.0
 11
-152.670097
 21
350.106062
 31
0.0
  0
LINE
  5
497
330
1F
100
AcDbEntity
  8
LC-001-100-D00-0
 62
     7
370
    50
100
AcDbLine
 10
-152.670097
 20
350.106062
 30
0.0
 11
-152.670097
 21
351.506064
 31
0.0
  0
LINE
  5
498
330
1F
100
AcDbEntity
  8
LC-001-100-D00-0
 62
     7
370
    50
100
AcDbLine
 10
-152.170096
 20
351.506063
 30
0.0
 11
-152.670097
 21
351.506064
 31
0.0
  0
ARC
  5
499
330
1F
100
AcDbEntity
  8
LC-001-100-D00-0
 62
     7
370
    50
100
AcDbCircle
 10
-153.170096
 20
353.006063
 30
0.0
 40
1.802775637732121
100
AcDbArc
 50
303.690068
 51
56.309932
  0
LINE
  5
49A
330
1F
100
AcDbEntity
  8
LC-001-100-D00-0
 62
     7
370
    50
100
AcDbLine
 10
-152.170088
 20
369.106063
 30
0.0
 11
-152.170096
 21
354.506063
 31
0.0
  0
LINE
  5
49B
330
1F
100
AcDbEntity
  8
LC-001-100-D00-0
 62
     7
370
    50
100
AcDbLine
 10
-151.170101
 20
370.106063
 30
0.0
 11
-152.170088
 21
369.106063
 31
0.0
  0
LINE
  5
49C
330
1F
100
AcDbEntity
  8
LC-001-100-D00-0
 62
     7
370
    50
100
AcDbLine
 10
-145.170089
 20
370.106063
 30
0.0
 11
-151.170101
 21
370.106063
 31
0.0
  0
LINE
  5
49D
330
1F
100
AcDbEntity
  8
LC-001-100-D00-0
 62
     7
370
    50
100
AcDbLine
 10
-144.170102
 20
369.106063
 30
0.0
 11
-145.170089
 21
370.106063
 31
0.0
  0
LINE
  5
49E
330
1F
100
AcDbEntity
  8
LC-001-100-D00-0
 62
     7
370
    50
100
AcDbLine
 10
-144.170096
 20
354.506063
 30
0.0
 11
-144.170102
 21
369.106063
 31
0.0
  0
ARC
  5
49F
330
1F
100
AcDbEntity
  8
LC-001-100-D00-0
 62
     7
370
    50
100
AcDbCircle
 10
-143.170096
 20
353.006063
 30
0.0
 40
1.802775637732152
100
AcDbArc
 50
123.690068
 51
236.309932
  0
LINE
  5
4A0
330
1F
100
AcDbEntity
  8
LC-001-100-D00-0
 62
     7
370
    50
100
AcDbLine
 10
-143.670093
 20
351.506064
 30
0.0
 11
-144.170096
 21
351.506063
 31
0.0
  0
LINE
  5
4A1
330
1F
100
AcDbEntity
  8
LC-001-100-D00-0
 62
     7
370
    50
100
AcDbLine
 10
-143.670093
 20
351.506064
 30
0.0
 11
-143.670093
 21
350.106062
 31
0.0
  0
LINE
  5
4A2
330
1F
100
AcDbEntity
  8
LC-001-100-D00-0
 62
     7
370
    50
100
AcDbLine
 10
-143.670093
 20
350.106062
 30
0.0
 11
-17.670099
 21
350.106062
 31
0.0
  0
LINE
  5
4A3
330
1F
100
AcDbEntity
  8
LC-001-100-D00-0
 62
     7
370
    50
100
AcDbLine
 10
-17.670099
 20
350.106062
 30
0.0
 11
-17.670099
 21
351.506064
 31
0.0
  0
LINE
  5
4A4
330
1F
100
AcDbEntity
  8
LC-001-100-D00-0
 62
     7
370
    50
100
AcDbLine
 10
-17.170096
 20
351.506063
 30
0.0
 11
-17.670099
 21
351.506064
 31
0.0
  0
ARC
  5
4A5
330
1F
100
AcDbEntity
  8
LC-001-100-D00-0
 62
     7
370
    50
100
AcDbCircle
 10
-18.170096
 20
353.006063
 30
0.0
 40
1.802775637732121
100
AcDbArc
 50
303.690068
 51
56.309932
  0
LINE
  5
4A6
330
1F
100
AcDbEntity
  8
LC-001-100-D00-0
 62
     7
370
    50
100
AcDbLine
 10
-17.170098
 20
369.106063
 30
0.0
 11
-17.170096
 21
354.506063
 31
0.0
  0
LINE
  5
4A7
330
1F
100
AcDbEntity
  8
LC-001-100-D00-0
 62
     7
370
    50
100
AcDbLine
 10
-16.170096
 20
370.106063
 30
0.0
 11
-17.170098
 21
369.106063
 31
0.0
  0
LINE
  5
4A8
330
1F
100
AcDbEntity
  8
LC-001-100-D00-0
 62
     7
370
    50
100
AcDbLine
 10
-10.170098
 20
370.106063
 30
0.0
 11
-16.170096
 21
370.106063
 31
0.0
  0
LINE
  5
4A9
330
1F
100
AcDbEntity
  8
LC-001-100-D00-0
 62
     7
370
    50
100
AcDbLine
 10
-9.170096
 20
369.106063
 30
0.0
 11
-10.170098
 21
370.106063
 31
0.0
  0
LINE
  5
4AA
330
1F
100
AcDbEntity
  8
LC-001-100-D00-0
 62
     7
370
    50
100
AcDbLine
 10
-9.170096
 20
354.506063
 30
0.0
 11
-9.170096
 21
369.106063
 31
0.0
  0
ARC
  5
4AB
330
1F
100
AcDbEntity
  8
LC-001-100-D00-0
 62
     7
370
    50
100
AcDbCircle
 10
-8.170096
 20
353.006063
 30
0.0
 40
1.802775637732184
100
AcDbArc
 50
123.690068
 51
236.309932
  0
LINE
  5
4AC
330
1F
100
AcDbEntity
  8
LC-001-100-D00-0
 62
     7
370
    50
100
AcDbLine
 10
-8.670095
 20
351.506064
 30
0.0
 11
-9.170096
 21
351.506063
 31
0.0
  0
LINE
  5
4AD
330
1F
100
AcDbEntity
  8
LC-001-100-D00-0
 62
     7
370
    50
100
AcDbLine
 10
-8.670095
 20
351.506064
 30
0.0
 11
-8.670095
 21
350.106062
 31
0.0
  0
LINE
  5
4AE
330
1F
100
AcDbEntity
  8
LC-001-100-D00-0
 62
     7
370
    50
100
AcDbLine
 10
-8.670095
 20
350.106062
 30
0.0
 11
-7.159481
 21
350.106063
 31
0.0
  0
ARC
  5
4AF
330
1F
100
AcDbEntity
  8
LC-001-100-D00-0
 62
     7
370
    50
100
AcDbCircle
 10
-7.159481
 20
346.106063
 30
0.0
 40
4.000000000000122
100
AcDbArc
 50
75.0
 51
90.0
  0
LINE
  5
4B0
330
1F
100
AcDbEntity
  8
LC-001-100-D00-0
 62
     7
370
    50
100
AcDbLine
 10
11.709467
 20
345.191248
 30
0.0
 11
-6.124205
 21
349.969766
 31
0.0
  0
ARC
  5
4B1
330
1F
100
AcDbEntity
  8
LC-001-100-D00-0
 62
     7
370
    50
100
AcDbCircle
 10
12.356514
 20
347.606063
 30
0.0
 40
2.500000000000062
100
AcDbArc
 50
255.0
 51
270.0
  0
LINE
  5
4B2
330
1F
100
AcDbEntity
  8
LC-001-100-D00-0
 62
     7
370
    50
100
AcDbLine
 10
17.752696
 20
345.106063
 30
0.0
 11
12.356514
 21
345.106063
 31
0.0
  0
LINE
  5
4B3
330
1F
100
AcDbEntity
  8
LC-001-100-D00-0
 62
     7
370
    50
100
AcDbLine
 10
17.752696
 20
345.006064
 30
0.0
 11
17.752696
 21
345.106063
 31
0.0
  0
LINE
  5
4B4
330
1F
100
AcDbEntity
  8
LC-001-100-D00-0
 62
     7
370
    50
100
AcDbLine
 10
18.276531
 20
345.006064
 30
0.0
 11
17.752696
 21
345.006064
 31
0.0
  0
LINE
  5
4B5
330
1F
100
AcDbEntity
  8
LC-001-100-D00-0
 62
     7
370
    50
100
AcDbLine
 10
18.276531
 20
345.106063
 30
0.0
 11
18.276531
 21
345.006064
 31
0.0
  0
LINE
  5
4B6
330
1F
100
AcDbEntity
  8
LC-001-100-D00-0
 62
     7
370
    50
100
AcDbLine
 10
18.970776
 20
345.106063
 30
0.0
 11
18.276531
 21
345.106063
 31
0.0
  0
LINE
  5
4B7
330
1F
100
AcDbEntity
  8
LC-001-100-D00-0
 62
     7
370
    50
100
AcDbLine
 10
18.970776
 20
345.006064
 30
0.0
 11
18.970776
 21
345.106063
 31
0.0
  0
LINE
  5
4B8
330
1F
100
AcDbEntity
  8
LC-001-100-D00-0
 62
     7
370
    50
100
AcDbLine
 10
19.495126
 20
345.006064
 30
0.0
 11
18.970776
 21
345.006064
 31
0.0
  0
LINE
  5
4B9
330
1F
100
AcDbEntity
  8
LC-001-100-D00-0
 62
     7
370
    50
100
AcDbLine
 10
19.495126
 20
345.106063
 30
0.0
 11
19.495126
 21
345.006064
 31
0.0
  0
LINE
  5
4BA
330
1F
100
AcDbEntity
  8
LC-001-100-D00-0
 62
     7
370
    50
100
AcDbLine
 10
29.029904
 20
345.106063
 30
0.0
 11
19.495126
 21
345.106063
 31
0.0
  0
ARC
  5
4BB
330
1F
100
AcDbEntity
  8
LC-001-100-D00-0
 62
     7
370
    50
100
AcDbCircle
 10
29.029904
 20
342.606063
 30
0.0
 40
2.5
100
AcDbArc
 50
0.0
 51
90.0
  0
LINE
  5
4BC
330
1F
100
AcDbEntity
  8
LC-001-100-D00-0
 62
     7
370
    50
100
AcDbLine
 10
31.529904
 20
338.606063
 30
0.0
 11
30.029904
 21
338.606061
 31
0.0
  0
ARC
  5
4BD
330
1F
100
AcDbEntity
  8
LC-001-100-D00-0
 62
     7
370
    50
100
AcDbCircle
 10
29.029904
 20
342.606063
 30
0.0
 40
1.000000000000114
100
AcDbArc
 50
0.0
 51
90.0
  0
LINE
  5
4BE
330
1F
100
AcDbEntity
  8
LC-001-100-D00-0
 62
     7
370
    50
100
AcDbLine
 10
29.029904
 20
343.606063
 30
0.0
 11
12.356514
 21
343.606063
 31
0.0
  0
ARC
  5
4BF
330
1F
100
AcDbEntity
  8
LC-001-100-D00-0
 62
     7
370
    50
100
AcDbCircle
 10
12.356514
 20
347.606063
 30
0.0
 40
4.000000000000092
100
AcDbArc
 50
255.0
 51
270.0
  0
LINE
  5
4C0
330
1F
100
AcDbEntity
  8
LC-001-100-D00-0
 62
     7
370
    50
100
AcDbLine
 10
11.321238
 20
343.74236
 30
0.0
 11
-6.512433
 21
348.520878
 31
0.0
  0
ARC
  5
4C1
330
1F
100
AcDbEntity
  8
LC-001-100-D00-0
 62
     7
370
    50
100
AcDbCircle
 10
-7.159481
 20
346.106063
 30
0.0
 40
2.500000000000062
100
AcDbArc
 50
75.0
 51
90.0
  0
LINE
  5
4C2
330
1F
100
AcDbEntity
  8
LC-001-100-D00-0
 62
     7
370
    50
100
AcDbLine
 10
-305.170096
 20
348.606063
 30
0.0
 11
-7.159481
 21
348.606063
 31
0.0
  0
ARC
  5
4C3
330
1F
100
AcDbEntity
  8
LC-001-100-D00-0
 62
     7
370
    50
100
AcDbCircle
 10
-305.170096
 20
358.106063
 30
0.0
 40
9.500000000000171
100
AcDbArc
 50
180.0
 51
270.0
  0
LINE
  5
4C4
330
1F
100
AcDbEntity
  8
LC-001-100-D00-0
 62
     7
370
    50
100
AcDbLine
 10
-314.670096
 20
367.606063
 30
0.0
 11
-314.670096
 21
358.106063
 31
0.0
  0
ARC
  5
4C5
330
1F
100
AcDbEntity
  8
LC-001-100-D00-0
 62
     7
370
    50
100
AcDbCircle
 10
-316.170096
 20
367.606063
 30
0.0
 40
1.500000000000057
100
AcDbArc
 50
0.0
 51
90.0
  0
LINE
  5
4C6
330
1F
100
AcDbEntity
  8
LC-001-100-D00-0
 62
     7
370
    50
100
AcDbLine
 10
-363.170084
 20
370.606063
 30
0.0
 11
-363.170084
 21
369.106063
 31
0.0
  0
ARC
  5
4C7
330
1F
100
AcDbEntity
  8
LC-001-100-D00-0
 62
     7
370
    50
100
AcDbCircle
 10
-316.170096
 20
367.606063
 30
0.0
 40
3.0
100
AcDbArc
 50
0.0
 51
90.0
  0
LINE
  5
4C8
330
1F
100
AcDbEntity
  8
LC-001-100-D00-0
 62
     7
370
    50
100
AcDbLine
 10
-313.170096
 20
367.606063
 30
0.0
 11
-313.170096
 21
358.106063
 31
0.0
  0
ARC
  5
4C9
330
1F
100
AcDbEntity
  8
LC-001-100-D00-0
 62
     7
370
    50
100
AcDbCircle
 10
-305.170096
 20
358.106063
 30
0.0
 40
8.000000000000057
100
AcDbArc
 50
180.0
 51
270.0
  0
LINE
  5
4CA
330
1F
100
AcDbEntity
  8
LC-001-100-D00-0
 62
     7
370
    50
100
AcDbLine
 10
-305.170096
 20
350.106063
 30
0.0
 11
-287.670102
 21
350.106062
 31
0.0
  0
LINE
  5
4CB
330
1F
100
AcDbEntity
  8
LC-001-100-D00-0
 62
     7
370
    50
100
AcDbLine
 10
-287.670102
 20
350.106062
 30
0.0
 11
-287.670102
 21
351.506064
 31
0.0
  0
LINE
  5
4CC
330
1F
100
AcDbEntity
  8
LC-001-100-D00-0
 62
     7
370
    50
100
AcDbLine
 10
-287.170096
 20
351.506063
 30
0.0
 11
-287.670102
 21
351.506064
 31
0.0
  0
ARC
  5
4CD
330
1F
100
AcDbEntity
  8
LC-001-100-D00-0
 62
     7
370
    50
100
AcDbCircle
 10
-288.170096
 20
353.006063
 30
0.0
 40
1.802775637731868
100
AcDbArc
 50
303.690068
 51
56.309932
  0
LINE
  5
4CE
330
1F
100
AcDbEntity
  8
LC-001-100-D00-0
 62
     7
370
    50
100
AcDbLine
 10
-287.170108
 20
369.106063
 30
0.0
 11
-287.170096
 21
354.506063
 31
0.0
  0
LINE
  5
4CF
330
1F
100
AcDbEntity
  8
LC-001-100-D00-0
 62
     7
370
    50
100
AcDbLine
 10
-286.170092
 20
370.106063
 30
0.0
 11
-287.170108
 21
369.106063
 31
0.0
  0
LINE
  5
4D0
330
1F
100
AcDbEntity
  8
LC-001-100-D00-0
 62
     7
370
    50
100
AcDbLine
 10
-280.170109
 20
370.106063
 30
0.0
 11
-286.170092
 21
370.106063
 31
0.0
  0
LINE
  5
4D1
330
1F
100
AcDbEntity
  8
LC-001-100-D00-0
 62
     7
370
    50
100
AcDbLine
 10
-279.170092
 20
369.106063
 30
0.0
 11
-280.170109
 21
370.106063
 31
0.0
  0
LINE
  5
4D2
330
1F
100
AcDbEntity
  8
LC-001-100-D00-0
 62
     7
370
    50
100
AcDbLine
 10
-279.170096
 20
354.506063
 30
0.0
 11
-279.170092
 21
369.106063
 31
0.0
  0
ARC
  5
4D3
330
1F
100
AcDbEntity
  8
LC-001-100-D00-0
 62
     7
370
    50
100
AcDbCircle
 10
-278.170096
 20
353.006063
 30
0.0
 40
1.802775637732121
100
AcDbArc
 50
123.690068
 51
236.309932
  0
LINE
  5
4D4
330
1F
100
AcDbEntity
  8
LC-001-100-D00-0
 62
     7
370
    50
100
AcDbLine
 10
-316.170096
 20
370.606063
 30
0.0
 11
-363.170084
 21
370.606063
 31
0.0
  0
LINE
  5
4D5
330
1F
100
AcDbEntity
  8
LC-001-100-D00-0
 62
     7
370
    50
100
AcDbLine
 10
-316.170096
 20
369.106063
 30
0.0
 11
-363.170084
 21
369.106063
 31
0.0
  0
LINE
  5
4D6
330
1F
100
AcDbEntity
  8
LC-001-100-D00-0
 62
     7
370
    50
100
AcDbLine
 10
42.436021
 20
345.106063
 30
0.0
 11
29.029904
 21
345.106063
 31
0.0
  0
LINE
  5
4D7
330
1F
100
AcDbEntity
  8
LC-001-100-D00-0
 62
     7
370
    50
100
AcDbLine
 10
18.970776
 20
345.106063
 30
0.0
 11
19.495126
 21
345.106063
 31
0.0
  0
LINE
  5
4D8
330
1F
100
AcDbEntity
  8
LC-001-100-D00-0
 62
     7
370
    50
100
AcDbLine
 10
17.752696
 20
345.106063
 30
0.0
 11
18.276531
 21
345.106063
 31
0.0
  0
ELLIPSE
  5
4D9
330
1F
100
AcDbEntity
  8
LC-001-100-D00-0
 62
     7
370
    50
100
AcDbEllipse
 10
341.851722
 20
346.106063
 30
0.0
 11
0.0
 21
-2.500000152587886
 31
0.0
210
0.0
220
0.0
230
0.9999999999999999
 40
0.027578
 41
0.0000000000016491
 42
0.3217505543989239
  0
ELLIPSE
  5
4DA
330
1F
100
AcDbEntity
  8
LC-001-100-D00-0
 62
     7
370
    50
100
AcDbEllipse
 10
-168.191913
 20
346.106063
 30
0.0
 11
0.0
 21
-2.500000004768372
 31
0.0
210
0.0
220
0.0
230
1.0
 40
0.027578
 41
5.961434752782588
 42
6.283185307178762
  0
LINE
  5
4DB
330
1F
100
AcDbEntity
  8
LC-001-100-D00-0
 62
     7
370
    50
100
AcDbLine
 10
341.8299
 20
348.47741
 30
0.0
 11
341.8299
 21
343.812022
 31
0.0
  0
LINE
  5
4DC
330
1F
100
AcDbEntity
  8
LC-001-100-D00-0
 62
     7
370
    50
100
AcDbLine
 10
-168.170091
 20
348.47741
 30
0.0
 11
-168.170091
 21
343.812022
 31
0.0
  0
INSERT
  5
4E6
330
1F
100
AcDbEntity
  8
LC-001-100-D00-0
 62
     7
370
    50
100
AcDbBlockReference
  2
KLON20
 10
0.0
 20
0.0
 30
0.0
  0
INSERT
  5
4F0
330
1F
100
AcDbEntity
  8
LC-001-100-D00-0
 62
     7
370
    50
100
AcDbBlockReference
  2
KLON21
 10
0.0
 20
0.0
 30
0.0
  0
LINE
  5
4F1
330
1F
100
AcDbEntity
  8
LC-001-100-D00-0
 62
     7
370
    50
100
AcDbLine
 10
341.8299
 20
343.606062
 30
0.0
 11
341.82987
 21
343.81133
 31
0.0
  0
LINE
  5
4F2
330
1F
100
AcDbEntity
  8
LC-001-100-D00-0
 62
     7
370
    50
100
AcDbLine
 10
341.8299
 20
343.606062
 30
0.0
 11
469.737593
 21
348.274227
 31
0.0
  0
LINE
  5
4F3
330
1F
100
AcDbEntity
  8
LC-001-100-D00-0
 62
     7
370
    50
100
AcDbLine
 10
-168.170091
 20
343.606062
 30
0.0
 11
-168.170061
 21
343.81133
 31
0.0
  0
LINE
  5
4F4
330
1F
100
AcDbEntity
  8
LC-001-100-D00-0
 62
     7
370
    50
100
AcDbLine
 10
-168.170091
 20
343.606062
 30
0.0
 11
-296.077784
 21
348.274227
 31
0.0
  0
LINE
  5
4F5
330
1F
100
AcDbEntity
  8
LC-001-100-D00-0
 62
     7
370
    50
100
AcDbLine
 10
128.616061
 20
336.606063
 30
0.0
 11
131.008608
 21
336.606063
 31
0.0
  0
LINE
  5
4F6
330
1F
100
AcDbEntity
  8
LC-001-100-D00-0
 62
     7
370
    50
100
AcDbLine
 10
131.97982
 20
335.106063
 30
0.0
 11
132.075407
 21
335.114123
 31
0.0
  0
LINE
  5
4F7
330
1F
100
AcDbEntity
  8
LC-001-100-D00-0
 62
     7
370
    50
100
AcDbLine
 10
131.97982
 20
335.106063
 30
0.0
 11
128.616061
 21
335.106063
 31
0.0
  0
LINE
  5
4F8
330
1F
100
AcDbEntity
  8
LC-001-100-D00-0
 62
     7
370
    50
100
AcDbLine
 10
41.584402
 20
335.114123
 30
0.0
 11
41.679989
 21
335.106063
 31
0.0
  0
LINE
  5
4F9
330
1F
100
AcDbEntity
  8
LC-001-100-D00-0
 62
     7
370
    50
100
AcDbLine
 10
42.651201
 20
336.606063
 30
0.0
 11
45.043748
 21
336.606063
 31
0.0
  0
LINE
  5
4FA
330
1F
100
AcDbEntity
  8
LC-001-100-D00-0
 62
     7
370
    50
100
AcDbLine
 10
45.043748
 20
335.106063
 30
0.0
 11
41.679989
 21
335.106063
 31
0.0
  0
LINE
  5
4FB
330
1F
100
AcDbEntity
  8
LC-001-100-D00-0
 62
     7
370
    50
100
AcDbLine
 10
128.616061
 20
335.106063
 30
0.0
 11
127.839133
 21
335.106063
 31
0.0
  0
LINE
  5
4FC
330
1F
100
AcDbEntity
  8
LC-001-100-D00-0
 62
     7
370
    50
100
AcDbLine
 10
128.616061
 20
336.606063
 30
0.0
 11
127.839133
 21
336.606063
 31
0.0
  0
LINE
  5
4FD
330
1F
100
AcDbEntity
  8
LC-001-100-D00-0
 62
     7
370
    50
100
AcDbLine
 10
45.043748
 20
336.606063
 30
0.0
 11
45.820676
 21
336.606063
 31
0.0
  0
LINE
  5
4FE
330
1F
100
AcDbEntity
  8
LC-001-100-D00-0
 62
     7
370
    50
100
AcDbLine
 10
45.043748
 20
335.106063
 30
0.0
 11
45.820676
 21
335.106063
 31
0.0
  0
LINE
  5
4FF
330
1F
100
AcDbEntity
  8
LC-001-100-D00-0
 62
     7
370
    50
100
AcDbLine
 10
161.303294
 20
343.606063
 30
0.0
 11
163.403895
 21
343.606062
 31
0.0
  0
LINE
  5
500
330
1F
100
AcDbEntity
  8
LC-001-100-D00-0
 62
     7
370
    50
100
AcDbLine
 10
12.356514
 20
343.606063
 30
0.0
 11
10.255914
 21
343.606062
 31
0.0
  0
LINE
  5
501
330
1F
100
AcDbEntity
  8
LC-001-100-D00-0
 62
     7
370
    50
100
AcDbLine
 10
127.839133
 20
335.106063
 30
0.0
 11
126.544319
 21
335.106063
 31
0.0
  0
LINE
  5
502
330
1F
100
AcDbEntity
  8
LC-001-100-D00-0
 62
     7
370
    50
100
AcDbLine
 10
126.560251
 20
336.606063
 30
0.0
 11
127.839133
 21
336.606063
 31
0.0
  0
LINE
  5
503
330
1F
100
AcDbEntity
  8
LC-001-100-D00-0
 62
     7
370
    50
100
AcDbLine
 10
45.820676
 20
336.606063
 30
0.0
 11
47.099558
 21
336.606063
 31
0.0
  0
LINE
  5
504
330
1F
100
AcDbEntity
  8
LC-001-100-D00-0
 62
     7
370
    50
100
AcDbLine
 10
47.115489
 20
335.106063
 30
0.0
 11
45.820676
 21
335.106063
 31
0.0
  0
LINE
  5
505
330
1F
100
AcDbEntity
  8
LC-001-100-D00-0
 62
     7
370
    50
100
AcDbLine
 10
163.403895
 20
343.606062
 30
0.0
 11
341.8299
 21
343.606062
 31
0.0
  0
LINE
  5
506
330
1F
100
AcDbEntity
  8
LC-001-100-D00-0
 62
     7
370
    50
100
AcDbLine
 10
10.255914
 20
343.606062
 30
0.0
 11
-168.170091
 21
343.606062
 31
0.0
  0
ARC
  5
507
330
1F
100
AcDbEntity
  8
LC-001-100-D00-0
 62
     7
370
    50
100
AcDbCircle
 10
131.345532
 20
336.540214
 30
0.0
 40
1.602014939990651
100
AcDbArc
 50
297.103406
 51
2.355668
  0
INSERT
  5
510
330
1F
100
AcDbEntity
  8
LC-001-100-D00-0
 62
     7
370
    50
100
AcDbBlockReference
  2
KLON22
 10
0.0
 20
0.0
 30
0.0
  0
INSERT
  5
51D
330
1F
100
AcDbEntity
  8
LC-001-100-D00-0
 62
     7
370
    50
100
AcDbBlockReference
  2
KLON23
 10
0.0
 20
0.0
 30
0.0
  0
INSERT
  5
52A
330
1F
100
AcDbEntity
  8
LC-001-100-D00-0
 62
     7
370
    50
100
AcDbBlockReference
  2
KLON24
 10
0.0
 20
0.0
 30
0.0
  0
LINE
  5
52B
330
1F
100
AcDbEntity
  8
LC-001-100-D00-0
 62
     7
370
    50
100
AcDbLine
 10
484.329904
 20
370.606063
 30
0.0
 11
489.829904
 21
370.606063
 31
0.0
  0
LINE
  5
52C
330
1F
100
AcDbEntity
  8
LC-001-100-D00-0
 62
     7
370
    50
100
AcDbLine
 10
-310.670096
 20
370.606063
 30
0.0
 11
-316.170096
 21
370.606063
 31
0.0
  0
LINE
  5
52D
330
1F
100
AcDbEntity
  8
LC-001-100-D00-0
 62
     7
370
    50
100
AcDbLine
 10
484.329904
 20
370.606063
 30
0.0
 11
474.079904
 21
370.606063
 31
0.0
  0
LINE
  5
52E
330
1F
100
AcDbEntity
  8
LC-001-100-D00-0
 62
     7
370
    50
100
AcDbLine
 10
439.579904
 20
370.606063
 30
0.0
 11
339.079904
 21
370.606063
 31
0.0
  0
LINE
  5
52F
330
1F
100
AcDbEntity
  8
LC-001-100-D00-0
 62
     7
370
    50
100
AcDbLine
 10
304.579904
 20
370.606063
 30
0.0
 11
204.079904
 21
370.606063
 31
0.0
  0
LINE
  5
530
330
1F
100
AcDbEntity
  8
LC-001-100-D00-0
 62
     7
370
    50
100
AcDbLine
 10
169.579904
 20
370.606063
 30
0.0
 11
4.079904
 21
370.606063
 31
0.0
  0
LINE
  5
531
330
1F
100
AcDbEntity
  8
LC-001-100-D00-0
 62
     7
370
    50
100
AcDbLine
 10
-30.420096
 20
370.606063
 30
0.0
 11
-130.920096
 21
370.606063
 31
0.0
  0
LINE
  5
532
330
1F
100
AcDbEntity
  8
LC-001-100-D00-0
 62
     7
370
    50
100
AcDbLine
 10
-165.420096
 20
370.606063
 30
0.0
 11
-265.920096
 21
370.606063
 31
0.0
  0
LINE
  5
533
330
1F
100
AcDbEntity
  8
LC-001-100-D00-0
 62
     7
370
    50
100
AcDbLine
 10
-300.420096
 20
370.606063
 30
0.0
 11
-310.670096
 21
370.606063
 31
0.0
  0
ARC
  5
534
330
1F
100
AcDbEntity
  8
LC-001-100-D00-0
 62
     7
370
    50
100
AcDbCircle
 10
423.929904
 20
344.006063
 30
0.0
 40
2.0
100
AcDbArc
 50
180.0
 51
270.0
  0
LINE
  5
535
330
1F
100
AcDbEntity
  8
LC-001-100-D00-0
 62
     7
370
    50
100
AcDbLine
 10
423.929904
 20
342.006063
 30
0.0
 11
449.729904
 21
342.006063
 31
0.0
  0
ARC
  5
536
330
1F
100
AcDbEntity
  8
LC-001-100-D00-0
 62
     7
370
    50
100
AcDbCircle
 10
449.729904
 20
344.006063
 30
0.0
 40
2.000000000000227
100
AcDbArc
 50
270.0
 51
0.0
  0
LINE
  5
537
330
1F
100
AcDbEntity
  8
LC-001-100-D00-0
 62
     7
370
    50
100
AcDbLine
 10
451.729904
 20
344.006063
 30
0.0
 11
451.729897
 21
347.617012
 31
0.0
  0
LINE
  5
538
330
1F
100
AcDbEntity
  8
LC-001-100-D00-0
 62
     7
370
    50
100
AcDbLine
 10
453.729901
 20
347.690005
 30
0.0
 11
453.729904
 21
344.006063
 31
0.0
  0
ARC
  5
539
330
1F
100
AcDbEntity
  8
LC-001-100-D00-0
 62
     7
370
    50
100
AcDbCircle
 10
449.729904
 20
344.006063
 30
0.0
 40
4.000000000000227
100
AcDbArc
 50
270.0
 51
0.0
  0
LINE
  5
53A
330
1F
100
AcDbEntity
  8
LC-001-100-D00-0
 62
     7
370
    50
100
AcDbLine
 10
449.729904
 20
340.006063
 30
0.0
 11
423.929904
 21
340.006063
 31
0.0
  0
ARC
  5
53B
330
1F
100
AcDbEntity
  8
LC-001-100-D00-0
 62
     7
370
    50
100
AcDbCircle
 10
423.929904
 20
344.006063
 30
0.0
 40
3.999999999999773
100
AcDbArc
 50
180.0
 51
270.0
  0
LINE
  5
53C
330
1F
100
AcDbEntity
  8
LC-001-100-D00-0
 62
     7
370
    50
100
AcDbLine
 10
419.929904
 20
344.006063
 30
0.0
 11
419.929895
 21
346.456427
 31
0.0
  0
LINE
  5
53D
330
1F
100
AcDbEntity
  8
LC-001-100-D00-0
 62
     7
370
    50
100
AcDbLine
 10
421.9299
 20
346.529421
 30
0.0
 11
421.929904
 21
344.006063
 31
0.0
  0
LINE
  5
53E
330
1F
100
AcDbEntity
  8
LC-001-100-D00-0
 62
     7
370
    50
100
AcDbLine
 10
-246.270096
 20
344.006063
 30
0.0
 11
-246.270087
 21
346.456427
 31
0.0
  0
ARC
  5
53F
330
1F
100
AcDbEntity
  8
LC-001-100-D00-0
 62
     7
370
    50
100
AcDbCircle
 10
-250.270096
 20
344.006063
 30
0.0
 40
4.000000000000227
100
AcDbArc
 50
270.0
 51
0.0
  0
LINE
  5
540
330
1F
100
AcDbEntity
  8
LC-001-100-D00-0
 62
     7
370
    50
100
AcDbLine
 10
-276.070096
 20
340.006063
 30
0.0
 11
-250.270096
 21
340.006063
 31
0.0
  0
ARC
  5
541
330
1F
100
AcDbEntity
  8
LC-001-100-D00-0
 62
     7
370
    50
100
AcDbCircle
 10
-276.070096
 20
344.006063
 30
0.0
 40
4.000000000000057
100
AcDbArc
 50
180.0
 51
270.0
  0
LINE
  5
542
330
1F
100
AcDbEntity
  8
LC-001-100-D00-0
 62
     7
370
    50
100
AcDbLine
 10
-280.070093
 20
347.690005
 30
0.0
 11
-280.070096
 21
344.006063
 31
0.0
  0
LINE
  5
543
330
1F
100
AcDbEntity
  8
LC-001-100-D00-0
 62
     7
370
    50
100
AcDbLine
 10
-278.070096
 20
344.006063
 30
0.0
 11
-278.070089
 21
347.617012
 31
0.0
  0
ARC
  5
544
330
1F
100
AcDbEntity
  8
LC-001-100-D00-0
 62
     7
370
    50
100
AcDbCircle
 10
-276.070096
 20
344.006063
 30
0.0
 40
2.0
100
AcDbArc
 50
180.0
 51
270.0
  0
LINE
  5
545
330
1F
100
AcDbEntity
  8
LC-001-100-D00-0
 62
     7
370
    50
100
AcDbLine
 10
-250.270096
 20
342.006063
 30
0.0
 11
-276.070096
 21
342.006063
 31
0.0
  0
ARC
  5
546
330
1F
100
AcDbEntity
  8
LC-001-100-D00-0
 62
     7
370
    50
100
AcDbCircle
 10
-250.270096
 20
344.006063
 30
0.0
 40
2.000000000000227
100
AcDbArc
 50
270.0
 51
0.0
  0
LINE
  5
547
330
1F
100
AcDbEntity
  8
LC-001-100-D00-0
 62
     7
370
    50
100
AcDbLine
 10
-248.270091
 20
346.529421
 30
0.0
 11
-248.270096
 21
344.006063
 31
0.0
  0
LINE
  5
548
330
1F
100
AcDbEntity
  8
LC-001-100-D00-0
 62
     7
370
    50
100
AcDbLine
 10
438.665632
 20
244.106067
 30
0.0
 11
427.987967
 21
244.106067
 31
0.0
  0
LINE
  5
549
330
1F
100
AcDbEntity
  8
LC-001-100-D00-0
 62
     7
370
    50
100
AcDbLine
 10
438.665632
 20
244.106067
 30
0.0
 11
445.697788
 21
244.106067
 31
0.0
  0
LINE
  5
54A
330
1F
100
AcDbEntity
  8
LC-001-100-D00-0
 62
     7
370
    50
100
AcDbLine
 10
427.529623
 20
236.106063
 30
0.0
 11
427.329904
 21
236.106063
 31
0.0
  0
LINE
  5
54B
330
1F
100
AcDbEntity
  8
LC-001-100-D00-0
 62
     7
370
    50
100
AcDbLine
 10
446.329904
 20
236.106063
 30
0.0
 11
427.529623
 21
236.106063
 31
0.0
  0
LINE
  5
54C
330
1F
100
AcDbEntity
  8
LC-001-100-D00-0
 62
     7
370
    50
100
AcDbLine
 10
-261.334356
 20
244.106067
 30
0.0
 11
-272.012021
 21
244.106067
 31
0.0
  0
LINE
  5
54D
330
1F
100
AcDbEntity
  8
LC-001-100-D00-0
 62
     7
370
    50
100
AcDbLine
 10
-261.334356
 20
244.106067
 30
0.0
 11
-254.3022
 21
244.106067
 31
0.0
  0
LINE
  5
54E
330
1F
100
AcDbEntity
  8
LC-001-100-D00-0
 62
     7
370
    50
100
AcDbLine
 10
-272.470377
 20
236.106063
 30
0.0
 11
-272.670096
 21
236.106063
 31
0.0
  0
LINE
  5
54F
330
1F
100
AcDbEntity
  8
LC-001-100-D00-0
 62
     7
370
    50
100
AcDbLine
 10
-253.670096
 20
236.106063
 30
0.0
 11
-272.470377
 21
236.106063
 31
0.0
  0
LINE
  5
550
330
1F
100
AcDbEntity
  8
LC-001-100-D00-0
 62
     7
370
    50
100
AcDbLine
 10
433.943153
 20
342.106063
 30
0.0
 11
427.880975
 21
342.106063
 31
0.0
  0
LINE
  5
551
330
1F
100
AcDbEntity
  8
LC-001-100-D00-0
 62
     7
370
    50
100
AcDbLine
 10
439.716656
 20
342.106063
 30
0.0
 11
433.943153
 21
342.106063
 31
0.0
  0
LINE
  5
552
330
1F
100
AcDbEntity
  8
LC-001-100-D00-0
 62
     7
370
    50
100
AcDbLine
 10
445.778834
 20
342.106063
 30
0.0
 11
439.716656
 21
342.106063
 31
0.0
  0
LINE
  5
553
330
1F
100
AcDbEntity
  8
LC-001-100-D00-0
 62
     7
370
    50
100
AcDbLine
 10
448.665585
 20
342.106063
 30
0.0
 11
445.778834
 21
342.106063
 31
0.0
  0
LINE
  5
554
330
1F
100
AcDbEntity
  8
LC-001-100-D00-0
 62
     7
370
    50
100
AcDbLine
 10
427.880975
 20
342.106063
 30
0.0
 11
424.994224
 21
342.106063
 31
0.0
  0
LINE
  5
555
330
1F
100
AcDbEntity
  8
LC-001-100-D00-0
 62
     7
370
    50
100
AcDbLine
 10
449.603407
 20
342.106063
 30
0.0
 11
448.665585
 21
342.106063
 31
0.0
  0
LINE
  5
556
330
1F
100
AcDbEntity
  8
LC-001-100-D00-0
 62
     7
370
    50
100
AcDbLine
 10
424.994224
 20
342.106063
 30
0.0
 11
424.056402
 21
342.106063
 31
0.0
  0
LINE
  5
557
330
1F
100
AcDbEntity
  8
LC-001-100-D00-0
 62
     7
370
    50
100
AcDbLine
 10
-266.056847
 20
313.106063
 30
0.0
 11
-272.119025
 21
313.106063
 31
0.0
  0
LINE
  5
558
330
1F
100
AcDbEntity
  8
LC-001-100-D00-0
 62
     7
370
    50
100
AcDbLine
 10
-254.170096
 20
338.106063
 30
0.0
 11
-260.283347
 21
338.106064
 31
0.0
  0
LINE
  5
559
330
1F
100
AcDbEntity
  8
LC-001-100-D00-0
 62
     7
370
    50
100
AcDbLine
 10
-266.056862
 20
338.106064
 30
0.0
 11
-272.170096
 21
338.106063
 31
0.0
  0
LINE
  5
55A
330
1F
100
AcDbEntity
  8
LC-001-100-D00-0
 62
     7
370
    50
100
AcDbLine
 10
-260.283344
 20
313.106063
 30
0.0
 11
-266.056847
 21
313.106063
 31
0.0
  0
LINE
  5
55B
330
1F
100
AcDbEntity
  8
LC-001-100-D00-0
 62
     7
370
    50
100
AcDbLine
 10
-249.381276
 20
340.106063
 30
0.0
 11
-248.170096
 21
340.106063
 31
0.0
  0
LINE
  5
55C
330
1F
100
AcDbEntity
  8
LC-001-100-D00-0
 62
     7
370
    50
100
AcDbLine
 10
-248.170096
 20
340.106063
 30
0.0
 11
-248.170096
 21
338.106063
 31
0.0
  0
LINE
  5
55D
330
1F
100
AcDbEntity
  8
LC-001-100-D00-0
 62
     7
370
    50
100
AcDbLine
 10
-248.170096
 20
338.106063
 30
0.0
 11
-254.170096
 21
338.106063
 31
0.0
  0
LINE
  5
55E
330
1F
100
AcDbEntity
  8
LC-001-100-D00-0
 62
     7
370
    50
100
AcDbLine
 10
-254.221166
 20
313.106063
 30
0.0
 11
-260.283344
 21
313.106063
 31
0.0
  0
LINE
  5
55F
330
1F
100
AcDbEntity
  8
LC-001-100-D00-0
 62
     7
370
    50
100
AcDbLine
 10
-278.170096
 20
338.106063
 30
0.0
 11
-278.170096
 21
340.106063
 31
0.0
  0
LINE
  5
560
330
1F
100
AcDbEntity
  8
LC-001-100-D00-0
 62
     7
370
    50
100
AcDbLine
 10
-272.170096
 20
338.106063
 30
0.0
 11
-278.170096
 21
338.106063
 31
0.0
  0
LINE
  5
561
330
1F
100
AcDbEntity
  8
LC-001-100-D00-0
 62
     7
370
    50
100
AcDbLine
 10
-278.170096
 20
340.106063
 30
0.0
 11
-276.958915
 21
340.106063
 31
0.0
  0
LINE
  5
562
330
1F
100
AcDbEntity
  8
LC-001-100-D00-0
 62
     7
370
    50
100
AcDbLine
 10
-251.334415
 20
313.106063
 30
0.0
 11
-254.221166
 21
313.106063
 31
0.0
  0
LINE
  5
563
330
1F
100
AcDbEntity
  8
LC-001-100-D00-0
 62
     7
370
    50
100
AcDbLine
 10
-272.119025
 20
313.106063
 30
0.0
 11
-275.005776
 21
313.106063
 31
0.0
  0
LINE
  5
564
330
1F
100
AcDbEntity
  8
LC-001-100-D00-0
 62
     7
370
    50
100
AcDbLine
 10
-250.396593
 20
313.106063
 30
0.0
 11
-251.334415
 21
313.106063
 31
0.0
  0
LINE
  5
565
330
1F
100
AcDbEntity
  8
LC-001-100-D00-0
 62
     7
370
    50
100
AcDbLine
 10
-275.005776
 20
313.106063
 30
0.0
 11
-275.943598
 21
313.106063
 31
0.0
  0
LINE
  5
566
330
1F
100
AcDbEntity
  8
LC-001-100-D00-0
 62
     7
370
    50
100
AcDbLine
 10
-266.056847
 20
342.106063
 30
0.0
 11
-272.119025
 21
342.106063
 31
0.0
  0
LINE
  5
567
330
1F
100
AcDbEntity
  8
LC-001-100-D00-0
 62
     7
370
    50
100
AcDbLine
 10
-260.283344
 20
342.106063
 30
0.0
 11
-266.056847
 21
342.106063
 31
0.0
  0
LINE
  5
568
330
1F
100
AcDbEntity
  8
LC-001-100-D00-0
 62
     7
370
    50
100
AcDbLine
 10
-254.221166
 20
342.106063
 30
0.0
 11
-260.283344
 21
342.106063
 31
0.0
  0
LINE
  5
569
330
1F
100
AcDbEntity
  8
LC-001-100-D00-0
 62
     7
370
    50
100
AcDbLine
 10
-251.334415
 20
342.106063
 30
0.0
 11
-254.221166
 21
342.106063
 31
0.0
  0
LINE
  5
56A
330
1F
100
AcDbEntity
  8
LC-001-100-D00-0
 62
     7
370
    50
100
AcDbLine
 10
-272.119025
 20
342.106063
 30
0.0
 11
-275.005776
 21
342.106063
 31
0.0
  0
LINE
  5
56B
330
1F
100
AcDbEntity
  8
LC-001-100-D00-0
 62
     7
370
    50
100
AcDbLine
 10
-250.396593
 20
342.106063
 30
0.0
 11
-251.334415
 21
342.106063
 31
0.0
  0
LINE
  5
56C
330
1F
100
AcDbEntity
  8
LC-001-100-D00-0
 62
     7
370
    50
100
AcDbLine
 10
-275.005776
 20
342.106063
 30
0.0
 11
-275.943598
 21
342.106063
 31
0.0
  0
LINE
  5
56D
330
1F
100
AcDbEntity
  8
LC-001-100-D00-0
 62
     7
370
    50
100
AcDbLine
 10
433.943153
 20
313.106063
 30
0.0
 11
427.880975
 21
313.106063
 31
0.0
  0
LINE
  5
56E
330
1F
100
AcDbEntity
  8
LC-001-100-D00-0
 62
     7
370
    50
100
AcDbLine
 10
445.829904
 20
338.106063
 30
0.0
 11
439.716671
 21
338.106064
 31
0.0
  0
LINE
  5
56F
330
1F
100
AcDbEntity
  8
LC-001-100-D00-0
 62
     7
370
    50
100
AcDbLine
 10
433.943156
 20
338.106064
 30
0.0
 11
427.829904
 21
338.106063
 31
0.0
  0
LINE
  5
570
330
1F
100
AcDbEntity
  8
LC-001-100-D00-0
 62
     7
370
    50
100
AcDbLine
 10
439.716656
 20
313.106063
 30
0.0
 11
433.943153
 21
313.106063
 31
0.0
  0
LINE
  5
571
330
1F
100
AcDbEntity
  8
LC-001-100-D00-0
 62
     7
370
    50
100
AcDbLine
 10
450.618724
 20
340.106063
 30
0.0
 11
451.829904
 21
340.106063
 31
0.0
  0
LINE
  5
572
330
1F
100
AcDbEntity
  8
LC-001-100-D00-0
 62
     7
370
    50
100
AcDbLine
 10
451.829904
 20
340.106063
 30
0.0
 11
451.829904
 21
338.106063
 31
0.0
  0
LINE
  5
573
330
1F
100
AcDbEntity
  8
LC-001-100-D00-0
 62
     7
370
    50
100
AcDbLine
 10
451.829904
 20
338.106063
 30
0.0
 11
445.829904
 21
338.106063
 31
0.0
  0
LINE
  5
574
330
1F
100
AcDbEntity
  8
LC-001-100-D00-0
 62
     7
370
    50
100
AcDbLine
 10
445.778834
 20
313.106063
 30
0.0
 11
439.716656
 21
313.106063
 31
0.0
  0
LINE
  5
575
330
1F
100
AcDbEntity
  8
LC-001-100-D00-0
 62
     7
370
    50
100
AcDbLine
 10
421.829904
 20
338.106063
 30
0.0
 11
421.829904
 21
340.106063
 31
0.0
  0
LINE
  5
576
330
1F
100
AcDbEntity
  8
LC-001-100-D00-0
 62
     7
370
    50
100
AcDbLine
 10
427.829904
 20
338.106063
 30
0.0
 11
421.829904
 21
338.106063
 31
0.0
  0
LINE
  5
577
330
1F
100
AcDbEntity
  8
LC-001-100-D00-0
 62
     7
370
    50
100
AcDbLine
 10
421.829904
 20
340.106063
 30
0.0
 11
423.041085
 21
340.106063
 31
0.0
  0
LINE
  5
578
330
1F
100
AcDbEntity
  8
LC-001-100-D00-0
 62
     7
370
    50
100
AcDbLine
 10
448.665585
 20
313.106063
 30
0.0
 11
445.778834
 21
313.106063
 31
0.0
  0
LINE
  5
579
330
1F
100
AcDbEntity
  8
LC-001-100-D00-0
 62
     7
370
    50
100
AcDbLine
 10
427.880975
 20
313.106063
 30
0.0
 11
424.994224
 21
313.106063
 31
0.0
  0
LINE
  5
57A
330
1F
100
AcDbEntity
  8
LC-001-100-D00-0
 62
     7
370
    50
100
AcDbLine
 10
449.603407
 20
313.106063
 30
0.0
 11
448.665585
 21
313.106063
 31
0.0
  0
LINE
  5
57B
330
1F
100
AcDbEntity
  8
LC-001-100-D00-0
 62
     7
370
    50
100
AcDbLine
 10
424.994224
 20
313.106063
 30
0.0
 11
424.056402
 21
313.106063
 31
0.0
  0
LINE
  5
57C
330
1F
100
AcDbEntity
  8
LC-001-100-D00-0
 62
     7
370
    50
100
AcDbLine
 10
426.829904
 20
259.106063
 30
0.0
 11
446.829904
 21
259.106063
 31
0.0
  0
LINE
  5
57D
330
1F
100
AcDbEntity
  8
LC-001-100-D00-0
 62
     7
370
    50
100
AcDbLine
 10
426.829904
 20
255.606063
 30
0.0
 11
446.829904
 21
255.606063
 31
0.0
  0
LINE
  5
57E
330
1F
100
AcDbEntity
  8
LC-001-100-D00-0
 62
     7
370
    50
100
AcDbLine
 10
427.040134
 20
245.106063
 30
0.0
 11
446.829904
 21
245.106063
 31
0.0
  0
LINE
  5
57F
330
1F
100
AcDbEntity
  8
LC-001-100-D00-0
 62
     7
370
    50
100
AcDbLine
 10
426.829904
 20
245.106063
 30
0.0
 11
427.040134
 21
245.106063
 31
0.0
  0
LINE
  5
580
330
1F
100
AcDbEntity
  8
LC-001-100-D00-0
 62
     7
370
    50
100
AcDbLine
 10
428.019111
 20
244.106063
 30
0.0
 11
427.829904
 21
244.106063
 31
0.0
  0
LINE
  5
581
330
1F
100
AcDbEntity
  8
LC-001-100-D00-0
 62
     7
370
    50
100
AcDbLine
 10
445.829904
 20
244.106063
 30
0.0
 11
428.019111
 21
244.106063
 31
0.0
  0
LINE
  5
582
330
1F
100
AcDbEntity
  8
LC-001-100-D00-0
 62
     7
370
    50
100
AcDbLine
 10
-273.170096
 20
259.106063
 30
0.0
 11
-253.170096
 21
259.106063
 31
0.0
  0
LINE
  5
583
330
1F
100
AcDbEntity
  8
LC-001-100-D00-0
 62
     7
370
    50
100
AcDbLine
 10
-272.959866
 20
245.106063
 30
0.0
 11
-253.170096
 21
245.106063
 31
0.0
  0
LINE
  5
584
330
1F
100
AcDbEntity
  8
LC-001-100-D00-0
 62
     7
370
    50
100
AcDbLine
 10
-273.170096
 20
245.106063
 30
0.0
 11
-272.959866
 21
245.106063
 31
0.0
  0
LINE
  5
585
330
1F
100
AcDbEntity
  8
LC-001-100-D00-0
 62
     7
370
    50
100
AcDbLine
 10
-273.170096
 20
255.606063
 30
0.0
 11
-253.170096
 21
255.606063
 31
0.0
  0
LINE
  5
586
330
1F
100
AcDbEntity
  8
LC-001-100-D00-0
 62
     7
370
    50
100
AcDbLine
 10
-271.980889
 20
244.106063
 30
0.0
 11
-272.170096
 21
244.106063
 31
0.0
  0
LINE
  5
587
330
1F
100
AcDbEntity
  8
LC-001-100-D00-0
 62
     7
370
    50
100
AcDbLine
 10
-254.170096
 20
244.106063
 30
0.0
 11
-271.980889
 21
244.106063
 31
0.0
  0
DIMENSION
  5
588
330
1F
100
AcDbEntity
  8
LC-001-100-D00-0
 62
     7
370
    25
100
AcDbDimension
  2
*D26
 10
-86.614426
 20
329.106063
 30
0.0
 11
-141.614426
 21
230.702513
 31
0.0
 70
   160
  1
50
 71
     5
 42
50.4
 53
90.0
  3
LC-DIM-L-0100-02-02
100
AcDbAlignedDimension
 13
57.829904
 23
278.706063
 33
0.0
 14
47.337025
 24
329.106063
 34
0.0
 50
90.0
100
AcDbRotatedDimension
  0
DIMENSION
  5
596
330
1F
100
AcDbEntity
  8
LC-001-100-D00-0
 62
     7
370
    25
100
AcDbDimension
  2
*D27
 10
160.829904
 20
186.152513
 30
0.0
 11
81.054288
 21
241.152513
 31
0.0
 70
   160
  1
148
 71
     5
 42
148.0
  3
LC-DIM-L-0100-02-02
100
AcDbAlignedDimension
 13
12.829904
 23
279.606063
 33
0.0
 14
160.829904
 24
319.856063
 34
0.0
100
AcDbRotatedDimension
  0
DIMENSION
  5
5A3
330
1F
100
AcDbEntity
  8
LC-001-100-D00-0
 62
     7
370
    25
100
AcDbDimension
  2
*D28
 10
296.329701
 20
95.567513
 30
0.0
 11
150.701293
 21
150.567513
 31
0.0
 70
   160
  1
284
 71
     5
 42
283.499797
  3
LC-DIM-L-0100-02-02
100
AcDbAlignedDimension
 13
12.829904
 23
279.606063
 33
0.0
 14
296.329701
 24
269.043885
 34
0.0
100
AcDbRotatedDimension
  0
DIMENSION
  5
5B0
330
1F
100
AcDbEntity
  8
LC-001-100-D00-0
 62
     7
370
    25
100
AcDbDimension
  2
*D29
 10
390.59653
 20
268.106063
 30
0.0
 11
335.59653
 21
255.947513
 31
0.0
 70
   160
  1
DN50
 71
     5
 42
50.0
 53
90.0
  3
LC-DIM-L-0100-02-02
100
AcDbAlignedDimension
 13
292.829701
 23
318.106063
 33
0.0
 14
292.829701
 24
268.106063
 34
0.0
 50
90.0
100
AcDbRotatedDimension
  0
DIMENSION
  5
5BE
330
1F
100
AcDbEntity
  8
LC-001-100-D00-0
 62
     7
370
    25
100
AcDbDimension
  2
*D30
 10
573.742357
 20
293.106063
 30
0.0
 11
518.742357
 21
186.152513
 31
0.0
 70
   160
  1
77,5
 71
     5
 42
77.5
 53
90.0
  3
LC-DIM-L-0100-02-02
100
AcDbAlignedDimension
 13
536.829904
 23
370.606063
 33
0.0
 14
302.829701
 24
293.106063
 34
0.0
 50
90.0
100
AcDbRotatedDimension
  0
DIMENSION
  5
5CC
330
1F
100
AcDbEntity
  8
LC-001-100-D00-0
 62
     7
370
    25
100
AcDbDimension
  2
*D31
 10
-380.564257
 20
260.606063
 30
0.0
 11
-435.564257
 21
275.252513
 31
0.0
 70
   160
  1
110
 71
     5
 42
110.0
 53
90.0
  3
LC-DIM-L-0100-02-02
100
AcDbAlignedDimension
 13
-363.170096
 23
370.606063
 33
0.0
 14
32.812024
 24
260.606063
 34
0.0
 50
90.0
100
AcDbRotatedDimension
  0
DIMENSION
  5
5DB
330
1F
100
AcDbEntity
  8
LC-001-100-D00-0
 62
     7
370
    25
100
AcDbDimension
  2
*D32
 10
741.411071
 20
236.106063
 30
0.0
 11
686.411071
 21
220.307513
 31
0.0
 70
   160
  1
110-129,5
 71
     5
 42
134.5
 53
90.0
  3
LC-DIM-L-0100-02-02
100
AcDbAlignedDimension
 13
536.829904
 23
370.606063
 33
0.0
 14
446.329904
 24
236.106063
 34
0.0
 50
90.0
100
AcDbRotatedDimension
  0
DIMENSION
  5
5E9
330
1F
100
AcDbEntity
  8
LC-001-100-D00-0
 62
     7
370
    25
100
AcDbDimension
  2
*D33
 10
-363.170096
 20
478.697513
 30
0.0
 11
78.47477
 21
533.697513
 31
0.0
 70
   160
  1
900
 71
     5
 42
900.0
  3
LC-DIM-L-0100-02-02
100
AcDbAlignedDimension
 13
536.829904
 23
370.606063
 33
0.0
 14
-363.170096
 24
370.606063
 34
0.0
100
AcDbRotatedDimension
  0
DIMENSION
  5
5F6
330
1F
100
AcDbEntity
  8
LC-001-100-D00-0
 62
     7
370
    25
100
AcDbDimension
  2
*D34
 10
486.829904
 20
399.488019
 30
0.0
 11
81.847838
 21
454.488019
 31
0.0
 70
   160
  1
800
 71
     5
 42
800.0
  3
LC-DIM-L-0100-02-02
100
AcDbAlignedDimension
 13
-313.170096
 23
367.606063
 33
0.0
 14
486.829904
 24
367.606063
 34
0.0
100
AcDbRotatedDimension
  0
INSERT
  5
61C
330
1F
100
AcDbEntity
  8
LC-001-100-D00-0
 62
     7
370
    25
100
AcDbBlockReference
  2
KLON25
 10
0.0
 20
0.0
 30
0.0
  0
INSERT
  5
636
330
1F
100
AcDbEntity
  8
LC-001-100-D00-0
 62
     7
370
    25
100
AcDbBlockReference
  2
KLON26
 10
0.0
 20
0.0
 30
0.0
  0
LINE
  5
637
330
1F
100
AcDbEntity
  8
LC-001-100-D00-0
 62
     7
370
    50
100
AcDbLine
 10
31.856399
 20
339.762627
 30
0.0
 11
34.173341
 21
342.079569
 31
0.0
  0
INSERT
  5
63E
330
1F
100
AcDbEntity
  8
LC-001-100-D00-0
 62
     7
370
    25
100
AcDbBlockReference
  2
KLON27
 10
0.0
 20
0.0
 30
0.0
  0
INSERT
  5
646
330
1F
100
AcDbEntity
  8
LC-001-100-D00-0
 62
     7
370
    25
100
AcDbBlockReference
  2
KLON28
 10
0.0
 20
0.0
 30
0.0
  0
INSERT
  5
655
330
1F
100
AcDbEntity
  8
LC-001-100-D00-0
 62
     7
370
    25
100
AcDbBlockReference
  2
KLON29
 10
0.0
 20
0.0
 30
0.0
  0
INSERT
  5
65D
330
1F
100
AcDbEntity
  8
LC-001-100-D00-0
 62
     7
370
    25
100
AcDbBlockReference
  2
KLON30
 10
0.0
 20
0.0
 30
0.0
  0
INSERT
  5
663
330
1F
100
AcDbEntity
  8
LC-001-100-D00-0
 62
     7
370
    25
100
AcDbBlockReference
  2
KLON31
 10
0.0
 20
0.0
 30
0.0
  0
LINE
  5
664
330
1F
100
AcDbEntity
  8
LC-001-100-D00-0
 62
     7
370
    50
100
AcDbLine
 10
143.579904
 20
339.232935
 30
0.0
 11
147.953033
 21
343.606063
 31
0.0
  0
LINE
  5
665
330
1F
100
AcDbEntity
  8
LC-001-100-D00-0
 62
     7
370
    25
100
AcDbLine
 10
157.829904
 20
331.032294
 30
0.0
 11
160.829904
 21
334.032295
 31
0.0
  0
INSERT
  5
66B
330
1F
100
AcDbEntity
  8
LC-001-100-D00-0
 62
     7
370
    25
100
AcDbBlockReference
  2
KLON32
 10
0.0
 20
0.0
 30
0.0
  0
INSERT
  5
679
330
1F
100
AcDbEntity
  8
LC-001-100-D00-0
 62
     7
370
    25
100
AcDbBlockReference
  2
KLON33
 10
0.0
 20
0.0
 30
0.0
  0
INSERT
  5
67F
330
1F
100
AcDbEntity
  8
LC-001-100-D00-0
 62
     7
370
    25
100
AcDbBlockReference
  2
KLON34
 10
0.0
 20
0.0
 30
0.0
  0
LINE
  5
680
330
1F
100
AcDbEntity
  8
LC-001-100-D00-0
 62
     7
370
    50
100
AcDbLine
 10
181.629904
 20
354.832296
 30
0.0
 11
183.429904
 21
356.632296
 31
0.0
  0
INSERT
  5
687
330
1F
100
AcDbEntity
  8
LC-001-100-D00-0
 62
     7
370
    25
100
AcDbBlockReference
  2
KLON35
 10
0.0
 20
0.0
 30
0.0
  0
LINE
  5
688
330
1F
100
AcDbEntity
  8
LC-001-100-D00-0
 62
     7
370
    25
100
AcDbLine
 10
190.729904
 20
363.932297
 30
0.0
 11
197.40367
 21
370.606063
 31
0.0
  0
LINE
  5
689
330
1F
100
AcDbEntity
  8
LC-001-100-D00-0
 62
     7
370
    50
100
AcDbLine
 10
-18.372081
 20
356.886066
 30
0.0
 11
-16.61109
 21
358.647057
 31
0.0
  0
INSERT
  5
68F
330
1F
100
AcDbEntity
  8
LC-001-100-D00-0
 62
     7
370
    25
100
AcDbBlockReference
  2
KLON36
 10
0.0
 20
0.0
 30
0.0
  0
LINE
  5
690
330
1F
100
AcDbEntity
  8
LC-001-100-D00-0
 62
     7
370
    25
100
AcDbLine
 10
-9.270096
 20
365.988052
 30
0.0
 11
-4.652085
 21
370.606063
 31
0.0
  0
LINE
  5
691
330
1F
100
AcDbEntity
  8
LC-001-100-D00-0
 62
     7
370
    50
100
AcDbLine
 10
451.629904
 20
355.424622
 30
0.0
 11
453.429904
 21
357.224623
 31
0.0
  0
INSERT
  5
697
330
1F
100
AcDbEntity
  8
LC-001-100-D00-0
 62
     7
370
    25
100
AcDbBlockReference
  2
KLON37
 10
0.0
 20
0.0
 30
0.0
  0
LINE
  5
698
330
1F
100
AcDbEntity
  8
LC-001-100-D00-0
 62
     7
370
    25
100
AcDbLine
 10
460.729904
 20
364.524623
 30
0.0
 11
466.811344
 21
370.606063
 31
0.0
  0
LINE
  5
699
330
1F
100
AcDbEntity
  8
LC-001-100-D00-0
 62
     7
370
    50
100
AcDbLine
 10
316.629904
 20
355.128459
 30
0.0
 11
318.429904
 21
356.928459
 31
0.0
  0
INSERT
  5
6A0
330
1F
100
AcDbEntity
  8
LC-001-100-D00-0
 62
     7
370
    25
100
AcDbBlockReference
  2
KLON38
 10
0.0
 20
0.0
 30
0.0
  0
LINE
  5
6A1
330
1F
100
AcDbEntity
  8
LC-001-100-D00-0
 62
     7
370
    25
100
AcDbLine
 10
325.729904
 20
364.22846
 30
0.0
 11
332.107507
 21
370.606063
 31
0.0
  0
LINE
  5
6A2
330
1F
100
AcDbEntity
  8
LC-001-100-D00-0
 62
     7
370
    50
100
AcDbLine
 10
-288.370096
 20
356.295725
 30
0.0
 11
-286.570096
 21
358.095726
 31
0.0
  0
INSERT
  5
6A8
330
1F
100
AcDbEntity
  8
LC-001-100-D00-0
 62
     7
370
    25
100
AcDbBlockReference
  2
KLON39
 10
0.0
 20
0.0
 30
0.0
  0
LINE
  5
6A9
330
1F
100
AcDbEntity
  8
LC-001-100-D00-0
 62
     7
370
    25
100
AcDbLine
 10
-279.270096
 20
365.395726
 30
0.0
 11
-274.059759
 21
370.606063
 31
0.0
  0
LINE
  5
6AA
330
1F
100
AcDbEntity
  8
LC-001-100-D00-0
 62
     7
370
    50
100
AcDbLine
 10
-153.370096
 20
356.591889
 30
0.0
 11
-151.570096
 21
358.391889
 31
0.0
  0
INSERT
  5
6B0
330
1F
100
AcDbEntity
  8
LC-001-100-D00-0
 62
     7
370
    25
100
AcDbBlockReference
  2
KLON40
 10
0.0
 20
0.0
 30
0.0
  0
LINE
  5
6B1
330
1F
100
AcDbEntity
  8
LC-001-100-D00-0
 62
     7
370
    25
100
AcDbLine
 10
-144.270096
 20
365.691889
 30
0.0
 11
-139.355922
 21
370.606063
 31
0.0
  0
LINE
  5
6B2
330
1F
100
AcDbEntity
  8
LC-001-100-D00-0
  6
DASHDOT
 62
     7
370
    25
100
AcDbLine
 10
-283.170096
 20
342.606063
 30
0.0
 11
-283.170096
 21
376.606063
 31
0.0
  0
LINE
  5
6B3
330
1F
100
AcDbEntity
  8
LC-001-100-D00-0
  6
DASHDOT
 62
     7
370
    25
100
AcDbLine
 10
-263.170096
 20
249.106063
 30
0.0
 11
-263.170096
 21
373.106063
 31
0.0
  0
LINE
  5
6B4
330
1F
100
AcDbEntity
  8
LC-001-100-D00-0
  6
DASHDOT
 62
     7
370
    25
100
AcDbLine
 10
-148.170096
 20
342.606063
 30
0.0
 11
-148.170096
 21
376.606063
 31
0.0
  0
LINE
  5
6B5
330
1F
100
AcDbEntity
  8
LC-001-100-D00-0
  6
DASHDOT
 62
     7
370
    25
100
AcDbLine
 10
-13.170096
 20
342.606063
 30
0.0
 11
-13.170096
 21
376.606063
 31
0.0
  0
LINE
  5
6B6
330
1F
100
AcDbEntity
  8
LC-001-100-D00-0
  6
DASHDOT
 62
     7
370
    25
100
AcDbLine
 10
86.829904
 20
370.606063
 30
0.0
 11
86.829904
 21
258.106063
 31
0.0
  0
LINE
  5
6B7
330
1F
100
AcDbEntity
  8
LC-001-100-D00-0
  6
DASHDOT
 62
     7
370
    25
100
AcDbLine
 10
302.829701
 20
293.106063
 30
0.0
 11
199.804686
 21
293.106063
 31
0.0
  0
LINE
  5
6B8
330
1F
100
AcDbEntity
  8
LC-001-100-D00-0
  6
DASHDOT
 62
     7
370
    25
100
AcDbLine
 10
186.829904
 20
342.606063
 30
0.0
 11
186.829904
 21
376.606063
 31
0.0
  0
LINE
  5
6B9
330
1F
100
AcDbEntity
  8
LC-001-100-D00-0
  6
DASHDOT
 62
     7
370
    25
100
AcDbLine
 10
321.829904
 20
342.606063
 30
0.0
 11
321.829904
 21
376.606063
 31
0.0
  0
LINE
  5
6BA
330
1F
100
AcDbEntity
  8
LC-001-100-D00-0
  6
DASHDOT
 62
     7
370
    25
100
AcDbLine
 10
436.829904
 20
249.106063
 30
0.0
 11
436.829904
 21
373.106063
 31
0.0
  0
LINE
  5
6BB
330
1F
100
AcDbEntity
  8
LC-001-100-D00-0
  6
DASHDOT
 62
     7
370
    25
100
AcDbLine
 10
456.829904
 20
342.606063
 30
0.0
 11
456.829904
 21
376.606063
 31
0.0
  0
ENDSEC
  0
SECTION
  2
OBJECTS
  0
DICTIONARY
  5
C
330
0
100
AcDbDictionary
281
     1
  3
ACAD_GROUP
350
D
  3
ACAD_LAYOUT
350
1A
  3
ACAD_MLINESTYLE
350
17
  3
ACAD_PLOTSETTINGS
350
19
  3
ACAD_PLOTSTYLENAME
350
E
  0
DICTIONARY
  5
D
102
{ACAD_REACTORS
330
C
102
}
330
C
100
AcDbDictionary
281
     1
  0
DICTIONARY
  5
1A
102
{ACAD_REACTORS
330
C
102
}
330
C
100
AcDbDictionary
281
     1
  3
Layout1
350
1E
  3
Layout2
350
26
  3
Model
350
22
  0
DICTIONARY
  5
17
102
{ACAD_REACTORS
330
C
102
}
330
C
100
AcDbDictionary
281
     1
  3
Standard
350
18
  0
DICTIONARY
  5
19
102
{ACAD_REACTORS
330
C
102
}
330
C
100
AcDbDictionary
281
     1
  0
ACDBDICTIONARYWDFLT
  5
E
102
{ACAD_REACTORS
330
C
102
}
330
C
100
AcDbDictionary
281
     1
  3
Normal
350
F
100
AcDbDictionaryWithDefault
340
F
  0
LAYOUT
  5
1E
102
{ACAD_REACTORS
330
1A
102
}
330
1A
100
AcDbPlotSettings
  1

  2

  4

  6

 40
0.0
 41
0.0
 42
0.0
 43
0.0
 44
0.0
 45
0.0
 46
0.0
 47
0.0
 48
0.0
 49
0.0
140
0.0
141
0.0
142
1.0
143
1.0
 70
   688
 72
     0
 73
     0
 74
     5
  7

 75
    16
147
1.0
148
0.0
149
0.0
100
AcDbLayout
  1
Layout1
 70
     1
 71
     1
 10
-852.867371
 20
-615.747487
 11
1247.132629
 21
869.252513
 12
0.0
 22
0.0
 32
0.0
 14
-852.867371
 24
-615.747487
 34
0.0
 15
1247.132629
 25
869.252513
 35
0.0
146
0.0
 13
0.0
 23
0.0
 33
0.0
 16
1.0
 26
0.0
 36
0.0
 17
0.0
 27
1.0
 37
0.0
 76
     0
330
1B
  0
LAYOUT
  5
26
102
{ACAD_REACTORS
330
1A
102
}
330
1A
100
AcDbPlotSettings
  1

  2

  4

  6

 40
0.0
 41
0.0
 42
0.0
 43
0.0
 44
0.0
 45
0.0
 46
0.0
 47
0.0
 48
0.0
 49
0.0
140
0.0
141
0.0
142
1.0
143
1.0
 70
   688
 72
     0
 73
     0
 74
     5
  7

 75
    16
147
1.0
148
0.0
149
0.0
100
AcDbLayout
  1
Layout2
 70
     1
 71
     2
 10
0.0
 20
0.0
 11
0.0
 21
0.0
 12
0.0
 22
0.0
 32
0.0
 14
0.0
 24
0.0
 34
0.0
 15
0.0
 25
0.0
 35
0.0
146
0.0
 13
0.0
 23
0.0
 33
0.0
 16
1.0
 26
0.0
 36
0.0
 17
0.0
 27
1.0
 37
0.0
 76
     0
330
23
  0
LAYOUT
  5
22
102
{ACAD_REACTORS
330
1A
102
}
330
1A
100
AcDbPlotSettings
  1

  2

  4

  6

 40
0.0
 41
0.0
 42
0.0
 43
0.0
 44
0.0
 45
0.0
 46
0.0
 47
0.0
 48
0.0
 49
0.0
140
0.0
141
0.0
142
1.0
143
1.0
 70
  1776
 72
     0
 73
     0
 74
     0
  7

 75
     0
147
1.0
148
0.0
149
0.0
100
AcDbLayout
  1
Model
 70
     1
 71
     0
 10
-852.867371
 20
-615.747487
 11
1247.132629
 21
869.252513
 12
0.0
 22
0.0
 32
0.0
 14
-852.867371
 24
-615.747487
 34
0.0
 15
1247.132629
 25
869.252513
 35
0.0
146
0.0
 13
0.0
 23
0.0
 33
0.0
 16
1.0
 26
0.0
 36
0.0
 17
0.0
 27
1.0
 37
0.0
 76
     0
330
1F
  0
MLINESTYLE
  5
18
102
{ACAD_REACTORS
330
17
102
}
330
17
100
AcDbMlineStyle
  2
Standard
 70
     0
  3

 62
   256
 51
90.0
 52
90.0
 71
     2
 49
0.5
 62
   256
  6
BYLAYER
 49
-0.5
 62
   256
  6
BYLAYER
  0
ACDBPLACEHOLDER
  5
F
102
{ACAD_REACTORS
330
E
102
}
330
E
  0
ENDSEC
  0
EOF
