  0
SECTION
  2
HEADER
  9
$ACADVER
  1
AC1015
  9
$ACADMAINTVER
 70
     6
  9
$DWGCODEPAGE
  3
ANSI_1252
  9
$INSBASE
 10
70.873179
 20
228.244
 30
0.0
  9
$EXTMIN
 10
70.873179
 20
228.244
 30
0.0
  9
$EXTMAX
 10
1752.873179
 20
1416.244
 30
0.0
  9
$LIMMIN
 10
70.873179
 20
228.244
  9
$LIMMAX
 10
1752.873179
 20
1416.244
  9
$ORTHOMODE
 70
     0
  9
$REGENMODE
 70
     1
  9
$FILLMODE
 70
     1
  9
$QTEXTMODE
 70
     0
  9
$MIRRTEXT
 70
     1
  9
$LTSCALE
 40
2.0
  9
$ATTMODE
 70
     1
  9
$TEXTSIZE
 40
2.5
  9
$TRACEWID
 40
1.0
  9
$TEXTSTYLE
  7
Standard
  9
$CLAYER
  8
0
  9
$CELTYPE
  6
ByLayer
  9
$CECOLOR
 62
     7
  9
$CELTSCALE
 40
1.0
  9
$DISPSILH
 70
     0
  9
$DIMSCALE
 40
2.0
  9
$DIMASZ
 40
3.5
  9
$DIMEXO
 40
0.625
  9
$DIMDLI
 40
3.75
  9
$DIMRND
 40
0.0
  9
$DIMDLE
 40
0.0
  9
$DIMEXE
 40
1.25
  9
$DIMTP
 40
0.0
  9
$DIMTM
 40
0.0
  9
$DIMTXT
 40
3.5
  9
$DIMCEN
 40
2.5
  9
$DIMTSZ
 40
0.0
  9
$DIMTOL
 70
     0
  9
$DIMLIM
 70
     0
  9
$DIMTIH
 70
     0
  9
$DIMTOH
 70
     0
  9
$DIMSE1
 70
     0
  9
$DIMSE2
 70
     0
  9
$DIMTAD
 70
     1
  9
$DIMZIN
 70
     8
  9
$DIMBLK
  1

  9
$DIMASO
 70
     1
  9
$DIMSHO
 70
     1
  9
$DIMPOST
  1

  9
$DIMAPOST
  1

  9
$DIMALT
 70
     0
  9
$DIMALTD
 70
     3
  9
$DIMALTF
 40
0.03937
  9
$DIMLFAC
 40
1.0
  9
$DIMTOFL
 70
     1
  9
$DIMTVP
 40
0.0
  9
$DIMTIX
 70
     0
  9
$DIMSOXD
 70
     0
  9
$DIMSAH
 70
     0
  9
$DIMBLK1
  1

  9
$DIMBLK2
  1

  9
$DIMSTYLE
  2
ISO-25
  9
$DIMCLRD
 70
     0
  9
$DIMCLRE
 70
     0
  9
$DIMCLRT
 70
     0
  9
$DIMTFAC
 40
1.0
  9
$DIMGAP
 40
0.625
  9
$DIMJUST
 70
     0
  9
$DIMSD1
 70
     0
  9
$DIMSD2
 70
     0
  9
$DIMTOLJ
 70
     0
  9
$DIMTZIN
 70
     8
  9
$DIMALTZ
 70
     0
  9
$DIMALTTZ
 70
     0
  9
$DIMUPT
 70
     0
  9
$DIMDEC
 70
     2
  9
$DIMTDEC
 70
     2
  9
$DIMALTU
 70
     2
  9
$DIMALTTD
 70
     3
  9
$DIMTXSTY
  7
Standard
  9
$DIMAUNIT
 70
     0
  9
$DIMADEC
 70
     0
  9
$DIMALTRND
 40
0.0
  9
$DIMAZIN
 70
     0
  9
$DIMDSEP
 70
    44
  9
$DIMATFIT
 70
     3
  9
$DIMFRAC
 70
     0
  9
$DIMLDRBLK
  1

  9
$DIMLUNIT
 70
     2
  9
$DIMLWD
 70
    -2
  9
$DIMLWE
 70
    -2
  9
$DIMTMOVE
 70
     0
  9
$LUNITS
 70
     2
  9
$LUPREC
 70
     4
  9
$SKETCHINC
 40
1.0
  9
$FILLETRAD
 40
10.0
  9
$AUNITS
 70
     0
  9
$AUPREC
 70
     0
  9
$MENU
  1
.
  9
$ELEVATION
 40
0.0
  9
$PELEVATION
 40
0.0
  9
$THICKNESS
 40
0.0
  9
$LIMCHECK
 70
     0
  9
$CHAMFERA
 40
10.0
  9
$CHAMFERB
 40
10.0
  9
$CHAMFERC
 40
20.0
  9
$CHAMFERD
 40
0.0
  9
$SKPOLY
 70
     0
  9
$TDCREATE
 40
2457029.29103228
  9
$TDUCREATE
 40
2457029.249365613
  9
$TDUPDATE
 40
2457029.291032292
  9
$TDUUPDATE
 40
2457029.249365625
  9
$TDINDWG
 40
0.0000000116
  9
$TDUSRTIMER
 40
0.0000000116
  9
$USRTIMER
 70
     1
  9
$ANGBASE
 50
0.0
  9
$ANGDIR
 70
     0
  9
$PDMODE
 70
     0
  9
$PDSIZE
 40
0.0
  9
$PLINEWID
 40
0.0
  9
$SPLFRAME
 70
     0
  9
$SPLINETYPE
 70
     6
  9
$SPLINESEGS
 70
     8
  9
$HANDSEED
  5
243
  9
$SURFTAB1
 70
     6
  9
$SURFTAB2
 70
     6
  9
$SURFTYPE
 70
     6
  9
$SURFU
 70
     6
  9
$SURFV
 70
     6
  9
$UCSBASE
  2

  9
$UCSNAME
  2

  9
$UCSORG
 10
0.0
 20
0.0
 30
0.0
  9
$UCSXDIR
 10
1.0
 20
0.0
 30
0.0
  9
$UCSYDIR
 10
0.0
 20
1.0
 30
0.0
  9
$UCSORTHOREF
  2

  9
$UCSORTHOVIEW
 70
     0
  9
$UCSORGTOP
 10
0.0
 20
0.0
 30
0.0
  9
$UCSORGBOTTOM
 10
0.0
 20
0.0
 30
0.0
  9
$UCSORGLEFT
 10
0.0
 20
0.0
 30
0.0
  9
$UCSORGRIGHT
 10
0.0
 20
0.0
 30
0.0
  9
$UCSORGFRONT
 10
0.0
 20
0.0
 30
0.0
  9
$UCSORGBACK
 10
0.0
 20
0.0
 30
0.0
  9
$PUCSBASE
  2

  9
$PUCSNAME
  2

  9
$PUCSORG
 10
0.0
 20
0.0
 30
0.0
  9
$PUCSXDIR
 10
1.0
 20
0.0
 30
0.0
  9
$PUCSYDIR
 10
0.0
 20
1.0
 30
0.0
  9
$PUCSORTHOREF
  2

  9
$PUCSORTHOVIEW
 70
     0
  9
$PUCSORGTOP
 10
0.0
 20
0.0
 30
0.0
  9
$PUCSORGBOTTOM
 10
0.0
 20
0.0
 30
0.0
  9
$PUCSORGLEFT
 10
0.0
 20
0.0
 30
0.0
  9
$PUCSORGRIGHT
 10
0.0
 20
0.0
 30
0.0
  9
$PUCSORGFRONT
 10
0.0
 20
0.0
 30
0.0
  9
$PUCSORGBACK
 10
0.0
 20
0.0
 30
0.0
  9
$USERI1
 70
     0
  9
$USERI2
 70
     0
  9
$USERI3
 70
     0
  9
$USERI4
 70
     0
  9
$USERI5
 70
     0
  9
$USERR1
 40
0.0
  9
$USERR2
 40
0.0
  9
$USERR3
 40
0.0
  9
$USERR4
 40
0.0
  9
$USERR5
 40
0.0
  9
$WORLDVIEW
 70
     1
  9
$SHADEDGE
 70
     3
  9
$SHADEDIF
 70
    70
  9
$TILEMODE
 70
     1
  9
$MAXACTVP
 70
    64
  9
$PINSBASE
 10
0.0
 20
0.0
 30
0.0
  9
$PLIMCHECK
 70
     0
  9
$PEXTMIN
 10
70.873179
 20
228.244
 30
0.0
  9
$PEXTMAX
 10
1752.873179
 20
1416.244
 30
0.0
  9
$PLIMMIN
 10
70.873179
 20
228.244
  9
$PLIMMAX
 10
1752.873179
 20
1416.244
  9
$UNITMODE
 70
     0
  9
$VISRETAIN
 70
     1
  9
$PLINEGEN
 70
     0
  9
$PSLTSCALE
 70
     1
  9
$TREEDEPTH
 70
  3020
  9
$CMLSTYLE
  2
Standard
  9
$CMLJUST
 70
     0
  9
$CMLSCALE
 40
20.0
  9
$PROXYGRAPHICS
 70
     1
  9
$MEASUREMENT
 70
     1
  9
$CELWEIGHT
370
    -1
  9
$ENDCAPS
280
     0
  9
$JOINSTYLE
280
     0
  9
$LWDISPLAY
290
     0
  9
$INSUNITS
 70
     4
  9
$HYPERLINKBASE
  1

  9
$STYLESHEET
  1

  9
$XEDIT
290
     1
  9
$CEPSNTYPE
380
     0
  9
$PSTYLEMODE
290
     1
  9
$FINGERPRINTGUID
  2
{FAEB1C30-E019-11D5-929B-00C0DF256EC4}
  9
$VERSIONGUID
  2
{FAEB1C32-E019-11D5-929B-00C0DF256EC4}
  9
$EXTNAMES
290
     1
  9
$PSVPSCALE
 40
0.0
  9
$OLESTARTUP
290
     0
  0
ENDSEC
  0
SECTION
  2
CLASSES
  0
CLASS
  1
ACDBDICTIONARYWDFLT
  2
AcDbDictionaryWithDefault
  3
ObjectDBX Classes
 90
        0
280
     0
281
     0
  0
CLASS
  1
ACDBPLACEHOLDER
  2
AcDbPlaceHolder
  3
ObjectDBX Classes
 90
        0
280
     0
281
     0
  0
CLASS
  1
LAYOUT
  2
AcDbLayout
  3
ObjectDBX Classes
 90
        0
280
     0
281
     0
  0
ENDSEC
  0
SECTION
  2
TABLES
  0
TABLE
  2
VPORT
  5
8
330
0
100
AcDbSymbolTable
 70
     2
  0
VPORT
  5
29
330
8
100
AcDbSymbolTableRecord
100
AcDbViewportTableRecord
  2
*ACTIVE
 70
     0
 10
0.0
 20
0.0
 11
1.0
 21
1.0
 12
911.873179
 22
822.244
 13
0.0
 23
0.0
 14
1.0
 24
1.0
 15
0.0
 25
0.0
 16
0.0
 26
0.0
 36
1.0
 17
0.0
 27
0.0
 37
0.0
 40
1188.0
 41
1.415825
 42
50.0
 43
0.0
 44
0.0
 50
0.0
 51
0.0
 71
    16
 72
   100
 73
     1
 74
     0
 75
     0
 76
     0
 77
     0
 78
     0
281
     0
 65
     0
110
0.0
120
0.0
130
0.0
111
1.0
121
0.0
131
0.0
112
0.0
122
1.0
132
0.0
 79
     0
146
0.0
  0
ENDTAB
  0
TABLE
  2
LTYPE
  5
5
330
0
100
AcDbSymbolTable
 70
     3
  0
LTYPE
  5
14
330
5
100
AcDbSymbolTableRecord
100
AcDbLinetypeTableRecord
  2
ByBlock
 70
     0
  3

 72
    65
 73
     0
 40
0.0
  0
LTYPE
  5
15
330
5
100
AcDbSymbolTableRecord
100
AcDbLinetypeTableRecord
  2
ByLayer
 70
     0
  3

 72
    65
 73
     0
 40
0.0
  0
LTYPE
  5
16
330
5
100
AcDbSymbolTableRecord
100
AcDbLinetypeTableRecord
  2
Continuous
 70
     0
  3
Solid line
 72
    65
 73
     0
 40
0.0
  0
LTYPE
  5
2A
330
5
100
AcDbSymbolTableRecord
100
AcDbLinetypeTableRecord
  2
DASHED
 70
     0
  3
__ __ __ __ __
 72
    65
 73
     2
 40
6.25
 49
5.0
 74
     4
 75
     0
340
0
 46
1.0
 50
0.0
 44
0.0
 45
0.0
 49
-1.25
 74
     4
 75
     0
340
0
 46
1.0
 50
0.0
 44
0.0
 45
0.0
  0
LTYPE
  5
38
330
5
100
AcDbSymbolTableRecord
100
AcDbLinetypeTableRecord
  2
DASHDOT
 70
     0
  3
__ . __ . __ . __ . __
 72
    65
 73
     4
 40
7.5
 49
5.0
 74
     4
 75
     0
340
0
 46
1.0
 50
0.0
 44
0.0
 45
0.0
 49
-1.25
 74
     4
 75
     0
340
0
 46
1.0
 50
0.0
 44
0.0
 45
0.0
 49
0.0
 74
     4
 75
     0
340
0
 46
1.0
 50
0.0
 44
0.0
 45
0.0
 49
-1.25
 74
     4
 75
     0
340
0
 46
1.0
 50
0.0
 44
0.0
 45
0.0
  0
ENDTAB
  0
TABLE
  2
LAYER
  5
2
330
0
100
AcDbSymbolTable
 70
    12
  0
LAYER
  5
10
330
2
100
AcDbSymbolTableRecord
100
AcDbLayerTableRecord
  2
0
 70
     0
 62
     7
  6
Continuous
370
    -3
390
F
  0
LAYER
  5
2B
330
2
100
AcDbSymbolTableRecord
100
AcDbLayerTableRecord
  2
LC-INFO-1-2-mm-A1-0
 70
     1
 62
     7
  6
ByBlock
370
    -3
390
F
  0
LAYER
  5
2C
330
2
100
AcDbSymbolTableRecord
100
AcDbLayerTableRecord
  2
LC-CUT-HIDDEN
 70
     0
 62
     7
  6
DASHED
370
    -3
390
F
  0
LAYER
  5
2D
330
2
100
AcDbSymbolTableRecord
100
AcDbLayerTableRecord
  2
LC-VIEWPORT
 70
     0
 62
     7
  6
ByBlock
370
    -3
390
F
  0
LAYER
  5
2E
330
2
100
AcDbSymbolTableRecord
100
AcDbLayerTableRecord
  2
LC-3D-HIDDEN
 70
     0
 62
     9
  6
DASHED
370
    -3
390
F
  0
LAYER
  5
31
330
2
100
AcDbSymbolTableRecord
100
AcDbLayerTableRecord
  2
LC-001-002-----0
 70
     0
 62
     1
  6
ByBlock
370
    -3
390
F
  0
LAYER
  5
39
330
2
100
AcDbSymbolTableRecord
100
AcDbLayerTableRecord
  2
LC-002-006-MLN-0
 70
     0
 62
     2
  6
DASHDOT
370
    -3
390
F
  0
LAYER
  5
3E
330
2
100
AcDbSymbolTableRecord
100
AcDbLayerTableRecord
  2
LC-003-003-----0
 70
     0
 62
     2
  6
ByBlock
370
    -3
390
F
  0
LAYER
  5
40
330
2
100
AcDbSymbolTableRecord
100
AcDbLayerTableRecord
  2
Defpoints
 70
     0
 62
     7
  6
Continuous
290
     0
370
    -3
390
F
  0
LAYER
  5
71
330
2
100
AcDbSymbolTableRecord
100
AcDbLayerTableRecord
  2
LC-004-005-----0
 70
     0
 62
     2
  6
ByBlock
370
    -3
390
F
  0
LAYER
  5
95
330
2
100
AcDbSymbolTableRecord
100
AcDbLayerTableRecord
  2
LC-005-002-RND-0
 70
     0
 62
     1
  6
ByBlock
370
    -3
390
F
  0
LAYER
  5
207
330
2
100
AcDbSymbolTableRecord
100
AcDbLayerTableRecord
  2
LC-006-004-----0
 70
     0
 62
     7
  6
ByBlock
370
    -3
390
F
  0
ENDTAB
  0
TABLE
  2
STYLE
  5
3
330
0
100
AcDbSymbolTable
 70
     3
  0
STYLE
  5
11
330
3
100
AcDbSymbolTableRecord
100
AcDbTextStyleTableRecord
  2
Standard
 70
     0
 40
0.0
 41
1.0
 50
0.0
 71
     0
 42
2.5
  3
txt
  4

  0
STYLE
  5
2F
330
3
100
AcDbSymbolTableRecord
100
AcDbTextStyleTableRecord
  2
LCTX15-400-0-0-Arial
 70
     0
 40
0.0
 41
0.9
 50
0.0
 71
     0
 42
3.5
  3

  4

1001
ACAD
1000
Arial
1071
 16777218
  0
STYLE
  5
30
330
3
100
AcDbSymbolTableRecord
100
AcDbTextStyleTableRecord
  2
LCTX15-400-0-0pDIN-Schrift
 70
     0
 40
0.0
 41
0.9
 50
15.0
 71
     0
 42
3.5
  3
TXT
  4

  0
ENDTAB
  0
TABLE
  2
VIEW
  5
6
330
0
100
AcDbSymbolTable
 70
     0
  0
ENDTAB
  0
TABLE
  2
UCS
  5
7
330
0
100
AcDbSymbolTable
 70
     0
  0
ENDTAB
  0
TABLE
  2
APPID
  5
9
330
0
100
AcDbSymbolTable
 70
     1
  0
APPID
  5
12
330
9
100
AcDbSymbolTableRecord
100
AcDbRegAppTableRecord
  2
ACAD
 70
     0
  0
ENDTAB
  0
TABLE
  2
DIMSTYLE
  5
A
330
0
100
AcDbSymbolTable
 70
     2
100
AcDbDimStyleTable
  0
DIMSTYLE
105
27
330
A
100
AcDbSymbolTableRecord
100
AcDbDimStyleTableRecord
  2
ISO-25
 70
     0
 41
2.5
 42
0.625
 43
3.75
 44
1.25
 73
     0
 74
     0
 77
     1
 78
     8
140
2.5
141
2.5
143
0.03937
147
0.625
171
     3
172
     1
271
     2
272
     2
274
     3
278
    44
283
     0
284
     8
340
11
  0
DIMSTYLE
105
3D
102
{ACAD_REACTORS
330
3F
330
5F
102
}
330
A
100
AcDbSymbolTableRecord
100
AcDbDimStyleTableRecord
  2
LC-DIM-L-0140-02-02
 70
     0
 40
2.0
 41
14.0
 42
0.0
 43
7.5
 44
1.8
 73
     0
 74
     0
 77
     1
 78
     8
 79
     2
140
14.0
141
0.0
146
0.71
147
1.5
176
     2
177
     2
178
     2
179
     2
271
     2
278
    44
289
     1
340
30
  0
ENDTAB
  0
TABLE
  2
BLOCK_RECORD
  5
1
330
0
100
AcDbSymbolTable
 70
     8
  0
BLOCK_RECORD
  5
1F
330
1
100
AcDbSymbolTableRecord
100
AcDbBlockTableRecord
  2
*Model_Space
340
22
  0
BLOCK_RECORD
  5
1B
330
1
100
AcDbSymbolTableRecord
100
AcDbBlockTableRecord
  2
*Paper_Space
340
1E
  0
BLOCK_RECORD
  5
23
330
1
100
AcDbSymbolTableRecord
100
AcDbBlockTableRecord
  2
*Paper_Space0
340
26
  0
BLOCK_RECORD
  5
41
330
1
100
AcDbSymbolTableRecord
100
AcDbBlockTableRecord
  2
*D1
340
0
  0
BLOCK_RECORD
  5
60
330
1
100
AcDbSymbolTableRecord
100
AcDbBlockTableRecord
  2
*D2
340
0
  0
BLOCK_RECORD
  5
6E
330
1
100
AcDbSymbolTableRecord
100
AcDbBlockTableRecord
  2
*X13
340
0
102
{BLKREFS
331
87
102
}
  0
BLOCK_RECORD
  5
C3
330
1
100
AcDbSymbolTableRecord
100
AcDbBlockTableRecord
  2
*X24
340
0
102
{BLKREFS
331
E8
102
}
  0
BLOCK_RECORD
  5
F8
330
1
100
AcDbSymbolTableRecord
100
AcDbBlockTableRecord
  2
*X35
340
0
102
{BLKREFS
331
1C9
102
}
  0
BLOCK_RECORD
  5
1CB
330
1
100
AcDbSymbolTableRecord
100
AcDbBlockTableRecord
  2
*X46
340
0
102
{BLKREFS
331
206
102
}
  0
BLOCK_RECORD
  5
209
330
1
100
AcDbSymbolTableRecord
100
AcDbBlockTableRecord
  2
*X57
340
0
102
{BLKREFS
331
241
102
}
  0
ENDTAB
  0
ENDSEC
  0
SECTION
  2
BLOCKS
  0
BLOCK
  5
20
330
1F
100
AcDbEntity
  8
0
100
AcDbBlockBegin
  2
*Model_Space
 70
     0
 71
     0
 10
0.0
 20
0.0
 30
0.0
  3
*Model_Space
  1

  0
ENDBLK
  5
21
330
1F
100
AcDbEntity
  8
0
100
AcDbBlockEnd
  0
BLOCK
  5
1C
330
1B
100
AcDbEntity
 67
     1
  8
0
100
AcDbBlockBegin
  2
*Paper_Space
 70
     0
 71
     0
 10
0.0
 20
0.0
 30
0.0
  3
*Paper_Space
  1

  0
ENDBLK
  5
1D
330
1B
100
AcDbEntity
 67
     1
  8
0
100
AcDbBlockEnd
  0
BLOCK
  5
24
330
23
100
AcDbEntity
  8
0
100
AcDbBlockBegin
  2
*Paper_Space0
 70
     0
 71
     0
 10
0.0
 20
0.0
 30
0.0
  3
*Paper_Space0
  1

  0
ENDBLK
  5
25
330
23
100
AcDbEntity
  8
0
100
AcDbBlockEnd
  0
BLOCK
  5
4B
330
41
100
AcDbEntity
  8
0
100
AcDbBlockBegin
  2
*D1
 70
     1
 71
     0
 10
0.0
 20
0.0
 30
0.0
  3
*D1
  1

  0
LINE
  5
42
330
41
100
AcDbEntity
  8
LC-003-003-----0
 62
     2
370
    -2
100
AcDbLine
 10
669.669019
 20
1266.727311
 30
0.0
 11
669.669019
 21
1287.976
 31
0.0
  0
LINE
  5
43
330
41
100
AcDbEntity
  8
LC-003-003-----0
 62
     2
370
    -2
100
AcDbLine
 10
1669.669019
 20
1266.727311
 30
0.0
 11
1669.669019
 21
1287.976
 31
0.0
  0
LINE
  5
44
330
41
100
AcDbEntity
  8
LC-003-003-----0
 62
     2
370
    -2
100
AcDbLine
 10
697.669019
 20
1284.376
 30
0.0
 11
1641.669019
 21
1284.376
 31
0.0
  0
SOLID
  5
45
330
41
100
AcDbEntity
  8
LC-003-003-----0
 62
     2
100
AcDbTrace
 10
697.669019
 20
1289.042667
 30
0.0
 11
697.669019
 21
1279.709333
 31
0.0
 12
669.669019
 22
1284.376
 32
0.0
 13
669.669019
 23
1284.376
 33
0.0
  0
SOLID
  5
46
330
41
100
AcDbEntity
  8
LC-003-003-----0
 62
     2
100
AcDbTrace
 10
1641.669019
 20
1279.709333
 30
0.0
 11
1641.669019
 21
1289.042667
 31
0.0
 12
1669.669019
 22
1284.376
 32
0.0
 13
1669.669019
 23
1284.376
 33
0.0
  0
MTEXT
  5
47
330
41
100
AcDbEntity
  8
LC-003-003-----0
 62
     2
100
AcDbMText
 10
1195.131007
 20
1315.176
 30
0.0
 40
28.0
 41
0.0
 71
     5
 72
     1
  1
\A1;1000
  7
LCTX15-400-0-0pDIN-Schrift
 73
     1
 44
1.0
  0
POINT
  5
48
330
41
100
AcDbEntity
  8
Defpoints
 62
     0
100
AcDbPoint
 10
669.669019
 20
1266.727311
 30
0.0
  0
POINT
  5
49
330
41
100
AcDbEntity
  8
Defpoints
 62
     0
100
AcDbPoint
 10
1669.669019
 20
1266.727311
 30
0.0
  0
POINT
  5
4A
330
41
100
AcDbEntity
  8
Defpoints
 62
     0
100
AcDbPoint
 10
1669.669019
 20
1284.376
 30
0.0
  0
ENDBLK
  5
4C
330
41
100
AcDbEntity
  8
0
100
AcDbBlockEnd
  0
BLOCK
  5
6C
330
60
100
AcDbEntity
  8
0
100
AcDbBlockBegin
  2
*D2
 70
     1
 71
     0
 10
0.0
 20
0.0
 30
0.0
  3
*D2
  1

  0
LINE
  5
61
330
60
100
AcDbEntity
  8
LC-003-003-----0
 62
     2
370
    -2
100
AcDbLine
 10
669.669019
 20
1371.923947
 30
0.0
 11
628.4
 21
1371.923947
 31
0.0
  0
LINE
  5
62
330
60
100
AcDbEntity
  8
LC-003-003-----0
 62
     2
370
    -2
100
AcDbLine
 10
669.669019
 20
1331.923947
 30
0.0
 11
628.4
 21
1331.923947
 31
0.0
  0
LINE
  5
63
330
60
100
AcDbEntity
  8
LC-003-003-----0
 62
     2
370
    -2
100
AcDbLine
 10
632.0
 20
1399.923947
 30
0.0
 11
632.0
 21
1427.923947
 31
0.0
  0
LINE
  5
64
330
60
100
AcDbEntity
  8
LC-003-003-----0
 62
     2
370
    -2
100
AcDbLine
 10
632.0
 20
1303.923947
 30
0.0
 11
632.0
 21
1275.923947
 31
0.0
  0
LINE
  5
65
330
60
100
AcDbEntity
  8
LC-003-003-----0
 62
     2
370
    -2
100
AcDbLine
 10
632.0
 20
1371.923947
 30
0.0
 11
632.0
 21
1331.923947
 31
0.0
  0
SOLID
  5
66
330
60
100
AcDbEntity
  8
LC-003-003-----0
 62
     2
100
AcDbTrace
 10
627.333333
 20
1399.923947
 30
0.0
 11
636.666667
 21
1399.923947
 31
0.0
 12
632.0
 22
1371.923947
 32
0.0
 13
632.0
 23
1371.923947
 33
0.0
  0
SOLID
  5
67
330
60
100
AcDbEntity
  8
LC-003-003-----0
 62
     2
100
AcDbTrace
 10
636.666667
 20
1303.923947
 30
0.0
 11
627.333333
 21
1303.923947
 31
0.0
 12
632.0
 22
1331.923947
 32
0.0
 13
632.0
 23
1331.923947
 33
0.0
  0
MTEXT
  5
68
330
60
100
AcDbEntity
  8
LC-003-003-----0
 62
     2
100
AcDbMText
 10
601.2
 20
1349.541756
 30
0.0
 40
28.0
 41
0.0
 71
     5
 72
     1
  1
\A1;40
  7
LCTX15-400-0-0pDIN-Schrift
 11
6.123031769111886E-17
 21
1.0
 31
0.0
 73
     1
 44
1.0
  0
POINT
  5
69
330
60
100
AcDbEntity
  8
Defpoints
 62
     0
100
AcDbPoint
 10
669.669019
 20
1371.923947
 30
0.0
  0
POINT
  5
6A
330
60
100
AcDbEntity
  8
Defpoints
 62
     0
100
AcDbPoint
 10
669.669019
 20
1331.923947
 30
0.0
  0
POINT
  5
6B
330
60
100
AcDbEntity
  8
Defpoints
 62
     0
100
AcDbPoint
 10
632.0
 20
1331.923947
 30
0.0
  0
ENDBLK
  5
6D
330
60
100
AcDbEntity
  8
0
100
AcDbBlockEnd
  0
BLOCK
  5
6F
330
6E
100
AcDbEntity
  8
0
100
AcDbBlockBegin
  2
*X13
 70
     1
 71
     0
 10
0.0
 20
0.0
 30
0.0
  3
*X13
  1

  4
*X1
  0
LINE
  5
72
330
6E
100
AcDbEntity
  8
LC-004-005-----0
 62
     7
370
    25
100
AcDbLine
 10
1251.729957
 20
1330.925917
 30
0.0
 11
1252.729957
 21
1331.925917
 31
0.0
  0
LINE
  5
73
330
6E
100
AcDbEntity
  8
LC-004-005-----0
 62
     7
370
    25
100
AcDbLine
 10
1248.90153
 20
1330.925917
 30
0.0
 11
1249.90153
 21
1331.925917
 31
0.0
  0
LINE
  5
74
330
6E
100
AcDbEntity
  8
LC-004-005-----0
 62
     7
370
    25
100
AcDbLine
 10
1246.073103
 20
1330.925917
 30
0.0
 11
1247.073103
 21
1331.925917
 31
0.0
  0
LINE
  5
75
330
6E
100
AcDbEntity
  8
LC-004-005-----0
 62
     7
370
    25
100
AcDbLine
 10
1243.244676
 20
1330.925917
 30
0.0
 11
1244.244676
 21
1331.925917
 31
0.0
  0
LINE
  5
76
330
6E
100
AcDbEntity
  8
LC-004-005-----0
 62
     7
370
    25
100
AcDbLine
 10
1240.416249
 20
1330.925917
 30
0.0
 11
1241.416249
 21
1331.925917
 31
0.0
  0
LINE
  5
77
330
6E
100
AcDbEntity
  8
LC-004-005-----0
 62
     7
370
    25
100
AcDbLine
 10
1237.587822
 20
1330.925917
 30
0.0
 11
1238.587822
 21
1331.925917
 31
0.0
  0
LINE
  5
78
330
6E
100
AcDbEntity
  8
LC-004-005-----0
 62
     7
370
    25
100
AcDbLine
 10
1234.759394
 20
1330.925917
 30
0.0
 11
1235.759394
 21
1331.925917
 31
0.0
  0
LINE
  5
79
330
6E
100
AcDbEntity
  8
LC-004-005-----0
 62
     7
370
    25
100
AcDbLine
 10
1231.930967
 20
1330.925917
 30
0.0
 11
1232.930967
 21
1331.925917
 31
0.0
  0
LINE
  5
7A
330
6E
100
AcDbEntity
  8
LC-004-005-----0
 62
     7
370
    25
100
AcDbLine
 10
1229.10254
 20
1330.925917
 30
0.0
 11
1230.10254
 21
1331.925917
 31
0.0
  0
LINE
  5
7B
330
6E
100
AcDbEntity
  8
LC-004-005-----0
 62
     7
370
    25
100
AcDbLine
 10
1226.274113
 20
1330.925917
 30
0.0
 11
1227.274113
 21
1331.925917
 31
0.0
  0
LINE
  5
7C
330
6E
100
AcDbEntity
  8
LC-004-005-----0
 62
     7
370
    25
100
AcDbLine
 10
1113.137028
 20
1330.925917
 30
0.0
 11
1113.169019
 21
1330.957908
 31
0.0
  0
LINE
  5
7D
330
6E
100
AcDbEntity
  8
LC-004-005-----0
 62
     7
370
    25
100
AcDbLine
 10
1110.308601
 20
1330.925917
 30
0.0
 11
1111.308601
 21
1331.925917
 31
0.0
  0
LINE
  5
7E
330
6E
100
AcDbEntity
  8
LC-004-005-----0
 62
     7
370
    25
100
AcDbLine
 10
1107.480174
 20
1330.925917
 30
0.0
 11
1108.480174
 21
1331.925917
 31
0.0
  0
LINE
  5
7F
330
6E
100
AcDbEntity
  8
LC-004-005-----0
 62
     7
370
    25
100
AcDbLine
 10
1104.651747
 20
1330.925917
 30
0.0
 11
1105.651747
 21
1331.925917
 31
0.0
  0
LINE
  5
80
330
6E
100
AcDbEntity
  8
LC-004-005-----0
 62
     7
370
    25
100
AcDbLine
 10
1101.82332
 20
1330.925917
 30
0.0
 11
1102.82332
 21
1331.925917
 31
0.0
  0
LINE
  5
81
330
6E
100
AcDbEntity
  8
LC-004-005-----0
 62
     7
370
    25
100
AcDbLine
 10
1098.994892
 20
1330.925917
 30
0.0
 11
1099.994892
 21
1331.925917
 31
0.0
  0
LINE
  5
82
330
6E
100
AcDbEntity
  8
LC-004-005-----0
 62
     7
370
    25
100
AcDbLine
 10
1096.166465
 20
1330.925917
 30
0.0
 11
1097.166465
 21
1331.925917
 31
0.0
  0
LINE
  5
83
330
6E
100
AcDbEntity
  8
LC-004-005-----0
 62
     7
370
    25
100
AcDbLine
 10
1093.338038
 20
1330.925917
 30
0.0
 11
1094.338038
 21
1331.925917
 31
0.0
  0
LINE
  5
84
330
6E
100
AcDbEntity
  8
LC-004-005-----0
 62
     7
370
    25
100
AcDbLine
 10
1090.509611
 20
1330.925917
 30
0.0
 11
1091.509611
 21
1331.925917
 31
0.0
  0
LINE
  5
85
330
6E
100
AcDbEntity
  8
LC-004-005-----0
 62
     7
370
    25
100
AcDbLine
 10
1087.681184
 20
1330.925917
 30
0.0
 11
1088.681184
 21
1331.925917
 31
0.0
  0
LINE
  5
86
330
6E
100
AcDbEntity
  8
LC-004-005-----0
 62
     7
370
    25
100
AcDbLine
 10
1085.669019
 20
1331.742179
 30
0.0
 11
1085.852757
 21
1331.925917
 31
0.0
  0
ENDBLK
  5
70
330
6E
100
AcDbEntity
  8
0
100
AcDbBlockEnd
  0
BLOCK
  5
C4
330
C3
100
AcDbEntity
  8
0
100
AcDbBlockBegin
  2
*X24
 70
     1
 71
     0
 10
0.0
 20
0.0
 30
0.0
  3
*X24
  1

  4
*X2
  0
LINE
  5
C6
330
C3
100
AcDbEntity
  8
LC-004-005-----0
 62
     7
370
    25
100
AcDbLine
 10
1257.595055
 20
1350.93315
 30
0.0
 11
1259.091797
 21
1352.429892
 31
0.0
  0
LINE
  5
C7
330
C3
100
AcDbEntity
  8
LC-004-005-----0
 62
     7
370
    25
100
AcDbLine
 10
1254.766628
 20
1350.93315
 30
0.0
 11
1256.26337
 21
1352.429892
 31
0.0
  0
LINE
  5
C8
330
C3
100
AcDbEntity
  8
LC-004-005-----0
 62
     7
370
    25
100
AcDbLine
 10
1251.938201
 20
1350.93315
 30
0.0
 11
1253.434943
 21
1352.429892
 31
0.0
  0
LINE
  5
C9
330
C3
100
AcDbEntity
  8
LC-004-005-----0
 62
     7
370
    25
100
AcDbLine
 10
1244.057961
 20
1345.881337
 30
0.0
 11
1244.919019
 21
1346.742396
 31
0.0
  0
LINE
  5
CA
330
C3
100
AcDbEntity
  8
LC-004-005-----0
 62
     7
370
    25
100
AcDbLine
 10
1249.109774
 20
1350.93315
 30
0.0
 11
1250.606516
 21
1352.429892
 31
0.0
  0
LINE
  5
CB
330
C3
100
AcDbEntity
  8
LC-004-005-----0
 62
     7
370
    25
100
AcDbLine
 10
1227.274113
 20
1331.925917
 30
0.0
 11
1227.669019
 21
1332.320823
 31
0.0
  0
LINE
  5
CC
330
C3
100
AcDbEntity
  8
LC-004-005-----0
 62
     7
370
    25
100
AcDbLine
 10
1236.264641
 20
1340.916444
 30
0.0
 11
1242.279103
 21
1346.930906
 31
0.0
  0
LINE
  5
CD
330
C3
100
AcDbEntity
  8
LC-004-005-----0
 62
     7
370
    25
100
AcDbLine
 10
1242.419019
 20
1347.070823
 30
0.0
 11
1244.919019
 21
1349.570823
 31
0.0
  0
LINE
  5
CE
330
C3
100
AcDbEntity
  8
LC-004-005-----0
 62
     7
370
    25
100
AcDbLine
 10
1246.281347
 20
1350.93315
 30
0.0
 11
1247.778088
 21
1352.429892
 31
0.0
  0
LINE
  5
CF
330
C3
100
AcDbEntity
  8
LC-004-005-----0
 62
     7
370
    25
100
AcDbLine
 10
1226.169019
 20
1333.64925
 30
0.0
 11
1227.669019
 21
1335.14925
 31
0.0
  0
LINE
  5
D0
330
C3
100
AcDbEntity
  8
LC-004-005-----0
 62
     7
370
    25
100
AcDbLine
 10
1228.471321
 20
1335.951551
 30
0.0
 11
1239.450676
 21
1346.930906
 31
0.0
  0
LINE
  5
D1
330
C3
100
AcDbEntity
  8
LC-004-005-----0
 62
     7
370
    25
100
AcDbLine
 10
1242.419019
 20
1349.89925
 30
0.0
 11
1244.949661
 21
1352.429892
 31
0.0
  0
LINE
  5
D2
330
C3
100
AcDbEntity
  8
LC-004-005-----0
 62
     7
370
    25
100
AcDbLine
 10
1226.169019
 20
1336.477677
 30
0.0
 11
1230.117527
 21
1340.426185
 31
0.0
  0
LINE
  5
D3
330
C3
100
AcDbEntity
  8
LC-004-005-----0
 62
     7
370
    25
100
AcDbLine
 10
1231.919019
 20
1342.227677
 30
0.0
 11
1233.32461
 21
1343.633268
 31
0.0
  0
LINE
  5
D4
330
C3
100
AcDbEntity
  8
LC-004-005-----0
 62
     7
370
    25
100
AcDbLine
 10
1235.669019
 20
1345.977677
 30
0.0
 11
1236.622249
 21
1346.930906
 31
0.0
  0
LINE
  5
D5
330
C3
100
AcDbEntity
  8
LC-004-005-----0
 62
     7
370
    25
100
AcDbLine
 10
1111.669019
 20
1332.286335
 30
0.0
 11
1113.169019
 21
1333.786335
 31
0.0
  0
LINE
  5
D6
330
C3
100
AcDbEntity
  8
LC-004-005-----0
 62
     7
370
    25
100
AcDbLine
 10
1111.669019
 20
1335.114762
 30
0.0
 11
1113.169019
 21
1336.614762
 31
0.0
  0
LINE
  5
D7
330
C3
100
AcDbEntity
  8
LC-004-005-----0
 62
     7
370
    25
100
AcDbLine
 10
1110.140215
 20
1336.414385
 30
0.0
 11
1112.717471
 21
1338.991641
 31
0.0
  0
LINE
  5
D8
330
C3
100
AcDbEntity
  8
LC-004-005-----0
 62
     7
370
    25
100
AcDbLine
 10
1108.412478
 20
1337.515075
 30
0.0
 11
1111.203947
 21
1340.306544
 31
0.0
  0
LINE
  5
D9
330
C3
100
AcDbEntity
  8
LC-004-005-----0
 62
     7
370
    25
100
AcDbLine
 10
1106.684741
 20
1338.615765
 30
0.0
 11
1108.49516
 21
1340.426185
 31
0.0
  0
LINE
  5
DA
330
C3
100
AcDbEntity
  8
LC-004-005-----0
 62
     7
370
    25
100
AcDbLine
 10
1104.957004
 20
1339.716455
 30
0.0
 11
1107.419019
 21
1342.178471
 31
0.0
  0
LINE
  5
DB
330
C3
100
AcDbEntity
  8
LC-004-005-----0
 62
     7
370
    25
100
AcDbLine
 10
1103.229267
 20
1340.817145
 30
0.0
 11
1106.032952
 21
1343.62083
 31
0.0
  0
LINE
  5
DC
330
C3
100
AcDbEntity
  8
LC-004-005-----0
 62
     7
370
    25
100
AcDbLine
 10
1101.501529
 20
1341.917835
 30
0.0
 11
1104.305215
 21
1344.72152
 31
0.0
  0
LINE
  5
DD
330
C3
100
AcDbEntity
  8
LC-004-005-----0
 62
     7
370
    25
100
AcDbLine
 10
1099.773792
 20
1343.018525
 30
0.0
 11
1103.531046
 21
1346.775779
 31
0.0
  0
LINE
  5
DE
330
C3
100
AcDbEntity
  8
LC-004-005-----0
 62
     7
370
    25
100
AcDbLine
 10
1098.046055
 20
1344.119215
 30
0.0
 11
1100.857747
 21
1346.930906
 31
0.0
  0
LINE
  5
DF
330
C3
100
AcDbEntity
  8
LC-004-005-----0
 62
     7
370
    25
100
AcDbLine
 10
1096.318318
 20
1345.219905
 30
0.0
 11
1098.029319
 21
1346.930906
 31
0.0
  0
LINE
  5
E0
330
C3
100
AcDbEntity
  8
LC-004-005-----0
 62
     7
370
    25
100
AcDbLine
 10
1094.590581
 20
1346.320595
 30
0.0
 11
1096.919019
 21
1348.649033
 31
0.0
  0
LINE
  5
E1
330
C3
100
AcDbEntity
  8
LC-004-005-----0
 62
     7
370
    25
100
AcDbLine
 10
1094.419019
 20
1348.97746
 30
0.0
 11
1096.919019
 21
1351.47746
 31
0.0
  0
LINE
  5
E2
330
C3
100
AcDbEntity
  8
LC-004-005-----0
 62
     7
370
    25
100
AcDbLine
 10
1093.546282
 20
1350.93315
 30
0.0
 11
1095.043024
 21
1352.429892
 31
0.0
  0
LINE
  5
E3
330
C3
100
AcDbEntity
  8
LC-004-005-----0
 62
     7
370
    25
100
AcDbLine
 10
1090.717855
 20
1350.93315
 30
0.0
 11
1092.214597
 21
1352.429892
 31
0.0
  0
LINE
  5
E4
330
C3
100
AcDbEntity
  8
LC-004-005-----0
 62
     7
370
    25
100
AcDbLine
 10
1087.889428
 20
1350.93315
 30
0.0
 11
1089.386169
 21
1352.429892
 31
0.0
  0
LINE
  5
E5
330
C3
100
AcDbEntity
  8
LC-004-005-----0
 62
     7
370
    25
100
AcDbLine
 10
1085.061001
 20
1350.93315
 30
0.0
 11
1086.557742
 21
1352.429892
 31
0.0
  0
LINE
  5
E6
330
C3
100
AcDbEntity
  8
LC-004-005-----0
 62
     7
370
    25
100
AcDbLine
 10
1082.232573
 20
1350.93315
 30
0.0
 11
1083.729315
 21
1352.429892
 31
0.0
  0
LINE
  5
E7
330
C3
100
AcDbEntity
  8
LC-004-005-----0
 62
     7
370
    25
100
AcDbLine
 10
1079.419019
 20
1350.948023
 30
0.0
 11
1080.900888
 21
1352.429892
 31
0.0
  0
ENDBLK
  5
C5
330
C3
100
AcDbEntity
  8
0
100
AcDbBlockEnd
  0
BLOCK
  5
F9
330
F8
100
AcDbEntity
  8
0
100
AcDbBlockBegin
  2
*X35
 70
     1
 71
     0
 10
0.0
 20
0.0
 30
0.0
  3
*X35
  1

  4
*X3
  0
LINE
  5
FB
330
F8
100
AcDbEntity
  8
LC-004-005-----0
 62
     7
370
    25
100
AcDbLine
 10
1662.84992
 20
1331.923947
 30
0.0
 11
1665.34992
 21
1334.423947
 31
0.0
  0
LINE
  5
FC
330
F8
100
AcDbEntity
  8
LC-004-005-----0
 62
     7
370
    25
100
AcDbLine
 10
1654.364639
 20
1331.923947
 30
0.0
 11
1656.864639
 21
1334.423947
 31
0.0
  0
LINE
  5
FD
330
F8
100
AcDbEntity
  8
LC-004-005-----0
 62
     7
370
    25
100
AcDbLine
 10
1645.879358
 20
1331.923947
 30
0.0
 11
1648.379358
 21
1334.423947
 31
0.0
  0
LINE
  5
FE
330
F8
100
AcDbEntity
  8
LC-004-005-----0
 62
     7
370
    25
100
AcDbLine
 10
1637.394076
 20
1331.923947
 30
0.0
 11
1639.894076
 21
1334.423947
 31
0.0
  0
LINE
  5
FF
330
F8
100
AcDbEntity
  8
LC-004-005-----0
 62
     7
370
    25
100
AcDbLine
 10
1628.908795
 20
1331.923947
 30
0.0
 11
1631.408795
 21
1334.423947
 31
0.0
  0
LINE
  5
100
330
F8
100
AcDbEntity
  8
LC-004-005-----0
 62
     7
370
    25
100
AcDbLine
 10
1666.264817
 20
1369.279969
 30
0.0
 11
1668.875899
 21
1371.891051
 31
0.0
  0
LINE
  5
101
330
F8
100
AcDbEntity
  8
LC-004-005-----0
 62
     7
370
    25
100
AcDbLine
 10
1620.423513
 20
1331.923947
 30
0.0
 11
1622.923513
 21
1334.423947
 31
0.0
  0
LINE
  5
102
330
F8
100
AcDbEntity
  8
LC-004-005-----0
 62
     7
370
    25
100
AcDbLine
 10
1657.412381
 20
1368.912814
 30
0.0
 11
1660.023447
 21
1371.52388
 31
0.0
  0
LINE
  5
103
330
F8
100
AcDbEntity
  8
LC-004-005-----0
 62
     7
370
    25
100
AcDbLine
 10
1611.938232
 20
1331.923947
 30
0.0
 11
1614.438232
 21
1334.423947
 31
0.0
  0
LINE
  5
104
330
F8
100
AcDbEntity
  8
LC-004-005-----0
 62
     7
370
    25
100
AcDbLine
 10
1648.559945
 20
1368.545659
 30
0.0
 11
1651.170995
 21
1371.15671
 31
0.0
  0
LINE
  5
105
330
F8
100
AcDbEntity
  8
LC-004-005-----0
 62
     7
370
    25
100
AcDbLine
 10
1603.452951
 20
1331.923947
 30
0.0
 11
1605.952951
 21
1334.423947
 31
0.0
  0
LINE
  5
106
330
F8
100
AcDbEntity
  8
LC-004-005-----0
 62
     7
370
    25
100
AcDbLine
 10
1639.707508
 20
1368.178504
 30
0.0
 11
1642.318544
 21
1370.78954
 31
0.0
  0
LINE
  5
107
330
F8
100
AcDbEntity
  8
LC-004-005-----0
 62
     7
370
    25
100
AcDbLine
 10
1594.967669
 20
1331.923947
 30
0.0
 11
1597.467669
 21
1334.423947
 31
0.0
  0
LINE
  5
108
330
F8
100
AcDbEntity
  8
LC-004-005-----0
 62
     7
370
    25
100
AcDbLine
 10
1630.855072
 20
1367.811349
 30
0.0
 11
1633.466092
 21
1370.422369
 31
0.0
  0
LINE
  5
109
330
F8
100
AcDbEntity
  8
LC-004-005-----0
 62
     7
370
    25
100
AcDbLine
 10
1586.482388
 20
1331.923947
 30
0.0
 11
1588.982388
 21
1334.423947
 31
0.0
  0
LINE
  5
10A
330
F8
100
AcDbEntity
  8
LC-004-005-----0
 62
     7
370
    25
100
AcDbLine
 10
1622.002635
 20
1367.444194
 30
0.0
 11
1624.61364
 21
1370.055199
 31
0.0
  0
LINE
  5
10B
330
F8
100
AcDbEntity
  8
LC-004-005-----0
 62
     7
370
    25
100
AcDbLine
 10
1577.997107
 20
1331.923947
 30
0.0
 11
1580.497107
 21
1334.423947
 31
0.0
  0
LINE
  5
10C
330
F8
100
AcDbEntity
  8
LC-004-005-----0
 62
     7
370
    25
100
AcDbLine
 10
1613.150199
 20
1367.077039
 30
0.0
 11
1615.761188
 21
1369.688028
 31
0.0
  0
LINE
  5
10D
330
F8
100
AcDbEntity
  8
LC-004-005-----0
 62
     7
370
    25
100
AcDbLine
 10
1569.511825
 20
1331.923947
 30
0.0
 11
1572.011825
 21
1334.423947
 31
0.0
  0
LINE
  5
10E
330
F8
100
AcDbEntity
  8
LC-004-005-----0
 62
     7
370
    25
100
AcDbLine
 10
1604.297762
 20
1366.709884
 30
0.0
 11
1606.908737
 21
1369.320858
 31
0.0
  0
LINE
  5
10F
330
F8
100
AcDbEntity
  8
LC-004-005-----0
 62
     7
370
    25
100
AcDbLine
 10
1561.026544
 20
1331.923947
 30
0.0
 11
1563.526544
 21
1334.423947
 31
0.0
  0
LINE
  5
110
330
F8
100
AcDbEntity
  8
LC-004-005-----0
 62
     7
370
    25
100
AcDbLine
 10
1595.445326
 20
1366.342729
 30
0.0
 11
1598.056285
 21
1368.953688
 31
0.0
  0
LINE
  5
111
330
F8
100
AcDbEntity
  8
LC-004-005-----0
 62
     7
370
    25
100
AcDbLine
 10
1552.541262
 20
1331.923947
 30
0.0
 11
1555.041262
 21
1334.423947
 31
0.0
  0
LINE
  5
112
330
F8
100
AcDbEntity
  8
LC-004-005-----0
 62
     7
370
    25
100
AcDbLine
 10
1586.59289
 20
1365.975574
 30
0.0
 11
1589.203833
 21
1368.586517
 31
0.0
  0
LINE
  5
113
330
F8
100
AcDbEntity
  8
LC-004-005-----0
 62
     7
370
    25
100
AcDbLine
 10
1544.055981
 20
1331.923947
 30
0.0
 11
1546.555981
 21
1334.423947
 31
0.0
  0
LINE
  5
114
330
F8
100
AcDbEntity
  8
LC-004-005-----0
 62
     7
370
    25
100
AcDbLine
 10
1577.740453
 20
1365.608419
 30
0.0
 11
1580.351381
 21
1368.219347
 31
0.0
  0
LINE
  5
115
330
F8
100
AcDbEntity
  8
LC-004-005-----0
 62
     7
370
    25
100
AcDbLine
 10
1535.5707
 20
1331.923947
 30
0.0
 11
1538.0707
 21
1334.423947
 31
0.0
  0
LINE
  5
116
330
F8
100
AcDbEntity
  8
LC-004-005-----0
 62
     7
370
    25
100
AcDbLine
 10
1568.888017
 20
1365.241264
 30
0.0
 11
1571.49893
 21
1367.852177
 31
0.0
  0
LINE
  5
117
330
F8
100
AcDbEntity
  8
LC-004-005-----0
 62
     7
370
    25
100
AcDbLine
 10
1527.085418
 20
1331.923947
 30
0.0
 11
1529.585418
 21
1334.423947
 31
0.0
  0
LINE
  5
118
330
F8
100
AcDbEntity
  8
LC-004-005-----0
 62
     7
370
    25
100
AcDbLine
 10
1560.03558
 20
1364.874109
 30
0.0
 11
1562.646478
 21
1367.485006
 31
0.0
  0
LINE
  5
119
330
F8
100
AcDbEntity
  8
LC-004-005-----0
 62
     7
370
    25
100
AcDbLine
 10
1518.600137
 20
1331.923947
 30
0.0
 11
1521.100137
 21
1334.423947
 31
0.0
  0
LINE
  5
11A
330
F8
100
AcDbEntity
  8
LC-004-005-----0
 62
     7
370
    25
100
AcDbLine
 10
1551.183144
 20
1364.506954
 30
0.0
 11
1553.794026
 21
1367.117836
 31
0.0
  0
LINE
  5
11B
330
F8
100
AcDbEntity
  8
LC-004-005-----0
 62
     7
370
    25
100
AcDbLine
 10
1510.114856
 20
1331.923947
 30
0.0
 11
1512.614856
 21
1334.423947
 31
0.0
  0
LINE
  5
11C
330
F8
100
AcDbEntity
  8
LC-004-005-----0
 62
     7
370
    25
100
AcDbLine
 10
1542.330708
 20
1364.139799
 30
0.0
 11
1544.941574
 21
1366.750666
 31
0.0
  0
LINE
  5
11D
330
F8
100
AcDbEntity
  8
LC-004-005-----0
 62
     7
370
    25
100
AcDbLine
 10
1501.629574
 20
1331.923947
 30
0.0
 11
1504.129574
 21
1334.423947
 31
0.0
  0
LINE
  5
11E
330
F8
100
AcDbEntity
  8
LC-004-005-----0
 62
     7
370
    25
100
AcDbLine
 10
1533.478271
 20
1363.772644
 30
0.0
 11
1536.089123
 21
1366.383495
 31
0.0
  0
LINE
  5
11F
330
F8
100
AcDbEntity
  8
LC-004-005-----0
 62
     7
370
    25
100
AcDbLine
 10
1493.144293
 20
1331.923947
 30
0.0
 11
1495.644293
 21
1334.423947
 31
0.0
  0
LINE
  5
120
330
F8
100
AcDbEntity
  8
LC-004-005-----0
 62
     7
370
    25
100
AcDbLine
 10
1524.625835
 20
1363.405489
 30
0.0
 11
1527.236671
 21
1366.016325
 31
0.0
  0
LINE
  5
121
330
F8
100
AcDbEntity
  8
LC-004-005-----0
 62
     7
370
    25
100
AcDbLine
 10
1484.659011
 20
1331.923947
 30
0.0
 11
1487.159011
 21
1334.423947
 31
0.0
  0
LINE
  5
122
330
F8
100
AcDbEntity
  8
LC-004-005-----0
 62
     7
370
    25
100
AcDbLine
 10
1515.773398
 20
1363.038334
 30
0.0
 11
1518.384219
 21
1365.649154
 31
0.0
  0
LINE
  5
123
330
F8
100
AcDbEntity
  8
LC-004-005-----0
 62
     7
370
    25
100
AcDbLine
 10
1476.17373
 20
1331.923947
 30
0.0
 11
1478.67373
 21
1334.423947
 31
0.0
  0
LINE
  5
124
330
F8
100
AcDbEntity
  8
LC-004-005-----0
 62
     7
370
    25
100
AcDbLine
 10
1506.920962
 20
1362.671179
 30
0.0
 11
1509.531767
 21
1365.281984
 31
0.0
  0
LINE
  5
125
330
F8
100
AcDbEntity
  8
LC-004-005-----0
 62
     7
370
    25
100
AcDbLine
 10
1467.688449
 20
1331.923947
 30
0.0
 11
1470.188449
 21
1334.423947
 31
0.0
  0
LINE
  5
126
330
F8
100
AcDbEntity
  8
LC-004-005-----0
 62
     7
370
    25
100
AcDbLine
 10
1498.068525
 20
1362.304023
 30
0.0
 11
1500.679316
 21
1364.914814
 31
0.0
  0
LINE
  5
127
330
F8
100
AcDbEntity
  8
LC-004-005-----0
 62
     7
370
    25
100
AcDbLine
 10
1459.203167
 20
1331.923947
 30
0.0
 11
1461.703167
 21
1334.423947
 31
0.0
  0
LINE
  5
128
330
F8
100
AcDbEntity
  8
LC-004-005-----0
 62
     7
370
    25
100
AcDbLine
 10
1489.216089
 20
1361.936868
 30
0.0
 11
1491.826864
 21
1364.547643
 31
0.0
  0
LINE
  5
129
330
F8
100
AcDbEntity
  8
LC-004-005-----0
 62
     7
370
    25
100
AcDbLine
 10
1450.717886
 20
1331.923947
 30
0.0
 11
1453.217886
 21
1334.423947
 31
0.0
  0
LINE
  5
12A
330
F8
100
AcDbEntity
  8
LC-004-005-----0
 62
     7
370
    25
100
AcDbLine
 10
1480.363653
 20
1361.569713
 30
0.0
 11
1482.974412
 21
1364.180473
 31
0.0
  0
LINE
  5
12B
330
F8
100
AcDbEntity
  8
LC-004-005-----0
 62
     7
370
    25
100
AcDbLine
 10
1442.232605
 20
1331.923947
 30
0.0
 11
1444.732605
 21
1334.423947
 31
0.0
  0
LINE
  5
12C
330
F8
100
AcDbEntity
  8
LC-004-005-----0
 62
     7
370
    25
100
AcDbLine
 10
1471.511216
 20
1361.202558
 30
0.0
 11
1474.12196
 21
1363.813303
 31
0.0
  0
LINE
  5
12D
330
F8
100
AcDbEntity
  8
LC-004-005-----0
 62
     7
370
    25
100
AcDbLine
 10
1433.747323
 20
1331.923947
 30
0.0
 11
1436.247323
 21
1334.423947
 31
0.0
  0
LINE
  5
12E
330
F8
100
AcDbEntity
  8
LC-004-005-----0
 62
     7
370
    25
100
AcDbLine
 10
1462.65878
 20
1360.835403
 30
0.0
 11
1465.269509
 21
1363.446132
 31
0.0
  0
LINE
  5
12F
330
F8
100
AcDbEntity
  8
LC-004-005-----0
 62
     7
370
    25
100
AcDbLine
 10
1425.262042
 20
1331.923947
 30
0.0
 11
1427.762042
 21
1334.423947
 31
0.0
  0
LINE
  5
130
330
F8
100
AcDbEntity
  8
LC-004-005-----0
 62
     7
370
    25
100
AcDbLine
 10
1453.806343
 20
1360.468248
 30
0.0
 11
1456.417057
 21
1363.078962
 31
0.0
  0
LINE
  5
131
330
F8
100
AcDbEntity
  8
LC-004-005-----0
 62
     7
370
    25
100
AcDbLine
 10
1416.77676
 20
1331.923947
 30
0.0
 11
1419.27676
 21
1334.423947
 31
0.0
  0
LINE
  5
132
330
F8
100
AcDbEntity
  8
LC-004-005-----0
 62
     7
370
    25
100
AcDbLine
 10
1444.953907
 20
1360.101093
 30
0.0
 11
1447.564605
 21
1362.711791
 31
0.0
  0
LINE
  5
133
330
F8
100
AcDbEntity
  8
LC-004-005-----0
 62
     7
370
    25
100
AcDbLine
 10
1408.291479
 20
1331.923947
 30
0.0
 11
1410.791479
 21
1334.423947
 31
0.0
  0
LINE
  5
134
330
F8
100
AcDbEntity
  8
LC-004-005-----0
 62
     7
370
    25
100
AcDbLine
 10
1436.101471
 20
1359.733938
 30
0.0
 11
1438.712153
 21
1362.344621
 31
0.0
  0
LINE
  5
135
330
F8
100
AcDbEntity
  8
LC-004-005-----0
 62
     7
370
    25
100
AcDbLine
 10
1399.806198
 20
1331.923947
 30
0.0
 11
1402.306198
 21
1334.423947
 31
0.0
  0
LINE
  5
136
330
F8
100
AcDbEntity
  8
LC-004-005-----0
 62
     7
370
    25
100
AcDbLine
 10
1427.249034
 20
1359.366783
 30
0.0
 11
1429.859702
 21
1361.977451
 31
0.0
  0
LINE
  5
137
330
F8
100
AcDbEntity
  8
LC-004-005-----0
 62
     7
370
    25
100
AcDbLine
 10
1391.320916
 20
1331.923947
 30
0.0
 11
1393.820916
 21
1334.423947
 31
0.0
  0
LINE
  5
138
330
F8
100
AcDbEntity
  8
LC-004-005-----0
 62
     7
370
    25
100
AcDbLine
 10
1418.396598
 20
1358.999628
 30
0.0
 11
1421.00725
 21
1361.61028
 31
0.0
  0
LINE
  5
139
330
F8
100
AcDbEntity
  8
LC-004-005-----0
 62
     7
370
    25
100
AcDbLine
 10
1382.835635
 20
1331.923947
 30
0.0
 11
1385.335635
 21
1334.423947
 31
0.0
  0
LINE
  5
13A
330
F8
100
AcDbEntity
  8
LC-004-005-----0
 62
     7
370
    25
100
AcDbLine
 10
1409.544161
 20
1358.632473
 30
0.0
 11
1412.154798
 21
1361.24311
 31
0.0
  0
LINE
  5
13B
330
F8
100
AcDbEntity
  8
LC-004-005-----0
 62
     7
370
    25
100
AcDbLine
 10
1374.350354
 20
1331.923947
 30
0.0
 11
1376.850354
 21
1334.423947
 31
0.0
  0
LINE
  5
13C
330
F8
100
AcDbEntity
  8
LC-004-005-----0
 62
     7
370
    25
100
AcDbLine
 10
1400.691725
 20
1358.265318
 30
0.0
 11
1403.302346
 21
1360.87594
 31
0.0
  0
LINE
  5
13D
330
F8
100
AcDbEntity
  8
LC-004-005-----0
 62
     7
370
    25
100
AcDbLine
 10
1365.865072
 20
1331.923947
 30
0.0
 11
1368.365072
 21
1334.423947
 31
0.0
  0
LINE
  5
13E
330
F8
100
AcDbEntity
  8
LC-004-005-----0
 62
     7
370
    25
100
AcDbLine
 10
1391.839288
 20
1357.898163
 30
0.0
 11
1394.449895
 21
1360.508769
 31
0.0
  0
LINE
  5
13F
330
F8
100
AcDbEntity
  8
LC-004-005-----0
 62
     7
370
    25
100
AcDbLine
 10
1357.379791
 20
1331.923947
 30
0.0
 11
1359.879791
 21
1334.423947
 31
0.0
  0
LINE
  5
140
330
F8
100
AcDbEntity
  8
LC-004-005-----0
 62
     7
370
    25
100
AcDbLine
 10
1382.986852
 20
1357.531008
 30
0.0
 11
1385.597443
 21
1360.141599
 31
0.0
  0
LINE
  5
141
330
F8
100
AcDbEntity
  8
LC-004-005-----0
 62
     7
370
    25
100
AcDbLine
 10
1348.894509
 20
1331.923947
 30
0.0
 11
1351.394509
 21
1334.423947
 31
0.0
  0
LINE
  5
142
330
F8
100
AcDbEntity
  8
LC-004-005-----0
 62
     7
370
    25
100
AcDbLine
 10
1374.134416
 20
1357.163853
 30
0.0
 11
1376.744991
 21
1359.774428
 31
0.0
  0
LINE
  5
143
330
F8
100
AcDbEntity
  8
LC-004-005-----0
 62
     7
370
    25
100
AcDbLine
 10
1340.409228
 20
1331.923947
 30
0.0
 11
1342.909228
 21
1334.423947
 31
0.0
  0
LINE
  5
144
330
F8
100
AcDbEntity
  8
LC-004-005-----0
 62
     7
370
    25
100
AcDbLine
 10
1365.281979
 20
1356.796698
 30
0.0
 11
1367.892539
 21
1359.407258
 31
0.0
  0
LINE
  5
145
330
F8
100
AcDbEntity
  8
LC-004-005-----0
 62
     7
370
    25
100
AcDbLine
 10
1331.923947
 20
1331.923947
 30
0.0
 11
1334.423947
 21
1334.423947
 31
0.0
  0
LINE
  5
146
330
F8
100
AcDbEntity
  8
LC-004-005-----0
 62
     7
370
    25
100
AcDbLine
 10
1356.429543
 20
1356.429543
 30
0.0
 11
1359.040088
 21
1359.040088
 31
0.0
  0
LINE
  5
147
330
F8
100
AcDbEntity
  8
LC-004-005-----0
 62
     7
370
    25
100
AcDbLine
 10
1323.438665
 20
1331.923947
 30
0.0
 11
1325.938665
 21
1334.423947
 31
0.0
  0
LINE
  5
148
330
F8
100
AcDbEntity
  8
LC-004-005-----0
 62
     7
370
    25
100
AcDbLine
 10
1347.577106
 20
1356.062388
 30
0.0
 11
1350.187636
 21
1358.672917
 31
0.0
  0
LINE
  5
149
330
F8
100
AcDbEntity
  8
LC-004-005-----0
 62
     7
370
    25
100
AcDbLine
 10
1314.953384
 20
1331.923947
 30
0.0
 11
1317.453384
 21
1334.423947
 31
0.0
  0
LINE
  5
14A
330
F8
100
AcDbEntity
  8
LC-004-005-----0
 62
     7
370
    25
100
AcDbLine
 10
1338.72467
 20
1355.695233
 30
0.0
 11
1341.335184
 21
1358.305747
 31
0.0
  0
LINE
  5
14B
330
F8
100
AcDbEntity
  8
LC-004-005-----0
 62
     7
370
    25
100
AcDbLine
 10
1306.468103
 20
1331.923947
 30
0.0
 11
1308.968103
 21
1334.423947
 31
0.0
  0
LINE
  5
14C
330
F8
100
AcDbEntity
  8
LC-004-005-----0
 62
     7
370
    25
100
AcDbLine
 10
1329.872234
 20
1355.328078
 30
0.0
 11
1332.482732
 21
1357.938577
 31
0.0
  0
LINE
  5
14D
330
F8
100
AcDbEntity
  8
LC-004-005-----0
 62
     7
370
    25
100
AcDbLine
 10
1297.982821
 20
1331.923947
 30
0.0
 11
1300.482821
 21
1334.423947
 31
0.0
  0
LINE
  5
14E
330
F8
100
AcDbEntity
  8
LC-004-005-----0
 62
     7
370
    25
100
AcDbLine
 10
1321.019797
 20
1354.960923
 30
0.0
 11
1323.630281
 21
1357.571406
 31
0.0
  0
LINE
  5
14F
330
F8
100
AcDbEntity
  8
LC-004-005-----0
 62
     7
370
    25
100
AcDbLine
 10
1289.49754
 20
1331.923947
 30
0.0
 11
1291.99754
 21
1334.423947
 31
0.0
  0
LINE
  5
150
330
F8
100
AcDbEntity
  8
LC-004-005-----0
 62
     7
370
    25
100
AcDbLine
 10
1312.167361
 20
1354.593768
 30
0.0
 11
1314.777829
 21
1357.204236
 31
0.0
  0
LINE
  5
151
330
F8
100
AcDbEntity
  8
LC-004-005-----0
 62
     7
370
    25
100
AcDbLine
 10
1281.012258
 20
1331.923947
 30
0.0
 11
1283.512258
 21
1334.423947
 31
0.0
  0
LINE
  5
152
330
F8
100
AcDbEntity
  8
LC-004-005-----0
 62
     7
370
    25
100
AcDbLine
 10
1303.314924
 20
1354.226613
 30
0.0
 11
1305.925377
 21
1356.837065
 31
0.0
  0
LINE
  5
153
330
F8
100
AcDbEntity
  8
LC-004-005-----0
 62
     7
370
    25
100
AcDbLine
 10
1272.526977
 20
1331.923947
 30
0.0
 11
1275.026977
 21
1334.423947
 31
0.0
  0
LINE
  5
154
330
F8
100
AcDbEntity
  8
LC-004-005-----0
 62
     7
370
    25
100
AcDbLine
 10
1294.462488
 20
1353.859458
 30
0.0
 11
1297.072925
 21
1356.469895
 31
0.0
  0
LINE
  5
155
330
F8
100
AcDbEntity
  8
LC-004-005-----0
 62
     7
370
    25
100
AcDbLine
 10
1264.041696
 20
1331.923947
 30
0.0
 11
1266.541696
 21
1334.423947
 31
0.0
  0
LINE
  5
156
330
F8
100
AcDbEntity
  8
LC-004-005-----0
 62
     7
370
    25
100
AcDbLine
 10
1285.610052
 20
1353.492302
 30
0.0
 11
1288.220474
 21
1356.102725
 31
0.0
  0
LINE
  5
157
330
F8
100
AcDbEntity
  8
LC-004-005-----0
 62
     7
370
    25
100
AcDbLine
 10
1255.556414
 20
1331.923947
 30
0.0
 11
1258.056414
 21
1334.423947
 31
0.0
  0
LINE
  5
158
330
F8
100
AcDbEntity
  8
LC-004-005-----0
 62
     7
370
    25
100
AcDbLine
 10
1276.757615
 20
1353.125147
 30
0.0
 11
1279.368022
 21
1355.735554
 31
0.0
  0
LINE
  5
159
330
F8
100
AcDbEntity
  8
LC-004-005-----0
 62
     7
370
    25
100
AcDbLine
 10
1247.071133
 20
1331.923947
 30
0.0
 11
1249.571133
 21
1334.423947
 31
0.0
  0
LINE
  5
15A
330
F8
100
AcDbEntity
  8
LC-004-005-----0
 62
     7
370
    25
100
AcDbLine
 10
1267.905179
 20
1352.757992
 30
0.0
 11
1270.51557
 21
1355.368384
 31
0.0
  0
LINE
  5
15B
330
F8
100
AcDbEntity
  8
LC-004-005-----0
 62
     7
370
    25
100
AcDbLine
 10
1238.585852
 20
1331.923947
 30
0.0
 11
1241.085852
 21
1334.423947
 31
0.0
  0
LINE
  5
15C
330
F8
100
AcDbEntity
  8
LC-004-005-----0
 62
     7
370
    25
100
AcDbLine
 10
1259.091797
 20
1352.429892
 30
0.0
 11
1261.663118
 21
1355.001214
 31
0.0
  0
LINE
  5
15D
330
F8
100
AcDbEntity
  8
LC-004-005-----0
 62
     7
370
    25
100
AcDbLine
 10
1230.10057
 20
1331.923947
 30
0.0
 11
1232.60057
 21
1334.423947
 31
0.0
  0
LINE
  5
15E
330
F8
100
AcDbEntity
  8
LC-004-005-----0
 62
     7
370
    25
100
AcDbLine
 10
1250.606516
 20
1352.429892
 30
0.0
 11
1253.105498
 21
1354.928874
 31
0.0
  0
LINE
  5
15F
330
F8
100
AcDbEntity
  8
LC-004-005-----0
 62
     7
370
    25
100
AcDbLine
 10
1242.915945
 20
1353.224603
 30
0.0
 11
1244.620216
 21
1354.928874
 31
0.0
  0
LINE
  5
160
330
F8
100
AcDbEntity
  8
LC-004-005-----0
 62
     7
370
    25
100
AcDbLine
 10
1111.306631
 20
1331.923947
 30
0.0
 11
1111.669019
 21
1332.286335
 31
0.0
  0
LINE
  5
161
330
F8
100
AcDbEntity
  8
LC-004-005-----0
 62
     7
370
    25
100
AcDbLine
 10
1102.82135
 20
1331.923947
 30
0.0
 11
1105.32135
 21
1334.423947
 31
0.0
  0
LINE
  5
162
330
F8
100
AcDbEntity
  8
LC-004-005-----0
 62
     7
370
    25
100
AcDbLine
 10
1094.336068
 20
1331.923947
 30
0.0
 11
1096.836068
 21
1334.423947
 31
0.0
  0
LINE
  5
163
330
F8
100
AcDbEntity
  8
LC-004-005-----0
 62
     7
370
    25
100
AcDbLine
 10
1085.850787
 20
1331.923947
 30
0.0
 11
1088.350787
 21
1334.423947
 31
0.0
  0
LINE
  5
164
330
F8
100
AcDbEntity
  8
LC-004-005-----0
 62
     7
370
    25
100
AcDbLine
 10
1077.365506
 20
1331.923947
 30
0.0
 11
1079.865506
 21
1334.423947
 31
0.0
  0
LINE
  5
165
330
F8
100
AcDbEntity
  8
LC-004-005-----0
 62
     7
370
    25
100
AcDbLine
 10
1068.880224
 20
1331.923947
 30
0.0
 11
1071.380224
 21
1334.423947
 31
0.0
  0
LINE
  5
166
330
F8
100
AcDbEntity
  8
LC-004-005-----0
 62
     7
370
    25
100
AcDbLine
 10
1089.390365
 20
1352.434088
 30
0.0
 11
1091.885151
 21
1354.928874
 31
0.0
  0
LINE
  5
167
330
F8
100
AcDbEntity
  8
LC-004-005-----0
 62
     7
370
    25
100
AcDbLine
 10
1060.394943
 20
1331.923947
 30
0.0
 11
1062.894943
 21
1334.423947
 31
0.0
  0
LINE
  5
168
330
F8
100
AcDbEntity
  8
LC-004-005-----0
 62
     7
370
    25
100
AcDbLine
 10
1080.905084
 20
1352.434088
 30
0.0
 11
1083.39987
 21
1354.928874
 31
0.0
  0
LINE
  5
169
330
F8
100
AcDbEntity
  8
LC-004-005-----0
 62
     7
370
    25
100
AcDbLine
 10
1051.909661
 20
1331.923947
 30
0.0
 11
1054.409661
 21
1334.423947
 31
0.0
  0
LINE
  5
16A
330
F8
100
AcDbEntity
  8
LC-004-005-----0
 62
     7
370
    25
100
AcDbLine
 10
1072.691515
 20
1352.705801
 30
0.0
 11
1075.093977
 21
1355.108263
 31
0.0
  0
LINE
  5
16B
330
F8
100
AcDbEntity
  8
LC-004-005-----0
 62
     7
370
    25
100
AcDbLine
 10
1043.42438
 20
1331.923947
 30
0.0
 11
1045.92438
 21
1334.423947
 31
0.0
  0
LINE
  5
16C
330
F8
100
AcDbEntity
  8
LC-004-005-----0
 62
     7
370
    25
100
AcDbLine
 10
1064.544146
 20
1353.043713
 30
0.0
 11
1066.946621
 21
1355.446188
 31
0.0
  0
LINE
  5
16D
330
F8
100
AcDbEntity
  8
LC-004-005-----0
 62
     7
370
    25
100
AcDbLine
 10
1034.939099
 20
1331.923947
 30
0.0
 11
1037.439099
 21
1334.423947
 31
0.0
  0
LINE
  5
16E
330
F8
100
AcDbEntity
  8
LC-004-005-----0
 62
     7
370
    25
100
AcDbLine
 10
1056.396777
 20
1353.381625
 30
0.0
 11
1058.799265
 21
1355.784113
 31
0.0
  0
LINE
  5
16F
330
F8
100
AcDbEntity
  8
LC-004-005-----0
 62
     7
370
    25
100
AcDbLine
 10
1026.453817
 20
1331.923947
 30
0.0
 11
1028.953817
 21
1334.423947
 31
0.0
  0
LINE
  5
170
330
F8
100
AcDbEntity
  8
LC-004-005-----0
 62
     7
370
    25
100
AcDbLine
 10
1048.249408
 20
1353.719537
 30
0.0
 11
1050.651909
 21
1356.122039
 31
0.0
  0
LINE
  5
171
330
F8
100
AcDbEntity
  8
LC-004-005-----0
 62
     7
370
    25
100
AcDbLine
 10
1017.968536
 20
1331.923947
 30
0.0
 11
1020.468536
 21
1334.423947
 31
0.0
  0
LINE
  5
172
330
F8
100
AcDbEntity
  8
LC-004-005-----0
 62
     7
370
    25
100
AcDbLine
 10
1040.102038
 20
1354.057449
 30
0.0
 11
1042.504553
 21
1356.459964
 31
0.0
  0
LINE
  5
173
330
F8
100
AcDbEntity
  8
LC-004-005-----0
 62
     7
370
    25
100
AcDbLine
 10
1009.483255
 20
1331.923947
 30
0.0
 11
1011.983255
 21
1334.423947
 31
0.0
  0
LINE
  5
174
330
F8
100
AcDbEntity
  8
LC-004-005-----0
 62
     7
370
    25
100
AcDbLine
 10
1031.954669
 20
1354.395361
 30
0.0
 11
1034.357197
 21
1356.797889
 31
0.0
  0
LINE
  5
175
330
F8
100
AcDbEntity
  8
LC-004-005-----0
 62
     7
370
    25
100
AcDbLine
 10
1000.997973
 20
1331.923947
 30
0.0
 11
1003.497973
 21
1334.423947
 31
0.0
  0
LINE
  5
176
330
F8
100
AcDbEntity
  8
LC-004-005-----0
 62
     7
370
    25
100
AcDbLine
 10
1023.8073
 20
1354.733274
 30
0.0
 11
1026.209841
 21
1357.135815
 31
0.0
  0
LINE
  5
177
330
F8
100
AcDbEntity
  8
LC-004-005-----0
 62
     7
370
    25
100
AcDbLine
 10
992.512692
 20
1331.923947
 30
0.0
 11
995.012692
 21
1334.423947
 31
0.0
  0
LINE
  5
178
330
F8
100
AcDbEntity
  8
LC-004-005-----0
 62
     7
370
    25
100
AcDbLine
 10
1015.659931
 20
1355.071186
 30
0.0
 11
1018.062485
 21
1357.47374
 31
0.0
  0
LINE
  5
179
330
F8
100
AcDbEntity
  8
LC-004-005-----0
 62
     7
370
    25
100
AcDbLine
 10
984.02741
 20
1331.923947
 30
0.0
 11
986.52741
 21
1334.423947
 31
0.0
  0
LINE
  5
17A
330
F8
100
AcDbEntity
  8
LC-004-005-----0
 62
     7
370
    25
100
AcDbLine
 10
1007.512561
 20
1355.409098
 30
0.0
 11
1009.915129
 21
1357.811665
 31
0.0
  0
LINE
  5
17B
330
F8
100
AcDbEntity
  8
LC-004-005-----0
 62
     7
370
    25
100
AcDbLine
 10
975.542129
 20
1331.923947
 30
0.0
 11
978.042129
 21
1334.423947
 31
0.0
  0
LINE
  5
17C
330
F8
100
AcDbEntity
  8
LC-004-005-----0
 62
     7
370
    25
100
AcDbLine
 10
999.365192
 20
1355.74701
 30
0.0
 11
1001.767773
 21
1358.149591
 31
0.0
  0
LINE
  5
17D
330
F8
100
AcDbEntity
  8
LC-004-005-----0
 62
     7
370
    25
100
AcDbLine
 10
967.056848
 20
1331.923947
 30
0.0
 11
969.556848
 21
1334.423947
 31
0.0
  0
LINE
  5
17E
330
F8
100
AcDbEntity
  8
LC-004-005-----0
 62
     7
370
    25
100
AcDbLine
 10
991.217823
 20
1356.084922
 30
0.0
 11
993.620417
 21
1358.487516
 31
0.0
  0
LINE
  5
17F
330
F8
100
AcDbEntity
  8
LC-004-005-----0
 62
     7
370
    25
100
AcDbLine
 10
958.571566
 20
1331.923947
 30
0.0
 11
961.071566
 21
1334.423947
 31
0.0
  0
LINE
  5
180
330
F8
100
AcDbEntity
  8
LC-004-005-----0
 62
     7
370
    25
100
AcDbLine
 10
983.070454
 20
1356.422834
 30
0.0
 11
985.473061
 21
1358.825441
 31
0.0
  0
LINE
  5
181
330
F8
100
AcDbEntity
  8
LC-004-005-----0
 62
     7
370
    25
100
AcDbLine
 10
950.086285
 20
1331.923947
 30
0.0
 11
952.586285
 21
1334.423947
 31
0.0
  0
LINE
  5
182
330
F8
100
AcDbEntity
  8
LC-004-005-----0
 62
     7
370
    25
100
AcDbLine
 10
974.923085
 20
1356.760746
 30
0.0
 11
977.325705
 21
1359.163367
 31
0.0
  0
LINE
  5
183
330
F8
100
AcDbEntity
  8
LC-004-005-----0
 62
     7
370
    25
100
AcDbLine
 10
941.601004
 20
1331.923947
 30
0.0
 11
944.101004
 21
1334.423947
 31
0.0
  0
LINE
  5
184
330
F8
100
AcDbEntity
  8
LC-004-005-----0
 62
     7
370
    25
100
AcDbLine
 10
966.775715
 20
1357.098659
 30
0.0
 11
969.178349
 21
1359.501292
 31
0.0
  0
LINE
  5
185
330
F8
100
AcDbEntity
  8
LC-004-005-----0
 62
     7
370
    25
100
AcDbLine
 10
933.115722
 20
1331.923947
 30
0.0
 11
935.615722
 21
1334.423947
 31
0.0
  0
LINE
  5
186
330
F8
100
AcDbEntity
  8
LC-004-005-----0
 62
     7
370
    25
100
AcDbLine
 10
958.628346
 20
1357.436571
 30
0.0
 11
961.030993
 21
1359.839217
 31
0.0
  0
LINE
  5
187
330
F8
100
AcDbEntity
  8
LC-004-005-----0
 62
     7
370
    25
100
AcDbLine
 10
924.630441
 20
1331.923947
 30
0.0
 11
927.130441
 21
1334.423947
 31
0.0
  0
LINE
  5
188
330
F8
100
AcDbEntity
  8
LC-004-005-----0
 62
     7
370
    25
100
AcDbLine
 10
950.480977
 20
1357.774483
 30
0.0
 11
952.883637
 21
1360.177143
 31
0.0
  0
LINE
  5
189
330
F8
100
AcDbEntity
  8
LC-004-005-----0
 62
     7
370
    25
100
AcDbLine
 10
916.145159
 20
1331.923947
 30
0.0
 11
918.645159
 21
1334.423947
 31
0.0
  0
LINE
  5
18A
330
F8
100
AcDbEntity
  8
LC-004-005-----0
 62
     7
370
    25
100
AcDbLine
 10
942.333608
 20
1358.112395
 30
0.0
 11
944.736281
 21
1360.515068
 31
0.0
  0
LINE
  5
18B
330
F8
100
AcDbEntity
  8
LC-004-005-----0
 62
     7
370
    25
100
AcDbLine
 10
907.659878
 20
1331.923947
 30
0.0
 11
910.159878
 21
1334.423947
 31
0.0
  0
LINE
  5
18C
330
F8
100
AcDbEntity
  8
LC-004-005-----0
 62
     7
370
    25
100
AcDbLine
 10
934.186238
 20
1358.450307
 30
0.0
 11
936.588925
 21
1360.852993
 31
0.0
  0
LINE
  5
18D
330
F8
100
AcDbEntity
  8
LC-004-005-----0
 62
     7
370
    25
100
AcDbLine
 10
899.174597
 20
1331.923947
 30
0.0
 11
901.674597
 21
1334.423947
 31
0.0
  0
LINE
  5
18E
330
F8
100
AcDbEntity
  8
LC-004-005-----0
 62
     7
370
    25
100
AcDbLine
 10
926.038869
 20
1358.788219
 30
0.0
 11
928.441569
 21
1361.190919
 31
0.0
  0
LINE
  5
18F
330
F8
100
AcDbEntity
  8
LC-004-005-----0
 62
     7
370
    25
100
AcDbLine
 10
890.689315
 20
1331.923947
 30
0.0
 11
893.189315
 21
1334.423947
 31
0.0
  0
LINE
  5
190
330
F8
100
AcDbEntity
  8
LC-004-005-----0
 62
     7
370
    25
100
AcDbLine
 10
917.8915
 20
1359.126131
 30
0.0
 11
920.294212
 21
1361.528844
 31
0.0
  0
LINE
  5
191
330
F8
100
AcDbEntity
  8
LC-004-005-----0
 62
     7
370
    25
100
AcDbLine
 10
882.204034
 20
1331.923947
 30
0.0
 11
884.704034
 21
1334.423947
 31
0.0
  0
LINE
  5
192
330
F8
100
AcDbEntity
  8
LC-004-005-----0
 62
     7
370
    25
100
AcDbLine
 10
909.744131
 20
1359.464043
 30
0.0
 11
912.146856
 21
1361.866769
 31
0.0
  0
LINE
  5
193
330
F8
100
AcDbEntity
  8
LC-004-005-----0
 62
     7
370
    25
100
AcDbLine
 10
873.718753
 20
1331.923947
 30
0.0
 11
876.218753
 21
1334.423947
 31
0.0
  0
LINE
  5
194
330
F8
100
AcDbEntity
  8
LC-004-005-----0
 62
     7
370
    25
100
AcDbLine
 10
901.596761
 20
1359.801956
 30
0.0
 11
903.9995
 21
1362.204695
 31
0.0
  0
LINE
  5
195
330
F8
100
AcDbEntity
  8
LC-004-005-----0
 62
     7
370
    25
100
AcDbLine
 10
865.233471
 20
1331.923947
 30
0.0
 11
867.733471
 21
1334.423947
 31
0.0
  0
LINE
  5
196
330
F8
100
AcDbEntity
  8
LC-004-005-----0
 62
     7
370
    25
100
AcDbLine
 10
893.449392
 20
1360.139868
 30
0.0
 11
895.852144
 21
1362.54262
 31
0.0
  0
LINE
  5
197
330
F8
100
AcDbEntity
  8
LC-004-005-----0
 62
     7
370
    25
100
AcDbLine
 10
856.74819
 20
1331.923947
 30
0.0
 11
859.24819
 21
1334.423947
 31
0.0
  0
LINE
  5
198
330
F8
100
AcDbEntity
  8
LC-004-005-----0
 62
     7
370
    25
100
AcDbLine
 10
885.302023
 20
1360.47778
 30
0.0
 11
887.704788
 21
1362.880545
 31
0.0
  0
LINE
  5
199
330
F8
100
AcDbEntity
  8
LC-004-005-----0
 62
     7
370
    25
100
AcDbLine
 10
848.262908
 20
1331.923947
 30
0.0
 11
850.762908
 21
1334.423947
 31
0.0
  0
LINE
  5
19A
330
F8
100
AcDbEntity
  8
LC-004-005-----0
 62
     7
370
    25
100
AcDbLine
 10
877.154654
 20
1360.815692
 30
0.0
 11
879.557432
 21
1363.218471
 31
0.0
  0
LINE
  5
19B
330
F8
100
AcDbEntity
  8
LC-004-005-----0
 62
     7
370
    25
100
AcDbLine
 10
839.777627
 20
1331.923947
 30
0.0
 11
842.277627
 21
1334.423947
 31
0.0
  0
LINE
  5
19C
330
F8
100
AcDbEntity
  8
LC-004-005-----0
 62
     7
370
    25
100
AcDbLine
 10
869.007284
 20
1361.153604
 30
0.0
 11
871.410076
 21
1363.556396
 31
0.0
  0
LINE
  5
19D
330
F8
100
AcDbEntity
  8
LC-004-005-----0
 62
     7
370
    25
100
AcDbLine
 10
831.292346
 20
1331.923947
 30
0.0
 11
833.792346
 21
1334.423947
 31
0.0
  0
LINE
  5
19E
330
F8
100
AcDbEntity
  8
LC-004-005-----0
 62
     7
370
    25
100
AcDbLine
 10
860.859915
 20
1361.491516
 30
0.0
 11
863.26272
 21
1363.894321
 31
0.0
  0
LINE
  5
19F
330
F8
100
AcDbEntity
  8
LC-004-005-----0
 62
     7
370
    25
100
AcDbLine
 10
822.807064
 20
1331.923947
 30
0.0
 11
825.307064
 21
1334.423947
 31
0.0
  0
LINE
  5
1A0
330
F8
100
AcDbEntity
  8
LC-004-005-----0
 62
     7
370
    25
100
AcDbLine
 10
852.712546
 20
1361.829428
 30
0.0
 11
855.115364
 21
1364.232247
 31
0.0
  0
LINE
  5
1A1
330
F8
100
AcDbEntity
  8
LC-004-005-----0
 62
     7
370
    25
100
AcDbLine
 10
814.321783
 20
1331.923947
 30
0.0
 11
816.821783
 21
1334.423947
 31
0.0
  0
LINE
  5
1A2
330
F8
100
AcDbEntity
  8
LC-004-005-----0
 62
     7
370
    25
100
AcDbLine
 10
844.565177
 20
1362.167341
 30
0.0
 11
846.968008
 21
1364.570172
 31
0.0
  0
LINE
  5
1A3
330
F8
100
AcDbEntity
  8
LC-004-005-----0
 62
     7
370
    25
100
AcDbLine
 10
805.836502
 20
1331.923947
 30
0.0
 11
808.336502
 21
1334.423947
 31
0.0
  0
LINE
  5
1A4
330
F8
100
AcDbEntity
  8
LC-004-005-----0
 62
     7
370
    25
100
AcDbLine
 10
836.417807
 20
1362.505253
 30
0.0
 11
838.820652
 21
1364.908097
 31
0.0
  0
LINE
  5
1A5
330
F8
100
AcDbEntity
  8
LC-004-005-----0
 62
     7
370
    25
100
AcDbLine
 10
797.35122
 20
1331.923947
 30
0.0
 11
799.85122
 21
1334.423947
 31
0.0
  0
LINE
  5
1A6
330
F8
100
AcDbEntity
  8
LC-004-005-----0
 62
     7
370
    25
100
AcDbLine
 10
828.270438
 20
1362.843165
 30
0.0
 11
830.673296
 21
1365.246023
 31
0.0
  0
LINE
  5
1A7
330
F8
100
AcDbEntity
  8
LC-004-005-----0
 62
     7
370
    25
100
AcDbLine
 10
788.865939
 20
1331.923947
 30
0.0
 11
791.365939
 21
1334.423947
 31
0.0
  0
LINE
  5
1A8
330
F8
100
AcDbEntity
  8
LC-004-005-----0
 62
     7
370
    25
100
AcDbLine
 10
820.123069
 20
1363.181077
 30
0.0
 11
822.52594
 21
1365.583948
 31
0.0
  0
LINE
  5
1A9
330
F8
100
AcDbEntity
  8
LC-004-005-----0
 62
     7
370
    25
100
AcDbLine
 10
780.380657
 20
1331.923947
 30
0.0
 11
782.880657
 21
1334.423947
 31
0.0
  0
LINE
  5
1AA
330
F8
100
AcDbEntity
  8
LC-004-005-----0
 62
     7
370
    25
100
AcDbLine
 10
811.9757
 20
1363.518989
 30
0.0
 11
814.378584
 21
1365.921873
 31
0.0
  0
LINE
  5
1AB
330
F8
100
AcDbEntity
  8
LC-004-005-----0
 62
     7
370
    25
100
AcDbLine
 10
771.895376
 20
1331.923947
 30
0.0
 11
774.395376
 21
1334.423947
 31
0.0
  0
LINE
  5
1AC
330
F8
100
AcDbEntity
  8
LC-004-005-----0
 62
     7
370
    25
100
AcDbLine
 10
803.828331
 20
1363.856901
 30
0.0
 11
806.231228
 21
1366.259799
 31
0.0
  0
LINE
  5
1AD
330
F8
100
AcDbEntity
  8
LC-004-005-----0
 62
     7
370
    25
100
AcDbLine
 10
763.410095
 20
1331.923947
 30
0.0
 11
765.910095
 21
1334.423947
 31
0.0
  0
LINE
  5
1AE
330
F8
100
AcDbEntity
  8
LC-004-005-----0
 62
     7
370
    25
100
AcDbLine
 10
795.680961
 20
1364.194813
 30
0.0
 11
798.083872
 21
1366.597724
 31
0.0
  0
LINE
  5
1AF
330
F8
100
AcDbEntity
  8
LC-004-005-----0
 62
     7
370
    25
100
AcDbLine
 10
754.924813
 20
1331.923947
 30
0.0
 11
757.424813
 21
1334.423947
 31
0.0
  0
LINE
  5
1B0
330
F8
100
AcDbEntity
  8
LC-004-005-----0
 62
     7
370
    25
100
AcDbLine
 10
787.533592
 20
1364.532726
 30
0.0
 11
789.936516
 21
1366.935649
 31
0.0
  0
LINE
  5
1B1
330
F8
100
AcDbEntity
  8
LC-004-005-----0
 62
     7
370
    25
100
AcDbLine
 10
746.439532
 20
1331.923947
 30
0.0
 11
748.939532
 21
1334.423947
 31
0.0
  0
LINE
  5
1B2
330
F8
100
AcDbEntity
  8
LC-004-005-----0
 62
     7
370
    25
100
AcDbLine
 10
779.386223
 20
1364.870638
 30
0.0
 11
781.78916
 21
1367.273575
 31
0.0
  0
LINE
  5
1B3
330
F8
100
AcDbEntity
  8
LC-004-005-----0
 62
     7
370
    25
100
AcDbLine
 10
737.954251
 20
1331.923947
 30
0.0
 11
740.454251
 21
1334.423947
 31
0.0
  0
LINE
  5
1B4
330
F8
100
AcDbEntity
  8
LC-004-005-----0
 62
     7
370
    25
100
AcDbLine
 10
771.238854
 20
1365.20855
 30
0.0
 11
773.641804
 21
1367.6115
 31
0.0
  0
LINE
  5
1B5
330
F8
100
AcDbEntity
  8
LC-004-005-----0
 62
     7
370
    25
100
AcDbLine
 10
729.468969
 20
1331.923947
 30
0.0
 11
731.968969
 21
1334.423947
 31
0.0
  0
LINE
  5
1B6
330
F8
100
AcDbEntity
  8
LC-004-005-----0
 62
     7
370
    25
100
AcDbLine
 10
763.091484
 20
1365.546462
 30
0.0
 11
765.494448
 21
1367.949425
 31
0.0
  0
LINE
  5
1B7
330
F8
100
AcDbEntity
  8
LC-004-005-----0
 62
     7
370
    25
100
AcDbLine
 10
720.983688
 20
1331.923947
 30
0.0
 11
723.483688
 21
1334.423947
 31
0.0
  0
LINE
  5
1B8
330
F8
100
AcDbEntity
  8
LC-004-005-----0
 62
     7
370
    25
100
AcDbLine
 10
754.944115
 20
1365.884374
 30
0.0
 11
757.347092
 21
1368.287351
 31
0.0
  0
LINE
  5
1B9
330
F8
100
AcDbEntity
  8
LC-004-005-----0
 62
     7
370
    25
100
AcDbLine
 10
712.498406
 20
1331.923947
 30
0.0
 11
714.998406
 21
1334.423947
 31
0.0
  0
LINE
  5
1BA
330
F8
100
AcDbEntity
  8
LC-004-005-----0
 62
     7
370
    25
100
AcDbLine
 10
746.796746
 20
1366.222286
 30
0.0
 11
749.199736
 21
1368.625276
 31
0.0
  0
LINE
  5
1BB
330
F8
100
AcDbEntity
  8
LC-004-005-----0
 62
     7
370
    25
100
AcDbLine
 10
704.013125
 20
1331.923947
 30
0.0
 11
706.513125
 21
1334.423947
 31
0.0
  0
LINE
  5
1BC
330
F8
100
AcDbEntity
  8
LC-004-005-----0
 62
     7
370
    25
100
AcDbLine
 10
738.649377
 20
1366.560198
 30
0.0
 11
741.05238
 21
1368.963201
 31
0.0
  0
LINE
  5
1BD
330
F8
100
AcDbEntity
  8
LC-004-005-----0
 62
     7
370
    25
100
AcDbLine
 10
695.527844
 20
1331.923947
 30
0.0
 11
698.027844
 21
1334.423947
 31
0.0
  0
LINE
  5
1BE
330
F8
100
AcDbEntity
  8
LC-004-005-----0
 62
     7
370
    25
100
AcDbLine
 10
730.502007
 20
1366.89811
 30
0.0
 11
732.905024
 21
1369.301127
 31
0.0
  0
LINE
  5
1BF
330
F8
100
AcDbEntity
  8
LC-004-005-----0
 62
     7
370
    25
100
AcDbLine
 10
687.042562
 20
1331.923947
 30
0.0
 11
689.542562
 21
1334.423947
 31
0.0
  0
LINE
  5
1C0
330
F8
100
AcDbEntity
  8
LC-004-005-----0
 62
     7
370
    25
100
AcDbLine
 10
722.354638
 20
1367.236023
 30
0.0
 11
724.757668
 21
1369.639052
 31
0.0
  0
LINE
  5
1C1
330
F8
100
AcDbEntity
  8
LC-004-005-----0
 62
     7
370
    25
100
AcDbLine
 10
678.557281
 20
1331.923947
 30
0.0
 11
681.057281
 21
1334.423947
 31
0.0
  0
LINE
  5
1C2
330
F8
100
AcDbEntity
  8
LC-004-005-----0
 62
     7
370
    25
100
AcDbLine
 10
714.207269
 20
1367.573935
 30
0.0
 11
716.610312
 21
1369.976977
 31
0.0
  0
LINE
  5
1C3
330
F8
100
AcDbEntity
  8
LC-004-005-----0
 62
     7
370
    25
100
AcDbLine
 10
670.072
 20
1331.923947
 30
0.0
 11
672.572
 21
1334.423947
 31
0.0
  0
LINE
  5
1C4
330
F8
100
AcDbEntity
  8
LC-004-005-----0
 62
     7
370
    25
100
AcDbLine
 10
706.0599
 20
1367.911847
 30
0.0
 11
708.462956
 21
1370.314903
 31
0.0
  0
LINE
  5
1C5
330
F8
100
AcDbEntity
  8
LC-004-005-----0
 62
     7
370
    25
100
AcDbLine
 10
697.91253
 20
1368.249759
 30
0.0
 11
700.3156
 21
1370.652828
 31
0.0
  0
LINE
  5
1C6
330
F8
100
AcDbEntity
  8
LC-004-005-----0
 62
     7
370
    25
100
AcDbLine
 10
689.765161
 20
1368.587671
 30
0.0
 11
692.168244
 21
1370.990753
 31
0.0
  0
LINE
  5
1C7
330
F8
100
AcDbEntity
  8
LC-004-005-----0
 62
     7
370
    25
100
AcDbLine
 10
681.617792
 20
1368.925583
 30
0.0
 11
684.020887
 21
1371.328679
 31
0.0
  0
LINE
  5
1C8
330
F8
100
AcDbEntity
  8
LC-004-005-----0
 62
     7
370
    25
100
AcDbLine
 10
673.470423
 20
1369.263495
 30
0.0
 11
675.873531
 21
1371.666604
 31
0.0
  0
ENDBLK
  5
FA
330
F8
100
AcDbEntity
  8
0
100
AcDbBlockEnd
  0
BLOCK
  5
1CC
330
1CB
100
AcDbEntity
  8
0
100
AcDbBlockBegin
  2
*X46
 70
     1
 71
     0
 10
0.0
 20
0.0
 30
0.0
  3
*X46
  1

  4
*X4
  0
LINE
  5
1CE
330
1CB
100
AcDbEntity
  8
LC-004-005-----0
 62
     7
370
    25
100
AcDbLine
 10
1105.32135
 20
1334.423947
 30
0.0
 11
1108.412478
 21
1337.515075
 31
0.0
  0
LINE
  5
1CF
330
1CB
100
AcDbEntity
  8
LC-004-005-----0
 62
     7
370
    25
100
AcDbLine
 10
1096.836068
 20
1334.423947
 30
0.0
 11
1103.229267
 21
1340.817145
 31
0.0
  0
LINE
  5
1D0
330
1CB
100
AcDbEntity
  8
LC-004-005-----0
 62
     7
370
    25
100
AcDbLine
 10
1088.350787
 20
1334.423947
 30
0.0
 11
1098.046055
 21
1344.119215
 31
0.0
  0
LINE
  5
1D1
330
1CB
100
AcDbEntity
  8
LC-004-005-----0
 62
     7
370
    25
100
AcDbLine
 10
1079.865506
 20
1334.423947
 30
0.0
 11
1094.419019
 21
1348.97746
 31
0.0
  0
LINE
  5
1D2
330
1CB
100
AcDbEntity
  8
LC-004-005-----0
 62
     7
370
    25
100
AcDbLine
 10
1071.380224
 20
1334.423947
 30
0.0
 11
1087.889428
 21
1350.93315
 31
0.0
  0
LINE
  5
1D3
330
1CB
100
AcDbEntity
  8
LC-004-005-----0
 62
     7
370
    25
100
AcDbLine
 10
1062.894943
 20
1334.423947
 30
0.0
 11
1079.419019
 21
1350.948023
 31
0.0
  0
LINE
  5
1D4
330
1CB
100
AcDbEntity
  8
LC-004-005-----0
 62
     7
370
    25
100
AcDbLine
 10
1054.409661
 20
1334.423947
 30
0.0
 11
1072.691505
 21
1352.70579
 31
0.0
  0
LINE
  5
1D5
330
1CB
100
AcDbEntity
  8
LC-004-005-----0
 62
     7
370
    25
100
AcDbLine
 10
1045.92438
 20
1334.423947
 30
0.0
 11
1064.544136
 21
1353.043702
 31
0.0
  0
LINE
  5
1D6
330
1CB
100
AcDbEntity
  8
LC-004-005-----0
 62
     7
370
    25
100
AcDbLine
 10
1037.439099
 20
1334.423947
 30
0.0
 11
1056.396767
 21
1353.381615
 31
0.0
  0
LINE
  5
1D7
330
1CB
100
AcDbEntity
  8
LC-004-005-----0
 62
     7
370
    25
100
AcDbLine
 10
1028.953817
 20
1334.423947
 30
0.0
 11
1048.249398
 21
1353.719527
 31
0.0
  0
LINE
  5
1D8
330
1CB
100
AcDbEntity
  8
LC-004-005-----0
 62
     7
370
    25
100
AcDbLine
 10
1020.468536
 20
1334.423947
 30
0.0
 11
1040.102029
 21
1354.057439
 31
0.0
  0
LINE
  5
1D9
330
1CB
100
AcDbEntity
  8
LC-004-005-----0
 62
     7
370
    25
100
AcDbLine
 10
1011.983255
 20
1334.423947
 30
0.0
 11
1031.95466
 21
1354.395352
 31
0.0
  0
LINE
  5
1DA
330
1CB
100
AcDbEntity
  8
LC-004-005-----0
 62
     7
370
    25
100
AcDbLine
 10
1003.497973
 20
1334.423947
 30
0.0
 11
1023.807291
 21
1354.733264
 31
0.0
  0
LINE
  5
1DB
330
1CB
100
AcDbEntity
  8
LC-004-005-----0
 62
     7
370
    25
100
AcDbLine
 10
995.012692
 20
1334.423947
 30
0.0
 11
1015.659922
 21
1355.071177
 31
0.0
  0
LINE
  5
1DC
330
1CB
100
AcDbEntity
  8
LC-004-005-----0
 62
     7
370
    25
100
AcDbLine
 10
986.52741
 20
1334.423947
 30
0.0
 11
1007.512553
 21
1355.409089
 31
0.0
  0
LINE
  5
1DD
330
1CB
100
AcDbEntity
  8
LC-004-005-----0
 62
     7
370
    25
100
AcDbLine
 10
978.042129
 20
1334.423947
 30
0.0
 11
999.365184
 21
1355.747001
 31
0.0
  0
LINE
  5
1DE
330
1CB
100
AcDbEntity
  8
LC-004-005-----0
 62
     7
370
    25
100
AcDbLine
 10
969.556848
 20
1334.423947
 30
0.0
 11
991.217815
 21
1356.084914
 31
0.0
  0
LINE
  5
1DF
330
1CB
100
AcDbEntity
  8
LC-004-005-----0
 62
     7
370
    25
100
AcDbLine
 10
961.071566
 20
1334.423947
 30
0.0
 11
983.070445
 21
1356.422826
 31
0.0
  0
LINE
  5
1E0
330
1CB
100
AcDbEntity
  8
LC-004-005-----0
 62
     7
370
    25
100
AcDbLine
 10
952.586285
 20
1334.423947
 30
0.0
 11
974.923076
 21
1356.760738
 31
0.0
  0
LINE
  5
1E1
330
1CB
100
AcDbEntity
  8
LC-004-005-----0
 62
     7
370
    25
100
AcDbLine
 10
944.101004
 20
1334.423947
 30
0.0
 11
966.775707
 21
1357.098651
 31
0.0
  0
LINE
  5
1E2
330
1CB
100
AcDbEntity
  8
LC-004-005-----0
 62
     7
370
    25
100
AcDbLine
 10
935.615722
 20
1334.423947
 30
0.0
 11
958.628338
 21
1357.436563
 31
0.0
  0
LINE
  5
1E3
330
1CB
100
AcDbEntity
  8
LC-004-005-----0
 62
     7
370
    25
100
AcDbLine
 10
927.130441
 20
1334.423947
 30
0.0
 11
950.480969
 21
1357.774475
 31
0.0
  0
LINE
  5
1E4
330
1CB
100
AcDbEntity
  8
LC-004-005-----0
 62
     7
370
    25
100
AcDbLine
 10
918.645159
 20
1334.423947
 30
0.0
 11
942.3336
 21
1358.112388
 31
0.0
  0
LINE
  5
1E5
330
1CB
100
AcDbEntity
  8
LC-004-005-----0
 62
     7
370
    25
100
AcDbLine
 10
910.159878
 20
1334.423947
 30
0.0
 11
934.186231
 21
1358.4503
 31
0.0
  0
LINE
  5
1E6
330
1CB
100
AcDbEntity
  8
LC-004-005-----0
 62
     7
370
    25
100
AcDbLine
 10
901.674597
 20
1334.423947
 30
0.0
 11
926.038862
 21
1358.788212
 31
0.0
  0
LINE
  5
1E7
330
1CB
100
AcDbEntity
  8
LC-004-005-----0
 62
     7
370
    25
100
AcDbLine
 10
893.189315
 20
1334.423947
 30
0.0
 11
917.891493
 21
1359.126125
 31
0.0
  0
LINE
  5
1E8
330
1CB
100
AcDbEntity
  8
LC-004-005-----0
 62
     7
370
    25
100
AcDbLine
 10
884.704034
 20
1334.423947
 30
0.0
 11
909.744124
 21
1359.464037
 31
0.0
  0
LINE
  5
1E9
330
1CB
100
AcDbEntity
  8
LC-004-005-----0
 62
     7
370
    25
100
AcDbLine
 10
876.218753
 20
1334.423947
 30
0.0
 11
901.596755
 21
1359.801949
 31
0.0
  0
LINE
  5
1EA
330
1CB
100
AcDbEntity
  8
LC-004-005-----0
 62
     7
370
    25
100
AcDbLine
 10
867.733471
 20
1334.423947
 30
0.0
 11
893.449386
 21
1360.139862
 31
0.0
  0
LINE
  5
1EB
330
1CB
100
AcDbEntity
  8
LC-004-005-----0
 62
     7
370
    25
100
AcDbLine
 10
859.24819
 20
1334.423947
 30
0.0
 11
885.302017
 21
1360.477774
 31
0.0
  0
LINE
  5
1EC
330
1CB
100
AcDbEntity
  8
LC-004-005-----0
 62
     7
370
    25
100
AcDbLine
 10
850.762908
 20
1334.423947
 30
0.0
 11
877.154648
 21
1360.815687
 31
0.0
  0
LINE
  5
1ED
330
1CB
100
AcDbEntity
  8
LC-004-005-----0
 62
     7
370
    25
100
AcDbLine
 10
842.277627
 20
1334.423947
 30
0.0
 11
869.007279
 21
1361.153599
 31
0.0
  0
LINE
  5
1EE
330
1CB
100
AcDbEntity
  8
LC-004-005-----0
 62
     7
370
    25
100
AcDbLine
 10
833.792346
 20
1334.423947
 30
0.0
 11
860.85991
 21
1361.491511
 31
0.0
  0
LINE
  5
1EF
330
1CB
100
AcDbEntity
  8
LC-004-005-----0
 62
     7
370
    25
100
AcDbLine
 10
825.307064
 20
1334.423947
 30
0.0
 11
852.712541
 21
1361.829424
 31
0.0
  0
LINE
  5
1F0
330
1CB
100
AcDbEntity
  8
LC-004-005-----0
 62
     7
370
    25
100
AcDbLine
 10
816.821783
 20
1334.423947
 30
0.0
 11
844.565172
 21
1362.167336
 31
0.0
  0
LINE
  5
1F1
330
1CB
100
AcDbEntity
  8
LC-004-005-----0
 62
     7
370
    25
100
AcDbLine
 10
808.336502
 20
1334.423947
 30
0.0
 11
836.417803
 21
1362.505248
 31
0.0
  0
LINE
  5
1F2
330
1CB
100
AcDbEntity
  8
LC-004-005-----0
 62
     7
370
    25
100
AcDbLine
 10
799.85122
 20
1334.423947
 30
0.0
 11
828.270434
 21
1362.843161
 31
0.0
  0
LINE
  5
1F3
330
1CB
100
AcDbEntity
  8
LC-004-005-----0
 62
     7
370
    25
100
AcDbLine
 10
791.365939
 20
1334.423947
 30
0.0
 11
820.123065
 21
1363.181073
 31
0.0
  0
LINE
  5
1F4
330
1CB
100
AcDbEntity
  8
LC-004-005-----0
 62
     7
370
    25
100
AcDbLine
 10
782.880657
 20
1334.423947
 30
0.0
 11
811.975696
 21
1363.518985
 31
0.0
  0
LINE
  5
1F5
330
1CB
100
AcDbEntity
  8
LC-004-005-----0
 62
     7
370
    25
100
AcDbLine
 10
774.395376
 20
1334.423947
 30
0.0
 11
803.828327
 21
1363.856898
 31
0.0
  0
LINE
  5
1F6
330
1CB
100
AcDbEntity
  8
LC-004-005-----0
 62
     7
370
    25
100
AcDbLine
 10
765.910095
 20
1334.423947
 30
0.0
 11
795.680958
 21
1364.19481
 31
0.0
  0
LINE
  5
1F7
330
1CB
100
AcDbEntity
  8
LC-004-005-----0
 62
     7
370
    25
100
AcDbLine
 10
757.424813
 20
1334.423947
 30
0.0
 11
787.533589
 21
1364.532722
 31
0.0
  0
LINE
  5
1F8
330
1CB
100
AcDbEntity
  8
LC-004-005-----0
 62
     7
370
    25
100
AcDbLine
 10
748.939532
 20
1334.423947
 30
0.0
 11
779.38622
 21
1364.870635
 31
0.0
  0
LINE
  5
1F9
330
1CB
100
AcDbEntity
  8
LC-004-005-----0
 62
     7
370
    25
100
AcDbLine
 10
740.454251
 20
1334.423947
 30
0.0
 11
771.238851
 21
1365.208547
 31
0.0
  0
LINE
  5
1FA
330
1CB
100
AcDbEntity
  8
LC-004-005-----0
 62
     7
370
    25
100
AcDbLine
 10
731.968969
 20
1334.423947
 30
0.0
 11
763.091482
 21
1365.546459
 31
0.0
  0
LINE
  5
1FB
330
1CB
100
AcDbEntity
  8
LC-004-005-----0
 62
     7
370
    25
100
AcDbLine
 10
723.483688
 20
1334.423947
 30
0.0
 11
754.944113
 21
1365.884372
 31
0.0
  0
LINE
  5
1FC
330
1CB
100
AcDbEntity
  8
LC-004-005-----0
 62
     7
370
    25
100
AcDbLine
 10
714.998406
 20
1334.423947
 30
0.0
 11
746.796744
 21
1366.222284
 31
0.0
  0
LINE
  5
1FD
330
1CB
100
AcDbEntity
  8
LC-004-005-----0
 62
     7
370
    25
100
AcDbLine
 10
706.513125
 20
1334.423947
 30
0.0
 11
738.649375
 21
1366.560196
 31
0.0
  0
LINE
  5
1FE
330
1CB
100
AcDbEntity
  8
LC-004-005-----0
 62
     7
370
    25
100
AcDbLine
 10
698.027844
 20
1334.423947
 30
0.0
 11
730.502006
 21
1366.898109
 31
0.0
  0
LINE
  5
1FF
330
1CB
100
AcDbEntity
  8
LC-004-005-----0
 62
     7
370
    25
100
AcDbLine
 10
689.542562
 20
1334.423947
 30
0.0
 11
722.354637
 21
1367.236021
 31
0.0
  0
LINE
  5
200
330
1CB
100
AcDbEntity
  8
LC-004-005-----0
 62
     7
370
    25
100
AcDbLine
 10
681.057281
 20
1334.423947
 30
0.0
 11
714.207268
 21
1367.573934
 31
0.0
  0
LINE
  5
201
330
1CB
100
AcDbEntity
  8
LC-004-005-----0
 62
     7
370
    25
100
AcDbLine
 10
672.572
 20
1334.423947
 30
0.0
 11
706.059899
 21
1367.911846
 31
0.0
  0
LINE
  5
202
330
1CB
100
AcDbEntity
  8
LC-004-005-----0
 62
     7
370
    25
100
AcDbLine
 10
669.669019
 20
1340.006248
 30
0.0
 11
697.91253
 21
1368.249758
 31
0.0
  0
LINE
  5
203
330
1CB
100
AcDbEntity
  8
LC-004-005-----0
 62
     7
370
    25
100
AcDbLine
 10
669.669019
 20
1348.491529
 30
0.0
 11
689.765161
 21
1368.587671
 31
0.0
  0
LINE
  5
204
330
1CB
100
AcDbEntity
  8
LC-004-005-----0
 62
     7
370
    25
100
AcDbLine
 10
669.669019
 20
1356.976811
 30
0.0
 11
681.617792
 21
1368.925583
 31
0.0
  0
LINE
  5
205
330
1CB
100
AcDbEntity
  8
LC-004-005-----0
 62
     7
370
    25
100
AcDbLine
 10
669.669019
 20
1365.462092
 30
0.0
 11
673.470423
 21
1369.263495
 31
0.0
  0
ENDBLK
  5
1CD
330
1CB
100
AcDbEntity
  8
0
100
AcDbBlockEnd
  0
BLOCK
  5
20A
330
209
100
AcDbEntity
  8
0
100
AcDbBlockBegin
  2
*X57
 70
     1
 71
     0
 10
0.0
 20
0.0
 30
0.0
  3
*X57
  1

  4
*X5
  0
LINE
  5
20C
330
209
100
AcDbEntity
  8
LC-004-005-----0
 62
     7
370
    25
100
AcDbLine
 10
1665.34992
 20
1334.423947
 30
0.0
 11
1669.669019
 21
1338.743046
 31
0.0
  0
LINE
  5
20D
330
209
100
AcDbEntity
  8
LC-004-005-----0
 62
     7
370
    25
100
AcDbLine
 10
1656.864639
 20
1334.423947
 30
0.0
 11
1669.669019
 21
1347.228327
 31
0.0
  0
LINE
  5
20E
330
209
100
AcDbEntity
  8
LC-004-005-----0
 62
     7
370
    25
100
AcDbLine
 10
1648.379358
 20
1334.423947
 30
0.0
 11
1669.669019
 21
1355.713608
 31
0.0
  0
LINE
  5
20F
330
209
100
AcDbEntity
  8
LC-004-005-----0
 62
     7
370
    25
100
AcDbLine
 10
1639.894076
 20
1334.423947
 30
0.0
 11
1669.669019
 21
1364.19889
 31
0.0
  0
LINE
  5
210
330
209
100
AcDbEntity
  8
LC-004-005-----0
 62
     7
370
    25
100
AcDbLine
 10
1631.408795
 20
1334.423947
 30
0.0
 11
1666.264817
 21
1369.279969
 31
0.0
  0
LINE
  5
211
330
209
100
AcDbEntity
  8
LC-004-005-----0
 62
     7
370
    25
100
AcDbLine
 10
1622.923513
 20
1334.423947
 30
0.0
 11
1657.412381
 21
1368.912814
 31
0.0
  0
LINE
  5
212
330
209
100
AcDbEntity
  8
LC-004-005-----0
 62
     7
370
    25
100
AcDbLine
 10
1614.438232
 20
1334.423947
 30
0.0
 11
1648.559945
 21
1368.545659
 31
0.0
  0
LINE
  5
213
330
209
100
AcDbEntity
  8
LC-004-005-----0
 62
     7
370
    25
100
AcDbLine
 10
1605.952951
 20
1334.423947
 30
0.0
 11
1639.707508
 21
1368.178504
 31
0.0
  0
LINE
  5
214
330
209
100
AcDbEntity
  8
LC-004-005-----0
 62
     7
370
    25
100
AcDbLine
 10
1597.467669
 20
1334.423947
 30
0.0
 11
1630.855072
 21
1367.811349
 31
0.0
  0
LINE
  5
215
330
209
100
AcDbEntity
  8
LC-004-005-----0
 62
     7
370
    25
100
AcDbLine
 10
1588.982388
 20
1334.423947
 30
0.0
 11
1622.002635
 21
1367.444194
 31
0.0
  0
LINE
  5
216
330
209
100
AcDbEntity
  8
LC-004-005-----0
 62
     7
370
    25
100
AcDbLine
 10
1580.497107
 20
1334.423947
 30
0.0
 11
1613.150199
 21
1367.077039
 31
0.0
  0
LINE
  5
217
330
209
100
AcDbEntity
  8
LC-004-005-----0
 62
     7
370
    25
100
AcDbLine
 10
1572.011825
 20
1334.423947
 30
0.0
 11
1604.297762
 21
1366.709884
 31
0.0
  0
LINE
  5
218
330
209
100
AcDbEntity
  8
LC-004-005-----0
 62
     7
370
    25
100
AcDbLine
 10
1563.526544
 20
1334.423947
 30
0.0
 11
1595.445326
 21
1366.342729
 31
0.0
  0
LINE
  5
219
330
209
100
AcDbEntity
  8
LC-004-005-----0
 62
     7
370
    25
100
AcDbLine
 10
1555.041262
 20
1334.423947
 30
0.0
 11
1586.59289
 21
1365.975574
 31
0.0
  0
LINE
  5
21A
330
209
100
AcDbEntity
  8
LC-004-005-----0
 62
     7
370
    25
100
AcDbLine
 10
1546.555981
 20
1334.423947
 30
0.0
 11
1577.740453
 21
1365.608419
 31
0.0
  0
LINE
  5
21B
330
209
100
AcDbEntity
  8
LC-004-005-----0
 62
     7
370
    25
100
AcDbLine
 10
1538.0707
 20
1334.423947
 30
0.0
 11
1568.888017
 21
1365.241264
 31
0.0
  0
LINE
  5
21C
330
209
100
AcDbEntity
  8
LC-004-005-----0
 62
     7
370
    25
100
AcDbLine
 10
1529.585418
 20
1334.423947
 30
0.0
 11
1560.03558
 21
1364.874109
 31
0.0
  0
LINE
  5
21D
330
209
100
AcDbEntity
  8
LC-004-005-----0
 62
     7
370
    25
100
AcDbLine
 10
1521.100137
 20
1334.423947
 30
0.0
 11
1551.183144
 21
1364.506954
 31
0.0
  0
LINE
  5
21E
330
209
100
AcDbEntity
  8
LC-004-005-----0
 62
     7
370
    25
100
AcDbLine
 10
1512.614856
 20
1334.423947
 30
0.0
 11
1542.330708
 21
1364.139799
 31
0.0
  0
LINE
  5
21F
330
209
100
AcDbEntity
  8
LC-004-005-----0
 62
     7
370
    25
100
AcDbLine
 10
1504.129574
 20
1334.423947
 30
0.0
 11
1533.478271
 21
1363.772644
 31
0.0
  0
LINE
  5
220
330
209
100
AcDbEntity
  8
LC-004-005-----0
 62
     7
370
    25
100
AcDbLine
 10
1495.644293
 20
1334.423947
 30
0.0
 11
1524.625835
 21
1363.405489
 31
0.0
  0
LINE
  5
221
330
209
100
AcDbEntity
  8
LC-004-005-----0
 62
     7
370
    25
100
AcDbLine
 10
1487.159011
 20
1334.423947
 30
0.0
 11
1515.773398
 21
1363.038334
 31
0.0
  0
LINE
  5
222
330
209
100
AcDbEntity
  8
LC-004-005-----0
 62
     7
370
    25
100
AcDbLine
 10
1478.67373
 20
1334.423947
 30
0.0
 11
1506.920962
 21
1362.671179
 31
0.0
  0
LINE
  5
223
330
209
100
AcDbEntity
  8
LC-004-005-----0
 62
     7
370
    25
100
AcDbLine
 10
1470.188449
 20
1334.423947
 30
0.0
 11
1498.068525
 21
1362.304023
 31
0.0
  0
LINE
  5
224
330
209
100
AcDbEntity
  8
LC-004-005-----0
 62
     7
370
    25
100
AcDbLine
 10
1461.703167
 20
1334.423947
 30
0.0
 11
1489.216089
 21
1361.936868
 31
0.0
  0
LINE
  5
225
330
209
100
AcDbEntity
  8
LC-004-005-----0
 62
     7
370
    25
100
AcDbLine
 10
1453.217886
 20
1334.423947
 30
0.0
 11
1480.363653
 21
1361.569713
 31
0.0
  0
LINE
  5
226
330
209
100
AcDbEntity
  8
LC-004-005-----0
 62
     7
370
    25
100
AcDbLine
 10
1444.732605
 20
1334.423947
 30
0.0
 11
1471.511216
 21
1361.202558
 31
0.0
  0
LINE
  5
227
330
209
100
AcDbEntity
  8
LC-004-005-----0
 62
     7
370
    25
100
AcDbLine
 10
1436.247323
 20
1334.423947
 30
0.0
 11
1462.65878
 21
1360.835403
 31
0.0
  0
LINE
  5
228
330
209
100
AcDbEntity
  8
LC-004-005-----0
 62
     7
370
    25
100
AcDbLine
 10
1427.762042
 20
1334.423947
 30
0.0
 11
1453.806343
 21
1360.468248
 31
0.0
  0
LINE
  5
229
330
209
100
AcDbEntity
  8
LC-004-005-----0
 62
     7
370
    25
100
AcDbLine
 10
1419.27676
 20
1334.423947
 30
0.0
 11
1444.953907
 21
1360.101093
 31
0.0
  0
LINE
  5
22A
330
209
100
AcDbEntity
  8
LC-004-005-----0
 62
     7
370
    25
100
AcDbLine
 10
1410.791479
 20
1334.423947
 30
0.0
 11
1436.101471
 21
1359.733938
 31
0.0
  0
LINE
  5
22B
330
209
100
AcDbEntity
  8
LC-004-005-----0
 62
     7
370
    25
100
AcDbLine
 10
1402.306198
 20
1334.423947
 30
0.0
 11
1427.249034
 21
1359.366783
 31
0.0
  0
LINE
  5
22C
330
209
100
AcDbEntity
  8
LC-004-005-----0
 62
     7
370
    25
100
AcDbLine
 10
1393.820916
 20
1334.423947
 30
0.0
 11
1418.396598
 21
1358.999628
 31
0.0
  0
LINE
  5
22D
330
209
100
AcDbEntity
  8
LC-004-005-----0
 62
     7
370
    25
100
AcDbLine
 10
1385.335635
 20
1334.423947
 30
0.0
 11
1409.544161
 21
1358.632473
 31
0.0
  0
LINE
  5
22E
330
209
100
AcDbEntity
  8
LC-004-005-----0
 62
     7
370
    25
100
AcDbLine
 10
1376.850354
 20
1334.423947
 30
0.0
 11
1400.691725
 21
1358.265318
 31
0.0
  0
LINE
  5
22F
330
209
100
AcDbEntity
  8
LC-004-005-----0
 62
     7
370
    25
100
AcDbLine
 10
1368.365072
 20
1334.423947
 30
0.0
 11
1391.839288
 21
1357.898163
 31
0.0
  0
LINE
  5
230
330
209
100
AcDbEntity
  8
LC-004-005-----0
 62
     7
370
    25
100
AcDbLine
 10
1359.879791
 20
1334.423947
 30
0.0
 11
1382.986852
 21
1357.531008
 31
0.0
  0
LINE
  5
231
330
209
100
AcDbEntity
  8
LC-004-005-----0
 62
     7
370
    25
100
AcDbLine
 10
1351.394509
 20
1334.423947
 30
0.0
 11
1374.134416
 21
1357.163853
 31
0.0
  0
LINE
  5
232
330
209
100
AcDbEntity
  8
LC-004-005-----0
 62
     7
370
    25
100
AcDbLine
 10
1342.909228
 20
1334.423947
 30
0.0
 11
1365.281979
 21
1356.796698
 31
0.0
  0
LINE
  5
233
330
209
100
AcDbEntity
  8
LC-004-005-----0
 62
     7
370
    25
100
AcDbLine
 10
1334.423947
 20
1334.423947
 30
0.0
 11
1356.429543
 21
1356.429543
 31
0.0
  0
LINE
  5
234
330
209
100
AcDbEntity
  8
LC-004-005-----0
 62
     7
370
    25
100
AcDbLine
 10
1325.938665
 20
1334.423947
 30
0.0
 11
1347.577106
 21
1356.062388
 31
0.0
  0
LINE
  5
235
330
209
100
AcDbEntity
  8
LC-004-005-----0
 62
     7
370
    25
100
AcDbLine
 10
1317.453384
 20
1334.423947
 30
0.0
 11
1338.72467
 21
1355.695233
 31
0.0
  0
LINE
  5
236
330
209
100
AcDbEntity
  8
LC-004-005-----0
 62
     7
370
    25
100
AcDbLine
 10
1308.968103
 20
1334.423947
 30
0.0
 11
1329.872234
 21
1355.328078
 31
0.0
  0
LINE
  5
237
330
209
100
AcDbEntity
  8
LC-004-005-----0
 62
     7
370
    25
100
AcDbLine
 10
1300.482821
 20
1334.423947
 30
0.0
 11
1321.019797
 21
1354.960923
 31
0.0
  0
LINE
  5
238
330
209
100
AcDbEntity
  8
LC-004-005-----0
 62
     7
370
    25
100
AcDbLine
 10
1291.99754
 20
1334.423947
 30
0.0
 11
1312.167361
 21
1354.593768
 31
0.0
  0
LINE
  5
239
330
209
100
AcDbEntity
  8
LC-004-005-----0
 62
     7
370
    25
100
AcDbLine
 10
1283.512258
 20
1334.423947
 30
0.0
 11
1303.314924
 21
1354.226613
 31
0.0
  0
LINE
  5
23A
330
209
100
AcDbEntity
  8
LC-004-005-----0
 62
     7
370
    25
100
AcDbLine
 10
1275.026977
 20
1334.423947
 30
0.0
 11
1294.462488
 21
1353.859458
 31
0.0
  0
LINE
  5
23B
330
209
100
AcDbEntity
  8
LC-004-005-----0
 62
     7
370
    25
100
AcDbLine
 10
1266.541696
 20
1334.423947
 30
0.0
 11
1285.610052
 21
1353.492302
 31
0.0
  0
LINE
  5
23C
330
209
100
AcDbEntity
  8
LC-004-005-----0
 62
     7
370
    25
100
AcDbLine
 10
1258.056414
 20
1334.423947
 30
0.0
 11
1276.757615
 21
1353.125147
 31
0.0
  0
LINE
  5
23D
330
209
100
AcDbEntity
  8
LC-004-005-----0
 62
     7
370
    25
100
AcDbLine
 10
1249.571133
 20
1334.423947
 30
0.0
 11
1267.905179
 21
1352.757992
 31
0.0
  0
LINE
  5
23E
330
209
100
AcDbEntity
  8
LC-004-005-----0
 62
     7
370
    25
100
AcDbLine
 10
1241.085852
 20
1334.423947
 30
0.0
 11
1257.595055
 21
1350.93315
 31
0.0
  0
LINE
  5
23F
330
209
100
AcDbEntity
  8
LC-004-005-----0
 62
     7
370
    25
100
AcDbLine
 10
1232.60057
 20
1334.423947
 30
0.0
 11
1244.057961
 21
1345.881337
 31
0.0
  0
LINE
  5
240
330
209
100
AcDbEntity
  8
LC-004-005-----0
 62
     7
370
    25
100
AcDbLine
 10
1244.919019
 20
1346.742396
 30
0.0
 11
1249.109774
 21
1350.93315
 31
0.0
  0
ENDBLK
  5
20B
330
209
100
AcDbEntity
  8
0
100
AcDbBlockEnd
  0
ENDSEC
  0
SECTION
  2
ENTITIES
  0
LINE
  5
32
330
1F
100
AcDbEntity
  8
LC-001-002-----0
 62
     7
370
    50
100
AcDbLine
 10
669.669019
 20
1266.727311
 30
0.0
 11
1669.669019
 21
1266.727311
 31
0.0
  0
LINE
  5
33
330
1F
100
AcDbEntity
  8
LC-001-002-----0
 62
     7
370
    50
100
AcDbLine
 10
1669.669019
 20
1266.727311
 30
0.0
 11
1669.669019
 21
266.727311
 31
0.0
  0
LINE
  5
34
330
1F
100
AcDbEntity
  8
LC-001-002-----0
 62
     7
370
    50
100
AcDbLine
 10
1669.669019
 20
266.727311
 30
0.0
 11
669.669019
 21
266.727311
 31
0.0
  0
LINE
  5
35
330
1F
100
AcDbEntity
  8
LC-001-002-----0
 62
     7
370
    50
100
AcDbLine
 10
669.669019
 20
266.727311
 30
0.0
 11
669.669019
 21
1266.727311
 31
0.0
  0
LINE
  5
36
330
1F
100
AcDbEntity
  8
LC-001-002-----0
 62
     7
370
    50
100
AcDbLine
 10
669.669019
 20
1266.727311
 30
0.0
 11
1118.227001
 21
818.16933
 31
0.0
  0
LINE
  5
37
330
1F
100
AcDbEntity
  8
LC-001-002-----0
 62
     7
370
    50
100
AcDbLine
 10
1669.669019
 20
1266.727311
 30
0.0
 11
1221.111038
 21
818.16933
 31
0.0
  0
LINE
  5
3A
330
1F
100
AcDbEntity
  8
LC-002-006-MLN-0
 62
     7
370
    25
100
AcDbLine
 10
1096.919019
 20
766.727311
 30
0.0
 11
1242.419019
 21
766.727311
 31
0.0
  0
LINE
  5
3B
330
1F
100
AcDbEntity
  8
LC-001-002-----0
 62
     7
370
    50
100
AcDbLine
 10
1221.111038
 20
715.285293
 30
0.0
 11
1669.669019
 21
266.727311
 31
0.0
  0
LINE
  5
3C
330
1F
100
AcDbEntity
  8
LC-001-002-----0
 62
     7
370
    50
100
AcDbLine
 10
1118.227001
 20
715.285293
 30
0.0
 11
669.669019
 21
266.727311
 31
0.0
  0
DIMENSION
  5
3F
330
1F
100
AcDbEntity
  8
LC-003-003-----0
 62
     7
370
    25
100
AcDbDimension
  2
*D1
 10
1669.669019
 20
1284.376
 30
0.0
 11
1195.131007
 21
1315.176
 31
0.0
 70
   160
 71
     5
 42
1000.0
  3
LC-DIM-L-0140-02-02
100
AcDbAlignedDimension
 13
669.669019
 23
1266.727311
 33
0.0
 14
1669.669019
 24
1266.727311
 34
0.0
100
AcDbRotatedDimension
  0
LINE
  5
4D
102
{ACAD_REACTORS
330
242
102
}
330
1F
100
AcDbEntity
  8
LC-002-006-MLN-0
 62
     7
370
    25
100
AcDbLine
 10
1169.669019
 20
839.477311
 30
0.0
 11
1169.669019
 21
693.977311
 31
0.0
  0
CIRCLE
  5
4E
102
{ACAD_REACTORS
330
242
102
}
330
1F
100
AcDbEntity
  8
LC-001-002-----0
 62
     7
370
    50
100
AcDbCircle
 10
1169.669019
 20
766.727311
 30
0.0
 40
56.50000000000023
  0
CIRCLE
  5
4F
102
{ACAD_REACTORS
330
242
102
}
330
1F
100
AcDbEntity
  8
LC-001-002-----0
 62
     7
370
    50
100
AcDbCircle
 10
1169.669019
 20
766.727311
 30
0.0
 40
59.75000000000023
  0
CIRCLE
  5
50
102
{ACAD_REACTORS
330
242
102
}
330
1F
100
AcDbEntity
  8
LC-001-002-----0
 62
     7
370
    50
100
AcDbCircle
 10
1169.669019
 20
766.727311
 30
0.0
 40
62.25000000000023
  0
CIRCLE
  5
51
102
{ACAD_REACTORS
330
242
102
}
330
1F
100
AcDbEntity
  8
LC-001-002-----0
 62
     7
370
    50
100
AcDbCircle
 10
1169.669019
 20
766.727311
 30
0.0
 40
66.00000000000023
  0
CIRCLE
  5
52
102
{ACAD_REACTORS
330
242
102
}
330
1F
100
AcDbEntity
  8
LC-001-002-----0
 62
     7
370
    50
100
AcDbCircle
 10
1169.669019
 20
766.727311
 30
0.0
 40
67.00000000000023
  0
CIRCLE
  5
53
102
{ACAD_REACTORS
330
242
102
}
330
1F
100
AcDbEntity
  8
LC-001-002-----0
 62
     7
370
    50
100
AcDbCircle
 10
1169.669019
 20
766.727311
 30
0.0
 40
72.75000000000023
  0
LINE
  5
54
330
1F
100
AcDbEntity
  8
LC-001-002-----0
 62
     7
370
    50
100
AcDbLine
 10
669.669019
 20
1334.423947
 30
0.0
 11
1111.669019
 21
1334.423947
 31
0.0
  0
LINE
  5
55
330
1F
100
AcDbEntity
  8
LC-001-002-----0
 62
     7
370
    50
100
AcDbLine
 10
1079.419019
 20
1352.429892
 30
0.0
 11
1079.281609
 21
1352.432023
 31
0.0
  0
LINE
  5
56
330
1F
100
AcDbEntity
  8
LC-001-002-----0
 62
     7
370
    50
100
AcDbLine
 10
1096.422093
 20
1352.434088
 30
0.0
 11
1096.422093
 21
1354.928874
 31
0.0
  0
LINE
  5
57
330
1F
100
AcDbEntity
  8
LC-001-002-----0
 62
     7
370
    50
100
AcDbLine
 10
669.669019
 20
1331.923947
 30
0.0
 11
1669.669019
 21
1331.923947
 31
0.0
  0
LINE
  5
58
330
1F
100
AcDbEntity
  8
LC-001-002-----0
 62
     7
370
    50
100
AcDbLine
 10
669.669019
 20
1371.923947
 30
0.0
 11
1669.669019
 21
1371.923947
 31
0.0
  0
LINE
  5
59
330
1F
100
AcDbEntity
  8
LC-001-002-----0
 62
     7
370
    50
100
AcDbLine
 10
669.669019
 20
1371.923947
 30
0.0
 11
669.669019
 21
1331.923947
 31
0.0
  0
LINE
  5
5A
330
1F
100
AcDbEntity
  8
LC-001-002-----0
 62
     7
370
    50
100
AcDbLine
 10
1669.669019
 20
1371.923947
 30
0.0
 11
1669.669019
 21
1331.923947
 31
0.0
  0
LINE
  5
5B
330
1F
100
AcDbEntity
  8
LC-001-002-----0
 62
     7
370
    50
100
AcDbLine
 10
1259.919019
 20
1352.429892
 30
0.0
 11
1243.065023
 21
1352.429892
 31
0.0
  0
LINE
  5
5C
330
1F
100
AcDbEntity
  8
LC-001-002-----0
 62
     7
370
    50
100
AcDbLine
 10
1079.301047
 20
1352.431659
 30
0.0
 11
669.669019
 21
1369.421159
 31
0.0
  0
LINE
  5
5D
330
1F
100
AcDbEntity
  8
LC-001-002-----0
 62
     7
370
    50
100
AcDbLine
 10
1079.419019
 20
1354.928874
 30
0.0
 11
1169.669019
 21
1354.928874
 31
0.0
  0
LINE
  5
5E
330
1F
100
AcDbEntity
  8
LC-001-002-----0
 62
     7
370
    50
100
AcDbLine
 10
1079.419019
 20
1354.928874
 30
0.0
 11
669.669019
 21
1371.923947
 31
0.0
  0
DIMENSION
  5
5F
330
1F
100
AcDbEntity
  8
LC-003-003-----0
 62
     7
370
    25
100
AcDbDimension
  2
*D2
 10
632.0
 20
1331.923947
 30
0.0
 11
601.2
 21
1349.541756
 31
0.0
 70
   160
 71
     5
 42
40.0
 53
90.0
  3
LC-DIM-L-0140-02-02
100
AcDbAlignedDimension
 13
669.669019
 23
1371.923947
 33
0.0
 14
669.669019
 24
1331.923947
 34
0.0
 50
90.0
100
AcDbRotatedDimension
  0
INSERT
  5
87
330
1F
100
AcDbEntity
  8
LC-004-005-----0
 62
     7
370
    25
100
AcDbBlockReference
  2
*X13
 10
0.0
 20
0.0
 30
0.0
  0
LINE
  5
88
330
1F
100
AcDbEntity
  8
LC-001-002-----0
 62
     7
370
    50
100
AcDbLine
 10
1085.669019
 20
1331.925917
 30
0.0
 11
1253.669019
 21
1331.925917
 31
0.0
  0
LINE
  5
89
330
1F
100
AcDbEntity
  8
LC-001-002-----0
 62
     7
370
    50
100
AcDbLine
 10
1085.669019
 20
1330.925917
 30
0.0
 11
1253.669019
 21
1330.925917
 31
0.0
  0
LINE
  5
8A
330
1F
100
AcDbEntity
  8
LC-001-002-----0
 62
     7
370
    50
100
AcDbLine
 10
1085.669019
 20
1331.925917
 30
0.0
 11
1085.669019
 21
1330.925917
 31
0.0
  0
LINE
  5
8B
330
1F
100
AcDbEntity
  8
LC-001-002-----0
 62
     7
370
    50
100
AcDbLine
 10
1253.669019
 20
1331.925917
 30
0.0
 11
1253.669019
 21
1330.925917
 31
0.0
  0
LINE
  5
8C
330
1F
100
AcDbEntity
  8
LC-001-002-----0
 62
     7
370
    50
100
AcDbLine
 10
1113.169019
 20
1331.925917
 30
0.0
 11
1113.169019
 21
1330.925917
 31
0.0
  0
LINE
  5
8D
330
1F
100
AcDbEntity
  8
LC-001-002-----0
 62
     7
370
    50
100
AcDbLine
 10
1226.169019
 20
1331.925917
 30
0.0
 11
1226.169019
 21
1330.925917
 31
0.0
  0
LINE
  5
8E
330
1F
100
AcDbEntity
  8
LC-001-002-----0
 62
     7
370
    50
100
AcDbLine
 10
1103.669019
 20
1345.930906
 30
0.0
 11
1235.669019
 21
1345.930906
 31
0.0
  0
LINE
  5
8F
330
1F
100
AcDbEntity
  8
LC-001-002-----0
 62
     7
370
    50
100
AcDbLine
 10
1169.669019
 20
1352.429892
 30
0.0
 11
1079.419019
 21
1352.429892
 31
0.0
  0
LINE
  5
90
330
1F
100
AcDbEntity
  8
LC-001-002-----0
 62
     7
370
    50
100
AcDbLine
 10
1236.669019
 20
1346.930906
 30
0.0
 11
1235.669019
 21
1345.930906
 31
0.0
  0
LINE
  5
91
330
1F
100
AcDbEntity
  8
LC-001-002-----0
 62
     7
370
    50
100
AcDbLine
 10
1107.419019
 20
1342.737808
 30
0.0
 11
1169.669019
 21
1342.737808
 31
0.0
  0
LINE
  5
92
330
1F
100
AcDbEntity
  8
LC-001-002-----0
 62
     7
370
    50
100
AcDbLine
 10
1102.669019
 20
1346.930906
 30
0.0
 11
1103.669019
 21
1345.930906
 31
0.0
  0
LINE
  5
93
330
1F
100
AcDbEntity
  8
LC-001-002-----0
 62
     7
370
    50
100
AcDbLine
 10
1094.419019
 20
1346.429892
 30
0.0
 11
1111.669019
 21
1335.440429
 31
0.0
  0
LINE
  5
94
330
1F
100
AcDbEntity
  8
LC-001-002-----0
 62
     7
370
    50
100
AcDbLine
 10
1103.669019
 20
1345.930906
 30
0.0
 11
1103.669019
 21
1345.126822
 31
0.0
  0
ARC
  5
96
330
1F
100
AcDbEntity
  8
LC-005-002-RND-0
 62
     7
370
    50
100
AcDbCircle
 10
1110.169019
 20
1337.408798
 30
0.0
 40
3.0
100
AcDbArc
 50
0.0
 51
57.499998
  0
LINE
  5
97
330
1F
100
AcDbEntity
  8
LC-001-002-----0
 62
     7
370
    50
100
AcDbLine
 10
1111.669019
 20
1335.440429
 30
0.0
 11
1111.669019
 21
1331.925917
 31
0.0
  0
LINE
  5
98
330
1F
100
AcDbEntity
  8
LC-001-002-----0
 62
     7
370
    50
100
AcDbLine
 10
1096.123937
 20
1352.429892
 30
0.0
 11
1096.422093
 21
1352.429892
 31
0.0
  0
LINE
  5
99
330
1F
100
AcDbEntity
  8
LC-001-002-----0
 62
     7
370
    50
100
AcDbLine
 10
1109.919019
 20
1341.125133
 30
0.0
 11
1111.780918
 21
1339.938972
 31
0.0
  0
LINE
  5
9A
330
1F
100
AcDbEntity
  8
LC-001-002-----0
 62
     7
370
    50
100
AcDbLine
 10
1103.669019
 20
1345.126822
 30
0.0
 11
1107.419019
 21
1342.737808
 31
0.0
  0
LINE
  5
9B
330
1F
100
AcDbEntity
  8
LC-001-002-----0
 62
     7
370
    50
100
AcDbLine
 10
1096.919019
 20
1346.930906
 30
0.0
 11
1102.669019
 21
1346.930906
 31
0.0
  0
LINE
  5
9C
330
1F
100
AcDbEntity
  8
LC-001-002-----0
 62
     7
370
    50
100
AcDbLine
 10
1103.669019
 20
1345.126822
 30
0.0
 11
1169.669019
 21
1345.126822
 31
0.0
  0
LINE
  5
9D
330
1F
100
AcDbEntity
  8
LC-001-002-----0
 62
     7
370
    50
100
AcDbLine
 10
1096.919019
 20
1346.930906
 30
0.0
 11
1096.919019
 21
1351.932966
 31
0.0
  0
LINE
  5
9E
330
1F
100
AcDbEntity
  8
LC-001-002-----0
 62
     7
370
    50
100
AcDbLine
 10
1109.919019
 20
1341.125133
 30
0.0
 11
1109.919019
 21
1340.426185
 31
0.0
  0
LINE
  5
9F
330
1F
100
AcDbEntity
  8
LC-001-002-----0
 62
     7
370
    50
100
AcDbLine
 10
1109.919019
 20
1340.426185
 30
0.0
 11
1107.419019
 21
1340.426185
 31
0.0
  0
ARC
  5
A0
330
1F
100
AcDbEntity
  8
LC-001-002-----0
 62
     7
370
    50
100
AcDbCircle
 10
1096.422093
 20
1351.932966
 30
0.0
 40
0.4969262295080625
100
AcDbArc
 50
0.0
 51
90.0
  0
LINE
  5
A1
330
1F
100
AcDbEntity
  8
LC-001-002-----0
 62
     7
370
    50
100
AcDbLine
 10
1107.419019
 20
1342.737808
 30
0.0
 11
1107.419019
 21
1340.426185
 31
0.0
  0
LINE
  5
A2
330
1F
100
AcDbEntity
  8
LC-001-002-----0
 62
     7
370
    50
100
AcDbLine
 10
1079.419019
 20
1350.93315
 30
0.0
 11
1094.419019
 21
1350.93315
 31
0.0
  0
LINE
  5
A3
330
1F
100
AcDbEntity
  8
LC-001-002-----0
 62
     7
370
    50
100
AcDbLine
 10
1094.419019
 20
1350.93315
 30
0.0
 11
1094.419019
 21
1346.429892
 31
0.0
  0
LINE
  5
A4
330
1F
100
AcDbEntity
  8
LC-001-002-----0
 62
     7
370
    50
100
AcDbLine
 10
1113.169019
 20
1337.408798
 30
0.0
 11
1113.169019
 21
1331.925917
 31
0.0
  0
LINE
  5
A5
330
1F
100
AcDbEntity
  8
LC-001-002-----0
 62
     7
370
    50
100
AcDbLine
 10
1169.669019
 20
1331.925917
 30
0.0
 11
1111.669019
 21
1331.925917
 31
0.0
  0
LINE
  5
A6
330
1F
100
AcDbEntity
  8
LC-001-002-----0
 62
     7
370
    50
100
AcDbLine
 10
1109.919019
 20
1341.125133
 30
0.0
 11
1169.669019
 21
1341.125133
 31
0.0
  0
LINE
  5
A7
330
1F
100
AcDbEntity
  8
LC-004-005-----0
 62
     7
370
    25
100
AcDbLine
 10
1114.985994
 20
1339.054654
 30
0.0
 11
1169.669019
 21
1339.054654
 31
0.0
  0
LINE
  5
A8
330
1F
100
AcDbEntity
  8
LC-002-006-MLN-0
 62
     7
370
    25
100
AcDbLine
 10
1169.669019
 20
1352.429892
 30
0.0
 11
1169.669019
 21
1331.925917
 31
0.0
  0
LINE
  5
A9
330
1F
100
AcDbEntity
  8
LC-001-002-----0
 62
     7
370
    50
100
AcDbLine
 10
1079.419019
 20
1352.429892
 30
0.0
 11
1079.419019
 21
1350.93315
 31
0.0
  0
LINE
  5
AA
330
1F
100
AcDbEntity
  8
LC-001-002-----0
 62
     7
370
    50
100
AcDbLine
 10
1102.669019
 20
1346.930906
 30
0.0
 11
1169.669019
 21
1346.930906
 31
0.0
  0
LINE
  5
AB
330
1F
100
AcDbEntity
  8
LC-001-002-----0
 62
     7
370
    50
100
AcDbLine
 10
1244.919019
 20
1346.429892
 30
0.0
 11
1227.669019
 21
1335.440429
 31
0.0
  0
LINE
  5
AC
330
1F
100
AcDbEntity
  8
LC-001-002-----0
 62
     7
370
    50
100
AcDbLine
 10
1235.669019
 20
1345.930906
 30
0.0
 11
1235.669019
 21
1345.126822
 31
0.0
  0
ARC
  5
AD
330
1F
100
AcDbEntity
  8
LC-005-002-RND-0
 62
     7
370
    50
100
AcDbCircle
 10
1229.169019
 20
1337.408798
 30
0.0
 40
2.999999999999981
100
AcDbArc
 50
122.500002
 51
180.0
  0
LINE
  5
AE
330
1F
100
AcDbEntity
  8
LC-001-002-----0
 62
     7
370
    50
100
AcDbLine
 10
1227.669019
 20
1335.440429
 30
0.0
 11
1227.669019
 21
1331.925917
 31
0.0
  0
LINE
  5
AF
330
1F
100
AcDbEntity
  8
LC-001-002-----0
 62
     7
370
    50
100
AcDbLine
 10
1243.214101
 20
1352.429892
 30
0.0
 11
1242.915945
 21
1352.429892
 31
0.0
  0
LINE
  5
B0
330
1F
100
AcDbEntity
  8
LC-001-002-----0
 62
     7
370
    50
100
AcDbLine
 10
1229.419019
 20
1341.125133
 30
0.0
 11
1227.55712
 21
1339.938972
 31
0.0
  0
LINE
  5
B1
330
1F
100
AcDbEntity
  8
LC-001-002-----0
 62
     7
370
    50
100
AcDbLine
 10
1235.669019
 20
1345.126822
 30
0.0
 11
1231.919019
 21
1342.737808
 31
0.0
  0
LINE
  5
B2
330
1F
100
AcDbEntity
  8
LC-001-002-----0
 62
     7
370
    50
100
AcDbLine
 10
1242.419019
 20
1346.930906
 30
0.0
 11
1236.669019
 21
1346.930906
 31
0.0
  0
LINE
  5
B3
330
1F
100
AcDbEntity
  8
LC-001-002-----0
 62
     7
370
    50
100
AcDbLine
 10
1242.419019
 20
1346.930906
 30
0.0
 11
1242.419019
 21
1351.932966
 31
0.0
  0
LINE
  5
B4
330
1F
100
AcDbEntity
  8
LC-001-002-----0
 62
     7
370
    50
100
AcDbLine
 10
1229.419019
 20
1341.125133
 30
0.0
 11
1229.419019
 21
1340.426185
 31
0.0
  0
LINE
  5
B5
330
1F
100
AcDbEntity
  8
LC-001-002-----0
 62
     7
370
    50
100
AcDbLine
 10
1229.419019
 20
1340.426185
 30
0.0
 11
1231.919019
 21
1340.426185
 31
0.0
  0
ARC
  5
B6
330
1F
100
AcDbEntity
  8
LC-001-002-----0
 62
     7
370
    50
100
AcDbCircle
 10
1242.915945
 20
1351.932966
 30
0.0
 40
0.4969262295082899
100
AcDbArc
 50
90.0
 51
180.0
  0
LINE
  5
B7
330
1F
100
AcDbEntity
  8
LC-001-002-----0
 62
     7
370
    50
100
AcDbLine
 10
1231.919019
 20
1342.737808
 30
0.0
 11
1231.919019
 21
1340.426185
 31
0.0
  0
LINE
  5
B8
330
1F
100
AcDbEntity
  8
LC-001-002-----0
 62
     7
370
    50
100
AcDbLine
 10
1259.919019
 20
1350.93315
 30
0.0
 11
1244.919019
 21
1350.93315
 31
0.0
  0
LINE
  5
B9
330
1F
100
AcDbEntity
  8
LC-001-002-----0
 62
     7
370
    50
100
AcDbLine
 10
1244.919019
 20
1350.93315
 30
0.0
 11
1244.919019
 21
1346.429892
 31
0.0
  0
LINE
  5
BA
330
1F
100
AcDbEntity
  8
LC-001-002-----0
 62
     7
370
    50
100
AcDbLine
 10
1226.169019
 20
1337.408798
 30
0.0
 11
1226.169019
 21
1331.925917
 31
0.0
  0
LINE
  5
BB
330
1F
100
AcDbEntity
  8
LC-001-002-----0
 62
     7
370
    50
100
AcDbLine
 10
1259.919019
 20
1352.429892
 30
0.0
 11
1259.919019
 21
1350.93315
 31
0.0
  0
LINE
  5
BC
330
1F
100
AcDbEntity
  8
LC-001-002-----0
 62
     7
370
    50
100
AcDbLine
 10
1236.669019
 20
1346.930906
 30
0.0
 11
1169.669019
 21
1346.930906
 31
0.0
  0
LINE
  5
BD
330
1F
100
AcDbEntity
  8
LC-001-002-----0
 62
     7
370
    50
100
AcDbLine
 10
1235.669019
 20
1345.126822
 30
0.0
 11
1169.669019
 21
1345.126822
 31
0.0
  0
LINE
  5
BE
330
1F
100
AcDbEntity
  8
LC-001-002-----0
 62
     7
370
    50
100
AcDbLine
 10
1231.919019
 20
1342.737808
 30
0.0
 11
1169.669019
 21
1342.737808
 31
0.0
  0
LINE
  5
BF
330
1F
100
AcDbEntity
  8
LC-001-002-----0
 62
     7
370
    50
100
AcDbLine
 10
1229.419019
 20
1341.125133
 30
0.0
 11
1169.669019
 21
1341.125133
 31
0.0
  0
LINE
  5
C0
330
1F
100
AcDbEntity
  8
LC-004-005-----0
 62
     7
370
    25
100
AcDbLine
 10
1224.352045
 20
1339.054654
 30
0.0
 11
1169.669019
 21
1339.054654
 31
0.0
  0
LINE
  5
C1
330
1F
100
AcDbEntity
  8
LC-001-002-----0
 62
     7
370
    50
100
AcDbLine
 10
1169.669019
 20
1331.925917
 30
0.0
 11
1227.669019
 21
1331.925917
 31
0.0
  0
LINE
  5
C2
330
1F
100
AcDbEntity
  8
LC-001-002-----0
 62
     7
370
    50
100
AcDbLine
 10
1169.669019
 20
1352.429892
 30
0.0
 11
1259.919019
 21
1352.429892
 31
0.0
  0
INSERT
  5
E8
330
1F
100
AcDbEntity
  8
LC-004-005-----0
 62
     7
370
    25
100
AcDbBlockReference
  2
*X24
 10
0.0
 20
0.0
 30
0.0
  0
LINE
  5
E9
330
1F
100
AcDbEntity
  8
LC-001-002-----0
 62
     7
370
    50
100
AcDbLine
 10
1111.669019
 20
1335.440429
 30
0.0
 11
1111.669019
 21
1331.923947
 31
0.0
  0
LINE
  5
EA
330
1F
100
AcDbEntity
  8
LC-001-002-----0
 62
     7
370
    50
100
AcDbLine
 10
1094.419019
 20
1350.93315
 30
0.0
 11
1094.419019
 21
1346.429892
 31
0.0
  0
LINE
  5
EB
330
1F
100
AcDbEntity
  8
LC-001-002-----0
 62
     7
370
    50
100
AcDbLine
 10
1079.419019
 20
1350.93315
 30
0.0
 11
1094.419019
 21
1350.93315
 31
0.0
  0
LINE
  5
EC
330
1F
100
AcDbEntity
  8
LC-001-002-----0
 62
     7
370
    50
100
AcDbLine
 10
1079.419019
 20
1352.434088
 30
0.0
 11
1079.419019
 21
1350.93315
 31
0.0
  0
LINE
  5
ED
330
1F
100
AcDbEntity
  8
LC-001-002-----0
 62
     7
370
    50
100
AcDbLine
 10
1259.919019
 20
1352.429892
 30
0.0
 11
1259.919019
 21
1350.93315
 31
0.0
  0
LINE
  5
EE
330
1F
100
AcDbEntity
  8
LC-001-002-----0
 62
     7
370
    50
100
AcDbLine
 10
1259.919019
 20
1350.93315
 30
0.0
 11
1244.919019
 21
1350.93315
 31
0.0
  0
LINE
  5
EF
330
1F
100
AcDbEntity
  8
LC-001-002-----0
 62
     7
370
    50
100
AcDbLine
 10
1244.919019
 20
1350.93315
 30
0.0
 11
1244.919019
 21
1346.429892
 31
0.0
  0
LINE
  5
F0
330
1F
100
AcDbEntity
  8
LC-001-002-----0
 62
     7
370
    50
100
AcDbLine
 10
1244.919019
 20
1346.429892
 30
0.0
 11
1227.669019
 21
1335.440429
 31
0.0
  0
LINE
  5
F1
330
1F
100
AcDbEntity
  8
LC-001-002-----0
 62
     7
370
    50
100
AcDbLine
 10
1227.669019
 20
1335.440429
 30
0.0
 11
1227.669019
 21
1331.923947
 31
0.0
  0
LINE
  5
F2
330
1F
100
AcDbEntity
  8
LC-001-002-----0
 62
     7
370
    50
100
AcDbLine
 10
1096.422093
 20
1352.434088
 30
0.0
 11
1079.419019
 21
1352.434088
 31
0.0
  0
LINE
  5
F3
330
1F
100
AcDbEntity
  8
LC-001-002-----0
 62
     7
370
    50
100
AcDbLine
 10
1669.669019
 20
1334.423947
 30
0.0
 11
1227.669019
 21
1334.423947
 31
0.0
  0
LINE
  5
F4
330
1F
100
AcDbEntity
  8
LC-001-002-----0
 62
     7
370
    50
100
AcDbLine
 10
1259.919019
 20
1354.928874
 30
0.0
 11
1669.669019
 21
1371.923947
 31
0.0
  0
LINE
  5
F5
330
1F
100
AcDbEntity
  8
LC-001-002-----0
 62
     7
370
    50
100
AcDbLine
 10
1260.036991
 20
1352.431659
 30
0.0
 11
1669.669019
 21
1369.421159
 31
0.0
  0
LINE
  5
F6
330
1F
100
AcDbEntity
  8
LC-001-002-----0
 62
     7
370
    50
100
AcDbLine
 10
1242.915945
 20
1352.434088
 30
0.0
 11
1242.915945
 21
1354.928874
 31
0.0
  0
LINE
  5
F7
330
1F
100
AcDbEntity
  8
LC-001-002-----0
 62
     7
370
    50
100
AcDbLine
 10
1259.919019
 20
1354.928874
 30
0.0
 11
1169.669019
 21
1354.928874
 31
0.0
  0
INSERT
  5
1C9
330
1F
100
AcDbEntity
  8
LC-004-005-----0
 62
     7
370
    25
100
AcDbBlockReference
  2
*X35
 10
0.0
 20
0.0
 30
0.0
  0
LINE
  5
1CA
330
1F
100
AcDbEntity
  8
LC-001-002-----0
 62
     7
370
    50
100
AcDbLine
 10
1094.419019
 20
1346.429892
 30
0.0
 11
1111.669019
 21
1335.440429
 31
0.0
  0
INSERT
  5
206
330
1F
100
AcDbEntity
  8
LC-004-005-----0
 62
     7
370
    25
100
AcDbBlockReference
  2
*X46
 10
0.0
 20
0.0
 30
0.0
  0
TEXT
  5
208
330
1F
100
AcDbEntity
  8
LC-006-004-----0
 62
     7
370
    25
100
AcDbText
 10
865.211442
 20
1362.758377
 30
0.0
 40
5.0
  1
a
 41
0.9
 51
15.0
  7
LCTX15-400-0-0pDIN-Schrift
100
AcDbText
  0
INSERT
  5
241
330
1F
100
AcDbEntity
  8
LC-004-005-----0
 62
     7
370
    25
100
AcDbBlockReference
  2
*X57
 10
0.0
 20
0.0
 30
0.0
  0
ENDSEC
  0
SECTION
  2
OBJECTS
  0
DICTIONARY
  5
C
330
0
100
AcDbDictionary
281
     1
  3
ACAD_GROUP
350
D
  3
ACAD_LAYOUT
350
1A
  3
ACAD_MLINESTYLE
350
17
  3
ACAD_PLOTSETTINGS
350
19
  3
ACAD_PLOTSTYLENAME
350
E
  0
DICTIONARY
  5
D
102
{ACAD_REACTORS
330
C
102
}
330
C
100
AcDbDictionary
281
     1
  3
LCGROUP110
350
242
  0
DICTIONARY
  5
1A
102
{ACAD_REACTORS
330
C
102
}
330
C
100
AcDbDictionary
281
     1
  3
Layout1
350
1E
  3
Layout2
350
26
  3
Model
350
22
  0
DICTIONARY
  5
17
102
{ACAD_REACTORS
330
C
102
}
330
C
100
AcDbDictionary
281
     1
  3
Standard
350
18
  0
DICTIONARY
  5
19
102
{ACAD_REACTORS
330
C
102
}
330
C
100
AcDbDictionary
281
     1
  0
ACDBDICTIONARYWDFLT
  5
E
102
{ACAD_REACTORS
330
C
102
}
330
C
100
AcDbDictionary
281
     1
  3
Normal
350
F
100
AcDbDictionaryWithDefault
340
F
  0
GROUP
  5
242
102
{ACAD_REACTORS
330
D
102
}
330
D
100
AcDbGroup
300
GRP110
 70
     1
 71
     1
340
4D
340
4E
340
4F
340
50
340
51
340
52
340
53
  0
LAYOUT
  5
1E
102
{ACAD_REACTORS
330
1A
102
}
330
1A
100
AcDbPlotSettings
  1

  2

  4

  6

 40
0.0
 41
0.0
 42
0.0
 43
0.0
 44
0.0
 45
0.0
 46
0.0
 47
0.0
 48
0.0
 49
0.0
140
0.0
141
0.0
142
1.0
143
1.0
 70
   688
 72
     0
 73
     0
 74
     5
  7

 75
    16
147
1.0
148
0.0
149
0.0
100
AcDbLayout
  1
Layout1
 70
     1
 71
     1
 10
70.873179
 20
228.244
 11
1752.873179
 21
1416.244
 12
0.0
 22
0.0
 32
0.0
 14
70.873179
 24
228.244
 34
0.0
 15
1752.873179
 25
1416.244
 35
0.0
146
0.0
 13
0.0
 23
0.0
 33
0.0
 16
1.0
 26
0.0
 36
0.0
 17
0.0
 27
1.0
 37
0.0
 76
     0
330
1B
  0
LAYOUT
  5
26
102
{ACAD_REACTORS
330
1A
102
}
330
1A
100
AcDbPlotSettings
  1

  2

  4

  6

 40
0.0
 41
0.0
 42
0.0
 43
0.0
 44
0.0
 45
0.0
 46
0.0
 47
0.0
 48
0.0
 49
0.0
140
0.0
141
0.0
142
1.0
143
1.0
 70
   688
 72
     0
 73
     0
 74
     5
  7

 75
    16
147
1.0
148
0.0
149
0.0
100
AcDbLayout
  1
Layout2
 70
     1
 71
     2
 10
0.0
 20
0.0
 11
0.0
 21
0.0
 12
0.0
 22
0.0
 32
0.0
 14
0.0
 24
0.0
 34
0.0
 15
0.0
 25
0.0
 35
0.0
146
0.0
 13
0.0
 23
0.0
 33
0.0
 16
1.0
 26
0.0
 36
0.0
 17
0.0
 27
1.0
 37
0.0
 76
     0
330
23
  0
LAYOUT
  5
22
102
{ACAD_REACTORS
330
1A
102
}
330
1A
100
AcDbPlotSettings
  1

  2

  4

  6

 40
0.0
 41
0.0
 42
0.0
 43
0.0
 44
0.0
 45
0.0
 46
0.0
 47
0.0
 48
0.0
 49
0.0
140
0.0
141
0.0
142
1.0
143
1.0
 70
  1776
 72
     0
 73
     0
 74
     0
  7

 75
     0
147
1.0
148
0.0
149
0.0
100
AcDbLayout
  1
Model
 70
     1
 71
     0
 10
70.873179
 20
228.244
 11
1752.873179
 21
1416.244
 12
70.873179
 22
228.244
 32
0.0
 14
70.873179
 24
228.244
 34
0.0
 15
1752.873179
 25
1416.244
 35
0.0
146
0.0
 13
0.0
 23
0.0
 33
0.0
 16
1.0
 26
0.0
 36
0.0
 17
0.0
 27
1.0
 37
0.0
 76
     0
330
1F
  0
MLINESTYLE
  5
18
102
{ACAD_REACTORS
330
17
102
}
330
17
100
AcDbMlineStyle
  2
Standard
 70
     0
  3

 62
   256
 51
90.0
 52
90.0
 71
     2
 49
0.5
 62
   256
  6
BYLAYER
 49
-0.5
 62
   256
  6
BYLAYER
  0
ACDBPLACEHOLDER
  5
F
102
{ACAD_REACTORS
330
E
102
}
330
E
  0
ENDSEC
  0
EOF
