  0
SECTION
  2
HEADER
  9
$ACADVER
  1
AC1015
  9
$ACADMAINTVER
 70
     6
  9
$DWGCODEPAGE
  3
DOS850
  9
$INSBASE
 10
0.0
 20
0.0
 30
0.0
  9
$EXTMIN
 10
-210.0
 20
-148.5
 30
0.0
  9
$EXTMAX
 10
630.0
 20
445.5
 30
0.0
  9
$LIMMIN
 10
-210.0
 20
-148.5
  9
$LIMMAX
 10
630.0
 20
445.5
  9
$ORTHOMODE
 70
     0
  9
$REGENMODE
 70
     1
  9
$FILLMODE
 70
     1
  9
$QTEXTMODE
 70
     0
  9
$MIRRTEXT
 70
     1
  9
$LTSCALE
 40
2.0
  9
$ATTMODE
 70
     1
  9
$TEXTSIZE
 40
2.5
  9
$TRACEWID
 40
1.0
  9
$TEXTSTYLE
  7
Standard
  9
$CLAYER
  8
0
  9
$CELTYPE
  6
ByLayer
  9
$CECOLOR
 62
     7
  9
$CELTSCALE
 40
1.0
  9
$DISPSILH
 70
     0
  9
$DIMSCALE
 40
2.0
  9
$DIMASZ
 40
3.5
  9
$DIMEXO
 40
0.625
  9
$DIMDLI
 40
3.75
  9
$DIMRND
 40
0.0
  9
$DIMDLE
 40
0.0
  9
$DIMEXE
 40
1.25
  9
$DIMTP
 40
0.0
  9
$DIMTM
 40
0.0
  9
$DIMTXT
 40
3.5
  9
$DIMCEN
 40
2.5
  9
$DIMTSZ
 40
0.0
  9
$DIMTOL
 70
     0
  9
$DIMLIM
 70
     0
  9
$DIMTIH
 70
     0
  9
$DIMTOH
 70
     0
  9
$DIMSE1
 70
     0
  9
$DIMSE2
 70
     0
  9
$DIMTAD
 70
     1
  9
$DIMZIN
 70
     8
  9
$DIMBLK
  1

  9
$DIMASO
 70
     1
  9
$DIMSHO
 70
     1
  9
$DIMPOST
  1

  9
$DIMAPOST
  1

  9
$DIMALT
 70
     0
  9
$DIMALTD
 70
     3
  9
$DIMALTF
 40
0.03937
  9
$DIMLFAC
 40
1.0
  9
$DIMTOFL
 70
     1
  9
$DIMTVP
 40
0.0
  9
$DIMTIX
 70
     0
  9
$DIMSOXD
 70
     0
  9
$DIMSAH
 70
     0
  9
$DIMBLK1
  1

  9
$DIMBLK2
  1

  9
$DIMSTYLE
  2
ISO-25
  9
$DIMCLRD
 70
     0
  9
$DIMCLRE
 70
     0
  9
$DIMCLRT
 70
     0
  9
$DIMTFAC
 40
1.0
  9
$DIMGAP
 40
0.625
  9
$DIMJUST
 70
     0
  9
$DIMSD1
 70
     0
  9
$DIMSD2
 70
     0
  9
$DIMTOLJ
 70
     0
  9
$DIMTZIN
 70
     8
  9
$DIMALTZ
 70
     0
  9
$DIMALTTZ
 70
     0
  9
$DIMUPT
 70
     0
  9
$DIMDEC
 70
     2
  9
$DIMTDEC
 70
     2
  9
$DIMALTU
 70
     2
  9
$DIMALTTD
 70
     3
  9
$DIMTXSTY
  7
Standard
  9
$DIMAUNIT
 70
     0
  9
$DIMADEC
 70
     0
  9
$DIMALTRND
 40
0.0
  9
$DIMAZIN
 70
     0
  9
$DIMDSEP
 70
    44
  9
$DIMATFIT
 70
     3
  9
$DIMFRAC
 70
     0
  9
$DIMLDRBLK
  1

  9
$DIMLUNIT
 70
     2
  9
$DIMLWD
 70
    -2
  9
$DIMLWE
 70
    -2
  9
$DIMTMOVE
 70
     0
  9
$LUNITS
 70
     2
  9
$LUPREC
 70
     4
  9
$SKETCHINC
 40
1.0
  9
$FILLETRAD
 40
10.0
  9
$AUNITS
 70
     0
  9
$AUPREC
 70
     0
  9
$MENU
  1
.
  9
$ELEVATION
 40
0.0
  9
$PELEVATION
 40
0.0
  9
$THICKNESS
 40
0.0
  9
$LIMCHECK
 70
     0
  9
$CHAMFERA
 40
10.0
  9
$CHAMFERB
 40
10.0
  9
$CHAMFERC
 40
20.0
  9
$CHAMFERD
 40
0.0
  9
$SKPOLY
 70
     0
  9
$TDCREATE
 40
2454883.373797569
  9
$TDUCREATE
 40
2454883.332130903
  9
$TDUPDATE
 40
2454883.373797581
  9
$TDUUPDATE
 40
2454883.332130915
  9
$TDINDWG
 40
0.0000000116
  9
$TDUSRTIMER
 40
0.0000000116
  9
$USRTIMER
 70
     1
  9
$ANGBASE
 50
0.0
  9
$ANGDIR
 70
     0
  9
$PDMODE
 70
     0
  9
$PDSIZE
 40
0.0
  9
$PLINEWID
 40
0.0
  9
$SPLFRAME
 70
     0
  9
$SPLINETYPE
 70
     6
  9
$SPLINESEGS
 70
     8
  9
$HANDSEED
  5
3AB
  9
$SURFTAB1
 70
     6
  9
$SURFTAB2
 70
     6
  9
$SURFTYPE
 70
     6
  9
$SURFU
 70
     6
  9
$SURFV
 70
     6
  9
$UCSBASE
  2

  9
$UCSNAME
  2

  9
$UCSORG
 10
0.0
 20
0.0
 30
0.0
  9
$UCSXDIR
 10
1.0
 20
0.0
 30
0.0
  9
$UCSYDIR
 10
0.0
 20
1.0
 30
0.0
  9
$UCSORTHOREF
  2

  9
$UCSORTHOVIEW
 70
     0
  9
$UCSORGTOP
 10
0.0
 20
0.0
 30
0.0
  9
$UCSORGBOTTOM
 10
0.0
 20
0.0
 30
0.0
  9
$UCSORGLEFT
 10
0.0
 20
0.0
 30
0.0
  9
$UCSORGRIGHT
 10
0.0
 20
0.0
 30
0.0
  9
$UCSORGFRONT
 10
0.0
 20
0.0
 30
0.0
  9
$UCSORGBACK
 10
0.0
 20
0.0
 30
0.0
  9
$PUCSBASE
  2

  9
$PUCSNAME
  2

  9
$PUCSORG
 10
0.0
 20
0.0
 30
0.0
  9
$PUCSXDIR
 10
1.0
 20
0.0
 30
0.0
  9
$PUCSYDIR
 10
0.0
 20
1.0
 30
0.0
  9
$PUCSORTHOREF
  2

  9
$PUCSORTHOVIEW
 70
     0
  9
$PUCSORGTOP
 10
0.0
 20
0.0
 30
0.0
  9
$PUCSORGBOTTOM
 10
0.0
 20
0.0
 30
0.0
  9
$PUCSORGLEFT
 10
0.0
 20
0.0
 30
0.0
  9
$PUCSORGRIGHT
 10
0.0
 20
0.0
 30
0.0
  9
$PUCSORGFRONT
 10
0.0
 20
0.0
 30
0.0
  9
$PUCSORGBACK
 10
0.0
 20
0.0
 30
0.0
  9
$USERI1
 70
     0
  9
$USERI2
 70
     0
  9
$USERI3
 70
     0
  9
$USERI4
 70
     0
  9
$USERI5
 70
     0
  9
$USERR1
 40
0.0
  9
$USERR2
 40
0.0
  9
$USERR3
 40
0.0
  9
$USERR4
 40
0.0
  9
$USERR5
 40
0.0
  9
$WORLDVIEW
 70
     1
  9
$SHADEDGE
 70
     3
  9
$SHADEDIF
 70
    70
  9
$TILEMODE
 70
     1
  9
$MAXACTVP
 70
    64
  9
$PINSBASE
 10
0.0
 20
0.0
 30
0.0
  9
$PLIMCHECK
 70
     0
  9
$PEXTMIN
 10
-210.0
 20
-148.5
 30
0.0
  9
$PEXTMAX
 10
630.0
 20
445.5
 30
0.0
  9
$PLIMMIN
 10
-210.0
 20
-148.5
  9
$PLIMMAX
 10
630.0
 20
445.5
  9
$UNITMODE
 70
     0
  9
$VISRETAIN
 70
     1
  9
$PLINEGEN
 70
     0
  9
$PSLTSCALE
 70
     1
  9
$TREEDEPTH
 70
  3020
  9
$CMLSTYLE
  2
Standard
  9
$CMLJUST
 70
     0
  9
$CMLSCALE
 40
20.0
  9
$PROXYGRAPHICS
 70
     1
  9
$MEASUREMENT
 70
     1
  9
$CELWEIGHT
370
    -1
  9
$ENDCAPS
280
     0
  9
$JOINSTYLE
280
     0
  9
$LWDISPLAY
290
     0
  9
$INSUNITS
 70
     4
  9
$HYPERLINKBASE
  1

  9
$STYLESHEET
  1

  9
$XEDIT
290
     1
  9
$CEPSNTYPE
380
     0
  9
$PSTYLEMODE
290
     1
  9
$FINGERPRINTGUID
  2
{FAEB1C30-E019-11D5-929B-00C0DF256EC4}
  9
$VERSIONGUID
  2
{FAEB1C32-E019-11D5-929B-00C0DF256EC4}
  9
$EXTNAMES
290
     1
  9
$PSVPSCALE
 40
0.0
  9
$OLESTARTUP
290
     0
  0
ENDSEC
  0
SECTION
  2
CLASSES
  0
CLASS
  1
ACDBDICTIONARYWDFLT
  2
AcDbDictionaryWithDefault
  3
ObjectDBX Classes
 90
        0
280
     0
281
     0
  0
CLASS
  1
ACDBPLACEHOLDER
  2
AcDbPlaceHolder
  3
ObjectDBX Classes
 90
        0
280
     0
281
     0
  0
CLASS
  1
LAYOUT
  2
AcDbLayout
  3
ObjectDBX Classes
 90
        0
280
     0
281
     0
  0
ENDSEC
  0
SECTION
  2
TABLES
  0
TABLE
  2
VPORT
  5
8
330
0
100
AcDbSymbolTable
 70
     2
  0
VPORT
  5
29
330
8
100
AcDbSymbolTableRecord
100
AcDbViewportTableRecord
  2
*ACTIVE
 70
     0
 10
0.0
 20
0.0
 11
1.0
 21
1.0
 12
210.0
 22
148.5
 13
0.0
 23
0.0
 14
1.0
 24
1.0
 15
0.0
 25
0.0
 16
0.0
 26
0.0
 36
1.0
 17
0.0
 27
0.0
 37
0.0
 40
594.0
 41
1.414141
 42
50.0
 43
0.0
 44
0.0
 50
0.0
 51
0.0
 71
    16
 72
   100
 73
     1
 74
     0
 75
     0
 76
     0
 77
     0
 78
     0
281
     0
 65
     0
110
0.0
120
0.0
130
0.0
111
1.0
121
0.0
131
0.0
112
0.0
122
1.0
132
0.0
 79
     0
146
0.0
  0
ENDTAB
  0
TABLE
  2
LTYPE
  5
5
330
0
100
AcDbSymbolTable
 70
     3
  0
LTYPE
  5
14
330
5
100
AcDbSymbolTableRecord
100
AcDbLinetypeTableRecord
  2
ByBlock
 70
     0
  3

 72
    65
 73
     0
 40
0.0
  0
LTYPE
  5
15
330
5
100
AcDbSymbolTableRecord
100
AcDbLinetypeTableRecord
  2
ByLayer
 70
     0
  3

 72
    65
 73
     0
 40
0.0
  0
LTYPE
  5
16
330
5
100
AcDbSymbolTableRecord
100
AcDbLinetypeTableRecord
  2
Continuous
 70
     0
  3
Solid line
 72
    65
 73
     0
 40
0.0
  0
LTYPE
  5
2A
330
5
100
AcDbSymbolTableRecord
100
AcDbLinetypeTableRecord
  2
DASHED
 70
     0
  3
__ __ __ __ __
 72
    65
 73
     2
 40
6.25
 49
5.0
 74
     4
 75
     0
340
0
 46
1.0
 50
0.0
 44
0.0
 45
0.0
 49
-1.25
 74
     4
 75
     0
340
0
 46
1.0
 50
0.0
 44
0.0
 45
0.0
  0
LTYPE
  5
BC
330
5
100
AcDbSymbolTableRecord
100
AcDbLinetypeTableRecord
  2
DASHDOT
 70
     0
  3
__ . __ . __ . __ . __
 72
    65
 73
     4
 40
7.5
 49
5.0
 74
     4
 75
     0
340
0
 46
1.0
 50
0.0
 44
0.0
 45
0.0
 49
-1.25
 74
     4
 75
     0
340
0
 46
1.0
 50
0.0
 44
0.0
 45
0.0
 49
0.0
 74
     4
 75
     0
340
0
 46
1.0
 50
0.0
 44
0.0
 45
0.0
 49
-1.25
 74
     4
 75
     0
340
0
 46
1.0
 50
0.0
 44
0.0
 45
0.0
  0
ENDTAB
  0
TABLE
  2
LAYER
  5
2
330
0
100
AcDbSymbolTable
 70
    11
  0
LAYER
  5
10
330
2
100
AcDbSymbolTableRecord
100
AcDbLayerTableRecord
  2
0
 70
     0
 62
     7
  6
Continuous
370
    -3
390
F
  0
LAYER
  5
2B
330
2
100
AcDbSymbolTableRecord
100
AcDbLayerTableRecord
  2
LC-INFO-1-2-mm-A3-0
 70
     1
 62
     7
  6
ByBlock
370
    -3
390
F
  0
LAYER
  5
2C
330
2
100
AcDbSymbolTableRecord
100
AcDbLayerTableRecord
  2
LC-CUT-HIDDEN
 70
     0
 62
     7
  6
DASHED
370
    -3
390
F
  0
LAYER
  5
2D
330
2
100
AcDbSymbolTableRecord
100
AcDbLayerTableRecord
  2
LC-VIEWPORT
 70
     0
 62
     7
  6
ByBlock
370
    -3
390
F
  0
LAYER
  5
2E
330
2
100
AcDbSymbolTableRecord
100
AcDbLayerTableRecord
  2
LC-3D-HIDDEN
 70
     0
 62
     9
  6
DASHED
370
    -3
390
F
  0
LAYER
  5
31
330
2
100
AcDbSymbolTableRecord
100
AcDbLayerTableRecord
  2
LC-001-002-RND-0
 70
     0
 62
     1
  6
ByBlock
370
    -3
390
F
  0
LAYER
  5
34
330
2
100
AcDbSymbolTableRecord
100
AcDbLayerTableRecord
  2
LC-002-002-----0
 70
     0
 62
     1
  6
ByBlock
370
    -3
390
F
  0
LAYER
  5
3E
330
2
100
AcDbSymbolTableRecord
100
AcDbLayerTableRecord
  2
LC-003-003-----0
 70
     0
 62
     2
  6
ByBlock
370
    -3
390
F
  0
LAYER
  5
40
330
2
100
AcDbSymbolTableRecord
100
AcDbLayerTableRecord
  2
Defpoints
 70
     0
 62
     7
  6
Continuous
290
     0
370
    -3
390
F
  0
LAYER
  5
8B
330
2
100
AcDbSymbolTableRecord
100
AcDbLayerTableRecord
  2
LC-004-005-----0
 70
     0
 62
     2
  6
ByBlock
370
    -3
390
F
  0
LAYER
  5
BD
330
2
100
AcDbSymbolTableRecord
100
AcDbLayerTableRecord
  2
LC-005-007-KH--0
 70
     0
 62
    44
  6
DASHDOT
370
    -3
390
F
  0
ENDTAB
  0
TABLE
  2
STYLE
  5
3
330
0
100
AcDbSymbolTable
 70
     4
  0
STYLE
  5
11
330
3
100
AcDbSymbolTableRecord
100
AcDbTextStyleTableRecord
  2
Standard
 70
     0
 40
0.0
 41
1.0
 50
0.0
 71
     0
 42
2.5
  3
txt
  4

  0
STYLE
  5
2F
330
3
100
AcDbSymbolTableRecord
100
AcDbTextStyleTableRecord
  2
LCTX15-400-0-0-Arial
 70
     0
 40
0.0
 41
0.9
 50
0.0
 71
     0
 42
3.5
  3

  4

1001
ACAD
1000
Arial
1071
 16777218
  0
STYLE
  5
30
330
3
100
AcDbSymbolTableRecord
100
AcDbTextStyleTableRecord
  2
LCTX0-400-0-0-DIN-Schrift
 70
     0
 40
0.0
 41
0.8
 50
0.0
 71
     0
 42
3.5
  3
MONOTXT
  4

  0
STYLE
  5
3C
330
3
100
AcDbSymbolTableRecord
100
AcDbTextStyleTableRecord
  2
LCTX15-400-0-0pDIN-Schrift
 70
     0
 40
2.5
 41
0.8
 50
15.0
 71
     0
 42
3.5
  3
STANDARD
  4

  0
ENDTAB
  0
TABLE
  2
VIEW
  5
6
330
0
100
AcDbSymbolTable
 70
     0
  0
ENDTAB
  0
TABLE
  2
UCS
  5
7
330
0
100
AcDbSymbolTable
 70
     0
  0
ENDTAB
  0
TABLE
  2
APPID
  5
9
330
0
100
AcDbSymbolTable
 70
     1
  0
APPID
  5
12
330
9
100
AcDbSymbolTableRecord
100
AcDbRegAppTableRecord
  2
ACAD
 70
     0
  0
ENDTAB
  0
TABLE
  2
DIMSTYLE
  5
A
330
0
100
AcDbSymbolTable
 70
     2
100
AcDbDimStyleTable
  0
DIMSTYLE
105
27
330
A
100
AcDbSymbolTableRecord
100
AcDbDimStyleTableRecord
  2
ISO-25
 70
     0
 41
2.5
 42
0.625
 43
3.75
 44
1.25
 73
     0
 74
     0
 77
     1
 78
     8
140
2.5
141
2.5
143
0.03937
147
0.625
171
     3
172
     1
271
     2
272
     2
274
     3
278
    44
283
     0
284
     8
340
11
  0
DIMSTYLE
105
3D
102
{ACAD_REACTORS
330
3F
330
4D
330
60
330
33B
330
380
330
38F
330
39C
102
}
330
A
100
AcDbSymbolTableRecord
100
AcDbDimStyleTableRecord
  2
LC-DIM-L-0140-02-02
 70
     0
 40
2.0
 41
14.0
 42
0.0
 43
7.5
 44
1.8
 73
     0
 74
     0
 77
     1
 78
     8
 79
     2
140
14.0
141
0.0
146
0.71
147
1.5
176
     2
177
     2
178
     2
179
     2
271
     2
278
    44
289
     1
340
3C
  0
ENDTAB
  0
TABLE
  2
BLOCK_RECORD
  5
1
330
0
100
AcDbSymbolTable
 70
    18
  0
BLOCK_RECORD
  5
1F
330
1
100
AcDbSymbolTableRecord
100
AcDbBlockTableRecord
  2
*Model_Space
340
22
  0
BLOCK_RECORD
  5
1B
330
1
100
AcDbSymbolTableRecord
100
AcDbBlockTableRecord
  2
*Paper_Space
340
1E
  0
BLOCK_RECORD
  5
23
330
1
100
AcDbSymbolTableRecord
100
AcDbBlockTableRecord
  2
*Paper_Space0
340
26
  0
BLOCK_RECORD
  5
41
330
1
100
AcDbSymbolTableRecord
100
AcDbBlockTableRecord
  2
*D1
340
0
  0
BLOCK_RECORD
  5
4E
330
1
100
AcDbSymbolTableRecord
100
AcDbBlockTableRecord
  2
*D2
340
0
  0
BLOCK_RECORD
  5
61
330
1
100
AcDbSymbolTableRecord
100
AcDbBlockTableRecord
  2
*D3
340
0
  0
BLOCK_RECORD
  5
88
330
1
100
AcDbSymbolTableRecord
100
AcDbBlockTableRecord
  2
*X14
340
0
102
{BLKREFS
331
96
102
}
  0
BLOCK_RECORD
  5
A3
330
1
100
AcDbSymbolTableRecord
100
AcDbBlockTableRecord
  2
*X25
340
0
102
{BLKREFS
331
AF
102
}
  0
BLOCK_RECORD
  5
CD
330
1
100
AcDbSymbolTableRecord
100
AcDbBlockTableRecord
  2
*X36
340
0
102
{BLKREFS
331
FA
102
}
  0
BLOCK_RECORD
  5
107
330
1
100
AcDbSymbolTableRecord
100
AcDbBlockTableRecord
  2
*X47
340
0
102
{BLKREFS
331
136
102
}
  0
BLOCK_RECORD
  5
1EF
330
1
100
AcDbSymbolTableRecord
100
AcDbBlockTableRecord
  2
*X58
340
0
102
{BLKREFS
331
20A
102
}
  0
BLOCK_RECORD
  5
22D
330
1
100
AcDbSymbolTableRecord
100
AcDbBlockTableRecord
  2
*X69
340
0
102
{BLKREFS
331
248
102
}
  0
BLOCK_RECORD
  5
2A0
330
1
100
AcDbSymbolTableRecord
100
AcDbBlockTableRecord
  2
*X710
340
0
102
{BLKREFS
331
2B7
102
}
  0
BLOCK_RECORD
  5
2B8
330
1
100
AcDbSymbolTableRecord
100
AcDbBlockTableRecord
  2
*X811
340
0
102
{BLKREFS
331
2D0
102
}
  0
BLOCK_RECORD
  5
33C
330
1
100
AcDbSymbolTableRecord
100
AcDbBlockTableRecord
  2
*D12
340
0
  0
BLOCK_RECORD
  5
34A
330
1
100
AcDbSymbolTableRecord
100
AcDbBlockTableRecord
  2
*X913
340
0
102
{BLKREFS
331
364
102
}
  0
BLOCK_RECORD
  5
365
330
1
100
AcDbSymbolTableRecord
100
AcDbBlockTableRecord
  2
*X1014
340
0
102
{BLKREFS
331
37F
102
}
  0
BLOCK_RECORD
  5
381
330
1
100
AcDbSymbolTableRecord
100
AcDbBlockTableRecord
  2
*D15
340
0
  0
BLOCK_RECORD
  5
390
330
1
100
AcDbSymbolTableRecord
100
AcDbBlockTableRecord
  2
*D16
340
0
  0
BLOCK_RECORD
  5
39D
330
1
100
AcDbSymbolTableRecord
100
AcDbBlockTableRecord
  2
*D17
340
0
  0
ENDTAB
  0
ENDSEC
  0
SECTION
  2
BLOCKS
  0
BLOCK
  5
20
330
1F
100
AcDbEntity
  8
0
100
AcDbBlockBegin
  2
*Model_Space
 70
     0
 71
     0
 10
0.0
 20
0.0
 30
0.0
  3
*Model_Space
  1

  0
ENDBLK
  5
21
330
1F
100
AcDbEntity
  8
0
100
AcDbBlockEnd
  0
BLOCK
  5
1C
330
1B
100
AcDbEntity
 67
     1
  8
0
100
AcDbBlockBegin
  2
*Paper_Space
 70
     0
 71
     0
 10
0.0
 20
0.0
 30
0.0
  3
*Paper_Space
  1

  0
ENDBLK
  5
1D
330
1B
100
AcDbEntity
 67
     1
  8
0
100
AcDbBlockEnd
  0
BLOCK
  5
24
330
23
100
AcDbEntity
  8
0
100
AcDbBlockBegin
  2
*Paper_Space0
 70
     0
 71
     0
 10
0.0
 20
0.0
 30
0.0
  3
*Paper_Space0
  1

  0
ENDBLK
  5
25
330
23
100
AcDbEntity
  8
0
100
AcDbBlockEnd
  0
BLOCK
  5
4B
330
41
100
AcDbEntity
  8
0
100
AcDbBlockBegin
  2
*D1
 70
     1
 71
     0
 10
0.0
 20
0.0
 30
0.0
  3
*D1
  1

  0
LINE
  5
42
330
41
100
AcDbEntity
  8
LC-003-003-----0
 62
     2
370
    -2
100
AcDbLine
 10
-17.190589
 20
173.898444
 30
0.0
 11
-17.190589
 21
301.194
 31
0.0
  0
LINE
  5
43
330
41
100
AcDbEntity
  8
LC-003-003-----0
 62
     2
370
    -2
100
AcDbLine
 10
128.765411
 20
173.898444
 30
0.0
 11
128.765411
 21
301.194
 31
0.0
  0
LINE
  5
44
330
41
100
AcDbEntity
  8
LC-003-003-----0
 62
     2
370
    -2
100
AcDbLine
 10
10.809411
 20
297.594
 30
0.0
 11
100.765411
 21
297.594
 31
0.0
  0
SOLID
  5
45
330
41
100
AcDbEntity
  8
LC-003-003-----0
 62
     2
100
AcDbTrace
 10
10.809411
 20
302.260667
 30
0.0
 11
10.809411
 21
292.927333
 31
0.0
 12
-17.190589
 22
297.594
 32
0.0
 13
-17.190589
 23
297.594
 33
0.0
  0
SOLID
  5
46
330
41
100
AcDbEntity
  8
LC-003-003-----0
 62
     2
100
AcDbTrace
 10
100.765411
 20
292.927333
 30
0.0
 11
100.765411
 21
302.260667
 31
0.0
 12
128.765411
 22
297.594
 32
0.0
 13
128.765411
 23
297.594
 33
0.0
  0
MTEXT
  5
47
330
41
100
AcDbEntity
  8
LC-003-003-----0
 62
     2
100
AcDbMText
 10
93.871865
 20
328.394
 30
0.0
 40
28.0
 41
0.0
 71
     5
 72
     1
  1
\A1;150
  7
LCTX15-400-0-0pDIN-Schrift
 73
     1
 44
1.0
  0
POINT
  5
48
330
41
100
AcDbEntity
  8
Defpoints
 62
     0
100
AcDbPoint
 10
-17.190589
 20
173.898444
 30
0.0
  0
POINT
  5
49
330
41
100
AcDbEntity
  8
Defpoints
 62
     0
100
AcDbPoint
 10
128.765411
 20
173.898444
 30
0.0
  0
POINT
  5
4A
330
41
100
AcDbEntity
  8
Defpoints
 62
     0
100
AcDbPoint
 10
128.765411
 20
297.594
 30
0.0
  0
ENDBLK
  5
4C
330
41
100
AcDbEntity
  8
0
100
AcDbBlockEnd
  0
BLOCK
  5
58
330
4E
100
AcDbEntity
  8
0
100
AcDbBlockBegin
  2
*D2
 70
     1
 71
     0
 10
0.0
 20
0.0
 30
0.0
  3
*D2
  1

  0
LINE
  5
4F
330
4E
100
AcDbEntity
  8
LC-003-003-----0
 62
     2
370
    -2
100
AcDbLine
 10
0.787411
 20
54.148444
 30
0.0
 11
0.787411
 21
-10.728
 31
0.0
  0
LINE
  5
50
330
4E
100
AcDbEntity
  8
LC-003-003-----0
 62
     2
370
    -2
100
AcDbLine
 10
110.787411
 20
54.148444
 30
0.0
 11
110.787411
 21
-10.728
 31
0.0
  0
LINE
  5
51
330
4E
100
AcDbEntity
  8
LC-003-003-----0
 62
     2
370
    -2
100
AcDbLine
 10
28.787411
 20
-7.128
 30
0.0
 11
82.787411
 21
-7.128
 31
0.0
  0
SOLID
  5
52
330
4E
100
AcDbEntity
  8
LC-003-003-----0
 62
     2
100
AcDbTrace
 10
28.787411
 20
-2.461333
 30
0.0
 11
28.787411
 21
-11.794667
 31
0.0
 12
0.787411
 22
-7.128
 32
0.0
 13
0.787411
 23
-7.128
 33
0.0
  0
SOLID
  5
53
330
4E
100
AcDbEntity
  8
LC-003-003-----0
 62
     2
100
AcDbTrace
 10
82.787411
 20
-11.794667
 30
0.0
 11
82.787411
 21
-2.461333
 31
0.0
 12
110.787411
 22
-7.128
 32
0.0
 13
110.787411
 23
-7.128
 33
0.0
  0
MTEXT
  5
54
330
4E
100
AcDbEntity
  8
LC-003-003-----0
 62
     2
100
AcDbMText
 10
49.548149
 20
23.672
 30
0.0
 40
28.0
 41
0.0
 71
     5
 72
     1
  1
\A1;%%c110
  7
LCTX15-400-0-0pDIN-Schrift
 73
     1
 44
1.0
  0
POINT
  5
55
330
4E
100
AcDbEntity
  8
Defpoints
 62
     0
100
AcDbPoint
 10
0.787411
 20
54.148444
 30
0.0
  0
POINT
  5
56
330
4E
100
AcDbEntity
  8
Defpoints
 62
     0
100
AcDbPoint
 10
110.787411
 20
54.148444
 30
0.0
  0
POINT
  5
57
330
4E
100
AcDbEntity
  8
Defpoints
 62
     0
100
AcDbPoint
 10
110.787411
 20
-7.128
 30
0.0
  0
ENDBLK
  5
59
330
4E
100
AcDbEntity
  8
0
100
AcDbBlockEnd
  0
BLOCK
  5
6C
330
61
100
AcDbEntity
  8
0
100
AcDbBlockBegin
  2
*D3
 70
     1
 71
     0
 10
0.0
 20
0.0
 30
0.0
  3
*D3
  1

  0
LINE
  5
62
330
61
100
AcDbEntity
  8
LC-003-003-----0
 62
     2
370
    -2
100
AcDbLine
 10
18.037411
 20
189.648444
 30
0.0
 11
18.037411
 21
273.87
 31
0.0
  0
LINE
  5
63
330
61
100
AcDbEntity
  8
LC-003-003-----0
 62
     2
370
    -2
100
AcDbLine
 10
93.537411
 20
189.648444
 30
0.0
 11
93.537411
 21
273.87
 31
0.0
  0
LINE
  5
64
330
61
100
AcDbEntity
  8
LC-003-003-----0
 62
     2
370
    -2
100
AcDbLine
 10
46.037411
 20
270.27
 30
0.0
 11
65.537411
 21
270.27
 31
0.0
  0
LINE
  5
65
330
61
100
AcDbEntity
  8
LC-003-003-----0
 62
     2
370
    -2
100
AcDbLine
 10
93.537411
 20
270.27
 30
0.0
 11
233.8749
 21
270.27
 31
0.0
  0
SOLID
  5
66
330
61
100
AcDbEntity
  8
LC-003-003-----0
 62
     2
100
AcDbTrace
 10
46.037411
 20
274.936667
 30
0.0
 11
46.037411
 21
265.603333
 31
0.0
 12
18.037411
 22
270.27
 32
0.0
 13
18.037411
 23
270.27
 33
0.0
  0
SOLID
  5
67
330
61
100
AcDbEntity
  8
LC-003-003-----0
 62
     2
100
AcDbTrace
 10
65.537411
 20
265.603333
 30
0.0
 11
65.537411
 21
274.936667
 31
0.0
 12
93.537411
 22
270.27
 32
0.0
 13
93.537411
 23
270.27
 33
0.0
  0
MTEXT
  5
68
330
61
100
AcDbEntity
  8
LC-003-003-----0
 62
     2
100
AcDbMText
 10
187.838142
 20
301.07
 30
0.0
 40
28.0
 41
0.0
 71
     5
 72
     1
  1
\A1;DN70
  7
LCTX15-400-0-0pDIN-Schrift
 73
     1
 44
1.0
  0
POINT
  5
69
330
61
100
AcDbEntity
  8
Defpoints
 62
     0
100
AcDbPoint
 10
18.037411
 20
189.648444
 30
0.0
  0
POINT
  5
6A
330
61
100
AcDbEntity
  8
Defpoints
 62
     0
100
AcDbPoint
 10
93.537411
 20
189.648444
 30
0.0
  0
POINT
  5
6B
330
61
100
AcDbEntity
  8
Defpoints
 62
     0
100
AcDbPoint
 10
93.537411
 20
270.27
 30
0.0
  0
ENDBLK
  5
6D
330
61
100
AcDbEntity
  8
0
100
AcDbBlockEnd
  0
BLOCK
  5
89
330
88
100
AcDbEntity
  8
0
100
AcDbBlockBegin
  2
*X14
 70
     1
 71
     0
 10
0.0
 20
0.0
 30
0.0
  3
*X14
  1

  4
*X1
  0
LINE
  5
8C
330
88
100
AcDbEntity
  8
LC-004-005-----0
 62
     7
370
    25
100
AcDbLine
 10
2.065208
 20
50.14847
 30
0.0
 11
3.787849
 21
51.87111
 31
0.0
  0
LINE
  5
8D
330
88
100
AcDbEntity
  8
LC-004-005-----0
 62
     7
370
    25
100
AcDbLine
 10
-0.763219
 20
50.14847
 30
0.0
 11
2.236756
 21
53.148444
 31
0.0
  0
LINE
  5
8E
330
88
100
AcDbEntity
  8
LC-004-005-----0
 62
     7
370
    25
100
AcDbLine
 10
-3.591646
 20
50.14847
 30
0.0
 11
0.787878
 21
54.527994
 31
0.0
  0
LINE
  5
8F
330
88
100
AcDbEntity
  8
LC-004-005-----0
 62
     7
370
    25
100
AcDbLine
 10
-4.212196
 20
52.356347
 30
0.0
 11
0.787887
 21
57.356429
 31
0.0
  0
LINE
  5
90
330
88
100
AcDbEntity
  8
LC-004-005-----0
 62
     7
370
    25
100
AcDbLine
 10
-4.212196
 20
55.184774
 30
0.0
 11
0.787896
 21
60.184865
 31
0.0
  0
LINE
  5
91
330
88
100
AcDbEntity
  8
LC-004-005-----0
 62
     7
370
    25
100
AcDbLine
 10
-4.212196
 20
58.013201
 30
0.0
 11
-2.077011
 21
60.148385
 31
0.0
  0
LINE
  5
92
330
88
100
AcDbEntity
  8
LC-004-005-----0
 62
     7
370
    25
100
AcDbLine
 10
-1.212102
 20
61.013295
 30
0.0
 11
0.787904
 21
63.013301
 31
0.0
  0
LINE
  5
93
330
88
100
AcDbEntity
  8
LC-004-005-----0
 62
     7
370
    25
100
AcDbLine
 10
-1.212102
 20
63.841722
 30
0.0
 11
0.787913
 21
65.841737
 31
0.0
  0
LINE
  5
94
330
88
100
AcDbEntity
  8
LC-004-005-----0
 62
     7
370
    25
100
AcDbLine
 10
-1.212102
 20
66.670149
 30
0.0
 11
0.526974
 21
68.409225
 31
0.0
  0
LINE
  5
95
330
88
100
AcDbEntity
  8
LC-004-005-----0
 62
     7
370
    25
100
AcDbLine
 10
-1.212102
 20
69.498576
 30
0.0
 11
-0.88724
 21
69.823439
 31
0.0
  0
ENDBLK
  5
8A
330
88
100
AcDbEntity
  8
0
100
AcDbBlockEnd
  0
BLOCK
  5
A4
330
A3
100
AcDbEntity
  8
0
100
AcDbBlockBegin
  2
*X25
 70
     1
 71
     0
 10
0.0
 20
0.0
 30
0.0
  3
*X25
  1

  4
*X2
  0
LINE
  5
A6
330
A3
100
AcDbEntity
  8
LC-004-005-----0
 62
     7
370
    25
100
AcDbLine
 10
115.202293
 20
50.14847
 30
0.0
 11
115.787018
 21
50.733194
 31
0.0
  0
LINE
  5
A7
330
A3
100
AcDbEntity
  8
LC-004-005-----0
 62
     7
370
    25
100
AcDbLine
 10
112.373866
 20
50.14847
 30
0.0
 11
115.787018
 21
53.561621
 31
0.0
  0
LINE
  5
A8
330
A3
100
AcDbEntity
  8
LC-004-005-----0
 62
     7
370
    25
100
AcDbLine
 10
109.545439
 20
50.14847
 30
0.0
 11
115.787018
 21
56.390048
 31
0.0
  0
LINE
  5
A9
330
A3
100
AcDbEntity
  8
LC-004-005-----0
 62
     7
370
    25
100
AcDbLine
 10
107.786973
 20
51.218431
 30
0.0
 11
109.716987
 21
53.148444
 31
0.0
  0
LINE
  5
AA
330
A3
100
AcDbEntity
  8
LC-004-005-----0
 62
     7
370
    25
100
AcDbLine
 10
110.786945
 20
54.218402
 30
0.0
 11
115.787018
 21
59.218475
 31
0.0
  0
LINE
  5
AB
330
A3
100
AcDbEntity
  8
LC-004-005-----0
 62
     7
370
    25
100
AcDbLine
 10
110.786936
 20
57.046821
 30
0.0
 11
113.888501
 21
60.148385
 31
0.0
  0
LINE
  5
AC
330
A3
100
AcDbEntity
  8
LC-004-005-----0
 62
     7
370
    25
100
AcDbLine
 10
110.786927
 20
59.875239
 30
0.0
 11
112.786924
 21
61.875236
 31
0.0
  0
LINE
  5
AD
330
A3
100
AcDbEntity
  8
LC-004-005-----0
 62
     7
370
    25
100
AcDbLine
 10
110.786919
 20
62.703658
 30
0.0
 11
112.786924
 21
64.703663
 31
0.0
  0
LINE
  5
AE
330
A3
100
AcDbEntity
  8
LC-004-005-----0
 62
     7
370
    25
100
AcDbLine
 10
110.78691
 20
65.532076
 30
0.0
 11
112.786924
 21
67.53209
 31
0.0
  0
ENDBLK
  5
A5
330
A3
100
AcDbEntity
  8
0
100
AcDbBlockEnd
  0
BLOCK
  5
CE
330
CD
100
AcDbEntity
  8
0
100
AcDbBlockBegin
  2
*X36
 70
     1
 71
     0
 10
0.0
 20
0.0
 30
0.0
  3
*X36
  1

  4
*X3
  0
LINE
  5
D0
330
CD
100
AcDbEntity
  8
LC-004-005-----0
 62
     7
370
    25
100
AcDbLine
 10
110.787411
 20
155.084739
 30
0.0
 11
103.223705
 21
162.648444
 31
0.0
  0
LINE
  5
D1
330
CD
100
AcDbEntity
  8
LC-004-005-----0
 62
     7
370
    25
100
AcDbLine
 10
110.787411
 20
152.256312
 30
0.0
 11
100.395278
 21
162.648444
 31
0.0
  0
LINE
  5
D2
330
CD
100
AcDbEntity
  8
LC-004-005-----0
 62
     7
370
    25
100
AcDbLine
 10
110.787411
 20
149.427884
 30
0.0
 11
107.787411
 21
152.427884
 31
0.0
  0
LINE
  5
D3
330
CD
100
AcDbEntity
  8
LC-004-005-----0
 62
     7
370
    25
100
AcDbLine
 10
101.857053
 20
158.358242
 30
0.0
 11
99.045267
 21
161.170028
 31
0.0
  0
LINE
  5
D4
330
CD
100
AcDbEntity
  8
LC-004-005-----0
 62
     7
370
    25
100
AcDbLine
 10
110.787411
 20
146.599457
 30
0.0
 11
107.787411
 21
149.599457
 31
0.0
  0
LINE
  5
D5
330
CD
100
AcDbEntity
  8
LC-004-005-----0
 62
     7
370
    25
100
AcDbLine
 10
101.787411
 20
155.599457
 30
0.0
 11
99.787411
 21
157.599457
 31
0.0
  0
LINE
  5
D6
330
CD
100
AcDbEntity
  8
LC-004-005-----0
 62
     7
370
    25
100
AcDbLine
 10
110.787411
 20
143.77103
 30
0.0
 11
107.787411
 21
146.77103
 31
0.0
  0
LINE
  5
D7
330
CD
100
AcDbEntity
  8
LC-004-005-----0
 62
     7
370
    25
100
AcDbLine
 10
101.787411
 20
152.77103
 30
0.0
 11
99.787411
 21
154.77103
 31
0.0
  0
LINE
  5
D8
330
CD
100
AcDbEntity
  8
LC-004-005-----0
 62
     7
370
    25
100
AcDbLine
 10
110.787411
 20
140.942603
 30
0.0
 11
107.787411
 21
143.942603
 31
0.0
  0
LINE
  5
D9
330
CD
100
AcDbEntity
  8
LC-004-005-----0
 62
     7
370
    25
100
AcDbLine
 10
100.08157
 20
151.648444
 30
0.0
 11
99.787411
 21
151.942603
 31
0.0
  0
LINE
  5
DA
330
CD
100
AcDbEntity
  8
LC-004-005-----0
 62
     7
370
    25
100
AcDbLine
 10
110.787411
 20
138.114176
 30
0.0
 11
107.787411
 21
141.114176
 31
0.0
  0
LINE
  5
DB
330
CD
100
AcDbEntity
  8
LC-004-005-----0
 62
     7
370
    25
100
AcDbLine
 10
110.787411
 20
135.285749
 30
0.0
 11
107.787411
 21
138.285749
 31
0.0
  0
LINE
  5
DC
330
CD
100
AcDbEntity
  8
LC-004-005-----0
 62
     7
370
    25
100
AcDbLine
 10
110.787411
 20
132.457322
 30
0.0
 11
107.787411
 21
135.457322
 31
0.0
  0
LINE
  5
DD
330
CD
100
AcDbEntity
  8
LC-004-005-----0
 62
     7
370
    25
100
AcDbLine
 10
110.787411
 20
129.628895
 30
0.0
 11
107.787411
 21
132.628895
 31
0.0
  0
LINE
  5
DE
330
CD
100
AcDbEntity
  8
LC-004-005-----0
 62
     7
370
    25
100
AcDbLine
 10
110.787411
 20
126.800467
 30
0.0
 11
107.787411
 21
129.800467
 31
0.0
  0
LINE
  5
DF
330
CD
100
AcDbEntity
  8
LC-004-005-----0
 62
     7
370
    25
100
AcDbLine
 10
110.787411
 20
123.97204
 30
0.0
 11
107.787411
 21
126.97204
 31
0.0
  0
LINE
  5
E0
330
CD
100
AcDbEntity
  8
LC-004-005-----0
 62
     7
370
    25
100
AcDbLine
 10
110.787411
 20
121.143613
 30
0.0
 11
107.787411
 21
124.143613
 31
0.0
  0
LINE
  5
E1
330
CD
100
AcDbEntity
  8
LC-004-005-----0
 62
     7
370
    25
100
AcDbLine
 10
110.787411
 20
118.315186
 30
0.0
 11
107.787411
 21
121.315186
 31
0.0
  0
LINE
  5
E2
330
CD
100
AcDbEntity
  8
LC-004-005-----0
 62
     7
370
    25
100
AcDbLine
 10
110.787411
 20
115.486759
 30
0.0
 11
107.787411
 21
118.486759
 31
0.0
  0
LINE
  5
E3
330
CD
100
AcDbEntity
  8
LC-004-005-----0
 62
     7
370
    25
100
AcDbLine
 10
110.787411
 20
112.658332
 30
0.0
 11
107.787411
 21
115.658332
 31
0.0
  0
LINE
  5
E4
330
CD
100
AcDbEntity
  8
LC-004-005-----0
 62
     7
370
    25
100
AcDbLine
 10
110.787411
 20
109.829905
 30
0.0
 11
107.787411
 21
112.829905
 31
0.0
  0
LINE
  5
E5
330
CD
100
AcDbEntity
  8
LC-004-005-----0
 62
     7
370
    25
100
AcDbLine
 10
110.787411
 20
107.001478
 30
0.0
 11
107.787411
 21
110.001478
 31
0.0
  0
LINE
  5
E6
330
CD
100
AcDbEntity
  8
LC-004-005-----0
 62
     7
370
    25
100
AcDbLine
 10
110.787411
 20
104.17305
 30
0.0
 11
107.787411
 21
107.17305
 31
0.0
  0
LINE
  5
E7
330
CD
100
AcDbEntity
  8
LC-004-005-----0
 62
     7
370
    25
100
AcDbLine
 10
110.787411
 20
101.344623
 30
0.0
 11
107.787411
 21
104.344623
 31
0.0
  0
LINE
  5
E8
330
CD
100
AcDbEntity
  8
LC-004-005-----0
 62
     7
370
    25
100
AcDbLine
 10
110.787411
 20
98.516196
 30
0.0
 11
107.787411
 21
101.516196
 31
0.0
  0
LINE
  5
E9
330
CD
100
AcDbEntity
  8
LC-004-005-----0
 62
     7
370
    25
100
AcDbLine
 10
110.787411
 20
95.687769
 30
0.0
 11
107.787411
 21
98.687769
 31
0.0
  0
LINE
  5
EA
330
CD
100
AcDbEntity
  8
LC-004-005-----0
 62
     7
370
    25
100
AcDbLine
 10
110.787411
 20
92.859342
 30
0.0
 11
107.787411
 21
95.859342
 31
0.0
  0
LINE
  5
EB
330
CD
100
AcDbEntity
  8
LC-004-005-----0
 62
     7
370
    25
100
AcDbLine
 10
110.787411
 20
90.030915
 30
0.0
 11
107.787411
 21
93.030915
 31
0.0
  0
LINE
  5
EC
330
CD
100
AcDbEntity
  8
LC-004-005-----0
 62
     7
370
    25
100
AcDbLine
 10
110.787411
 20
87.202488
 30
0.0
 11
107.787411
 21
90.202488
 31
0.0
  0
LINE
  5
ED
330
CD
100
AcDbEntity
  8
LC-004-005-----0
 62
     7
370
    25
100
AcDbLine
 10
110.787411
 20
84.374061
 30
0.0
 11
107.787411
 21
87.374061
 31
0.0
  0
LINE
  5
EE
330
CD
100
AcDbEntity
  8
LC-004-005-----0
 62
     7
370
    25
100
AcDbLine
 10
110.787411
 20
81.545633
 30
0.0
 11
107.787411
 21
84.545633
 31
0.0
  0
LINE
  5
EF
330
CD
100
AcDbEntity
  8
LC-004-005-----0
 62
     7
370
    25
100
AcDbLine
 10
110.787411
 20
78.717206
 30
0.0
 11
107.787411
 21
81.717206
 31
0.0
  0
LINE
  5
F0
330
CD
100
AcDbEntity
  8
LC-004-005-----0
 62
     7
370
    25
100
AcDbLine
 10
110.787411
 20
75.888779
 30
0.0
 11
107.787411
 21
78.888779
 31
0.0
  0
LINE
  5
F1
330
CD
100
AcDbEntity
  8
LC-004-005-----0
 62
     7
370
    25
100
AcDbLine
 10
110.787411
 20
73.060352
 30
0.0
 11
107.787411
 21
76.060352
 31
0.0
  0
LINE
  5
F2
330
CD
100
AcDbEntity
  8
LC-004-005-----0
 62
     7
370
    25
100
AcDbLine
 10
110.787411
 20
70.231925
 30
0.0
 11
107.787411
 21
73.231925
 31
0.0
  0
LINE
  5
F3
330
CD
100
AcDbEntity
  8
LC-004-005-----0
 62
     7
370
    25
100
AcDbLine
 10
110.787411
 20
67.403498
 30
0.0
 11
107.787411
 21
70.403498
 31
0.0
  0
LINE
  5
F4
330
CD
100
AcDbEntity
  8
LC-004-005-----0
 62
     7
370
    25
100
AcDbLine
 10
110.787411
 20
64.575071
 30
0.0
 11
107.787411
 21
67.575071
 31
0.0
  0
LINE
  5
F5
330
CD
100
AcDbEntity
  8
LC-004-005-----0
 62
     7
370
    25
100
AcDbLine
 10
110.787411
 20
61.746644
 30
0.0
 11
107.787411
 21
64.746644
 31
0.0
  0
LINE
  5
F6
330
CD
100
AcDbEntity
  8
LC-004-005-----0
 62
     7
370
    25
100
AcDbLine
 10
110.787411
 20
58.918216
 30
0.0
 11
107.787411
 21
61.918216
 31
0.0
  0
LINE
  5
F7
330
CD
100
AcDbEntity
  8
LC-004-005-----0
 62
     7
370
    25
100
AcDbLine
 10
110.787411
 20
56.089789
 30
0.0
 11
107.787411
 21
59.089789
 31
0.0
  0
LINE
  5
F8
330
CD
100
AcDbEntity
  8
LC-004-005-----0
 62
     7
370
    25
100
AcDbLine
 10
110.34387
 20
53.704903
 30
0.0
 11
107.787411
 21
56.261362
 31
0.0
  0
LINE
  5
F9
330
CD
100
AcDbEntity
  8
LC-004-005-----0
 62
     7
370
    25
100
AcDbLine
 10
108.071902
 20
53.148444
 30
0.0
 11
107.787411
 21
53.432935
 31
0.0
  0
ENDBLK
  5
CF
330
CD
100
AcDbEntity
  8
0
100
AcDbBlockEnd
  0
BLOCK
  5
108
330
107
100
AcDbEntity
  8
0
100
AcDbBlockBegin
  2
*X47
 70
     1
 71
     0
 10
0.0
 20
0.0
 30
0.0
  3
*X47
  1

  4
*X4
  0
LINE
  5
10A
330
107
100
AcDbEntity
  8
LC-004-005-----0
 62
     7
370
    25
100
AcDbLine
 10
12.710142
 20
159.823912
 30
0.0
 11
9.88561
 21
162.648444
 31
0.0
  0
LINE
  5
10B
330
107
100
AcDbEntity
  8
LC-004-005-----0
 62
     7
370
    25
100
AcDbLine
 10
11.922297
 20
157.78333
 30
0.0
 11
7.422297
 21
162.28333
 31
0.0
  0
LINE
  5
10C
330
107
100
AcDbEntity
  8
LC-004-005-----0
 62
     7
370
    25
100
AcDbLine
 10
11.787411
 20
155.089789
 30
0.0
 11
9.787411
 21
157.089789
 31
0.0
  0
LINE
  5
10D
330
107
100
AcDbEntity
  8
LC-004-005-----0
 62
     7
370
    25
100
AcDbLine
 10
8.131111
 20
158.74609
 30
0.0
 11
6.008083
 21
160.869117
 31
0.0
  0
LINE
  5
10E
330
107
100
AcDbEntity
  8
LC-004-005-----0
 62
     7
370
    25
100
AcDbLine
 10
11.787411
 20
152.261362
 30
0.0
 11
9.787411
 21
154.261362
 31
0.0
  0
LINE
  5
10F
330
107
100
AcDbEntity
  8
LC-004-005-----0
 62
     7
370
    25
100
AcDbLine
 10
6.71519
 20
157.333583
 30
0.0
 11
4.59387
 21
159.454903
 31
0.0
  0
LINE
  5
110
330
107
100
AcDbEntity
  8
LC-004-005-----0
 62
     7
370
    25
100
AcDbLine
 10
5.300977
 20
155.919369
 30
0.0
 11
3.179656
 21
158.04069
 31
0.0
  0
LINE
  5
111
330
107
100
AcDbEntity
  8
LC-004-005-----0
 62
     7
370
    25
100
AcDbLine
 10
3.886763
 20
154.505156
 30
0.0
 11
1.765443
 21
156.626476
 31
0.0
  0
LINE
  5
112
330
107
100
AcDbEntity
  8
LC-004-005-----0
 62
     7
370
    25
100
AcDbLine
 10
3.787411
 20
151.776081
 30
0.0
 11
0.787411
 21
154.776081
 31
0.0
  0
LINE
  5
113
330
107
100
AcDbEntity
  8
LC-004-005-----0
 62
     7
370
    25
100
AcDbLine
 10
3.787411
 20
148.947654
 30
0.0
 11
0.787411
 21
151.947654
 31
0.0
  0
LINE
  5
114
330
107
100
AcDbEntity
  8
LC-004-005-----0
 62
     7
370
    25
100
AcDbLine
 10
3.787411
 20
146.119227
 30
0.0
 11
0.787411
 21
149.119227
 31
0.0
  0
LINE
  5
115
330
107
100
AcDbEntity
  8
LC-004-005-----0
 62
     7
370
    25
100
AcDbLine
 10
3.787411
 20
143.290799
 30
0.0
 11
0.787411
 21
146.290799
 31
0.0
  0
LINE
  5
116
330
107
100
AcDbEntity
  8
LC-004-005-----0
 62
     7
370
    25
100
AcDbLine
 10
3.787411
 20
140.462372
 30
0.0
 11
0.787411
 21
143.462372
 31
0.0
  0
LINE
  5
117
330
107
100
AcDbEntity
  8
LC-004-005-----0
 62
     7
370
    25
100
AcDbLine
 10
3.787411
 20
137.633945
 30
0.0
 11
0.787411
 21
140.633945
 31
0.0
  0
LINE
  5
118
330
107
100
AcDbEntity
  8
LC-004-005-----0
 62
     7
370
    25
100
AcDbLine
 10
3.787411
 20
134.805518
 30
0.0
 11
0.787411
 21
137.805518
 31
0.0
  0
LINE
  5
119
330
107
100
AcDbEntity
  8
LC-004-005-----0
 62
     7
370
    25
100
AcDbLine
 10
3.787411
 20
131.977091
 30
0.0
 11
0.787411
 21
134.977091
 31
0.0
  0
LINE
  5
11A
330
107
100
AcDbEntity
  8
LC-004-005-----0
 62
     7
370
    25
100
AcDbLine
 10
3.787411
 20
129.148664
 30
0.0
 11
0.787411
 21
132.148664
 31
0.0
  0
LINE
  5
11B
330
107
100
AcDbEntity
  8
LC-004-005-----0
 62
     7
370
    25
100
AcDbLine
 10
3.787411
 20
126.320237
 30
0.0
 11
0.787411
 21
129.320237
 31
0.0
  0
LINE
  5
11C
330
107
100
AcDbEntity
  8
LC-004-005-----0
 62
     7
370
    25
100
AcDbLine
 10
3.787411
 20
123.49181
 30
0.0
 11
0.787411
 21
126.49181
 31
0.0
  0
LINE
  5
11D
330
107
100
AcDbEntity
  8
LC-004-005-----0
 62
     7
370
    25
100
AcDbLine
 10
3.787411
 20
120.663382
 30
0.0
 11
0.787411
 21
123.663382
 31
0.0
  0
LINE
  5
11E
330
107
100
AcDbEntity
  8
LC-004-005-----0
 62
     7
370
    25
100
AcDbLine
 10
3.787411
 20
117.834955
 30
0.0
 11
0.787411
 21
120.834955
 31
0.0
  0
LINE
  5
11F
330
107
100
AcDbEntity
  8
LC-004-005-----0
 62
     7
370
    25
100
AcDbLine
 10
3.787411
 20
115.006528
 30
0.0
 11
0.787411
 21
118.006528
 31
0.0
  0
LINE
  5
120
330
107
100
AcDbEntity
  8
LC-004-005-----0
 62
     7
370
    25
100
AcDbLine
 10
3.787411
 20
112.178101
 30
0.0
 11
0.787411
 21
115.178101
 31
0.0
  0
LINE
  5
121
330
107
100
AcDbEntity
  8
LC-004-005-----0
 62
     7
370
    25
100
AcDbLine
 10
3.787411
 20
109.349674
 30
0.0
 11
0.787411
 21
112.349674
 31
0.0
  0
LINE
  5
122
330
107
100
AcDbEntity
  8
LC-004-005-----0
 62
     7
370
    25
100
AcDbLine
 10
3.787411
 20
106.521247
 30
0.0
 11
0.787411
 21
109.521247
 31
0.0
  0
LINE
  5
123
330
107
100
AcDbEntity
  8
LC-004-005-----0
 62
     7
370
    25
100
AcDbLine
 10
3.787411
 20
103.69282
 30
0.0
 11
0.787411
 21
106.69282
 31
0.0
  0
LINE
  5
124
330
107
100
AcDbEntity
  8
LC-004-005-----0
 62
     7
370
    25
100
AcDbLine
 10
3.787411
 20
100.864393
 30
0.0
 11
0.787411
 21
103.864393
 31
0.0
  0
LINE
  5
125
330
107
100
AcDbEntity
  8
LC-004-005-----0
 62
     7
370
    25
100
AcDbLine
 10
3.787411
 20
98.035965
 30
0.0
 11
0.787411
 21
101.035965
 31
0.0
  0
LINE
  5
126
330
107
100
AcDbEntity
  8
LC-004-005-----0
 62
     7
370
    25
100
AcDbLine
 10
3.787411
 20
95.207538
 30
0.0
 11
0.787411
 21
98.207538
 31
0.0
  0
LINE
  5
127
330
107
100
AcDbEntity
  8
LC-004-005-----0
 62
     7
370
    25
100
AcDbLine
 10
3.787411
 20
92.379111
 30
0.0
 11
0.787411
 21
95.379111
 31
0.0
  0
LINE
  5
128
330
107
100
AcDbEntity
  8
LC-004-005-----0
 62
     7
370
    25
100
AcDbLine
 10
3.787411
 20
89.550684
 30
0.0
 11
0.787411
 21
92.550684
 31
0.0
  0
LINE
  5
129
330
107
100
AcDbEntity
  8
LC-004-005-----0
 62
     7
370
    25
100
AcDbLine
 10
3.787411
 20
86.722257
 30
0.0
 11
0.787411
 21
89.722257
 31
0.0
  0
LINE
  5
12A
330
107
100
AcDbEntity
  8
LC-004-005-----0
 62
     7
370
    25
100
AcDbLine
 10
3.787411
 20
83.89383
 30
0.0
 11
0.787411
 21
86.89383
 31
0.0
  0
LINE
  5
12B
330
107
100
AcDbEntity
  8
LC-004-005-----0
 62
     7
370
    25
100
AcDbLine
 10
3.787411
 20
81.065403
 30
0.0
 11
0.787411
 21
84.065403
 31
0.0
  0
LINE
  5
12C
330
107
100
AcDbEntity
  8
LC-004-005-----0
 62
     7
370
    25
100
AcDbLine
 10
3.787411
 20
78.236976
 30
0.0
 11
0.787411
 21
81.236976
 31
0.0
  0
LINE
  5
12D
330
107
100
AcDbEntity
  8
LC-004-005-----0
 62
     7
370
    25
100
AcDbLine
 10
3.787411
 20
75.408549
 30
0.0
 11
0.787411
 21
78.408549
 31
0.0
  0
LINE
  5
12E
330
107
100
AcDbEntity
  8
LC-004-005-----0
 62
     7
370
    25
100
AcDbLine
 10
3.787411
 20
72.580121
 30
0.0
 11
0.787411
 21
75.580121
 31
0.0
  0
LINE
  5
12F
330
107
100
AcDbEntity
  8
LC-004-005-----0
 62
     7
370
    25
100
AcDbLine
 10
3.787411
 20
69.751694
 30
0.0
 11
0.787411
 21
72.751694
 31
0.0
  0
LINE
  5
130
330
107
100
AcDbEntity
  8
LC-004-005-----0
 62
     7
370
    25
100
AcDbLine
 10
3.787411
 20
66.923267
 30
0.0
 11
0.787411
 21
69.923267
 31
0.0
  0
LINE
  5
131
330
107
100
AcDbEntity
  8
LC-004-005-----0
 62
     7
370
    25
100
AcDbLine
 10
3.787411
 20
64.09484
 30
0.0
 11
0.787411
 21
67.09484
 31
0.0
  0
LINE
  5
132
330
107
100
AcDbEntity
  8
LC-004-005-----0
 62
     7
370
    25
100
AcDbLine
 10
3.787411
 20
61.266413
 30
0.0
 11
0.787411
 21
64.266413
 31
0.0
  0
LINE
  5
133
330
107
100
AcDbEntity
  8
LC-004-005-----0
 62
     7
370
    25
100
AcDbLine
 10
3.787411
 20
58.437986
 30
0.0
 11
0.787411
 21
61.437986
 31
0.0
  0
LINE
  5
134
330
107
100
AcDbEntity
  8
LC-004-005-----0
 62
     7
370
    25
100
AcDbLine
 10
3.787411
 20
55.609559
 30
0.0
 11
0.787411
 21
58.609559
 31
0.0
  0
LINE
  5
135
330
107
100
AcDbEntity
  8
LC-004-005-----0
 62
     7
370
    25
100
AcDbLine
 10
3.420098
 20
53.148444
 30
0.0
 11
0.787411
 21
55.781132
 31
0.0
  0
ENDBLK
  5
109
330
107
100
AcDbEntity
  8
0
100
AcDbBlockEnd
  0
BLOCK
  5
1F0
330
1EF
100
AcDbEntity
  8
0
100
AcDbBlockBegin
  2
*X58
 70
     1
 71
     0
 10
0.0
 20
0.0
 30
0.0
  3
*X58
  1

  4
*X5
  0
LINE
  5
1F2
330
1EF
100
AcDbEntity
  8
LC-004-005-----0
 62
     7
370
    25
100
AcDbLine
 10
99.59462
 20
164.648444
 30
0.0
 11
101.287411
 21
166.341235
 31
0.0
  0
LINE
  5
1F3
330
1EF
100
AcDbEntity
  8
LC-004-005-----0
 62
     7
370
    25
100
AcDbLine
 10
96.766193
 20
164.648444
 30
0.0
 11
99.766193
 21
167.648444
 31
0.0
  0
LINE
  5
1F4
330
1EF
100
AcDbEntity
  8
LC-004-005-----0
 62
     7
370
    25
100
AcDbLine
 10
94.625734
 20
165.336412
 30
0.0
 11
96.937766
 21
167.648444
 31
0.0
  0
LINE
  5
1F5
330
1EF
100
AcDbEntity
  8
LC-004-005-----0
 62
     7
370
    25
100
AcDbLine
 10
93.583801
 20
167.122907
 30
0.0
 11
96.287411
 21
169.826516
 31
0.0
  0
LINE
  5
1F6
330
1EF
100
AcDbEntity
  8
LC-004-005-----0
 62
     7
370
    25
100
AcDbLine
 10
93.537411
 20
169.904943
 30
0.0
 11
96.287411
 21
172.654943
 31
0.0
  0
LINE
  5
1F7
330
1EF
100
AcDbEntity
  8
LC-004-005-----0
 62
     7
370
    25
100
AcDbLine
 10
93.537411
 20
172.73337
 30
0.0
 11
96.287411
 21
175.48337
 31
0.0
  0
LINE
  5
1F8
330
1EF
100
AcDbEntity
  8
LC-004-005-----0
 62
     7
370
    25
100
AcDbLine
 10
93.537411
 20
175.561798
 30
0.0
 11
96.287411
 21
178.311798
 31
0.0
  0
LINE
  5
1F9
330
1EF
100
AcDbEntity
  8
LC-004-005-----0
 62
     7
370
    25
100
AcDbLine
 10
90.795631
 20
175.648444
 30
0.0
 11
96.287411
 21
181.140225
 31
0.0
  0
LINE
  5
1FA
330
1EF
100
AcDbEntity
  8
LC-004-005-----0
 62
     7
370
    25
100
AcDbLine
 10
90.287411
 20
177.968652
 30
0.0
 11
90.967203
 21
178.648444
 31
0.0
  0
LINE
  5
1FB
330
1EF
100
AcDbEntity
  8
LC-004-005-----0
 62
     7
370
    25
100
AcDbLine
 10
93.537411
 20
181.218652
 30
0.0
 11
96.287411
 21
183.968652
 31
0.0
  0
LINE
  5
1FC
330
1EF
100
AcDbEntity
  8
LC-004-005-----0
 62
     7
370
    25
100
AcDbLine
 10
93.537411
 20
184.047079
 30
0.0
 11
96.287411
 21
186.797079
 31
0.0
  0
LINE
  5
1FD
330
1EF
100
AcDbEntity
  8
LC-004-005-----0
 62
     7
370
    25
100
AcDbLine
 10
93.537411
 20
186.875506
 30
0.0
 11
96.287411
 21
189.625506
 31
0.0
  0
LINE
  5
1FE
330
1EF
100
AcDbEntity
  8
LC-004-005-----0
 62
     7
370
    25
100
AcDbLine
 10
14.741807
 20
164.648444
 30
0.0
 11
18.037411
 21
167.944049
 31
0.0
  0
LINE
  5
1FF
330
1EF
100
AcDbEntity
  8
LC-004-005-----0
 62
     7
370
    25
100
AcDbLine
 10
11.91338
 20
164.648444
 30
0.0
 11
14.91338
 21
167.648444
 31
0.0
  0
LINE
  5
200
330
1EF
100
AcDbEntity
  8
LC-004-005-----0
 62
     7
370
    25
100
AcDbLine
 10
15.287411
 20
168.022476
 30
0.0
 11
18.037411
 21
170.772476
 31
0.0
  0
LINE
  5
201
330
1EF
100
AcDbEntity
  8
LC-004-005-----0
 62
     7
370
    25
100
AcDbLine
 10
10.287411
 20
165.850903
 30
0.0
 11
12.084952
 21
167.648444
 31
0.0
  0
LINE
  5
202
330
1EF
100
AcDbEntity
  8
LC-004-005-----0
 62
     7
370
    25
100
AcDbLine
 10
15.287411
 20
170.850903
 30
0.0
 11
18.037411
 21
173.600903
 31
0.0
  0
LINE
  5
203
330
1EF
100
AcDbEntity
  8
LC-004-005-----0
 62
     7
370
    25
100
AcDbLine
 10
20.084952
 20
175.648444
 30
0.0
 11
21.287411
 21
176.850903
 31
0.0
  0
LINE
  5
204
330
1EF
100
AcDbEntity
  8
LC-004-005-----0
 62
     7
370
    25
100
AcDbLine
 10
15.287411
 20
173.67933
 30
0.0
 11
20.256525
 21
178.648444
 31
0.0
  0
LINE
  5
205
330
1EF
100
AcDbEntity
  8
LC-004-005-----0
 62
     7
370
    25
100
AcDbLine
 10
15.287411
 20
176.507757
 30
0.0
 11
18.037411
 21
179.257757
 31
0.0
  0
LINE
  5
206
330
1EF
100
AcDbEntity
  8
LC-004-005-----0
 62
     7
370
    25
100
AcDbLine
 10
15.287411
 20
179.336184
 30
0.0
 11
18.037411
 21
182.086184
 31
0.0
  0
LINE
  5
207
330
1EF
100
AcDbEntity
  8
LC-004-005-----0
 62
     7
370
    25
100
AcDbLine
 10
15.287411
 20
182.164611
 30
0.0
 11
18.037411
 21
184.914611
 31
0.0
  0
LINE
  5
208
330
1EF
100
AcDbEntity
  8
LC-004-005-----0
 62
     7
370
    25
100
AcDbLine
 10
15.287411
 20
184.993038
 30
0.0
 11
18.037411
 21
187.743038
 31
0.0
  0
LINE
  5
209
330
1EF
100
AcDbEntity
  8
LC-004-005-----0
 62
     7
370
    25
100
AcDbLine
 10
15.287411
 20
187.821466
 30
0.0
 11
17.11439
 21
189.648444
 31
0.0
  0
ENDBLK
  5
1F1
330
1EF
100
AcDbEntity
  8
0
100
AcDbBlockEnd
  0
BLOCK
  5
22E
330
22D
100
AcDbEntity
  8
0
100
AcDbBlockBegin
  2
*X69
 70
     1
 71
     0
 10
0.0
 20
0.0
 30
0.0
  3
*X69
  1

  4
*X6
  0
LINE
  5
230
330
22D
100
AcDbEntity
  8
LC-004-005-----0
 62
     7
370
    25
100
AcDbLine
 10
18.787411
 20
182.030915
 30
0.0
 11
21.169881
 21
179.648444
 31
0.0
  0
LINE
  5
231
330
22D
100
AcDbEntity
  8
LC-004-005-----0
 62
     7
370
    25
100
AcDbLine
 10
24.787411
 20
176.030915
 30
0.0
 11
26.169881
 21
174.648444
 31
0.0
  0
LINE
  5
232
330
22D
100
AcDbEntity
  8
LC-004-005-----0
 62
     7
370
    25
100
AcDbLine
 10
18.787411
 20
184.859342
 30
0.0
 11
21.787411
 21
181.859342
 31
0.0
  0
LINE
  5
233
330
22D
100
AcDbEntity
  8
LC-004-005-----0
 62
     7
370
    25
100
AcDbLine
 10
24.787411
 20
178.859342
 30
0.0
 11
28.998309
 21
174.648444
 31
0.0
  0
LINE
  5
234
330
22D
100
AcDbEntity
  8
LC-004-005-----0
 62
     7
370
    25
100
AcDbLine
 10
18.787411
 20
187.687769
 30
0.0
 11
21.787411
 21
184.687769
 31
0.0
  0
LINE
  5
235
330
22D
100
AcDbEntity
  8
LC-004-005-----0
 62
     7
370
    25
100
AcDbLine
 10
24.787411
 20
181.687769
 30
0.0
 11
27.287411
 21
179.187769
 31
0.0
  0
LINE
  5
236
330
22D
100
AcDbEntity
  8
LC-004-005-----0
 62
     7
370
    25
100
AcDbLine
 10
28.826736
 20
177.648444
 30
0.0
 11
31.826736
 21
174.648444
 31
0.0
  0
LINE
  5
237
330
22D
100
AcDbEntity
  8
LC-004-005-----0
 62
     7
370
    25
100
AcDbLine
 10
19.655163
 20
189.648444
 30
0.0
 11
22.655163
 21
186.648444
 31
0.0
  0
LINE
  5
238
330
22D
100
AcDbEntity
  8
LC-004-005-----0
 62
     7
370
    25
100
AcDbLine
 10
24.787411
 20
184.516196
 30
0.0
 11
27.287411
 21
182.016196
 31
0.0
  0
LINE
  5
239
330
22D
100
AcDbEntity
  8
LC-004-005-----0
 62
     7
370
    25
100
AcDbLine
 10
31.655163
 20
177.648444
 30
0.0
 11
33.537411
 21
175.766196
 31
0.0
  0
LINE
  5
23A
330
22D
100
AcDbEntity
  8
LC-004-005-----0
 62
     7
370
    25
100
AcDbLine
 10
22.48359
 20
189.648444
 30
0.0
 11
27.287411
 21
184.844623
 31
0.0
  0
LINE
  5
23B
330
22D
100
AcDbEntity
  8
LC-004-005-----0
 62
     7
370
    25
100
AcDbLine
 10
25.312017
 20
189.648444
 30
0.0
 11
27.287411
 21
187.67305
 31
0.0
  0
LINE
  5
23C
330
22D
100
AcDbEntity
  8
LC-004-005-----0
 62
     7
370
    25
100
AcDbLine
 10
78.037411
 20
176.52103
 30
0.0
 11
79.909997
 21
174.648444
 31
0.0
  0
LINE
  5
23D
330
22D
100
AcDbEntity
  8
LC-004-005-----0
 62
     7
370
    25
100
AcDbLine
 10
79.738424
 20
177.648444
 30
0.0
 11
82.738424
 21
174.648444
 31
0.0
  0
LINE
  5
23E
330
22D
100
AcDbEntity
  8
LC-004-005-----0
 62
     7
370
    25
100
AcDbLine
 10
82.566851
 20
177.648444
 30
0.0
 11
85.566851
 21
174.648444
 31
0.0
  0
LINE
  5
23F
330
22D
100
AcDbEntity
  8
LC-004-005-----0
 62
     7
370
    25
100
AcDbLine
 10
84.287411
 20
178.756312
 30
0.0
 11
86.787411
 21
176.256312
 31
0.0
  0
LINE
  5
240
330
22D
100
AcDbEntity
  8
LC-004-005-----0
 62
     7
370
    25
100
AcDbLine
 10
84.287411
 20
181.584739
 30
0.0
 11
86.787411
 21
179.084739
 31
0.0
  0
LINE
  5
241
330
22D
100
AcDbEntity
  8
LC-004-005-----0
 62
     7
370
    25
100
AcDbLine
 10
84.287411
 20
184.413166
 30
0.0
 11
86.787411
 21
181.913166
 31
0.0
  0
LINE
  5
242
330
22D
100
AcDbEntity
  8
LC-004-005-----0
 62
     7
370
    25
100
AcDbLine
 10
84.287411
 20
187.241593
 30
0.0
 11
86.787411
 21
184.741593
 31
0.0
  0
LINE
  5
243
330
22D
100
AcDbEntity
  8
LC-004-005-----0
 62
     7
370
    25
100
AcDbLine
 10
89.787411
 20
181.741593
 30
0.0
 11
91.88056
 21
179.648444
 31
0.0
  0
LINE
  5
244
330
22D
100
AcDbEntity
  8
LC-004-005-----0
 62
     7
370
    25
100
AcDbLine
 10
84.708987
 20
189.648444
 30
0.0
 11
87.708987
 21
186.648444
 31
0.0
  0
LINE
  5
245
330
22D
100
AcDbEntity
  8
LC-004-005-----0
 62
     7
370
    25
100
AcDbLine
 10
89.787411
 20
184.57002
 30
0.0
 11
92.787411
 21
181.57002
 31
0.0
  0
LINE
  5
246
330
22D
100
AcDbEntity
  8
LC-004-005-----0
 62
     7
370
    25
100
AcDbLine
 10
87.537414
 20
189.648444
 30
0.0
 11
92.787411
 21
184.398447
 31
0.0
  0
LINE
  5
247
330
22D
100
AcDbEntity
  8
LC-004-005-----0
 62
     7
370
    25
100
AcDbLine
 10
90.365841
 20
189.648444
 30
0.0
 11
92.787411
 21
187.226874
 31
0.0
  0
ENDBLK
  5
22F
330
22D
100
AcDbEntity
  8
0
100
AcDbBlockEnd
  0
BLOCK
  5
2A1
330
2A0
100
AcDbEntity
  8
0
100
AcDbBlockBegin
  2
*X710
 70
     1
 71
     0
 10
0.0
 20
0.0
 30
0.0
  3
*X710
  1

  4
*X7
  0
LINE
  5
2A3
330
2A0
100
AcDbEntity
  8
LC-004-005-----0
 62
     7
370
    25
100
AcDbLine
 10
8.984969
 20
169.20594
 30
0.0
 11
8.344906
 21
169.846002
 31
0.0
  0
LINE
  5
2A4
330
2A0
100
AcDbEntity
  8
LC-004-005-----0
 62
     7
370
    25
100
AcDbLine
 10
13.787411
 20
161.575071
 30
0.0
 11
10.714037
 21
164.648444
 31
0.0
  0
LINE
  5
2A5
330
2A0
100
AcDbEntity
  8
LC-004-005-----0
 62
     7
370
    25
100
AcDbLine
 10
9.287411
 20
166.075071
 30
0.0
 11
7.287411
 21
168.075071
 31
0.0
  0
LINE
  5
2A6
330
2A0
100
AcDbEntity
  8
LC-004-005-----0
 62
     7
370
    25
100
AcDbLine
 10
7.214037
 20
168.148444
 30
0.0
 11
5.214037
 21
170.148444
 31
0.0
  0
LINE
  5
2A7
330
2A0
100
AcDbEntity
  8
LC-004-005-----0
 62
     7
370
    25
100
AcDbLine
 10
13.787411
 20
158.746644
 30
0.0
 11
12.587411
 21
159.946644
 31
0.0
  0
LINE
  5
2A8
330
2A0
100
AcDbEntity
  8
LC-004-005-----0
 62
     7
370
    25
100
AcDbLine
 10
9.88561
 20
162.648444
 30
0.0
 11
7.287411
 21
165.246644
 31
0.0
  0
LINE
  5
2A9
330
2A0
100
AcDbEntity
  8
LC-004-005-----0
 62
     7
370
    25
100
AcDbLine
 10
4.38561
 20
168.148444
 30
0.0
 11
2.38561
 21
170.148444
 31
0.0
  0
LINE
  5
2AA
330
2A0
100
AcDbEntity
  8
LC-004-005-----0
 62
     7
370
    25
100
AcDbLine
 10
13.787411
 20
155.918216
 30
0.0
 11
12.182509
 21
157.523118
 31
0.0
  0
LINE
  5
2AB
330
2A0
100
AcDbEntity
  8
LC-004-005-----0
 62
     7
370
    25
100
AcDbLine
 10
1.557183
 20
168.148444
 30
0.0
 11
-0.442817
 21
170.148444
 31
0.0
  0
LINE
  5
2AC
330
2A0
100
AcDbEntity
  8
LC-004-005-----0
 62
     7
370
    25
100
AcDbLine
 10
13.728756
 20
153.148444
 30
0.0
 11
12.752391
 21
154.12481
 31
0.0
  0
LINE
  5
2AD
330
2A0
100
AcDbEntity
  8
LC-004-005-----0
 62
     7
370
    25
100
AcDbLine
 10
-1.271244
 20
168.148444
 30
0.0
 11
-3.271244
 21
170.148444
 31
0.0
  0
LINE
  5
2AE
330
2A0
100
AcDbEntity
  8
LC-004-005-----0
 62
     7
370
    25
100
AcDbLine
 10
-13.690589
 20
180.567789
 30
0.0
 11
-14.271244
 21
181.148444
 31
0.0
  0
LINE
  5
2AF
330
2A0
100
AcDbEntity
  8
LC-004-005-----0
 62
     7
370
    25
100
AcDbLine
 10
-4.099671
 20
168.148444
 30
0.0
 11
-6.099671
 21
170.148444
 31
0.0
  0
LINE
  5
2B0
330
2A0
100
AcDbEntity
  8
LC-004-005-----0
 62
     7
370
    25
100
AcDbLine
 10
-13.690589
 20
177.739362
 30
0.0
 11
-16.995749
 21
181.044522
 31
0.0
  0
LINE
  5
2B1
330
2A0
100
AcDbEntity
  8
LC-004-005-----0
 62
     7
370
    25
100
AcDbLine
 10
-6.928098
 20
168.148444
 30
0.0
 11
-9.428098
 21
170.648444
 31
0.0
  0
LINE
  5
2B2
330
2A0
100
AcDbEntity
  8
LC-004-005-----0
 62
     7
370
    25
100
AcDbLine
 10
-13.690589
 20
174.910935
 30
0.0
 11
-17.190589
 21
178.410935
 31
0.0
  0
LINE
  5
2B3
330
2A0
100
AcDbEntity
  8
LC-004-005-----0
 62
     7
370
    25
100
AcDbLine
 10
-9.756525
 20
168.148444
 30
0.0
 11
-12.256525
 21
170.648444
 31
0.0
  0
LINE
  5
2B4
330
2A0
100
AcDbEntity
  8
LC-004-005-----0
 62
     7
370
    25
100
AcDbLine
 10
-13.690589
 20
172.082508
 30
0.0
 11
-17.190589
 21
175.582508
 31
0.0
  0
LINE
  5
2B5
330
2A0
100
AcDbEntity
  8
LC-004-005-----0
 62
     7
370
    25
100
AcDbLine
 10
-12.584952
 20
168.148444
 30
0.0
 11
-17.190589
 21
172.754081
 31
0.0
  0
LINE
  5
2B6
330
2A0
100
AcDbEntity
  8
LC-004-005-----0
 62
     7
370
    25
100
AcDbLine
 10
-15.41338
 20
168.148444
 30
0.0
 11
-17.190589
 21
169.925654
 31
0.0
  0
ENDBLK
  5
2A2
330
2A0
100
AcDbEntity
  8
0
100
AcDbBlockEnd
  0
BLOCK
  5
2B9
330
2B8
100
AcDbEntity
  8
0
100
AcDbBlockBegin
  2
*X811
 70
     1
 71
     0
 10
0.0
 20
0.0
 30
0.0
  3
*X811
  1

  4
*X8
  0
LINE
  5
2BB
330
2B8
100
AcDbEntity
  8
LC-004-005-----0
 62
     7
370
    25
100
AcDbLine
 10
128.765411
 20
179.533146
 30
0.0
 11
127.150112
 21
181.148444
 31
0.0
  0
LINE
  5
2BC
330
2B8
100
AcDbEntity
  8
LC-004-005-----0
 62
     7
370
    25
100
AcDbLine
 10
128.765411
 20
176.704718
 30
0.0
 11
125.265411
 21
180.204718
 31
0.0
  0
LINE
  5
2BD
330
2B8
100
AcDbEntity
  8
LC-004-005-----0
 62
     7
370
    25
100
AcDbLine
 10
128.765411
 20
173.876291
 30
0.0
 11
125.265411
 21
177.376291
 31
0.0
  0
LINE
  5
2BE
330
2B8
100
AcDbEntity
  8
LC-004-005-----0
 62
     7
370
    25
100
AcDbLine
 10
128.765411
 20
171.047864
 30
0.0
 11
125.265411
 21
174.547864
 31
0.0
  0
LINE
  5
2BF
330
2B8
100
AcDbEntity
  8
LC-004-005-----0
 62
     7
370
    25
100
AcDbLine
 10
128.836404
 20
168.148444
 30
0.0
 11
125.265411
 21
171.719437
 31
0.0
  0
LINE
  5
2C0
330
2B8
100
AcDbEntity
  8
LC-004-005-----0
 62
     7
370
    25
100
AcDbLine
 10
126.007977
 20
168.148444
 30
0.0
 11
123.507977
 21
170.648444
 31
0.0
  0
LINE
  5
2C1
330
2B8
100
AcDbEntity
  8
LC-004-005-----0
 62
     7
370
    25
100
AcDbLine
 10
123.179549
 20
168.148444
 30
0.0
 11
120.679549
 21
170.648444
 31
0.0
  0
LINE
  5
2C2
330
2B8
100
AcDbEntity
  8
LC-004-005-----0
 62
     7
370
    25
100
AcDbLine
 10
120.351122
 20
168.148444
 30
0.0
 11
118.351122
 21
170.148444
 31
0.0
  0
LINE
  5
2C3
330
2B8
100
AcDbEntity
  8
LC-004-005-----0
 62
     7
370
    25
100
AcDbLine
 10
117.522695
 20
168.148444
 30
0.0
 11
115.522695
 21
170.148444
 31
0.0
  0
LINE
  5
2C4
330
2B8
100
AcDbEntity
  8
LC-004-005-----0
 62
     7
370
    25
100
AcDbLine
 10
114.694268
 20
168.148444
 30
0.0
 11
112.694268
 21
170.148444
 31
0.0
  0
LINE
  5
2C5
330
2B8
100
AcDbEntity
  8
LC-004-005-----0
 62
     7
370
    25
100
AcDbLine
 10
111.865841
 20
168.148444
 30
0.0
 11
109.865841
 21
170.148444
 31
0.0
  0
LINE
  5
2C6
330
2B8
100
AcDbEntity
  8
LC-004-005-----0
 62
     7
370
    25
100
AcDbLine
 10
109.037414
 20
168.148444
 30
0.0
 11
107.037414
 21
170.148444
 31
0.0
  0
LINE
  5
2C7
330
2B8
100
AcDbEntity
  8
LC-004-005-----0
 62
     7
370
    25
100
AcDbLine
 10
106.208987
 20
168.148444
 30
0.0
 11
104.210467
 21
170.146964
 31
0.0
  0
LINE
  5
2C8
330
2B8
100
AcDbEntity
  8
LC-004-005-----0
 62
     7
370
    25
100
AcDbLine
 10
104.287411
 20
167.241593
 30
0.0
 11
102.494431
 21
169.034573
 31
0.0
  0
LINE
  5
2C9
330
2B8
100
AcDbEntity
  8
LC-004-005-----0
 62
     7
370
    25
100
AcDbLine
 10
104.287411
 20
164.413166
 30
0.0
 11
102.287411
 21
166.413166
 31
0.0
  0
LINE
  5
2CA
330
2B8
100
AcDbEntity
  8
LC-004-005-----0
 62
     7
370
    25
100
AcDbLine
 10
103.223705
 20
162.648444
 30
0.0
 11
101.223705
 21
164.648444
 31
0.0
  0
LINE
  5
2CB
330
2B8
100
AcDbEntity
  8
LC-004-005-----0
 62
     7
370
    25
100
AcDbLine
 10
100.395278
 20
162.648444
 30
0.0
 11
98.45289
 21
164.590833
 31
0.0
  0
LINE
  5
2CC
330
2B8
100
AcDbEntity
  8
LC-004-005-----0
 62
     7
370
    25
100
AcDbLine
 10
98.987411
 20
161.227884
 30
0.0
 11
97.787411
 21
162.427884
 31
0.0
  0
LINE
  5
2CD
330
2B8
100
AcDbEntity
  8
LC-004-005-----0
 62
     7
370
    25
100
AcDbLine
 10
98.987411
 20
158.399457
 30
0.0
 11
97.787411
 21
159.599457
 31
0.0
  0
LINE
  5
2CE
330
2B8
100
AcDbEntity
  8
LC-004-005-----0
 62
     7
370
    25
100
AcDbLine
 10
99.252374
 20
155.306067
 30
0.0
 11
97.787411
 21
156.77103
 31
0.0
  0
LINE
  5
2CF
330
2B8
100
AcDbEntity
  8
LC-004-005-----0
 62
     7
370
    25
100
AcDbLine
 10
98.497619
 20
153.232395
 30
0.0
 11
97.787411
 21
153.942603
 31
0.0
  0
ENDBLK
  5
2BA
330
2B8
100
AcDbEntity
  8
0
100
AcDbBlockEnd
  0
BLOCK
  5
347
330
33C
100
AcDbEntity
  8
0
100
AcDbBlockBegin
  2
*D12
 70
     1
 71
     0
 10
0.0
 20
0.0
 30
0.0
  3
*D12
  1

  0
LINE
  5
33D
330
33C
100
AcDbEntity
  8
LC-003-003-----0
 62
     2
370
    -2
100
AcDbLine
 10
27.287411
 20
189.648444
 30
0.0
 11
27.287411
 21
221.598
 31
0.0
  0
LINE
  5
33E
330
33C
100
AcDbEntity
  8
LC-003-003-----0
 62
     2
370
    -2
100
AcDbLine
 10
84.287411
 20
189.648444
 30
0.0
 11
84.287411
 21
221.598
 31
0.0
  0
LINE
  5
33F
330
33C
100
AcDbEntity
  8
LC-003-003-----0
 62
     2
370
    -2
100
AcDbLine
 10
-0.712589
 20
217.998
 30
0.0
 11
-28.712589
 21
217.998
 31
0.0
  0
LINE
  5
340
330
33C
100
AcDbEntity
  8
LC-003-003-----0
 62
     2
370
    -2
100
AcDbLine
 10
112.287411
 20
217.998
 30
0.0
 11
229.442528
 21
217.998
 31
0.0
  0
SOLID
  5
341
330
33C
100
AcDbEntity
  8
LC-003-003-----0
 62
     2
100
AcDbTrace
 10
-0.712589
 20
213.331333
 30
0.0
 11
-0.712589
 21
222.664667
 31
0.0
 12
27.287411
 22
217.998
 32
0.0
 13
27.287411
 23
217.998
 33
0.0
  0
SOLID
  5
342
330
33C
100
AcDbEntity
  8
LC-003-003-----0
 62
     2
100
AcDbTrace
 10
112.287411
 20
222.664667
 30
0.0
 11
112.287411
 21
213.331333
 31
0.0
 12
84.287411
 22
217.998
 32
0.0
 13
84.287411
 23
217.998
 33
0.0
  0
MTEXT
  5
343
330
33C
100
AcDbEntity
  8
LC-003-003-----0
 62
     2
100
AcDbMText
 10
183.405771
 20
248.798
 30
0.0
 40
28.0
 41
0.0
 71
     5
 72
     1
  1
\A1;DN50
  7
LCTX15-400-0-0pDIN-Schrift
 73
     1
 44
1.0
  0
POINT
  5
344
330
33C
100
AcDbEntity
  8
Defpoints
 62
     0
100
AcDbPoint
 10
27.287411
 20
189.648444
 30
0.0
  0
POINT
  5
345
330
33C
100
AcDbEntity
  8
Defpoints
 62
     0
100
AcDbPoint
 10
84.287411
 20
189.648444
 30
0.0
  0
POINT
  5
346
330
33C
100
AcDbEntity
  8
Defpoints
 62
     0
100
AcDbPoint
 10
84.287411
 20
217.998
 30
0.0
  0
ENDBLK
  5
348
330
33C
100
AcDbEntity
  8
0
100
AcDbBlockEnd
  0
BLOCK
  5
34B
330
34A
100
AcDbEntity
  8
0
100
AcDbBlockBegin
  2
*X913
 70
     1
 71
     0
 10
0.0
 20
0.0
 30
0.0
  3
*X913
  1

  4
*X9
  0
LINE
  5
34D
330
34A
100
AcDbEntity
  8
LC-004-005-----0
 62
     7
370
    25
100
AcDbLine
 10
104.060133
 20
53.148444
 30
0.0
 11
107.787411
 21
56.875723
 31
0.0
  0
LINE
  5
34E
330
34A
100
AcDbEntity
  8
LC-004-005-----0
 62
     7
370
    25
100
AcDbLine
 10
98.403278
 20
53.148444
 30
0.0
 11
107.787411
 21
62.532577
 31
0.0
  0
LINE
  5
34F
330
34A
100
AcDbEntity
  8
LC-004-005-----0
 62
     7
370
    25
100
AcDbLine
 10
92.746424
 20
53.148444
 30
0.0
 11
106.746424
 21
67.148444
 31
0.0
  0
LINE
  5
350
330
34A
100
AcDbEntity
  8
LC-004-005-----0
 62
     7
370
    25
100
AcDbLine
 10
87.08957
 20
53.148444
 30
0.0
 11
101.08957
 21
67.148444
 31
0.0
  0
LINE
  5
351
330
34A
100
AcDbEntity
  8
LC-004-005-----0
 62
     7
370
    25
100
AcDbLine
 10
81.432716
 20
53.148444
 30
0.0
 11
95.432716
 21
67.148444
 31
0.0
  0
LINE
  5
352
330
34A
100
AcDbEntity
  8
LC-004-005-----0
 62
     7
370
    25
100
AcDbLine
 10
75.775861
 20
53.148444
 30
0.0
 11
89.775861
 21
67.148444
 31
0.0
  0
LINE
  5
353
330
34A
100
AcDbEntity
  8
LC-004-005-----0
 62
     7
370
    25
100
AcDbLine
 10
70.119007
 20
53.148444
 30
0.0
 11
84.119007
 21
67.148444
 31
0.0
  0
LINE
  5
354
330
34A
100
AcDbEntity
  8
LC-004-005-----0
 62
     7
370
    25
100
AcDbLine
 10
64.462153
 20
53.148444
 30
0.0
 11
78.462153
 21
67.148444
 31
0.0
  0
LINE
  5
355
330
34A
100
AcDbEntity
  8
LC-004-005-----0
 62
     7
370
    25
100
AcDbLine
 10
58.805299
 20
53.148444
 30
0.0
 11
72.805299
 21
67.148444
 31
0.0
  0
LINE
  5
356
330
34A
100
AcDbEntity
  8
LC-004-005-----0
 62
     7
370
    25
100
AcDbLine
 10
55.787411
 20
55.787411
 30
0.0
 11
67.148444
 21
67.148444
 31
0.0
  0
LINE
  5
357
330
34A
100
AcDbEntity
  8
LC-004-005-----0
 62
     7
370
    25
100
AcDbLine
 10
55.787411
 20
61.444265
 30
0.0
 11
61.49159
 21
67.148444
 31
0.0
  0
LINE
  5
358
330
34A
100
AcDbEntity
  8
LC-004-005-----0
 62
     7
370
    25
100
AcDbLine
 10
55.787411
 20
67.101119
 30
0.0
 11
55.834736
 21
67.148444
 31
0.0
  0
LINE
  5
359
330
34A
100
AcDbEntity
  8
LC-004-005-----0
 62
     7
370
    25
100
AcDbLine
 10
107.787411
 20
61.918216
 30
0.0
 11
102.557183
 21
67.148444
 31
0.0
  0
LINE
  5
35A
330
34A
100
AcDbEntity
  8
LC-004-005-----0
 62
     7
370
    25
100
AcDbLine
 10
107.787411
 20
56.261362
 30
0.0
 11
96.900329
 21
67.148444
 31
0.0
  0
LINE
  5
35B
330
34A
100
AcDbEntity
  8
LC-004-005-----0
 62
     7
370
    25
100
AcDbLine
 10
105.243475
 20
53.148444
 30
0.0
 11
91.243475
 21
67.148444
 31
0.0
  0
LINE
  5
35C
330
34A
100
AcDbEntity
  8
LC-004-005-----0
 62
     7
370
    25
100
AcDbLine
 10
99.58662
 20
53.148444
 30
0.0
 11
85.58662
 21
67.148444
 31
0.0
  0
LINE
  5
35D
330
34A
100
AcDbEntity
  8
LC-004-005-----0
 62
     7
370
    25
100
AcDbLine
 10
93.929766
 20
53.148444
 30
0.0
 11
79.929766
 21
67.148444
 31
0.0
  0
LINE
  5
35E
330
34A
100
AcDbEntity
  8
LC-004-005-----0
 62
     7
370
    25
100
AcDbLine
 10
88.272912
 20
53.148444
 30
0.0
 11
74.272912
 21
67.148444
 31
0.0
  0
LINE
  5
35F
330
34A
100
AcDbEntity
  8
LC-004-005-----0
 62
     7
370
    25
100
AcDbLine
 10
82.616058
 20
53.148444
 30
0.0
 11
68.616058
 21
67.148444
 31
0.0
  0
LINE
  5
360
330
34A
100
AcDbEntity
  8
LC-004-005-----0
 62
     7
370
    25
100
AcDbLine
 10
76.959203
 20
53.148444
 30
0.0
 11
62.959203
 21
67.148444
 31
0.0
  0
LINE
  5
361
330
34A
100
AcDbEntity
  8
LC-004-005-----0
 62
     7
370
    25
100
AcDbLine
 10
71.302349
 20
53.148444
 30
0.0
 11
57.302349
 21
67.148444
 31
0.0
  0
LINE
  5
362
330
34A
100
AcDbEntity
  8
LC-004-005-----0
 62
     7
370
    25
100
AcDbLine
 10
65.645495
 20
53.148444
 30
0.0
 11
55.787411
 21
63.006528
 31
0.0
  0
LINE
  5
363
330
34A
100
AcDbEntity
  8
LC-004-005-----0
 62
     7
370
    25
100
AcDbLine
 10
59.988641
 20
53.148444
 30
0.0
 11
55.787411
 21
57.349674
 31
0.0
  0
ENDBLK
  5
34C
330
34A
100
AcDbEntity
  8
0
100
AcDbBlockEnd
  0
BLOCK
  5
366
330
365
100
AcDbEntity
  8
0
100
AcDbBlockBegin
  2
*X1014
 70
     1
 71
     0
 10
0.0
 20
0.0
 30
0.0
  3
*X1014
  1

  4
*X10
  0
LINE
  5
368
330
365
100
AcDbEntity
  8
LC-004-005-----0
 62
     7
370
    25
100
AcDbLine
 10
53.148444
 20
53.148444
 30
0.0
 11
55.787411
 21
55.787411
 31
0.0
  0
LINE
  5
369
330
365
100
AcDbEntity
  8
LC-004-005-----0
 62
     7
370
    25
100
AcDbLine
 10
47.49159
 20
53.148444
 30
0.0
 11
55.787411
 21
61.444265
 31
0.0
  0
LINE
  5
36A
330
365
100
AcDbEntity
  8
LC-004-005-----0
 62
     7
370
    25
100
AcDbLine
 10
41.834736
 20
53.148444
 30
0.0
 11
55.787411
 21
67.101119
 31
0.0
  0
LINE
  5
36B
330
365
100
AcDbEntity
  8
LC-004-005-----0
 62
     7
370
    25
100
AcDbLine
 10
36.177882
 20
53.148444
 30
0.0
 11
50.177882
 21
67.148444
 31
0.0
  0
LINE
  5
36C
330
365
100
AcDbEntity
  8
LC-004-005-----0
 62
     7
370
    25
100
AcDbLine
 10
30.521027
 20
53.148444
 30
0.0
 11
44.521027
 21
67.148444
 31
0.0
  0
LINE
  5
36D
330
365
100
AcDbEntity
  8
LC-004-005-----0
 62
     7
370
    25
100
AcDbLine
 10
24.864173
 20
53.148444
 30
0.0
 11
38.864173
 21
67.148444
 31
0.0
  0
LINE
  5
36E
330
365
100
AcDbEntity
  8
LC-004-005-----0
 62
     7
370
    25
100
AcDbLine
 10
19.207319
 20
53.148444
 30
0.0
 11
33.207319
 21
67.148444
 31
0.0
  0
LINE
  5
36F
330
365
100
AcDbEntity
  8
LC-004-005-----0
 62
     7
370
    25
100
AcDbLine
 10
13.550465
 20
53.148444
 30
0.0
 11
27.550465
 21
67.148444
 31
0.0
  0
LINE
  5
370
330
365
100
AcDbEntity
  8
LC-004-005-----0
 62
     7
370
    25
100
AcDbLine
 10
7.89361
 20
53.148444
 30
0.0
 11
21.89361
 21
67.148444
 31
0.0
  0
LINE
  5
371
330
365
100
AcDbEntity
  8
LC-004-005-----0
 62
     7
370
    25
100
AcDbLine
 10
3.787411
 20
54.699099
 30
0.0
 11
16.236756
 21
67.148444
 31
0.0
  0
LINE
  5
372
330
365
100
AcDbEntity
  8
LC-004-005-----0
 62
     7
370
    25
100
AcDbLine
 10
3.787411
 20
60.355953
 30
0.0
 11
10.579902
 21
67.148444
 31
0.0
  0
LINE
  5
373
330
365
100
AcDbEntity
  8
LC-004-005-----0
 62
     7
370
    25
100
AcDbLine
 10
3.787411
 20
66.012808
 30
0.0
 11
4.923048
 21
67.148444
 31
0.0
  0
LINE
  5
374
330
365
100
AcDbEntity
  8
LC-004-005-----0
 62
     7
370
    25
100
AcDbLine
 10
55.787411
 20
63.006528
 30
0.0
 11
51.645495
 21
67.148444
 31
0.0
  0
LINE
  5
375
330
365
100
AcDbEntity
  8
LC-004-005-----0
 62
     7
370
    25
100
AcDbLine
 10
55.787411
 20
57.349674
 30
0.0
 11
45.988641
 21
67.148444
 31
0.0
  0
LINE
  5
376
330
365
100
AcDbEntity
  8
LC-004-005-----0
 62
     7
370
    25
100
AcDbLine
 10
54.331786
 20
53.148444
 30
0.0
 11
40.331786
 21
67.148444
 31
0.0
  0
LINE
  5
377
330
365
100
AcDbEntity
  8
LC-004-005-----0
 62
     7
370
    25
100
AcDbLine
 10
48.674932
 20
53.148444
 30
0.0
 11
34.674932
 21
67.148444
 31
0.0
  0
LINE
  5
378
330
365
100
AcDbEntity
  8
LC-004-005-----0
 62
     7
370
    25
100
AcDbLine
 10
43.018078
 20
53.148444
 30
0.0
 11
29.018078
 21
67.148444
 31
0.0
  0
LINE
  5
379
330
365
100
AcDbEntity
  8
LC-004-005-----0
 62
     7
370
    25
100
AcDbLine
 10
37.361224
 20
53.148444
 30
0.0
 11
23.361224
 21
67.148444
 31
0.0
  0
LINE
  5
37A
330
365
100
AcDbEntity
  8
LC-004-005-----0
 62
     7
370
    25
100
AcDbLine
 10
31.704369
 20
53.148444
 30
0.0
 11
17.704369
 21
67.148444
 31
0.0
  0
LINE
  5
37B
330
365
100
AcDbEntity
  8
LC-004-005-----0
 62
     7
370
    25
100
AcDbLine
 10
26.047515
 20
53.148444
 30
0.0
 11
12.047515
 21
67.148444
 31
0.0
  0
LINE
  5
37C
330
365
100
AcDbEntity
  8
LC-004-005-----0
 62
     7
370
    25
100
AcDbLine
 10
20.390661
 20
53.148444
 30
0.0
 11
6.390661
 21
67.148444
 31
0.0
  0
LINE
  5
37D
330
365
100
AcDbEntity
  8
LC-004-005-----0
 62
     7
370
    25
100
AcDbLine
 10
14.733807
 20
53.148444
 30
0.0
 11
3.787411
 21
64.09484
 31
0.0
  0
LINE
  5
37E
330
365
100
AcDbEntity
  8
LC-004-005-----0
 62
     7
370
    25
100
AcDbLine
 10
9.076952
 20
53.148444
 30
0.0
 11
3.787411
 21
58.437986
 31
0.0
  0
ENDBLK
  5
367
330
365
100
AcDbEntity
  8
0
100
AcDbBlockEnd
  0
BLOCK
  5
38D
330
381
100
AcDbEntity
  8
0
100
AcDbBlockBegin
  2
*D15
 70
     1
 71
     0
 10
0.0
 20
0.0
 30
0.0
  3
*D15
  1

  0
LINE
  5
382
330
381
100
AcDbEntity
  8
LC-003-003-----0
 62
     2
370
    -2
100
AcDbLine
 10
107.786973
 20
53.148444
 30
0.0
 11
147.601662
 21
53.147198
 31
0.0
  0
LINE
  5
383
330
381
100
AcDbEntity
  8
LC-003-003-----0
 62
     2
370
    -2
100
AcDbLine
 10
107.787411
 20
67.148444
 30
0.0
 11
147.6021
 21
67.147198
 31
0.0
  0
LINE
  5
384
330
381
100
AcDbEntity
  8
LC-003-003-----0
 62
     2
370
    -2
100
AcDbLine
 10
144.000786
 20
25.147311
 30
0.0
 11
143.99991
 21
-2.852689
 31
0.0
  0
LINE
  5
385
330
381
100
AcDbEntity
  8
LC-003-003-----0
 62
     2
370
    -2
100
AcDbLine
 10
144.002976
 20
95.147311
 30
0.0
 11
144.003853
 21
123.147311
 31
0.0
  0
LINE
  5
386
330
381
100
AcDbEntity
  8
LC-003-003-----0
 62
     2
370
    -2
100
AcDbLine
 10
144.001662
 20
53.147311
 30
0.0
 11
144.0021
 21
67.147311
 31
0.0
  0
SOLID
  5
387
330
381
100
AcDbEntity
  8
LC-003-003-----0
 62
     2
100
AcDbTrace
 10
148.667453
 20
25.147165
 30
0.0
 11
139.334119
 21
25.147457
 31
0.0
 12
144.001662
 22
53.147311
 32
0.0
 13
144.001662
 23
53.147311
 33
0.0
  0
SOLID
  5
388
330
381
100
AcDbEntity
  8
LC-003-003-----0
 62
     2
100
AcDbTrace
 10
139.33631
 20
95.147457
 30
0.0
 11
148.669643
 21
95.147165
 31
0.0
 12
144.0021
 22
67.147311
 32
0.0
 13
144.0021
 23
67.147311
 33
0.0
  0
MTEXT
  5
389
330
381
100
AcDbEntity
  8
LC-003-003-----0
 62
     2
100
AcDbMText
 10
113.201881
 20
60.148276
 30
0.0
 40
28.0
 41
0.0
 71
     5
 72
     1
  1
\A1;14
  7
LCTX15-400-0-0pDIN-Schrift
 11
3.129214280345770E-5
 21
0.9999999995104009
 31
0.0
 73
     1
 44
1.0
  0
POINT
  5
38A
330
381
100
AcDbEntity
  8
Defpoints
 62
     0
100
AcDbPoint
 10
107.786973
 20
53.148444
 30
0.0
  0
POINT
  5
38B
330
381
100
AcDbEntity
  8
Defpoints
 62
     0
100
AcDbPoint
 10
107.787411
 20
67.148444
 30
0.0
  0
POINT
  5
38C
330
381
100
AcDbEntity
  8
Defpoints
 62
     0
100
AcDbPoint
 10
144.0021
 20
67.147311
 30
0.0
  0
ENDBLK
  5
38E
330
381
100
AcDbEntity
  8
0
100
AcDbBlockEnd
  0
BLOCK
  5
39A
330
390
100
AcDbEntity
  8
0
100
AcDbBlockBegin
  2
*D16
 70
     1
 71
     0
 10
0.0
 20
0.0
 30
0.0
  3
*D16
  1

  0
LINE
  5
391
330
390
100
AcDbEntity
  8
LC-003-003-----0
 62
     2
370
    -2
100
AcDbLine
 10
107.787411
 20
67.148444
 30
0.0
 11
194.984039
 21
67.148444
 31
0.0
  0
LINE
  5
392
330
390
100
AcDbEntity
  8
LC-003-003-----0
 62
     2
370
    -2
100
AcDbLine
 10
127.015411
 20
181.148444
 30
0.0
 11
194.984039
 21
181.148444
 31
0.0
  0
LINE
  5
393
330
390
100
AcDbEntity
  8
LC-003-003-----0
 62
     2
370
    -2
100
AcDbLine
 10
191.384039
 20
95.148444
 30
0.0
 11
191.384039
 21
153.148444
 31
0.0
  0
SOLID
  5
394
330
390
100
AcDbEntity
  8
LC-003-003-----0
 62
     2
100
AcDbTrace
 10
186.717373
 20
95.148444
 30
0.0
 11
196.050706
 21
95.148444
 31
0.0
 12
191.384039
 22
67.148444
 32
0.0
 13
191.384039
 23
67.148444
 33
0.0
  0
SOLID
  5
395
330
390
100
AcDbEntity
  8
LC-003-003-----0
 62
     2
100
AcDbTrace
 10
196.050706
 20
153.148444
 30
0.0
 11
186.717373
 21
153.148444
 31
0.0
 12
191.384039
 22
181.148444
 32
0.0
 13
191.384039
 23
181.148444
 33
0.0
  0
MTEXT
  5
396
330
390
100
AcDbEntity
  8
LC-003-003-----0
 62
     2
100
AcDbMText
 10
160.584039
 20
116.424
 30
0.0
 40
28.0
 41
0.0
 71
     5
 72
     1
  1
\A1;16-114
  7
LCTX15-400-0-0pDIN-Schrift
 11
6.123031769111886E-17
 21
1.0
 31
0.0
 73
     1
 44
1.0
  0
POINT
  5
397
330
390
100
AcDbEntity
  8
Defpoints
 62
     0
100
AcDbPoint
 10
107.787411
 20
67.148444
 30
0.0
  0
POINT
  5
398
330
390
100
AcDbEntity
  8
Defpoints
 62
     0
100
AcDbPoint
 10
127.015411
 20
181.148444
 30
0.0
  0
POINT
  5
399
330
390
100
AcDbEntity
  8
Defpoints
 62
     0
100
AcDbPoint
 10
191.384039
 20
181.148444
 30
0.0
  0
ENDBLK
  5
39B
330
390
100
AcDbEntity
  8
0
100
AcDbBlockEnd
  0
BLOCK
  5
3A8
330
39D
100
AcDbEntity
  8
0
100
AcDbBlockBegin
  2
*D17
 70
     1
 71
     0
 10
0.0
 20
0.0
 30
0.0
  3
*D17
  1

  0
LINE
  5
39E
330
39D
100
AcDbEntity
  8
LC-003-003-----0
 62
     2
370
    -2
100
AcDbLine
 10
-16.690589
 20
181.148444
 30
0.0
 11
-45.358706
 21
181.148444
 31
0.0
  0
LINE
  5
39F
330
39D
100
AcDbEntity
  8
LC-003-003-----0
 62
     2
370
    -2
100
AcDbLine
 10
-17.690589
 20
168.148444
 30
0.0
 11
-45.358706
 21
168.148444
 31
0.0
  0
LINE
  5
3A0
330
39D
100
AcDbEntity
  8
LC-003-003-----0
 62
     2
370
    -2
100
AcDbLine
 10
-41.758706
 20
209.148444
 30
0.0
 11
-41.758706
 21
237.148444
 31
0.0
  0
LINE
  5
3A1
330
39D
100
AcDbEntity
  8
LC-003-003-----0
 62
     2
370
    -2
100
AcDbLine
 10
-41.758706
 20
140.148444
 30
0.0
 11
-41.758706
 21
143.859378
 31
0.0
  0
SOLID
  5
3A2
330
39D
100
AcDbEntity
  8
LC-003-003-----0
 62
     2
100
AcDbTrace
 10
-46.425372
 20
209.148444
 30
0.0
 11
-37.092039
 21
209.148444
 31
0.0
 12
-41.758706
 22
181.148444
 32
0.0
 13
-41.758706
 23
181.148444
 33
0.0
  0
SOLID
  5
3A3
330
39D
100
AcDbEntity
  8
LC-003-003-----0
 62
     2
100
AcDbTrace
 10
-37.092039
 20
140.148444
 30
0.0
 11
-46.425372
 21
140.148444
 31
0.0
 12
-41.758706
 22
168.148444
 32
0.0
 13
-41.758706
 23
168.148444
 33
0.0
  0
MTEXT
  5
3A4
330
39D
100
AcDbEntity
  8
LC-003-003-----0
 62
     2
100
AcDbMText
 10
-72.558706
 20
163.944
 30
0.0
 40
28.0
 41
0.0
 71
     5
 72
     1
  1
\A1;13
  7
LCTX15-400-0-0pDIN-Schrift
 11
6.123031769111886E-17
 21
1.0
 31
0.0
 73
     1
 44
1.0
  0
POINT
  5
3A5
330
39D
100
AcDbEntity
  8
Defpoints
 62
     0
100
AcDbPoint
 10
-16.690589
 20
181.148444
 30
0.0
  0
POINT
  5
3A6
330
39D
100
AcDbEntity
  8
Defpoints
 62
     0
100
AcDbPoint
 10
-17.690589
 20
168.148444
 30
0.0
  0
POINT
  5
3A7
330
39D
100
AcDbEntity
  8
Defpoints
 62
     0
100
AcDbPoint
 10
-41.758706
 20
168.148444
 30
0.0
  0
ENDBLK
  5
3A9
330
39D
100
AcDbEntity
  8
0
100
AcDbBlockEnd
  0
ENDSEC
  0
SECTION
  2
ENTITIES
  0
ARC
  5
32
330
1F
100
AcDbEntity
  8
LC-001-002-RND-0
 62
     7
370
    50
100
AcDbCircle
 10
217.265411
 20
182.824222
 30
0.0
 40
2.0
100
AcDbArc
 50
90.0
 51
180.0
  0
ARC
  5
33
330
1F
100
AcDbEntity
  8
LC-001-002-RND-0
 62
     7
370
    50
100
AcDbCircle
 10
217.265411
 20
47.824222
 30
0.0
 40
2.0
100
AcDbArc
 50
180.0
 51
270.0
  0
LINE
  5
35
330
1F
100
AcDbEntity
  8
LC-002-002-----0
 62
     7
370
    50
100
AcDbLine
 10
217.265411
 20
188.324222
 30
0.0
 11
352.265411
 21
188.324222
 31
0.0
  0
LINE
  5
36
330
1F
100
AcDbEntity
  8
LC-002-002-----0
 62
     7
370
    50
100
AcDbLine
 10
211.765411
 20
47.824222
 30
0.0
 11
211.765411
 21
182.824222
 31
0.0
  0
LINE
  5
37
330
1F
100
AcDbEntity
  8
LC-002-002-----0
 62
     7
370
    50
100
AcDbLine
 10
352.265411
 20
42.324222
 30
0.0
 11
217.265411
 21
42.324222
 31
0.0
  0
ARC
  5
38
330
1F
100
AcDbEntity
  8
LC-001-002-RND-0
 62
     7
370
    50
100
AcDbCircle
 10
352.265411
 20
182.824222
 30
0.0
 40
5.5
100
AcDbArc
 50
0.0
 51
90.0
  0
ARC
  5
39
330
1F
100
AcDbEntity
  8
LC-001-002-RND-0
 62
     7
370
    50
100
AcDbCircle
 10
352.265411
 20
47.824222
 30
0.0
 40
2.0
100
AcDbArc
 50
270.0
 51
0.0
  0
ARC
  5
3A
330
1F
100
AcDbEntity
  8
LC-001-002-RND-0
 62
     7
370
    50
100
AcDbCircle
 10
352.265411
 20
182.824222
 30
0.0
 40
2.0
100
AcDbArc
 50
0.0
 51
90.0
  0
LINE
  5
3B
330
1F
100
AcDbEntity
  8
LC-002-002-----0
 62
     7
370
    50
100
AcDbLine
 10
357.765411
 20
182.824222
 30
0.0
 11
357.765411
 21
47.824222
 31
0.0
  0
DIMENSION
  5
3F
330
1F
100
AcDbEntity
  8
LC-003-003-----0
 62
     7
370
    25
100
AcDbDimension
  2
*D1
 10
128.765411
 20
297.594
 30
0.0
 11
93.871865
 21
328.394
 31
0.0
 70
   160
  1
150
 71
     5
 42
145.956
  3
LC-DIM-L-0140-02-02
100
AcDbAlignedDimension
 13
-17.190589
 23
173.898444
 33
0.0
 14
128.765411
 24
173.898444
 34
0.0
100
AcDbRotatedDimension
  0
DIMENSION
  5
4D
330
1F
100
AcDbEntity
  8
LC-003-003-----0
 62
     7
370
    25
100
AcDbDimension
  2
*D2
 10
110.787411
 20
-7.128
 30
0.0
 11
49.548149
 21
23.672
 31
0.0
 70
   160
  1
%%c110
 71
     5
 42
110.0
  3
LC-DIM-L-0140-02-02
100
AcDbAlignedDimension
 13
0.787411
 23
54.148444
 33
0.0
 14
110.787411
 24
54.148444
 34
0.0
100
AcDbRotatedDimension
  0
LINE
  5
5A
330
1F
100
AcDbEntity
  8
LC-002-002-----0
 62
     7
370
    25
100
AcDbLine
 10
11.499817
 20
307.692
 30
0.0
 11
26.499817
 21
307.692
 31
0.0
  0
ARC
  5
5B
330
1F
100
AcDbEntity
  8
LC-001-002-RND-0
 62
     7
370
    50
100
AcDbCircle
 10
352.265411
 20
47.824222
 30
0.0
 40
5.5
100
AcDbArc
 50
270.0
 51
0.0
  0
ARC
  5
5C
330
1F
100
AcDbEntity
  8
LC-001-002-RND-0
 62
     7
370
    50
100
AcDbCircle
 10
217.265411
 20
47.824222
 30
0.0
 40
5.5
100
AcDbArc
 50
180.0
 51
270.0
  0
ARC
  5
5D
330
1F
100
AcDbEntity
  8
LC-001-002-RND-0
 62
     7
370
    50
100
AcDbCircle
 10
217.265411
 20
182.824222
 30
0.0
 40
5.5
100
AcDbArc
 50
90.0
 51
180.0
  0
LINE
  5
5E
330
1F
100
AcDbEntity
  8
LC-002-002-----0
 62
     7
370
    50
100
AcDbLine
 10
217.287411
 20
189.302222
 30
0.0
 11
352.243411
 21
189.302222
 31
0.0
  0
LINE
  5
5F
330
1F
100
AcDbEntity
  8
LC-002-002-----0
 62
     7
370
    25
100
AcDbLine
 10
11.499817
 20
322.692
 30
0.0
 11
11.499817
 21
307.692
 31
0.0
  0
DIMENSION
  5
60
330
1F
100
AcDbEntity
  8
LC-003-003-----0
 62
     7
370
    25
100
AcDbDimension
  2
*D3
 10
93.537411
 20
270.27
 30
0.0
 11
187.838142
 21
301.07
 31
0.0
 70
   160
  1
DN70
 71
     5
 42
75.5
  3
LC-DIM-L-0140-02-02
100
AcDbAlignedDimension
 13
18.037411
 23
189.648444
 33
0.0
 14
93.537411
 24
189.648444
 34
0.0
100
AcDbRotatedDimension
  0
LINE
  5
6E
102
{ACAD_REACTORS
330
3AA
102
}
330
1F
100
AcDbEntity
  8
LC-002-002-----0
 62
     7
370
    50
100
AcDbLine
 10
110.786902
 20
68.148279
 30
0.0
 11
110.786926
 21
60.148385
 31
0.0
  0
LINE
  5
6F
102
{ACAD_REACTORS
330
3AA
102
}
330
1F
100
AcDbEntity
  8
LC-002-002-----0
 62
     7
370
    50
100
AcDbLine
 10
107.786973
 20
50.14847
 30
0.0
 11
115.787018
 21
50.14847
 31
0.0
  0
LINE
  5
70
102
{ACAD_REACTORS
330
3AA
102
}
330
1F
100
AcDbEntity
  8
LC-002-002-----0
 62
     7
370
    50
100
AcDbLine
 10
91.480702
 20
50.14847
 30
0.0
 11
91.480702
 21
53.148444
 31
0.0
  0
LINE
  5
71
330
1F
100
AcDbEntity
  8
LC-002-002-----0
 62
     7
370
    50
100
AcDbLine
 10
210.787411
 20
47.846222
 30
0.0
 11
210.787411
 21
182.802222
 31
0.0
  0
LINE
  5
72
330
1F
100
AcDbEntity
  8
LC-002-002-----0
 62
     7
370
    50
100
AcDbLine
 10
352.243411
 20
41.346222
 30
0.0
 11
217.287411
 21
41.346222
 31
0.0
  0
LINE
  5
73
330
1F
100
AcDbEntity
  8
LC-002-002-----0
 62
     7
370
    50
100
AcDbLine
 10
358.743411
 20
182.802222
 30
0.0
 11
358.743411
 21
47.846222
 31
0.0
  0
ARC
  5
74
330
1F
100
AcDbEntity
  8
LC-001-002-RND-0
 62
     7
370
    50
100
AcDbCircle
 10
217.287411
 20
182.802222
 30
0.0
 40
6.5
100
AcDbArc
 50
90.0
 51
180.0
  0
ARC
  5
75
330
1F
100
AcDbEntity
  8
LC-001-002-RND-0
 62
     7
370
    50
100
AcDbCircle
 10
217.287411
 20
47.846222
 30
0.0
 40
6.5
100
AcDbArc
 50
180.0
 51
270.0
  0
ARC
  5
76
330
1F
100
AcDbEntity
  8
LC-001-002-RND-0
 62
     7
370
    50
100
AcDbCircle
 10
352.243411
 20
47.846222
 30
0.0
 40
6.5
100
AcDbArc
 50
270.0
 51
0.0
  0
ARC
  5
77
330
1F
100
AcDbEntity
  8
LC-001-002-RND-0
 62
     7
370
    50
100
AcDbCircle
 10
352.243411
 20
182.802222
 30
0.0
 40
6.5
100
AcDbArc
 50
360.0
 51
90.0
  0
LINE
  5
78
102
{ACAD_REACTORS
330
3AA
102
}
330
1F
100
AcDbEntity
  8
LC-002-002-----0
 62
     7
370
    50
100
AcDbLine
 10
20.09412
 20
50.14847
 30
0.0
 11
20.09412
 21
53.148444
 31
0.0
  0
LINE
  5
79
102
{ACAD_REACTORS
330
3AA
102
}
330
1F
100
AcDbEntity
  8
LC-002-002-----0
 62
     7
370
    50
100
AcDbLine
 10
17.972818
 20
50.14847
 30
0.0
 11
17.972818
 21
53.148444
 31
0.0
  0
LINE
  5
7A
102
{ACAD_REACTORS
330
3AA
102
}
330
1F
100
AcDbEntity
  8
LC-002-002-----0
 62
     7
370
    50
100
AcDbLine
 10
115.787018
 20
50.14847
 30
0.0
 11
115.787018
 21
60.147695
 31
0.0
  0
LINE
  5
7B
102
{ACAD_REACTORS
330
3AA
102
}
330
1F
100
AcDbEntity
  8
LC-002-002-----0
 62
     7
370
    50
100
AcDbLine
 10
112.786924
 20
70.148301
 30
0.0
 11
112.786924
 21
60.148385
 31
0.0
  0
LINE
  5
7C
102
{ACAD_REACTORS
330
3AA
102
}
330
1F
100
AcDbEntity
  8
LC-002-002-----0
 62
     7
370
    50
100
AcDbLine
 10
114.287031
 20
60.148385
 30
0.0
 11
115.787018
 21
60.148385
 31
0.0
  0
LINE
  5
7D
102
{ACAD_REACTORS
330
3AA
102
}
330
1F
100
AcDbEntity
  8
LC-002-002-----0
 62
     7
370
    50
100
AcDbLine
 10
112.786924
 20
70.148301
 30
0.0
 11
110.786902
 21
68.148279
 31
0.0
  0
LINE
  5
7E
102
{ACAD_REACTORS
330
3AA
102
}
330
1F
100
AcDbEntity
  8
LC-002-002-----0
 62
     7
370
    50
100
AcDbLine
 10
114.287031
 20
60.148385
 30
0.0
 11
112.786924
 21
60.148385
 31
0.0
  0
LINE
  5
7F
102
{ACAD_REACTORS
330
3AA
102
}
330
1F
100
AcDbEntity
  8
LC-002-002-----0
 62
     7
370
    50
100
AcDbLine
 10
54.287424
 20
53.148444
 30
0.0
 11
57.287398
 21
53.148444
 31
0.0
  0
LINE
  5
80
102
{ACAD_REACTORS
330
3AA
102
}
330
1F
100
AcDbEntity
  8
LC-002-002-----0
 62
     7
370
    50
100
AcDbLine
 10
57.287398
 20
50.14847
 30
0.0
 11
57.287398
 21
53.148444
 31
0.0
  0
LINE
  5
81
102
{ACAD_REACTORS
330
3AA
102
}
330
1F
100
AcDbEntity
  8
LC-002-002-----0
 62
     7
370
    50
100
AcDbLine
 10
13.372949
 20
50.14847
 30
0.0
 11
13.372949
 21
53.148444
 31
0.0
  0
LINE
  5
82
102
{ACAD_REACTORS
330
3AA
102
}
330
1F
100
AcDbEntity
  8
LC-002-002-----0
 62
     7
370
    50
100
AcDbLine
 10
13.372949
 20
53.148444
 30
0.0
 11
20.09412
 21
53.148444
 31
0.0
  0
LINE
  5
83
102
{ACAD_REACTORS
330
3AA
102
}
330
1F
100
AcDbEntity
  8
LC-002-002-----0
 62
     7
370
    50
100
AcDbLine
 10
3.787849
 20
50.14847
 30
0.0
 11
57.287398
 21
50.14847
 31
0.0
  0
LINE
  5
84
102
{ACAD_REACTORS
330
3AA
102
}
330
1F
100
AcDbEntity
  8
LC-002-002-----0
 62
     7
370
    50
100
AcDbLine
 10
57.287398
 20
50.14847
 30
0.0
 11
91.480702
 21
50.14847
 31
0.0
  0
LINE
  5
85
102
{ACAD_REACTORS
330
3AA
102
}
330
1F
100
AcDbEntity
  8
LC-002-002-----0
 62
     7
370
    50
100
AcDbLine
 10
91.480702
 20
50.14847
 30
0.0
 11
107.765334
 21
50.14847
 31
0.0
  0
LINE
  5
86
102
{ACAD_REACTORS
330
3AA
102
}
330
1F
100
AcDbEntity
  8
LC-002-002-----0
 62
     7
370
    50
100
AcDbLine
 10
54.287424
 20
50.14847
 30
0.0
 11
54.287424
 21
53.148444
 31
0.0
  0
LINE
  5
87
330
1F
100
AcDbEntity
  8
LC-002-002-----0
 62
     7
370
    50
100
AcDbLine
 10
217.265411
 20
184.824222
 30
0.0
 11
352.265411
 21
184.824222
 31
0.0
  0
INSERT
  5
96
102
{ACAD_REACTORS
330
3AA
102
}
330
1F
100
AcDbEntity
  8
LC-004-005-----0
 62
     7
370
    25
100
AcDbBlockReference
  2
*X14
 10
0.0
 20
0.0
 30
0.0
  0
LINE
  5
97
330
1F
100
AcDbEntity
  8
LC-002-002-----0
 62
     7
370
    50
100
AcDbLine
 10
215.265411
 20
47.824222
 30
0.0
 11
215.265411
 21
182.824222
 31
0.0
  0
LINE
  5
98
330
1F
100
AcDbEntity
  8
LC-002-002-----0
 62
     7
370
    50
100
AcDbLine
 10
352.265411
 20
45.824222
 30
0.0
 11
217.265411
 21
45.824222
 31
0.0
  0
LINE
  5
99
330
1F
100
AcDbEntity
  8
LC-002-002-----0
 62
     7
370
    50
100
AcDbLine
 10
354.265411
 20
182.824222
 30
0.0
 11
354.265411
 21
47.824222
 31
0.0
  0
LINE
  5
9A
102
{ACAD_REACTORS
330
3AA
102
}
330
1F
100
AcDbEntity
  8
LC-002-002-----0
 62
     7
370
    50
100
AcDbLine
 10
0.78792
 20
68.148279
 30
0.0
 11
0.787874
 21
53.148444
 31
0.0
  0
LINE
  5
9B
102
{ACAD_REACTORS
330
3AA
102
}
330
1F
100
AcDbEntity
  8
LC-002-002-----0
 62
     7
370
    50
100
AcDbLine
 10
3.787849
 20
50.14847
 30
0.0
 11
-4.212196
 21
50.14847
 31
0.0
  0
LINE
  5
9C
102
{ACAD_REACTORS
330
3AA
102
}
330
1F
100
AcDbEntity
  8
LC-002-002-----0
 62
     7
370
    50
100
AcDbLine
 10
-4.212196
 20
50.14847
 30
0.0
 11
-4.212196
 21
60.147695
 31
0.0
  0
LINE
  5
9D
102
{ACAD_REACTORS
330
3AA
102
}
330
1F
100
AcDbEntity
  8
LC-002-002-----0
 62
     7
370
    50
100
AcDbLine
 10
-1.212102
 20
70.148301
 30
0.0
 11
-1.212102
 21
60.148385
 31
0.0
  0
LINE
  5
9E
102
{ACAD_REACTORS
330
3AA
102
}
330
1F
100
AcDbEntity
  8
LC-002-002-----0
 62
     7
370
    50
100
AcDbLine
 10
-2.712209
 20
60.148385
 30
0.0
 11
-4.212196
 21
60.148385
 31
0.0
  0
LINE
  5
9F
102
{ACAD_REACTORS
330
3AA
102
}
330
1F
100
AcDbEntity
  8
LC-002-002-----0
 62
     7
370
    50
100
AcDbLine
 10
-1.212102
 20
70.148301
 30
0.0
 11
0.78792
 21
68.148279
 31
0.0
  0
LINE
  5
A0
102
{ACAD_REACTORS
330
3AA
102
}
330
1F
100
AcDbEntity
  8
LC-002-002-----0
 62
     7
370
    50
100
AcDbLine
 10
0.787874
 20
53.148444
 30
0.0
 11
3.787849
 21
53.148444
 31
0.0
  0
LINE
  5
A1
102
{ACAD_REACTORS
330
3AA
102
}
330
1F
100
AcDbEntity
  8
LC-002-002-----0
 62
     7
370
    50
100
AcDbLine
 10
3.787849
 20
53.148444
 30
0.0
 11
3.787849
 21
50.14847
 31
0.0
  0
LINE
  5
A2
102
{ACAD_REACTORS
330
3AA
102
}
330
1F
100
AcDbEntity
  8
LC-002-002-----0
 62
     7
370
    50
100
AcDbLine
 10
-2.712209
 20
60.148385
 30
0.0
 11
-1.212102
 21
60.148385
 31
0.0
  0
INSERT
  5
AF
102
{ACAD_REACTORS
330
3AA
102
}
330
1F
100
AcDbEntity
  8
LC-004-005-----0
 62
     7
370
    25
100
AcDbBlockReference
  2
*X25
 10
0.0
 20
0.0
 30
0.0
  0
LINE
  5
B0
102
{ACAD_REACTORS
330
3AA
102
}
330
1F
100
AcDbEntity
  8
LC-002-002-----0
 62
     7
370
    50
100
AcDbLine
 10
110.786948
 20
53.148444
 30
0.0
 11
107.786973
 21
53.148444
 31
0.0
  0
LINE
  5
B1
102
{ACAD_REACTORS
330
3AA
102
}
330
1F
100
AcDbEntity
  8
LC-002-002-----0
 62
     7
370
    50
100
AcDbLine
 10
107.786973
 20
53.148444
 30
0.0
 11
107.786973
 21
50.14847
 31
0.0
  0
LINE
  5
B2
102
{ACAD_REACTORS
330
3AA
102
}
330
1F
100
AcDbEntity
  8
LC-002-002-----0
 62
     7
370
    50
100
AcDbLine
 10
110.786902
 20
68.148279
 30
0.0
 11
110.786948
 21
53.148444
 31
0.0
  0
LINE
  5
B3
102
{ACAD_REACTORS
330
3AA
102
}
330
1F
100
AcDbEntity
  8
LC-002-002-----0
 62
     7
370
    50
100
AcDbLine
 10
112.786924
 20
70.148301
 30
0.0
 11
110.786902
 21
68.148279
 31
0.0
  0
LINE
  5
B4
102
{ACAD_REACTORS
330
3AA
102
}
330
1F
100
AcDbEntity
  8
LC-002-002-----0
 62
     7
370
    50
100
AcDbLine
 10
112.786924
 20
70.148301
 30
0.0
 11
112.786924
 21
60.148385
 31
0.0
  0
LINE
  5
B5
102
{ACAD_REACTORS
330
3AA
102
}
330
1F
100
AcDbEntity
  8
LC-002-002-----0
 62
     7
370
    50
100
AcDbLine
 10
115.787018
 20
50.14847
 30
0.0
 11
115.787018
 21
60.147695
 31
0.0
  0
LINE
  5
B6
102
{ACAD_REACTORS
330
3AA
102
}
330
1F
100
AcDbEntity
  8
LC-002-002-----0
 62
     7
370
    50
100
AcDbLine
 10
107.786973
 20
50.14847
 30
0.0
 11
115.787018
 21
50.14847
 31
0.0
  0
LINE
  5
B7
102
{ACAD_REACTORS
330
3AA
102
}
330
1F
100
AcDbEntity
  8
LC-002-002-----0
 62
     7
370
    50
100
AcDbLine
 10
98.201873
 20
50.14847
 30
0.0
 11
98.201873
 21
53.148444
 31
0.0
  0
LINE
  5
B8
102
{ACAD_REACTORS
330
3AA
102
}
330
1F
100
AcDbEntity
  8
LC-002-002-----0
 62
     7
370
    50
100
AcDbLine
 10
98.201873
 20
53.148444
 30
0.0
 11
91.480702
 21
53.148444
 31
0.0
  0
LINE
  5
B9
102
{ACAD_REACTORS
330
3AA
102
}
330
1F
100
AcDbEntity
  8
LC-002-002-----0
 62
     7
370
    50
100
AcDbLine
 10
93.602004
 20
50.14847
 30
0.0
 11
93.602004
 21
53.148444
 31
0.0
  0
LINE
  5
BA
330
1F
100
AcDbEntity
  8
LC-002-002-----0
 62
     7
370
    25
100
AcDbLine
 10
11.499817
 20
322.692
 30
0.0
 11
26.499817
 21
322.692
 31
0.0
  0
LINE
  5
BB
330
1F
100
AcDbEntity
  8
LC-002-002-----0
 62
     7
370
    25
100
AcDbLine
 10
26.499817
 20
322.692
 30
0.0
 11
26.499817
 21
307.692
 31
0.0
  0
LINE
  5
BE
330
1F
100
AcDbEntity
  8
LC-005-007-KH--0
 62
     7
370
    13
100
AcDbLine
 10
1249.235754
 20
-4240752.148931
 30
0.0
 11
1249.235754
 21
4241049.148931
 31
0.0
  0
LINE
  5
BF
102
{ACAD_REACTORS
330
3AA
102
}
330
1F
100
AcDbEntity
  8
LC-002-002-----0
 62
     7
370
    50
100
AcDbLine
 10
101.787411
 20
157.99159
 30
0.0
 11
101.787411
 21
151.648444
 31
0.0
  0
LINE
  5
C0
102
{ACAD_REACTORS
330
3AA
102
}
330
1F
100
AcDbEntity
  8
LC-002-002-----0
 62
     7
370
    50
100
AcDbLine
 10
98.787411
 20
160.461575
 30
0.0
 11
99.583366
 21
162.648444
 31
0.0
  0
LINE
  5
C1
102
{ACAD_REACTORS
330
3AA
102
}
330
1F
100
AcDbEntity
  8
LC-002-002-----0
 62
     7
370
    50
100
AcDbLine
 10
1.787411
 20
53.148444
 30
0.0
 11
107.787411
 21
53.148444
 31
0.0
  0
LINE
  5
C2
102
{ACAD_REACTORS
330
3AA
102
}
330
1F
100
AcDbEntity
  8
LC-002-002-----0
 62
     7
370
    50
100
AcDbLine
 10
3.787411
 20
154.405804
 30
0.0
 11
3.787411
 21
53.148444
 31
0.0
  0
LINE
  5
C3
102
{ACAD_REACTORS
330
3AA
102
}
330
1F
100
AcDbEntity
  8
LC-002-002-----0
 62
     7
370
    50
100
AcDbLine
 10
98.787411
 20
158.648444
 30
0.0
 11
98.787411
 21
160.461575
 31
0.0
  0
LINE
  5
C4
102
{ACAD_REACTORS
330
3AA
102
}
330
1F
100
AcDbEntity
  8
LC-002-002-----0
 62
     7
370
    50
100
AcDbLine
 10
98.787411
 20
158.648444
 30
0.0
 11
99.787411
 21
157.648444
 31
0.0
  0
LINE
  5
C5
102
{ACAD_REACTORS
330
3AA
102
}
330
1F
100
AcDbEntity
  8
LC-002-002-----0
 62
     7
370
    50
100
AcDbLine
 10
99.787411
 20
157.648444
 30
0.0
 11
99.787411
 21
151.648444
 31
0.0
  0
LINE
  5
C6
102
{ACAD_REACTORS
330
3AA
102
}
330
1F
100
AcDbEntity
  8
LC-002-002-----0
 62
     7
370
    50
100
AcDbLine
 10
7.787411
 20
162.648444
 30
0.0
 11
0.787411
 21
155.648444
 31
0.0
  0
LINE
  5
C7
102
{ACAD_REACTORS
330
3AA
102
}
330
1F
100
AcDbEntity
  8
LC-002-002-----0
 62
     7
370
    50
100
AcDbLine
 10
109.787411
 20
53.148444
 30
0.0
 11
110.787411
 21
54.148444
 31
0.0
  0
LINE
  5
C8
102
{ACAD_REACTORS
330
3AA
102
}
330
1F
100
AcDbEntity
  8
LC-002-002-----0
 62
     7
370
    50
100
AcDbLine
 10
101.787411
 20
151.648444
 30
0.0
 11
99.787411
 21
151.648444
 31
0.0
  0
LINE
  5
C9
102
{ACAD_REACTORS
330
3AA
102
}
330
1F
100
AcDbEntity
  8
LC-002-002-----0
 62
     7
370
    50
100
AcDbLine
 10
1.787411
 20
53.148444
 30
0.0
 11
0.787411
 21
54.148444
 31
0.0
  0
LINE
  5
CA
102
{ACAD_REACTORS
330
3AA
102
}
330
1F
100
AcDbEntity
  8
LC-002-002-----0
 62
     7
370
    50
100
AcDbLine
 10
0.787411
 20
155.648444
 30
0.0
 11
0.787411
 21
54.148444
 31
0.0
  0
LINE
  5
CB
102
{ACAD_REACTORS
330
3AA
102
}
330
1F
100
AcDbEntity
  8
LC-002-002-----0
 62
     7
370
    50
100
AcDbLine
 10
107.787411
 20
154.405804
 30
0.0
 11
107.787411
 21
53.148444
 31
0.0
  0
LINE
  5
CC
102
{ACAD_REACTORS
330
3AA
102
}
330
1F
100
AcDbEntity
  8
LC-002-002-----0
 62
     7
370
    50
100
AcDbLine
 10
109.483563
 20
53.148444
 30
0.0
 11
107.787411
 21
53.148444
 31
0.0
  0
INSERT
  5
FA
102
{ACAD_REACTORS
330
3AA
102
}
330
1F
100
AcDbEntity
  8
LC-004-005-----0
 62
     7
370
    25
100
AcDbBlockReference
  2
*X36
 10
0.0
 20
0.0
 30
0.0
  0
LINE
  5
FB
102
{ACAD_REACTORS
330
3AA
102
}
330
1F
100
AcDbEntity
  8
LC-002-002-----0
 62
     7
370
    50
100
AcDbLine
 10
110.787411
 20
54.148444
 30
0.0
 11
110.787411
 21
155.648444
 31
0.0
  0
LINE
  5
FC
102
{ACAD_REACTORS
330
3AA
102
}
330
1F
100
AcDbEntity
  8
LC-002-002-----0
 62
     7
370
    50
100
AcDbLine
 10
8.080304
 20
158.698697
 30
0.0
 11
3.787411
 21
154.405804
 31
0.0
  0
ARC
  5
FD
102
{ACAD_REACTORS
330
3AA
102
}
330
1F
100
AcDbEntity
  8
LC-001-002-RND-0
 62
     7
370
    50
100
AcDbCircle
 10
8.787411
 20
157.99159
 30
0.0
 40
1.0
100
AcDbArc
 50
360.0
 51
135.0
  0
LINE
  5
FE
102
{ACAD_REACTORS
330
3AA
102
}
330
1F
100
AcDbEntity
  8
LC-002-002-----0
 62
     7
370
    50
100
AcDbLine
 10
9.787411
 20
157.99159
 30
0.0
 11
9.787411
 21
151.648444
 31
0.0
  0
LINE
  5
FF
102
{ACAD_REACTORS
330
3AA
102
}
330
1F
100
AcDbEntity
  8
LC-002-002-----0
 62
     7
370
    50
100
AcDbLine
 10
9.787411
 20
151.648444
 30
0.0
 11
11.787411
 21
151.648444
 31
0.0
  0
LINE
  5
100
102
{ACAD_REACTORS
330
3AA
102
}
330
1F
100
AcDbEntity
  8
LC-002-002-----0
 62
     7
370
    50
100
AcDbLine
 10
11.787411
 20
157.648444
 30
0.0
 11
11.787411
 21
151.648444
 31
0.0
  0
LINE
  5
101
102
{ACAD_REACTORS
330
3AA
102
}
330
1F
100
AcDbEntity
  8
LC-002-002-----0
 62
     7
370
    50
100
AcDbLine
 10
12.787411
 20
158.648444
 30
0.0
 11
11.787411
 21
157.648444
 31
0.0
  0
LINE
  5
102
102
{ACAD_REACTORS
330
3AA
102
}
330
1F
100
AcDbEntity
  8
LC-002-002-----0
 62
     7
370
    50
100
AcDbLine
 10
12.787411
 20
158.648444
 30
0.0
 11
12.787411
 21
160.461575
 31
0.0
  0
LINE
  5
103
102
{ACAD_REACTORS
330
3AA
102
}
330
1F
100
AcDbEntity
  8
LC-002-002-----0
 62
     7
370
    50
100
AcDbLine
 10
12.787411
 20
160.461575
 30
0.0
 11
11.991456
 21
162.648444
 31
0.0
  0
LINE
  5
104
102
{ACAD_REACTORS
330
3AA
102
}
330
1F
100
AcDbEntity
  8
LC-002-002-----0
 62
     7
370
    50
100
AcDbLine
 10
110.787411
 20
155.648444
 30
0.0
 11
103.787411
 21
162.648444
 31
0.0
  0
LINE
  5
105
102
{ACAD_REACTORS
330
3AA
102
}
330
1F
100
AcDbEntity
  8
LC-002-002-----0
 62
     7
370
    50
100
AcDbLine
 10
103.494518
 20
158.698697
 30
0.0
 11
107.787411
 21
154.405804
 31
0.0
  0
ARC
  5
106
102
{ACAD_REACTORS
330
3AA
102
}
330
1F
100
AcDbEntity
  8
LC-001-002-RND-0
 62
     7
370
    50
100
AcDbCircle
 10
102.787411
 20
157.99159
 30
0.0
 40
0.999999999999988
100
AcDbArc
 50
45.0
 51
180.0
  0
INSERT
  5
136
102
{ACAD_REACTORS
330
3AA
102
}
330
1F
100
AcDbEntity
  8
LC-004-005-----0
 62
     7
370
    25
100
AcDbBlockReference
  2
*X47
 10
0.0
 20
0.0
 30
0.0
  0
ARC
  5
137
330
1F
100
AcDbEntity
  8
LC-001-002-RND-0
 62
     7
370
    50
100
AcDbCircle
 10
351.765411
 20
182.324222
 30
0.0
 40
2.0
100
AcDbArc
 50
0.0
 51
90.0
  0
ARC
  5
138
330
1F
100
AcDbEntity
  8
LC-001-002-RND-0
 62
     7
370
    50
100
AcDbCircle
 10
217.765411
 20
182.324222
 30
0.0
 40
2.0
100
AcDbArc
 50
90.0
 51
180.0
  0
ARC
  5
139
330
1F
100
AcDbEntity
  8
LC-001-002-RND-0
 62
     7
370
    50
100
AcDbCircle
 10
341.660249
 20
126.866642
 30
0.0
 40
1.50000000000004
100
AcDbArc
 50
9.0
 51
99.0
  0
ARC
  5
13A
330
1F
100
AcDbEntity
  8
LC-001-002-RND-0
 62
     7
370
    50
100
AcDbCircle
 10
329.807988
 20
124.989428
 30
0.0
 40
1.500000000000007
100
AcDbArc
 50
99.0
 51
189.0
  0
ARC
  5
13B
330
1F
100
AcDbEntity
  8
LC-001-002-RND-0
 62
     7
370
    50
100
AcDbCircle
 10
330.590161
 20
120.050987
 30
0.0
 40
1.499999999999984
100
AcDbArc
 50
189.0
 51
279.0
  0
ARC
  5
13C
330
1F
100
AcDbEntity
  8
LC-001-002-RND-0
 62
     7
370
    50
100
AcDbCircle
 10
342.442421
 20
121.9282
 30
0.0
 40
1.500000000000016
100
AcDbArc
 50
279.0
 51
9.0
  0
ARC
  5
13D
330
1F
100
AcDbEntity
  8
LC-001-002-RND-0
 62
     7
370
    50
100
AcDbCircle
 10
340.654852
 20
146.60713
 30
0.0
 40
1.500000000000028
100
AcDbArc
 50
27.0
 51
117.0
  0
ARC
  5
13E
330
1F
100
AcDbEntity
  8
LC-001-002-RND-0
 62
     7
370
    50
100
AcDbCircle
 10
324.616735
 20
138.435301
 30
0.0
 40
1.500000000000003
100
AcDbArc
 50
117.0
 51
207.0
  0
ARC
  5
13F
330
1F
100
AcDbEntity
  8
LC-002-002-----0
 62
     7
370
    50
100
AcDbCircle
 10
284.765411
 20
115.324222
 30
0.0
 40
42.0
100
AcDbArc
 50
0.0
 51
180.0
  0
LINE
  5
140
330
1F
100
AcDbEntity
  8
LC-002-002-----0
 62
     7
370
    50
100
AcDbLine
 10
215.765411
 20
115.324222
 30
0.0
 11
215.765411
 21
182.324222
 31
0.0
  0
LINE
  5
141
330
1F
100
AcDbEntity
  8
LC-002-002-----0
 62
     7
370
    50
100
AcDbLine
 10
217.765411
 20
184.324222
 30
0.0
 11
351.765411
 21
184.324222
 31
0.0
  0
LINE
  5
142
330
1F
100
AcDbEntity
  8
LC-002-002-----0
 62
     7
370
    50
100
AcDbLine
 10
353.765411
 20
182.324222
 30
0.0
 11
353.765411
 21
115.324222
 31
0.0
  0
LINE
  5
143
330
1F
100
AcDbEntity
  8
LC-002-002-----0
 62
     7
370
    50
100
AcDbLine
 10
353.765411
 20
115.324222
 30
0.0
 11
326.765411
 21
115.324222
 31
0.0
  0
LINE
  5
144
330
1F
100
AcDbEntity
  8
LC-002-002-----0
 62
     7
370
    50
100
AcDbLine
 10
329.573337
 20
126.470961
 30
0.0
 11
341.425597
 21
128.348175
 31
0.0
  0
LINE
  5
145
330
1F
100
AcDbEntity
  8
LC-002-002-----0
 62
     7
370
    50
100
AcDbLine
 10
343.141781
 20
127.101294
 30
0.0
 11
343.923953
 21
122.162852
 31
0.0
  0
LINE
  5
146
330
1F
100
AcDbEntity
  8
LC-002-002-----0
 62
     7
370
    50
100
AcDbLine
 10
342.677073
 20
120.446668
 30
0.0
 11
330.824813
 21
118.569454
 31
0.0
  0
LINE
  5
147
330
1F
100
AcDbEntity
  8
LC-002-002-----0
 62
     7
370
    50
100
AcDbLine
 10
329.108628
 20
119.816335
 30
0.0
 11
328.326456
 21
124.754777
 31
0.0
  0
ARC
  5
148
330
1F
100
AcDbEntity
  8
LC-001-002-RND-0
 62
     7
370
    50
100
AcDbCircle
 10
326.886687
 20
133.980269
 30
0.0
 40
1.499999999999977
100
AcDbArc
 50
207.0
 51
297.0
  0
ARC
  5
149
330
1F
100
AcDbEntity
  8
LC-001-002-RND-0
 62
     7
370
    50
100
AcDbCircle
 10
342.924805
 20
142.152098
 30
0.0
 40
1.500000000000028
100
AcDbArc
 50
297.0
 51
27.0
  0
LINE
  5
14A
330
1F
100
AcDbEntity
  8
LC-002-002-----0
 62
     7
370
    50
100
AcDbLine
 10
323.935749
 20
139.771811
 30
0.0
 11
339.973867
 21
147.94364
 31
0.0
  0
LINE
  5
14B
330
1F
100
AcDbEntity
  8
LC-002-002-----0
 62
     7
370
    50
100
AcDbLine
 10
341.991362
 20
147.288116
 30
0.0
 11
344.261315
 21
142.833084
 31
0.0
  0
LINE
  5
14C
330
1F
100
AcDbEntity
  8
LC-002-002-----0
 62
     7
370
    50
100
AcDbLine
 10
343.605791
 20
140.815588
 30
0.0
 11
327.567673
 21
132.643759
 31
0.0
  0
LINE
  5
14D
330
1F
100
AcDbEntity
  8
LC-002-002-----0
 62
     7
370
    50
100
AcDbLine
 10
325.550178
 20
133.299283
 30
0.0
 11
323.280225
 21
137.754316
 31
0.0
  0
ARC
  5
14E
330
1F
100
AcDbEntity
  8
LC-001-002-RND-0
 62
     7
370
    50
100
AcDbCircle
 10
338.85908
 20
172.953425
 30
0.0
 40
1.500000000000012
100
AcDbArc
 50
45.0
 51
135.0
  0
ARC
  5
14F
330
1F
100
AcDbEntity
  8
LC-001-002-RND-0
 62
     7
370
    50
100
AcDbCircle
 10
315.524556
 20
149.618901
 30
0.0
 40
1.499999999999972
100
AcDbArc
 50
135.0
 51
225.0
  0
ARC
  5
150
330
1F
100
AcDbEntity
  8
LC-001-002-RND-0
 62
     7
370
    50
100
AcDbCircle
 10
319.06009
 20
146.083367
 30
0.0
 40
1.500000000000032
100
AcDbArc
 50
225.0
 51
315.0
  0
ARC
  5
151
330
1F
100
AcDbEntity
  8
LC-001-002-RND-0
 62
     7
370
    50
100
AcDbCircle
 10
342.394614
 20
169.417891
 30
0.0
 40
1.500000000000032
100
AcDbArc
 50
315.0
 51
45.0
  0
LINE
  5
152
330
1F
100
AcDbEntity
  8
LC-002-002-----0
 62
     7
370
    50
100
AcDbLine
 10
314.463896
 20
150.679561
 30
0.0
 11
337.79842
 21
174.014085
 31
0.0
  0
LINE
  5
153
330
1F
100
AcDbEntity
  8
LC-002-002-----0
 62
     7
370
    50
100
AcDbLine
 10
339.91974
 20
174.014085
 30
0.0
 11
343.455274
 21
170.478551
 31
0.0
  0
LINE
  5
154
330
1F
100
AcDbEntity
  8
LC-002-002-----0
 62
     7
370
    50
100
AcDbLine
 10
343.455274
 20
168.357231
 30
0.0
 11
320.12075
 21
145.022707
 31
0.0
  0
LINE
  5
155
330
1F
100
AcDbEntity
  8
LC-002-002-----0
 62
     7
370
    50
100
AcDbLine
 10
317.99943
 20
145.022707
 30
0.0
 11
314.463896
 21
148.558241
 31
0.0
  0
ARC
  5
156
330
1F
100
AcDbEntity
  8
LC-001-002-RND-0
 62
     7
370
    50
100
AcDbCircle
 10
311.593287
 20
173.483616
 30
0.0
 40
1.500000000000003
100
AcDbArc
 50
63.0
 51
153.0
  0
ARC
  5
157
330
1F
100
AcDbEntity
  8
LC-001-002-RND-0
 62
     7
370
    50
100
AcDbCircle
 10
303.421458
 20
157.445499
 30
0.0
 40
1.49999999999994
100
AcDbArc
 50
153.0
 51
243.0
  0
ARC
  5
158
330
1F
100
AcDbEntity
  8
LC-001-002-RND-0
 62
     7
370
    50
100
AcDbCircle
 10
307.87649
 20
155.175546
 30
0.0
 40
1.500000000000003
100
AcDbArc
 50
243.0
 51
333.0
  0
ARC
  5
159
330
1F
100
AcDbEntity
  8
LC-001-002-RND-0
 62
     7
370
    50
100
AcDbCircle
 10
316.048319
 20
171.213663
 30
0.0
 40
1.500000000000041
100
AcDbArc
 50
333.0
 51
63.0
  0
LINE
  5
15A
330
1F
100
AcDbEntity
  8
LC-002-002-----0
 62
     7
370
    50
100
AcDbLine
 10
302.084948
 20
158.126484
 30
0.0
 11
310.256777
 21
174.164602
 31
0.0
  0
LINE
  5
15B
330
1F
100
AcDbEntity
  8
LC-002-002-----0
 62
     7
370
    50
100
AcDbLine
 10
312.274272
 20
174.820126
 30
0.0
 11
316.729305
 21
172.550173
 31
0.0
  0
LINE
  5
15C
330
1F
100
AcDbEntity
  8
LC-002-002-----0
 62
     7
370
    50
100
AcDbLine
 10
317.384829
 20
170.532678
 30
0.0
 11
309.213
 21
154.49456
 31
0.0
  0
LINE
  5
15D
330
1F
100
AcDbEntity
  8
LC-002-002-----0
 62
     7
370
    50
100
AcDbLine
 10
307.195505
 20
153.839036
 30
0.0
 11
302.740472
 21
156.108989
 31
0.0
  0
ARC
  5
15E
330
1F
100
AcDbEntity
  8
LC-001-002-RND-0
 62
     7
370
    50
100
AcDbCircle
 10
291.369389
 20
173.001232
 30
0.0
 40
1.500000000000016
100
AcDbArc
 50
81.0
 51
171.0
  0
ARC
  5
15F
330
1F
100
AcDbEntity
  8
LC-001-002-RND-0
 62
     7
370
    50
100
AcDbCircle
 10
289.492176
 20
161.148972
 30
0.0
 40
1.499999999999988
100
AcDbArc
 50
171.0
 51
261.0
  0
ARC
  5
160
330
1F
100
AcDbEntity
  8
LC-001-002-RND-0
 62
     7
370
    50
100
AcDbCircle
 10
294.430617
 20
160.3668
 30
0.0
 40
1.499999999999988
100
AcDbArc
 50
261.0
 51
351.0
  0
ARC
  5
161
330
1F
100
AcDbEntity
  8
LC-001-002-RND-0
 62
     7
370
    50
100
AcDbCircle
 10
296.307831
 20
172.21906
 30
0.0
 40
1.50000000000004
100
AcDbArc
 50
351.0
 51
81.0
  0
LINE
  5
162
330
1F
100
AcDbEntity
  8
LC-002-002-----0
 62
     7
370
    50
100
AcDbLine
 10
288.010643
 20
161.383624
 30
0.0
 11
289.887857
 21
173.235884
 31
0.0
  0
LINE
  5
163
330
1F
100
AcDbEntity
  8
LC-002-002-----0
 62
     7
370
    50
100
AcDbLine
 10
291.604041
 20
174.482765
 30
0.0
 11
296.542483
 21
173.700592
 31
0.0
  0
LINE
  5
164
330
1F
100
AcDbEntity
  8
LC-002-002-----0
 62
     7
370
    50
100
AcDbLine
 10
297.789363
 20
171.984408
 30
0.0
 11
295.91215
 21
160.132148
 31
0.0
  0
LINE
  5
165
330
1F
100
AcDbEntity
  8
LC-002-002-----0
 62
     7
370
    50
100
AcDbLine
 10
294.195966
 20
158.885267
 30
0.0
 11
289.257524
 21
159.667439
 31
0.0
  0
ARC
  5
166
330
1F
100
AcDbEntity
  8
LC-001-002-RND-0
 62
     7
370
    50
100
AcDbCircle
 10
273.222991
 20
172.21906
 30
0.0
 40
1.500000000000044
100
AcDbArc
 50
99.0
 51
189.0
  0
ARC
  5
167
330
1F
100
AcDbEntity
  8
LC-001-002-RND-0
 62
     7
370
    50
100
AcDbCircle
 10
275.100205
 20
160.3668
 30
0.0
 40
1.50000000000004
100
AcDbArc
 50
189.0
 51
279.0
  0
ARC
  5
168
330
1F
100
AcDbEntity
  8
LC-001-002-RND-0
 62
     7
370
    50
100
AcDbCircle
 10
280.038646
 20
161.148972
 30
0.0
 40
1.499999999999979
100
AcDbArc
 50
279.0
 51
9.0
  0
ARC
  5
169
330
1F
100
AcDbEntity
  8
LC-001-002-RND-0
 62
     7
370
    50
100
AcDbCircle
 10
278.161433
 20
173.001232
 30
0.0
 40
1.500000000000044
100
AcDbArc
 50
9.0
 51
99.0
  0
LINE
  5
16A
330
1F
100
AcDbEntity
  8
LC-002-002-----0
 62
     7
370
    50
100
AcDbLine
 10
273.618672
 20
160.132148
 30
0.0
 11
271.741459
 21
171.984408
 31
0.0
  0
LINE
  5
16B
330
1F
100
AcDbEntity
  8
LC-002-002-----0
 62
     7
370
    50
100
AcDbLine
 10
272.988339
 20
173.700592
 30
0.0
 11
277.926781
 21
174.482765
 31
0.0
  0
LINE
  5
16C
330
1F
100
AcDbEntity
  8
LC-002-002-----0
 62
     7
370
    50
100
AcDbLine
 10
279.642965
 20
173.235884
 30
0.0
 11
281.520179
 21
161.383624
 31
0.0
  0
LINE
  5
16D
330
1F
100
AcDbEntity
  8
LC-002-002-----0
 62
     7
370
    50
100
AcDbLine
 10
280.273298
 20
159.667439
 30
0.0
 11
275.334856
 21
158.885267
 31
0.0
  0
ARC
  5
16E
330
1F
100
AcDbEntity
  8
LC-001-002-RND-0
 62
     7
370
    50
100
AcDbCircle
 10
253.482503
 20
171.213663
 30
0.0
 40
1.500000000000028
100
AcDbArc
 50
117.0
 51
207.0
  0
ARC
  5
16F
330
1F
100
AcDbEntity
  8
LC-001-002-RND-0
 62
     7
370
    50
100
AcDbCircle
 10
261.654332
 20
155.175546
 30
0.0
 40
1.500000000000028
100
AcDbArc
 50
207.0
 51
297.0
  0
ARC
  5
170
330
1F
100
AcDbEntity
  8
LC-001-002-RND-0
 62
     7
370
    50
100
AcDbCircle
 10
266.109364
 20
157.445499
 30
0.0
 40
1.499999999999977
100
AcDbArc
 50
297.0
 51
27.0
  0
ARC
  5
171
330
1F
100
AcDbEntity
  8
LC-001-002-RND-0
 62
     7
370
    50
100
AcDbCircle
 10
257.937535
 20
173.483616
 30
0.0
 40
1.49999999999999
100
AcDbArc
 50
27.0
 51
117.0
  0
LINE
  5
172
330
1F
100
AcDbEntity
  8
LC-002-002-----0
 62
     7
370
    50
100
AcDbLine
 10
260.317822
 20
154.49456
 30
0.0
 11
252.145993
 21
170.532678
 31
0.0
  0
LINE
  5
173
330
1F
100
AcDbEntity
  8
LC-002-002-----0
 62
     7
370
    50
100
AcDbLine
 10
252.801517
 20
172.550173
 30
0.0
 11
257.25655
 21
174.820126
 31
0.0
  0
LINE
  5
174
330
1F
100
AcDbEntity
  8
LC-002-002-----0
 62
     7
370
    50
100
AcDbLine
 10
259.274045
 20
174.164602
 30
0.0
 11
267.445874
 21
158.126484
 31
0.0
  0
LINE
  5
175
330
1F
100
AcDbEntity
  8
LC-002-002-----0
 62
     7
370
    50
100
AcDbLine
 10
266.79035
 20
156.108989
 30
0.0
 11
262.335317
 21
153.839036
 31
0.0
  0
ARC
  5
176
330
1F
100
AcDbEntity
  8
LC-001-002-RND-0
 62
     7
370
    50
100
AcDbCircle
 10
227.136208
 20
169.417891
 30
0.0
 40
1.500000000000072
100
AcDbArc
 50
135.0
 51
225.0
  0
ARC
  5
177
330
1F
100
AcDbEntity
  8
LC-001-002-RND-0
 62
     7
370
    50
100
AcDbCircle
 10
250.470732
 20
146.083367
 30
0.0
 40
1.500000000000012
100
AcDbArc
 50
225.0
 51
315.0
  0
ARC
  5
178
330
1F
100
AcDbEntity
  8
LC-001-002-RND-0
 62
     7
370
    50
100
AcDbCircle
 10
254.006266
 20
149.618901
 30
0.0
 40
1.500000000000012
100
AcDbArc
 50
315.0
 51
45.0
  0
ARC
  5
179
330
1F
100
AcDbEntity
  8
LC-001-002-RND-0
 62
     7
370
    50
100
AcDbCircle
 10
230.671742
 20
172.953425
 30
0.0
 40
1.500000000000012
100
AcDbArc
 50
45.0
 51
135.0
  0
LINE
  5
17A
330
1F
100
AcDbEntity
  8
LC-002-002-----0
 62
     7
370
    50
100
AcDbLine
 10
249.410072
 20
145.022707
 30
0.0
 11
226.075548
 21
168.357231
 31
0.0
  0
LINE
  5
17B
330
1F
100
AcDbEntity
  8
LC-002-002-----0
 62
     7
370
    50
100
AcDbLine
 10
226.075548
 20
170.478551
 30
0.0
 11
229.611082
 21
174.014085
 31
0.0
  0
LINE
  5
17C
330
1F
100
AcDbEntity
  8
LC-002-002-----0
 62
     7
370
    50
100
AcDbLine
 10
231.732402
 20
174.014085
 30
0.0
 11
255.066926
 21
150.679561
 31
0.0
  0
LINE
  5
17D
330
1F
100
AcDbEntity
  8
LC-002-002-----0
 62
     7
370
    50
100
AcDbLine
 10
255.066926
 20
148.558241
 30
0.0
 11
251.531392
 21
145.022707
 31
0.0
  0
ARC
  5
17E
330
1F
100
AcDbEntity
  8
LC-001-002-RND-0
 62
     7
370
    50
100
AcDbCircle
 10
226.606017
 20
142.152098
 30
0.0
 40
1.500000000000054
100
AcDbArc
 50
153.0
 51
243.0
  0
ARC
  5
17F
330
1F
100
AcDbEntity
  8
LC-001-002-RND-0
 62
     7
370
    50
100
AcDbCircle
 10
242.644135
 20
133.980269
 30
0.0
 40
1.500000000000003
100
AcDbArc
 50
243.0
 51
333.0
  0
ARC
  5
180
330
1F
100
AcDbEntity
  8
LC-001-002-RND-0
 62
     7
370
    50
100
AcDbCircle
 10
244.914087
 20
138.435301
 30
0.0
 40
1.49999999999999
100
AcDbArc
 50
333.0
 51
63.0
  0
ARC
  5
181
330
1F
100
AcDbEntity
  8
LC-001-002-RND-0
 62
     7
370
    50
100
AcDbCircle
 10
228.87597
 20
146.60713
 30
0.0
 40
1.500000000000029
100
AcDbArc
 50
63.0
 51
153.0
  0
LINE
  5
182
330
1F
100
AcDbEntity
  8
LC-002-002-----0
 62
     7
370
    50
100
AcDbLine
 10
241.963149
 20
132.643759
 30
0.0
 11
225.925031
 21
140.815588
 31
0.0
  0
LINE
  5
183
330
1F
100
AcDbEntity
  8
LC-002-002-----0
 62
     7
370
    50
100
AcDbLine
 10
225.269507
 20
142.833084
 30
0.0
 11
227.53946
 21
147.288116
 31
0.0
  0
LINE
  5
184
330
1F
100
AcDbEntity
  8
LC-002-002-----0
 62
     7
370
    50
100
AcDbLine
 10
229.556955
 20
147.94364
 30
0.0
 11
245.595073
 21
139.771811
 31
0.0
  0
LINE
  5
185
330
1F
100
AcDbEntity
  8
LC-002-002-----0
 62
     7
370
    50
100
AcDbLine
 10
246.250597
 20
137.754316
 30
0.0
 11
243.980644
 21
133.299283
 31
0.0
  0
ARC
  5
186
330
1F
100
AcDbEntity
  8
LC-001-002-RND-0
 62
     7
370
    50
100
AcDbCircle
 10
227.088401
 20
121.9282
 30
0.0
 40
1.500000000000044
100
AcDbArc
 50
171.0
 51
261.0
  0
ARC
  5
187
330
1F
100
AcDbEntity
  8
LC-001-002-RND-0
 62
     7
370
    50
100
AcDbCircle
 10
238.940661
 20
120.050987
 30
0.0
 40
1.500000000000016
100
AcDbArc
 50
261.0
 51
351.0
  0
ARC
  5
188
330
1F
100
AcDbEntity
  8
LC-001-002-RND-0
 62
     7
370
    50
100
AcDbCircle
 10
239.722833
 20
124.989428
 30
0.0
 40
1.499999999999988
100
AcDbArc
 50
351.0
 51
81.0
  0
ARC
  5
189
330
1F
100
AcDbEntity
  8
LC-001-002-RND-0
 62
     7
370
    50
100
AcDbCircle
 10
227.870573
 20
126.866642
 30
0.0
 40
1.500000000000007
100
AcDbArc
 50
81.0
 51
171.0
  0
LINE
  5
18A
330
1F
100
AcDbEntity
  8
LC-002-002-----0
 62
     7
370
    50
100
AcDbLine
 10
238.706009
 20
118.569454
 30
0.0
 11
226.853749
 21
120.446668
 31
0.0
  0
LINE
  5
18B
330
1F
100
AcDbEntity
  8
LC-002-002-----0
 62
     7
370
    50
100
AcDbLine
 10
225.606869
 20
122.162852
 30
0.0
 11
226.389041
 21
127.101294
 31
0.0
  0
LINE
  5
18C
330
1F
100
AcDbEntity
  8
LC-002-002-----0
 62
     7
370
    50
100
AcDbLine
 10
228.105225
 20
128.348175
 30
0.0
 11
239.957485
 21
126.470961
 31
0.0
  0
LINE
  5
18D
330
1F
100
AcDbEntity
  8
LC-002-002-----0
 62
     7
370
    50
100
AcDbLine
 10
241.204366
 20
124.754777
 30
0.0
 11
240.422194
 21
119.816335
 31
0.0
  0
ARC
  5
18E
330
1F
100
AcDbEntity
  8
LC-001-002-RND-0
 62
     7
370
    50
100
AcDbCircle
 10
217.765411
 20
48.324222
 30
0.0
 40
2.0
100
AcDbArc
 50
180.0
 51
270.0
  0
ARC
  5
18F
330
1F
100
AcDbEntity
  8
LC-001-002-RND-0
 62
     7
370
    50
100
AcDbCircle
 10
351.765411
 20
48.324222
 30
0.0
 40
2.0
100
AcDbArc
 50
270.0
 51
0.0
  0
ARC
  5
190
330
1F
100
AcDbEntity
  8
LC-001-002-RND-0
 62
     7
370
    50
100
AcDbCircle
 10
227.870573
 20
103.781802
 30
0.0
 40
1.50000000000004
100
AcDbArc
 50
189.0
 51
279.0
  0
ARC
  5
191
330
1F
100
AcDbEntity
  8
LC-001-002-RND-0
 62
     7
370
    50
100
AcDbCircle
 10
239.722833
 20
105.659016
 30
0.0
 40
1.500000000000007
100
AcDbArc
 50
279.0
 51
9.0
  0
ARC
  5
192
330
1F
100
AcDbEntity
  8
LC-001-002-RND-0
 62
     7
370
    50
100
AcDbCircle
 10
238.940661
 20
110.597458
 30
0.0
 40
1.499999999999984
100
AcDbArc
 50
9.0
 51
99.0
  0
ARC
  5
193
330
1F
100
AcDbEntity
  8
LC-001-002-RND-0
 62
     7
370
    50
100
AcDbCircle
 10
227.088401
 20
108.720244
 30
0.0
 40
1.500000000000016
100
AcDbArc
 50
99.0
 51
189.0
  0
ARC
  5
194
330
1F
100
AcDbEntity
  8
LC-001-002-RND-0
 62
     7
370
    50
100
AcDbCircle
 10
228.87597
 20
84.041314
 30
0.0
 40
1.500000000000028
100
AcDbArc
 50
207.0
 51
297.0
  0
ARC
  5
195
330
1F
100
AcDbEntity
  8
LC-001-002-RND-0
 62
     7
370
    50
100
AcDbCircle
 10
244.914087
 20
92.213143
 30
0.0
 40
1.500000000000003
100
AcDbArc
 50
297.0
 51
27.0
  0
ARC
  5
196
330
1F
100
AcDbEntity
  8
LC-002-002-----0
 62
     7
370
    50
100
AcDbCircle
 10
284.765411
 20
115.324222
 30
0.0
 40
42.0
100
AcDbArc
 50
180.0
 51
0.0
  0
LINE
  5
197
330
1F
100
AcDbEntity
  8
LC-002-002-----0
 62
     7
370
    50
100
AcDbLine
 10
326.765411
 20
115.324222
 30
0.0
 11
353.765411
 21
115.324222
 31
0.0
  0
LINE
  5
198
330
1F
100
AcDbEntity
  8
LC-002-002-----0
 62
     7
370
    50
100
AcDbLine
 10
353.765411
 20
115.324222
 30
0.0
 11
353.765411
 21
48.324222
 31
0.0
  0
LINE
  5
199
330
1F
100
AcDbEntity
  8
LC-002-002-----0
 62
     7
370
    50
100
AcDbLine
 10
351.765411
 20
46.324222
 30
0.0
 11
217.765411
 21
46.324222
 31
0.0
  0
LINE
  5
19A
330
1F
100
AcDbEntity
  8
LC-002-002-----0
 62
     7
370
    50
100
AcDbLine
 10
215.765411
 20
48.324222
 30
0.0
 11
215.765411
 21
115.324222
 31
0.0
  0
LINE
  5
19B
330
1F
100
AcDbEntity
  8
LC-002-002-----0
 62
     7
370
    50
100
AcDbLine
 10
215.765411
 20
115.324222
 30
0.0
 11
242.765411
 21
115.324222
 31
0.0
  0
LINE
  5
19C
330
1F
100
AcDbEntity
  8
LC-002-002-----0
 62
     7
370
    50
100
AcDbLine
 10
239.957485
 20
104.177483
 30
0.0
 11
228.105225
 21
102.30027
 31
0.0
  0
LINE
  5
19D
330
1F
100
AcDbEntity
  8
LC-002-002-----0
 62
     7
370
    50
100
AcDbLine
 10
226.389041
 20
103.547151
 30
0.0
 11
225.606869
 21
108.485592
 31
0.0
  0
LINE
  5
19E
330
1F
100
AcDbEntity
  8
LC-002-002-----0
 62
     7
370
    50
100
AcDbLine
 10
226.853749
 20
110.201777
 30
0.0
 11
238.706009
 21
112.07899
 31
0.0
  0
LINE
  5
19F
330
1F
100
AcDbEntity
  8
LC-002-002-----0
 62
     7
370
    50
100
AcDbLine
 10
240.422194
 20
110.832109
 30
0.0
 11
241.204366
 21
105.893668
 31
0.0
  0
ARC
  5
1A0
330
1F
100
AcDbEntity
  8
LC-001-002-RND-0
 62
     7
370
    50
100
AcDbCircle
 10
242.644135
 20
96.668176
 30
0.0
 40
1.499999999999977
100
AcDbArc
 50
27.0
 51
117.0
  0
ARC
  5
1A1
330
1F
100
AcDbEntity
  8
LC-001-002-RND-0
 62
     7
370
    50
100
AcDbCircle
 10
226.606017
 20
88.496347
 30
0.0
 40
1.500000000000028
100
AcDbArc
 50
117.0
 51
207.0
  0
LINE
  5
1A2
330
1F
100
AcDbEntity
  8
LC-002-002-----0
 62
     7
370
    50
100
AcDbLine
 10
245.595073
 20
90.876633
 30
0.0
 11
229.556955
 21
82.704804
 31
0.0
  0
LINE
  5
1A3
330
1F
100
AcDbEntity
  8
LC-002-002-----0
 62
     7
370
    50
100
AcDbLine
 10
227.53946
 20
83.360328
 30
0.0
 11
225.269507
 21
87.815361
 31
0.0
  0
LINE
  5
1A4
330
1F
100
AcDbEntity
  8
LC-002-002-----0
 62
     7
370
    50
100
AcDbLine
 10
225.925031
 20
89.832856
 30
0.0
 11
241.963149
 21
98.004685
 31
0.0
  0
LINE
  5
1A5
330
1F
100
AcDbEntity
  8
LC-002-002-----0
 62
     7
370
    50
100
AcDbLine
 10
243.980644
 20
97.349161
 30
0.0
 11
246.250597
 21
92.894129
 31
0.0
  0
ARC
  5
1A6
330
1F
100
AcDbEntity
  8
LC-001-002-RND-0
 62
     7
370
    50
100
AcDbCircle
 10
230.671742
 20
57.69502
 30
0.0
 40
1.500000000000012
100
AcDbArc
 50
225.0
 51
315.0
  0
ARC
  5
1A7
330
1F
100
AcDbEntity
  8
LC-001-002-RND-0
 62
     7
370
    50
100
AcDbCircle
 10
254.006266
 20
81.029543
 30
0.0
 40
1.499999999999972
100
AcDbArc
 50
315.0
 51
45.0
  0
ARC
  5
1A8
330
1F
100
AcDbEntity
  8
LC-001-002-RND-0
 62
     7
370
    50
100
AcDbCircle
 10
250.470732
 20
84.565077
 30
0.0
 40
1.500000000000032
100
AcDbArc
 50
45.0
 51
135.0
  0
ARC
  5
1A9
330
1F
100
AcDbEntity
  8
LC-001-002-RND-0
 62
     7
370
    50
100
AcDbCircle
 10
227.136208
 20
61.230553
 30
0.0
 40
1.500000000000052
100
AcDbArc
 50
135.0
 51
225.0
  0
LINE
  5
1AA
330
1F
100
AcDbEntity
  8
LC-002-002-----0
 62
     7
370
    50
100
AcDbLine
 10
255.066926
 20
79.968883
 30
0.0
 11
231.732402
 21
56.634359
 31
0.0
  0
LINE
  5
1AB
330
1F
100
AcDbEntity
  8
LC-002-002-----0
 62
     7
370
    50
100
AcDbLine
 10
229.611082
 20
56.634359
 30
0.0
 11
226.075548
 21
60.169893
 31
0.0
  0
LINE
  5
1AC
330
1F
100
AcDbEntity
  8
LC-002-002-----0
 62
     7
370
    50
100
AcDbLine
 10
226.075548
 20
62.291214
 30
0.0
 11
249.410072
 21
85.625737
 31
0.0
  0
LINE
  5
1AD
330
1F
100
AcDbEntity
  8
LC-002-002-----0
 62
     7
370
    50
100
AcDbLine
 10
251.531392
 20
85.625737
 30
0.0
 11
255.066926
 21
82.090203
 31
0.0
  0
ARC
  5
1AE
330
1F
100
AcDbEntity
  8
LC-001-002-RND-0
 62
     7
370
    50
100
AcDbCircle
 10
257.937535
 20
57.164828
 30
0.0
 40
1.499999999999977
100
AcDbArc
 50
243.0
 51
333.0
  0
ARC
  5
1AF
330
1F
100
AcDbEntity
  8
LC-001-002-RND-0
 62
     7
370
    50
100
AcDbCircle
 10
266.109364
 20
73.202946
 30
0.0
 40
1.499999999999953
100
AcDbArc
 50
333.0
 51
63.0
  0
ARC
  5
1B0
330
1F
100
AcDbEntity
  8
LC-001-002-RND-0
 62
     7
370
    50
100
AcDbCircle
 10
261.654332
 20
75.472898
 30
0.0
 40
1.500000000000003
100
AcDbArc
 50
63.0
 51
153.0
  0
ARC
  5
1B1
330
1F
100
AcDbEntity
  8
LC-001-002-RND-0
 62
     7
370
    50
100
AcDbCircle
 10
253.482503
 20
59.434781
 30
0.0
 40
1.500000000000028
100
AcDbArc
 50
153.0
 51
243.0
  0
LINE
  5
1B2
330
1F
100
AcDbEntity
  8
LC-002-002-----0
 62
     7
370
    50
100
AcDbLine
 10
267.445874
 20
72.52196
 30
0.0
 11
259.274045
 21
56.483843
 31
0.0
  0
LINE
  5
1B3
330
1F
100
AcDbEntity
  8
LC-002-002-----0
 62
     7
370
    50
100
AcDbLine
 10
257.25655
 20
55.828319
 30
0.0
 11
252.801517
 21
58.098271
 31
0.0
  0
LINE
  5
1B4
330
1F
100
AcDbEntity
  8
LC-002-002-----0
 62
     7
370
    50
100
AcDbLine
 10
252.145993
 20
60.115767
 30
0.0
 11
260.317822
 21
76.153884
 31
0.0
  0
LINE
  5
1B5
330
1F
100
AcDbEntity
  8
LC-002-002-----0
 62
     7
370
    50
100
AcDbLine
 10
262.335317
 20
76.809408
 30
0.0
 11
266.79035
 21
74.539456
 31
0.0
  0
ARC
  5
1B6
330
1F
100
AcDbEntity
  8
LC-001-002-RND-0
 62
     7
370
    50
100
AcDbCircle
 10
278.161433
 20
57.647212
 30
0.0
 40
1.500000000000044
100
AcDbArc
 50
261.0
 51
351.0
  0
ARC
  5
1B7
330
1F
100
AcDbEntity
  8
LC-001-002-RND-0
 62
     7
370
    50
100
AcDbCircle
 10
280.038646
 20
69.499472
 30
0.0
 40
1.499999999999988
100
AcDbArc
 50
351.0
 51
81.0
  0
ARC
  5
1B8
330
1F
100
AcDbEntity
  8
LC-001-002-RND-0
 62
     7
370
    50
100
AcDbCircle
 10
275.100205
 20
70.281645
 30
0.0
 40
1.499999999999988
100
AcDbArc
 50
81.0
 51
171.0
  0
ARC
  5
1B9
330
1F
100
AcDbEntity
  8
LC-001-002-RND-0
 62
     7
370
    50
100
AcDbCircle
 10
273.222991
 20
58.429385
 30
0.0
 40
1.500000000000044
100
AcDbArc
 50
171.0
 51
261.0
  0
LINE
  5
1BA
330
1F
100
AcDbEntity
  8
LC-002-002-----0
 62
     7
370
    50
100
AcDbLine
 10
281.520179
 20
69.264821
 30
0.0
 11
279.642965
 21
57.412561
 31
0.0
  0
LINE
  5
1BB
330
1F
100
AcDbEntity
  8
LC-002-002-----0
 62
     7
370
    50
100
AcDbLine
 10
277.926781
 20
56.16568
 30
0.0
 11
272.988339
 21
56.947852
 31
0.0
  0
LINE
  5
1BC
330
1F
100
AcDbEntity
  8
LC-002-002-----0
 62
     7
370
    50
100
AcDbLine
 10
271.741459
 20
58.664036
 30
0.0
 11
273.618672
 21
70.516296
 31
0.0
  0
LINE
  5
1BD
330
1F
100
AcDbEntity
  8
LC-002-002-----0
 62
     7
370
    50
100
AcDbLine
 10
275.334856
 20
71.763177
 30
0.0
 11
280.273298
 21
70.981005
 31
0.0
  0
ARC
  5
1BE
330
1F
100
AcDbEntity
  8
LC-001-002-RND-0
 62
     7
370
    50
100
AcDbCircle
 10
296.307831
 20
58.429385
 30
0.0
 40
1.500000000000044
100
AcDbArc
 50
279.0
 51
9.0
  0
ARC
  5
1BF
330
1F
100
AcDbEntity
  8
LC-001-002-RND-0
 62
     7
370
    50
100
AcDbCircle
 10
294.430617
 20
70.281645
 30
0.0
 40
1.500000000000035
100
AcDbArc
 50
9.0
 51
99.0
  0
ARC
  5
1C0
330
1F
100
AcDbEntity
  8
LC-001-002-RND-0
 62
     7
370
    50
100
AcDbCircle
 10
289.492176
 20
69.499472
 30
0.0
 40
1.499999999999979
100
AcDbArc
 50
99.0
 51
189.0
  0
ARC
  5
1C1
330
1F
100
AcDbEntity
  8
LC-001-002-RND-0
 62
     7
370
    50
100
AcDbCircle
 10
291.369389
 20
57.647212
 30
0.0
 40
1.500000000000044
100
AcDbArc
 50
189.0
 51
279.0
  0
LINE
  5
1C2
330
1F
100
AcDbEntity
  8
LC-002-002-----0
 62
     7
370
    50
100
AcDbLine
 10
295.91215
 20
70.516296
 30
0.0
 11
297.789363
 21
58.664036
 31
0.0
  0
LINE
  5
1C3
330
1F
100
AcDbEntity
  8
LC-002-002-----0
 62
     7
370
    50
100
AcDbLine
 10
296.542483
 20
56.947852
 30
0.0
 11
291.604041
 21
56.16568
 31
0.0
  0
LINE
  5
1C4
330
1F
100
AcDbEntity
  8
LC-002-002-----0
 62
     7
370
    50
100
AcDbLine
 10
289.887857
 20
57.412561
 30
0.0
 11
288.010643
 21
69.264821
 31
0.0
  0
LINE
  5
1C5
330
1F
100
AcDbEntity
  8
LC-002-002-----0
 62
     7
370
    50
100
AcDbLine
 10
289.257524
 20
70.981005
 30
0.0
 11
294.195966
 21
71.763177
 31
0.0
  0
ARC
  5
1C6
330
1F
100
AcDbEntity
  8
LC-001-002-RND-0
 62
     7
370
    50
100
AcDbCircle
 10
316.048319
 20
59.434781
 30
0.0
 40
1.500000000000028
100
AcDbArc
 50
297.0
 51
27.0
  0
ARC
  5
1C7
330
1F
100
AcDbEntity
  8
LC-001-002-RND-0
 62
     7
370
    50
100
AcDbCircle
 10
307.87649
 20
75.472898
 30
0.0
 40
1.500000000000028
100
AcDbArc
 50
27.0
 51
117.0
  0
ARC
  5
1C8
330
1F
100
AcDbEntity
  8
LC-001-002-RND-0
 62
     7
370
    50
100
AcDbCircle
 10
303.421458
 20
73.202946
 30
0.0
 40
1.499999999999977
100
AcDbArc
 50
117.0
 51
207.0
  0
ARC
  5
1C9
330
1F
100
AcDbEntity
  8
LC-001-002-RND-0
 62
     7
370
    50
100
AcDbCircle
 10
311.593287
 20
57.164828
 30
0.0
 40
1.49999999999999
100
AcDbArc
 50
207.0
 51
297.0
  0
LINE
  5
1CA
330
1F
100
AcDbEntity
  8
LC-002-002-----0
 62
     7
370
    50
100
AcDbLine
 10
309.213
 20
76.153884
 30
0.0
 11
317.384829
 21
60.115767
 31
0.0
  0
LINE
  5
1CB
330
1F
100
AcDbEntity
  8
LC-002-002-----0
 62
     7
370
    50
100
AcDbLine
 10
316.729305
 20
58.098271
 30
0.0
 11
312.274272
 21
55.828319
 31
0.0
  0
LINE
  5
1CC
330
1F
100
AcDbEntity
  8
LC-002-002-----0
 62
     7
370
    50
100
AcDbLine
 10
310.256777
 20
56.483843
 30
0.0
 11
302.084948
 21
72.52196
 31
0.0
  0
LINE
  5
1CD
330
1F
100
AcDbEntity
  8
LC-002-002-----0
 62
     7
370
    50
100
AcDbLine
 10
302.740472
 20
74.539456
 30
0.0
 11
307.195505
 21
76.809408
 31
0.0
  0
ARC
  5
1CE
330
1F
100
AcDbEntity
  8
LC-001-002-RND-0
 62
     7
370
    50
100
AcDbCircle
 10
342.394614
 20
61.230553
 30
0.0
 40
1.500000000000072
100
AcDbArc
 50
315.0
 51
45.0
  0
ARC
  5
1CF
330
1F
100
AcDbEntity
  8
LC-001-002-RND-0
 62
     7
370
    50
100
AcDbCircle
 10
319.06009
 20
84.565077
 30
0.0
 40
1.500000000000012
100
AcDbArc
 50
45.0
 51
135.0
  0
ARC
  5
1D0
330
1F
100
AcDbEntity
  8
LC-001-002-RND-0
 62
     7
370
    50
100
AcDbCircle
 10
315.524556
 20
81.029543
 30
0.0
 40
1.500000000000012
100
AcDbArc
 50
135.0
 51
225.0
  0
ARC
  5
1D1
330
1F
100
AcDbEntity
  8
LC-001-002-RND-0
 62
     7
370
    50
100
AcDbCircle
 10
338.85908
 20
57.69502
 30
0.0
 40
1.500000000000012
100
AcDbArc
 50
225.0
 51
315.0
  0
LINE
  5
1D2
330
1F
100
AcDbEntity
  8
LC-002-002-----0
 62
     7
370
    50
100
AcDbLine
 10
320.12075
 20
85.625737
 30
0.0
 11
343.455274
 21
62.291214
 31
0.0
  0
LINE
  5
1D3
330
1F
100
AcDbEntity
  8
LC-002-002-----0
 62
     7
370
    50
100
AcDbLine
 10
343.455274
 20
60.169893
 30
0.0
 11
339.91974
 21
56.634359
 31
0.0
  0
LINE
  5
1D4
330
1F
100
AcDbEntity
  8
LC-002-002-----0
 62
     7
370
    50
100
AcDbLine
 10
337.79842
 20
56.634359
 30
0.0
 11
314.463896
 21
79.968883
 31
0.0
  0
LINE
  5
1D5
330
1F
100
AcDbEntity
  8
LC-002-002-----0
 62
     7
370
    50
100
AcDbLine
 10
314.463896
 20
82.090203
 30
0.0
 11
317.99943
 21
85.625737
 31
0.0
  0
ARC
  5
1D6
330
1F
100
AcDbEntity
  8
LC-001-002-RND-0
 62
     7
370
    50
100
AcDbCircle
 10
342.924805
 20
88.496347
 30
0.0
 40
1.500000000000054
100
AcDbArc
 50
333.0
 51
63.0
  0
ARC
  5
1D7
330
1F
100
AcDbEntity
  8
LC-001-002-RND-0
 62
     7
370
    50
100
AcDbCircle
 10
326.886687
 20
96.668176
 30
0.0
 40
1.500000000000003
100
AcDbArc
 50
63.0
 51
153.0
  0
ARC
  5
1D8
330
1F
100
AcDbEntity
  8
LC-001-002-RND-0
 62
     7
370
    50
100
AcDbCircle
 10
324.616735
 20
92.213143
 30
0.0
 40
1.49999999999999
100
AcDbArc
 50
153.0
 51
243.0
  0
ARC
  5
1D9
330
1F
100
AcDbEntity
  8
LC-001-002-RND-0
 62
     7
370
    50
100
AcDbCircle
 10
340.654852
 20
84.041314
 30
0.0
 40
1.500000000000029
100
AcDbArc
 50
243.0
 51
333.0
  0
LINE
  5
1DA
330
1F
100
AcDbEntity
  8
LC-002-002-----0
 62
     7
370
    50
100
AcDbLine
 10
327.567673
 20
98.004685
 30
0.0
 11
343.605791
 21
89.832856
 31
0.0
  0
LINE
  5
1DB
330
1F
100
AcDbEntity
  8
LC-002-002-----0
 62
     7
370
    50
100
AcDbLine
 10
344.261315
 20
87.815361
 30
0.0
 11
341.991362
 21
83.360328
 31
0.0
  0
LINE
  5
1DC
330
1F
100
AcDbEntity
  8
LC-002-002-----0
 62
     7
370
    50
100
AcDbLine
 10
339.973867
 20
82.704804
 30
0.0
 11
323.935749
 21
90.876633
 31
0.0
  0
LINE
  5
1DD
330
1F
100
AcDbEntity
  8
LC-002-002-----0
 62
     7
370
    50
100
AcDbLine
 10
323.280225
 20
92.894129
 30
0.0
 11
325.550178
 21
97.349161
 31
0.0
  0
ARC
  5
1DE
330
1F
100
AcDbEntity
  8
LC-001-002-RND-0
 62
     7
370
    50
100
AcDbCircle
 10
342.442421
 20
108.720244
 30
0.0
 40
1.500000000000044
100
AcDbArc
 50
351.0
 51
81.0
  0
ARC
  5
1DF
330
1F
100
AcDbEntity
  8
LC-001-002-RND-0
 62
     7
370
    50
100
AcDbCircle
 10
330.590161
 20
110.597458
 30
0.0
 40
1.500000000000016
100
AcDbArc
 50
81.0
 51
171.0
  0
ARC
  5
1E0
330
1F
100
AcDbEntity
  8
LC-001-002-RND-0
 62
     7
370
    50
100
AcDbCircle
 10
329.807988
 20
105.659016
 30
0.0
 40
1.499999999999988
100
AcDbArc
 50
171.0
 51
261.0
  0
ARC
  5
1E1
330
1F
100
AcDbEntity
  8
LC-001-002-RND-0
 62
     7
370
    50
100
AcDbCircle
 10
341.660249
 20
103.781802
 30
0.0
 40
1.500000000000007
100
AcDbArc
 50
261.0
 51
351.0
  0
LINE
  5
1E2
330
1F
100
AcDbEntity
  8
LC-002-002-----0
 62
     7
370
    50
100
AcDbLine
 10
330.824813
 20
112.07899
 30
0.0
 11
342.677073
 21
110.201777
 31
0.0
  0
LINE
  5
1E3
330
1F
100
AcDbEntity
  8
LC-002-002-----0
 62
     7
370
    50
100
AcDbLine
 10
343.923953
 20
108.485592
 30
0.0
 11
343.141781
 21
103.547151
 31
0.0
  0
LINE
  5
1E4
330
1F
100
AcDbEntity
  8
LC-002-002-----0
 62
     7
370
    50
100
AcDbLine
 10
341.425597
 20
102.30027
 30
0.0
 11
329.573337
 21
104.177483
 31
0.0
  0
LINE
  5
1E5
330
1F
100
AcDbEntity
  8
LC-002-002-----0
 62
     7
370
    50
100
AcDbLine
 10
328.326456
 20
105.893668
 30
0.0
 11
329.108628
 21
110.832109
 31
0.0
  0
CIRCLE
  5
1E6
330
1F
100
AcDbEntity
  8
LC-002-002-----0
 62
     7
370
    50
100
AcDbCircle
 10
284.765411
 20
115.324222
 30
0.0
 40
40.5
  0
ARC
  5
1E7
330
1F
100
AcDbEntity
  8
LC-002-002-----0
 62
     7
370
    50
100
AcDbCircle
 10
284.765411
 20
115.324222
 30
0.0
 40
37.75
100
AcDbArc
 50
180.0
 51
360.0
  0
CIRCLE
  5
1E8
330
1F
100
AcDbEntity
  8
LC-002-002-----0
 62
     7
370
    50
100
AcDbCircle
 10
284.765411
 20
115.324222
 30
0.0
 40
34.63018914184562
  0
ARC
  5
1E9
330
1F
100
AcDbEntity
  8
LC-002-002-----0
 62
     7
370
    50
100
AcDbCircle
 10
284.765411
 20
115.324222
 30
0.0
 40
37.75000000000006
100
AcDbArc
 50
360.0
 51
180.0
  0
CIRCLE
  5
1EA
330
1F
100
AcDbEntity
  8
LC-002-002-----0
 62
     7
370
    50
100
AcDbCircle
 10
284.765411
 20
115.324222
 30
0.0
 40
37.0
  0
CIRCLE
  5
1EB
330
1F
100
AcDbEntity
  8
LC-002-002-----0
 62
     7
370
    50
100
AcDbCircle
 10
284.765411
 20
115.324222
 30
0.0
 40
28.5
  0
CIRCLE
  5
1EC
330
1F
100
AcDbEntity
  8
LC-002-002-----0
 62
     7
370
    50
100
AcDbCircle
 10
284.765411
 20
115.324222
 30
0.0
 40
22.25
  0
ARC
  5
1ED
102
{ACAD_REACTORS
330
3AA
102
}
330
1F
100
AcDbEntity
  8
LC-001-002-RND-0
 62
     7
370
    50
100
AcDbCircle
 10
15.037411
 20
167.648444
 30
0.0
 40
3.0
100
AcDbArc
 50
270.0
 51
0.0
  0
ARC
  5
1EE
102
{ACAD_REACTORS
330
3AA
102
}
330
1F
100
AcDbEntity
  8
LC-001-002-RND-0
 62
     7
370
    50
100
AcDbCircle
 10
96.537411
 20
167.648444
 30
0.0
 40
3.0
100
AcDbArc
 50
180.0
 51
270.0
  0
INSERT
  5
20A
102
{ACAD_REACTORS
330
3AA
102
}
330
1F
100
AcDbEntity
  8
LC-004-005-----0
 62
     7
370
    25
100
AcDbBlockReference
  2
*X58
 10
0.0
 20
0.0
 30
0.0
  0
LINE
  5
20B
102
{ACAD_REACTORS
330
3AA
102
}
330
1F
100
AcDbEntity
  8
LC-002-002-----0
 62
     7
370
    50
100
AcDbLine
 10
15.287411
 20
189.648444
 30
0.0
 11
96.287411
 21
189.648444
 31
0.0
  0
LINE
  5
20C
102
{ACAD_REACTORS
330
3AA
102
}
330
1F
100
AcDbEntity
  8
LC-002-002-----0
 62
     7
370
    50
100
AcDbLine
 10
96.287411
 20
189.648444
 30
0.0
 11
96.287411
 21
167.648444
 31
0.0
  0
LINE
  5
20D
102
{ACAD_REACTORS
330
3AA
102
}
330
1F
100
AcDbEntity
  8
LC-002-002-----0
 62
     7
370
    50
100
AcDbLine
 10
96.287411
 20
167.648444
 30
0.0
 11
101.287411
 21
167.648444
 31
0.0
  0
LINE
  5
20E
102
{ACAD_REACTORS
330
3AA
102
}
330
1F
100
AcDbEntity
  8
LC-002-002-----0
 62
     7
370
    50
100
AcDbLine
 10
101.287411
 20
167.648444
 30
0.0
 11
101.287411
 21
164.648444
 31
0.0
  0
LINE
  5
20F
102
{ACAD_REACTORS
330
3AA
102
}
330
1F
100
AcDbEntity
  8
LC-002-002-----0
 62
     7
370
    50
100
AcDbLine
 10
93.537411
 20
167.648444
 30
0.0
 11
93.537411
 21
175.648444
 31
0.0
  0
LINE
  5
210
102
{ACAD_REACTORS
330
3AA
102
}
330
1F
100
AcDbEntity
  8
LC-002-002-----0
 62
     7
370
    50
100
AcDbLine
 10
93.537411
 20
175.648444
 30
0.0
 11
90.287411
 21
175.648444
 31
0.0
  0
LINE
  5
211
102
{ACAD_REACTORS
330
3AA
102
}
330
1F
100
AcDbEntity
  8
LC-002-002-----0
 62
     7
370
    50
100
AcDbLine
 10
90.287411
 20
175.648444
 30
0.0
 11
90.287411
 21
178.648444
 31
0.0
  0
LINE
  5
212
102
{ACAD_REACTORS
330
3AA
102
}
330
1F
100
AcDbEntity
  8
LC-002-002-----0
 62
     7
370
    50
100
AcDbLine
 10
90.287411
 20
178.648444
 30
0.0
 11
93.537411
 21
178.648444
 31
0.0
  0
LINE
  5
213
102
{ACAD_REACTORS
330
3AA
102
}
330
1F
100
AcDbEntity
  8
LC-002-002-----0
 62
     7
370
    50
100
AcDbLine
 10
93.537411
 20
178.648444
 30
0.0
 11
93.537411
 21
189.648444
 31
0.0
  0
LINE
  5
214
102
{ACAD_REACTORS
330
3AA
102
}
330
1F
100
AcDbEntity
  8
LC-002-002-----0
 62
     7
370
    50
100
AcDbLine
 10
18.037411
 20
189.648444
 30
0.0
 11
18.037411
 21
178.648444
 31
0.0
  0
LINE
  5
215
102
{ACAD_REACTORS
330
3AA
102
}
330
1F
100
AcDbEntity
  8
LC-002-002-----0
 62
     7
370
    50
100
AcDbLine
 10
18.037411
 20
178.648444
 30
0.0
 11
21.287411
 21
178.648444
 31
0.0
  0
LINE
  5
216
102
{ACAD_REACTORS
330
3AA
102
}
330
1F
100
AcDbEntity
  8
LC-002-002-----0
 62
     7
370
    50
100
AcDbLine
 10
21.287411
 20
178.648444
 30
0.0
 11
21.287411
 21
175.648444
 31
0.0
  0
LINE
  5
217
102
{ACAD_REACTORS
330
3AA
102
}
330
1F
100
AcDbEntity
  8
LC-002-002-----0
 62
     7
370
    50
100
AcDbLine
 10
21.287411
 20
175.648444
 30
0.0
 11
18.037411
 21
175.648444
 31
0.0
  0
LINE
  5
218
102
{ACAD_REACTORS
330
3AA
102
}
330
1F
100
AcDbEntity
  8
LC-002-002-----0
 62
     7
370
    50
100
AcDbLine
 10
18.037411
 20
175.648444
 30
0.0
 11
18.037411
 21
167.648444
 31
0.0
  0
LINE
  5
219
102
{ACAD_REACTORS
330
3AA
102
}
330
1F
100
AcDbEntity
  8
LC-002-002-----0
 62
     7
370
    50
100
AcDbLine
 10
15.037411
 20
164.648444
 30
0.0
 11
10.287411
 21
164.648444
 31
0.0
  0
LINE
  5
21A
102
{ACAD_REACTORS
330
3AA
102
}
330
1F
100
AcDbEntity
  8
LC-002-002-----0
 62
     7
370
    50
100
AcDbLine
 10
10.287411
 20
164.648444
 30
0.0
 11
10.287411
 21
167.648444
 31
0.0
  0
LINE
  5
21B
102
{ACAD_REACTORS
330
3AA
102
}
330
1F
100
AcDbEntity
  8
LC-002-002-----0
 62
     7
370
    50
100
AcDbLine
 10
10.287411
 20
167.648444
 30
0.0
 11
15.287411
 21
167.648444
 31
0.0
  0
LINE
  5
21C
102
{ACAD_REACTORS
330
3AA
102
}
330
1F
100
AcDbEntity
  8
LC-002-002-----0
 62
     7
370
    50
100
AcDbLine
 10
15.287411
 20
167.648444
 30
0.0
 11
15.287411
 21
189.648444
 31
0.0
  0
LINE
  5
21D
102
{ACAD_REACTORS
330
3AA
102
}
330
1F
100
AcDbEntity
  8
LC-002-002-----0
 62
     7
370
    50
100
AcDbLine
 10
21.287411
 20
178.648444
 30
0.0
 11
24.787411
 21
178.648444
 31
0.0
  0
LINE
  5
21E
102
{ACAD_REACTORS
330
3AA
102
}
330
1F
100
AcDbEntity
  8
LC-002-002-----0
 62
     7
370
    50
100
AcDbLine
 10
21.287411
 20
175.648444
 30
0.0
 11
24.787411
 21
175.648444
 31
0.0
  0
LINE
  5
21F
102
{ACAD_REACTORS
330
3AA
102
}
330
1F
100
AcDbEntity
  8
LC-002-002-----0
 62
     7
370
    50
100
AcDbLine
 10
15.037411
 20
164.648444
 30
0.0
 11
15.370002
 21
164.648444
 31
0.0
  0
LINE
  5
220
102
{ACAD_REACTORS
330
3AA
102
}
330
1F
100
AcDbEntity
  8
LC-002-002-----0
 62
     7
370
    50
100
AcDbLine
 10
96.20482
 20
164.648444
 30
0.0
 11
96.537411
 21
164.648444
 31
0.0
  0
LINE
  5
221
102
{ACAD_REACTORS
330
3AA
102
}
330
1F
100
AcDbEntity
  8
LC-002-002-----0
 62
     7
370
    50
100
AcDbLine
 10
92.787411
 20
179.648444
 30
0.0
 11
92.787411
 21
189.648444
 31
0.0
  0
LINE
  5
222
102
{ACAD_REACTORS
330
3AA
102
}
330
1F
100
AcDbEntity
  8
LC-002-002-----0
 62
     7
370
    50
100
AcDbLine
 10
92.787411
 20
189.648444
 30
0.0
 11
55.787411
 21
189.648444
 31
0.0
  0
LINE
  5
223
102
{ACAD_REACTORS
330
3AA
102
}
330
1F
100
AcDbEntity
  8
LC-002-002-----0
 62
     7
370
    50
100
AcDbLine
 10
89.787411
 20
186.648444
 30
0.0
 11
89.787411
 21
179.648444
 31
0.0
  0
LINE
  5
224
102
{ACAD_REACTORS
330
3AA
102
}
330
1F
100
AcDbEntity
  8
LC-002-002-----0
 62
     7
370
    50
100
AcDbLine
 10
92.787411
 20
179.648444
 30
0.0
 11
89.787411
 21
179.648444
 31
0.0
  0
LINE
  5
225
102
{ACAD_REACTORS
330
3AA
102
}
330
1F
100
AcDbEntity
  8
LC-002-002-----0
 62
     7
370
    50
100
AcDbLine
 10
89.787411
 20
186.648444
 30
0.0
 11
86.787411
 21
186.648444
 31
0.0
  0
LINE
  5
226
102
{ACAD_REACTORS
330
3AA
102
}
330
1F
100
AcDbEntity
  8
LC-002-002-----0
 62
     7
370
    50
100
AcDbLine
 10
86.787411
 20
186.648444
 30
0.0
 11
86.787411
 21
175.648444
 31
0.0
  0
LINE
  5
227
102
{ACAD_REACTORS
330
3AA
102
}
330
1F
100
AcDbEntity
  8
LC-002-002-----0
 62
     7
370
    50
100
AcDbLine
 10
85.787411
 20
174.648444
 30
0.0
 11
78.037411
 21
174.648444
 31
0.0
  0
LINE
  5
228
102
{ACAD_REACTORS
330
3AA
102
}
330
1F
100
AcDbEntity
  8
LC-002-002-----0
 62
     7
370
    50
100
AcDbLine
 10
78.037411
 20
174.648444
 30
0.0
 11
78.037411
 21
177.648444
 31
0.0
  0
LINE
  5
229
102
{ACAD_REACTORS
330
3AA
102
}
330
1F
100
AcDbEntity
  8
LC-002-002-----0
 62
     7
370
    50
100
AcDbLine
 10
18.787411
 20
179.648444
 30
0.0
 11
18.787411
 21
189.648444
 31
0.0
  0
LINE
  5
22A
102
{ACAD_REACTORS
330
3AA
102
}
330
1F
100
AcDbEntity
  8
LC-002-002-----0
 62
     7
370
    50
100
AcDbLine
 10
18.787411
 20
189.648444
 30
0.0
 11
55.787411
 21
189.648444
 31
0.0
  0
LINE
  5
22B
102
{ACAD_REACTORS
330
3AA
102
}
330
1F
100
AcDbEntity
  8
LC-002-002-----0
 62
     7
370
    50
100
AcDbLine
 10
78.037411
 20
177.648444
 30
0.0
 11
84.287411
 21
177.648444
 31
0.0
  0
LINE
  5
22C
102
{ACAD_REACTORS
330
3AA
102
}
330
1F
100
AcDbEntity
  8
LC-002-002-----0
 62
     7
370
    50
100
AcDbLine
 10
84.287411
 20
177.648444
 30
0.0
 11
84.287411
 21
189.648444
 31
0.0
  0
INSERT
  5
248
102
{ACAD_REACTORS
330
3AA
102
}
330
1F
100
AcDbEntity
  8
LC-004-005-----0
 62
     7
370
    25
100
AcDbBlockReference
  2
*X69
 10
0.0
 20
0.0
 30
0.0
  0
LINE
  5
249
102
{ACAD_REACTORS
330
3AA
102
}
330
1F
100
AcDbEntity
  8
LC-002-002-----0
 62
     7
370
    50
100
AcDbLine
 10
89.787411
 20
179.648444
 30
0.0
 11
86.787411
 21
179.648444
 31
0.0
  0
LINE
  5
24A
102
{ACAD_REACTORS
330
3AA
102
}
330
1F
100
AcDbEntity
  8
LC-002-002-----0
 62
     7
370
    50
100
AcDbLine
 10
78.037411
 20
174.648444
 30
0.0
 11
55.787411
 21
174.648444
 31
0.0
  0
LINE
  5
24B
102
{ACAD_REACTORS
330
3AA
102
}
330
1F
100
AcDbEntity
  8
LC-002-002-----0
 62
     7
370
    50
100
AcDbLine
 10
21.787411
 20
186.648444
 30
0.0
 11
21.787411
 21
179.648444
 31
0.0
  0
LINE
  5
24C
102
{ACAD_REACTORS
330
3AA
102
}
330
1F
100
AcDbEntity
  8
LC-002-002-----0
 62
     7
370
    50
100
AcDbLine
 10
18.787411
 20
179.648444
 30
0.0
 11
21.787411
 21
179.648444
 31
0.0
  0
LINE
  5
24D
102
{ACAD_REACTORS
330
3AA
102
}
330
1F
100
AcDbEntity
  8
LC-002-002-----0
 62
     7
370
    50
100
AcDbLine
 10
21.787411
 20
186.648444
 30
0.0
 11
24.787411
 21
186.648444
 31
0.0
  0
LINE
  5
24E
102
{ACAD_REACTORS
330
3AA
102
}
330
1F
100
AcDbEntity
  8
LC-002-002-----0
 62
     7
370
    50
100
AcDbLine
 10
24.787411
 20
186.648444
 30
0.0
 11
24.787411
 21
175.648444
 31
0.0
  0
LINE
  5
24F
102
{ACAD_REACTORS
330
3AA
102
}
330
1F
100
AcDbEntity
  8
LC-002-002-----0
 62
     7
370
    50
100
AcDbLine
 10
25.787411
 20
174.648444
 30
0.0
 11
33.537411
 21
174.648444
 31
0.0
  0
LINE
  5
250
102
{ACAD_REACTORS
330
3AA
102
}
330
1F
100
AcDbEntity
  8
LC-002-002-----0
 62
     7
370
    50
100
AcDbLine
 10
78.037411
 20
177.648444
 30
0.0
 11
55.787411
 21
177.648444
 31
0.0
  0
LINE
  5
251
102
{ACAD_REACTORS
330
3AA
102
}
330
1F
100
AcDbEntity
  8
LC-002-002-----0
 62
     7
370
    50
100
AcDbLine
 10
33.537411
 20
174.648444
 30
0.0
 11
33.537411
 21
177.648444
 31
0.0
  0
LINE
  5
252
102
{ACAD_REACTORS
330
3AA
102
}
330
1F
100
AcDbEntity
  8
LC-002-002-----0
 62
     7
370
    50
100
AcDbLine
 10
33.537411
 20
177.648444
 30
0.0
 11
27.287411
 21
177.648444
 31
0.0
  0
LINE
  5
253
102
{ACAD_REACTORS
330
3AA
102
}
330
1F
100
AcDbEntity
  8
LC-002-002-----0
 62
     7
370
    50
100
AcDbLine
 10
27.287411
 20
177.648444
 30
0.0
 11
27.287411
 21
189.648444
 31
0.0
  0
LINE
  5
254
102
{ACAD_REACTORS
330
3AA
102
}
330
1F
100
AcDbEntity
  8
LC-002-002-----0
 62
     7
370
    50
100
AcDbLine
 10
21.787411
 20
179.648444
 30
0.0
 11
24.787411
 21
179.648444
 31
0.0
  0
LINE
  5
255
102
{ACAD_REACTORS
330
3AA
102
}
330
1F
100
AcDbEntity
  8
LC-002-002-----0
 62
     7
370
    50
100
AcDbLine
 10
33.537411
 20
174.648444
 30
0.0
 11
55.787411
 21
174.648444
 31
0.0
  0
LINE
  5
256
102
{ACAD_REACTORS
330
3AA
102
}
330
1F
100
AcDbEntity
  8
LC-002-002-----0
 62
     7
370
    50
100
AcDbLine
 10
33.537411
 20
177.648444
 30
0.0
 11
55.787411
 21
177.648444
 31
0.0
  0
ARC
  5
257
102
{ACAD_REACTORS
330
3AA
102
}
330
1F
100
AcDbEntity
  8
LC-001-002-RND-0
 62
     7
370
    50
100
AcDbCircle
 10
85.787411
 20
175.648444
 30
0.0
 40
1.0
100
AcDbArc
 50
270.0
 51
0.0
  0
ARC
  5
258
102
{ACAD_REACTORS
330
3AA
102
}
330
1F
100
AcDbEntity
  8
LC-001-002-RND-0
 62
     7
370
    50
100
AcDbCircle
 10
25.787411
 20
175.648444
 30
0.0
 40
1.0
100
AcDbArc
 50
180.0
 51
270.0
  0
LINE
  5
259
102
{ACAD_REACTORS
330
3AA
102
}
330
1F
100
AcDbEntity
  8
LC-002-002-----0
 62
     7
370
    50
100
AcDbLine
 10
-13.690589
 20
170.648444
 30
0.0
 11
15.287411
 21
170.648444
 31
0.0
  0
LINE
  5
25A
102
{ACAD_REACTORS
330
3AA
102
}
330
1F
100
AcDbEntity
  8
LC-002-002-----0
 62
     7
370
    50
100
AcDbLine
 10
-7.962589
 20
170.148444
 30
0.0
 11
-7.962589
 21
170.648444
 31
0.0
  0
LINE
  5
25B
102
{ACAD_REACTORS
330
3AA
102
}
330
1F
100
AcDbEntity
  8
LC-002-002-----0
 62
     7
370
    50
100
AcDbLine
 10
2.476873
 20
170.648444
 30
0.0
 11
15.287411
 21
170.648444
 31
0.0
  0
LINE
  5
25C
102
{ACAD_REACTORS
330
3AA
102
}
330
1F
100
AcDbEntity
  8
LC-002-002-----0
 62
     7
370
    50
100
AcDbLine
 10
-13.212589
 20
170.648444
 30
0.0
 11
-3.212589
 21
170.648444
 31
0.0
  0
LINE
  5
25D
102
{ACAD_REACTORS
330
3AA
102
}
330
1F
100
AcDbEntity
  8
LC-002-002-----0
 62
     7
370
    50
100
AcDbLine
 10
-3.212589
 20
170.648444
 30
0.0
 11
3.787411
 21
170.648444
 31
0.0
  0
LINE
  5
25E
102
{ACAD_REACTORS
330
3AA
102
}
330
1F
100
AcDbEntity
  8
LC-002-002-----0
 62
     7
370
    50
100
AcDbLine
 10
9.287411
 20
168.148444
 30
0.0
 11
9.287411
 21
164.648444
 31
0.0
  0
LINE
  5
25F
102
{ACAD_REACTORS
330
3AA
102
}
330
1F
100
AcDbEntity
  8
LC-002-002-----0
 62
     7
370
    50
100
AcDbLine
 10
9.287411
 20
164.648444
 30
0.0
 11
12.787411
 21
164.648444
 31
0.0
  0
ARC
  5
260
102
{ACAD_REACTORS
330
3AA
102
}
330
1F
100
AcDbEntity
  8
LC-001-002-RND-0
 62
     7
370
    50
100
AcDbCircle
 10
-16.690589
 20
180.648444
 30
0.0
 40
0.5
100
AcDbArc
 50
90.0
 51
180.0
  0
ARC
  5
261
102
{ACAD_REACTORS
330
3AA
102
}
330
1F
100
AcDbEntity
  8
LC-001-002-RND-0
 62
     7
370
    50
100
AcDbCircle
 10
-14.190589
 20
180.648444
 30
0.0
 40
0.5
100
AcDbArc
 50
360.0
 51
90.0
  0
LINE
  5
262
102
{ACAD_REACTORS
330
3AA
102
}
330
1F
100
AcDbEntity
  8
LC-002-002-----0
 62
     7
370
    50
100
AcDbLine
 10
13.107759
 20
153.148444
 30
0.0
 11
13.787411
 21
153.148444
 31
0.0
  0
LINE
  5
263
102
{ACAD_REACTORS
330
3AA
102
}
330
1F
100
AcDbEntity
  8
LC-002-002-----0
 62
     7
370
    50
100
AcDbLine
 10
12.587411
 20
162.148444
 30
0.0
 11
12.587411
 21
157.648444
 31
0.0
  0
ARC
  5
264
102
{ACAD_REACTORS
330
3AA
102
}
330
1F
100
AcDbEntity
  8
LC-002-002-----0
 62
     7
370
    50
100
AcDbCircle
 10
12.612411
 20
156.848444
 30
0.0
 40
0.8000000000007986
100
AcDbArc
 50
91.790785
 51
200.0
  0
ARC
  5
265
102
{ACAD_REACTORS
330
3AA
102
}
330
1F
100
AcDbEntity
  8
LC-001-002-RND-0
 62
     7
370
    50
100
AcDbCircle
 10
12.087411
 20
162.148444
 30
0.0
 40
0.5
100
AcDbArc
 50
0.0
 51
90.0
  0
LINE
  5
266
102
{ACAD_REACTORS
330
3AA
102
}
330
1F
100
AcDbEntity
  8
LC-002-002-----0
 62
     7
370
    50
100
AcDbLine
 10
11.860657
 20
156.574828
 30
0.0
 11
13.107759
 21
153.148444
 31
0.0
  0
LINE
  5
267
102
{ACAD_REACTORS
330
3AA
102
}
330
1F
100
AcDbEntity
  8
LC-002-002-----0
 62
     7
370
    50
100
AcDbLine
 10
13.787411
 20
163.648444
 30
0.0
 11
13.787411
 21
153.148444
 31
0.0
  0
LINE
  5
268
102
{ACAD_REACTORS
330
3AA
102
}
330
1F
100
AcDbEntity
  8
LC-002-002-----0
 62
     7
370
    50
100
AcDbLine
 10
7.287411
 20
162.648444
 30
0.0
 11
12.087411
 21
162.648444
 31
0.0
  0
LINE
  5
269
102
{ACAD_REACTORS
330
3AA
102
}
330
1F
100
AcDbEntity
  8
LC-002-002-----0
 62
     7
370
    50
100
AcDbLine
 10
7.287411
 20
168.148444
 30
0.0
 11
7.287411
 21
162.648444
 31
0.0
  0
LINE
  5
26A
102
{ACAD_REACTORS
330
3AA
102
}
330
1F
100
AcDbEntity
  8
LC-002-002-----0
 62
     7
370
    50
100
AcDbLine
 10
12.787411
 20
164.648444
 30
0.0
 11
55.787411
 21
164.648444
 31
0.0
  0
ARC
  5
26B
102
{ACAD_REACTORS
330
3AA
102
}
330
1F
100
AcDbEntity
  8
LC-001-002-RND-0
 62
     7
370
    50
100
AcDbCircle
 10
7.287411
 20
168.148444
 30
0.0
 40
2.0
100
AcDbArc
 50
0.0
 51
90.0
  0
ARC
  5
26C
102
{ACAD_REACTORS
330
3AA
102
}
330
1F
100
AcDbEntity
  8
LC-001-002-RND-0
 62
     7
370
    50
100
AcDbCircle
 10
12.787411
 20
163.648444
 30
0.0
 40
1.0
100
AcDbArc
 50
360.0
 51
90.0
  0
LINE
  5
26D
102
{ACAD_REACTORS
330
3AA
102
}
330
1F
100
AcDbEntity
  8
LC-002-002-----0
 62
     7
370
    50
100
AcDbLine
 10
7.287411
 20
168.148444
 30
0.0
 11
-18.190589
 21
168.148444
 31
0.0
  0
LINE
  5
26E
102
{ACAD_REACTORS
330
3AA
102
}
330
1F
100
AcDbEntity
  8
LC-002-002-----0
 62
     7
370
    50
100
AcDbLine
 10
-7.962589
 20
170.148444
 30
0.0
 11
7.287411
 21
170.148444
 31
0.0
  0
LINE
  5
26F
102
{ACAD_REACTORS
330
3AA
102
}
330
1F
100
AcDbEntity
  8
LC-002-002-----0
 62
     7
370
    50
100
AcDbLine
 10
-13.690589
 20
170.648444
 30
0.0
 11
-13.690589
 21
180.648444
 31
0.0
  0
LINE
  5
270
102
{ACAD_REACTORS
330
3AA
102
}
330
1F
100
AcDbEntity
  8
LC-002-002-----0
 62
     7
370
    50
100
AcDbLine
 10
7.287411
 20
170.148444
 30
0.0
 11
15.287411
 21
170.148444
 31
0.0
  0
LINE
  5
271
102
{ACAD_REACTORS
330
3AA
102
}
330
1F
100
AcDbEntity
  8
LC-002-002-----0
 62
     7
370
    50
100
AcDbLine
 10
-18.190589
 20
169.148444
 30
0.0
 11
-18.190589
 21
168.148444
 31
0.0
  0
LINE
  5
272
102
{ACAD_REACTORS
330
3AA
102
}
330
1F
100
AcDbEntity
  8
LC-002-002-----0
 62
     7
370
    50
100
AcDbLine
 10
-17.190589
 20
169.148444
 30
0.0
 11
-18.190589
 21
169.148444
 31
0.0
  0
LINE
  5
273
102
{ACAD_REACTORS
330
3AA
102
}
330
1F
100
AcDbEntity
  8
LC-002-002-----0
 62
     7
370
    50
100
AcDbLine
 10
-17.190589
 20
169.148444
 30
0.0
 11
-17.190589
 21
180.648444
 31
0.0
  0
LINE
  5
274
102
{ACAD_REACTORS
330
3AA
102
}
330
1F
100
AcDbEntity
  8
LC-002-002-----0
 62
     7
370
    50
100
AcDbLine
 10
-16.690589
 20
181.148444
 30
0.0
 11
-14.190589
 21
181.148444
 31
0.0
  0
LINE
  5
275
102
{ACAD_REACTORS
330
3AA
102
}
330
1F
100
AcDbEntity
  8
LC-002-002-----0
 62
     7
370
    50
100
AcDbLine
 10
-17.690589
 20
168.148444
 30
0.0
 11
7.287411
 21
168.148444
 31
0.0
  0
LINE
  5
276
102
{ACAD_REACTORS
330
3AA
102
}
330
1F
100
AcDbEntity
  8
LC-002-002-----0
 62
     7
370
    50
100
AcDbLine
 10
-8.212589
 20
177.648444
 30
0.0
 11
-8.212589
 21
170.648444
 31
0.0
  0
LINE
  5
277
102
{ACAD_REACTORS
330
3AA
102
}
330
1F
100
AcDbEntity
  8
LC-002-002-----0
 62
     7
370
    50
100
AcDbLine
 10
8.787411
 20
170.648444
 30
0.0
 11
8.787411
 21
173.648444
 31
0.0
  0
LINE
  5
278
102
{ACAD_REACTORS
330
3AA
102
}
330
1F
100
AcDbEntity
  8
LC-002-002-----0
 62
     7
370
    50
100
AcDbLine
 10
3.787411
 20
170.648444
 30
0.0
 11
3.787411
 21
173.648444
 31
0.0
  0
LINE
  5
279
102
{ACAD_REACTORS
330
3AA
102
}
330
1F
100
AcDbEntity
  8
LC-002-002-----0
 62
     7
370
    50
100
AcDbLine
 10
-13.212589
 20
178.148444
 30
0.0
 11
-13.212589
 21
177.648444
 31
0.0
  0
LINE
  5
27A
102
{ACAD_REACTORS
330
3AA
102
}
330
1F
100
AcDbEntity
  8
LC-002-002-----0
 62
     7
370
    50
100
AcDbLine
 10
-13.212589
 20
177.648444
 30
0.0
 11
-13.212589
 21
170.648444
 31
0.0
  0
LINE
  5
27B
102
{ACAD_REACTORS
330
3AA
102
}
330
1F
100
AcDbEntity
  8
LC-002-002-----0
 62
     7
370
    50
100
AcDbLine
 10
3.787411
 20
173.648444
 30
0.0
 11
-8.212589
 21
173.648444
 31
0.0
  0
LINE
  5
27C
102
{ACAD_REACTORS
330
3AA
102
}
330
1F
100
AcDbEntity
  8
LC-002-002-----0
 62
     7
370
    50
100
AcDbLine
 10
13.787411
 20
177.648444
 30
0.0
 11
13.787411
 21
179.148444
 31
0.0
  0
ARC
  5
27D
102
{ACAD_REACTORS
330
3AA
102
}
330
1F
100
AcDbEntity
  8
LC-001-002-RND-0
 62
     7
370
    50
100
AcDbCircle
 10
12.287411
 20
179.148444
 30
0.0
 40
1.5
100
AcDbArc
 50
0.0
 51
90.0
  0
LINE
  5
27E
102
{ACAD_REACTORS
330
3AA
102
}
330
1F
100
AcDbEntity
  8
LC-002-002-----0
 62
     7
370
    50
100
AcDbLine
 10
12.787411
 20
173.648444
 30
0.0
 11
12.787411
 21
177.648444
 31
0.0
  0
ARC
  5
27F
102
{ACAD_REACTORS
330
3AA
102
}
330
1F
100
AcDbEntity
  8
LC-001-002-RND-0
 62
     7
370
    50
100
AcDbCircle
 10
-10.712589
 20
178.148444
 30
0.0
 40
2.5
100
AcDbArc
 50
90.0
 51
180.0
  0
LINE
  5
280
102
{ACAD_REACTORS
330
3AA
102
}
330
1F
100
AcDbEntity
  8
LC-002-002-----0
 62
     7
370
    50
100
AcDbLine
 10
125.265411
 20
170.648444
 30
0.0
 11
96.287411
 21
170.648444
 31
0.0
  0
LINE
  5
281
102
{ACAD_REACTORS
330
3AA
102
}
330
1F
100
AcDbEntity
  8
LC-002-002-----0
 62
     7
370
    50
100
AcDbLine
 10
119.537411
 20
170.148444
 30
0.0
 11
119.537411
 21
170.648444
 31
0.0
  0
LINE
  5
282
102
{ACAD_REACTORS
330
3AA
102
}
330
1F
100
AcDbEntity
  8
LC-002-002-----0
 62
     7
370
    50
100
AcDbLine
 10
102.287411
 20
168.148444
 30
0.0
 11
102.287411
 21
164.648444
 31
0.0
  0
LINE
  5
283
102
{ACAD_REACTORS
330
3AA
102
}
330
1F
100
AcDbEntity
  8
LC-002-002-----0
 62
     7
370
    50
100
AcDbLine
 10
102.287411
 20
164.648444
 30
0.0
 11
98.787411
 21
164.648444
 31
0.0
  0
ARC
  5
284
102
{ACAD_REACTORS
330
3AA
102
}
330
1F
100
AcDbEntity
  8
LC-001-002-RND-0
 62
     7
370
    50
100
AcDbCircle
 10
128.265411
 20
180.648444
 30
0.0
 40
0.5
100
AcDbArc
 50
0.0
 51
90.0
  0
ARC
  5
285
102
{ACAD_REACTORS
330
3AA
102
}
330
1F
100
AcDbEntity
  8
LC-001-002-RND-0
 62
     7
370
    50
100
AcDbCircle
 10
125.765411
 20
180.648444
 30
0.0
 40
0.5
100
AcDbArc
 50
90.0
 51
180.0
  0
LINE
  5
286
102
{ACAD_REACTORS
330
3AA
102
}
330
1F
100
AcDbEntity
  8
LC-002-002-----0
 62
     7
370
    50
100
AcDbLine
 10
98.467063
 20
153.148444
 30
0.0
 11
97.787411
 21
153.148444
 31
0.0
  0
LINE
  5
287
102
{ACAD_REACTORS
330
3AA
102
}
330
1F
100
AcDbEntity
  8
LC-002-002-----0
 62
     7
370
    50
100
AcDbLine
 10
98.987411
 20
162.148444
 30
0.0
 11
98.987411
 21
157.648444
 31
0.0
  0
ARC
  5
288
102
{ACAD_REACTORS
330
3AA
102
}
330
1F
100
AcDbEntity
  8
LC-002-002-----0
 62
     7
370
    50
100
AcDbCircle
 10
98.962411
 20
156.848444
 30
0.0
 40
0.8000000000007448
100
AcDbArc
 50
340.0
 51
88.209215
  0
ARC
  5
289
102
{ACAD_REACTORS
330
3AA
102
}
330
1F
100
AcDbEntity
  8
LC-001-002-RND-0
 62
     7
370
    50
100
AcDbCircle
 10
99.487411
 20
162.148444
 30
0.0
 40
0.5
100
AcDbArc
 50
90.0
 51
180.0
  0
LINE
  5
28A
102
{ACAD_REACTORS
330
3AA
102
}
330
1F
100
AcDbEntity
  8
LC-002-002-----0
 62
     7
370
    50
100
AcDbLine
 10
99.714165
 20
156.574828
 30
0.0
 11
98.467063
 21
153.148444
 31
0.0
  0
LINE
  5
28B
102
{ACAD_REACTORS
330
3AA
102
}
330
1F
100
AcDbEntity
  8
LC-002-002-----0
 62
     7
370
    50
100
AcDbLine
 10
97.787411
 20
163.648444
 30
0.0
 11
97.787411
 21
153.148444
 31
0.0
  0
LINE
  5
28C
102
{ACAD_REACTORS
330
3AA
102
}
330
1F
100
AcDbEntity
  8
LC-002-002-----0
 62
     7
370
    50
100
AcDbLine
 10
104.287411
 20
162.648444
 30
0.0
 11
99.487411
 21
162.648444
 31
0.0
  0
LINE
  5
28D
102
{ACAD_REACTORS
330
3AA
102
}
330
1F
100
AcDbEntity
  8
LC-002-002-----0
 62
     7
370
    50
100
AcDbLine
 10
104.287411
 20
168.148444
 30
0.0
 11
104.287411
 21
162.648444
 31
0.0
  0
LINE
  5
28E
102
{ACAD_REACTORS
330
3AA
102
}
330
1F
100
AcDbEntity
  8
LC-002-002-----0
 62
     7
370
    50
100
AcDbLine
 10
98.787411
 20
164.648444
 30
0.0
 11
55.787411
 21
164.648444
 31
0.0
  0
ARC
  5
28F
102
{ACAD_REACTORS
330
3AA
102
}
330
1F
100
AcDbEntity
  8
LC-001-002-RND-0
 62
     7
370
    50
100
AcDbCircle
 10
104.287411
 20
168.148444
 30
0.0
 40
2.0
100
AcDbArc
 50
90.0
 51
180.0
  0
ARC
  5
290
102
{ACAD_REACTORS
330
3AA
102
}
330
1F
100
AcDbEntity
  8
LC-001-002-RND-0
 62
     7
370
    50
100
AcDbCircle
 10
98.787411
 20
163.648444
 30
0.0
 40
1.0
100
AcDbArc
 50
90.0
 51
180.0
  0
LINE
  5
291
102
{ACAD_REACTORS
330
3AA
102
}
330
1F
100
AcDbEntity
  8
LC-002-002-----0
 62
     7
370
    50
100
AcDbLine
 10
104.287411
 20
168.148444
 30
0.0
 11
129.765411
 21
168.148444
 31
0.0
  0
LINE
  5
292
102
{ACAD_REACTORS
330
3AA
102
}
330
1F
100
AcDbEntity
  8
LC-002-002-----0
 62
     7
370
    50
100
AcDbLine
 10
119.537411
 20
170.148444
 30
0.0
 11
104.287411
 21
170.148444
 31
0.0
  0
LINE
  5
293
102
{ACAD_REACTORS
330
3AA
102
}
330
1F
100
AcDbEntity
  8
LC-002-002-----0
 62
     7
370
    50
100
AcDbLine
 10
125.265411
 20
170.648444
 30
0.0
 11
125.265411
 21
180.648444
 31
0.0
  0
LINE
  5
294
102
{ACAD_REACTORS
330
3AA
102
}
330
1F
100
AcDbEntity
  8
LC-002-002-----0
 62
     7
370
    50
100
AcDbLine
 10
104.287411
 20
170.148444
 30
0.0
 11
96.287411
 21
170.148444
 31
0.0
  0
LINE
  5
295
102
{ACAD_REACTORS
330
3AA
102
}
330
1F
100
AcDbEntity
  8
LC-002-002-----0
 62
     7
370
    50
100
AcDbLine
 10
129.765411
 20
169.148444
 30
0.0
 11
129.765411
 21
168.148444
 31
0.0
  0
LINE
  5
296
102
{ACAD_REACTORS
330
3AA
102
}
330
1F
100
AcDbEntity
  8
LC-002-002-----0
 62
     7
370
    50
100
AcDbLine
 10
128.765411
 20
169.148444
 30
0.0
 11
129.765411
 21
169.148444
 31
0.0
  0
LINE
  5
297
102
{ACAD_REACTORS
330
3AA
102
}
330
1F
100
AcDbEntity
  8
LC-002-002-----0
 62
     7
370
    50
100
AcDbLine
 10
128.765411
 20
169.148444
 30
0.0
 11
128.765411
 21
180.648444
 31
0.0
  0
LINE
  5
298
102
{ACAD_REACTORS
330
3AA
102
}
330
1F
100
AcDbEntity
  8
LC-002-002-----0
 62
     7
370
    50
100
AcDbLine
 10
128.265411
 20
181.148444
 30
0.0
 11
125.765411
 21
181.148444
 31
0.0
  0
LINE
  5
299
102
{ACAD_REACTORS
330
3AA
102
}
330
1F
100
AcDbEntity
  8
LC-002-002-----0
 62
     7
370
    50
100
AcDbLine
 10
129.265411
 20
168.148444
 30
0.0
 11
104.287411
 21
168.148444
 31
0.0
  0
LINE
  5
29A
102
{ACAD_REACTORS
330
3AA
102
}
330
1F
100
AcDbEntity
  8
LC-002-002-----0
 62
     7
370
    50
100
AcDbLine
 10
101.287411
 20
164.648444
 30
0.0
 11
96.20482
 21
164.648444
 31
0.0
  0
LINE
  5
29B
102
{ACAD_REACTORS
330
3AA
102
}
330
1F
100
AcDbEntity
  8
LC-002-002-----0
 62
     7
370
    50
100
AcDbLine
 10
86.787411
 20
175.648444
 30
0.0
 11
90.287411
 21
175.648444
 31
0.0
  0
LINE
  5
29C
102
{ACAD_REACTORS
330
3AA
102
}
330
1F
100
AcDbEntity
  8
LC-002-002-----0
 62
     7
370
    50
100
AcDbLine
 10
86.787411
 20
178.648444
 30
0.0
 11
90.287411
 21
178.648444
 31
0.0
  0
LINE
  5
29D
102
{ACAD_REACTORS
330
3AA
102
}
330
1F
100
AcDbEntity
  8
LC-002-002-----0
 62
     7
370
    50
100
AcDbLine
 10
12.287411
 20
180.648444
 30
0.0
 11
-10.712589
 21
180.648444
 31
0.0
  0
LINE
  5
29E
102
{ACAD_REACTORS
330
3AA
102
}
330
1F
100
AcDbEntity
  8
LC-002-002-----0
 62
     7
370
    50
100
AcDbLine
 10
13.787411
 20
177.648444
 30
0.0
 11
-8.212589
 21
177.648444
 31
0.0
  0
LINE
  5
29F
102
{ACAD_REACTORS
330
3AA
102
}
330
1F
100
AcDbEntity
  8
LC-002-002-----0
 62
     7
370
    50
100
AcDbLine
 10
15.287411
 20
173.648444
 30
0.0
 11
8.787411
 21
173.648444
 31
0.0
  0
INSERT
  5
2B7
102
{ACAD_REACTORS
330
3AA
102
}
330
1F
100
AcDbEntity
  8
LC-004-005-----0
 62
     7
370
    25
100
AcDbBlockReference
  2
*X710
 10
0.0
 20
0.0
 30
0.0
  0
INSERT
  5
2D0
102
{ACAD_REACTORS
330
3AA
102
}
330
1F
100
AcDbEntity
  8
LC-004-005-----0
 62
     7
370
    25
100
AcDbBlockReference
  2
*X811
 10
0.0
 20
0.0
 30
0.0
  0
ARC
  5
2D1
102
{ACAD_REACTORS
330
3AA
102
}
330
1F
100
AcDbEntity
  8
LC-001-002-RND-0
 62
     7
370
    50
100
AcDbCircle
 10
99.287411
 20
179.148444
 30
0.0
 40
1.5
100
AcDbArc
 50
90.0
 51
180.0
  0
LINE
  5
2D2
102
{ACAD_REACTORS
330
3AA
102
}
330
1F
100
AcDbEntity
  8
LC-002-002-----0
 62
     7
370
    50
100
AcDbLine
 10
97.787411
 20
177.648444
 30
0.0
 11
97.787411
 21
179.148444
 31
0.0
  0
LINE
  5
2D3
102
{ACAD_REACTORS
330
3AA
102
}
330
1F
100
AcDbEntity
  8
LC-002-002-----0
 62
     7
370
    50
100
AcDbLine
 10
97.787411
 20
177.648444
 30
0.0
 11
119.787411
 21
177.648444
 31
0.0
  0
LINE
  5
2D4
102
{ACAD_REACTORS
330
3AA
102
}
330
1F
100
AcDbEntity
  8
LC-002-002-----0
 62
     7
370
    50
100
AcDbLine
 10
119.787411
 20
177.648444
 30
0.0
 11
119.787411
 21
170.648444
 31
0.0
  0
LINE
  5
2D5
102
{ACAD_REACTORS
330
3AA
102
}
330
1F
100
AcDbEntity
  8
LC-002-002-----0
 62
     7
370
    50
100
AcDbLine
 10
124.787411
 20
177.648444
 30
0.0
 11
124.787411
 21
170.648444
 31
0.0
  0
ARC
  5
2D6
102
{ACAD_REACTORS
330
3AA
102
}
330
1F
100
AcDbEntity
  8
LC-001-002-RND-0
 62
     7
370
    50
100
AcDbCircle
 10
122.287411
 20
178.148444
 30
0.0
 40
2.5
100
AcDbArc
 50
0.0
 51
90.0
  0
LINE
  5
2D7
102
{ACAD_REACTORS
330
3AA
102
}
330
1F
100
AcDbEntity
  8
LC-002-002-----0
 62
     7
370
    50
100
AcDbLine
 10
99.287411
 20
180.648444
 30
0.0
 11
122.287411
 21
180.648444
 31
0.0
  0
LINE
  5
2D8
102
{ACAD_REACTORS
330
3AA
102
}
330
1F
100
AcDbEntity
  8
LC-002-002-----0
 62
     7
370
    50
100
AcDbLine
 10
107.787411
 20
173.648444
 30
0.0
 11
119.787411
 21
173.648444
 31
0.0
  0
LINE
  5
2D9
102
{ACAD_REACTORS
330
3AA
102
}
330
1F
100
AcDbEntity
  8
LC-002-002-----0
 62
     7
370
    50
100
AcDbLine
 10
107.787411
 20
170.648444
 30
0.0
 11
107.787411
 21
173.648444
 31
0.0
  0
LINE
  5
2DA
102
{ACAD_REACTORS
330
3AA
102
}
330
1F
100
AcDbEntity
  8
LC-002-002-----0
 62
     7
370
    50
100
AcDbLine
 10
102.787411
 20
170.648444
 30
0.0
 11
102.787411
 21
173.648444
 31
0.0
  0
LINE
  5
2DB
102
{ACAD_REACTORS
330
3AA
102
}
330
1F
100
AcDbEntity
  8
LC-002-002-----0
 62
     7
370
    50
100
AcDbLine
 10
96.287411
 20
173.648444
 30
0.0
 11
102.787411
 21
173.648444
 31
0.0
  0
LINE
  5
2DC
102
{ACAD_REACTORS
330
3AA
102
}
330
1F
100
AcDbEntity
  8
LC-002-002-----0
 62
     7
370
    50
100
AcDbLine
 10
98.787411
 20
173.648444
 30
0.0
 11
98.787411
 21
177.648444
 31
0.0
  0
LINE
  5
2DD
102
{ACAD_REACTORS
330
3AA
102
}
330
1F
100
AcDbEntity
  8
LC-002-002-----0
 62
     7
370
    50
100
AcDbLine
 10
96.287411
 20
173.648444
 30
0.0
 11
102.787411
 21
173.648444
 31
0.0
  0
LINE
  5
2DE
102
{ACAD_REACTORS
330
3AA
102
}
330
1F
100
AcDbEntity
  8
LC-002-002-----0
 62
     7
370
    50
100
AcDbLine
 10
7.787411
 20
162.648444
 30
0.0
 11
11.991456
 21
162.648444
 31
0.0
  0
LINE
  5
2DF
102
{ACAD_REACTORS
330
3AA
102
}
330
1F
100
AcDbEntity
  8
LC-002-002-----0
 62
     7
370
    50
100
AcDbLine
 10
103.787411
 20
162.648444
 30
0.0
 11
99.583366
 21
162.648444
 31
0.0
  0
LINE
  5
2E0
102
{ACAD_REACTORS
330
3AA
102
}
330
1F
100
AcDbEntity
  8
LC-002-002-----0
  6
DASHDOT
 62
     7
370
    25
100
AcDbLine
 10
55.787411
 20
189.648444
 30
0.0
 11
55.787411
 21
50.14847
 31
0.0
  0
ARC
  5
2E1
330
1F
100
AcDbEntity
  8
LC-001-002-RND-0
 62
     7
370
    50
100
AcDbCircle
 10
217.765411
 20
182.324222
 30
0.0
 40
2.0
100
AcDbArc
 50
90.0
 51
180.0
  0
ARC
  5
2E2
330
1F
100
AcDbEntity
  8
LC-001-002-RND-0
 62
     7
370
    50
100
AcDbCircle
 10
351.765411
 20
182.324222
 30
0.0
 40
2.0
100
AcDbArc
 50
0.0
 51
90.0
  0
ARC
  5
2E3
330
1F
100
AcDbEntity
  8
LC-001-002-RND-0
 62
     7
370
    50
100
AcDbCircle
 10
227.870573
 20
126.866642
 30
0.0
 40
1.500000000000035
100
AcDbArc
 50
81.0
 51
171.0
  0
ARC
  5
2E4
330
1F
100
AcDbEntity
  8
LC-001-002-RND-0
 62
     7
370
    50
100
AcDbCircle
 10
239.722833
 20
124.989428
 30
0.0
 40
1.500000000000012
100
AcDbArc
 50
351.0
 51
81.0
  0
ARC
  5
2E5
330
1F
100
AcDbEntity
  8
LC-001-002-RND-0
 62
     7
370
    50
100
AcDbCircle
 10
238.940661
 20
120.050987
 30
0.0
 40
1.499999999999988
100
AcDbArc
 50
261.0
 51
351.0
  0
ARC
  5
2E6
330
1F
100
AcDbEntity
  8
LC-001-002-RND-0
 62
     7
370
    50
100
AcDbCircle
 10
227.088401
 20
121.9282
 30
0.0
 40
1.50000000000001
100
AcDbArc
 50
171.0
 51
261.0
  0
ARC
  5
2E7
330
1F
100
AcDbEntity
  8
LC-001-002-RND-0
 62
     7
370
    50
100
AcDbCircle
 10
228.87597
 20
146.60713
 30
0.0
 40
1.500000000000028
100
AcDbArc
 50
63.0
 51
153.0
  0
ARC
  5
2E8
330
1F
100
AcDbEntity
  8
LC-001-002-RND-0
 62
     7
370
    50
100
AcDbCircle
 10
244.914087
 20
138.435301
 30
0.0
 40
1.49999999999999
100
AcDbArc
 50
333.0
 51
63.0
  0
ARC
  5
2E9
330
1F
100
AcDbEntity
  8
LC-002-002-----0
 62
     7
370
    50
100
AcDbCircle
 10
284.765411
 20
115.324222
 30
0.0
 40
42.00000000000006
100
AcDbArc
 50
0.0
 51
180.0
  0
LINE
  5
2EA
330
1F
100
AcDbEntity
  8
LC-002-002-----0
 62
     7
370
    50
100
AcDbLine
 10
326.765411
 20
115.324222
 30
0.0
 11
353.765411
 21
115.324222
 31
0.0
  0
LINE
  5
2EB
330
1F
100
AcDbEntity
  8
LC-002-002-----0
 62
     7
370
    50
100
AcDbLine
 10
353.765411
 20
115.324222
 30
0.0
 11
353.765411
 21
182.324222
 31
0.0
  0
LINE
  5
2EC
330
1F
100
AcDbEntity
  8
LC-002-002-----0
 62
     7
370
    50
100
AcDbLine
 10
351.765411
 20
184.324222
 30
0.0
 11
217.765411
 21
184.324222
 31
0.0
  0
LINE
  5
2ED
330
1F
100
AcDbEntity
  8
LC-002-002-----0
 62
     7
370
    50
100
AcDbLine
 10
215.765411
 20
182.324222
 30
0.0
 11
215.765411
 21
115.324222
 31
0.0
  0
LINE
  5
2EE
330
1F
100
AcDbEntity
  8
LC-002-002-----0
 62
     7
370
    50
100
AcDbLine
 10
215.765411
 20
115.324222
 30
0.0
 11
242.765411
 21
115.324222
 31
0.0
  0
LINE
  5
2EF
330
1F
100
AcDbEntity
  8
LC-002-002-----0
 62
     7
370
    50
100
AcDbLine
 10
239.957485
 20
126.470961
 30
0.0
 11
228.105225
 21
128.348175
 31
0.0
  0
LINE
  5
2F0
330
1F
100
AcDbEntity
  8
LC-002-002-----0
 62
     7
370
    50
100
AcDbLine
 10
226.389041
 20
127.101294
 30
0.0
 11
225.606869
 21
122.162852
 31
0.0
  0
LINE
  5
2F1
330
1F
100
AcDbEntity
  8
LC-002-002-----0
 62
     7
370
    50
100
AcDbLine
 10
226.853749
 20
120.446668
 30
0.0
 11
238.706009
 21
118.569454
 31
0.0
  0
LINE
  5
2F2
330
1F
100
AcDbEntity
  8
LC-002-002-----0
 62
     7
370
    50
100
AcDbLine
 10
240.422194
 20
119.816335
 30
0.0
 11
241.204366
 21
124.754777
 31
0.0
  0
ARC
  5
2F3
330
1F
100
AcDbEntity
  8
LC-001-002-RND-0
 62
     7
370
    50
100
AcDbCircle
 10
242.644135
 20
133.980269
 30
0.0
 40
1.499999999999965
100
AcDbArc
 50
243.0
 51
333.0
  0
ARC
  5
2F4
330
1F
100
AcDbEntity
  8
LC-001-002-RND-0
 62
     7
370
    50
100
AcDbCircle
 10
226.606017
 20
142.152098
 30
0.0
 40
1.500000000000028
100
AcDbArc
 50
153.0
 51
243.0
  0
LINE
  5
2F5
330
1F
100
AcDbEntity
  8
LC-002-002-----0
 62
     7
370
    50
100
AcDbLine
 10
245.595073
 20
139.771811
 30
0.0
 11
229.556955
 21
147.94364
 31
0.0
  0
LINE
  5
2F6
330
1F
100
AcDbEntity
  8
LC-002-002-----0
 62
     7
370
    50
100
AcDbLine
 10
227.53946
 20
147.288116
 30
0.0
 11
225.269507
 21
142.833084
 31
0.0
  0
LINE
  5
2F7
330
1F
100
AcDbEntity
  8
LC-002-002-----0
 62
     7
370
    50
100
AcDbLine
 10
225.925031
 20
140.815588
 30
0.0
 11
241.963149
 21
132.643759
 31
0.0
  0
LINE
  5
2F8
330
1F
100
AcDbEntity
  8
LC-002-002-----0
 62
     7
370
    50
100
AcDbLine
 10
243.980644
 20
133.299283
 30
0.0
 11
246.250597
 21
137.754316
 31
0.0
  0
ARC
  5
2F9
330
1F
100
AcDbEntity
  8
LC-001-002-RND-0
 62
     7
370
    50
100
AcDbCircle
 10
230.671742
 20
172.953425
 30
0.0
 40
1.500000000000012
100
AcDbArc
 50
45.0
 51
135.0
  0
ARC
  5
2FA
330
1F
100
AcDbEntity
  8
LC-001-002-RND-0
 62
     7
370
    50
100
AcDbCircle
 10
254.006266
 20
149.618901
 30
0.0
 40
1.499999999999972
100
AcDbArc
 50
315.0
 51
45.0
  0
ARC
  5
2FB
330
1F
100
AcDbEntity
  8
LC-001-002-RND-0
 62
     7
370
    50
100
AcDbCircle
 10
250.470732
 20
146.083367
 30
0.0
 40
1.500000000000032
100
AcDbArc
 50
225.0
 51
315.0
  0
ARC
  5
2FC
330
1F
100
AcDbEntity
  8
LC-001-002-RND-0
 62
     7
370
    50
100
AcDbCircle
 10
227.136208
 20
169.417891
 30
0.0
 40
1.500000000000052
100
AcDbArc
 50
135.0
 51
225.0
  0
LINE
  5
2FD
330
1F
100
AcDbEntity
  8
LC-002-002-----0
 62
     7
370
    50
100
AcDbLine
 10
255.066926
 20
150.679561
 30
0.0
 11
231.732402
 21
174.014085
 31
0.0
  0
LINE
  5
2FE
330
1F
100
AcDbEntity
  8
LC-002-002-----0
 62
     7
370
    50
100
AcDbLine
 10
229.611082
 20
174.014085
 30
0.0
 11
226.075548
 21
170.478551
 31
0.0
  0
LINE
  5
2FF
330
1F
100
AcDbEntity
  8
LC-002-002-----0
 62
     7
370
    50
100
AcDbLine
 10
226.075548
 20
168.357231
 30
0.0
 11
249.410072
 21
145.022707
 31
0.0
  0
LINE
  5
300
330
1F
100
AcDbEntity
  8
LC-002-002-----0
 62
     7
370
    50
100
AcDbLine
 10
251.531392
 20
145.022707
 30
0.0
 11
255.066926
 21
148.558241
 31
0.0
  0
ARC
  5
301
330
1F
100
AcDbEntity
  8
LC-001-002-RND-0
 62
     7
370
    50
100
AcDbCircle
 10
257.937535
 20
173.483616
 30
0.0
 40
1.49999999999999
100
AcDbArc
 50
27.0
 51
117.0
  0
ARC
  5
302
330
1F
100
AcDbEntity
  8
LC-001-002-RND-0
 62
     7
370
    50
100
AcDbCircle
 10
266.109364
 20
157.445499
 30
0.0
 40
1.499999999999952
100
AcDbArc
 50
297.0
 51
27.0
  0
ARC
  5
303
330
1F
100
AcDbEntity
  8
LC-001-002-RND-0
 62
     7
370
    50
100
AcDbCircle
 10
261.654332
 20
155.175546
 30
0.0
 40
1.500000000000003
100
AcDbArc
 50
207.0
 51
297.0
  0
ARC
  5
304
330
1F
100
AcDbEntity
  8
LC-001-002-RND-0
 62
     7
370
    50
100
AcDbCircle
 10
253.482503
 20
171.213663
 30
0.0
 40
1.500000000000029
100
AcDbArc
 50
117.0
 51
207.0
  0
LINE
  5
305
330
1F
100
AcDbEntity
  8
LC-002-002-----0
 62
     7
370
    50
100
AcDbLine
 10
267.445874
 20
158.126484
 30
0.0
 11
259.274045
 21
174.164602
 31
0.0
  0
LINE
  5
306
330
1F
100
AcDbEntity
  8
LC-002-002-----0
 62
     7
370
    50
100
AcDbLine
 10
257.25655
 20
174.820126
 30
0.0
 11
252.801517
 21
172.550173
 31
0.0
  0
LINE
  5
307
330
1F
100
AcDbEntity
  8
LC-002-002-----0
 62
     7
370
    50
100
AcDbLine
 10
252.145993
 20
170.532678
 30
0.0
 11
260.317822
 21
154.49456
 31
0.0
  0
LINE
  5
308
330
1F
100
AcDbEntity
  8
LC-002-002-----0
 62
     7
370
    50
100
AcDbLine
 10
262.335317
 20
153.839036
 30
0.0
 11
266.79035
 21
156.108989
 31
0.0
  0
ARC
  5
309
330
1F
100
AcDbEntity
  8
LC-001-002-RND-0
 62
     7
370
    50
100
AcDbCircle
 10
278.161433
 20
173.001232
 30
0.0
 40
1.500000000000053
100
AcDbArc
 50
9.0
 51
99.0
  0
ARC
  5
30A
330
1F
100
AcDbEntity
  8
LC-001-002-RND-0
 62
     7
370
    50
100
AcDbCircle
 10
280.038646
 20
161.148972
 30
0.0
 40
1.499999999999979
100
AcDbArc
 50
279.0
 51
9.0
  0
ARC
  5
30B
330
1F
100
AcDbEntity
  8
LC-001-002-RND-0
 62
     7
370
    50
100
AcDbCircle
 10
275.100205
 20
160.3668
 30
0.0
 40
1.499999999999988
100
AcDbArc
 50
189.0
 51
279.0
  0
ARC
  5
30C
330
1F
100
AcDbEntity
  8
LC-001-002-RND-0
 62
     7
370
    50
100
AcDbCircle
 10
273.222991
 20
172.21906
 30
0.0
 40
1.500000000000044
100
AcDbArc
 50
99.0
 51
189.0
  0
LINE
  5
30D
330
1F
100
AcDbEntity
  8
LC-002-002-----0
 62
     7
370
    50
100
AcDbLine
 10
281.520179
 20
161.383624
 30
0.0
 11
279.642965
 21
173.235884
 31
0.0
  0
LINE
  5
30E
330
1F
100
AcDbEntity
  8
LC-002-002-----0
 62
     7
370
    50
100
AcDbLine
 10
277.926781
 20
174.482765
 30
0.0
 11
272.988339
 21
173.700592
 31
0.0
  0
LINE
  5
30F
330
1F
100
AcDbEntity
  8
LC-002-002-----0
 62
     7
370
    50
100
AcDbLine
 10
271.741459
 20
171.984408
 30
0.0
 11
273.618672
 21
160.132148
 31
0.0
  0
LINE
  5
310
330
1F
100
AcDbEntity
  8
LC-002-002-----0
 62
     7
370
    50
100
AcDbLine
 10
275.334856
 20
158.885267
 30
0.0
 11
280.273298
 21
159.667439
 31
0.0
  0
ARC
  5
311
330
1F
100
AcDbEntity
  8
LC-001-002-RND-0
 62
     7
370
    50
100
AcDbCircle
 10
296.307831
 20
172.21906
 30
0.0
 40
1.500000000000035
100
AcDbArc
 50
351.0
 51
81.0
  0
ARC
  5
312
330
1F
100
AcDbEntity
  8
LC-001-002-RND-0
 62
     7
370
    50
100
AcDbCircle
 10
294.430617
 20
160.3668
 30
0.0
 40
1.500000000000035
100
AcDbArc
 50
261.0
 51
351.0
  0
ARC
  5
313
330
1F
100
AcDbEntity
  8
LC-001-002-RND-0
 62
     7
370
    50
100
AcDbCircle
 10
289.492176
 20
161.148972
 30
0.0
 40
1.499999999999988
100
AcDbArc
 50
171.0
 51
261.0
  0
ARC
  5
314
330
1F
100
AcDbEntity
  8
LC-001-002-RND-0
 62
     7
370
    50
100
AcDbCircle
 10
291.369389
 20
173.001232
 30
0.0
 40
1.500000000000044
100
AcDbArc
 50
81.0
 51
171.0
  0
LINE
  5
315
330
1F
100
AcDbEntity
  8
LC-002-002-----0
 62
     7
370
    50
100
AcDbLine
 10
295.91215
 20
160.132148
 30
0.0
 11
297.789363
 21
171.984408
 31
0.0
  0
LINE
  5
316
330
1F
100
AcDbEntity
  8
LC-002-002-----0
 62
     7
370
    50
100
AcDbLine
 10
296.542483
 20
173.700592
 30
0.0
 11
291.604041
 21
174.482765
 31
0.0
  0
LINE
  5
317
330
1F
100
AcDbEntity
  8
LC-002-002-----0
 62
     7
370
    50
100
AcDbLine
 10
289.887857
 20
173.235884
 30
0.0
 11
288.010643
 21
161.383624
 31
0.0
  0
LINE
  5
318
330
1F
100
AcDbEntity
  8
LC-002-002-----0
 62
     7
370
    50
100
AcDbLine
 10
289.257524
 20
159.667439
 30
0.0
 11
294.195966
 21
158.885267
 31
0.0
  0
ARC
  5
319
330
1F
100
AcDbEntity
  8
LC-001-002-RND-0
 62
     7
370
    50
100
AcDbCircle
 10
316.048319
 20
171.213663
 30
0.0
 40
1.500000000000002
100
AcDbArc
 50
333.0
 51
63.0
  0
ARC
  5
31A
330
1F
100
AcDbEntity
  8
LC-001-002-RND-0
 62
     7
370
    50
100
AcDbCircle
 10
307.87649
 20
155.175546
 30
0.0
 40
1.500000000000028
100
AcDbArc
 50
243.0
 51
333.0
  0
ARC
  5
31B
330
1F
100
AcDbEntity
  8
LC-001-002-RND-0
 62
     7
370
    50
100
AcDbCircle
 10
303.421458
 20
157.445499
 30
0.0
 40
1.499999999999965
100
AcDbArc
 50
153.0
 51
243.0
  0
ARC
  5
31C
330
1F
100
AcDbEntity
  8
LC-001-002-RND-0
 62
     7
370
    50
100
AcDbCircle
 10
311.593287
 20
173.483616
 30
0.0
 40
1.499999999999977
100
AcDbArc
 50
63.0
 51
153.0
  0
LINE
  5
31D
330
1F
100
AcDbEntity
  8
LC-002-002-----0
 62
     7
370
    50
100
AcDbLine
 10
309.213
 20
154.49456
 30
0.0
 11
317.384829
 21
170.532678
 31
0.0
  0
LINE
  5
31E
330
1F
100
AcDbEntity
  8
LC-002-002-----0
 62
     7
370
    50
100
AcDbLine
 10
316.729305
 20
172.550173
 30
0.0
 11
312.274272
 21
174.820126
 31
0.0
  0
LINE
  5
31F
330
1F
100
AcDbEntity
  8
LC-002-002-----0
 62
     7
370
    50
100
AcDbLine
 10
310.256777
 20
174.164602
 30
0.0
 11
302.084948
 21
158.126484
 31
0.0
  0
LINE
  5
320
330
1F
100
AcDbEntity
  8
LC-002-002-----0
 62
     7
370
    50
100
AcDbLine
 10
302.740472
 20
156.108989
 30
0.0
 11
307.195505
 21
153.839036
 31
0.0
  0
ARC
  5
321
330
1F
100
AcDbEntity
  8
LC-001-002-RND-0
 62
     7
370
    50
100
AcDbCircle
 10
342.394614
 20
169.417891
 30
0.0
 40
1.500000000000093
100
AcDbArc
 50
315.0
 51
45.0
  0
ARC
  5
322
330
1F
100
AcDbEntity
  8
LC-001-002-RND-0
 62
     7
370
    50
100
AcDbCircle
 10
319.06009
 20
146.083367
 30
0.0
 40
1.500000000000012
100
AcDbArc
 50
225.0
 51
315.0
  0
ARC
  5
323
330
1F
100
AcDbEntity
  8
LC-001-002-RND-0
 62
     7
370
    50
100
AcDbCircle
 10
315.524556
 20
149.618901
 30
0.0
 40
1.500000000000032
100
AcDbArc
 50
135.0
 51
225.0
  0
ARC
  5
324
330
1F
100
AcDbEntity
  8
LC-001-002-RND-0
 62
     7
370
    50
100
AcDbCircle
 10
338.85908
 20
172.953425
 30
0.0
 40
1.500000000000012
100
AcDbArc
 50
45.0
 51
135.0
  0
LINE
  5
325
330
1F
100
AcDbEntity
  8
LC-002-002-----0
 62
     7
370
    50
100
AcDbLine
 10
320.12075
 20
145.022707
 30
0.0
 11
343.455274
 21
168.357231
 31
0.0
  0
LINE
  5
326
330
1F
100
AcDbEntity
  8
LC-002-002-----0
 62
     7
370
    50
100
AcDbLine
 10
343.455274
 20
170.478551
 30
0.0
 11
339.91974
 21
174.014085
 31
0.0
  0
LINE
  5
327
330
1F
100
AcDbEntity
  8
LC-002-002-----0
 62
     7
370
    50
100
AcDbLine
 10
337.79842
 20
174.014085
 30
0.0
 11
314.463896
 21
150.679561
 31
0.0
  0
LINE
  5
328
330
1F
100
AcDbEntity
  8
LC-002-002-----0
 62
     7
370
    50
100
AcDbLine
 10
314.463896
 20
148.558241
 30
0.0
 11
317.99943
 21
145.022707
 31
0.0
  0
ARC
  5
329
330
1F
100
AcDbEntity
  8
LC-001-002-RND-0
 62
     7
370
    50
100
AcDbCircle
 10
342.924805
 20
142.152098
 30
0.0
 40
1.500000000000054
100
AcDbArc
 50
297.0
 51
27.0
  0
ARC
  5
32A
330
1F
100
AcDbEntity
  8
LC-001-002-RND-0
 62
     7
370
    50
100
AcDbCircle
 10
326.886687
 20
133.980269
 30
0.0
 40
1.49999999999999
100
AcDbArc
 50
207.0
 51
297.0
  0
ARC
  5
32B
330
1F
100
AcDbEntity
  8
LC-001-002-RND-0
 62
     7
370
    50
100
AcDbCircle
 10
324.616735
 20
138.435301
 30
0.0
 40
1.500000000000003
100
AcDbArc
 50
117.0
 51
207.0
  0
ARC
  5
32C
330
1F
100
AcDbEntity
  8
LC-001-002-RND-0
 62
     7
370
    50
100
AcDbCircle
 10
340.654852
 20
146.60713
 30
0.0
 40
1.500000000000054
100
AcDbArc
 50
27.0
 51
117.0
  0
LINE
  5
32D
330
1F
100
AcDbEntity
  8
LC-002-002-----0
 62
     7
370
    50
100
AcDbLine
 10
327.567673
 20
132.643759
 30
0.0
 11
343.605791
 21
140.815588
 31
0.0
  0
LINE
  5
32E
330
1F
100
AcDbEntity
  8
LC-002-002-----0
 62
     7
370
    50
100
AcDbLine
 10
344.261315
 20
142.833084
 30
0.0
 11
341.991362
 21
147.288116
 31
0.0
  0
LINE
  5
32F
330
1F
100
AcDbEntity
  8
LC-002-002-----0
 62
     7
370
    50
100
AcDbLine
 10
339.973867
 20
147.94364
 30
0.0
 11
323.935749
 21
139.771811
 31
0.0
  0
LINE
  5
330
330
1F
100
AcDbEntity
  8
LC-002-002-----0
 62
     7
370
    50
100
AcDbLine
 10
323.280225
 20
137.754316
 30
0.0
 11
325.550178
 21
133.299283
 31
0.0
  0
ARC
  5
331
330
1F
100
AcDbEntity
  8
LC-001-002-RND-0
 62
     7
370
    50
100
AcDbCircle
 10
342.442421
 20
121.9282
 30
0.0
 40
1.500000000000039
100
AcDbArc
 50
279.0
 51
9.0
  0
ARC
  5
332
330
1F
100
AcDbEntity
  8
LC-001-002-RND-0
 62
     7
370
    50
100
AcDbCircle
 10
330.590161
 20
120.050987
 30
0.0
 40
1.499999999999993
100
AcDbArc
 50
189.0
 51
279.0
  0
ARC
  5
333
330
1F
100
AcDbEntity
  8
LC-001-002-RND-0
 62
     7
370
    50
100
AcDbCircle
 10
329.807988
 20
124.989428
 30
0.0
 40
1.499999999999993
100
AcDbArc
 50
99.0
 51
189.0
  0
ARC
  5
334
330
1F
100
AcDbEntity
  8
LC-001-002-RND-0
 62
     7
370
    50
100
AcDbCircle
 10
341.660249
 20
126.866642
 30
0.0
 40
1.499999999999986
100
AcDbArc
 50
9.0
 51
99.0
  0
LINE
  5
335
330
1F
100
AcDbEntity
  8
LC-002-002-----0
 62
     7
370
    50
100
AcDbLine
 10
330.824813
 20
118.569454
 30
0.0
 11
342.677073
 21
120.446668
 31
0.0
  0
LINE
  5
336
330
1F
100
AcDbEntity
  8
LC-002-002-----0
 62
     7
370
    50
100
AcDbLine
 10
343.923953
 20
122.162852
 30
0.0
 11
343.141781
 21
127.101294
 31
0.0
  0
LINE
  5
337
330
1F
100
AcDbEntity
  8
LC-002-002-----0
 62
     7
370
    50
100
AcDbLine
 10
341.425597
 20
128.348175
 30
0.0
 11
329.573337
 21
126.470961
 31
0.0
  0
LINE
  5
338
330
1F
100
AcDbEntity
  8
LC-002-002-----0
 62
     7
370
    50
100
AcDbLine
 10
328.326456
 20
124.754777
 30
0.0
 11
329.108628
 21
119.816335
 31
0.0
  0
LINE
  5
339
102
{ACAD_REACTORS
330
3AA
102
}
330
1F
100
AcDbEntity
  8
LC-002-002-----0
 62
     7
370
    50
100
AcDbLine
 10
11.787411
 20
151.648444
 30
0.0
 11
99.787411
 21
151.648444
 31
0.0
  0
LINE
  5
33A
102
{ACAD_REACTORS
330
3AA
102
}
330
1F
100
AcDbEntity
  8
LC-002-002-----0
 62
     7
370
    50
100
AcDbLine
 10
13.787411
 20
153.148444
 30
0.0
 11
97.787411
 21
153.148444
 31
0.0
  0
DIMENSION
  5
33B
330
1F
100
AcDbEntity
  8
LC-003-003-----0
 62
     7
370
    25
100
AcDbDimension
  2
*D12
 10
84.287411
 20
217.998
 30
0.0
 11
183.405771
 21
248.798
 31
0.0
 70
   160
  1
DN50
 71
     5
 42
57.0
  3
LC-DIM-L-0140-02-02
100
AcDbAlignedDimension
 13
27.287411
 23
189.648444
 33
0.0
 14
84.287411
 24
189.648444
 34
0.0
100
AcDbRotatedDimension
  0
LINE
  5
349
330
1F
100
AcDbEntity
  8
LC-002-002-----0
 62
     7
370
    25
100
AcDbLine
 10
3.787411
 20
67.148444
 30
0.0
 11
107.787411
 21
67.148444
 31
0.0
  0
INSERT
  5
364
330
1F
100
AcDbEntity
  8
LC-004-005-----0
 62
     7
370
    25
100
AcDbBlockReference
  2
*X913
 10
0.0
 20
0.0
 30
0.0
  0
INSERT
  5
37F
330
1F
100
AcDbEntity
  8
LC-004-005-----0
 62
     7
370
    25
100
AcDbBlockReference
  2
*X1014
 10
0.0
 20
0.0
 30
0.0
  0
DIMENSION
  5
380
330
1F
100
AcDbEntity
  8
LC-003-003-----0
 62
     7
370
    25
100
AcDbDimension
  2
*D15
 10
144.0021
 20
67.147311
 30
0.0
 11
113.201881
 21
60.148276
 31
0.0
 70
   160
 71
     5
 42
14.0
 53
89.998207
  3
LC-DIM-L-0140-02-02
100
AcDbAlignedDimension
 13
107.786973
 23
53.148444
 33
0.0
 14
107.787411
 24
67.148444
 34
0.0
 50
89.998207
100
AcDbRotatedDimension
  0
DIMENSION
  5
38F
330
1F
100
AcDbEntity
  8
LC-003-003-----0
 62
     7
370
    25
100
AcDbDimension
  2
*D16
 10
191.384039
 20
181.148444
 30
0.0
 11
160.584039
 21
116.424
 31
0.0
 70
   160
  1
16-114
 71
     5
 42
114.0
 53
90.0
  3
LC-DIM-L-0140-02-02
100
AcDbAlignedDimension
 13
107.787411
 23
67.148444
 33
0.0
 14
127.015411
 24
181.148444
 34
0.0
 50
90.0
100
AcDbRotatedDimension
  0
DIMENSION
  5
39C
330
1F
100
AcDbEntity
  8
LC-003-003-----0
 62
     7
370
    25
100
AcDbDimension
  2
*D17
 10
-41.758706
 20
168.148444
 30
0.0
 11
-72.558706
 21
163.944
 31
0.0
 70
   160
 71
     5
 42
13.0
 53
90.0
  3
LC-DIM-L-0140-02-02
100
AcDbAlignedDimension
 13
-16.690589
 23
181.148444
 33
0.0
 14
-17.690589
 24
168.148444
 34
0.0
 50
90.0
100
AcDbRotatedDimension
  0
ENDSEC
  0
SECTION
  2
OBJECTS
  0
DICTIONARY
  5
C
330
0
100
AcDbDictionary
281
     1
  3
ACAD_GROUP
350
D
  3
ACAD_LAYOUT
350
1A
  3
ACAD_MLINESTYLE
350
17
  3
ACAD_PLOTSETTINGS
350
19
  3
ACAD_PLOTSTYLENAME
350
E
  0
DICTIONARY
  5
D
102
{ACAD_REACTORS
330
C
102
}
330
C
100
AcDbDictionary
281
     1
  3
LCGROUP1796
350
3AA
  0
DICTIONARY
  5
1A
102
{ACAD_REACTORS
330
C
102
}
330
C
100
AcDbDictionary
281
     1
  3
Layout1
350
1E
  3
Layout2
350
26
  3
Model
350
22
  0
DICTIONARY
  5
17
102
{ACAD_REACTORS
330
C
102
}
330
C
100
AcDbDictionary
281
     1
  3
Standard
350
18
  0
DICTIONARY
  5
19
102
{ACAD_REACTORS
330
C
102
}
330
C
100
AcDbDictionary
281
     1
  0
ACDBDICTIONARYWDFLT
  5
E
102
{ACAD_REACTORS
330
C
102
}
330
C
100
AcDbDictionary
281
     1
  3
Normal
350
F
100
AcDbDictionaryWithDefault
340
F
  0
GROUP
  5
3AA
102
{ACAD_REACTORS
330
D
102
}
330
D
100
AcDbGroup
300
Aufsatz
 70
     1
 71
     1
340
6E
340
6F
340
70
340
78
340
79
340
7A
340
7B
340
7C
340
7D
340
7E
340
7F
340
80
340
81
340
82
340
83
340
84
340
85
340
86
340
96
340
9A
340
9B
340
9C
340
9D
340
9E
340
9F
340
A0
340
A1
340
A2
340
AF
340
B0
340
B1
340
B2
340
B3
340
B4
340
B5
340
B6
340
B7
340
B8
340
B9
340
BF
340
C0
340
C1
340
C2
340
C3
340
C4
340
C5
340
C6
340
C7
340
C8
340
C9
340
CA
340
CB
340
CC
340
FA
340
FB
340
FC
340
FD
340
FE
340
FF
340
100
340
101
340
102
340
103
340
104
340
105
340
106
340
136
340
1ED
340
1EE
340
20A
340
20B
340
20C
340
20D
340
20E
340
20F
340
210
340
211
340
212
340
213
340
214
340
215
340
216
340
217
340
218
340
219
340
21A
340
21B
340
21C
340
21D
340
21E
340
21F
340
220
340
221
340
222
340
223
340
224
340
225
340
226
340
227
340
228
340
229
340
22A
340
22B
340
22C
340
248
340
249
340
24A
340
24B
340
24C
340
24D
340
24E
340
24F
340
250
340
251
340
252
340
253
340
254
340
255
340
256
340
257
340
258
340
259
340
25A
340
25B
340
25C
340
25D
340
25E
340
25F
340
260
340
261
340
262
340
263
340
264
340
265
340
266
340
267
340
268
340
269
340
26A
340
26B
340
26C
340
26D
340
26E
340
26F
340
270
340
271
340
272
340
273
340
274
340
275
340
276
340
277
340
278
340
279
340
27A
340
27B
340
27C
340
27D
340
27E
340
27F
340
280
340
281
340
282
340
283
340
284
340
285
340
286
340
287
340
288
340
289
340
28A
340
28B
340
28C
340
28D
340
28E
340
28F
340
290
340
291
340
292
340
293
340
294
340
295
340
296
340
297
340
298
340
299
340
29A
340
29B
340
29C
340
29D
340
29E
340
29F
340
2B7
340
2D0
340
2D1
340
2D2
340
2D3
340
2D4
340
2D5
340
2D6
340
2D7
340
2D8
340
2D9
340
2DA
340
2DB
340
2DC
340
2DD
340
2DE
340
2DF
340
2E0
340
339
340
33A
  0
LAYOUT
  5
1E
102
{ACAD_REACTORS
330
1A
102
}
330
1A
100
AcDbPlotSettings
  1

  2

  4

  6

 40
0.0
 41
0.0
 42
0.0
 43
0.0
 44
0.0
 45
0.0
 46
0.0
 47
0.0
 48
0.0
 49
0.0
140
0.0
141
0.0
142
1.0
143
1.0
 70
   688
 72
     0
 73
     0
 74
     5
  7

 75
    16
147
1.0
148
0.0
149
0.0
100
AcDbLayout
  1
Layout1
 70
     1
 71
     1
 10
-210.0
 20
-148.5
 11
630.0
 21
445.5
 12
0.0
 22
0.0
 32
0.0
 14
-210.0
 24
-148.5
 34
0.0
 15
630.0
 25
445.5
 35
0.0
146
0.0
 13
0.0
 23
0.0
 33
0.0
 16
1.0
 26
0.0
 36
0.0
 17
0.0
 27
1.0
 37
0.0
 76
     0
330
1B
  0
LAYOUT
  5
26
102
{ACAD_REACTORS
330
1A
102
}
330
1A
100
AcDbPlotSettings
  1

  2

  4

  6

 40
0.0
 41
0.0
 42
0.0
 43
0.0
 44
0.0
 45
0.0
 46
0.0
 47
0.0
 48
0.0
 49
0.0
140
0.0
141
0.0
142
1.0
143
1.0
 70
   688
 72
     0
 73
     0
 74
     5
  7

 75
    16
147
1.0
148
0.0
149
0.0
100
AcDbLayout
  1
Layout2
 70
     1
 71
     2
 10
0.0
 20
0.0
 11
0.0
 21
0.0
 12
0.0
 22
0.0
 32
0.0
 14
0.0
 24
0.0
 34
0.0
 15
0.0
 25
0.0
 35
0.0
146
0.0
 13
0.0
 23
0.0
 33
0.0
 16
1.0
 26
0.0
 36
0.0
 17
0.0
 27
1.0
 37
0.0
 76
     0
330
23
  0
LAYOUT
  5
22
102
{ACAD_REACTORS
330
1A
102
}
330
1A
100
AcDbPlotSettings
  1

  2

  4

  6

 40
0.0
 41
0.0
 42
0.0
 43
0.0
 44
0.0
 45
0.0
 46
0.0
 47
0.0
 48
0.0
 49
0.0
140
0.0
141
0.0
142
1.0
143
1.0
 70
  1776
 72
     0
 73
     0
 74
     0
  7

 75
     0
147
1.0
148
0.0
149
0.0
100
AcDbLayout
  1
Model
 70
     1
 71
     0
 10
-210.0
 20
-148.5
 11
630.0
 21
445.5
 12
0.0
 22
0.0
 32
0.0
 14
-210.0
 24
-148.5
 34
0.0
 15
630.0
 25
445.5
 35
0.0
146
0.0
 13
0.0
 23
0.0
 33
0.0
 16
1.0
 26
0.0
 36
0.0
 17
0.0
 27
1.0
 37
0.0
 76
     0
330
1F
  0
MLINESTYLE
  5
18
102
{ACAD_REACTORS
330
17
102
}
330
17
100
AcDbMlineStyle
  2
Standard
 70
     0
  3

 62
   256
 51
90.0
 52
90.0
 71
     2
 49
0.5
 62
   256
  6
BYLAYER
 49
-0.5
 62
   256
  6
BYLAYER
  0
ACDBPLACEHOLDER
  5
F
102
{ACAD_REACTORS
330
E
102
}
330
E
  0
ENDSEC
  0
EOF
